999
DXF file: fg-008102-2d-B.dxf
999
Pro/ENGINEER 2016130 by Parametric Technology Corporation
  0
SECTION
  2
HEADER
  9
$ACADVER
  1
AC1015
  9
$DWGCODEPAGE
  3
ANSI_1252
  9
$EXTMAX
 10
102.0
 20
66.0
 30
0.0
  9
$EXTMIN
 10
0.0
 20
0.0
 30
0.0
  9
$LIMMIN
 10
0.0
 20
0.0
  9
$LIMMAX
 10
102.0
 20
66.0
  9
$VIEWCTR
 10
51.0
 20
33.0
  9
$VIEWSIZE
 40
66.0
  9
$CLAYER
  8
0
  9
$LTSCALE
 40
5.61
  9
$CELTYPE
  6
BYLAYER
  9
$DIMSCALE
 40
1.0
  9
$DIMASZ
 40
0.5625
  9
$DIMEXO
 40
0.0625
  9
$DIMDLI
 40
3.876
  9
$DIMEXE
 40
0.125
  9
$DIMCEN
 40
0.918
  9
$DIMLFAC
 40
1.0
  9
$DIMBLK
  1
_FILLED
  9
$DIMALT
 70
0
  9
$DIMALTF
 40
25.4
  9
$DIMTXT
 40
0.46875
  9
$DIMTOL
 70
1
  9
$DIMLIM
 70
0
  9
$DIMTFAC
 40
1.0
  9
$DIMTP
 40
0.01
  9
$DIMTM
 40
0.01
  9
$DIMGAP
 40
0.09
  9
$DIMDSEP
 70
46
  9
$AUNITS
 70
0
  9
$PDMODE
 70
3
  9
$PDSIZE
 40
0.3125
  9
$HANDSEED
  5
5AB
  9
$TILEMODE
 70
1
  9
$MEASUREMENT
 70
0
  9
$INSUNITS
 70
1
  0
ENDSEC
  0
SECTION
  2
CLASSES
  0
CLASS
  1
ACDBDICTIONARYWDFLT
  2
AcDbDictionaryWithDefault
  3
AutoCAD 2000
 90
0
280
0
281
0
  0
CLASS
  1
ACDBPLACEHOLDER
  2
AcDbPlaceHolder
  3
AutoCAD 2000
 90
0
280
0
281
0
  0
CLASS
  1
LAYOUT
  2
AcDbLayout
  3
AutoCAD 2000
 90
0
280
0
281
0
  0
ENDSEC
  0
SECTION
  2
TABLES
  0
TABLE
  2
VPORT
  5
8
100
AcDbSymbolTable
 70
2
  0
VPORT
  5
1F4
100
AcDbSymbolTableRecord
100
AcDbViewportTableRecord
  2
*ACTIVE
 70
0
 10
0.0
 20
0.0
 11
1.0
 21
1.0
 12
51.0
 22
33.0
 13
0.0
 23
0.0
 14
1.0
 24
1.0
 15
0.0
 25
0.0
 16
0.0
 26
0.0
 36
1.0
 17
0.0
 27
0.0
 37
0.0
 40
66.0
 41
1.5454545455
 42
50.0
 43
0.0
 44
0.0
 50
0.0
 51
0.0
 71
0
 72
100
 73
1
 74
1
 75
0
 76
0
 77
0
 78
0
  0
ENDTAB
  0
TABLE
  2
LTYPE
  5
5
100
AcDbSymbolTable
 70
6
  0
LTYPE
  5
14
100
AcDbSymbolTableRecord
100
AcDbLinetypeTableRecord
  2
BYBLOCK
 70
0
  3

 72
65
 73
0
 40
0.0
  0
LTYPE
  5
15
100
AcDbSymbolTableRecord
100
AcDbLinetypeTableRecord
  2
BYLAYER
 70
0
  3

 72
65
 73
0
 40
0.0
  0
LTYPE
  5
16
100
AcDbSymbolTableRecord
100
AcDbLinetypeTableRecord
  2
CONTINUOUS
 70
64
  3
Solid line
 72
65
 73
0
 40
0.0
  0
LTYPE
  5
1F5
100
AcDbSymbolTableRecord
100
AcDbLinetypeTableRecord
  2
CENTER
 70
64
  3
____ _ ____ _ ____ _ ____ _ ____ _ ____ _ ____
 72
65
 73
4
 40
0.6
 49
0.375
 74
0
 49
-0.075
 74
0
 49
0.075
 74
0
 49
-0.075
 74
0
  0
LTYPE
  5
1F6
100
AcDbSymbolTableRecord
100
AcDbLinetypeTableRecord
  2
HIDDEN
 70
64
  3
- - - - - - - - - - - - - - - - - - - -
 72
65
 73
2
 40
0.2
 49
0.1
 74
0
 49
-0.1
 74
0
  0
LTYPE
  5
1F7
100
AcDbSymbolTableRecord
100
AcDbLinetypeTableRecord
  2
PHANTOM
 70
64
  3
_____ _ _ _____ _ _ _____ _ _ _____
 72
65
 73
6
 40
0.8
 49
0.45
 74
0
 49
-0.05
 74
0
 49
0.1
 74
0
 49
-0.05
 74
0
 49
0.1
 74
0
 49
-0.05
 74
0
  0
LTYPE
  5
1F8
100
AcDbSymbolTableRecord
100
AcDbLinetypeTableRecord
  2
DOT
 70
64
  3
. . . . . . . . . . . . . . . . . . . .
 72
65
 73
2
 40
0.2
 49
0.1
 74
0
 49
-0.1
 74
0
  0
LTYPE
  5
1F9
100
AcDbSymbolTableRecord
100
AcDbLinetypeTableRecord
  2
DASHED
 70
64
  3
- - - - - - - - - - - - - - - - - - - -
 72
65
 73
2
 40
0.2
 49
0.1
 74
0
 49
-0.1
 74
0
  0
ENDTAB
  0
TABLE
  2
LAYER
  5
2
100
AcDbSymbolTable
 70
36
  0
LAYER
  5
10
100
AcDbSymbolTableRecord
100
AcDbLayerTableRecord
  2
0
 70
0
 62
7
  6
CONTINUOUS
370
-3
390
F
  0
LAYER
  5
1FA
100
AcDbSymbolTableRecord
100
AcDbLayerTableRecord
  2
DEFAULT_1
 70
0
 62
7
  6
CENTER
370
-3
390
F
  0
LAYER
  5
1FB
100
AcDbSymbolTableRecord
100
AcDbLayerTableRecord
  2
DEFAULT_2
 70
0
 62
8
  6
HIDDEN
370
-3
390
F
  0
LAYER
  5
1FC
100
AcDbSymbolTableRecord
100
AcDbLayerTableRecord
  2
DEFAULT_3
 70
0
 62
7
  6
PHANTOM
370
-3
390
F
  0
LAYER
  5
1FD
100
AcDbSymbolTableRecord
100
AcDbLayerTableRecord
  2
1_ALL_PLANES
 70
0
 62
7
  6
CONTINUOUS
370
-3
390
F
  0
LAYER
  5
1FE
100
AcDbSymbolTableRecord
100
AcDbLayerTableRecord
  2
1__DEF_PLANES
 70
0
 62
7
  6
CONTINUOUS
370
-3
390
F
  0
LAYER
  5
1FF
100
AcDbSymbolTableRecord
100
AcDbLayerTableRecord
  2
2_ALL_CSYS
 70
0
 62
7
  6
CONTINUOUS
370
-3
390
F
  0
LAYER
  5
200
100
AcDbSymbolTableRecord
100
AcDbLayerTableRecord
  2
2__DEF_CSYS
 70
0
 62
7
  6
CONTINUOUS
370
-3
390
F
  0
LAYER
  5
201
100
AcDbSymbolTableRecord
100
AcDbLayerTableRecord
  2
3_ALL_AXES
 70
0
 62
7
  6
CONTINUOUS
370
-3
390
F
  0
LAYER
  5
202
100
AcDbSymbolTableRecord
100
AcDbLayerTableRecord
  2
3_AXES_OTHER
 70
0
 62
7
  6
CONTINUOUS
370
-3
390
F
  0
LAYER
  5
203
100
AcDbSymbolTableRecord
100
AcDbLayerTableRecord
  2
3_HOLES
 70
0
 62
7
  6
CONTINUOUS
370
-3
390
F
  0
LAYER
  5
204
100
AcDbSymbolTableRecord
100
AcDbLayerTableRecord
  2
4_ALL_POINTS
 70
0
 62
7
  6
CONTINUOUS
370
-3
390
F
  0
LAYER
  5
205
100
AcDbSymbolTableRecord
100
AcDbLayerTableRecord
  2
5_ALL_CURVES
 70
0
 62
7
  6
CONTINUOUS
370
-3
390
F
  0
LAYER
  5
206
100
AcDbSymbolTableRecord
100
AcDbLayerTableRecord
  2
6_ALL_SURFS
 70
0
 62
7
  6
CONTINUOUS
370
-3
390
F
  0
LAYER
  5
207
100
AcDbSymbolTableRecord
100
AcDbLayerTableRecord
  2
6_COPYGEOM
 70
0
 62
7
  6
CONTINUOUS
370
-3
390
F
  0
LAYER
  5
208
100
AcDbSymbolTableRecord
100
AcDbLayerTableRecord
  2
7_ALL_ROUNDS
 70
0
 62
7
  6
CONTINUOUS
370
-3
390
F
  0
LAYER
  5
209
100
AcDbSymbolTableRecord
100
AcDbLayerTableRecord
  2
7_MERGES
 70
0
 62
7
  6
CONTINUOUS
370
-3
390
F
  0
LAYER
  5
20A
100
AcDbSymbolTableRecord
100
AcDbLayerTableRecord
  2
8_GDT
 70
0
 62
7
  6
CONTINUOUS
370
-3
390
F
  0
LAYER
  5
20B
100
AcDbSymbolTableRecord
100
AcDbLayerTableRecord
  2
8_SET_DATUMS
 70
0
 62
7
  6
CONTINUOUS
370
-3
390
F
  0
LAYER
  5
20C
100
AcDbSymbolTableRecord
100
AcDbLayerTableRecord
  2
9_COSMETICS
 70
0
 62
7
  6
CONTINUOUS
370
-3
390
F
  0
LAYER
  5
20D
100
AcDbSymbolTableRecord
100
AcDbLayerTableRecord
  2
9_THREADS
 70
0
 62
7
  6
CONTINUOUS
370
-3
390
F
  0
ENDTAB
  0
TABLE
  2
STYLE
  5
3
100
AcDbSymbolTable
 70
1
  0
STYLE
  5
11
100
AcDbSymbolTableRecord
100
AcDbTextStyleTableRecord
  2
STANDARD
 70
0
 40
0.0
 41
0.8
 50
0.0
 71
0
 42
0.2
  3
txt
  4

  0
STYLE
  5
20E
100
AcDbSymbolTableRecord
100
AcDbTextStyleTableRecord
  2
TEXTSTYLE_1
 70
0
 40
0.0
 41
0.8
 50
0.0
 71
0
 42
0.2
  3
gdt
  4

  0
ENDTAB
  0
TABLE
  2
VIEW
  5
6
100
AcDbSymbolTable
 70
0
  0
ENDTAB
  0
TABLE
  2
UCS
  5
7
100
AcDbSymbolTable
 70
0
  0
ENDTAB
  0
TABLE
  2
APPID
  5
9
100
AcDbSymbolTable
 70
1
  0
APPID
  5
20F
100
AcDbSymbolTableRecord
100
AcDbRegAppTableRecord
  2
ACAD
 70
0
  0
ENDTAB
  0
TABLE
  2
BLOCK_RECORD
  5
1
100
AcDbSymbolTable
 70
0
  0
BLOCK_RECORD
  5
210
100
AcDbSymbolTableRecord
100
AcDbBlockTableRecord
  2
*Model_Space
  0
BLOCK_RECORD
  5
211
100
AcDbSymbolTableRecord
100
AcDbBlockTableRecord
  2
*Paper_Space
  0
BLOCK_RECORD
  5
212
100
AcDbSymbolTableRecord
100
AcDbBlockTableRecord
  2
_FILLED
  0
BLOCK_RECORD
  5
213
100
AcDbSymbolTableRecord
100
AcDbBlockTableRecord
  2
*D0
  0
BLOCK_RECORD
  5
214
100
AcDbSymbolTableRecord
100
AcDbBlockTableRecord
  2
*D1
  0
BLOCK_RECORD
  5
215
100
AcDbSymbolTableRecord
100
AcDbBlockTableRecord
  2
*D2
  0
BLOCK_RECORD
  5
216
100
AcDbSymbolTableRecord
100
AcDbBlockTableRecord
  2
*D3
  0
BLOCK_RECORD
  5
217
100
AcDbSymbolTableRecord
100
AcDbBlockTableRecord
  2
*D4
  0
BLOCK_RECORD
  5
218
100
AcDbSymbolTableRecord
100
AcDbBlockTableRecord
  2
*D5
  0
BLOCK_RECORD
  5
219
100
AcDbSymbolTableRecord
100
AcDbBlockTableRecord
  2
*D6
  0
BLOCK_RECORD
  5
21A
100
AcDbSymbolTableRecord
100
AcDbBlockTableRecord
  2
*D7
  0
BLOCK_RECORD
  5
21B
100
AcDbSymbolTableRecord
100
AcDbBlockTableRecord
  2
*D8
  0
BLOCK_RECORD
  5
21C
100
AcDbSymbolTableRecord
100
AcDbBlockTableRecord
  2
*D9
  0
BLOCK_RECORD
  5
21D
100
AcDbSymbolTableRecord
100
AcDbBlockTableRecord
  2
*D10
  0
BLOCK_RECORD
  5
21E
100
AcDbSymbolTableRecord
100
AcDbBlockTableRecord
  2
*D11
  0
BLOCK_RECORD
  5
21F
100
AcDbSymbolTableRecord
100
AcDbBlockTableRecord
  2
*D12
  0
BLOCK_RECORD
  5
220
100
AcDbSymbolTableRecord
100
AcDbBlockTableRecord
  2
*D13
  0
BLOCK_RECORD
  5
221
100
AcDbSymbolTableRecord
100
AcDbBlockTableRecord
  2
*D14
  0
BLOCK_RECORD
  5
222
100
AcDbSymbolTableRecord
100
AcDbBlockTableRecord
  2
*D15
  0
BLOCK_RECORD
  5
223
100
AcDbSymbolTableRecord
100
AcDbBlockTableRecord
  2
*D16
  0
BLOCK_RECORD
  5
224
100
AcDbSymbolTableRecord
100
AcDbBlockTableRecord
  2
*D17
  0
BLOCK_RECORD
  5
225
100
AcDbSymbolTableRecord
100
AcDbBlockTableRecord
  2
*D18
  0
BLOCK_RECORD
  5
226
100
AcDbSymbolTableRecord
100
AcDbBlockTableRecord
  2
CG_3D_BL3
  0
BLOCK_RECORD
  5
227
100
AcDbSymbolTableRecord
100
AcDbBlockTableRecord
  2
CG_3D_BL2
  0
BLOCK_RECORD
  5
228
100
AcDbSymbolTableRecord
100
AcDbBlockTableRecord
  2
CG_3D_BL1
  0
BLOCK_RECORD
  5
229
100
AcDbSymbolTableRecord
100
AcDbBlockTableRecord
  2
RD010411_BL0
  0
ENDTAB
  0
TABLE
  2
DIMSTYLE
  5
A
100
AcDbSymbolTable
 70
1
100
AcDbDimStyleTable
 71
0
  0
DIMSTYLE
105
22A
100
AcDbSymbolTableRecord
100
AcDbDimStyleTableRecord
  2
STANDARD
 70
0
  3

  4

 40
1.0
 41
0.5625
 42
0.0625
 43
0.38
 44
0.125
 45
0.0
 46
0.0
 47
0.01
 48
0.01
140
0.46875
141
0.09
142
0.0
143
25.4
144
1.0
145
0.0
146
1.0
147
0.09
 71
1.0
 72
0.0
 73
1
 74
1
 75
0
 76
0
 77
0
 78
4
170
0
171
2
172
0
173
0
174
0
175
0
176
0
177
0
178
0
270
2
271
3
272
3
273
2
274
2
275
0
280
0
281
0
282
0
283
1
284
4
285
0
286
0
287
3
288
0
340
11
278
46
341
212
342
212
343
212
344
212
  0
DIMSTYLE
105
22B
100
AcDbSymbolTableRecord
100
AcDbDimStyleTableRecord
  2
DIMSTYLE_1
 70
0
  3

  4

 40
1.0
 41
0.5625
 42
0.0625
 43
0.38
 44
0.125
 45
0.0
 46
0.0
 47
0.01
 48
0.01
140
0.46875
141
0.09
142
0.0
143
25.4
144
1.0
145
0.0
146
1.0
147
0.078125
 71
0.0
 72
0.0
 73
1
 74
1
 75
0
 76
0
 77
0
 78
4
170
0
171
2
172
0
173
0
174
0
175
0
176
0
177
0
178
0
270
2
271
0
272
0
273
2
274
2
275
0
280
0
281
0
282
0
283
1
284
4
285
0
286
0
287
3
288
0
340
11
278
46
341
212
342
212
343
212
344
212
  0
DIMSTYLE
105
22C
100
AcDbSymbolTableRecord
100
AcDbDimStyleTableRecord
  2
DIMSTYLE_2
 70
0
  3

  4

 40
1.0
 41
0.5625
 42
0.0625
 43
0.38
 44
0.125
 45
0.0
 46
0.0
 47
0.01
 48
0.01
140
0.46875
141
0.09
142
0.0
143
25.4
144
1.0
145
0.0
146
1.0
147
0.078125
 71
0.0
 72
0.0
 73
1
 74
1
 75
0
 76
0
 77
0
 78
4
170
0
171
2
172
0
173
0
174
0
175
0
176
0
177
0
178
0
270
2
271
3
272
3
273
2
274
2
275
0
280
0
281
0
282
0
283
1
284
4
285
0
286
0
287
3
288
0
340
11
278
46
341
212
342
212
343
212
344
212
  0
DIMSTYLE
105
22D
100
AcDbSymbolTableRecord
100
AcDbDimStyleTableRecord
  2
DIMSTYLE_3
 70
0
  3

  4

 40
1.0
 41
0.5625
 42
0.0625
 43
0.38
 44
0.125
 45
0.0
 46
0.0
 47
0.01
 48
0.01
140
0.46875
141
0.09
142
0.0
143
25.4
144
1.0
145
0.0
146
1.0
147
0.078125
 71
0.0
 72
0.0
 73
1
 74
1
 75
0
 76
0
 77
0
 78
4
170
0
171
2
172
0
173
0
174
0
175
0
176
0
177
0
178
0
270
2
271
2
272
2
273
2
274
2
275
0
280
0
281
0
282
0
283
1
284
4
285
0
286
0
287
3
288
0
340
11
278
46
341
212
342
212
343
212
344
212
  0
ENDTAB
  0
ENDSEC
  0
SECTION
  2
BLOCKS
  0
BLOCK
  5
20
100
AcDbEntity
  8
0
100
AcDbBlockBegin
  2
*Model_Space
 70
0
 10
0.0
 20
0.0
 30
0.0
  3
*Model_Space
  1

  0
ENDBLK
  5
21
100
AcDbEntity
  8
0
100
AcDbBlockEnd
  0
BLOCK
  5
1C
100
AcDbEntity
  8
0
100
AcDbBlockBegin
  2
*Paper_Space
 70
0
 10
0.0
 20
0.0
 30
0.0
  3
*Paper_Space
  1

  0
ENDBLK
  5
1D
100
AcDbEntity
  8
0
100
AcDbBlockEnd
  0
BLOCK
  5
22E
100
AcDbEntity
  8
0
100
AcDbBlockBegin
 62
2
  6
CONTINUOUS
  2
CG_3D_BL3
 70
64
 10
45.9407552979
 20
26.8791115482
  3
CG_3D_BL3
  1

  0
ARC
  5
22F
100
AcDbEntity
  8
0
100
AcDbCircle
 62
7
  6
CONTINUOUS
 10
45.9407552979
 20
26.8791115482
 40
0.5625
100
AcDbArc
 50
90.0
 51
180.0
  0
ARC
  5
230
100
AcDbEntity
  8
0
100
AcDbCircle
 62
7
  6
CONTINUOUS
 10
45.9407552979
 20
26.8791115482
 40
0.5625
100
AcDbArc
 50
180.0
 51
270.0
  0
ARC
  5
231
100
AcDbEntity
  8
0
100
AcDbCircle
 62
7
  6
CONTINUOUS
 10
45.9407552979
 20
26.8791115482
 40
0.5625
100
AcDbArc
 50
270.0
 51
360.0
  0
ARC
  5
232
100
AcDbEntity
  8
0
100
AcDbCircle
 62
7
  6
CONTINUOUS
 10
45.9407552979
 20
26.8791115482
 40
0.5625
100
AcDbArc
 50
0.0
 51
90.0
  0
LINE
  5
233
100
AcDbEntity
  8
0
100
AcDbLine
 62
7
  6
CONTINUOUS
 10
45.9407552979
 20
26.8791115482
 11
46.5032552979
 21
26.8791115482
  0
LINE
  5
234
100
AcDbEntity
  8
0
100
AcDbLine
 62
7
  6
CONTINUOUS
 10
45.9407552979
 20
26.8791115482
 11
45.9407552979
 21
26.3166115482
  0
LINE
  5
235
100
AcDbEntity
  8
0
100
AcDbLine
 62
7
  6
CONTINUOUS
 10
45.3782552979
 20
26.8791115482
 11
45.9407552979
 21
26.8791115482
  0
LINE
  5
236
100
AcDbEntity
  8
0
100
AcDbLine
 62
7
  6
CONTINUOUS
 10
45.9407552979
 20
27.4416115482
 11
45.9407552979
 21
26.8791115482
  0
LINE
  5
237
100
AcDbEntity
  8
0
100
AcDbLine
 62
2
  6
CONTINUOUS
 10
45.9407552979
 20
26.8754043023
 11
45.9444625438
 21
26.8791115482
  0
LWPOLYLINE
  5
238
100
AcDbEntity
  8
0
100
AcDbPolyline
 62
7
  6
CONTINUOUS
 90
8
 70
0
 10
45.9407552979
 20
26.8791115482
 10
45.9407552979
 20
26.3166115482
 10
46.1145773572
 20
26.3441422578
 10
46.2713845023
 20
26.4240394889
 10
46.3958273572
 20
26.5484823438
 10
46.4757245883
 20
26.7052894889
 10
46.5032552979
 20
26.8791115482
 10
45.9407552979
 20
26.8791115482
  0
HATCH
  5
239
100
AcDbEntity
  8
0
100
AcDbHatch
 62
7
  6
CONTINUOUS
 10
0.0
 20
0.0
 30
0.0
210
0.0
220
0.0
230
1.0
  2
SOLID
 70
1
 71
1
 91
1
 92
1
 93
7
 72
1
 10
45.9407552979
 20
26.8791115482
 11
45.9407552979
 21
26.3166115482
 72
1
 10
45.9407552979
 20
26.3166115482
 11
46.1145773572
 21
26.3441422578
 72
1
 10
46.1145773572
 20
26.3441422578
 11
46.2713845023
 21
26.4240394889
 72
1
 10
46.2713845023
 20
26.4240394889
 11
46.3958273572
 21
26.5484823438
 72
1
 10
46.3958273572
 20
26.5484823438
 11
46.4757245883
 21
26.7052894889
 72
1
 10
46.4757245883
 20
26.7052894889
 11
46.5032552979
 21
26.8791115482
 72
1
 10
46.5032552979
 20
26.8791115482
 11
45.9407552979
 21
26.8791115482
 97
1
330
238
 75
0
 76
1
 98
1
 10
0.0
 20
0.0
  0
LWPOLYLINE
  5
23A
100
AcDbEntity
  8
0
100
AcDbPolyline
 62
7
  6
CONTINUOUS
 90
8
 70
0
 10
45.9407552979
 20
26.8791115482
 10
45.3782552979
 20
26.8791115482
 10
45.4057860075
 20
27.0529336075
 10
45.4856832385
 20
27.2097407526
 10
45.6101260935
 20
27.3341836075
 10
45.7669332385
 20
27.4140808386
 10
45.9407552979
 20
27.4416115482
 10
45.9407552979
 20
26.8791115482
  0
HATCH
  5
23B
100
AcDbEntity
  8
0
100
AcDbHatch
 62
7
  6
CONTINUOUS
 10
0.0
 20
0.0
 30
0.0
210
0.0
220
0.0
230
1.0
  2
SOLID
 70
1
 71
1
 91
1
 92
1
 93
7
 72
1
 10
45.9407552979
 20
26.8791115482
 11
45.3782552979
 21
26.8791115482
 72
1
 10
45.3782552979
 20
26.8791115482
 11
45.4057860075
 21
27.0529336075
 72
1
 10
45.4057860075
 20
27.0529336075
 11
45.4856832385
 21
27.2097407526
 72
1
 10
45.4856832385
 20
27.2097407526
 11
45.6101260935
 21
27.3341836075
 72
1
 10
45.6101260935
 20
27.3341836075
 11
45.7669332385
 21
27.4140808386
 72
1
 10
45.7669332385
 20
27.4140808386
 11
45.9407552979
 21
27.4416115482
 72
1
 10
45.9407552979
 20
27.4416115482
 11
45.9407552979
 21
26.8791115482
 97
1
330
23A
 75
0
 76
1
 98
1
 10
0.0
 20
0.0
  0
ENDBLK
  5
23C
100
AcDbEntity
  8
0
  6
BYBLOCK
 62
0
100
AcDbBlockEnd
  0
BLOCK
  5
23D
100
AcDbEntity
  8
0
100
AcDbBlockBegin
 62
2
  6
CONTINUOUS
  2
CG_3D_BL2
 70
64
 10
19.7694076851
 20
26.879047337
  3
CG_3D_BL2
  1

  0
ARC
  5
23E
100
AcDbEntity
  8
0
100
AcDbCircle
 62
7
  6
CONTINUOUS
 10
19.7694076851
 20
26.879047337
 40
0.5625
100
AcDbArc
 50
90.0
 51
180.0
  0
ARC
  5
23F
100
AcDbEntity
  8
0
100
AcDbCircle
 62
7
  6
CONTINUOUS
 10
19.7694076851
 20
26.879047337
 40
0.5625
100
AcDbArc
 50
180.0
 51
270.0
  0
ARC
  5
240
100
AcDbEntity
  8
0
100
AcDbCircle
 62
7
  6
CONTINUOUS
 10
19.7694076851
 20
26.879047337
 40
0.5625
100
AcDbArc
 50
270.0
 51
360.0
  0
ARC
  5
241
100
AcDbEntity
  8
0
100
AcDbCircle
 62
7
  6
CONTINUOUS
 10
19.7694076851
 20
26.879047337
 40
0.5625
100
AcDbArc
 50
0.0
 51
90.0
  0
LINE
  5
242
100
AcDbEntity
  8
0
100
AcDbLine
 62
7
  6
CONTINUOUS
 10
19.7694076851
 20
26.879047337
 11
20.3319076851
 21
26.879047337
  0
LINE
  5
243
100
AcDbEntity
  8
0
100
AcDbLine
 62
7
  6
CONTINUOUS
 10
19.7694076851
 20
26.879047337
 11
19.7694076851
 21
26.316547337
  0
LINE
  5
244
100
AcDbEntity
  8
0
100
AcDbLine
 62
7
  6
CONTINUOUS
 10
19.2069076851
 20
26.879047337
 11
19.7694076851
 21
26.879047337
  0
LINE
  5
245
100
AcDbEntity
  8
0
100
AcDbLine
 62
7
  6
CONTINUOUS
 10
19.7694076851
 20
27.441547337
 11
19.7694076851
 21
26.879047337
  0
LINE
  5
246
100
AcDbEntity
  8
0
100
AcDbLine
 62
2
  6
CONTINUOUS
 10
19.7694076851
 20
26.8753400911
 11
19.773114931
 21
26.879047337
  0
LWPOLYLINE
  5
247
100
AcDbEntity
  8
0
100
AcDbPolyline
 62
7
  6
CONTINUOUS
 90
8
 70
0
 10
19.7694076851
 20
26.879047337
 10
19.7694076851
 20
26.316547337
 10
19.9432297445
 20
26.3440780465
 10
20.1000368895
 20
26.4239752776
 10
20.2244797445
 20
26.5484181325
 10
20.3043769755
 20
26.7052252776
 10
20.3319076851
 20
26.879047337
 10
19.7694076851
 20
26.879047337
  0
HATCH
  5
248
100
AcDbEntity
  8
0
100
AcDbHatch
 62
7
  6
CONTINUOUS
 10
0.0
 20
0.0
 30
0.0
210
0.0
220
0.0
230
1.0
  2
SOLID
 70
1
 71
1
 91
1
 92
1
 93
7
 72
1
 10
19.7694076851
 20
26.879047337
 11
19.7694076851
 21
26.316547337
 72
1
 10
19.7694076851
 20
26.316547337
 11
19.9432297445
 21
26.3440780465
 72
1
 10
19.9432297445
 20
26.3440780465
 11
20.1000368895
 21
26.4239752776
 72
1
 10
20.1000368895
 20
26.4239752776
 11
20.2244797445
 21
26.5484181325
 72
1
 10
20.2244797445
 20
26.5484181325
 11
20.3043769755
 21
26.7052252776
 72
1
 10
20.3043769755
 20
26.7052252776
 11
20.3319076851
 21
26.879047337
 72
1
 10
20.3319076851
 20
26.879047337
 11
19.7694076851
 21
26.879047337
 97
1
330
247
 75
0
 76
1
 98
1
 10
0.0
 20
0.0
  0
LWPOLYLINE
  5
249
100
AcDbEntity
  8
0
100
AcDbPolyline
 62
7
  6
CONTINUOUS
 90
8
 70
0
 10
19.7694076851
 20
26.879047337
 10
19.2069076851
 20
26.879047337
 10
19.2344383947
 20
27.0528693963
 10
19.3143356258
 20
27.2096765414
 10
19.4387784807
 20
27.3341193963
 10
19.5955856258
 20
27.4140166274
 10
19.7694076851
 20
27.441547337
 10
19.7694076851
 20
26.879047337
  0
HATCH
  5
24A
100
AcDbEntity
  8
0
100
AcDbHatch
 62
7
  6
CONTINUOUS
 10
0.0
 20
0.0
 30
0.0
210
0.0
220
0.0
230
1.0
  2
SOLID
 70
1
 71
1
 91
1
 92
1
 93
7
 72
1
 10
19.7694076851
 20
26.879047337
 11
19.2069076851
 21
26.879047337
 72
1
 10
19.2069076851
 20
26.879047337
 11
19.2344383947
 21
27.0528693963
 72
1
 10
19.2344383947
 20
27.0528693963
 11
19.3143356258
 21
27.2096765414
 72
1
 10
19.3143356258
 20
27.2096765414
 11
19.4387784807
 21
27.3341193963
 72
1
 10
19.4387784807
 20
27.3341193963
 11
19.5955856258
 21
27.4140166274
 72
1
 10
19.5955856258
 20
27.4140166274
 11
19.7694076851
 21
27.441547337
 72
1
 10
19.7694076851
 20
27.441547337
 11
19.7694076851
 21
26.879047337
 97
1
330
249
 75
0
 76
1
 98
1
 10
0.0
 20
0.0
  0
ENDBLK
  5
24B
100
AcDbEntity
  8
0
  6
BYBLOCK
 62
0
100
AcDbBlockEnd
  0
BLOCK
  5
24C
100
AcDbEntity
  8
0
100
AcDbBlockBegin
 62
2
  6
CONTINUOUS
  2
CG_3D_BL1
 70
64
 10
6.9975450281
 20
6.2323746141
  3
CG_3D_BL1
  1

  0
ARC
  5
24D
100
AcDbEntity
  8
0
100
AcDbCircle
 62
7
  6
CONTINUOUS
 10
6.9975450281
 20
6.2323746141
 40
0.375
100
AcDbArc
 50
90.0
 51
180.0
  0
ARC
  5
24E
100
AcDbEntity
  8
0
100
AcDbCircle
 62
7
  6
CONTINUOUS
 10
6.9975450281
 20
6.2323746141
 40
0.375
100
AcDbArc
 50
180.0
 51
270.0
  0
ARC
  5
24F
100
AcDbEntity
  8
0
100
AcDbCircle
 62
7
  6
CONTINUOUS
 10
6.9975450281
 20
6.2323746141
 40
0.375
100
AcDbArc
 50
270.0
 51
360.0
  0
ARC
  5
250
100
AcDbEntity
  8
0
100
AcDbCircle
 62
7
  6
CONTINUOUS
 10
6.9975450281
 20
6.2323746141
 40
0.375
100
AcDbArc
 50
0.0
 51
90.0
  0
LINE
  5
251
100
AcDbEntity
  8
0
100
AcDbLine
 62
7
  6
CONTINUOUS
 10
6.9975450281
 20
6.2323746141
 11
7.3725450281
 21
6.2323746141
  0
LINE
  5
252
100
AcDbEntity
  8
0
100
AcDbLine
 62
7
  6
CONTINUOUS
 10
6.9975450281
 20
6.2323746141
 11
6.9975450281
 21
5.8573746141
  0
LINE
  5
253
100
AcDbEntity
  8
0
100
AcDbLine
 62
7
  6
CONTINUOUS
 10
6.6225450281
 20
6.2323746141
 11
6.9975450281
 21
6.2323746141
  0
LINE
  5
254
100
AcDbEntity
  8
0
100
AcDbLine
 62
7
  6
CONTINUOUS
 10
6.9975450281
 20
6.6073746141
 11
6.9975450281
 21
6.2323746141
  0
LINE
  5
255
100
AcDbEntity
  8
0
100
AcDbLine
 62
2
  6
CONTINUOUS
 10
6.9975450281
 20
6.2299031169
 11
7.0000165254
 21
6.2323746141
  0
LWPOLYLINE
  5
256
100
AcDbEntity
  8
0
100
AcDbPolyline
 62
7
  6
CONTINUOUS
 90
8
 70
0
 10
6.9975450281
 20
6.2323746141
 10
6.9975450281
 20
5.8573746141
 10
7.113426401
 20
5.8757284205
 10
7.2179644977
 20
5.9289932412
 10
7.300926401
 20
6.0119551445
 10
7.3541912217
 20
6.1164932412
 10
7.3725450281
 20
6.2323746141
 10
6.9975450281
 20
6.2323746141
  0
HATCH
  5
257
100
AcDbEntity
  8
0
100
AcDbHatch
 62
7
  6
CONTINUOUS
 10
0.0
 20
0.0
 30
0.0
210
0.0
220
0.0
230
1.0
  2
SOLID
 70
1
 71
1
 91
1
 92
1
 93
7
 72
1
 10
6.9975450281
 20
6.2323746141
 11
6.9975450281
 21
5.8573746141
 72
1
 10
6.9975450281
 20
5.8573746141
 11
7.113426401
 21
5.8757284205
 72
1
 10
7.113426401
 20
5.8757284205
 11
7.2179644977
 21
5.9289932412
 72
1
 10
7.2179644977
 20
5.9289932412
 11
7.300926401
 21
6.0119551445
 72
1
 10
7.300926401
 20
6.0119551445
 11
7.3541912217
 21
6.1164932412
 72
1
 10
7.3541912217
 20
6.1164932412
 11
7.3725450281
 21
6.2323746141
 72
1
 10
7.3725450281
 20
6.2323746141
 11
6.9975450281
 21
6.2323746141
 97
1
330
256
 75
0
 76
1
 98
1
 10
0.0
 20
0.0
  0
LWPOLYLINE
  5
258
100
AcDbEntity
  8
0
100
AcDbPolyline
 62
7
  6
CONTINUOUS
 90
8
 70
0
 10
6.9975450281
 20
6.2323746141
 10
6.6225450281
 20
6.2323746141
 10
6.6408988345
 20
6.348255987
 10
6.6941636552
 20
6.4527940837
 10
6.7771255585
 20
6.535755987
 10
6.8816636552
 20
6.5890208077
 10
6.9975450281
 20
6.6073746141
 10
6.9975450281
 20
6.2323746141
  0
HATCH
  5
259
100
AcDbEntity
  8
0
100
AcDbHatch
 62
7
  6
CONTINUOUS
 10
0.0
 20
0.0
 30
0.0
210
0.0
220
0.0
230
1.0
  2
SOLID
 70
1
 71
1
 91
1
 92
1
 93
7
 72
1
 10
6.9975450281
 20
6.2323746141
 11
6.6225450281
 21
6.2323746141
 72
1
 10
6.6225450281
 20
6.2323746141
 11
6.6408988345
 21
6.348255987
 72
1
 10
6.6408988345
 20
6.348255987
 11
6.6941636552
 21
6.4527940837
 72
1
 10
6.6941636552
 20
6.4527940837
 11
6.7771255585
 21
6.535755987
 72
1
 10
6.7771255585
 20
6.535755987
 11
6.8816636552
 21
6.5890208077
 72
1
 10
6.8816636552
 20
6.5890208077
 11
6.9975450281
 21
6.6073746141
 72
1
 10
6.9975450281
 20
6.6073746141
 11
6.9975450281
 21
6.2323746141
 97
1
330
258
 75
0
 76
1
 98
1
 10
0.0
 20
0.0
  0
ENDBLK
  5
25A
100
AcDbEntity
  8
0
  6
BYBLOCK
 62
0
100
AcDbBlockEnd
  0
BLOCK
  5
25B
100
AcDbEntity
  8
0
100
AcDbBlockBegin
 62
7
  6
CONTINUOUS
  2
RD010411_BL0
 70
64
 10
86.6664608964
 20
8.1033319955
  3
RD010411_BL0
  1

  0
ARC
  5
25C
100
AcDbEntity
  8
0
100
AcDbCircle
 62
7
  6
CONTINUOUS
 10
88.6229456053
 20
8.4044628681
 40
0.0371145398
100
AcDbArc
 50
270.0
 51
360.0
  0
LINE
  5
25D
100
AcDbEntity
  8
0
100
AcDbLine
 62
7
  6
CONTINUOUS
 10
88.6600601452
 20
8.4044628681
 11
88.6600601452
 21
8.4787174557
  0
ARC
  5
25E
100
AcDbEntity
  8
0
100
AcDbCircle
 62
7
  6
CONTINUOUS
 10
88.6229456053
 20
8.4787174557
 40
0.0371145398
100
AcDbArc
 50
0.0
 51
90.0
  0
LINE
  5
25F
100
AcDbEntity
  8
0
100
AcDbLine
 62
7
  6
CONTINUOUS
 10
88.6229456053
 20
8.5158319955
 11
87.6251656087
 21
8.5158319955
  0
SPLINE
  5
260
100
AcDbEntity
  8
0
100
AcDbSpline
 62
7
  6
CONTINUOUS
 70
0
 71
3
 72
13
 73
9
 74
0
 42
0.0000001
 43
0.0000001
 44
0.0000000001
 40
0.0
 40
0.0
 40
0.0
 40
0.0
 40
0.1310616762
 40
0.2699656353
 40
0.4157607805
 40
0.5899807757
 40
0.76586761
 40
0.9948829976
 40
0.9948829976
 40
0.9948829976
 40
0.9948829976
 10
87.6251656087
 20
8.5158319955
 30
0.0
 10
87.6041913651
 20
8.51426982
 30
0.0
 10
87.5609878516
 20
8.511051994
 30
0.0
 10
87.5024384871
 20
8.4747714704
 30
0.0
 10
87.4604070302
 20
8.4138630058
 30
0.0
 10
87.4330760053
 20
8.339385361
 30
0.0
 10
87.4176815034
 20
8.2483427176
 30
0.0
 10
87.416264086
 20
8.1840103871
 30
0.0
 10
87.4155294716
 20
8.1476188139
 30
0.0
  0
LINE
  5
261
100
AcDbEntity
  8
0
100
AcDbLine
 62
7
  6
CONTINUOUS
 10
87.4155294716
 20
8.1476188139
 11
87.4155946117
 21
8.1419715272
  0
SPLINE
  5
262
100
AcDbEntity
  8
0
100
AcDbSpline
 62
7
  6
CONTINUOUS
 70
0
 71
3
 72
13
 73
9
 74
0
 42
0.0000001
 43
0.0000001
 44
0.0000000001
 40
0.0
 40
0.0
 40
0.0
 40
0.0
 40
0.2222860645
 40
0.3981728988
 40
0.572392894
 40
0.7181880393
 40
0.8570919984
 40
0.9881536746
 40
0.9881536746
 40
0.9881536746
 40
0.9881536746
 10
87.4155946117
 20
8.1419715272
 30
0.0
 10
87.4163147479
 20
8.1066497413
 30
0.0
 10
87.4178600689
 20
8.0433983415
 30
0.0
 10
87.4330759927
 20
7.9534110472
 30
0.0
 10
87.4604073448
 20
7.878941732
 30
0.0
 10
87.5024374907
 20
7.818007418
 30
0.0
 10
87.5609913238
 20
7.7818136203
 30
0.0
 10
87.6041843042
 20
7.7783915826
 30
0.0
 10
87.6251656087
 20
7.7768288818
 30
0.0
  0
LINE
  5
263
100
AcDbEntity
  8
0
100
AcDbLine
 62
7
  6
CONTINUOUS
 10
87.6251656087
 20
7.7768288818
 11
88.6230266115
 21
7.7790068149
  0
ARC
  5
264
100
AcDbEntity
  8
0
100
AcDbCircle
 62
7
  6
CONTINUOUS
 10
88.6229456053
 20
7.8161212662
 40
0.0371145397
100
AcDbArc
 50
270.125053868
 51
360.0
  0
LINE
  5
265
100
AcDbEntity
  8
0
100
AcDbLine
 62
7
  6
CONTINUOUS
 10
88.6600601452
 20
7.8161212662
 11
88.6600601452
 21
7.887476804
  0
ARC
  5
266
100
AcDbEntity
  8
0
100
AcDbCircle
 62
7
  6
CONTINUOUS
 10
88.6229456053
 20
7.887476804
 40
0.0371145398
100
AcDbArc
 50
0.0
 51
90.0
  0
LINE
  5
267
100
AcDbEntity
  8
0
100
AcDbLine
 62
7
  6
CONTINUOUS
 10
88.6229456053
 20
7.9245913438
 11
87.7677117757
 21
7.9245913438
  0
LINE
  5
268
100
AcDbEntity
  8
0
100
AcDbLine
 62
7
  6
CONTINUOUS
 10
87.7305972359
 20
7.9617058836
 11
87.7305972359
 21
8.3302337885
  0
ARC
  5
269
100
AcDbEntity
  8
0
100
AcDbCircle
 62
7
  6
CONTINUOUS
 10
87.7677117761
 20
8.3302337885
 40
0.0371145398
100
AcDbArc
 50
90.0
 51
180.0
  0
LINE
  5
26A
100
AcDbEntity
  8
0
100
AcDbLine
 62
7
  6
CONTINUOUS
 10
87.7677117757
 20
8.3673483283
 11
88.6229456053
 21
8.3673483283
  0
LINE
  5
26B
100
AcDbEntity
  8
0
100
AcDbLine
 62
7
  6
CONTINUOUS
 10
86.242753899
 20
8.0713893017
 11
86.9555897017
 21
8.0713893017
  0
ARC
  5
26C
100
AcDbEntity
  8
0
100
AcDbCircle
 62
7
  6
CONTINUOUS
 10
86.9555897016
 20
8.034274762
 40
0.0371145398
100
AcDbArc
 50
0.0
 51
90.0
  0
LINE
  5
26D
100
AcDbEntity
  8
0
100
AcDbLine
 62
7
  6
CONTINUOUS
 10
86.9927042415
 20
8.0342747619
 11
86.9927042415
 21
7.9584907053
  0
LINE
  5
26E
100
AcDbEntity
  8
0
100
AcDbLine
 62
7
  6
CONTINUOUS
 10
86.9555897017
 20
7.9213761655
 11
86.1246492821
 21
7.9213761655
  0
ARC
  5
26F
100
AcDbEntity
  8
0
100
AcDbCircle
 62
7
  6
CONTINUOUS
 10
86.1246492821
 20
7.8842616257
 40
0.0371145398
100
AcDbArc
 50
90.0
 51
180.0
  0
LINE
  5
270
100
AcDbEntity
  8
0
100
AcDbLine
 62
7
  6
CONTINUOUS
 10
86.0875347422
 20
7.8842616257
 11
86.0875347422
 21
7.813943047
  0
ARC
  5
271
100
AcDbEntity
  8
0
100
AcDbCircle
 62
7
  6
CONTINUOUS
 10
86.1246492821
 20
7.813943047
 40
0.0371145398
100
AcDbArc
 50
180.0
 51
270.0
  0
LINE
  5
272
100
AcDbEntity
  8
0
100
AcDbLine
 62
7
  6
CONTINUOUS
 10
86.1246492821
 20
7.7768285072
 11
87.1562194332
 21
7.7768285072
  0
SPLINE
  5
273
100
AcDbEntity
  8
0
100
AcDbSpline
 62
7
  6
CONTINUOUS
 70
0
 71
3
 72
13
 73
9
 74
0
 42
0.0000001
 43
0.0000001
 44
0.0000000001
 40
0.0
 40
0.0
 40
0.0
 40
0.0
 40
0.1604571392
 40
0.3334692485
 40
0.4767982758
 40
0.6242014838
 40
0.7505998515
 40
1.0
 40
1.0
 40
1.0
 40
1.0
 10
87.1562194332
 20
7.7768285072
 30
0.0
 10
87.1736118347
 20
7.7776659203
 30
0.0
 10
87.2097575058
 20
7.779406269
 30
0.0
 10
87.2583631947
 20
7.8005086302
 30
0.0
 10
87.2949891827
 20
7.8359799381
 30
0.0
 10
87.3156293674
 20
7.8766464221
 30
0.0
 10
87.3314538892
 20
7.9312009272
 30
0.0
 10
87.332096049
 20
7.9720269307
 30
0.0
 10
87.3325222204
 20
7.9991212665
 30
0.0
  0
SPLINE
  5
274
100
AcDbEntity
  8
0
100
AcDbSpline
 62
7
  6
CONTINUOUS
 70
0
 71
3
 72
13
 73
9
 74
0
 42
0.0000001
 43
0.0000001
 44
0.0000000001
 40
0.0
 40
0.0
 40
0.0
 40
0.0
 40
0.2494001485
 40
0.3757985162
 40
0.5232017242
 40
0.6665307515
 40
0.8395428608
 40
1.0
 40
1.0
 40
1.0
 40
1.0
 10
87.3325222204
 20
7.9991212665
 30
0.0
 10
87.332096049
 20
8.0262156028
 30
0.0
 10
87.3314538892
 20
8.0670416058
 30
0.0
 10
87.3156293674
 20
8.1215961114
 30
0.0
 10
87.2949891827
 20
8.1622625954
 30
0.0
 10
87.2583631947
 20
8.1977339027
 30
0.0
 10
87.2097575058
 20
8.2188362639
 30
0.0
 10
87.1736118347
 20
8.2205766132
 30
0.0
 10
87.1562194332
 20
8.2214140257
 30
0.0
  0
LINE
  5
275
100
AcDbEntity
  8
0
100
AcDbLine
 62
7
  6
CONTINUOUS
 10
87.1562194332
 20
8.2214140257
 11
86.45288526
 21
8.2214140257
  0
LINE
  5
276
100
AcDbEntity
  8
0
100
AcDbLine
 62
7
  6
CONTINUOUS
 10
86.4157707201
 20
8.2585285655
 11
86.4157707201
 21
8.3287529983
  0
ARC
  5
277
100
AcDbEntity
  8
0
100
AcDbCircle
 62
7
  6
CONTINUOUS
 10
86.4528852596
 20
8.3287529983
 40
0.0371145398
100
AcDbArc
 50
90.0
 51
180.0
  0
LINE
  5
278
100
AcDbEntity
  8
0
100
AcDbLine
 62
7
  6
CONTINUOUS
 10
86.45288526
 20
8.3658675381
 11
87.284953559
 21
8.3658675381
  0
ARC
  5
279
100
AcDbEntity
  8
0
100
AcDbCircle
 62
7
  6
CONTINUOUS
 10
87.284953559
 20
8.4029820779
 40
0.0371145398
100
AcDbArc
 50
270.0
 51
360.0
  0
LINE
  5
27A
100
AcDbEntity
  8
0
100
AcDbLine
 62
7
  6
CONTINUOUS
 10
87.3220680989
 20
8.4029820779
 11
87.3220680989
 21
8.4787174557
  0
ARC
  5
27B
100
AcDbEntity
  8
0
100
AcDbCircle
 62
7
  6
CONTINUOUS
 10
87.284953559
 20
8.4787174557
 40
0.0371145398
100
AcDbArc
 50
0.0
 51
90.0
  0
LINE
  5
27C
100
AcDbEntity
  8
0
100
AcDbLine
 62
7
  6
CONTINUOUS
 10
87.284953559
 20
8.5158319955
 11
86.242753899
 21
8.5158319955
  0
SPLINE
  5
27D
100
AcDbEntity
  8
0
100
AcDbSpline
 62
7
  6
CONTINUOUS
 70
0
 71
3
 72
13
 73
9
 74
0
 42
0.0000001
 43
0.0000001
 44
0.0000000001
 40
0.0
 40
0.0
 40
0.0
 40
0.0
 40
0.1133740464
 40
0.2392044088
 40
0.3655787964
 40
0.4912154373
 40
0.7445390876
 40
1.0
 40
1.0
 40
1.0
 40
1.0
 10
86.242753899
 20
8.5158319955
 30
0.0
 10
86.2308480206
 20
8.5152455755
 30
0.0
 10
86.2057281749
 20
8.5140083052
 30
0.0
 10
86.1684151288
 20
8.5028602817
 30
0.0
 10
86.1350349729
 20
8.4803489504
 30
0.0
 10
86.100936846
 20
8.4388822191
 30
0.0
 10
86.0794801414
 20
8.3737849682
 30
0.0
 10
86.0771531585
 20
8.3204101597
 30
0.0
 10
86.0759847803
 20
8.2936106486
 30
0.0
  0
SPLINE
  5
27E
100
AcDbEntity
  8
0
100
AcDbSpline
 62
7
  6
CONTINUOUS
 70
0
 71
3
 72
13
 73
9
 74
0
 42
0.0000001
 43
0.0000001
 44
0.0000000001
 40
0.0
 40
0.0
 40
0.0
 40
0.0
 40
0.2554609124
 40
0.5087845627
 40
0.6344212036
 40
0.7607955912
 40
0.8866259536
 40
1.0
 40
1.0
 40
1.0
 40
1.0
 10
86.0759847803
 20
8.2936106486
 30
0.0
 10
86.0771531585
 20
8.2668111376
 30
0.0
 10
86.0794801414
 20
8.2134363285
 30
0.0
 10
86.100936846
 20
8.1483390781
 30
0.0
 10
86.1350349729
 20
8.1068723469
 30
0.0
 10
86.1684151288
 20
8.0843610155
 30
0.0
 10
86.2057281749
 20
8.073212992
 30
0.0
 10
86.2308480206
 20
8.0719757217
 30
0.0
 10
86.242753899
 20
8.0713893017
 30
0.0
  0
LINE
  5
27F
100
AcDbEntity
  8
0
100
AcDbLine
 62
7
  6
CONTINUOUS
 10
84.8714124174
 20
7.7768285072
 11
85.448094908
 21
7.7768285072
  0
LINE
  5
280
100
AcDbEntity
  8
0
100
AcDbLine
 62
7
  6
CONTINUOUS
 10
85.448094908
 20
7.7768285072
 11
85.448094908
 21
7.7051068185
  0
ARC
  5
281
100
AcDbEntity
  8
0
100
AcDbCircle
 62
7
  6
CONTINUOUS
 10
85.462369731
 20
7.7051068185
 40
0.014274823
100
AcDbArc
 50
180.0
 51
270.0
  0
LINE
  5
282
100
AcDbEntity
  8
0
100
AcDbLine
 62
7
  6
CONTINUOUS
 10
85.462369731
 20
7.6908319955
 11
85.6846432438
 21
7.6908319955
  0
ARC
  5
283
100
AcDbEntity
  8
0
100
AcDbCircle
 62
7
  6
CONTINUOUS
 10
85.6846432438
 20
7.7051068185
 40
0.014274823
100
AcDbArc
 50
270.0
 51
360.0
  0
LINE
  5
284
100
AcDbEntity
  8
0
100
AcDbLine
 62
7
  6
CONTINUOUS
 10
85.6989180668
 20
7.7051068185
 11
85.6989180668
 21
7.7768285072
  0
LINE
  5
285
100
AcDbEntity
  8
0
100
AcDbLine
 62
7
  6
CONTINUOUS
 10
85.6989180668
 20
7.7768285072
 11
85.8123154279
 21
7.7768285072
  0
SPLINE
  5
286
100
AcDbEntity
  8
0
100
AcDbSpline
 62
7
  6
CONTINUOUS
 70
0
 71
3
 72
12
 73
8
 74
0
 42
0.0000001
 43
0.0000001
 44
0.0000000001
 40
0.0
 40
0.0
 40
0.0
 40
0.0
 40
0.2415790084
 40
0.4893269843
 40
0.7378634303
 40
0.8656387112
 40
1.0
 40
1.0
 40
1.0
 40
1.0
 10
85.8123154279
 20
7.7768285072
 30
0.0
 10
85.8326486919
 20
7.7774606455
 30
0.0
 10
85.8738344512
 20
7.7787410646
 30
0.0
 10
85.9341055124
 20
7.8002353279
 30
0.0
 10
85.9707093144
 20
7.8408108088
 30
0.0
 10
85.9868357344
 20
7.8813532201
 30
0.0
 10
85.9871263561
 20
7.9035622673
 30
0.0
 10
85.9872753179
 20
7.9149457842
 30
0.0
  0
LINE
  5
287
100
AcDbEntity
  8
0
100
AcDbLine
 62
7
  6
CONTINUOUS
 10
85.9872753179
 20
7.9149457842
 11
85.9872753179
 21
8.3768479558
  0
SPLINE
  5
288
100
AcDbEntity
  8
0
100
AcDbSpline
 62
7
  6
CONTINUOUS
 70
0
 71
3
 72
12
 73
8
 74
0
 42
0.0000001
 43
0.0000001
 44
0.0000000001
 40
0.0
 40
0.0
 40
0.0
 40
0.0
 40
0.1343612888
 40
0.2621365697
 40
0.5106730157
 40
0.7584209916
 40
1.0
 40
1.0
 40
1.0
 40
1.0
 10
85.9872753179
 20
8.3768479558
 30
0.0
 10
85.9871263561
 20
8.3882314734
 30
0.0
 10
85.9868357344
 20
8.4104405205
 30
0.0
 10
85.9707093144
 20
8.4509829318
 30
0.0
 10
85.9341055124
 20
8.4915584127
 30
0.0
 10
85.8738344512
 20
8.5130526755
 30
0.0
 10
85.8326486919
 20
8.5143330946
 30
0.0
 10
85.8123154279
 20
8.5149652328
 30
0.0
  0
LINE
  5
289
100
AcDbEntity
  8
0
100
AcDbLine
 62
7
  6
CONTINUOUS
 10
85.8123154279
 20
8.5149652328
 11
84.8714124174
 21
8.5149652328
  0
SPLINE
  5
28A
100
AcDbEntity
  8
0
100
AcDbSpline
 62
7
  6
CONTINUOUS
 70
0
 71
3
 72
12
 73
8
 74
0
 42
0.0000001
 43
0.0000001
 44
0.0000000001
 40
0.0
 40
0.0
 40
0.0
 40
0.0
 40
0.1341799809
 40
0.290831959
 40
0.5815217441
 40
0.760783857
 40
1.0
 40
1.0
 40
1.0
 40
1.0
 10
84.8714124174
 20
8.5149652328
 30
0.0
 10
84.8508896523
 20
8.5114576976
 30
0.0
 10
84.8064070409
 20
8.5038551963
 30
0.0
 10
84.7315277037
 20
8.4479130175
 30
0.0
 10
84.6960610495
 20
8.3537959193
 30
0.0
 10
84.6753098272
 20
8.2471055141
 30
0.0
 10
84.673752098
 20
8.1825742942
 30
0.0
 10
84.6728616477
 20
8.1456860943
 30
0.0
  0
SPLINE
  5
28B
100
AcDbEntity
  8
0
100
AcDbSpline
 62
7
  6
CONTINUOUS
 70
0
 71
3
 72
12
 73
8
 74
0
 42
0.0000001
 43
0.0000001
 44
0.0000000001
 40
0.0
 40
0.0
 40
0.0
 40
0.0
 40
0.2392679579
 40
0.4185688994
 40
0.7093216488
 40
0.8660075581
 40
1.0
 40
1.0
 40
1.0
 40
1.0
 10
84.6728616477
 20
8.1456860943
 30
0.0
 10
84.6737524537
 20
8.1087993321
 30
0.0
 10
84.6753108048
 20
8.0442706274
 30
0.0
 10
84.6960575493
 20
7.9375621172
 30
0.0
 10
84.7315458727
 20
7.8435326407
 30
0.0
 10
84.80634725
 20
7.7874088062
 30
0.0
 10
84.8508830076
 20
7.780166811
 30
0.0
 10
84.8714124174
 20
7.7768285072
 30
0.0
  0
LINE
  5
28C
100
AcDbEntity
  8
0
100
AcDbLine
 62
7
  6
CONTINUOUS
 10
85.7972134548
 20
7.9668673753
 11
85.7972134548
 21
8.3369563702
  0
ARC
  5
28D
100
AcDbEntity
  8
0
100
AcDbCircle
 62
7
  6
CONTINUOUS
 10
85.0185636441
 20
7.9668673753
 40
0.0371145398
100
AcDbArc
 50
180.0
 51
270.0
  0
LINE
  5
28E
100
AcDbEntity
  8
0
100
AcDbLine
 62
7
  6
CONTINUOUS
 10
85.0185636441
 20
7.9297528355
 11
85.4448483233
 21
7.9297528355
  0
LINE
  5
28F
100
AcDbEntity
  8
0
100
AcDbLine
 62
7
  6
CONTINUOUS
 10
85.4448483233
 20
7.9297528355
 11
85.4448483233
 21
8.0012522988
  0
ARC
  5
290
100
AcDbEntity
  8
0
100
AcDbCircle
 62
7
  6
CONTINUOUS
 10
85.4591231466
 20
8.0012522988
 40
0.014274823
100
AcDbArc
 50
90.0
 51
180.0
  0
LINE
  5
291
100
AcDbEntity
  8
0
100
AcDbLine
 62
7
  6
CONTINUOUS
 10
85.4591231463
 20
8.0155271218
 11
85.6802639034
 21
8.0155271218
  0
ARC
  5
292
100
AcDbEntity
  8
0
100
AcDbCircle
 62
7
  6
CONTINUOUS
 10
85.6802639029
 20
8.0012522994
 40
0.014274823
100
AcDbArc
 50
0.0
 51
90.0
  0
LINE
  5
293
100
AcDbEntity
  8
0
100
AcDbLine
 62
7
  6
CONTINUOUS
 10
85.6945387264
 20
7.9297528355
 11
85.760098915
 21
7.9297528355
  0
ARC
  5
294
100
AcDbEntity
  8
0
100
AcDbCircle
 62
7
  6
CONTINUOUS
 10
85.760098915
 20
7.9668673753
 40
0.0371145398
100
AcDbArc
 50
270.0
 51
360.0
  0
LINE
  5
295
100
AcDbEntity
  8
0
100
AcDbLine
 62
7
  6
CONTINUOUS
 10
85.6945387264
 20
7.9297528355
 11
85.6945387264
 21
8.0012522988
  0
LINE
  5
296
100
AcDbEntity
  8
0
100
AcDbLine
 62
7
  6
CONTINUOUS
 10
84.9814491043
 20
7.9668673753
 11
84.9814491043
 21
8.3369563702
  0
ARC
  5
297
100
AcDbEntity
  8
0
100
AcDbCircle
 62
7
  6
CONTINUOUS
 10
85.0185636446
 20
8.3369563702
 40
0.0371145398
100
AcDbArc
 50
90.0
 51
180.0
  0
LINE
  5
298
100
AcDbEntity
  8
0
100
AcDbLine
 62
7
  6
CONTINUOUS
 10
85.0185636441
 20
8.37407091
 11
85.760098915
 21
8.37407091
  0
ARC
  5
299
100
AcDbEntity
  8
0
100
AcDbCircle
 62
7
  6
CONTINUOUS
 10
85.7600989153
 20
8.3369563699
 40
0.0371145398
100
AcDbArc
 50
0.0000000277
 51
90.0000000277
  0
ARC
  5
29A
100
AcDbEntity
  8
0
100
AcDbCircle
 62
7
  6
CONTINUOUS
 10
86.45288526
 20
8.2585285655
 40
0.0371145398
100
AcDbArc
 50
180.0
 51
270.0
  0
ARC
  5
29B
100
AcDbEntity
  8
0
100
AcDbCircle
 62
7
  6
CONTINUOUS
 10
86.9555897017
 20
7.9584907053
 40
0.0371145398
100
AcDbArc
 50
270.0
 51
360.0
  0
ARC
  5
29C
100
AcDbEntity
  8
0
100
AcDbCircle
 62
7
  6
CONTINUOUS
 10
87.7677117757
 20
7.9617058836
 40
0.0371145398
100
AcDbArc
 50
180.0
 51
270.0
  0
ENDBLK
  5
29D
100
AcDbEntity
  8
0
  6
BYBLOCK
 62
0
100
AcDbBlockEnd
  0
BLOCK
  5
29E
100
AcDbEntity
  8
0
100
AcDbBlockBegin
  2
_FILLED
 70
64
 10
0.0
 20
0.0
  3
_FILLED
  1

  0
SOLID
  5
29F
100
AcDbEntity
  8
0
  6
BYBLOCK
 62
0
100
AcDbTrace
 10
0.0
 20
0.0
 11
-1.0
 21
0.1666666667
 12
-1.0
 22
-0.1666666667
 13
-1.0
 23
-0.1666666667
  0
ENDBLK
  5
2A0
100
AcDbEntity
  8
0
  6
BYBLOCK
 62
0
100
AcDbBlockEnd
  0
BLOCK
  5
2A1
100
AcDbEntity
  8
0
100
AcDbBlockBegin
 62
2
  6
CONTINUOUS
  2
*D0
 70
65
 10
0.0
 20
0.0
  3
*D0
  1

  0
MTEXT
  5
2A2
100
AcDbEntity
  8
0
100
AcDbMText
 62
2
  6
CONTINUOUS
  7
STANDARD
 71
3
 72
1
 10
17.4291230651
 20
56.8006582691
 30
0.0
 11
1.0
 21
0.0
 31
0.0
 44
0.9
  1
1.0\P[25]
 40
0.46875
 41
1.6573660714
  0
LINE
  5
2A3
100
AcDbEntity
  8
0
100
AcDbLine
 62
2
  6
CONTINUOUS
 10
18.7696155327
 20
55.4614919445
 11
18.7696155327
 21
56.9412832691
  0
LINE
  5
2A4
100
AcDbEntity
  8
0
100
AcDbLine
 62
2
  6
CONTINUOUS
 10
19.7696155327
 20
55.7494859355
 11
19.7696155327
 21
56.9412832691
  0
LINE
  5
2A5
100
AcDbEntity
  8
0
100
AcDbLine
 62
2
  6
CONTINUOUS
 10
18.7696155327
 20
56.5662832691
 11
17.8643909222
 21
56.5662832691
  0
LINE
  5
2A6
100
AcDbEntity
  8
0
100
AcDbLine
 62
2
  6
CONTINUOUS
 10
19.7696155327
 20
56.5662832691
 11
21.2696155327
 21
56.5662832691
  0
INSERT
  5
2A7
100
AcDbEntity
  8
0
100
AcDbBlockReference
 62
2
  6
CONTINUOUS
  2
_FILLED
 10
18.7696155327
 20
56.5662832691
 41
0.5625
 42
0.5625
 43
0.5625
  0
INSERT
  5
2A8
100
AcDbEntity
  8
0
100
AcDbBlockReference
 62
2
  6
CONTINUOUS
  2
_FILLED
 10
19.7696155327
 20
56.5662832691
 41
0.5625
 42
0.5625
 43
0.5625
 50
180.0
  0
ENDBLK
  5
2A9
100
AcDbEntity
  8
0
  6
BYBLOCK
 62
0
100
AcDbBlockEnd
  0
BLOCK
  5
2AA
100
AcDbEntity
  8
0
100
AcDbBlockBegin
 62
2
  6
CONTINUOUS
  2
*D1
 70
65
 10
0.0
 20
0.0
  3
*D1
  1

  0
MTEXT
  5
2AB
100
AcDbEntity
  8
0
100
AcDbMText
 62
2
  6
CONTINUOUS
  7
STANDARD
 71
2
 72
1
 10
19.7696155327
 20
58.2261821643
 30
0.0
 11
1.0
 21
0.0
 31
0.0
 44
0.9
  1
2.0\P[51]
 40
0.46875
 41
1.5066964286
  0
LINE
  5
2AC
100
AcDbEntity
  8
0
100
AcDbLine
 62
2
  6
CONTINUOUS
 10
18.7696155327
 20
55.4614919445
 11
18.7696155327
 21
58.3668071643
  0
LINE
  5
2AD
100
AcDbEntity
  8
0
100
AcDbLine
 62
2
  6
CONTINUOUS
 10
20.7696155327
 20
55.4614919445
 11
20.7696155327
 21
58.3668071643
  0
LINE
  5
2AE
100
AcDbEntity
  8
0
100
AcDbLine
 62
2
  6
CONTINUOUS
 10
18.7696155327
 20
57.9918071643
 11
17.2696155327
 21
57.9918071643
  0
LINE
  5
2AF
100
AcDbEntity
  8
0
100
AcDbLine
 62
2
  6
CONTINUOUS
 10
20.7696155327
 20
57.9918071643
 11
22.2696155327
 21
57.9918071643
  0
INSERT
  5
2B0
100
AcDbEntity
  8
0
100
AcDbBlockReference
 62
2
  6
CONTINUOUS
  2
_FILLED
 10
18.7696155327
 20
57.9918071643
 41
0.5625
 42
0.5625
 43
0.5625
  0
INSERT
  5
2B1
100
AcDbEntity
  8
0
100
AcDbBlockReference
 62
2
  6
CONTINUOUS
  2
_FILLED
 10
20.7696155327
 20
57.9918071643
 41
0.5625
 42
0.5625
 43
0.5625
 50
180.0
  0
ENDBLK
  5
2B2
100
AcDbEntity
  8
0
  6
BYBLOCK
 62
0
100
AcDbBlockEnd
  0
BLOCK
  5
2B3
100
AcDbEntity
  8
0
100
AcDbBlockBegin
 62
2
  6
CONTINUOUS
  2
*D2
 70
65
 10
0.0
 20
0.0
  3
*D2
  1

  0
MTEXT
  5
2B4
100
AcDbEntity
  8
0
100
AcDbMText
 62
2
  6
CONTINUOUS
  7
STANDARD
 71
2
 72
1
 10
19.585463747
 20
60.2075717189
 30
0.0
 11
1.0
 21
0.0
 31
0.0
 44
0.9
  1
6.9\P[175]
 40
0.46875
 41
2.0591517857
  0
LINE
  5
2B5
100
AcDbEntity
  8
0
100
AcDbLine
 62
2
  6
CONTINUOUS
 10
16.3188281312
 20
54.619759661
 11
16.3188281312
 21
60.3481967189
  0
LINE
  5
2B6
100
AcDbEntity
  8
0
100
AcDbLine
 62
2
  6
CONTINUOUS
 10
23.2204029343
 20
54.619759661
 11
23.2204029343
 21
60.3481967189
  0
LINE
  5
2B7
100
AcDbEntity
  8
0
100
AcDbLine
 62
2
  6
CONTINUOUS
 10
16.3188281312
 20
59.9731967189
 11
18.8488566042
 21
59.9731967189
  0
LINE
  5
2B8
100
AcDbEntity
  8
0
100
AcDbLine
 62
2
  6
CONTINUOUS
 10
23.2204029343
 20
59.9731967189
 11
20.6903744613
 21
59.9731967189
  0
INSERT
  5
2B9
100
AcDbEntity
  8
0
100
AcDbBlockReference
 62
2
  6
CONTINUOUS
  2
_FILLED
 10
16.3188281312
 20
59.9731967189
 41
0.5625
 42
0.5625
 43
0.5625
 50
180.0
  0
INSERT
  5
2BA
100
AcDbEntity
  8
0
100
AcDbBlockReference
 62
2
  6
CONTINUOUS
  2
_FILLED
 10
23.2204029343
 20
59.9731967189
 41
0.5625
 42
0.5625
 43
0.5625
  0
ENDBLK
  5
2BB
100
AcDbEntity
  8
0
  6
BYBLOCK
 62
0
100
AcDbBlockEnd
  0
BLOCK
  5
2BC
100
AcDbEntity
  8
0
100
AcDbBlockBegin
 62
2
  6
CONTINUOUS
  2
*D3
 70
65
 10
0.0
 20
0.0
  3
*D3
  1

  0
MTEXT
  5
2BD
100
AcDbEntity
  8
0
100
AcDbMText
 62
2
  6
CONTINUOUS
  7
STANDARD
 71
3
 72
1
 10
9.6597229965
 20
56.7253164879
 30
0.0
 11
1.0
 21
0.0
 31
0.0
 44
0.9
  1
.9\P[24]
 40
0.46875
 41
1.7075892857
  0
LINE
  5
2BE
100
AcDbEntity
  8
0
100
AcDbLine
 62
2
  6
CONTINUOUS
 10
13.5781785249
 20
53.8141494248
 11
10.740098112
 21
53.8141494248
  0
LINE
  5
2BF
100
AcDbEntity
  8
0
100
AcDbLine
 62
2
  6
CONTINUOUS
 10
18.4384147453
 20
54.7552911571
 11
10.740098112
 21
54.7552911571
  0
LINE
  5
2C0
100
AcDbEntity
  8
0
100
AcDbLine
 62
2
  6
CONTINUOUS
 10
11.115098112
 20
53.8141494248
 11
11.115098112
 21
52.3141494248
  0
LINE
  5
2C1
100
AcDbEntity
  8
0
100
AcDbLine
 62
2
  6
CONTINUOUS
 10
11.115098112
 20
54.7552911571
 11
11.115098112
 21
56.4909414879
  0
LINE
  5
2C2
100
AcDbEntity
  8
0
100
AcDbLine
 62
2
  6
CONTINUOUS
 10
11.115098112
 20
56.4909414879
 11
10.3963301393
 21
56.4909414879
  0
INSERT
  5
2C3
100
AcDbEntity
  8
0
100
AcDbBlockReference
 62
2
  6
CONTINUOUS
  2
_FILLED
 10
11.115098112
 20
53.8141494248
 41
0.5625
 42
0.5625
 43
0.5625
 50
90.0
  0
INSERT
  5
2C4
100
AcDbEntity
  8
0
100
AcDbBlockReference
 62
2
  6
CONTINUOUS
  2
_FILLED
 10
11.115098112
 20
54.7552911571
 41
0.5625
 42
0.5625
 43
0.5625
 50
270.0
  0
ENDBLK
  5
2C5
100
AcDbEntity
  8
0
  6
BYBLOCK
 62
0
100
AcDbBlockEnd
  0
BLOCK
  5
2C6
100
AcDbEntity
  8
0
100
AcDbBlockBegin
 62
2
  6
CONTINUOUS
  2
*D4
 70
65
 10
0.0
 20
0.0
  3
*D4
  1

  0
MTEXT
  5
2C7
100
AcDbEntity
  8
0
100
AcDbMText
 62
2
  6
CONTINUOUS
  7
STANDARD
 71
1
 72
1
 10
29.0805473077
 20
56.80708576
 30
0.0
 11
1.0
 21
0.0
 31
0.0
 44
0.9
  1
1.3\P[33]
 40
0.46875
 41
1.6071428571
  0
LINE
  5
2C8
100
AcDbEntity
  8
0
100
AcDbLine
 62
2
  6
CONTINUOUS
 10
25.9610525406
 20
53.8141494248
 11
28.7055473077
 21
53.8141494248
  0
LINE
  5
2C9
100
AcDbEntity
  8
0
100
AcDbLine
 62
2
  6
CONTINUOUS
 10
21.8665643516
 20
55.1133620232
 11
28.7055473077
 21
55.1133620232
  0
LINE
  5
2CA
100
AcDbEntity
  8
0
100
AcDbLine
 62
2
  6
CONTINUOUS
 10
28.3305473077
 20
53.8141494248
 11
28.3305473077
 21
52.3141494248
  0
LINE
  5
2CB
100
AcDbEntity
  8
0
100
AcDbLine
 62
2
  6
CONTINUOUS
 10
28.3305473077
 20
55.1133620232
 11
28.3305473077
 21
56.57271076
  0
LINE
  5
2CC
100
AcDbEntity
  8
0
100
AcDbLine
 62
2
  6
CONTINUOUS
 10
28.3305473077
 20
56.57271076
 11
28.8461723077
 21
56.57271076
  0
INSERT
  5
2CD
100
AcDbEntity
  8
0
100
AcDbBlockReference
 62
2
  6
CONTINUOUS
  2
_FILLED
 10
28.3305473077
 20
53.8141494248
 41
0.5625
 42
0.5625
 43
0.5625
 50
90.0
  0
INSERT
  5
2CE
100
AcDbEntity
  8
0
100
AcDbBlockReference
 62
2
  6
CONTINUOUS
  2
_FILLED
 10
28.3305473077
 20
55.1133620232
 41
0.5625
 42
0.5625
 43
0.5625
 50
270.0
  0
ENDBLK
  5
2CF
100
AcDbEntity
  8
0
  6
BYBLOCK
 62
0
100
AcDbBlockEnd
  0
BLOCK
  5
2D0
100
AcDbEntity
  8
0
100
AcDbBlockBegin
 62
2
  6
CONTINUOUS
  2
*D5
 70
65
 10
0.0
 20
0.0
  3
*D5
  1

  0
MTEXT
  5
2D1
100
AcDbEntity
  8
0
100
AcDbMText
 62
2
  6
CONTINUOUS
  7
STANDARD
 71
2
 72
1
 10
19.6859101756
 20
37.4913224305
 30
0.0
 11
1.0
 21
0.0
 31
0.0
 44
0.9
  1
12.0\P[305]
 40
0.46875
 41
2.1595982143
  0
LINE
  5
2D2
100
AcDbEntity
  8
0
100
AcDbLine
 62
2
  6
CONTINUOUS
 10
13.7656785249
 20
35.1936183758
 11
13.7656785249
 21
37.6319474305
  0
LINE
  5
2D3
100
AcDbEntity
  8
0
100
AcDbLine
 62
2
  6
CONTINUOUS
 10
25.7735525406
 20
35.1936183758
 11
25.7735525406
 21
37.6319474305
  0
LINE
  5
2D4
100
AcDbEntity
  8
0
100
AcDbLine
 62
2
  6
CONTINUOUS
 10
13.7656785249
 20
37.2569474305
 11
18.8153744613
 21
37.2569474305
  0
LINE
  5
2D5
100
AcDbEntity
  8
0
100
AcDbLine
 62
2
  6
CONTINUOUS
 10
25.7735525406
 20
37.2569474305
 11
20.7238566042
 21
37.2569474305
  0
INSERT
  5
2D6
100
AcDbEntity
  8
0
100
AcDbBlockReference
 62
2
  6
CONTINUOUS
  2
_FILLED
 10
13.7656785249
 20
37.2569474305
 41
0.5625
 42
0.5625
 43
0.5625
 50
180.0
  0
INSERT
  5
2D7
100
AcDbEntity
  8
0
100
AcDbBlockReference
 62
2
  6
CONTINUOUS
  2
_FILLED
 10
25.7735525406
 20
37.2569474305
 41
0.5625
 42
0.5625
 43
0.5625
  0
ENDBLK
  5
2D8
100
AcDbEntity
  8
0
  6
BYBLOCK
 62
0
100
AcDbBlockEnd
  0
BLOCK
  5
2D9
100
AcDbEntity
  8
0
100
AcDbBlockBegin
 62
2
  6
CONTINUOUS
  2
*D6
 70
65
 10
0.0
 20
0.0
  3
*D6
  1

  0
MTEXT
  5
2DA
100
AcDbEntity
  8
0
100
AcDbMText
 62
2
  6
CONTINUOUS
  7
STANDARD
 71
2
 72
1
 10
47.7500168359
 20
14.1617383182
 30
0.0
 11
1.0
 21
0.0
 31
0.0
 44
0.9
  1
3.8\P[95]
 40
0.46875
 41
1.6573660714
  0
LINE
  5
2DB
100
AcDbEntity
  8
0
100
AcDbLine
 62
2
  6
CONTINUOUS
 10
49.6919811216
 20
15.3697994781
 11
49.6919811216
 21
13.5523633182
  0
LINE
  5
2DC
100
AcDbEntity
  8
0
100
AcDbLine
 62
2
  6
CONTINUOUS
 10
45.9419811216
 20
25.7370379679
 11
45.9419811216
 21
13.5523633182
  0
LINE
  5
2DD
100
AcDbEntity
  8
0
100
AcDbLine
 62
2
  6
CONTINUOUS
 10
49.6919811216
 20
13.9273633182
 11
51.1919811216
 21
13.9273633182
  0
LINE
  5
2DE
100
AcDbEntity
  8
0
100
AcDbLine
 62
2
  6
CONTINUOUS
 10
45.9419811216
 20
13.9273633182
 11
44.4419811216
 21
13.9273633182
  0
INSERT
  5
2DF
100
AcDbEntity
  8
0
100
AcDbBlockReference
 62
2
  6
CONTINUOUS
  2
_FILLED
 10
49.6919811216
 20
13.9273633182
 41
0.5625
 42
0.5625
 43
0.5625
 50
180.0
  0
INSERT
  5
2E0
100
AcDbEntity
  8
0
100
AcDbBlockReference
 62
2
  6
CONTINUOUS
  2
_FILLED
 10
45.9419811216
 20
13.9273633182
 41
0.5625
 42
0.5625
 43
0.5625
  0
ENDBLK
  5
2E1
100
AcDbEntity
  8
0
  6
BYBLOCK
 62
0
100
AcDbBlockEnd
  0
BLOCK
  5
2E2
100
AcDbEntity
  8
0
100
AcDbBlockBegin
 62
2
  6
CONTINUOUS
  2
*D7
 70
65
 10
0.0
 20
0.0
  3
*D7
  1

  0
MTEXT
  5
2E3
100
AcDbEntity
  8
0
100
AcDbMText
 62
2
  6
CONTINUOUS
  7
STANDARD
 71
2
 72
1
 10
47.6082015198
 20
12.1427722214
 30
0.0
 11
1.0
 21
0.0
 31
0.0
 44
0.9
  1
4.5\P[115]
 40
0.46875
 41
1.9084821429
  0
LINE
  5
2E4
100
AcDbEntity
  8
0
100
AcDbLine
 62
2
  6
CONTINUOUS
 10
45.1608122522
 20
15.3697994781
 11
45.1608122522
 21
11.5333972214
  0
LINE
  5
2E5
100
AcDbEntity
  8
0
100
AcDbLine
 62
2
  6
CONTINUOUS
 10
49.6919811216
 20
15.3697994781
 11
49.6919811216
 21
11.5333972214
  0
LINE
  5
2E6
100
AcDbEntity
  8
0
100
AcDbLine
 62
2
  6
CONTINUOUS
 10
45.1608122522
 20
11.9083972214
 11
46.8883354484
 21
11.9083972214
  0
LINE
  5
2E7
100
AcDbEntity
  8
0
100
AcDbLine
 62
2
  6
CONTINUOUS
 10
49.6919811216
 20
11.9083972214
 11
48.629406877
 21
11.9083972214
  0
INSERT
  5
2E8
100
AcDbEntity
  8
0
100
AcDbBlockReference
 62
2
  6
CONTINUOUS
  2
_FILLED
 10
45.1608122522
 20
11.9083972214
 41
0.5625
 42
0.5625
 43
0.5625
 50
180.0
  0
INSERT
  5
2E9
100
AcDbEntity
  8
0
100
AcDbBlockReference
 62
2
  6
CONTINUOUS
  2
_FILLED
 10
49.6919811216
 20
11.9083972214
 41
0.5625
 42
0.5625
 43
0.5625
  0
ENDBLK
  5
2EA
100
AcDbEntity
  8
0
  6
BYBLOCK
 62
0
100
AcDbBlockEnd
  0
BLOCK
  5
2EB
100
AcDbEntity
  8
0
100
AcDbBlockBegin
 62
2
  6
CONTINUOUS
  2
*D8
 70
65
 10
0.0
 20
0.0
  3
*D8
  1

  0
MTEXT
  5
2EC
100
AcDbEntity
  8
0
100
AcDbMText
 62
2
  6
CONTINUOUS
  7
STANDARD
 71
2
 72
1
 10
44.5873800947
 20
40.7877476578
 30
0.0
 11
1.0
 21
0.0
 31
0.0
 44
0.9
  1
9.7\P[247]
 40
0.46875
 41
2.2600446429
  0
LINE
  5
2ED
100
AcDbEntity
  8
0
100
AcDbLine
 62
2
  6
CONTINUOUS
 10
49.6919811216
 20
33.4311957308
 11
49.6919811216
 21
40.9283726578
  0
LINE
  5
2EE
100
AcDbEntity
  8
0
100
AcDbLine
 62
2
  6
CONTINUOUS
 10
39.9850112106
 20
35.0611519354
 11
39.9850112106
 21
40.9283726578
  0
LINE
  5
2EF
100
AcDbEntity
  8
0
100
AcDbLine
 62
2
  6
CONTINUOUS
 10
49.6919811216
 20
40.5533726578
 11
45.8262193804
 21
40.5533726578
  0
LINE
  5
2F0
100
AcDbEntity
  8
0
100
AcDbLine
 62
2
  6
CONTINUOUS
 10
39.9850112106
 20
40.5533726578
 11
43.8507729518
 21
40.5533726578
  0
INSERT
  5
2F1
100
AcDbEntity
  8
0
100
AcDbBlockReference
 62
2
  6
CONTINUOUS
  2
_FILLED
 10
49.6919811216
 20
40.5533726578
 41
0.5625
 42
0.5625
 43
0.5625
  0
INSERT
  5
2F2
100
AcDbEntity
  8
0
100
AcDbBlockReference
 62
2
  6
CONTINUOUS
  2
_FILLED
 10
39.9850112106
 20
40.5533726578
 41
0.5625
 42
0.5625
 43
0.5625
 50
180.0
  0
ENDBLK
  5
2F3
100
AcDbEntity
  8
0
  6
BYBLOCK
 62
0
100
AcDbBlockEnd
  0
BLOCK
  5
2F4
100
AcDbEntity
  8
0
100
AcDbBlockBegin
 62
2
  6
CONTINUOUS
  2
*D9
 70
65
 10
0.0
 20
0.0
  3
*D9
  1

  0
MTEXT
  5
2F5
100
AcDbEntity
  8
0
100
AcDbMText
 62
2
  6
CONTINUOUS
  7
STANDARD
 71
2
 72
1
 10
34.9106796903
 20
31.1779933758
 30
0.0
 11
1.0
 21
0.0
 31
0.0
 44
0.9
  1
8.1\P[206]
 40
0.46875
 41
2.2600446429
  0
LINE
  5
2F6
100
AcDbEntity
  8
0
100
AcDbLine
 62
2
  6
CONTINUOUS
 10
40.2918826964
 20
35.0061183758
 11
34.837018976
 21
35.0061183758
  0
LINE
  5
2F7
100
AcDbEntity
  8
0
100
AcDbLine
 62
2
  6
CONTINUOUS
 10
44.4356376772
 20
26.8811183758
 11
34.837018976
 21
26.8811183758
  0
LINE
  5
2F8
100
AcDbEntity
  8
0
100
AcDbLine
 62
2
  6
CONTINUOUS
 10
35.212018976
 20
35.0061183758
 11
35.212018976
 21
31.4123683758
  0
LINE
  5
2F9
100
AcDbEntity
  8
0
100
AcDbLine
 62
2
  6
CONTINUOUS
 10
35.212018976
 20
26.8811183758
 11
35.212018976
 21
29.7717433758
  0
INSERT
  5
2FA
100
AcDbEntity
  8
0
100
AcDbBlockReference
 62
2
  6
CONTINUOUS
  2
_FILLED
 10
35.212018976
 20
35.0061183758
 41
0.5625
 42
0.5625
 43
0.5625
 50
90.0
  0
INSERT
  5
2FB
100
AcDbEntity
  8
0
100
AcDbBlockReference
 62
2
  6
CONTINUOUS
  2
_FILLED
 10
35.212018976
 20
26.8811183758
 41
0.5625
 42
0.5625
 43
0.5625
 50
270.0
  0
ENDBLK
  5
2FC
100
AcDbEntity
  8
0
  6
BYBLOCK
 62
0
100
AcDbBlockEnd
  0
BLOCK
  5
2FD
100
AcDbEntity
  8
0
100
AcDbBlockBegin
 62
2
  6
CONTINUOUS
  2
*D10
 70
65
 10
0.0
 20
0.0
  3
*D10
  1

  0
MTEXT
  5
2FE
100
AcDbEntity
  8
0
100
AcDbMText
 62
2
  6
CONTINUOUS
  7
STANDARD
 71
2
 72
1
 10
32.4586745758
 20
25.516083927
 30
0.0
 11
1.0
 21
0.0
 31
0.0
 44
0.9
  1
19.4\P[494]
 40
0.46875
 41
2.2600446429
  0
LINE
  5
2FF
100
AcDbEntity
  8
0
100
AcDbLine
 62
2
  6
CONTINUOUS
 10
40.2918826964
 20
35.0061183758
 11
32.2008620758
 21
35.0061183758
  0
LINE
  5
300
100
AcDbEntity
  8
0
100
AcDbLine
 62
2
  6
CONTINUOUS
 10
44.9733122522
 20
15.5572994781
 11
32.2008620758
 21
15.5572994781
  0
LINE
  5
301
100
AcDbEntity
  8
0
100
AcDbLine
 62
2
  6
CONTINUOUS
 10
32.5758620758
 20
35.0061183758
 11
32.5758620758
 21
25.750458927
  0
LINE
  5
302
100
AcDbEntity
  8
0
100
AcDbLine
 62
2
  6
CONTINUOUS
 10
32.5758620758
 20
15.5572994781
 11
32.5758620758
 21
24.109833927
  0
INSERT
  5
303
100
AcDbEntity
  8
0
100
AcDbBlockReference
 62
2
  6
CONTINUOUS
  2
_FILLED
 10
32.5758620758
 20
35.0061183758
 41
0.5625
 42
0.5625
 43
0.5625
 50
90.0
  0
INSERT
  5
304
100
AcDbEntity
  8
0
100
AcDbBlockReference
 62
2
  6
CONTINUOUS
  2
_FILLED
 10
32.5758620758
 20
15.5572994781
 41
0.5625
 42
0.5625
 43
0.5625
 50
270.0
  0
ENDBLK
  5
305
100
AcDbEntity
  8
0
  6
BYBLOCK
 62
0
100
AcDbBlockEnd
  0
BLOCK
  5
306
100
AcDbEntity
  8
0
100
AcDbBlockBegin
 62
2
  6
CONTINUOUS
  2
*D11
 70
65
 10
0.0
 20
0.0
  3
*D11
  1

  0
MTEXT
  5
307
100
AcDbEntity
  8
0
100
AcDbMText
 62
2
  6
CONTINUOUS
  7
STANDARD
 71
2
 72
1
 10
52.9779612027
 20
34.5395395315
 30
0.0
 11
1.0
 21
0.0
 31
0.0
 44
0.9
  1
2.0\P[52]
 40
0.46875
 41
1.6573660714
  0
LINE
  5
308
100
AcDbEntity
  8
0
100
AcDbLine
 62
2
  6
CONTINUOUS
 10
46.0999535626
 20
35.0061183758
 11
53.403184417
 21
35.0061183758
  0
LINE
  5
309
100
AcDbEntity
  8
0
100
AcDbLine
 62
2
  6
CONTINUOUS
 10
51.1786937201
 20
32.9586774309
 11
53.403184417
 21
32.9586774309
  0
LINE
  5
30A
100
AcDbEntity
  8
0
100
AcDbLine
 62
2
  6
CONTINUOUS
 10
53.028184417
 20
35.0061183758
 11
53.028184417
 21
36.5061183758
  0
LINE
  5
30B
100
AcDbEntity
  8
0
100
AcDbLine
 62
2
  6
CONTINUOUS
 10
53.028184417
 20
32.9586774309
 11
53.028184417
 21
31.4586774309
  0
INSERT
  5
30C
100
AcDbEntity
  8
0
100
AcDbBlockReference
 62
2
  6
CONTINUOUS
  2
_FILLED
 10
53.028184417
 20
35.0061183758
 41
0.5625
 42
0.5625
 43
0.5625
 50
270.0
  0
INSERT
  5
30D
100
AcDbEntity
  8
0
100
AcDbBlockReference
 62
2
  6
CONTINUOUS
  2
_FILLED
 10
53.028184417
 20
32.9586774309
 41
0.5625
 42
0.5625
 43
0.5625
 50
90.0
  0
ENDBLK
  5
30E
100
AcDbEntity
  8
0
  6
BYBLOCK
 62
0
100
AcDbBlockEnd
  0
BLOCK
  5
30F
100
AcDbEntity
  8
0
100
AcDbBlockBegin
 62
2
  6
CONTINUOUS
  2
*D12
 70
65
 10
0.0
 20
0.0
  3
*D12
  1

  0
MTEXT
  5
310
100
AcDbEntity
  8
0
100
AcDbMText
 62
2
  6
CONTINUOUS
  7
STANDARD
 71
2
 72
1
 10
52.8155903831
 20
30.3274411551
 30
0.0
 11
1.0
 21
0.0
 31
0.0
 44
0.9
  1
6.5\P[165]
 40
0.46875
 41
2.0591517857
  0
LINE
  5
311
100
AcDbEntity
  8
0
100
AcDbLine
 62
2
  6
CONTINUOUS
 10
50.4975913579
 20
26.4637955411
 11
53.3914832402
 21
26.4637955411
  0
LINE
  5
312
100
AcDbEntity
  8
0
100
AcDbLine
 62
2
  6
CONTINUOUS
 10
51.1786937201
 20
32.9586774309
 11
53.3914832402
 21
32.9586774309
  0
LINE
  5
313
100
AcDbEntity
  8
0
100
AcDbLine
 62
2
  6
CONTINUOUS
 10
53.0164832402
 20
26.4637955411
 11
53.0164832402
 21
28.9211911551
  0
LINE
  5
314
100
AcDbEntity
  8
0
100
AcDbLine
 62
2
  6
CONTINUOUS
 10
53.0164832402
 20
32.9586774309
 11
53.0164832402
 21
30.5618161551
  0
INSERT
  5
315
100
AcDbEntity
  8
0
100
AcDbBlockReference
 62
2
  6
CONTINUOUS
  2
_FILLED
 10
53.0164832402
 20
26.4637955411
 41
0.5625
 42
0.5625
 43
0.5625
 50
270.0
  0
INSERT
  5
316
100
AcDbEntity
  8
0
100
AcDbBlockReference
 62
2
  6
CONTINUOUS
  2
_FILLED
 10
53.0164832402
 20
32.9586774309
 41
0.5625
 42
0.5625
 43
0.5625
 50
90.0
  0
ENDBLK
  5
317
100
AcDbEntity
  8
0
  6
BYBLOCK
 62
0
100
AcDbBlockEnd
  0
BLOCK
  5
318
100
AcDbEntity
  8
0
100
AcDbBlockBegin
 62
2
  6
CONTINUOUS
  2
*D13
 70
65
 10
0.0
 20
0.0
  3
*D13
  1

  0
MTEXT
  5
319
100
AcDbEntity
  8
0
100
AcDbMText
 62
2
  6
CONTINUOUS
  7
STANDARD
 71
2
 72
1
 10
47.7578820637
 20
37.9286974752
 30
0.0
 11
1.0
 21
0.0
 31
0.0
 44
0.9
  1
3.7\P[94]
 40
0.46875
 41
1.7075892857
  0
LINE
  5
31A
100
AcDbEntity
  8
0
100
AcDbLine
 62
2
  6
CONTINUOUS
 10
49.6919811216
 20
33.4311957308
 11
49.6919811216
 21
38.0693224752
  0
LINE
  5
31B
100
AcDbEntity
  8
0
100
AcDbLine
 62
2
  6
CONTINUOUS
 10
45.9911937201
 20
28.5623191632
 11
45.9911937201
 21
38.0693224752
  0
LINE
  5
31C
100
AcDbEntity
  8
0
100
AcDbLine
 62
2
  6
CONTINUOUS
 10
49.6919811216
 20
37.6943224752
 11
48.6451588494
 21
37.6943224752
  0
LINE
  5
31D
100
AcDbEntity
  8
0
100
AcDbLine
 62
2
  6
CONTINUOUS
 10
45.9911937201
 20
37.6943224752
 11
47.0380159923
 21
37.6943224752
  0
INSERT
  5
31E
100
AcDbEntity
  8
0
100
AcDbBlockReference
 62
2
  6
CONTINUOUS
  2
_FILLED
 10
49.6919811216
 20
37.6943224752
 41
0.5625
 42
0.5625
 43
0.5625
  0
INSERT
  5
31F
100
AcDbEntity
  8
0
100
AcDbBlockReference
 62
2
  6
CONTINUOUS
  2
_FILLED
 10
45.9911937201
 20
37.6943224752
 41
0.5625
 42
0.5625
 43
0.5625
 50
180.0
  0
ENDBLK
  5
320
100
AcDbEntity
  8
0
  6
BYBLOCK
 62
0
100
AcDbBlockEnd
  0
BLOCK
  5
321
100
AcDbEntity
  8
0
100
AcDbBlockBegin
 62
2
  6
CONTINUOUS
  2
*D14
 70
65
 10
0.0
 20
0.0
  3
*D14
  1

  0
MTEXT
  5
322
100
AcDbEntity
  8
0
100
AcDbMText
 62
2
  6
CONTINUOUS
  7
STANDARD
 71
2
 72
1
 10
37.6840394264
 20
31.6381311711
 30
0.0
 11
1.0
 21
0.0
 31
0.0
 44
0.9
  1
7.2\P[183]
 40
0.46875
 41
2.0591517857
  0
LINE
  5
323
100
AcDbEntity
  8
0
100
AcDbLine
 62
2
  6
CONTINUOUS
 10
40.2918826964
 20
35.0061183758
 11
37.4931912121
 21
35.0061183758
  0
LINE
  5
324
100
AcDbEntity
  8
0
100
AcDbLine
 62
2
  6
CONTINUOUS
 10
45.2302685232
 20
27.8013939663
 11
37.4931912121
 21
27.8013939663
  0
LINE
  5
325
100
AcDbEntity
  8
0
100
AcDbLine
 62
2
  6
CONTINUOUS
 10
37.8681912121
 20
35.0061183758
 11
37.8681912121
 21
31.8725061711
  0
LINE
  5
326
100
AcDbEntity
  8
0
100
AcDbLine
 62
2
  6
CONTINUOUS
 10
37.8681912121
 20
27.8013939663
 11
37.8681912121
 21
30.2318811711
  0
INSERT
  5
327
100
AcDbEntity
  8
0
100
AcDbBlockReference
 62
2
  6
CONTINUOUS
  2
_FILLED
 10
37.8681912121
 20
35.0061183758
 41
0.5625
 42
0.5625
 43
0.5625
 50
90.0
  0
INSERT
  5
328
100
AcDbEntity
  8
0
100
AcDbBlockReference
 62
2
  6
CONTINUOUS
  2
_FILLED
 10
37.8681912121
 20
27.8013939663
 41
0.5625
 42
0.5625
 43
0.5625
 50
270.0
  0
ENDBLK
  5
329
100
AcDbEntity
  8
0
  6
BYBLOCK
 62
0
100
AcDbBlockEnd
  0
BLOCK
  5
32A
100
AcDbEntity
  8
0
100
AcDbBlockBegin
 62
2
  6
CONTINUOUS
  2
*D15
 70
65
 10
0.0
 20
0.0
  3
*D15
  1

  0
MTEXT
  5
32B
100
AcDbEntity
  8
0
100
AcDbMText
 62
2
  6
CONTINUOUS
  7
STANDARD
 71
1
 72
1
 10
75.2938574204
 20
37.8735836126
 30
0.0
 11
1.0
 21
0.0
 31
0.0
 44
0.9
  1
1.375\P[34,93]
 40
0.46875
 41
3.1138392857
  0
LINE
  5
32C
100
AcDbEntity
  8
0
100
AcDbLine
 62
2
  6
CONTINUOUS
 10
72.2639876609
 20
35.9423914003
 11
72.2639876609
 21
38.0142086126
  0
LINE
  5
32D
100
AcDbEntity
  8
0
100
AcDbLine
 62
2
  6
CONTINUOUS
 10
73.6389876609
 20
32.7012955411
 11
73.6389876609
 21
38.0142086126
  0
LINE
  5
32E
100
AcDbEntity
  8
0
100
AcDbLine
 62
2
  6
CONTINUOUS
 10
72.2639876609
 20
37.6392086126
 11
72.9514876609
 21
37.6392086126
  0
LINE
  5
32F
100
AcDbEntity
  8
0
100
AcDbLine
 62
2
  6
CONTINUOUS
 10
73.6389876609
 20
37.6392086126
 11
72.9514876609
 21
37.6392086126
  0
LINE
  5
330
100
AcDbEntity
  8
0
100
AcDbLine
 62
2
  6
CONTINUOUS
 10
72.9514876609
 20
37.6392086126
 11
75.0594824204
 21
37.6392086126
  0
INSERT
  5
331
100
AcDbEntity
  8
0
100
AcDbBlockReference
 62
2
  6
CONTINUOUS
  2
_FILLED
 10
72.2639876609
 20
37.6392086126
 41
0.5625
 42
0.5625
 43
0.5625
 50
180.0
  0
INSERT
  5
332
100
AcDbEntity
  8
0
100
AcDbBlockReference
 62
2
  6
CONTINUOUS
  2
_FILLED
 10
73.6389876609
 20
37.6392086126
 41
0.5625
 42
0.5625
 43
0.5625
  0
ENDBLK
  5
333
100
AcDbEntity
  8
0
  6
BYBLOCK
 62
0
100
AcDbBlockEnd
  0
BLOCK
  5
334
100
AcDbEntity
  8
0
100
AcDbBlockBegin
 62
2
  6
CONTINUOUS
  2
*D16
 70
65
 10
0.0
 20
0.0
  3
*D16
  1

  0
MTEXT
  5
335
100
AcDbEntity
  8
0
100
AcDbMText
 62
2
  6
CONTINUOUS
  7
STANDARD
 71
1
 72
1
 10
75.5429947358
 20
40.2542290703
 30
0.0
 11
1.0
 21
0.0
 31
0.0
 44
0.9
  1
2.750\P[69,85]
 40
0.46875
 41
3.1640625
  0
LINE
  5
336
100
AcDbEntity
  8
0
100
AcDbLine
 62
2
  6
CONTINUOUS
 10
70.8889876609
 20
32.7012955411
 11
70.8889876609
 21
40.3948540703
  0
LINE
  5
337
100
AcDbEntity
  8
0
100
AcDbLine
 62
2
  6
CONTINUOUS
 10
73.6389876609
 20
32.7012955411
 11
73.6389876609
 21
40.3948540703
  0
LINE
  5
338
100
AcDbEntity
  8
0
100
AcDbLine
 62
2
  6
CONTINUOUS
 10
70.8889876609
 20
40.0198540703
 11
72.2639876609
 21
40.0198540703
  0
LINE
  5
339
100
AcDbEntity
  8
0
100
AcDbLine
 62
2
  6
CONTINUOUS
 10
73.6389876609
 20
40.0198540703
 11
72.2639876609
 21
40.0198540703
  0
LINE
  5
33A
100
AcDbEntity
  8
0
100
AcDbLine
 62
2
  6
CONTINUOUS
 10
72.2639876609
 20
40.0198540703
 11
75.3086197358
 21
40.0198540703
  0
INSERT
  5
33B
100
AcDbEntity
  8
0
100
AcDbBlockReference
 62
2
  6
CONTINUOUS
  2
_FILLED
 10
70.8889876609
 20
40.0198540703
 41
0.5625
 42
0.5625
 43
0.5625
 50
180.0
  0
INSERT
  5
33C
100
AcDbEntity
  8
0
100
AcDbBlockReference
 62
2
  6
CONTINUOUS
  2
_FILLED
 10
73.6389876609
 20
40.0198540703
 41
0.5625
 42
0.5625
 43
0.5625
  0
ENDBLK
  5
33D
100
AcDbEntity
  8
0
  6
BYBLOCK
 62
0
100
AcDbBlockEnd
  0
BLOCK
  5
33E
100
AcDbEntity
  8
0
100
AcDbBlockBegin
 62
2
  6
CONTINUOUS
  2
*D17
 70
65
 10
0.0
 20
0.0
  3
*D17
  1

  0
MTEXT
  5
33F
100
AcDbEntity
  8
0
100
AcDbMText
 62
2
  6
CONTINUOUS
  7
STANDARD
 71
2
 72
1
 10
81.9928830106
 20
34.1609635885
 30
0.0
 11
1.0
 21
0.0
 31
0.0
 44
0.9
  1
2.92\P[74]
 40
0.46875
 41
2.0591517857
  0
LINE
  5
340
100
AcDbEntity
  8
0
100
AcDbLine
 62
2
  6
CONTINUOUS
 10
78.4554246688
 20
35.0061183758
 11
82.3678830106
 21
35.0061183758
  0
LINE
  5
341
100
AcDbEntity
  8
0
100
AcDbLine
 62
2
  6
CONTINUOUS
 10
74.2514876609
 20
32.0887955411
 11
82.3678830106
 21
32.0887955411
  0
LINE
  5
342
100
AcDbEntity
  8
0
100
AcDbLine
 62
2
  6
CONTINUOUS
 10
81.9928830106
 20
35.0061183758
 11
81.9928830106
 21
36.5061183758
  0
LINE
  5
343
100
AcDbEntity
  8
0
100
AcDbLine
 62
2
  6
CONTINUOUS
 10
81.9928830106
 20
32.0887955411
 11
81.9928830106
 21
30.5887955411
  0
INSERT
  5
344
100
AcDbEntity
  8
0
100
AcDbBlockReference
 62
2
  6
CONTINUOUS
  2
_FILLED
 10
81.9928830106
 20
35.0061183758
 41
0.5625
 42
0.5625
 43
0.5625
 50
270.0
  0
INSERT
  5
345
100
AcDbEntity
  8
0
100
AcDbBlockReference
 62
2
  6
CONTINUOUS
  2
_FILLED
 10
81.9928830106
 20
32.0887955411
 41
0.5625
 42
0.5625
 43
0.5625
 50
90.0
  0
ENDBLK
  5
346
100
AcDbEntity
  8
0
  6
BYBLOCK
 62
0
100
AcDbBlockEnd
  0
BLOCK
  5
347
100
AcDbEntity
  8
0
100
AcDbBlockBegin
 62
2
  6
CONTINUOUS
  2
*D18
 70
65
 10
0.0
 20
0.0
  3
*D18
  1

  0
MTEXT
  5
348
100
AcDbEntity
  8
0
100
AcDbMText
 62
2
  6
CONTINUOUS
  7
STANDARD
 71
2
 72
1
 10
81.9928830106
 20
30.2857819956
 30
0.0
 11
1.0
 21
0.0
 31
0.0
 44
0.9
  1
5.000\P[127]
 40
0.46875
 41
2.5613839286
  0
LINE
  5
349
100
AcDbEntity
  8
0
100
AcDbLine
 62
2
  6
CONTINUOUS
 10
74.2514876609
 20
32.0887955411
 11
82.3678830106
 21
32.0887955411
  0
LINE
  5
34A
100
AcDbEntity
  8
0
100
AcDbLine
 62
2
  6
CONTINUOUS
 10
74.2514876609
 20
27.0887955411
 11
82.3678830106
 21
27.0887955411
  0
LINE
  5
34B
100
AcDbEntity
  8
0
100
AcDbLine
 62
2
  6
CONTINUOUS
 10
81.9928830106
 20
32.0887955411
 11
81.9928830106
 21
30.5201569956
  0
LINE
  5
34C
100
AcDbEntity
  8
0
100
AcDbLine
 62
2
  6
CONTINUOUS
 10
81.9928830106
 20
27.0887955411
 11
81.9928830106
 21
28.8795319956
  0
INSERT
  5
34D
100
AcDbEntity
  8
0
100
AcDbBlockReference
 62
2
  6
CONTINUOUS
  2
_FILLED
 10
81.9928830106
 20
32.0887955411
 41
0.5625
 42
0.5625
 43
0.5625
 50
90.0
  0
INSERT
  5
34E
100
AcDbEntity
  8
0
100
AcDbBlockReference
 62
2
  6
CONTINUOUS
  2
_FILLED
 10
81.9928830106
 20
27.0887955411
 41
0.5625
 42
0.5625
 43
0.5625
 50
270.0
  0
ENDBLK
  5
34F
100
AcDbEntity
  8
0
  6
BYBLOCK
 62
0
100
AcDbBlockEnd
  0
ENDSEC
  0
SECTION
  2
ENTITIES
  0
MTEXT
  5
350
100
AcDbEntity
  8
0
100
AcDbMText
 62
2
  6
CONTINUOUS
  7
STANDARD
 71
1
 72
1
 10
7.3887232342
 20
1.0947500507
 30
0.0
 11
1.0
 21
0.0
 31
0.0
 44
0.9
  1
8
 40
0.46875
 41
0.5524553571
  0
MTEXT
  5
351
100
AcDbEntity
  8
0
100
AcDbMText
 62
2
  6
CONTINUOUS
  7
STANDARD
 71
1
 72
1
 10
19.5762232342
 20
1.0947500507
 30
0.0
 11
1.0
 21
0.0
 31
0.0
 44
0.9
  1
7
 40
0.46875
 41
0.5524553571
  0
MTEXT
  5
352
100
AcDbEntity
  8
0
100
AcDbMText
 62
2
  6
CONTINUOUS
  7
STANDARD
 71
1
 72
1
 10
31.7637232342
 20
1.0947500507
 30
0.0
 11
1.0
 21
0.0
 31
0.0
 44
0.9
  1
6
 40
0.46875
 41
0.5524553571
  0
MTEXT
  5
353
100
AcDbEntity
  8
0
100
AcDbMText
 62
2
  6
CONTINUOUS
  7
STANDARD
 71
1
 72
1
 10
43.9512232342
 20
1.0947500507
 30
0.0
 11
1.0
 21
0.0
 31
0.0
 44
0.9
  1
5
 40
0.46875
 41
0.5022321429
  0
MTEXT
  5
354
100
AcDbEntity
  8
0
100
AcDbMText
 62
2
  6
CONTINUOUS
  7
STANDARD
 71
1
 72
1
 10
56.1387232342
 20
1.0947500507
 30
0.0
 11
1.0
 21
0.0
 31
0.0
 44
0.9
  1
4
 40
0.46875
 41
0.5524553571
  0
MTEXT
  5
355
100
AcDbEntity
  8
0
100
AcDbMText
 62
2
  6
CONTINUOUS
  7
STANDARD
 71
1
 72
1
 10
68.3262232342
 20
1.0947500507
 30
0.0
 11
1.0
 21
0.0
 31
0.0
 44
0.9
  1
3
 40
0.46875
 41
0.5022321429
  0
MTEXT
  5
356
100
AcDbEntity
  8
0
100
AcDbMText
 62
2
  6
CONTINUOUS
  7
STANDARD
 71
1
 72
1
 10
80.5137232342
 20
1.0947500507
 30
0.0
 11
1.0
 21
0.0
 31
0.0
 44
0.9
  1
2
 40
0.46875
 41
0.5524553571
  0
MTEXT
  5
357
100
AcDbEntity
  8
0
100
AcDbMText
 62
2
  6
CONTINUOUS
  7
STANDARD
 71
1
 72
1
 10
92.7012232342
 20
1.0947500507
 30
0.0
 11
1.0
 21
0.0
 31
0.0
 44
0.9
  1
1
 40
0.46875
 41
0.4017857143
  0
MTEXT
  5
358
100
AcDbEntity
  8
0
100
AcDbMText
 62
2
  6
CONTINUOUS
  7
STANDARD
 71
1
 72
1
 10
7.3887232342
 20
65.5947500507
 30
0.0
 11
1.0
 21
0.0
 31
0.0
 44
0.9
  1
8
 40
0.46875
 41
0.6863839286
  0
MTEXT
  5
359
100
AcDbEntity
  8
0
100
AcDbMText
 62
2
  6
CONTINUOUS
  7
STANDARD
 71
1
 72
1
 10
19.5762232342
 20
65.5947500507
 30
0.0
 11
1.0
 21
0.0
 31
0.0
 44
0.9
  1
7
 40
0.46875
 41
0.5524553571
  0
MTEXT
  5
35A
100
AcDbEntity
  8
0
100
AcDbMText
 62
2
  6
CONTINUOUS
  7
STANDARD
 71
1
 72
1
 10
31.7637232342
 20
65.5947500507
 30
0.0
 11
1.0
 21
0.0
 31
0.0
 44
0.9
  1
6
 40
0.46875
 41
0.5524553571
  0
MTEXT
  5
35B
100
AcDbEntity
  8
0
100
AcDbMText
 62
2
  6
CONTINUOUS
  7
STANDARD
 71
1
 72
1
 10
43.9512232342
 20
65.5947500507
 30
0.0
 11
1.0
 21
0.0
 31
0.0
 44
0.9
  1
5
 40
0.46875
 41
0.5022321429
  0
MTEXT
  5
35C
100
AcDbEntity
  8
0
100
AcDbMText
 62
2
  6
CONTINUOUS
  7
STANDARD
 71
1
 72
1
 10
56.1387232342
 20
65.5947500507
 30
0.0
 11
1.0
 21
0.0
 31
0.0
 44
0.9
  1
4
 40
0.46875
 41
0.5524553571
  0
MTEXT
  5
35D
100
AcDbEntity
  8
0
100
AcDbMText
 62
2
  6
CONTINUOUS
  7
STANDARD
 71
1
 72
1
 10
68.3262232342
 20
65.5947500507
 30
0.0
 11
1.0
 21
0.0
 31
0.0
 44
0.9
  1
3
 40
0.46875
 41
0.5022321429
  0
MTEXT
  5
35E
100
AcDbEntity
  8
0
100
AcDbMText
 62
2
  6
CONTINUOUS
  7
STANDARD
 71
1
 72
1
 10
80.5137232342
 20
65.5947500507
 30
0.0
 11
1.0
 21
0.0
 31
0.0
 44
0.9
  1
2
 40
0.46875
 41
0.5524553571
  0
MTEXT
  5
35F
100
AcDbEntity
  8
0
100
AcDbMText
 62
2
  6
CONTINUOUS
  7
STANDARD
 71
1
 72
1
 10
92.7012232342
 20
65.5947500507
 30
0.0
 11
1.0
 21
0.0
 31
0.0
 44
0.9
  1
1
 40
0.46875
 41
0.4017857143
  0
MTEXT
  5
360
100
AcDbEntity
  8
0
100
AcDbMText
 62
2
  6
CONTINUOUS
  7
STANDARD
 71
1
 72
1
 10
0.5946579278
 20
9.6584698477
 30
0.0
 11
1.0
 21
0.0
 31
0.0
 44
0.9
  1
A
 40
0.46875
 41
0.6026785714
  0
MTEXT
  5
361
100
AcDbEntity
  8
0
100
AcDbMText
 62
2
  6
CONTINUOUS
  7
STANDARD
 71
1
 72
1
 10
0.5946579278
 20
25.4084698477
 30
0.0
 11
1.0
 21
0.0
 31
0.0
 44
0.9
  1
B
 40
0.46875
 41
0.5524553571
  0
MTEXT
  5
362
100
AcDbEntity
  8
0
100
AcDbMText
 62
2
  6
CONTINUOUS
  7
STANDARD
 71
1
 72
1
 10
0.5946579278
 20
41.1584698477
 30
0.0
 11
1.0
 21
0.0
 31
0.0
 44
0.9
  1
C
 40
0.46875
 41
0.5859375
  0
MTEXT
  5
363
100
AcDbEntity
  8
0
100
AcDbMText
 62
2
  6
CONTINUOUS
  7
STANDARD
 71
1
 72
1
 10
0.5946579278
 20
56.9084698477
 30
0.0
 11
1.0
 21
0.0
 31
0.0
 44
0.9
  1
D
 40
0.46875
 41
0.6361607143
  0
MTEXT
  5
364
100
AcDbEntity
  8
0
100
AcDbMText
 62
2
  6
CONTINUOUS
  7
STANDARD
 71
1
 72
1
 10
99.5946579278
 20
9.6584698477
 30
0.0
 11
1.0
 21
0.0
 31
0.0
 44
0.9
  1
A
 40
0.46875
 41
0.6026785714
  0
MTEXT
  5
365
100
AcDbEntity
  8
0
100
AcDbMText
 62
2
  6
CONTINUOUS
  7
STANDARD
 71
1
 72
1
 10
99.5946579278
 20
25.4084698477
 30
0.0
 11
1.0
 21
0.0
 31
0.0
 44
0.9
  1
B
 40
0.46875
 41
0.5524553571
  0
MTEXT
  5
366
100
AcDbEntity
  8
0
100
AcDbMText
 62
2
  6
CONTINUOUS
  7
STANDARD
 71
1
 72
1
 10
99.5946579278
 20
41.1584698477
 30
0.0
 11
1.0
 21
0.0
 31
0.0
 44
0.9
  1
C
 40
0.46875
 41
0.5859375
  0
MTEXT
  5
367
100
AcDbEntity
  8
0
100
AcDbMText
 62
2
  6
CONTINUOUS
  7
STANDARD
 71
1
 72
1
 10
99.5946579278
 20
56.9084698477
 30
0.0
 11
1.0
 21
0.0
 31
0.0
 44
0.9
  1
D
 40
0.46875
 41
0.6361607143
  0
MTEXT
  5
368
100
AcDbEntity
  8
0
100
AcDbMText
 62
5
  6
CONTINUOUS
  7
STANDARD
 71
1
 72
1
 10
1.6988688318
 20
64.3685463461
 30
0.0
 11
1.0
 21
0.0
 31
0.0
 44
0.9
  1
THIS DOCUMENT CONTAINS PROPRIETARY INFORMATION\PWHICH IS THE PROPERTY OF QSC, LLC, THAT MAY NOT BE\PDISCLOSED, REPRODUCED OR USED WITHOUT EXPRESS\PWRITTEN CONSENT FROM QSC, LLC.
 40
0.225
 41
13.33125
  0
MTEXT
  5
369
100
AcDbEntity
  8
0
100
AcDbMText
 62
2
  6
CONTINUOUS
  7
STANDARD
 71
2
 72
1
 10
72.6850277561
 20
8.9347723959
 30
0.0
 11
1.0
 21
0.0
 31
0.0
 44
0.9
  1
UNLESS OTHERWISE SPECIFIED\PDIMENSIONS IN INCHES [MM]
 40
0.3
 41
9.1928571429
  0
MTEXT
  5
36A
100
AcDbEntity
  8
0
100
AcDbMText
 62
2
  6
CONTINUOUS
  7
STANDARD
 71
2
 72
1
 10
72.7048418375
 20
7.7759564959
 30
0.0
 11
1.0
 21
0.0
 31
0.0
 44
0.9
  1
TOLERANCES ARE:
 40
0.27
 41
4.6382142857
  0
MTEXT
  5
36B
100
AcDbEntity
  8
0
100
AcDbMText
 62
2
  6
CONTINUOUS
  7
STANDARD
 71
2
 72
1
 10
70.4978299226
 20
7.0911167182
 30
0.0
 11
1.0
 21
0.0
 31
0.0
 44
0.9
  1
DECIMALS\P.XX\Fgdt;{\Fgdt;`}\Ftxt;.02[.5]
 40
0.27
 41
3.1339285714
  0
MTEXT
  5
36C
100
AcDbEntity
  8
0
100
AcDbMText
 62
2
  6
CONTINUOUS
  7
STANDARD
 71
2
 72
1
 10
73.125
 20
7.0725
 30
0.0
 11
1.0
 21
0.0
 31
0.0
 44
0.9
  1
DECIMALS\P.XXX\Fgdt;{\Fgdt;`}\Ftxt;.010[.25]
 40
0.27
 41
4.0307142857
  0
MTEXT
  5
36D
100
AcDbEntity
  8
0
100
AcDbMText
 62
2
  6
CONTINUOUS
  7
STANDARD
 71
2
 72
1
 10
75.3878909831
 20
7.0875020839
 30
0.0
 11
1.0
 21
0.0
 31
0.0
 44
0.9
  1
ANGLES\P\Fgdt;{\Fgdt;`}\Ftxt; 1/2
 40
0.27
 41
1.9285714286
  0
MTEXT
  5
36E
100
AcDbEntity
  8
0
100
AcDbMText
 62
2
  6
CONTINUOUS
  7
STANDARD
 71
2
 72
1
 10
72.75
 20
5.9475
 30
0.0
 11
1.0
 21
0.0
 31
0.0
 44
0.9
  1
DEBURR EDGES .010 [.25] R MAX
 40
0.27
 41
8.8232142857
  0
MTEXT
  5
36F
100
AcDbEntity
  8
0
100
AcDbMText
 62
2
  6
CONTINUOUS
  7
STANDARD
 71
2
 72
1
 10
70.3767734424
 20
5.0586597527
 30
0.0
 11
1.0
 21
0.0
 31
0.0
 44
0.9
  1
MATERIAL
 40
0.27
 41
2.5939285714
  0
MTEXT
  5
370
100
AcDbEntity
  8
0
100
AcDbMText
 62
2
  6
CONTINUOUS
  7
STANDARD
 71
2
 72
1
 10
70.0894191481
 20
3.2314398808
 30
0.0
 11
1.0
 21
0.0
 31
0.0
 44
0.9
  1
FINISH
 40
0.27
 41
1.8417857143
  0
MTEXT
  5
371
100
AcDbEntity
  8
0
100
AcDbMText
 62
2
  6
CONTINUOUS
  7
STANDARD
 71
2
 72
1
 10
90.8093769444
 20
2.0427076852
 30
0.0
 11
1.0
 21
0.0
 31
0.0
 44
0.9
  1
DO NOT SCALE DRAWING
 40
0.375
 41
9.3482142857
  0
MTEXT
  5
372
100
AcDbEntity
  8
0
100
AcDbMText
 62
2
  6
CONTINUOUS
  7
STANDARD
 71
2
 72
1
 10
76.8718403833
 20
8.1529997057
 30
0.0
 11
1.0
 21
0.0
 31
0.0
 44
0.9
  1
DRAWN
 40
0.27
 41
1.9767857143
  0
MTEXT
  5
373
100
AcDbEntity
  8
0
100
AcDbMText
 62
2
  6
CONTINUOUS
  7
STANDARD
 71
2
 72
1
 10
76.9772126356
 20
6.8232164832
 30
0.0
 11
1.0
 21
0.0
 31
0.0
 44
0.9
  1
CHECKED
 40
0.27
 41
2.3335714286
  0
MTEXT
  5
374
100
AcDbEntity
  8
0
100
AcDbMText
 62
2
  6
CONTINUOUS
  7
STANDARD
 71
2
 72
1
 10
76.9585953789
 20
5.5143277336
 30
0.0
 11
1.0
 21
0.0
 31
0.0
 44
0.9
  1
MFG ENG
 40
0.27
 41
2.2757142857
  0
MTEXT
  5
375
100
AcDbEntity
  8
0
100
AcDbMText
 62
2
  6
CONTINUOUS
  7
STANDARD
 71
2
 72
1
 10
77.0939480476
 20
4.1963530404
 30
0.0
 11
1.0
 21
0.0
 31
0.0
 44
0.9
  1
QA CHECK
 40
0.27
 41
2.6903571429
  0
MTEXT
  5
376
100
AcDbEntity
  8
0
100
AcDbMText
 62
2
  6
CONTINUOUS
  7
STANDARD
 71
2
 72
1
 10
77.8695705011
 20
2.0280074066
 30
0.0
 11
1.0
 21
0.0
 31
0.0
 44
0.9
  1
MODEL INFO:
 40
0.27
 41
3.3075
  0
MTEXT
  5
377
100
AcDbEntity
  8
0
100
AcDbMText
 62
2
  6
CONTINUOUS
  7
STANDARD
 71
2
 72
1
 10
77.5915526799
 20
2.7550831245
 30
0.0
 11
1.0
 21
0.0
 31
0.0
 44
0.9
  1
DRAWING INFO:
 40
0.27
 41
4.2042857143
  0
MTEXT
  5
378
100
AcDbEntity
  8
0
100
AcDbMText
 62
2
  6
CONTINUOUS
  7
STANDARD
 71
2
 72
1
 10
78.7239697367
 20
8.8687597942
 30
0.0
 11
1.0
 21
0.0
 31
0.0
 44
0.9
  1
APPROVALS
 40
0.27
 41
2.9603571429
  0
MTEXT
  5
379
100
AcDbEntity
  8
0
100
AcDbMText
 62
2
  6
CONTINUOUS
  7
STANDARD
 71
2
 72
1
 10
82.6321879336
 20
9.1054725154
 30
0.0
 11
1.0
 21
0.0
 31
0.0
 44
0.9
  1
DATE\P(DD-MMM-YY)
 40
0.27
 41
3.3942857143
  0
MTEXT
  5
37A
100
AcDbEntity
  8
0
100
AcDbMText
 62
2
  6
CONTINUOUS
  7
STANDARD
 71
2
 72
1
 10
84.7180937442
 20
2.0010609907
 30
0.0
 11
1.0
 21
0.0
 31
0.0
 44
0.9
  1
SCALE:
 40
0.27
 41
1.7742857143
  0
MTEXT
  5
37B
100
AcDbEntity
  8
0
100
AcDbMText
 62
2
  6
CONTINUOUS
  7
STANDARD
 71
2
 72
1
 10
94.8487282029
 20
2.0060426595
 30
0.0
 11
1.0
 21
0.0
 31
0.0
 44
0.9
  1
SHEET
 40
0.27
 41
1.6392857143
  0
MTEXT
  5
37C
100
AcDbEntity
  8
0
100
AcDbMText
 62
2
  6
CONTINUOUS
  7
STANDARD
 71
2
 72
1
 10
84.7259383523
 20
3.630989002
 30
0.0
 11
1.0
 21
0.0
 31
0.0
 44
0.9
  1
SIZE
 40
0.27
 41
1.2632142857
  0
MTEXT
  5
37D
100
AcDbEntity
  8
0
100
AcDbMText
 62
2
  6
CONTINUOUS
  7
STANDARD
 71
2
 72
1
 10
86.951092826
 20
3.6342493293
 30
0.0
 11
1.0
 21
0.0
 31
0.0
 44
0.9
  1
CAGE CODE
 40
0.27
 41
2.9989285714
  0
MTEXT
  5
37E
100
AcDbEntity
  8
0
100
AcDbMText
 62
2
  6
CONTINUOUS
  7
STANDARD
 71
2
 72
1
 10
89.8228492441
 20
3.6279988972
 30
0.0
 11
1.0
 21
0.0
 31
0.0
 44
0.9
  1
DRAWING NO.
 40
0.27
 41
3.7414285714
  0
MTEXT
  5
37F
100
AcDbEntity
  8
0
100
AcDbMText
 62
2
  6
CONTINUOUS
  7
STANDARD
 71
2
 72
1
 10
98.2863979783
 20
3.63202172
 30
0.0
 11
1.0
 21
0.0
 31
0.0
 44
0.9
  1
REV
 40
0.27
 41
1.0221428571
  0
MTEXT
  5
380
100
AcDbEntity
  8
0
100
AcDbMText
 62
2
  6
CONTINUOUS
  7
STANDARD
 71
2
 72
1
 10
91.2489057495
 20
8.9618953025
 30
0.0
 11
1.0
 21
0.0
 31
0.0
 44
0.9
  1
QSC, LLC
 40
0.46875
 41
4.3191964286
  0
MTEXT
  5
381
100
AcDbEntity
  8
0
100
AcDbMText
 62
2
  6
CONTINUOUS
  7
STANDARD
 71
1
 72
1
 10
89.7363972414
 20
8.2628704917
 30
0.0
 11
1.0
 21
0.0
 31
0.0
 44
0.9
  1
1675 MACARTHUR BOULEVARD\PCOSTA MESA, CA  92626
 40
0.375
 41
10.7544642857
  0
MTEXT
  5
382
100
AcDbEntity
  8
0
100
AcDbMText
 62
2
  6
CONTINUOUS
  7
STANDARD
 71
1
 72
1
 10
85.8903254667
 20
2.9888294753
 30
0.0
 11
1.0
 21
0.0
 31
0.0
 44
0.9
  1
00PW4
 40
0.46875
 41
3.2979910714
  0
INSERT
  5
383
100
AcDbEntity
  8
0
100
AcDbBlockReference
 62
7
  6
CONTINUOUS
  2
RD010411_BL0
 10
86.6664608964
 20
8.1033319955
  0
DIMENSION
  5
384
100
AcDbEntity
  8
0
100
AcDbDimension
 62
2
  6
CONTINUOUS
  2
*D0
 10
19.7696155327
 20
56.5662832691
 11
17.0775605651
 21
56.2147207691
 70
160
 71
3
 42
25.4
  3
DIMSTYLE_1
100
AcDbAlignedDimension
 13
18.7696155327
 23
55.3989919445
 14
19.7696155327
 24
55.6869859355
100
AcDbRotatedDimension
  0
DIMENSION
  5
385
100
AcDbEntity
  8
0
100
AcDbDimension
 62
2
  6
CONTINUOUS
  2
*D1
 10
20.7696155327
 20
57.9918071643
 11
19.7696155327
 21
57.6402446643
 70
160
 71
2
 42
50.8
  3
DIMSTYLE_1
100
AcDbAlignedDimension
 13
18.7696155327
 23
55.3989919445
 14
20.7696155327
 24
55.3989919445
100
AcDbRotatedDimension
  0
DIMENSION
  5
386
100
AcDbEntity
  8
0
100
AcDbDimension
 62
2
  6
CONTINUOUS
  2
*D2
 10
23.2204029343
 20
59.9731967189
 11
19.7696155327
 21
59.6216342189
 70
160
 71
2
 42
175.3
  3
DIMSTYLE_1
100
AcDbAlignedDimension
 13
16.3188281312
 23
54.557259661
 14
23.2204029343
 24
54.557259661
100
AcDbRotatedDimension
  0
DIMENSION
  5
387
100
AcDbEntity
  8
0
100
AcDbDimension
 62
2
  6
CONTINUOUS
  2
*D3
 10
11.115098112
 20
54.7552911571
 11
9.5927587108
 21
56.1393789879
 70
160
 71
3
 42
23.905
  3
DIMSTYLE_1
100
AcDbAlignedDimension
 13
13.6406785249
 23
53.8141494248
 14
18.5009147453
 24
54.7552911571
 50
90.0
100
AcDbRotatedDimension
  0
DIMENSION
  5
388
100
AcDbEntity
  8
0
100
AcDbDimension
 62
2
  6
CONTINUOUS
  2
*D4
 10
28.3305473077
 20
55.1133620232
 11
29.6162615935
 21
56.22114826
 70
160
 71
1
 42
33.0
  3
DIMSTYLE_1
100
AcDbAlignedDimension
 13
25.8985525406
 23
53.8141494248
 14
21.8040643516
 24
55.1133620232
 50
90.0
100
AcDbRotatedDimension
  0
DIMENSION
  5
389
100
AcDbEntity
  8
0
100
AcDbDimension
 62
2
  6
CONTINUOUS
  2
*D5
 10
25.7735525406
 20
37.2569474305
 11
19.7696155327
 21
36.9053849305
 70
160
 71
2
 42
305.0
  3
DIMSTYLE_1
100
AcDbAlignedDimension
 13
13.7656785249
 23
35.1311183758
 14
25.7735525406
 24
35.1311183758
100
AcDbRotatedDimension
  0
DIMENSION
  5
38A
100
AcDbEntity
  8
0
100
AcDbDimension
 62
2
  6
CONTINUOUS
  2
*D6
 10
45.9419811216
 20
13.9273633182
 11
47.8169811216
 21
13.5758008182
 70
160
 71
2
 42
95.25
  3
DIMSTYLE_1
100
AcDbAlignedDimension
 13
49.6919811216
 23
15.4322994781
 14
45.9419811216
 24
25.7995379679
 50
180.0
100
AcDbRotatedDimension
  0
DIMENSION
  5
38B
100
AcDbEntity
  8
0
100
AcDbDimension
 62
2
  6
CONTINUOUS
  2
*D7
 10
49.6919811216
 20
11.9083972214
 11
47.7588711627
 21
11.5568347214
 70
160
 71
2
 42
115.0916892844
  3
DIMSTYLE_1
100
AcDbAlignedDimension
 13
45.1608122522
 23
15.4322994781
 14
49.6919811216
 24
15.4322994781
100
AcDbRotatedDimension
  0
DIMENSION
  5
38C
100
AcDbEntity
  8
0
100
AcDbDimension
 62
2
  6
CONTINUOUS
  2
*D8
 10
39.9850112106
 20
40.5533726578
 11
44.8384961661
 21
40.2018101578
 70
160
 71
2
 42
246.5570357418
  3
DIMSTYLE_1
100
AcDbAlignedDimension
 13
49.6919811216
 23
33.3686957308
 14
39.9850112106
 24
34.9986519354
 50
180.0
100
AcDbRotatedDimension
  0
DIMENSION
  5
38D
100
AcDbEntity
  8
0
100
AcDbDimension
 62
2
  6
CONTINUOUS
  2
*D9
 10
35.212018976
 20
26.8811183758
 11
35.212018976
 21
30.5920558758
 70
160
 71
2
 42
206.375
  3
DIMSTYLE_1
100
AcDbAlignedDimension
 13
40.3543826964
 23
35.0061183758
 14
44.4981376772
 24
26.8811183758
 50
270.0
100
AcDbRotatedDimension
  0
DIMENSION
  5
38E
100
AcDbEntity
  8
0
100
AcDbDimension
 62
2
  6
CONTINUOUS
  2
*D10
 10
32.5758620758
 20
15.5572994781
 11
32.5758620758
 21
24.930146427
 70
160
 71
2
 42
494.0
  3
DIMSTYLE_1
100
AcDbAlignedDimension
 13
40.3543826964
 23
35.0061183758
 14
45.0358122522
 24
15.5572994781
 50
270.0
100
AcDbRotatedDimension
  0
DIMENSION
  5
38F
100
AcDbEntity
  8
0
100
AcDbDimension
 62
2
  6
CONTINUOUS
  2
*D11
 10
53.028184417
 20
32.9586774309
 11
53.028184417
 21
33.9536020315
 70
160
 71
2
 42
52.005
  3
DIMSTYLE_1
100
AcDbAlignedDimension
 13
46.0374535626
 23
35.0061183758
 14
51.1161937201
 24
32.9586774309
 50
270.0
100
AcDbRotatedDimension
  0
DIMENSION
  5
390
100
AcDbEntity
  8
0
100
AcDbDimension
 62
2
  6
CONTINUOUS
  2
*D12
 10
53.0164832402
 20
32.9586774309
 11
53.0164832402
 21
29.7415036551
 70
160
 71
2
 42
164.97
  3
DIMSTYLE_1
100
AcDbAlignedDimension
 13
50.4350913579
 23
26.4637955411
 14
51.1161937201
 24
32.9586774309
 50
90.0
100
AcDbRotatedDimension
  0
DIMENSION
  5
391
100
AcDbEntity
  8
0
100
AcDbDimension
 62
2
  6
CONTINUOUS
  2
*D13
 10
45.9911937201
 20
37.6943224752
 11
47.8415874209
 21
37.3427599752
 70
160
 71
2
 42
94.0
  3
DIMSTYLE_2
100
AcDbAlignedDimension
 13
49.6919811216
 23
33.3686957308
 14
45.9911937201
 24
28.4998191632
 50
180.0
100
AcDbRotatedDimension
  0
DIMENSION
  5
392
100
AcDbEntity
  8
0
100
AcDbDimension
 62
2
  6
CONTINUOUS
  2
*D14
 10
37.8681912121
 20
27.8013939663
 11
37.8681912121
 21
31.0521936711
 70
160
 71
2
 42
183.0
  3
DIMSTYLE_2
100
AcDbAlignedDimension
 13
40.3543826964
 23
35.0061183758
 14
45.2927685232
 24
27.8013939663
 50
270.0
100
AcDbRotatedDimension
  0
DIMENSION
  5
393
100
AcDbEntity
  8
0
100
AcDbDimension
 62
2
  6
CONTINUOUS
  2
*D15
 10
73.6389876609
 20
37.6392086126
 11
76.331803849
 21
37.2876461126
 70
160
 71
1
 42
34.925
  3
DIMSTYLE_3
100
AcDbAlignedDimension
 13
72.2639876609
 23
35.8798914003
 14
73.6389876609
 24
32.6387955411
100
AcDbRotatedDimension
  0
DIMENSION
  5
394
100
AcDbEntity
  8
0
100
AcDbDimension
 62
2
  6
CONTINUOUS
  2
*D16
 10
73.6389876609
 20
40.0198540703
 11
76.5976822358
 21
39.6682915703
 70
160
 71
1
 42
69.85
  3
DIMSTYLE_2
100
AcDbAlignedDimension
 13
70.8889876609
 23
32.6387955411
 14
73.6389876609
 24
32.6387955411
100
AcDbRotatedDimension
  0
DIMENSION
  5
395
100
AcDbEntity
  8
0
100
AcDbDimension
 62
2
  6
CONTINUOUS
  2
*D17
 10
81.9928830106
 20
32.0887955411
 11
81.9928830106
 21
33.5750260885
 70
160
 71
2
 42
74.1
  3
DIMSTYLE_1
100
AcDbAlignedDimension
 13
78.3929246688
 23
35.0061183758
 14
74.1889876609
 24
32.0887955411
 50
270.0
100
AcDbRotatedDimension
  0
DIMENSION
  5
396
100
AcDbEntity
  8
0
100
AcDbDimension
 62
2
  6
CONTINUOUS
  2
*D18
 10
81.9928830106
 20
27.0887955411
 11
81.9928830106
 21
29.6998444956
 70
160
 71
2
 42
127.0
  3
DIMSTYLE_2
100
AcDbAlignedDimension
 13
74.1889876609
 23
32.0887955411
 14
74.1889876609
 24
27.0887955411
 50
270.0
100
AcDbRotatedDimension
  0
LWPOLYLINE
  5
397
100
AcDbEntity
  8
0
100
AcDbPolyline
 62
2
  6
CONTINUOUS
 90
2
 70
0
 43
0.06
 10
99.0301046906
 20
64.4981218332
 10
68.7826046906
 20
64.4981218332
  0
LWPOLYLINE
  5
398
100
AcDbEntity
  8
0
100
AcDbPolyline
 62
2
  6
CONTINUOUS
 90
2
 70
0
 43
0.06
 10
99.0001046906
 20
64.4981218332
 10
99.0001046906
 20
60.7481218332
  0
LWPOLYLINE
  5
399
100
AcDbEntity
  8
0
100
AcDbPolyline
 62
2
  6
CONTINUOUS
 90
2
 70
0
 43
0.06
 10
99.0001046906
 20
63.5606218332
 10
68.8126046906
 20
63.5606218332
  0
LWPOLYLINE
  5
39A
100
AcDbEntity
  8
0
100
AcDbPolyline
 62
2
  6
CONTINUOUS
 90
2
 70
0
 43
0.06
 10
99.0001046906
 20
62.6231218332
 10
68.8126046906
 20
62.6231218332
  0
LWPOLYLINE
  5
39B
100
AcDbEntity
  8
0
100
AcDbPolyline
 62
2
  6
CONTINUOUS
 90
2
 70
0
 43
0.06
 10
99.0001046906
 20
61.6856218332
 10
68.8126046906
 20
61.6856218332
  0
LWPOLYLINE
  5
39C
100
AcDbEntity
  8
0
100
AcDbPolyline
 62
2
  6
CONTINUOUS
 90
2
 70
0
 43
0.06
 10
99.0301046906
 20
60.7481218332
 10
68.7826046906
 20
60.7481218332
  0
LWPOLYLINE
  5
39D
100
AcDbEntity
  8
0
100
AcDbPolyline
 62
2
  6
CONTINUOUS
 90
2
 70
0
 43
0.06
 10
96.7501046906
 20
63.5606218332
 10
96.7501046906
 20
60.7481218332
  0
LWPOLYLINE
  5
39E
100
AcDbEntity
  8
0
100
AcDbPolyline
 62
2
  6
CONTINUOUS
 90
2
 70
0
 43
0.06
 10
93.3751046906
 20
63.5606218332
 10
93.3751046906
 20
60.7481218332
  0
LWPOLYLINE
  5
39F
100
AcDbEntity
  8
0
100
AcDbPolyline
 62
2
  6
CONTINUOUS
 90
2
 70
0
 43
0.06
 10
91.8751046906
 20
63.5606218332
 10
91.8751046906
 20
60.7481218332
  0
LWPOLYLINE
  5
3A0
100
AcDbEntity
  8
0
100
AcDbPolyline
 62
2
  6
CONTINUOUS
 90
2
 70
0
 43
0.06
 10
72.7501046906
 20
63.5606218332
 10
72.7501046906
 20
60.7481218332
  0
LWPOLYLINE
  5
3A1
100
AcDbEntity
  8
0
100
AcDbPolyline
 62
2
  6
CONTINUOUS
 90
2
 70
0
 43
0.06
 10
70.3126046906
 20
63.5606218332
 10
70.3126046906
 20
60.7481218332
  0
LWPOLYLINE
  5
3A2
100
AcDbEntity
  8
0
100
AcDbPolyline
 62
2
  6
CONTINUOUS
 90
2
 70
0
 43
0.06
 10
68.8126046906
 20
64.4981218332
 10
68.8126046906
 20
60.7481218332
  0
MTEXT
  5
3A3
100
AcDbEntity
  8
0
100
AcDbMText
 62
2
  6
CONTINUOUS
  7
STANDARD
 71
2
 72
1
 10
83.9063546906
 20
64.2637468332
 30
0.0
 11
1.0
 21
0.0
 31
0.0
 44
0.9
  1
REVISIONS
 40
0.46875
 41
4.7544642857
  0
MTEXT
  5
3A4
100
AcDbEntity
  8
0
100
AcDbMText
 62
2
  6
CONTINUOUS
  7
STANDARD
 71
2
 72
1
 10
97.8751046906
 20
63.3258718332
 30
0.0
 11
1.0
 21
0.0
 31
0.0
 44
0.9
  1
ISSUED
 40
0.468
 41
3.2425714286
  0
MTEXT
  5
3A5
100
AcDbEntity
  8
0
100
AcDbMText
 62
2
  6
CONTINUOUS
  7
STANDARD
 71
2
 72
1
 10
95.0626046906
 20
63.3258718332
 30
0.0
 11
1.0
 21
0.0
 31
0.0
 44
0.9
  1
EFF DATE
 40
0.468
 41
4.3958571429
  0
MTEXT
  5
3A6
100
AcDbEntity
  8
0
100
AcDbMText
 62
2
  6
CONTINUOUS
  7
STANDARD
 71
2
 72
1
 10
92.6251046906
 20
63.3262468332
 30
0.0
 11
1.0
 21
0.0
 31
0.0
 44
0.9
  1
BY
 40
0.46875
 41
1.1551339286
  0
MTEXT
  5
3A7
100
AcDbEntity
  8
0
100
AcDbMText
 62
2
  6
CONTINUOUS
  7
STANDARD
 71
2
 72
1
 10
82.3126046906
 20
63.3258718332
 30
0.0
 11
1.0
 21
0.0
 31
0.0
 44
0.9
  1
DESCRIPTION
 40
0.468
 41
5.9837142857
  0
MTEXT
  5
3A8
100
AcDbEntity
  8
0
100
AcDbMText
 62
2
  6
CONTINUOUS
  7
STANDARD
 71
2
 72
1
 10
71.5313546906
 20
63.3262468332
 30
0.0
 11
1.0
 21
0.0
 31
0.0
 44
0.9
  1
ECO
 40
0.46875
 41
1.640625
  0
MTEXT
  5
3A9
100
AcDbEntity
  8
0
100
AcDbMText
 62
2
  6
CONTINUOUS
  7
STANDARD
 71
2
 72
1
 10
69.5626046906
 20
63.3258718332
 30
0.0
 11
1.0
 21
0.0
 31
0.0
 44
0.9
  1
REV
 40
0.468
 41
1.638
  0
MTEXT
  5
3AA
100
AcDbEntity
  8
0
100
AcDbMText
 62
2
  6
CONTINUOUS
  7
STANDARD
 71
2
 72
1
 10
97.8751046906
 20
62.3887468332
 30
0.0
 11
1.0
 21
0.0
 31
0.0
 44
0.9
  1
DD
 40
0.46875
 41
1.40625
  0
MTEXT
  5
3AB
100
AcDbEntity
  8
0
100
AcDbMText
 62
2
  6
CONTINUOUS
  7
STANDARD
 71
2
 72
1
 10
95.0626046906
 20
62.3887468332
 30
0.0
 11
1.0
 21
0.0
 31
0.0
 44
0.9
  1
14-AUG-12
 40
0.46875
 41
4.7544642857
  0
MTEXT
  5
3AC
100
AcDbEntity
  8
0
100
AcDbMText
 62
2
  6
CONTINUOUS
  7
STANDARD
 71
2
 72
1
 10
92.6251046906
 20
62.3887468332
 30
0.0
 11
1.0
 21
0.0
 31
0.0
 44
0.9
  1
VU
 40
0.46875
 41
1.2723214286
  0
MTEXT
  5
3AD
100
AcDbEntity
  8
0
100
AcDbMText
 62
2
  6
CONTINUOUS
  7
STANDARD
 71
1
 72
1
 10
72.9376046906
 20
62.3887468332
 30
0.0
 11
1.0
 21
0.0
 31
0.0
 44
0.9
  1
RELEASE FOR MARKETING DATA
 40
0.46875
 41
14.4810267857
  0
MTEXT
  5
3AE
100
AcDbEntity
  8
0
100
AcDbMText
 62
2
  6
CONTINUOUS
  7
STANDARD
 71
2
 72
1
 10
71.5313546906
 20
62.3887468332
 30
0.0
 11
1.0
 21
0.0
 31
0.0
 44
0.9
  1
-
 40
0.46875
 41
0.6361607143
  0
MTEXT
  5
3AF
100
AcDbEntity
  8
0
100
AcDbMText
 62
2
  6
CONTINUOUS
  7
STANDARD
 71
2
 72
1
 10
69.5626046906
 20
62.3887468332
 30
0.0
 11
1.0
 21
0.0
 31
0.0
 44
0.9
  1
A
 40
0.46875
 41
0.7366071429
  0
MTEXT
  5
3B0
100
AcDbEntity
  8
0
100
AcDbMText
 62
2
  6
CONTINUOUS
  7
STANDARD
 71
2
 72
1
 10
97.8751046906
 20
61.4512468332
 30
0.0
 11
1.0
 21
0.0
 31
0.0
 44
0.9
  1
DD
 40
0.46875
 41
1.40625
  0
MTEXT
  5
3B1
100
AcDbEntity
  8
0
100
AcDbMText
 62
2
  6
CONTINUOUS
  7
STANDARD
 71
2
 72
1
 10
95.0626046906
 20
61.4512468332
 30
0.0
 11
1.0
 21
0.0
 31
0.0
 44
0.9
  1
16-SEP-13
 40
0.46875
 41
4.6037946429
  0
MTEXT
  5
3B2
100
AcDbEntity
  8
0
100
AcDbMText
 62
2
  6
CONTINUOUS
  7
STANDARD
 71
2
 72
1
 10
92.6251046906
 20
61.4512468332
 30
0.0
 11
1.0
 21
0.0
 31
0.0
 44
0.9
  1
VU
 40
0.46875
 41
1.2723214286
  0
MTEXT
  5
3B3
100
AcDbEntity
  8
0
100
AcDbMText
 62
2
  6
CONTINUOUS
  7
STANDARD
 71
1
 72
1
 10
72.9376046906
 20
61.4512468332
 30
0.0
 11
1.0
 21
0.0
 31
0.0
 44
0.9
  1
ADD MOUNTING INFORMATION
 40
0.46875
 41
13.5100446429
  0
MTEXT
  5
3B4
100
AcDbEntity
  8
0
100
AcDbMText
 62
2
  6
CONTINUOUS
  7
STANDARD
 71
2
 72
1
 10
71.5313546906
 20
61.4512468332
 30
0.0
 11
1.0
 21
0.0
 31
0.0
 44
0.9
  1
13080
 40
0.46875
 41
2.6953125
  0
MTEXT
  5
3B5
100
AcDbEntity
  8
0
100
AcDbMText
 62
2
  6
CONTINUOUS
  7
STANDARD
 71
2
 72
1
 10
69.5626046906
 20
61.4512468332
 30
0.0
 11
1.0
 21
0.0
 31
0.0
 44
0.9
  1
B
 40
0.46875
 41
0.6863839286
  0
LINE
  5
3B6
100
AcDbEntity
  8
0
100
AcDbLine
 62
2
  6
CONTINUOUS
 10
69.375
 20
5.25
 11
76.125
 21
5.25
  0
LINE
  5
3B7
100
AcDbEntity
  8
0
100
AcDbLine
 62
2
  6
CONTINUOUS
 10
69.375
 20
5.25
 11
69.375
 21
3.375
  0
LINE
  5
3B8
100
AcDbEntity
  8
0
100
AcDbLine
 62
2
  6
CONTINUOUS
 10
69.375
 20
3.375
 11
76.125
 21
3.375
  0
LINE
  5
3B9
100
AcDbEntity
  8
0
100
AcDbLine
 62
2
  6
CONTINUOUS
 10
76.125
 20
5.25
 11
76.125
 21
3.375
  0
LINE
  5
3BA
100
AcDbEntity
  8
0
100
AcDbLine
 62
2
  6
CONTINUOUS
 10
69.375
 20
3.375
 11
76.125
 21
3.375
  0
LINE
  5
3BB
100
AcDbEntity
  8
0
100
AcDbLine
 62
2
  6
CONTINUOUS
 10
69.375
 20
3.375
 11
69.375
 21
1.5
  0
LINE
  5
3BC
100
AcDbEntity
  8
0
100
AcDbLine
 62
2
  6
CONTINUOUS
 10
69.375
 20
1.5
 11
76.125
 21
1.5
  0
LINE
  5
3BD
100
AcDbEntity
  8
0
100
AcDbLine
 62
2
  6
CONTINUOUS
 10
76.125
 20
3.375
 11
76.125
 21
1.5
  0
LINE
  5
3BE
100
AcDbEntity
  8
0
100
AcDbLine
 62
2
  6
CONTINUOUS
 10
76.125
 20
8.25
 11
81.375
 21
8.25
  0
LINE
  5
3BF
100
AcDbEntity
  8
0
100
AcDbLine
 62
2
  6
CONTINUOUS
 10
76.125
 20
8.25
 11
76.125
 21
6.9609375
  0
LINE
  5
3C0
100
AcDbEntity
  8
0
100
AcDbLine
 62
2
  6
CONTINUOUS
 10
76.125
 20
6.9609375
 11
81.375
 21
6.9609375
  0
LINE
  5
3C1
100
AcDbEntity
  8
0
100
AcDbLine
 62
2
  6
CONTINUOUS
 10
81.375
 20
8.25
 11
81.375
 21
6.9609375
  0
MTEXT
  5
3C2
100
AcDbEntity
  8
0
100
AcDbMText
 62
2
  6
CONTINUOUS
  7
STANDARD
 71
1
 72
1
 10
76.3125
 20
7.6640625
 30
0.0
 11
1.0
 21
0.0
 31
0.0
 44
0.9
  1
V. VU 
 40
0.46875
 41
3.2310267857
  0
LINE
  5
3C3
100
AcDbEntity
  8
0
100
AcDbLine
 62
2
  6
CONTINUOUS
 10
76.125
 20
6.9375
 11
81.375
 21
6.9375
  0
LINE
  5
3C4
100
AcDbEntity
  8
0
100
AcDbLine
 62
2
  6
CONTINUOUS
 10
76.125
 20
6.9375
 11
76.125
 21
5.6175
  0
LINE
  5
3C5
100
AcDbEntity
  8
0
100
AcDbLine
 62
2
  6
CONTINUOUS
 10
76.125
 20
5.6175
 11
81.375
 21
5.6175
  0
LINE
  5
3C6
100
AcDbEntity
  8
0
100
AcDbLine
 62
2
  6
CONTINUOUS
 10
81.375
 20
6.9375
 11
81.375
 21
5.6175
  0
MTEXT
  5
3C7
100
AcDbEntity
  8
0
100
AcDbMText
 62
2
  6
CONTINUOUS
  7
STANDARD
 71
1
 72
1
 10
76.3125
 20
6.320625
 30
0.0
 11
1.0
 21
0.0
 31
0.0
 44
0.9
  1
B. HAWKINS 
 40
0.46875
 41
6.2779017857
  0
LINE
  5
3C8
100
AcDbEntity
  8
0
100
AcDbLine
 62
2
  6
CONTINUOUS
 10
76.125
 20
5.625
 11
81.375
 21
5.625
  0
LINE
  5
3C9
100
AcDbEntity
  8
0
100
AcDbLine
 62
2
  6
CONTINUOUS
 10
76.125
 20
5.625
 11
76.125
 21
4.3359375
  0
LINE
  5
3CA
100
AcDbEntity
  8
0
100
AcDbLine
 62
2
  6
CONTINUOUS
 10
76.125
 20
4.3359375
 11
81.375
 21
4.3359375
  0
LINE
  5
3CB
100
AcDbEntity
  8
0
100
AcDbLine
 62
2
  6
CONTINUOUS
 10
81.375
 20
5.625
 11
81.375
 21
4.3359375
  0
MTEXT
  5
3CC
100
AcDbEntity
  8
0
100
AcDbMText
 62
2
  6
CONTINUOUS
  7
STANDARD
 71
1
 72
1
 10
76.3125
 20
5.0390625
 30
0.0
 11
1.0
 21
0.0
 31
0.0
 44
0.9
  1
N/A
 40
0.46875
 41
1.6908482143
  0
LINE
  5
3CD
100
AcDbEntity
  8
0
100
AcDbLine
 62
2
  6
CONTINUOUS
 10
76.125
 20
4.3125
 11
81.375
 21
4.3125
  0
LINE
  5
3CE
100
AcDbEntity
  8
0
100
AcDbLine
 62
2
  6
CONTINUOUS
 10
76.125
 20
4.3125
 11
76.125
 21
2.9925
  0
LINE
  5
3CF
100
AcDbEntity
  8
0
100
AcDbLine
 62
2
  6
CONTINUOUS
 10
76.125
 20
2.9925
 11
81.375
 21
2.9925
  0
LINE
  5
3D0
100
AcDbEntity
  8
0
100
AcDbLine
 62
2
  6
CONTINUOUS
 10
81.375
 20
4.3125
 11
81.375
 21
2.9925
  0
MTEXT
  5
3D1
100
AcDbEntity
  8
0
100
AcDbMText
 62
2
  6
CONTINUOUS
  7
STANDARD
 71
1
 72
1
 10
76.3125
 20
3.695625
 30
0.0
 11
1.0
 21
0.0
 31
0.0
 44
0.9
  1
N/A
 40
0.46875
 41
1.6908482143
  0
LINE
  5
3D2
100
AcDbEntity
  8
0
100
AcDbLine
 62
2
  6
CONTINUOUS
 10
81.375
 20
8.25
 11
84.0
 21
8.25
  0
LINE
  5
3D3
100
AcDbEntity
  8
0
100
AcDbLine
 62
2
  6
CONTINUOUS
 10
81.375
 20
8.25
 11
81.375
 21
6.93
  0
LINE
  5
3D4
100
AcDbEntity
  8
0
100
AcDbLine
 62
2
  6
CONTINUOUS
 10
81.375
 20
6.93
 11
84.0
 21
6.93
  0
LINE
  5
3D5
100
AcDbEntity
  8
0
100
AcDbLine
 62
2
  6
CONTINUOUS
 10
84.0
 20
8.25
 11
84.0
 21
6.93
  0
MTEXT
  5
3D6
100
AcDbEntity
  8
0
100
AcDbMText
 62
2
  6
CONTINUOUS
  7
STANDARD
 71
2
 72
1
 10
82.6875
 20
7.524375
 30
0.0
 11
1.0
 21
0.0
 31
0.0
 44
0.9
  1
06-AUG-12
 40
0.36
 41
3.6642857143
  0
LINE
  5
3D7
100
AcDbEntity
  8
0
100
AcDbLine
 62
2
  6
CONTINUOUS
 10
81.375
 20
6.9375
 11
84.0
 21
6.9375
  0
LINE
  5
3D8
100
AcDbEntity
  8
0
100
AcDbLine
 62
2
  6
CONTINUOUS
 10
81.375
 20
6.9375
 11
81.375
 21
5.6175
  0
LINE
  5
3D9
100
AcDbEntity
  8
0
100
AcDbLine
 62
2
  6
CONTINUOUS
 10
81.375
 20
5.6175
 11
84.0
 21
5.6175
  0
LINE
  5
3DA
100
AcDbEntity
  8
0
100
AcDbLine
 62
2
  6
CONTINUOUS
 10
84.0
 20
6.9375
 11
84.0
 21
5.6175
  0
MTEXT
  5
3DB
100
AcDbEntity
  8
0
100
AcDbMText
 62
2
  6
CONTINUOUS
  7
STANDARD
 71
2
 72
1
 10
82.6875
 20
6.211875
 30
0.0
 11
1.0
 21
0.0
 31
0.0
 44
0.9
  1
14-AUG-12
 40
0.36
 41
3.5485714286
  0
LINE
  5
3DC
100
AcDbEntity
  8
0
100
AcDbLine
 62
2
  6
CONTINUOUS
 10
81.375
 20
5.625
 11
84.0
 21
5.625
  0
LINE
  5
3DD
100
AcDbEntity
  8
0
100
AcDbLine
 62
2
  6
CONTINUOUS
 10
81.375
 20
5.625
 11
81.375
 21
4.305
  0
LINE
  5
3DE
100
AcDbEntity
  8
0
100
AcDbLine
 62
2
  6
CONTINUOUS
 10
81.375
 20
4.305
 11
84.0
 21
4.305
  0
LINE
  5
3DF
100
AcDbEntity
  8
0
100
AcDbLine
 62
2
  6
CONTINUOUS
 10
84.0
 20
5.625
 11
84.0
 21
4.305
  0
LINE
  5
3E0
100
AcDbEntity
  8
0
100
AcDbLine
 62
2
  6
CONTINUOUS
 10
81.375
 20
4.3125
 11
84.0
 21
4.3125
  0
LINE
  5
3E1
100
AcDbEntity
  8
0
100
AcDbLine
 62
2
  6
CONTINUOUS
 10
81.375
 20
4.3125
 11
81.375
 21
3.0234375
  0
LINE
  5
3E2
100
AcDbEntity
  8
0
100
AcDbLine
 62
2
  6
CONTINUOUS
 10
81.375
 20
3.0234375
 11
84.0
 21
3.0234375
  0
LINE
  5
3E3
100
AcDbEntity
  8
0
100
AcDbLine
 62
2
  6
CONTINUOUS
 10
84.0
 20
4.3125
 11
84.0
 21
3.0234375
  0
LINE
  5
3E4
100
AcDbEntity
  8
0
100
AcDbLine
 62
2
  6
CONTINUOUS
 10
76.125
 20
3.0
 11
84.0
 21
3.0
  0
LINE
  5
3E5
100
AcDbEntity
  8
0
100
AcDbLine
 62
2
  6
CONTINUOUS
 10
76.125
 20
3.0
 11
76.125
 21
2.25
  0
LINE
  5
3E6
100
AcDbEntity
  8
0
100
AcDbLine
 62
2
  6
CONTINUOUS
 10
76.125
 20
2.25
 11
84.0
 21
2.25
  0
LINE
  5
3E7
100
AcDbEntity
  8
0
100
AcDbLine
 62
2
  6
CONTINUOUS
 10
84.0
 20
3.0
 11
84.0
 21
2.25
  0
MTEXT
  5
3E8
100
AcDbEntity
  8
0
100
AcDbMText
 62
2
  6
CONTINUOUS
  7
STANDARD
 71
3
 72
1
 10
83.8125
 20
2.814375
 30
0.0
 11
1.0
 21
0.0
 31
0.0
 44
0.9
  1
FG-008102-2D.B.2
 40
0.33
 41
5.8575
  0
LINE
  5
3E9
100
AcDbEntity
  8
0
100
AcDbLine
 62
2
  6
CONTINUOUS
 10
76.125
 20
2.25
 11
84.0
 21
2.25
  0
LINE
  5
3EA
100
AcDbEntity
  8
0
100
AcDbLine
 62
2
  6
CONTINUOUS
 10
76.125
 20
2.25
 11
76.125
 21
1.5
  0
LINE
  5
3EB
100
AcDbEntity
  8
0
100
AcDbLine
 62
2
  6
CONTINUOUS
 10
76.125
 20
1.5
 11
84.0
 21
1.5
  0
LINE
  5
3EC
100
AcDbEntity
  8
0
100
AcDbLine
 62
2
  6
CONTINUOUS
 10
84.0
 20
2.25
 11
84.0
 21
1.5
  0
MTEXT
  5
3ED
100
AcDbEntity
  8
0
100
AcDbMText
 62
2
  6
CONTINUOUS
  7
STANDARD
 71
3
 72
1
 10
83.8125
 20
2.064375
 30
0.0
 11
1.0
 21
0.0
 31
0.0
 44
0.9
  1
FG-008102-3D.B.0
 40
0.33
 41
5.8221428571
  0
LINE
  5
3EE
100
AcDbEntity
  8
0
100
AcDbLine
 62
2
  6
CONTINUOUS
 10
84.0
 20
7.125
 11
99.0
 21
7.125
  0
LINE
  5
3EF
100
AcDbEntity
  8
0
100
AcDbLine
 62
2
  6
CONTINUOUS
 10
84.0
 20
7.125
 11
84.0
 21
3.75
  0
LINE
  5
3F0
100
AcDbEntity
  8
0
100
AcDbLine
 62
2
  6
CONTINUOUS
 10
84.0
 20
3.75
 11
99.0
 21
3.75
  0
LINE
  5
3F1
100
AcDbEntity
  8
0
100
AcDbLine
 62
2
  6
CONTINUOUS
 10
99.0
 20
7.125
 11
99.0
 21
3.75
  0
MTEXT
  5
3F2
100
AcDbEntity
  8
0
100
AcDbMText
 62
2
  6
CONTINUOUS
  7
STANDARD
 71
2
 72
1
 10
91.5
 20
6.7575
 30
0.0
 11
1.0
 21
0.0
 31
0.0
 44
1.02
  1
SPEAKER, FINISHED, SR-8101\P \P 
 40
0.6
 41
17.2071428571
  0
LINE
  5
3F3
100
AcDbEntity
  8
0
100
AcDbLine
 62
2
  6
CONTINUOUS
 10
84.0032769088
 20
3.7438214025
 11
85.5032769088
 21
3.7438214025
  0
LINE
  5
3F4
100
AcDbEntity
  8
0
100
AcDbLine
 62
2
  6
CONTINUOUS
 10
84.0032769088
 20
3.7438214025
 11
84.0032769088
 21
2.2438214025
  0
LINE
  5
3F5
100
AcDbEntity
  8
0
100
AcDbLine
 62
2
  6
CONTINUOUS
 10
84.0032769088
 20
2.2438214025
 11
85.5032769088
 21
2.2438214025
  0
LINE
  5
3F6
100
AcDbEntity
  8
0
100
AcDbLine
 62
2
  6
CONTINUOUS
 10
85.5032769088
 20
3.7438214025
 11
85.5032769088
 21
2.2438214025
  0
MTEXT
  5
3F7
100
AcDbEntity
  8
0
100
AcDbMText
 62
2
  6
CONTINUOUS
  7
STANDARD
 71
2
 72
1
 10
84.7532769088
 20
3.0781964025
 30
0.0
 11
1.0
 21
0.0
 31
0.0
 44
0.9
  1
D
 40
0.6
 41
0.8142857143
  0
LINE
  5
3F8
100
AcDbEntity
  8
0
100
AcDbLine
 62
2
  6
CONTINUOUS
 10
88.5015524928
 20
3.7349237674
 11
97.5015524928
 21
3.7349237674
  0
LINE
  5
3F9
100
AcDbEntity
  8
0
100
AcDbLine
 62
2
  6
CONTINUOUS
 10
88.5015524928
 20
3.7349237674
 11
88.5015524928
 21
2.2349237674
  0
LINE
  5
3FA
100
AcDbEntity
  8
0
100
AcDbLine
 62
2
  6
CONTINUOUS
 10
88.5015524928
 20
2.2349237674
 11
97.5015524928
 21
2.2349237674
  0
LINE
  5
3FB
100
AcDbEntity
  8
0
100
AcDbLine
 62
2
  6
CONTINUOUS
 10
97.5015524928
 20
3.7349237674
 11
97.5015524928
 21
2.2349237674
  0
MTEXT
  5
3FC
100
AcDbEntity
  8
0
100
AcDbMText
 62
2
  6
CONTINUOUS
  7
STANDARD
 71
2
 72
1
 10
93.0015524928
 20
3.1592987674
 30
0.0
 11
1.0
 21
0.0
 31
0.0
 44
0.9
  1
FG-008102-2D
 40
0.69
 41
9.4382142857
  0
LINE
  5
3FD
100
AcDbEntity
  8
0
100
AcDbLine
 62
2
  6
CONTINUOUS
 10
97.4960996888
 20
3.7448634679
 11
98.9960996888
 21
3.7448634679
  0
LINE
  5
3FE
100
AcDbEntity
  8
0
100
AcDbLine
 62
2
  6
CONTINUOUS
 10
97.4960996888
 20
3.7448634679
 11
97.4960996888
 21
2.2448634679
  0
LINE
  5
3FF
100
AcDbEntity
  8
0
100
AcDbLine
 62
2
  6
CONTINUOUS
 10
97.4960996888
 20
2.2448634679
 11
98.9960996888
 21
2.2448634679
  0
LINE
  5
400
100
AcDbEntity
  8
0
100
AcDbLine
 62
2
  6
CONTINUOUS
 10
98.9960996888
 20
3.7448634679
 11
98.9960996888
 21
2.2448634679
  0
MTEXT
  5
401
100
AcDbEntity
  8
0
100
AcDbMText
 62
2
  6
CONTINUOUS
  7
STANDARD
 71
2
 72
1
 10
98.2460996888
 20
3.0192384679
 30
0.0
 11
1.0
 21
0.0
 31
0.0
 44
0.9
  1
B
 40
0.54
 41
0.6364285714
  0
LINE
  5
402
100
AcDbEntity
  8
0
100
AcDbLine
 62
2
  6
CONTINUOUS
 10
94.1268618581
 20
2.2287866509
 11
99.0018618581
 21
2.2287866509
  0
LINE
  5
403
100
AcDbEntity
  8
0
100
AcDbLine
 62
2
  6
CONTINUOUS
 10
94.1268618581
 20
2.2287866509
 11
94.1268618581
 21
1.4787866509
  0
LINE
  5
404
100
AcDbEntity
  8
0
100
AcDbLine
 62
2
  6
CONTINUOUS
 10
94.1268618581
 20
1.4787866509
 11
99.0018618581
 21
1.4787866509
  0
LINE
  5
405
100
AcDbEntity
  8
0
100
AcDbLine
 62
2
  6
CONTINUOUS
 10
99.0018618581
 20
2.2287866509
 11
99.0018618581
 21
1.4787866509
  0
MTEXT
  5
406
100
AcDbEntity
  8
0
100
AcDbMText
 62
2
  6
CONTINUOUS
  7
STANDARD
 71
3
 72
1
 10
98.8143618581
 20
2.1331616509
 30
0.0
 11
1.0
 21
0.0
 31
0.0
 44
0.9
  1
1 OF 1
 40
0.42
 41
2.655
  0
LINE
  5
407
100
AcDbEntity
  8
0
100
AcDbLine
 62
2
  6
CONTINUOUS
 10
83.9947794363
 20
2.2464696507
 11
87.5587794363
 21
2.2464696507
  0
LINE
  5
408
100
AcDbEntity
  8
0
100
AcDbLine
 62
2
  6
CONTINUOUS
 10
83.9947794363
 20
2.2464696507
 11
83.9947794363
 21
1.4847509007
  0
LINE
  5
409
100
AcDbEntity
  8
0
100
AcDbLine
 62
2
  6
CONTINUOUS
 10
83.9947794363
 20
1.4847509007
 11
87.5587794363
 21
1.4847509007
  0
LINE
  5
40A
100
AcDbEntity
  8
0
100
AcDbLine
 62
2
  6
CONTINUOUS
 10
87.5587794363
 20
2.2464696507
 11
87.5587794363
 21
1.4847509007
  0
MTEXT
  5
40B
100
AcDbEntity
  8
0
100
AcDbMText
 62
2
  6
CONTINUOUS
  7
STANDARD
 71
3
 72
1
 10
87.3712794363
 20
2.0791259007
 30
0.0
 11
1.0
 21
0.0
 31
0.0
 44
0.9
  1
0.333
 40
0.36
 41
1.89
  0
MTEXT
  5
40C
100
AcDbEntity
  8
0
100
AcDbMText
 62
2
  6
CONTINUOUS
  7
STANDARD
 71
1
 72
1
 10
3.0314758339
 20
7.4248899474
 30
0.0
 11
1.0
 21
0.0
 31
0.0
 44
1.2
  3
5. PARTS ARE SYMMETRICAL ABOUT CENTER LINES UNLESS OTHERWISE NOTED.\P4. SYMBOL    INDICATES CENTER OF BALANCE.\P3. SYMBOL \Fgdt;{\Fgdt;r}\Ftxt; INDICATES SUSPENSION POINT OF 5/16-18 THREAD, 2 PLACES. \P2. TOLERANCES ARE IN INCHES: .X \Fgdt;{\Fgdt;`}\
  1
Ftxt; .13, ANGLES: \Fgdt;{\Fgdt;`}\Ftxt; 1\Fgdt;{\Fgdt;~}\Ftxt;.\P1. NET WEIGHT APPROX. 18.6 LBS (8.4 KG).\PNOTE:  UNLESS OTHERWISE SPECIFIED
 40
0.46875
 41
37.1651785714
  0
LEADER
  5
40D
100
AcDbEntity
  8
0
100
AcDbLeader
 62
2
  6
CONTINUOUS
  3
STANDARD
 71
1
 72
0
 73
0
 75
0
 40
0.46875
 41
12.7120535714
 76
3
 10
21.6790643516
 20
55.1133620232
 30
0.0
 10
25.4216161274
 20
58.4870249406
 30
0.0
 10
26.1716161274
 20
58.4870249406
 30
0.0
340
40E
1001
ACAD
1000
DSTYLE
1002
{
1070
77
1070
0
1002
}
  0
MTEXT
  5
40E
102
{ACAD_REACTORS
330
40D
102
}
100
AcDbEntity
  8
0
100
AcDbMText
 62
2
  6
CONTINUOUS
  7
STANDARD
 71
1
 72
1
 10
26.1716161274
 20
58.7213999406
 30
0.0
 11
1.0
 21
0.0
 31
0.0
 44
0.9
  1
REMOVE BRACKET FOR CUSTOM MOUNTING
 40
0.46875
 41
19.0680803571
  0
LEADER
  5
40F
100
AcDbEntity
  8
0
100
AcDbLeader
 62
2
  6
CONTINUOUS
  3
STANDARD
 71
1
 72
0
 73
0
 75
0
 40
0.46875
 41
4.8325892857
 76
3
 10
45.8221403515
 20
28.2163572912
 30
0.0
 10
40.8819716079
 20
37.9452437713
 30
0.0
 10
37.836959976
 20
37.9452437713
 30
0.0
340
410
1001
ACAD
1000
DSTYLE
1002
{
1070
77
1070
0
1002
}
  0
MTEXT
  5
410
102
{ACAD_REACTORS
330
40F
102
}
100
AcDbEntity
  8
0
100
AcDbMText
 62
2
  6
CONTINUOUS
  7
STANDARD
 71
3
 72
1
 10
37.836959976
 20
38.1796187713
 30
0.0
 11
1.0
 21
0.0
 31
0.0
 44
0.9
  1
SIDE MOUNTING\PUSES 5/16-18 FASTENER
 40
0.46875
 41
11.0825892857
  0
LEADER
  5
411
100
AcDbEntity
  8
0
100
AcDbLeader
 62
2
  6
CONTINUOUS
  3
STANDARD
 71
1
 72
0
 73
0
 75
0
 40
0.46875
 41
4.9330357143
 76
3
 10
73.7393617652
 20
27.0143988385
 30
0.0
 10
79.7982153754
 20
22.6895819975
 30
0.0
 10
80.5482153754
 20
22.6895819975
 30
0.0
340
412
1001
ACAD
1000
DSTYLE
1002
{
1070
77
1070
0
1002
}
  0
MTEXT
  5
412
102
{ACAD_REACTORS
330
411
102
}
100
AcDbEntity
  8
0
100
AcDbMText
 62
2
  6
CONTINUOUS
  7
STANDARD
 71
1
 72
1
 10
80.5482153754
 20
22.9239569975
 30
0.0
 11
1.0
 21
0.0
 31
0.0
 44
0.9
  1
BACK MOUNTING\PUSES M5 FASTERNER
 40
0.46875
 41
9.2912946429
  0
INSERT
  5
413
100
AcDbEntity
  8
0
100
AcDbBlockReference
 62
2
  6
CONTINUOUS
  2
CG_3D_BL1
 10
6.9975450281
 20
6.2323746141
  0
INSERT
  5
414
100
AcDbEntity
  8
0
100
AcDbBlockReference
 62
2
  6
CONTINUOUS
  2
CG_3D_BL2
 10
19.7694076851
 20
26.879047337
  0
INSERT
  5
415
100
AcDbEntity
  8
0
100
AcDbBlockReference
 62
2
  6
CONTINUOUS
  2
CG_3D_BL3
 10
45.9407552979
 20
26.8791115482
  0
LINE
  5
416
100
AcDbEntity
  8
DEFAULT_3
100
AcDbLine
 62
7
  6
PHANTOM
 10
0.0
 20
-0.0
 11
0.0
 21
66.0
  0
LWPOLYLINE
  5
417
100
AcDbEntity
  8
0
100
AcDbPolyline
 62
7
  6
CONTINUOUS
 90
2
 70
0
 43
0.0600000025
 10
0.7873881664
 20
32.494035332
 10
0.7873881664
 20
33.505964668
  0
LWPOLYLINE
  5
418
100
AcDbEntity
  8
0
100
AcDbPolyline
 62
7
  6
CONTINUOUS
 90
2
 70
0
 43
0.0900000007
 10
1.5
 20
64.5
 10
1.5
 20
1.5
  0
LWPOLYLINE
  5
419
100
AcDbEntity
  8
0
100
AcDbPolyline
 62
7
  6
CONTINUOUS
 90
2
 70
0
 43
0.0900000007
 10
10.6875
 20
64.5
 10
10.6875
 20
63.0
  0
LWPOLYLINE
  5
41A
100
AcDbEntity
  8
0
100
AcDbPolyline
 62
7
  6
CONTINUOUS
 90
2
 70
0
 43
0.0600000025
 10
13.6875
 20
1.5
 10
13.6875
 20
-0.0
  0
LWPOLYLINE
  5
41B
100
AcDbEntity
  8
0
100
AcDbPolyline
 62
7
  6
CONTINUOUS
 90
2
 70
0
 43
0.0600000025
 10
13.6875
 20
64.5
 10
13.6875
 20
66.0
  0
LINE
  5
41C
100
AcDbEntity
  8
0
100
AcDbLine
 62
7
  6
CONTINUOUS
 10
69.3735093036
 20
1.5009171649
 11
76.1247296715
 21
3.3743232379
  0
LINE
  5
41D
100
AcDbEntity
  8
0
100
AcDbLine
 62
7
  6
CONTINUOUS
 10
69.3753431982
 20
3.375225513
 11
76.1240711423
 21
5.2510213125
  0
LINE
  5
41E
100
AcDbEntity
  8
DEFAULT_3
100
AcDbLine
 62
7
  6
PHANTOM
 10
0.0
 20
-0.0
 11
102.0
 21
-0.0
  0
LWPOLYLINE
  5
41F
100
AcDbEntity
  8
0
100
AcDbPolyline
 62
7
  6
CONTINUOUS
 90
2
 70
0
 43
0.0600000025
 10
49.744035332
 20
0.7873881664
 10
50.755964668
 20
0.7873881664
  0
LWPOLYLINE
  5
420
100
AcDbEntity
  8
0
100
AcDbPolyline
 62
7
  6
CONTINUOUS
 90
2
 70
0
 43
0.0600000025
 10
1.5
 20
33.0
 10
0.7873881664
 20
32.494035332
  0
LWPOLYLINE
  5
421
100
AcDbEntity
  8
0
100
AcDbPolyline
 62
7
  6
CONTINUOUS
 90
2
 70
0
 43
0.0900000007
 10
1.5
 20
1.5
 10
99.0
 20
1.5
  0
LWPOLYLINE
  5
422
100
AcDbEntity
  8
0
100
AcDbPolyline
 62
7
  6
CONTINUOUS
 90
2
 70
0
 43
0.0600000025
 10
76.125
 20
2.25
 10
99.0
 20
2.25
  0
LWPOLYLINE
  5
423
100
AcDbEntity
  8
0
100
AcDbPolyline
 62
7
  6
CONTINUOUS
 90
2
 70
0
 43
0.0600000025
 10
76.125
 20
3.0
 10
84.0
 20
3.0
  0
LWPOLYLINE
  5
424
100
AcDbEntity
  8
0
100
AcDbPolyline
 62
7
  6
CONTINUOUS
 90
2
 70
0
 43
0.0600000025
 10
76.125
 20
3.375
 10
69.375
 20
3.375
  0
LWPOLYLINE
  5
425
100
AcDbEntity
  8
0
100
AcDbPolyline
 62
7
  6
CONTINUOUS
 90
2
 70
0
 43
0.0600000025
 10
84.0
 20
3.75
 10
99.0
 20
3.75
  0
LWPOLYLINE
  5
426
100
AcDbEntity
  8
0
100
AcDbPolyline
 62
7
  6
CONTINUOUS
 90
2
 70
0
 43
0.0600000025
 10
76.125
 20
4.3125
 10
84.0
 20
4.3125
  0
LWPOLYLINE
  5
427
100
AcDbEntity
  8
0
100
AcDbPolyline
 62
7
  6
CONTINUOUS
 90
2
 70
0
 43
0.0600000025
 10
1.5
 20
33.0
 10
0.7873881664
 20
33.505964668
  0
LWPOLYLINE
  5
428
100
AcDbEntity
  8
0
100
AcDbPolyline
 62
7
  6
CONTINUOUS
 90
2
 70
0
 43
0.0600000025
 10
25.875
 20
1.5
 10
25.875
 20
-0.0
  0
LWPOLYLINE
  5
429
100
AcDbEntity
  8
0
100
AcDbPolyline
 62
7
  6
CONTINUOUS
 90
2
 70
0
 43
0.0600000025
 10
25.875
 20
64.5
 10
25.875
 20
66.0
  0
LWPOLYLINE
  5
42A
100
AcDbEntity
  8
0
100
AcDbPolyline
 62
7
  6
CONTINUOUS
 90
2
 70
0
 43
0.0600000025
 10
69.375
 20
5.25
 10
76.125
 20
5.25
  0
LWPOLYLINE
  5
42B
100
AcDbEntity
  8
0
100
AcDbPolyline
 62
7
  6
CONTINUOUS
 90
2
 70
0
 43
0.0600000025
 10
76.125
 20
5.625
 10
84.0
 20
5.625
  0
LWPOLYLINE
  5
42C
100
AcDbEntity
  8
0
100
AcDbPolyline
 62
7
  6
CONTINUOUS
 90
2
 70
0
 43
0.0600000025
 10
76.125
 20
6.9375
 10
84.0
 20
6.9375
  0
LWPOLYLINE
  5
42D
100
AcDbEntity
  8
0
100
AcDbPolyline
 62
7
  6
CONTINUOUS
 90
2
 70
0
 43
0.0600000025
 10
84.0
 20
7.125
 10
99.0
 20
7.125
  0
LWPOLYLINE
  5
42E
100
AcDbEntity
  8
0
100
AcDbPolyline
 62
7
  6
CONTINUOUS
 90
2
 70
0
 43
0.0600000025
 10
76.125
 20
8.25
 10
84.0
 20
8.25
  0
LWPOLYLINE
  5
42F
100
AcDbEntity
  8
0
100
AcDbPolyline
 62
7
  6
CONTINUOUS
 90
2
 70
0
 43
0.0600000025
 10
69.375
 20
9.1875
 10
99.0
 20
9.1875
  0
LWPOLYLINE
  5
430
100
AcDbEntity
  8
0
100
AcDbPolyline
 62
7
  6
CONTINUOUS
 90
2
 70
0
 43
0.0600000025
 10
50.25
 20
64.5
 10
50.755964668
 20
65.2126118336
  0
LWPOLYLINE
  5
431
100
AcDbEntity
  8
0
100
AcDbPolyline
 62
7
  6
CONTINUOUS
 90
2
 70
0
 43
0.0600000025
 10
50.25
 20
1.5
 10
50.755964668
 20
0.7873881664
  0
LWPOLYLINE
  5
432
100
AcDbEntity
  8
0
100
AcDbPolyline
 62
7
  6
CONTINUOUS
 90
2
 70
0
 43
0.0600000025
 10
1.5
 20
17.25
 10
0.0
 20
17.25
  0
LWPOLYLINE
  5
433
100
AcDbEntity
  8
0
100
AcDbPolyline
 62
7
  6
CONTINUOUS
 90
2
 70
0
 43
0.0600000025
 10
99.0197815525
 20
17.2525231228
 10
100.5197815525
 20
17.2525231228
  0
LWPOLYLINE
  5
434
100
AcDbEntity
  8
0
100
AcDbPolyline
 62
7
  6
CONTINUOUS
 90
2
 70
0
 43
0.0600000025
 10
38.0625
 20
1.5
 10
38.0625
 20
-0.0
  0
LWPOLYLINE
  5
435
100
AcDbEntity
  8
0
100
AcDbPolyline
 62
7
  6
CONTINUOUS
 90
2
 70
0
 43
0.0600000025
 10
38.0625
 20
64.5
 10
38.0625
 20
66.0
  0
LINE
  5
436
100
AcDbEntity
  8
0
100
AcDbLine
 62
7
  6
CONTINUOUS
 10
76.1299879962
 20
5.2529017014
 11
69.3519057325
 21
9.1936472036
  0
LWPOLYLINE
  5
437
100
AcDbEntity
  8
0
100
AcDbPolyline
 62
7
  6
CONTINUOUS
 90
2
 70
0
 43
0.0600000025
 10
50.25
 20
1.5
 10
50.25
 20
-0.0
  0
LWPOLYLINE
  5
438
100
AcDbEntity
  8
0
100
AcDbPolyline
 62
7
  6
CONTINUOUS
 90
2
 70
0
 43
0.0600000025
 10
50.25
 20
64.5
 10
50.25
 20
66.0
  0
LWPOLYLINE
  5
439
100
AcDbEntity
  8
0
100
AcDbPolyline
 62
7
  6
CONTINUOUS
 90
2
 70
0
 43
0.0600000025
 10
1.5
 20
33.0
 10
-0.0
 20
33.0
  0
LWPOLYLINE
  5
43A
100
AcDbEntity
  8
0
100
AcDbPolyline
 62
7
  6
CONTINUOUS
 90
2
 70
0
 43
0.0600000025
 10
99.0032380379
 20
33.0040793944
 10
100.5032380379
 20
33.0040793944
  0
LWPOLYLINE
  5
43B
100
AcDbEntity
  8
0
100
AcDbPolyline
 62
7
  6
CONTINUOUS
 90
2
 70
0
 43
0.0600000025
 10
62.4375
 20
1.5
 10
62.4375
 20
-0.0
  0
LWPOLYLINE
  5
43C
100
AcDbEntity
  8
0
100
AcDbPolyline
 62
7
  6
CONTINUOUS
 90
2
 70
0
 43
0.0600000025
 10
62.4375
 20
64.5
 10
62.4375
 20
66.0
  0
LWPOLYLINE
  5
43D
100
AcDbEntity
  8
0
100
AcDbPolyline
 62
7
  6
CONTINUOUS
 90
2
 70
0
 43
0.0600000025
 10
50.25
 20
1.5
 10
49.744035332
 20
0.7873881664
  0
LWPOLYLINE
  5
43E
100
AcDbEntity
  8
0
100
AcDbPolyline
 62
7
  6
CONTINUOUS
 90
2
 70
0
 43
0.0600000025
 10
1.5
 20
48.75
 10
0.0
 20
48.75
  0
LWPOLYLINE
  5
43F
100
AcDbEntity
  8
0
100
AcDbPolyline
 62
7
  6
CONTINUOUS
 90
2
 70
0
 43
0.0600000025
 10
99.0
 20
48.75
 10
100.5
 20
48.75
  0
LWPOLYLINE
  5
440
100
AcDbEntity
  8
0
100
AcDbPolyline
 62
7
  6
CONTINUOUS
 90
2
 70
0
 43
0.0600000025
 10
50.25
 20
64.5
 10
49.744035332
 20
65.2126118336
  0
LWPOLYLINE
  5
441
100
AcDbEntity
  8
0
100
AcDbPolyline
 62
7
  6
CONTINUOUS
 90
2
 70
0
 43
0.0600000025
 10
69.375
 20
1.5
 10
69.375
 20
9.1875
  0
LWPOLYLINE
  5
442
100
AcDbEntity
  8
0
100
AcDbPolyline
 62
7
  6
CONTINUOUS
 90
2
 70
0
 43
0.0600000025
 10
74.625
 20
1.5
 10
74.625
 20
-0.0
  0
LWPOLYLINE
  5
443
100
AcDbEntity
  8
0
100
AcDbPolyline
 62
7
  6
CONTINUOUS
 90
2
 70
0
 43
0.0600000025
 10
74.625
 20
64.5
 10
74.625
 20
66.0
  0
LWPOLYLINE
  5
444
100
AcDbEntity
  8
0
100
AcDbPolyline
 62
7
  6
CONTINUOUS
 90
2
 70
0
 43
0.0600000025
 10
76.125
 20
1.5
 10
76.125
 20
9.1875
  0
LWPOLYLINE
  5
445
100
AcDbEntity
  8
0
100
AcDbPolyline
 62
7
  6
CONTINUOUS
 90
2
 70
0
 43
0.0600000025
 10
99.0032380379
 20
33.0040793944
 10
99.7158498715
 20
33.5100440624
  0
LWPOLYLINE
  5
446
100
AcDbEntity
  8
0
100
AcDbPolyline
 62
7
  6
CONTINUOUS
 90
2
 70
0
 43
0.0600000025
 10
99.0032380379
 20
33.0040793944
 10
99.7158498715
 20
32.4981147264
  0
LWPOLYLINE
  5
447
100
AcDbEntity
  8
0
100
AcDbPolyline
 62
7
  6
CONTINUOUS
 90
2
 70
0
 43
0.0600000025
 10
81.375
 20
3.0
 10
81.375
 20
9.1875
  0
LWPOLYLINE
  5
448
100
AcDbEntity
  8
0
100
AcDbPolyline
 62
7
  6
CONTINUOUS
 90
2
 70
0
 43
0.0900000007
 10
10.6875
 20
63.0
 10
1.5
 20
63.0
  0
LWPOLYLINE
  5
449
100
AcDbEntity
  8
0
100
AcDbPolyline
 62
7
  6
CONTINUOUS
 90
2
 70
0
 43
0.0900000007
 10
99.0
 20
64.5
 10
1.5
 20
64.5
  0
LWPOLYLINE
  5
44A
100
AcDbEntity
  8
0
100
AcDbPolyline
 62
7
  6
CONTINUOUS
 90
2
 70
0
 43
0.0600000025
 10
49.744035332
 20
65.2126118336
 10
50.755964668
 20
65.2126118336
  0
LWPOLYLINE
  5
44B
100
AcDbEntity
  8
0
100
AcDbPolyline
 62
7
  6
CONTINUOUS
 90
2
 70
0
 43
0.0600000025
 10
84.0
 20
1.5
 10
84.0
 20
9.1875
  0
LWPOLYLINE
  5
44C
100
AcDbEntity
  8
0
100
AcDbPolyline
 62
7
  6
CONTINUOUS
 90
2
 70
0
 43
0.0600000025
 10
85.5
 20
2.25
 10
85.5
 20
3.75
  0
LWPOLYLINE
  5
44D
100
AcDbEntity
  8
0
100
AcDbPolyline
 62
7
  6
CONTINUOUS
 90
2
 70
0
 43
0.0600000025
 10
86.8125
 20
1.5
 10
86.8125
 20
-0.0
  0
LWPOLYLINE
  5
44E
100
AcDbEntity
  8
0
100
AcDbPolyline
 62
7
  6
CONTINUOUS
 90
2
 70
0
 43
0.0600000025
 10
86.8125
 20
64.5
 10
86.8125
 20
66.0
  0
LINE
  5
44F
100
AcDbEntity
  8
0
100
AcDbLine
 62
7
  6
CONTINUOUS
 10
69.3834316965
 20
5.2844276655
 11
76.1457509782
 21
9.2094101856
  0
LINE
  5
450
100
AcDbEntity
  8
DEFAULT_3
100
AcDbLine
 62
7
  6
PHANTOM
 10
0.0
 20
66.0
 11
102.0
 21
66.0
  0
LWPOLYLINE
  5
451
100
AcDbEntity
  8
0
100
AcDbPolyline
 62
7
  6
CONTINUOUS
 90
2
 70
0
 43
0.0600000025
 10
87.5508868996
 20
1.5142504667
 10
87.5508868996
 20
2.2642504667
  0
LWPOLYLINE
  5
452
100
AcDbEntity
  8
0
100
AcDbPolyline
 62
7
  6
CONTINUOUS
 90
2
 70
0
 43
0.0600000025
 10
88.5
 20
2.25
 10
88.5
 20
3.75
  0
LWPOLYLINE
  5
453
100
AcDbEntity
  8
0
100
AcDbPolyline
 62
7
  6
CONTINUOUS
 90
2
 70
0
 43
0.0600000025
 10
94.125
 20
1.5
 10
94.125
 20
2.25
  0
LWPOLYLINE
  5
454
100
AcDbEntity
  8
0
100
AcDbPolyline
 62
7
  6
CONTINUOUS
 90
2
 70
0
 43
0.0600000025
 10
97.5
 20
2.25
 10
97.5
 20
3.75
  0
LWPOLYLINE
  5
455
100
AcDbEntity
  8
0
100
AcDbPolyline
 62
7
  6
CONTINUOUS
 90
2
 70
0
 43
0.0900000007
 10
99.0
 20
64.5
 10
99.0
 20
1.5
  0
LWPOLYLINE
  5
456
100
AcDbEntity
  8
0
100
AcDbPolyline
 62
7
  6
CONTINUOUS
 90
2
 70
0
 43
0.0600000025
 10
99.7158498715
 20
32.4981147264
 10
99.7158498715
 20
33.5100440624
  0
LINE
  5
457
100
AcDbEntity
  8
DEFAULT_3
100
AcDbLine
 62
7
  6
PHANTOM
 10
102.0
 20
-0.0
 11
102.0
 21
66.0
  0
LINE
  5
458
100
AcDbEntity
  8
3_AXES_OTHER
100
AcDbLine
 62
7
  6
CONTINUOUS
 10
51.5522124154
 20
60.0232360056
 11
51.8350070309
 21
60.3168731487
  0
LINE
  5
459
100
AcDbEntity
  8
3_AXES_OTHER
100
AcDbLine
 62
7
  6
CONTINUOUS
 10
51.8350070309
 20
60.3168731487
 11
54.8594797746
 21
62.2565575461
  0
LINE
  5
45A
100
AcDbEntity
  8
3_AXES_OTHER
100
AcDbLine
 62
7
  6
CONTINUOUS
 10
63.2784059149
 20
41.1761043117
 11
53.3268746613
 21
44.7897167079
  0
LINE
  5
45B
100
AcDbEntity
  8
3_AXES_OTHER
100
AcDbLine
 62
7
  6
CONTINUOUS
 10
60.7265526048
 20
60.8755553729
 11
60.9627196476
 21
61.0270163272
  0
LINE
  5
45C
100
AcDbEntity
  8
3_AXES_OTHER
100
AcDbLine
 62
7
  6
CONTINUOUS
 10
54.4256693925
 20
45.4162973449
 11
61.9301027969
 21
42.6912781609
  0
LINE
  5
45D
100
AcDbEntity
  8
3_AXES_OTHER
100
AcDbLine
 62
7
  6
CONTINUOUS
 10
54.708464008
 20
45.709934488
 11
61.8818925245
 21
43.1051102102
  0
LINE
  5
45E
100
AcDbEntity
  8
3_ALL_AXES
100
AcDbLine
 62
7
  6
CONTINUOUS
 10
61.4397542766
 20
60.6955141193
 11
61.361166647
 21
60.6451135332
  0
LINE
  5
45F
100
AcDbEntity
  8
3_ALL_AXES
100
AcDbLine
 62
7
  6
CONTINUOUS
 10
61.4363711308
 20
60.6432919713
 11
61.4109972863
 21
60.6270189695
  0
LINE
  5
460
100
AcDbEntity
  8
3_ALL_AXES
100
AcDbLine
 62
7
  6
CONTINUOUS
 10
61.5993508377
 20
60.5586237939
 11
61.6779384673
 21
60.60902438
  0
LINE
  5
461
100
AcDbEntity
  8
3_AXES_OTHER
100
AcDbLine
 62
7
  6
CONTINUOUS
 10
53.3268746613
 20
44.7897167079
 11
51.5522124154
 21
60.0232360056
  0
LINE
  5
462
100
AcDbEntity
  8
3_AXES_OTHER
100
AcDbLine
 62
7
  6
CONTINUOUS
 10
53.9907742871
 20
61.2460441506
 11
54.0009237246
 21
61.4027105947
  0
LINE
  5
463
100
AcDbEntity
  8
3_AXES_OTHER
100
AcDbLine
 62
7
  6
CONTINUOUS
 10
54.4256693925
 20
45.4162973449
 11
52.8596130439
 21
58.859164945
  0
LINE
  5
464
100
AcDbEntity
  8
3_AXES_OTHER
100
AcDbLine
 62
7
  6
CONTINUOUS
 10
54.708464008
 20
45.709934488
 11
53.1906179318
 21
58.7389700388
  0
LINE
  5
465
100
AcDbEntity
  8
3_ALL_AXES
100
AcDbLine
 62
7
  6
CONTINUOUS
 10
63.0972552199
 20
60.0936403169
 11
63.0186675902
 21
60.0432397308
  0
LINE
  5
466
100
AcDbEntity
  8
3_ALL_AXES
100
AcDbLine
 62
7
  6
CONTINUOUS
 10
63.093872074
 20
60.0414181689
 11
63.0684982295
 21
60.0251451671
  0
LINE
  5
467
100
AcDbEntity
  8
3_ALL_AXES
100
AcDbLine
 62
7
  6
CONTINUOUS
 10
63.2568517809
 20
59.9567499915
 11
63.3354394105
 21
60.0071505776
  0
LINE
  5
468
100
AcDbEntity
  8
3_AXES_OTHER
100
AcDbLine
 62
7
  6
CONTINUOUS
 10
57.9669940021
 20
61.1681696746
 11
58.0348324883
 21
61.3931281648
  0
LINE
  5
469
100
AcDbEntity
  8
3_AXES_OTHER
100
AcDbLine
 62
7
  6
CONTINUOUS
 10
63.8457485594
 20
59.6969883097
 11
64.127632866
 21
59.8777691062
  0
LINE
  5
46A
100
AcDbEntity
  8
3_AXES_OTHER
100
AcDbLine
 62
7
  6
CONTINUOUS
 10
63.8267861825
 20
59.6341073712
 11
64.1242046116
 21
59.8248506628
  0
LINE
  5
46B
100
AcDbEntity
  8
3_AXES_OTHER
100
AcDbLine
 62
7
  6
CONTINUOUS
 10
63.8735061286
 20
59.5892053845
 11
63.7987967976
 21
59.5412920667
  0
LINE
  5
46C
100
AcDbEntity
  8
3_AXES_OTHER
100
AcDbLine
 62
7
  6
CONTINUOUS
 10
64.1653177575
 20
59.3955916287
 11
64.2525801065
 21
59.4515555706
  0
LINE
  5
46D
100
AcDbEntity
  8
3_AXES_OTHER
100
AcDbLine
 62
7
  6
CONTINUOUS
 10
56.9766410913
 20
61.0526085449
 11
56.9867905288
 21
61.209274989
  0
LINE
  5
46E
100
AcDbEntity
  8
3_AXES_OTHER
100
AcDbLine
 62
7
  6
CONTINUOUS
 10
61.7865382845
 20
56.7032607526
 11
64.8110110283
 21
58.6429451499
  0
LINE
  5
46F
100
AcDbEntity
  8
3_AXES_OTHER
100
AcDbLine
 62
7
  6
CONTINUOUS
 10
60.0102229557
 20
61.0513807322
 11
59.932705358
 21
60.7943254423
  0
LINE
  5
470
100
AcDbEntity
  8
3_AXES_OTHER
100
AcDbLine
 62
7
  6
CONTINUOUS
 10
61.503743669
 20
56.4096236095
 11
61.7865382845
 21
56.7032607526
  0
LINE
  5
471
100
AcDbEntity
  8
3_ALL_AXES
100
AcDbLine
 62
7
  6
CONTINUOUS
 10
56.4243031567
 20
50.2895087493
 11
56.5004401685
 21
50.3685649033
  0
LINE
  5
472
100
AcDbEntity
  8
3_AXES_OTHER
100
AcDbLine
 62
7
  6
CONTINUOUS
 10
62.0128624462
 20
59.6990288972
 11
62.0807009324
 21
59.9239873874
  0
LINE
  5
473
100
AcDbEntity
  8
3_AXES_OTHER
100
AcDbLine
 62
7
  6
CONTINUOUS
 10
54.4256693925
 20
45.4162973449
 11
54.708464008
 21
45.709934488
  0
LINE
  5
474
100
AcDbEntity
  8
3_AXES_OTHER
100
AcDbLine
 62
7
  6
CONTINUOUS
 10
60.940532179
 20
58.722439428
 11
60.9506816165
 21
58.8791058721
  0
LINE
  5
475
100
AcDbEntity
  8
3_ALL_AXES
100
AcDbLine
 62
7
  6
CONTINUOUS
 10
61.4397542766
 20
60.6955141193
 11
61.4363711308
 21
60.6432919713
  0
LINE
  5
476
100
AcDbEntity
  8
3_AXES_OTHER
100
AcDbLine
 62
7
  6
CONTINUOUS
 10
61.9301027969
 20
42.6912781609
 11
60.3640464483
 21
56.134145761
  0
LINE
  5
477
100
AcDbEntity
  8
3_AXES_OTHER
100
AcDbLine
 62
7
  6
CONTINUOUS
 10
63.7903912152
 20
59.5134184034
 11
63.8582297014
 21
59.7383768936
  0
LINE
  5
478
100
AcDbEntity
  8
3_ALL_AXES
100
AcDbLine
 62
7
  6
CONTINUOUS
 10
64.5608577616
 20
51.9659373518
 11
64.348775948
 21
52.0429487636
  0
LINE
  5
479
100
AcDbEntity
  8
3_ALL_AXES
100
AcDbLine
 62
7
  6
CONTINUOUS
 10
64.7475062158
 20
52.4799487405
 11
64.5354244022
 21
52.5569601522
  0
LINE
  5
47A
100
AcDbEntity
  8
3_ALL_AXES
100
AcDbLine
 62
7
  6
CONTINUOUS
 10
63.0972552199
 20
60.0936403169
 11
63.093872074
 21
60.0414181689
  0
LINE
  5
47B
100
AcDbEntity
  8
3_ALL_AXES
100
AcDbLine
 62
7
  6
CONTINUOUS
 10
59.2600506473
 20
47.5584710035
 11
59.3361876592
 21
47.6375271574
  0
LINE
  5
47C
100
AcDbEntity
  8
3_AXES_OTHER
100
AcDbLine
 62
7
  6
CONTINUOUS
 10
63.2784059149
 20
41.1761043117
 11
61.503743669
 21
56.4096236095
  0
LINE
  5
47D
100
AcDbEntity
  8
3_AXES_OTHER
100
AcDbLine
 62
7
  6
CONTINUOUS
 10
63.9263989832
 20
58.5290038224
 11
63.9365484207
 21
58.6856702665
  0
LINE
  5
47E
100
AcDbEntity
  8
3_AXES_OTHER
100
AcDbLine
 62
7
  6
CONTINUOUS
 10
64.127632866
 20
59.8777691062
 11
64.1242046116
 21
59.8248506628
  0
LINE
  5
47F
100
AcDbEntity
  8
3_AXES_OTHER
100
AcDbLine
 62
7
  6
CONTINUOUS
 10
52.8596130439
 20
58.859164945
 11
60.3640464483
 21
56.134145761
  0
LINE
  5
480
100
AcDbEntity
  8
3_AXES_OTHER
100
AcDbLine
 62
7
  6
CONTINUOUS
 10
61.503743669
 20
56.4096236095
 11
51.5522124154
 21
60.0232360056
  0
LINE
  5
481
100
AcDbEntity
  8
3_AXES_OTHER
100
AcDbLine
 62
7
  6
CONTINUOUS
 10
64.2525801065
 20
59.4515555706
 11
64.2585622231
 21
59.3617325825
  0
LINE
  5
482
100
AcDbEntity
  8
3_AXES_OTHER
100
AcDbLine
 62
7
  6
CONTINUOUS
 10
61.7865382845
 20
56.7032607526
 11
51.8350070309
 21
60.3168731487
  0
LINE
  5
483
100
AcDbEntity
  8
3_AXES_OTHER
100
AcDbLine
 62
7
  6
CONTINUOUS
 10
66.8140265116
 20
58.4337892142
 11
65.8008093734
 21
42.7937967318
  0
LINE
  5
484
100
AcDbEntity
  8
3_AXES_OTHER
100
AcDbLine
 62
7
  6
CONTINUOUS
 10
64.8110110283
 20
58.6429451499
 11
66.8140265116
 21
58.4337892142
  0
LINE
  5
485
100
AcDbEntity
  8
3_AXES_OTHER
100
AcDbLine
 62
7
  6
CONTINUOUS
 10
62.0128624462
 20
59.6990288972
 11
63.7903912152
 21
59.5134184034
  0
LINE
  5
486
100
AcDbEntity
  8
3_AXES_OTHER
100
AcDbLine
 62
7
  6
CONTINUOUS
 10
62.0807009324
 20
59.9239873874
 11
63.8582297014
 21
59.7383768936
  0
LINE
  5
487
100
AcDbEntity
  8
3_AXES_OTHER
100
AcDbLine
 62
7
  6
CONTINUOUS
 10
61.9062874859
 20
60.0776758473
 11
63.0087335203
 21
59.9625578496
  0
LINE
  5
488
100
AcDbEntity
  8
3_AXES_OTHER
100
AcDbLine
 62
7
  6
CONTINUOUS
 10
64.8110110283
 20
58.6429451499
 11
63.7775646798
 21
59.0182114723
  0
LINE
  5
489
100
AcDbEntity
  8
3_AXES_OTHER
100
AcDbLine
 62
7
  6
CONTINUOUS
 10
62.5437001793
 20
59.4662538832
 11
56.8278067879
 21
61.5418161949
  0
LINE
  5
48A
100
AcDbEntity
  8
3_AXES_OTHER
100
AcDbLine
 62
7
  6
CONTINUOUS
 10
55.5939422874
 20
61.9898586057
 11
54.8594797746
 21
62.2565575461
  0
LINE
  5
48B
100
AcDbEntity
  8
3_AXES_OTHER
100
AcDbLine
 62
7
  6
CONTINUOUS
 10
57.9669940021
 20
61.1681696746
 11
62.0128624462
 21
59.6990288972
  0
LINE
  5
48C
100
AcDbEntity
  8
3_AXES_OTHER
100
AcDbLine
 62
7
  6
CONTINUOUS
 10
58.0348324883
 20
61.3931281648
 11
62.0807009324
 21
59.9239873874
  0
LINE
  5
48D
100
AcDbEntity
  8
3_AXES_OTHER
100
AcDbLine
 62
7
  6
CONTINUOUS
 10
58.9077769213
 20
61.16649873
 11
61.9062874859
 21
60.0776758473
  0
LINE
  5
48E
100
AcDbEntity
  8
3_AXES_OTHER
100
AcDbLine
 62
7
  6
CONTINUOUS
 10
60.0102229557
 20
61.0513807322
 11
58.9077769213
 21
61.16649873
  0
LINE
  5
48F
100
AcDbEntity
  8
3_AXES_OTHER
100
AcDbLine
 62
7
  6
CONTINUOUS
 10
59.8123612573
 20
61.207517671
 11
58.0348324883
 21
61.3931281648
  0
LINE
  5
490
100
AcDbEntity
  8
3_AXES_OTHER
100
AcDbLine
 62
7
  6
CONTINUOUS
 10
66.8140265116
 20
58.4337892142
 11
63.7962676624
 21
59.5296015579
  0
LINE
  5
491
100
AcDbEntity
  8
3_AXES_OTHER
100
AcDbLine
 62
7
  6
CONTINUOUS
 10
58.9183742842
 20
61.3008682634
 11
56.8624952579
 21
62.0474016104
  0
LINE
  5
492
100
AcDbEntity
  8
3_AXES_OTHER
100
AcDbLine
 62
7
  6
CONTINUOUS
 10
63.8735061286
 20
59.5892053845
 11
64.2525801065
 21
59.4515555706
  0
LINE
  5
493
100
AcDbEntity
  8
3_AXES_OTHER
100
AcDbLine
 62
7
  6
CONTINUOUS
 10
63.0087335203
 20
59.9625578496
 11
60.0102229557
 21
61.0513807322
  0
LINE
  5
494
100
AcDbEntity
  8
3_AXES_OTHER
100
AcDbLine
 62
7
  6
CONTINUOUS
 10
63.8582297014
 20
59.7383768936
 11
59.8123612573
 21
61.207517671
  0
LINE
  5
495
100
AcDbEntity
  8
3_AXES_OTHER
100
AcDbLine
 62
7
  6
CONTINUOUS
 10
60.9627196476
 20
61.0270163272
 11
64.127632866
 21
59.8777691062
  0
LINE
  5
496
100
AcDbEntity
  8
3_AXES_OTHER
100
AcDbLine
 62
7
  6
CONTINUOUS
 10
54.8594797746
 20
62.2565575461
 11
56.8624952579
 21
62.0474016104
  0
LINE
  5
497
100
AcDbEntity
  8
3_AXES_OTHER
100
AcDbLine
 62
7
  6
CONTINUOUS
 10
63.2784059149
 20
41.1761043117
 11
65.8008093734
 21
42.7937967318
  0
LINE
  5
498
100
AcDbEntity
  8
3_ALL_AXES
100
AcDbLine
 62
7
  6
CONTINUOUS
 10
13.509773013
 20
49.8400310086
 11
13.509773013
 21
50.3866930378
  0
LINE
  5
499
100
AcDbEntity
  8
3_AXES_OTHER
100
AcDbLine
 62
7
  6
CONTINUOUS
 10
13.7656785249
 20
44.1071795137
 11
13.7656785249
 21
53.8141494248
  0
LINE
  5
49A
100
AcDbEntity
  8
3_AXES_OTHER
100
AcDbLine
 62
7
  6
CONTINUOUS
 10
25.7735525406
 20
44.1071795137
 11
13.7656785249
 21
44.1071795137
  0
LINE
  5
49B
100
AcDbEntity
  8
3_AXES_OTHER
100
AcDbLine
 62
7
  6
CONTINUOUS
 10
25.7735525406
 20
44.6015509996
 11
13.7656785249
 21
44.6015509996
  0
LINE
  5
49C
100
AcDbEntity
  8
3_ALL_AXES
100
AcDbLine
 62
7
  6
CENTER
 10
15.5767021469
 20
48.4598187161
 11
15.5767021469
 21
47.1755667476
  0
LINE
  5
49D
100
AcDbEntity
  8
3_ALL_AXES
100
AcDbLine
 62
7
  6
CENTER
 10
15.5767021469
 20
48.4598187161
 11
15.5767021469
 21
49.7440706846
  0
LINE
  5
49E
100
AcDbEntity
  8
3_AXES_OTHER
100
AcDbLine
 62
7
  6
CONTINUOUS
 10
16.3188281312
 20
53.8141494248
 11
16.3188281312
 21
54.432259661
  0
LINE
  5
49F
100
AcDbEntity
  8
3_AXES_OTHER
100
AcDbLine
 62
7
  6
CONTINUOUS
 10
17.2518989973
 20
53.8141494248
 11
17.2518989973
 21
54.432259661
  0
LINE
  5
4A0
100
AcDbEntity
  8
3_AXES_OTHER
100
AcDbLine
 62
7
  6
CONTINUOUS
 10
17.3286706508
 20
50.3264957908
 11
17.3286706508
 21
53.7803793165
  0
LINE
  5
4A1
100
AcDbEntity
  8
3_AXES_OTHER
100
AcDbLine
 62
7
  6
CONTINUOUS
 10
17.7093032352
 20
54.432259661
 11
17.7093032352
 21
54.2531258027
  0
LINE
  5
4A2
100
AcDbEntity
  8
3_AXES_OTHER
100
AcDbLine
 62
7
  6
CONTINUOUS
 10
17.8601667138
 20
54.2531258027
 11
17.8601667138
 21
55.1133620232
  0
LINE
  5
4A3
100
AcDbEntity
  8
3_AXES_OTHER
100
AcDbLine
 62
7
  6
CONTINUOUS
 10
17.9605604146
 20
53.1655886405
 11
17.9605604146
 21
51.0853624994
  0
LINE
  5
4A4
100
AcDbEntity
  8
3_ALL_AXES
100
AcDbLine
 62
7
  6
CONTINUOUS
 10
18.6259147453
 20
54.8302911571
 11
18.6259147453
 21
54.6802911571
  0
LINE
  5
4A5
100
AcDbEntity
  8
3_ALL_AXES
100
AcDbLine
 62
7
  6
CENTER
 10
23.9625289186
 20
48.4598187161
 11
22.6782769501
 21
48.4598187161
  0
LINE
  5
4A6
100
AcDbEntity
  8
3_ALL_AXES
100
AcDbLine
 62
7
  6
CENTER
 10
15.5767021469
 20
48.4598187161
 11
14.2924501784
 21
48.4598187161
  0
LINE
  5
4A7
100
AcDbEntity
  8
3_ALL_AXES
100
AcDbLine
 62
7
  6
CENTER
 10
15.5767021469
 20
48.4598187161
 11
16.8609541154
 21
48.4598187161
  0
LINE
  5
4A8
100
AcDbEntity
  8
3_ALL_AXES
100
AcDbLine
 62
7
  6
CENTER
 10
23.9625289186
 20
48.4598187161
 11
25.2467808871
 21
48.4598187161
  0
LINE
  5
4A9
100
AcDbEntity
  8
3_ALL_AXES
100
AcDbLine
 62
7
  6
CENTER
 10
18.7696155327
 20
54.8302911571
 11
18.7696155327
 21
54.3865903697
  0
LINE
  5
4AA
100
AcDbEntity
  8
3_ALL_AXES
100
AcDbLine
 62
7
  6
CENTER
 10
18.7696155327
 20
54.3865903697
 11
18.7696155327
 21
54.2365903697
  0
LINE
  5
4AB
100
AcDbEntity
  8
3_ALL_AXES
100
AcDbLine
 62
7
  6
CENTER
 10
18.7696155327
 20
54.8302911571
 11
18.7696155327
 21
55.1239919445
  0
LINE
  5
4AC
100
AcDbEntity
  8
3_ALL_AXES
100
AcDbLine
 62
7
  6
CENTER
 10
18.7696155327
 20
55.1239919445
 11
18.7696155327
 21
55.2739919445
  0
LINE
  5
4AD
100
AcDbEntity
  8
3_ALL_AXES
100
AcDbLine
 62
7
  6
CONTINUOUS
 10
18.9133163201
 20
54.6802911571
 11
18.9133163201
 21
54.8302911571
  0
LINE
  5
4AE
100
AcDbEntity
  8
3_ALL_AXES
100
AcDbLine
 62
7
  6
CENTER
 10
19.7696155327
 20
43.6412307914
 11
19.7696155327
 21
55.5619859355
  0
LINE
  5
4AF
100
AcDbEntity
  8
3_ALL_AXES
100
AcDbLine
 62
7
  6
CONTINUOUS
 10
26.0294580524
 20
49.8399368263
 11
25.7735525406
 21
49.8399368263
  0
LINE
  5
4B0
100
AcDbEntity
  8
3_ALL_AXES
100
AcDbLine
 62
7
  6
CONTINUOUS
 10
13.7656785249
 20
49.8399368263
 11
13.509773013
 21
49.8399368263
  0
LINE
  5
4B1
100
AcDbEntity
  8
3_AXES_OTHER
100
AcDbLine
 62
7
  6
CONTINUOUS
 10
25.7735525406
 20
50.0346218657
 11
13.7656785249
 21
50.0346218657
  0
LINE
  5
4B2
100
AcDbEntity
  8
3_ALL_AXES
100
AcDbLine
 62
7
  6
CONTINUOUS
 10
20.6259147453
 20
54.8302911571
 11
20.6259147453
 21
54.6802911571
  0
LINE
  5
4B3
100
AcDbEntity
  8
3_ALL_AXES
100
AcDbLine
 62
7
  6
CENTER
 10
20.7696155327
 20
54.8302911571
 11
20.7696155327
 21
54.3865903697
  0
LINE
  5
4B4
100
AcDbEntity
  8
3_ALL_AXES
100
AcDbLine
 62
7
  6
CENTER
 10
20.7696155327
 20
54.3865903697
 11
20.7696155327
 21
54.2365903697
  0
LINE
  5
4B5
100
AcDbEntity
  8
3_ALL_AXES
100
AcDbLine
 62
7
  6
CENTER
 10
20.7696155327
 20
54.8302911571
 11
20.7696155327
 21
55.1239919445
  0
LINE
  5
4B6
100
AcDbEntity
  8
3_ALL_AXES
100
AcDbLine
 62
7
  6
CENTER
 10
20.7696155327
 20
55.1239919445
 11
20.7696155327
 21
55.2739919445
  0
LINE
  5
4B7
100
AcDbEntity
  8
3_ALL_AXES
100
AcDbLine
 62
7
  6
CONTINUOUS
 10
20.9133163201
 20
54.6802911571
 11
20.9133163201
 21
54.8302911571
  0
LINE
  5
4B8
100
AcDbEntity
  8
3_AXES_OTHER
100
AcDbLine
 62
7
  6
CONTINUOUS
 10
17.3286706508
 20
50.3264957908
 11
22.2105604146
 21
50.3264957908
  0
LINE
  5
4B9
100
AcDbEntity
  8
3_ALL_AXES
100
AcDbLine
 62
7
  6
CONTINUOUS
 10
26.0294580524
 20
50.38678722
 11
25.7735525406
 21
50.38678722
  0
LINE
  5
4BA
100
AcDbEntity
  8
3_ALL_AXES
100
AcDbLine
 62
7
  6
CONTINUOUS
 10
13.7656785249
 20
50.38678722
 11
13.509773013
 21
50.38678722
  0
LINE
  5
4BB
100
AcDbEntity
  8
3_AXES_OTHER
100
AcDbLine
 62
7
  6
CONTINUOUS
 10
17.3286706508
 20
50.4263268763
 11
22.2105604146
 21
50.4263268763
  0
LINE
  5
4BC
100
AcDbEntity
  8
3_AXES_OTHER
100
AcDbLine
 62
7
  6
CONTINUOUS
 10
17.9605604146
 20
51.0853624994
 11
21.5786706508
 21
51.0853624994
  0
LINE
  5
4BD
100
AcDbEntity
  8
3_AXES_OTHER
100
AcDbLine
 62
7
  6
CONTINUOUS
 10
21.5786706508
 20
51.0853624994
 11
21.5786706508
 21
53.1655886405
  0
LINE
  5
4BE
100
AcDbEntity
  8
3_AXES_OTHER
100
AcDbLine
 62
7
  6
CONTINUOUS
 10
21.6790643516
 20
54.2531258027
 11
21.6790643516
 21
55.1133620232
  0
LINE
  5
4BF
100
AcDbEntity
  8
3_AXES_OTHER
100
AcDbLine
 62
7
  6
CONTINUOUS
 10
21.8299278303
 20
54.432259661
 11
21.8299278303
 21
54.2531258027
  0
LINE
  5
4C0
100
AcDbEntity
  8
3_AXES_OTHER
100
AcDbLine
 62
7
  6
CONTINUOUS
 10
22.2105604146
 20
50.3264957908
 11
22.2105604146
 21
53.7803793165
  0
LINE
  5
4C1
100
AcDbEntity
  8
3_AXES_OTHER
100
AcDbLine
 62
7
  6
CONTINUOUS
 10
22.2873320682
 20
53.8141494248
 11
22.2873320682
 21
54.432259661
  0
LINE
  5
4C2
100
AcDbEntity
  8
3_AXES_OTHER
100
AcDbLine
 62
7
  6
CONTINUOUS
 10
21.5786706508
 20
52.8328183557
 11
17.9605604146
 21
52.8328183557
  0
LINE
  5
4C3
100
AcDbEntity
  8
3_AXES_OTHER
100
AcDbLine
 62
7
  6
CONTINUOUS
 10
23.2204029343
 20
53.8141494248
 11
23.2204029343
 21
54.432259661
  0
LINE
  5
4C4
100
AcDbEntity
  8
3_AXES_OTHER
100
AcDbLine
 62
7
  6
CONTINUOUS
 10
21.5786706508
 20
53.1655886405
 11
17.9605604146
 21
53.1655886405
  0
LINE
  5
4C5
100
AcDbEntity
  8
3_ALL_AXES
100
AcDbLine
 62
7
  6
CENTER
 10
23.9625289186
 20
48.4598187161
 11
23.9625289186
 21
47.1755667476
  0
LINE
  5
4C6
100
AcDbEntity
  8
3_ALL_AXES
100
AcDbLine
 62
7
  6
CENTER
 10
23.9625289186
 20
48.4598187161
 11
23.9625289186
 21
49.7440706846
  0
LINE
  5
4C7
100
AcDbEntity
  8
3_AXES_OTHER
100
AcDbLine
 62
7
  6
CONTINUOUS
 10
22.2105604146
 20
53.7803793165
 11
17.3286706508
 21
53.7803793165
  0
LINE
  5
4C8
100
AcDbEntity
  8
3_AXES_OTHER
100
AcDbLine
 62
7
  6
CONTINUOUS
 10
25.7735525406
 20
53.8141494248
 11
13.7656785249
 21
53.8141494248
  0
LINE
  5
4C9
100
AcDbEntity
  8
3_AXES_OTHER
100
AcDbLine
 62
7
  6
CONTINUOUS
 10
17.7093032352
 20
54.2531258027
 11
17.8601667138
 21
54.2531258027
  0
LINE
  5
4CA
100
AcDbEntity
  8
3_AXES_OTHER
100
AcDbLine
 62
7
  6
CONTINUOUS
 10
21.6790643516
 20
54.2531258027
 11
21.8299278303
 21
54.2531258027
  0
LINE
  5
4CB
100
AcDbEntity
  8
3_AXES_OTHER
100
AcDbLine
 62
7
  6
CONTINUOUS
 10
16.3188281312
 20
54.432259661
 11
17.7093032352
 21
54.432259661
  0
LINE
  5
4CC
100
AcDbEntity
  8
3_AXES_OTHER
100
AcDbLine
 62
7
  6
CONTINUOUS
 10
21.8299278303
 20
54.432259661
 11
23.2204029343
 21
54.432259661
  0
LINE
  5
4CD
100
AcDbEntity
  8
3_ALL_AXES
100
AcDbLine
 62
7
  6
CENTER
 10
20.7696155327
 20
54.6802911571
 11
20.3259147453
 21
54.6802911571
  0
LINE
  5
4CE
100
AcDbEntity
  8
3_ALL_AXES
100
AcDbLine
 62
7
  6
CENTER
 10
18.7696155327
 20
54.6802911571
 11
18.3259147453
 21
54.6802911571
  0
LINE
  5
4CF
100
AcDbEntity
  8
3_ALL_AXES
100
AcDbLine
 62
7
  6
CENTER
 10
18.7696155327
 20
54.6802911571
 11
19.2133163201
 21
54.6802911571
  0
LINE
  5
4D0
100
AcDbEntity
  8
3_ALL_AXES
100
AcDbLine
 62
7
  6
CENTER
 10
20.7696155327
 20
54.6802911571
 11
21.2133163201
 21
54.6802911571
  0
LINE
  5
4D1
100
AcDbEntity
  8
3_ALL_AXES
100
AcDbLine
 62
7
  6
CENTER
 10
20.7696155327
 20
54.8302911571
 11
20.3259147453
 21
54.8302911571
  0
LINE
  5
4D2
100
AcDbEntity
  8
3_ALL_AXES
100
AcDbLine
 62
7
  6
CENTER
 10
18.7696155327
 20
54.8302911571
 11
18.3259147453
 21
54.8302911571
  0
LINE
  5
4D3
100
AcDbEntity
  8
3_ALL_AXES
100
AcDbLine
 62
7
  6
CENTER
 10
18.7696155327
 20
54.8302911571
 11
19.2133163201
 21
54.8302911571
  0
LINE
  5
4D4
100
AcDbEntity
  8
3_ALL_AXES
100
AcDbLine
 62
7
  6
CENTER
 10
20.7696155327
 20
54.8302911571
 11
21.2133163201
 21
54.8302911571
  0
LINE
  5
4D5
100
AcDbEntity
  8
3_AXES_OTHER
100
AcDbLine
 62
7
  6
CONTINUOUS
 10
17.8601667138
 20
55.1133620232
 11
21.6790643516
 21
55.1133620232
  0
LINE
  5
4D6
100
AcDbEntity
  8
3_AXES_OTHER
100
AcDbLine
 62
7
  6
CONTINUOUS
 10
25.7735525406
 20
44.1071795137
 11
25.7735525406
 21
53.8141494248
  0
LINE
  5
4D7
100
AcDbEntity
  8
3_ALL_AXES
100
AcDbLine
 62
7
  6
CONTINUOUS
 10
26.0294580524
 20
49.8400310086
 11
26.0294580524
 21
50.3866930378
  0
LINE
  5
4D8
100
AcDbEntity
  8
3_AXES_OTHER
100
AcDbLine
 62
7
  6
CONTINUOUS
 10
25.7735525406
 20
15.5572994781
 11
13.7656785249
 21
15.5572994781
  0
LINE
  5
4D9
100
AcDbEntity
  8
3_AXES_OTHER
100
AcDbLine
 62
7
  6
CONTINUOUS
 10
15.2420564776
 20
16.9151893959
 11
24.2971745879
 21
16.9151893959
  0
LINE
  5
4DA
100
AcDbEntity
  8
3_AXES_OTHER
100
AcDbLine
 62
7
  6
CONTINUOUS
 10
15.2420564776
 20
17.0476558363
 11
24.2971745879
 21
17.0476558363
  0
LINE
  5
4DB
100
AcDbEntity
  8
3_ALL_AXES
100
AcDbLine
 62
7
  6
CONTINUOUS
 10
13.509773013
 20
27.5279687695
 11
13.509773013
 21
28.0748191632
  0
LINE
  5
4DC
100
AcDbEntity
  8
3_AXES_OTHER
100
AcDbLine
 62
7
  6
CONTINUOUS
 10
13.7656785249
 20
15.5572994781
 11
13.7656785249
 21
35.0061183758
  0
LINE
  5
4DD
100
AcDbEntity
  8
3_AXES_OTHER
100
AcDbLine
 62
7
  6
CONTINUOUS
 10
14.0806391548
 20
35.0061183758
 11
14.0806391548
 21
35.1832837301
  0
LINE
  5
4DE
100
AcDbEntity
  8
3_AXES_OTHER
100
AcDbLine
 62
7
  6
CONTINUOUS
 10
15.2420564776
 20
16.9151893959
 11
15.2420564776
 21
33.9609661153
  0
LINE
  5
4DF
100
AcDbEntity
  8
3_AXES_OTHER
100
AcDbLine
 62
7
  6
CONTINUOUS
 10
17.072765139
 20
35.0061183758
 11
17.072765139
 21
35.1832837301
  0
LINE
  5
4E0
100
AcDbEntity
  8
3_AXES_OTHER
100
AcDbLine
 62
7
  6
CONTINUOUS
 10
17.3286706508
 20
35.0061183758
 11
17.3286706508
 21
35.0841037829
  0
LINE
  5
4E1
100
AcDbEntity
  8
3_ALL_AXES
100
AcDbLine
 62
7
  6
CENTER
 10
19.7696155327
 20
35.4832837301
 11
19.7696155327
 21
15.2572994781
  0
LINE
  5
4E2
100
AcDbEntity
  8
3_ALL_AXES
100
AcDbLine
 62
7
  6
CENTER
 10
19.7696155327
 20
26.8811183758
 11
19.0946734646
 21
26.8811183758
  0
LINE
  5
4E3
100
AcDbEntity
  8
3_ALL_AXES
100
AcDbLine
 62
7
  6
CENTER
 10
19.7696155327
 20
26.8811183758
 11
20.3940475975
 21
26.8811183758
  0
LINE
  5
4E4
100
AcDbEntity
  8
3_ALL_AXES
100
AcDbLine
 62
7
  6
CONTINUOUS
 10
26.0294580524
 20
27.5279687695
 11
25.7735525406
 21
27.5279687695
  0
LINE
  5
4E5
100
AcDbEntity
  8
3_ALL_AXES
100
AcDbLine
 62
7
  6
CONTINUOUS
 10
13.7656785249
 20
27.5279687695
 11
13.509773013
 21
27.5279687695
  0
LINE
  5
4E6
100
AcDbEntity
  8
3_AXES_OTHER
100
AcDbLine
 62
7
  6
CONTINUOUS
 10
22.2105604146
 20
35.0061183758
 11
22.2105604146
 21
35.0841037829
  0
LINE
  5
4E7
100
AcDbEntity
  8
3_AXES_OTHER
100
AcDbLine
 62
7
  6
CONTINUOUS
 10
22.4664659264
 20
35.0061183758
 11
22.4664659264
 21
35.1832837301
  0
LINE
  5
4E8
100
AcDbEntity
  8
3_ALL_AXES
100
AcDbLine
 62
7
  6
CONTINUOUS
 10
26.0294580524
 20
28.0748191632
 11
25.7735525406
 21
28.0748191632
  0
LINE
  5
4E9
100
AcDbEntity
  8
3_ALL_AXES
100
AcDbLine
 62
7
  6
CONTINUOUS
 10
13.7656785249
 20
28.0748191632
 11
13.509773013
 21
28.0748191632
  0
LINE
  5
4EA
100
AcDbEntity
  8
3_AXES_OTHER
100
AcDbLine
 62
7
  6
CONTINUOUS
 10
24.2971745879
 20
16.9151893959
 11
24.2971745879
 21
33.9609661153
  0
LINE
  5
4EB
100
AcDbEntity
  8
3_AXES_OTHER
100
AcDbLine
 62
7
  6
CONTINUOUS
 10
25.4585919107
 20
35.0061183758
 11
25.4585919107
 21
35.1832837301
  0
LINE
  5
4EC
100
AcDbEntity
  8
3_AXES_OTHER
100
AcDbLine
 62
7
  6
CONTINUOUS
 10
25.7735525406
 20
15.5572994781
 11
25.7735525406
 21
35.0061183758
  0
LINE
  5
4ED
100
AcDbEntity
  8
3_ALL_AXES
100
AcDbLine
 62
7
  6
CONTINUOUS
 10
26.0294580524
 20
27.5279687695
 11
26.0294580524
 21
28.0748191632
  0
LINE
  5
4EE
100
AcDbEntity
  8
3_AXES_OTHER
100
AcDbLine
 62
7
  6
CONTINUOUS
 10
15.2420564776
 20
33.9609661153
 11
24.2971745879
 21
33.9609661153
  0
LINE
  5
4EF
100
AcDbEntity
  8
3_AXES_OTHER
100
AcDbLine
 62
7
  6
CONTINUOUS
 10
25.7735525406
 20
34.8736519354
 11
13.7656785249
 21
34.8736519354
  0
LINE
  5
4F0
100
AcDbEntity
  8
3_AXES_OTHER
100
AcDbLine
 62
7
  6
CONTINUOUS
 10
25.7735525406
 20
35.0061183758
 11
13.7656785249
 21
35.0061183758
  0
LINE
  5
4F1
100
AcDbEntity
  8
3_AXES_OTHER
100
AcDbLine
 62
7
  6
CONTINUOUS
 10
17.3286706508
 20
35.0841037829
 11
22.2105604146
 21
35.0841037829
  0
LINE
  5
4F2
100
AcDbEntity
  8
3_AXES_OTHER
100
AcDbLine
 62
7
  6
CONTINUOUS
 10
14.0806391548
 20
35.1832837301
 11
17.072765139
 21
35.1832837301
  0
LINE
  5
4F3
100
AcDbEntity
  8
3_AXES_OTHER
100
AcDbLine
 62
7
  6
CONTINUOUS
 10
22.4664659264
 20
35.1832837301
 11
25.4585919107
 21
35.1832837301
  0
LINE
  5
4F4
100
AcDbEntity
  8
3_AXES_OTHER
100
AcDbLine
 62
7
  6
CONTINUOUS
 10
45.1608122522
 20
15.5572994781
 11
49.6919811216
 21
15.5572994781
  0
LINE
  5
4F5
100
AcDbEntity
  8
3_AXES_OTHER
100
AcDbLine
 62
7
  6
CONTINUOUS
 10
46.2043274877
 20
34.8700153293
 11
46.3041585732
 21
35.0841037829
  0
LINE
  5
4F6
100
AcDbEntity
  8
3_AXES_OTHER
100
AcDbLine
 62
7
  6
CONTINUOUS
 10
42.8415874209
 20
35.0061183758
 11
42.8415874209
 21
35.1832837301
  0
LINE
  5
4F7
100
AcDbEntity
  8
3_AXES_OTHER
100
AcDbLine
 62
7
  6
CONTINUOUS
 10
45.1608122522
 20
15.5572994781
 11
39.9850112106
 21
34.8736519354
  0
LINE
  5
4F8
100
AcDbEntity
  8
3_AXES_OTHER
100
AcDbLine
 62
7
  6
CONTINUOUS
 10
45.8337134051
 20
35.0061183758
 11
45.8337134051
 21
35.1832837301
  0
LINE
  5
4F9
100
AcDbEntity
  8
3_ALL_AXES
100
AcDbLine
 62
7
  6
CENTER
 10
45.9419811216
 20
27.6391068605
 11
45.9419811216
 21
25.9245379679
  0
LINE
  5
4FA
100
AcDbEntity
  8
3_ALL_AXES
100
AcDbLine
 62
7
  6
CENTER
 10
45.9911937201
 20
27.8013939663
 11
45.9911937201
 21
27.2279687695
  0
LINE
  5
4FB
100
AcDbEntity
  8
3_ALL_AXES
100
AcDbLine
 62
7
  6
CENTER
 10
45.9911937201
 20
27.8013939663
 11
45.9911937201
 21
28.3748191632
  0
LINE
  5
4FC
100
AcDbEntity
  8
3_AXES_OTHER
100
AcDbLine
 62
7
  6
CONTINUOUS
 10
49.5583799279
 20
33.3059949906
 11
49.6582110134
 21
33.5200834442
  0
LINE
  5
4FD
100
AcDbEntity
  8
3_AXES_OTHER
100
AcDbLine
 62
7
  6
CONTINUOUS
 10
49.6919811216
 20
26.4637955411
 11
50.3100913579
 21
26.4637955411
  0
LINE
  5
4FE
100
AcDbEntity
  8
3_ALL_AXES
100
AcDbLine
 62
7
  6
CENTER
 10
44.6164201653
 20
26.8811183758
 11
47.2855206209
 21
26.8811183758
  0
LINE
  5
4FF
100
AcDbEntity
  8
3_ALL_AXES
100
AcDbLine
 62
7
  6
CENTER
 10
45.9911937201
 20
27.8013939663
 11
45.4177685232
 21
27.8013939663
  0
LINE
  5
500
100
AcDbEntity
  8
3_ALL_AXES
100
AcDbLine
 62
7
  6
CENTER
 10
45.9911937201
 20
27.8013939663
 11
46.5646189169
 21
27.8013939663
  0
LINE
  5
501
100
AcDbEntity
  8
3_AXES_OTHER
100
AcDbLine
 62
7
  6
CONTINUOUS
 10
49.6919811216
 20
33.2436957308
 11
49.6919811216
 21
15.5572994781
  0
LINE
  5
502
100
AcDbEntity
  8
3_AXES_OTHER
100
AcDbLine
 62
7
  6
CONTINUOUS
 10
50.3100913579
 20
32.9586774309
 11
50.3100913579
 21
26.4637955411
  0
LINE
  5
503
100
AcDbEntity
  8
3_AXES_OTHER
100
AcDbLine
 62
7
  6
CONTINUOUS
 10
50.9911937201
 20
32.9586774309
 11
50.9911937201
 21
32.8988349112
  0
LINE
  5
504
100
AcDbEntity
  8
3_AXES_OTHER
100
AcDbLine
 62
7
  6
CONTINUOUS
 10
50.3100913579
 20
32.8988349112
 11
50.9911937201
 21
32.8988349112
  0
LINE
  5
505
100
AcDbEntity
  8
3_AXES_OTHER
100
AcDbLine
 62
7
  6
CONTINUOUS
 10
49.6919811216
 20
32.9586774309
 11
50.9911937201
 21
32.9586774309
  0
LINE
  5
506
100
AcDbEntity
  8
3_AXES_OTHER
100
AcDbLine
 62
7
  6
CONTINUOUS
 10
45.9124535626
 20
35.0061183758
 11
49.6919811216
 21
33.2436957308
  0
LINE
  5
507
100
AcDbEntity
  8
3_AXES_OTHER
100
AcDbLine
 62
7
  6
CONTINUOUS
 10
40.4793826964
 20
35.0061183758
 11
45.9124535626
 21
35.0061183758
  0
LINE
  5
508
100
AcDbEntity
  8
3_AXES_OTHER
100
AcDbLine
 62
7
  6
CONTINUOUS
 10
42.8415874209
 20
35.1832837301
 11
45.8337134051
 21
35.1832837301
  0
LINE
  5
509
100
AcDbEntity
  8
3_AXES_OTHER
100
AcDbLine
 62
7
  6
CONTINUOUS
 10
46.3041585732
 20
35.0841037829
 11
49.6582110134
 21
33.5200834442
  0
LINE
  5
50A
100
AcDbEntity
  8
3_AXES_OTHER
100
AcDbLine
 62
7
  6
CONTINUOUS
 10
39.9850112106
 20
34.8736519354
 11
40.4793826964
 21
35.0061183758
  0
LINE
  5
50B
100
AcDbEntity
  8
3_AXES_OTHER
100
AcDbLine
 62
7
  6
CONTINUOUS
 10
66.260050653
 20
15.5572994781
 11
78.2679246688
 21
15.5572994781
  0
LINE
  5
50C
100
AcDbEntity
  8
3_ALL_AXES
100
AcDbLine
 62
7
  6
CONTINUOUS
 10
66.0041451412
 20
28.0748191632
 11
66.0041451412
 21
27.5279687695
  0
LINE
  5
50D
100
AcDbEntity
  8
3_AXES_OTHER
100
AcDbLine
 62
7
  6
CONTINUOUS
 10
66.260050653
 20
35.0061183758
 11
66.260050653
 21
15.5572994781
  0
LINE
  5
50E
100
AcDbEntity
  8
3_AXES_OTHER
100
AcDbLine
 62
7
  6
CONTINUOUS
 10
66.575011283
 20
35.0061183758
 11
66.575011283
 21
35.1832837301
  0
LINE
  5
50F
100
AcDbEntity
  8
3_AXES_OTHER
100
AcDbLine
 62
7
  6
CONTINUOUS
 10
69.7462711255
 20
32.9586774309
 11
68.8132002593
 21
26.4637955411
  0
LINE
  5
510
100
AcDbEntity
  8
3_AXES_OTHER
100
AcDbLine
 62
7
  6
CONTINUOUS
 10
70.2036753634
 20
32.9586774309
 11
69.2706044973
 21
26.4637955411
  0
LINE
  5
511
100
AcDbEntity
  8
3_AXES_OTHER
100
AcDbLine
 62
7
  6
CONTINUOUS
 10
69.5671372672
 20
35.0061183758
 11
69.5671372672
 21
35.1832837301
  0
LINE
  5
512
100
AcDbEntity
  8
3_AXES_OTHER
100
AcDbLine
 62
7
  6
CONTINUOUS
 10
69.823042779
 20
33.3059949906
 11
69.823042779
 21
35.0841037829
  0
LINE
  5
513
100
AcDbEntity
  8
3_AXES_OTHER
100
AcDbLine
 62
7
  6
CONTINUOUS
 10
70.354538842
 20
26.4637955411
 11
70.354538842
 21
32.9586774309
  0
LINE
  5
514
100
AcDbEntity
  8
3_AXES_OTHER
100
AcDbLine
 62
7
  6
CONTINUOUS
 10
70.4549325428
 20
34.7767904249
 11
70.4549325428
 21
33.8067650446
  0
LINE
  5
515
100
AcDbEntity
  8
3_ALL_AXES
100
AcDbLine
 62
7
  6
CENTER
 10
70.8889876609
 20
32.0887955411
 11
70.8889876609
 21
31.6637955411
  0
LINE
  5
516
100
AcDbEntity
  8
3_ALL_AXES
100
AcDbLine
 62
7
  6
CENTER
 10
70.8889876609
 20
27.0887955411
 11
70.8889876609
 21
26.6637955411
  0
LINE
  5
517
100
AcDbEntity
  8
3_ALL_AXES
100
AcDbLine
 62
7
  6
CENTER
 10
70.8889876609
 20
27.0887955411
 11
70.8889876609
 21
27.5137955411
  0
LINE
  5
518
100
AcDbEntity
  8
3_ALL_AXES
100
AcDbLine
 62
7
  6
CENTER
 10
70.8889876609
 20
32.0887955411
 11
70.8889876609
 21
32.5137955411
  0
LINE
  5
519
100
AcDbEntity
  8
3_ALL_AXES
100
AcDbLine
 62
7
  6
CENTER
 10
72.2639876609
 20
14.9934484555
 11
72.2639876609
 21
35.7548914003
  0
LINE
  5
51A
100
AcDbEntity
  8
3_ALL_AXES
100
AcDbLine
 62
7
  6
CENTER
 10
73.6389876609
 20
32.0887955411
 11
73.6389876609
 21
31.6637955411
  0
LINE
  5
51B
100
AcDbEntity
  8
3_ALL_AXES
100
AcDbLine
 62
7
  6
CENTER
 10
73.6389876609
 20
27.0887955411
 11
73.6389876609
 21
26.6637955411
  0
LINE
  5
51C
100
AcDbEntity
  8
3_ALL_AXES
100
AcDbLine
 62
7
  6
CENTER
 10
73.6389876609
 20
27.0887955411
 11
73.6389876609
 21
27.5137955411
  0
LINE
  5
51D
100
AcDbEntity
  8
3_ALL_AXES
100
AcDbLine
 62
7
  6
CENTER
 10
73.6389876609
 20
32.0887955411
 11
73.6389876609
 21
32.5137955411
  0
LINE
  5
51E
100
AcDbEntity
  8
3_AXES_OTHER
100
AcDbLine
 62
7
  6
CONTINUOUS
 10
68.8132002593
 20
26.4637955411
 11
75.7147750625
 21
26.4637955411
  0
LINE
  5
51F
100
AcDbEntity
  8
3_AXES_OTHER
100
AcDbLine
 62
7
  6
CONTINUOUS
 10
74.073042779
 20
33.8067650446
 11
74.073042779
 21
34.7767904249
  0
LINE
  5
520
100
AcDbEntity
  8
3_AXES_OTHER
100
AcDbLine
 62
7
  6
CONTINUOUS
 10
74.1734364798
 20
26.4637955411
 11
74.1734364798
 21
32.9586774309
  0
LINE
  5
521
100
AcDbEntity
  8
3_ALL_AXES
100
AcDbLine
 62
7
  6
CENTER
 10
73.6389876609
 20
27.0887955411
 11
73.2139876609
 21
27.0887955411
  0
LINE
  5
522
100
AcDbEntity
  8
3_ALL_AXES
100
AcDbLine
 62
7
  6
CENTER
 10
70.8889876609
 20
27.0887955411
 11
70.4639876609
 21
27.0887955411
  0
LINE
  5
523
100
AcDbEntity
  8
3_ALL_AXES
100
AcDbLine
 62
7
  6
CENTER
 10
70.8889876609
 20
27.0887955411
 11
71.3139876609
 21
27.0887955411
  0
LINE
  5
524
100
AcDbEntity
  8
3_ALL_AXES
100
AcDbLine
 62
7
  6
CENTER
 10
73.6389876609
 20
27.0887955411
 11
74.0639876609
 21
27.0887955411
  0
LINE
  5
525
100
AcDbEntity
  8
3_ALL_AXES
100
AcDbLine
 62
7
  6
CONTINUOUS
 10
66.0041451412
 20
27.5279687695
 11
66.260050653
 21
27.5279687695
  0
LINE
  5
526
100
AcDbEntity
  8
3_ALL_AXES
100
AcDbLine
 62
7
  6
CONTINUOUS
 10
78.2679246688
 20
27.5279687695
 11
78.5238301806
 21
27.5279687695
  0
LINE
  5
527
100
AcDbEntity
  8
3_AXES_OTHER
100
AcDbLine
 62
7
  6
CONTINUOUS
 10
74.7049325428
 20
33.3059949906
 11
74.7049325428
 21
35.0841037829
  0
LINE
  5
528
100
AcDbEntity
  8
3_AXES_OTHER
100
AcDbLine
 62
7
  6
CONTINUOUS
 10
74.9608380546
 20
35.0061183758
 11
74.9608380546
 21
35.1832837301
  0
LINE
  5
529
100
AcDbEntity
  8
3_ALL_AXES
100
AcDbLine
 62
7
  6
CONTINUOUS
 10
66.0041451412
 20
28.0748191632
 11
66.260050653
 21
28.0748191632
  0
LINE
  5
52A
100
AcDbEntity
  8
3_ALL_AXES
100
AcDbLine
 62
7
  6
CONTINUOUS
 10
78.2679246688
 20
28.0748191632
 11
78.5238301806
 21
28.0748191632
  0
LINE
  5
52B
100
AcDbEntity
  8
3_AXES_OTHER
100
AcDbLine
 62
7
  6
CONTINUOUS
 10
75.2573708246
 20
26.4637955411
 11
74.3242999584
 21
32.9586774309
  0
LINE
  5
52C
100
AcDbEntity
  8
3_AXES_OTHER
100
AcDbLine
 62
7
  6
CONTINUOUS
 10
75.7147750625
 20
26.4637955411
 11
74.7817041963
 21
32.9586774309
  0
LINE
  5
52D
100
AcDbEntity
  8
3_AXES_OTHER
100
AcDbLine
 62
7
  6
CONTINUOUS
 10
77.9529640389
 20
35.0061183758
 11
77.9529640389
 21
35.1832837301
  0
LINE
  5
52E
100
AcDbEntity
  8
3_AXES_OTHER
100
AcDbLine
 62
7
  6
CONTINUOUS
 10
78.2679246688
 20
35.0061183758
 11
78.2679246688
 21
15.5572994781
  0
LINE
  5
52F
100
AcDbEntity
  8
3_ALL_AXES
100
AcDbLine
 62
7
  6
CONTINUOUS
 10
78.5238301806
 20
28.0748191632
 11
78.5238301806
 21
27.5279687695
  0
LINE
  5
530
100
AcDbEntity
  8
3_ALL_AXES
100
AcDbLine
 62
7
  6
CENTER
 10
73.6389876609
 20
32.0887955411
 11
73.2139876609
 21
32.0887955411
  0
LINE
  5
531
100
AcDbEntity
  8
3_ALL_AXES
100
AcDbLine
 62
7
  6
CENTER
 10
70.8889876609
 20
32.0887955411
 11
70.4639876609
 21
32.0887955411
  0
LINE
  5
532
100
AcDbEntity
  8
3_ALL_AXES
100
AcDbLine
 62
7
  6
CENTER
 10
70.8889876609
 20
32.0887955411
 11
71.3139876609
 21
32.0887955411
  0
LINE
  5
533
100
AcDbEntity
  8
3_ALL_AXES
100
AcDbLine
 62
7
  6
CENTER
 10
73.6389876609
 20
32.0887955411
 11
74.0639876609
 21
32.0887955411
  0
LINE
  5
534
100
AcDbEntity
  8
3_AXES_OTHER
100
AcDbLine
 62
7
  6
CONTINUOUS
 10
70.354538842
 20
32.8988349112
 11
74.1734364798
 21
32.8988349112
  0
LINE
  5
535
100
AcDbEntity
  8
3_AXES_OTHER
100
AcDbLine
 62
7
  6
CONTINUOUS
 10
74.7817041963
 20
32.9586774309
 11
69.7462711255
 21
32.9586774309
  0
LINE
  5
536
100
AcDbEntity
  8
3_AXES_OTHER
100
AcDbLine
 62
7
  6
CONTINUOUS
 10
66.260050653
 20
33.2436957308
 11
78.2679246688
 21
33.2436957308
  0
LINE
  5
537
100
AcDbEntity
  8
3_AXES_OTHER
100
AcDbLine
 62
7
  6
CONTINUOUS
 10
69.823042779
 20
33.3059949906
 11
74.7049325428
 21
33.3059949906
  0
LINE
  5
538
100
AcDbEntity
  8
3_AXES_OTHER
100
AcDbLine
 62
7
  6
CONTINUOUS
 10
69.823042779
 20
33.5200834442
 11
74.7049325428
 21
33.5200834442
  0
LINE
  5
539
100
AcDbEntity
  8
3_AXES_OTHER
100
AcDbLine
 62
7
  6
CONTINUOUS
 10
70.4549325428
 20
33.8067650446
 11
74.073042779
 21
33.8067650446
  0
LINE
  5
53A
100
AcDbEntity
  8
3_AXES_OTHER
100
AcDbLine
 62
7
  6
CONTINUOUS
 10
74.073042779
 20
34.0631622461
 11
70.4549325428
 21
34.0631622461
  0
LINE
  5
53B
100
AcDbEntity
  8
3_AXES_OTHER
100
AcDbLine
 62
7
  6
CONTINUOUS
 10
74.073042779
 20
34.7767904249
 11
70.4549325428
 21
34.7767904249
  0
LINE
  5
53C
100
AcDbEntity
  8
3_AXES_OTHER
100
AcDbLine
 62
7
  6
CONTINUOUS
 10
66.260050653
 20
35.0061183758
 11
69.823042779
 21
35.0061183758
  0
LINE
  5
53D
100
AcDbEntity
  8
3_AXES_OTHER
100
AcDbLine
 62
7
  6
CONTINUOUS
 10
74.7049325428
 20
35.0061183758
 11
78.2679246688
 21
35.0061183758
  0
LINE
  5
53E
100
AcDbEntity
  8
3_AXES_OTHER
100
AcDbLine
 62
7
  6
CONTINUOUS
 10
74.7049325428
 20
35.0841037829
 11
69.823042779
 21
35.0841037829
  0
LINE
  5
53F
100
AcDbEntity
  8
3_AXES_OTHER
100
AcDbLine
 62
7
  6
CONTINUOUS
 10
66.575011283
 20
35.1832837301
 11
69.5671372672
 21
35.1832837301
  0
LINE
  5
540
100
AcDbEntity
  8
3_AXES_OTHER
100
AcDbLine
 62
7
  6
CONTINUOUS
 10
74.9608380546
 20
35.1832837301
 11
77.9529640389
 21
35.1832837301
  0
CIRCLE
  5
541
100
AcDbEntity
  8
0
100
AcDbCircle
 62
7
  6
CONTINUOUS
 10
45.9911937201
 20
27.8013939663
 40
0.4480776745
  0
ARC
  5
542
100
AcDbEntity
  8
3_ALL_AXES
100
AcDbCircle
 62
7
  6
CONTINUOUS
 10
58.6052161484
 20
55.1637289649
 40
1.71729327
100
AcDbArc
 50
250.0471362053
 51
257.6369288385
  0
ARC
  5
543
100
AcDbEntity
  8
3_ALL_AXES
100
AcDbCircle
 62
7
  6
CONTINUOUS
 10
58.604691089
 20
55.1619166809
 40
1.7154106003
100
AcDbArc
 50
194.5140830445
 51
250.0429646539
  0
ARC
  5
544
100
AcDbEntity
  8
3_ALL_AXES
100
AcDbCircle
 62
7
  6
CONTINUOUS
 10
56.0010600335
 20
55.1636043948
 40
1.0959362163
100
AcDbArc
 50
140.1125777384
 51
142.2989919433
  0
ARC
  5
545
100
AcDbEntity
  8
3_ALL_AXES
100
AcDbCircle
 62
7
  6
CONTINUOUS
 10
58.7059015644
 20
52.5583842899
 40
1.0935208094
100
AcDbArc
 50
310.0103578379
 51
311.4988895948
  0
ARC
  5
546
100
AcDbEntity
  8
3_ALL_AXES
100
AcDbCircle
 62
7
  6
CONTINUOUS
 10
58.142636703
 20
49.2367622762
 40
0.6703634306
100
AcDbArc
 50
250.0510479236
 51
259.5095958953
  0
ARC
  5
547
100
AcDbEntity
  8
3_ALL_AXES
100
AcDbCircle
 62
7
  6
CONTINUOUS
 10
58.142366418
 20
49.2356840439
 40
0.6692576886
100
AcDbArc
 50
192.6391641481
 51
250.0413047752
  0
CIRCLE
  5
548
100
AcDbEntity
  8
3_AXES_OTHER
100
AcDbCircle
 62
7
  6
CONTINUOUS
 10
23.9625289186
 20
48.4598187161
 40
1.4960629921
  0
CIRCLE
  5
549
100
AcDbEntity
  8
3_AXES_OTHER
100
AcDbCircle
 62
7
  6
CONTINUOUS
 10
15.5767021469
 20
48.4598187161
 40
1.4960629921
  0
CIRCLE
  5
54A
100
AcDbEntity
  8
3_AXES_OTHER
100
AcDbCircle
 62
7
  6
CONTINUOUS
 10
23.9625289186
 20
48.4598187161
 40
0.9842519685
  0
CIRCLE
  5
54B
100
AcDbEntity
  8
3_AXES_OTHER
100
AcDbCircle
 62
7
  6
CONTINUOUS
 10
15.5767021469
 20
48.4598187161
 40
0.9842519685
  0
ARC
  5
54C
100
AcDbEntity
  8
3_ALL_AXES
100
AcDbCircle
 62
7
  6
CONTINUOUS
 10
18.7696155327
 20
54.6802911571
 40
0.1437007874
100
AcDbArc
 50
180.0
 51
360.0
  0
ARC
  5
54D
100
AcDbEntity
  8
3_ALL_AXES
100
AcDbCircle
 62
7
  6
CONTINUOUS
 10
18.7696155327
 20
54.8302911571
 40
0.1437007874
100
AcDbArc
 50
0.0
 51
180.0
  0
ARC
  5
54E
100
AcDbEntity
  8
3_ALL_AXES
100
AcDbCircle
 62
7
  6
CONTINUOUS
 10
20.7696155327
 20
54.6802911571
 40
0.1437007874
100
AcDbArc
 50
180.0
 51
360.0
  0
ARC
  5
54F
100
AcDbEntity
  8
3_ALL_AXES
100
AcDbCircle
 62
7
  6
CONTINUOUS
 10
20.7696155327
 20
54.8302911571
 40
0.1437007874
100
AcDbArc
 50
0.0
 51
180.0
  0
ARC
  5
550
100
AcDbEntity
  8
3_ALL_AXES
100
AcDbCircle
 62
7
  6
CONTINUOUS
 10
20.056067075
 20
29.0729631313
 40
3.7489815286
100
AcDbArc
 50
0.0000768752
 51
0.5875250502
  0
ARC
  5
551
100
AcDbEntity
  8
3_ALL_AXES
100
AcDbCircle
 62
7
  6
CONTINUOUS
 10
19.4831639905
 20
29.0729631313
 40
3.7489815286
100
AcDbArc
 50
179.4124749498
 51
179.9999231248
  0
CIRCLE
  5
552
100
AcDbEntity
  8
3_ALL_AXES
100
AcDbCircle
 62
7
  6
CONTINUOUS
 10
45.9911937201
 20
27.8013939663
 40
0.2734251969
  0
CIRCLE
  5
553
100
AcDbEntity
  8
3_ALL_AXES
100
AcDbCircle
 62
7
  6
CONTINUOUS
 10
70.8889876609
 20
27.0887955411
 40
0.125
  0
CIRCLE
  5
554
100
AcDbEntity
  8
3_ALL_AXES
100
AcDbCircle
 62
7
  6
CONTINUOUS
 10
70.8889876609
 20
32.0887955411
 40
0.125
  0
CIRCLE
  5
555
100
AcDbEntity
  8
3_ALL_AXES
100
AcDbCircle
 62
7
  6
CONTINUOUS
 10
73.6389876609
 20
32.0887955411
 40
0.125
  0
CIRCLE
  5
556
100
AcDbEntity
  8
3_ALL_AXES
100
AcDbCircle
 62
7
  6
CONTINUOUS
 10
73.6389876609
 20
27.0887955411
 40
0.125
  0
SPLINE
  5
557
100
AcDbEntity
  8
3_ALL_AXES
100
AcDbSpline
 62
7
  6
CONTINUOUS
 70
0
 71
3
 72
15
 73
11
 74
0
 42
0.0000001
 43
0.0000001
 44
0.0000000001
 40
0.0
 40
0.0
 40
0.0
 40
0.0
 40
0.0896537462
 40
0.189467238
 40
0.3045451915
 40
0.4345683852
 40
0.5755212132
 40
0.7212986009
 40
0.8649728152
 40
1.0
 40
1.0
 40
1.0
 40
1.0
 10
56.4243277175
 20
50.2895192288
 30
0.0
 10
56.3474945192
 20
50.209743134
 30
0.0
 10
56.2251740293
 20
49.9995181518
 30
0.0
 10
56.1823639465
 20
49.6180443625
 30
0.0
 10
56.2634145992
 20
49.194871753
 30
0.0
 10
56.4583610014
 20
48.7559706
 30
0.0
 10
56.7524966549
 20
48.3302282106
 30
0.0
 10
57.1250358689
 20
47.9474041284
 30
0.0
 10
57.5489684292
 20
47.6348974188
 30
0.0
 10
57.8600715184
 20
47.4813958786
 30
0.0
 10
58.0168679519
 20
47.4244597628
 30
0.0
  0
SPLINE
  5
558
100
AcDbEntity
  8
3_ALL_AXES
100
AcDbSpline
 62
7
  6
CONTINUOUS
 70
0
 71
3
 72
11
 73
7
 74
0
 42
0.0000001
 43
0.0000001
 44
0.0000000001
 40
0.0
 40
0.0
 40
0.0
 40
0.0
 40
0.2136792134
 40
0.4455694745
 40
0.7067895102
 40
1.0
 40
1.0
 40
1.0
 40
1.0
 10
59.2600260865
 20
47.558460524
 30
0.0
 10
59.1949624487
 20
47.4909047921
 30
0.0
 10
59.0292578223
 20
47.3767532002
 30
0.0
 10
58.7228840786
 20
47.3017985224
 30
0.0
 10
58.3745718538
 20
47.3166763235
 30
0.0
 10
58.1378414016
 20
47.3805317334
 30
0.0
 10
58.0168679519
 20
47.4244597628
 30
0.0
  0
SPLINE
  5
559
100
AcDbEntity
  8
3_ALL_AXES
100
AcDbSpline
 62
7
  6
CONTINUOUS
 70
0
 71
3
 72
11
 73
7
 74
0
 42
0.0000001
 43
0.0000001
 44
0.0000000001
 40
0.0
 40
0.0
 40
0.0
 40
0.0
 40
0.2136803278
 40
0.4455705663
 40
0.7067904758
 40
1.0
 40
1.0
 40
1.0
 40
1.0
 10
55.1287358712
 20
55.8377000698
 30
0.0
 10
55.226982664
 20
55.939703449
 30
0.0
 10
55.4772091813
 20
56.1120407526
 30
0.0
 10
55.9398197386
 20
56.2252015585
 30
0.0
 10
56.4657537227
 20
56.2027275032
 30
0.0
 10
56.8232047704
 20
56.1063107133
 30
0.0
 10
57.0058683855
 20
56.0399816743
 30
0.0
  0
SPLINE
  5
55A
100
AcDbEntity
  8
3_AXES_OTHER
100
AcDbSpline
 62
7
  6
CONTINUOUS
 70
0
 71
3
 72
9
 73
5
 74
0
 42
0.0000001
 43
0.0000001
 44
0.0000000001
 40
0.0
 40
0.0
 40
0.0
 40
0.0
 40
0.5508324822
 40
1.0
 40
1.0
 40
1.0
 40
1.0
 10
61.2037521083
 20
59.2326086301
 30
0.0
 10
61.1346600192
 20
59.1882978167
 30
0.0
 10
61.0161911294
 20
59.0917752442
 30
0.0
 10
60.9550240398
 20
58.9458944822
 30
0.0
 10
60.9506957261
 20
58.8791035693
 30
0.0
  0
SPLINE
  5
55B
100
AcDbEntity
  8
3_AXES_OTHER
100
AcDbSpline
 62
7
  6
CONTINUOUS
 70
0
 71
3
 72
9
 73
5
 74
0
 42
0.0000001
 43
0.0000001
 44
0.0000000001
 40
0.0
 40
0.0
 40
0.0
 40
0.0
 40
0.5508324822
 40
1.0
 40
1.0
 40
1.0
 40
1.0
 10
54.2539942164
 20
61.7562133527
 30
0.0
 10
54.1849021273
 20
61.7119025393
 30
0.0
 10
54.0664332375
 20
61.6153799668
 30
0.0
 10
54.0052661479
 20
61.4694992047
 30
0.0
 10
54.0009378342
 20
61.4027082918
 30
0.0
  0
SPLINE
  5
55C
100
AcDbEntity
  8
3_AXES_OTHER
100
AcDbSpline
 62
7
  6
CONTINUOUS
 70
0
 71
3
 72
16
 73
12
 74
0
 42
0.0000001
 43
0.0000001
 44
0.0000000001
 40
0.0
 40
0.0
 40
0.0
 40
0.0
 40
0.1159596814
 40
0.2549543847
 40
0.4076393823
 40
0.5619502812
 40
0.7055460938
 40
0.8280983449
 40
0.8796926253
 40
0.9247817323
 40
1.0
 40
1.0
 40
1.0
 40
1.0
 10
63.2593143017
 20
58.4861903319
 30
0.0
 10
63.1930410687
 20
58.4436873349
 30
0.0
 10
63.0306100982
 20
58.3768353121
 30
0.0
 10
62.7575686281
 20
58.3255983579
 30
0.0
 10
62.4536476083
 20
58.3174707041
 30
0.0
 10
62.1487077928
 20
58.353649727
 30
0.0
 10
61.8726682413
 20
58.4305236429
 30
0.0
 10
61.6770907152
 20
58.5269204915
 30
0.0
 10
61.5613268583
 20
58.6218860761
 30
0.0
 10
61.4859778044
 20
58.7111830497
 30
0.0
 10
61.4581281067
 20
58.7951381522
 30
0.0
 10
61.4614378066
 20
58.8461006612
 30
0.0
  0
SPLINE
  5
55D
100
AcDbEntity
  8
3_AXES_OTHER
100
AcDbSpline
 62
7
  6
CONTINUOUS
 70
0
 71
3
 72
16
 73
12
 74
0
 42
0.0000001
 43
0.0000001
 44
0.0000000001
 40
0.0
 40
0.0
 40
0.0
 40
0.0
 40
0.1159596814
 40
0.2549543847
 40
0.4076393823
 40
0.5619502812
 40
0.7055460938
 40
0.8280983449
 40
0.8796926253
 40
0.9247817323
 40
1.0
 40
1.0
 40
1.0
 40
1.0
 10
56.3095564098
 20
61.0097950544
 30
0.0
 10
56.2432831768
 20
60.9672920574
 30
0.0
 10
56.0808522063
 20
60.9004400346
 30
0.0
 10
55.8078107363
 20
60.8492030804
 30
0.0
 10
55.5038897165
 20
60.8410754266
 30
0.0
 10
55.1989499009
 20
60.8772544495
 30
0.0
 10
54.9229103494
 20
60.9541283655
 30
0.0
 10
54.7273328233
 20
61.050525214
 30
0.0
 10
54.6115689664
 20
61.1454907986
 30
0.0
 10
54.5362199125
 20
61.2347877723
 30
0.0
 10
54.5083702148
 20
61.3187428748
 30
0.0
 10
54.5116799147
 20
61.3697053837
 30
0.0
  0
SPLINE
  5
55E
100
AcDbEntity
  8
3_ALL_AXES
100
AcDbSpline
 62
7
  6
CONTINUOUS
 70
0
 71
3
 72
9
 73
5
 74
0
 42
0.0000001
 43
0.0000001
 44
0.0000000001
 40
0.0
 40
0.0
 40
0.0
 40
0.0
 40
0.292554702
 40
1.0
 40
1.0
 40
1.0
 40
1.0
 10
64.6385180235
 20
51.9811545008
 30
0.0
 10
64.6318995985
 20
51.9769099078
 30
0.0
 10
64.6086328166
 20
51.9639161613
 30
0.0
 10
64.5786894169
 20
51.9594512192
 30
0.0
 10
64.5608220597
 20
51.965951358
 30
0.0
  0
SPLINE
  5
55F
100
AcDbEntity
  8
3_ALL_AXES
100
AcDbSpline
 62
7
  6
CONTINUOUS
 70
0
 71
3
 72
11
 73
7
 74
0
 42
0.0000001
 43
0.0000001
 44
0.0000000001
 40
0.0
 40
0.0
 40
0.0
 40
0.0
 40
0.2289529428
 40
0.4673668774
 40
0.7228428105
 40
1.0
 40
1.0
 40
1.0
 40
1.0
 10
54.3631084306
 20
56.5750959538
 30
0.0
 10
54.273291101
 20
56.4818445997
 30
0.0
 10
54.1147527547
 20
56.2659506924
 30
0.0
 10
53.9624463597
 20
55.8825356317
 30
0.0
 10
53.8954722376
 20
55.4485500655
 30
0.0
 10
53.9071487219
 20
55.1457802537
 30
0.0
 10
53.9252848102
 20
54.9901019261
 30
0.0
  0
SPLINE
  5
560
100
AcDbEntity
  8
3_ALL_AXES
100
AcDbSpline
 62
7
  6
CONTINUOUS
 70
0
 71
3
 72
9
 73
5
 74
0
 42
0.0000001
 43
0.0000001
 44
0.0000000001
 40
0.0
 40
0.0
 40
0.0
 40
0.0
 40
0.2780385319
 40
1.0
 40
1.0
 40
1.0
 40
1.0
 10
61.6779384673
 20
60.60902438
 30
0.0
 10
61.6801752372
 20
60.6104588871
 30
0.0
 10
61.6879640796
 20
60.6159612594
 30
0.0
 10
61.6948015545
 20
60.6231275988
 30
0.0
 10
61.6981162749
 20
60.6291791085
 30
0.0
  0
SPLINE
  5
561
100
AcDbEntity
  8
3_ALL_AXES
100
AcDbSpline
 62
7
  6
CONTINUOUS
 70
0
 71
3
 72
8
 73
4
 74
0
 42
0.0000001
 43
0.0000001
 44
0.0000000001
 40
0.0
 40
0.0
 40
0.0
 40
0.0
 40
1.0
 40
1.0
 40
1.0
 40
1.0
 10
61.6981162749
 20
60.6291791085
 30
0.0
 10
61.7004268424
 20
60.6333973893
 30
0.0
 10
61.7019402239
 20
60.6382041101
 30
0.0
 10
61.7022476602
 20
60.6430039119
 30
0.0
  0
SPLINE
  5
562
100
AcDbEntity
  8
3_ALL_AXES
100
AcDbSpline
 62
7
  6
CONTINUOUS
 70
0
 71
3
 72
9
 73
5
 74
0
 42
0.0000001
 43
0.0000001
 44
0.0000000001
 40
0.0
 40
0.0
 40
0.0
 40
0.0
 40
0.2780385319
 40
1.0
 40
1.0
 40
1.0
 40
1.0
 10
63.3354394105
 20
60.0071505776
 30
0.0
 10
63.3376761805
 20
60.0085850848
 30
0.0
 10
63.3454650228
 20
60.014087457
 30
0.0
 10
63.3523024977
 20
60.0212537964
 30
0.0
 10
63.3556172182
 20
60.0273053062
 30
0.0
  0
SPLINE
  5
563
100
AcDbEntity
  8
3_ALL_AXES
100
AcDbSpline
 62
7
  6
CONTINUOUS
 70
0
 71
3
 72
8
 73
4
 74
0
 42
0.0000001
 43
0.0000001
 44
0.0000000001
 40
0.0
 40
0.0
 40
0.0
 40
0.0
 40
1.0
 40
1.0
 40
1.0
 40
1.0
 10
63.3556172182
 20
60.0273053062
 30
0.0
 10
63.3579277856
 20
60.0315235869
 30
0.0
 10
63.3594411671
 20
60.0363303077
 30
0.0
 10
63.3597486034
 20
60.0411301095
 30
0.0
  0
SPLINE
  5
564
100
AcDbEntity
  8
3_ALL_AXES
100
AcDbSpline
 62
7
  6
CONTINUOUS
 70
0
 71
3
 72
12
 73
8
 74
0
 42
0.0000001
 43
0.0000001
 44
0.0000000001
 40
0.0
 40
0.0
 40
0.0
 40
0.0
 40
0.1691088042
 40
0.2929610204
 40
0.4377039082
 40
0.7455387425
 40
1.0
 40
1.0
 40
1.0
 40
1.0
 10
64.7475419177
 20
52.4799347343
 30
0.0
 10
64.7774291502
 20
52.4690617688
 30
0.0
 10
64.8063587181
 20
52.4084967611
 30
0.0
 10
64.8088502983
 20
52.3282061312
 30
0.0
 10
64.7941650064
 20
52.219378852
 30
0.0
 10
64.7455026707
 20
52.0949748948
 30
0.0
 10
64.6788009736
 20
52.0069891557
 30
0.0
 10
64.6385180235
 20
51.9811545008
 30
0.0
  0
SPLINE
  5
565
100
AcDbEntity
  8
3_AXES_OTHER
100
AcDbSpline
 62
7
  6
CONTINUOUS
 70
0
 71
3
 72
17
 73
13
 74
0
 42
0.0000001
 43
0.0000001
 44
0.0000000001
 40
0.0
 40
0.0
 40
0.0
 40
0.0
 40
0.0364627413
 40
0.076100476
 40
0.1211529759
 40
0.1727039269
 40
0.295143563
 40
0.4386035234
 40
0.5927651229
 40
0.7452986007
 40
0.8841567062
 40
1.0
 40
1.0
 40
1.0
 40
1.0
 10
56.9867764192
 20
61.2092772918
 30
0.0
 10
56.9892121073
 20
61.2468627904
 30
0.0
 10
56.9799176554
 20
61.3267641271
 30
0.0
 10
56.9256451332
 20
61.4413689142
 30
0.0
 10
56.8348614256
 20
61.550383722
 30
0.0
 10
56.6588243893
 20
61.6941262763
 30
0.0
 10
56.361574439
 20
61.8409852366
 30
0.0
 10
55.9419887244
 20
61.9576695722
 30
0.0
 10
55.4785088424
 20
62.012669358
 30
0.0
 10
55.0165793966
 20
62.0003146717
 30
0.0
 10
54.6015943468
 20
61.9224186485
 30
0.0
 10
54.354720229
 20
61.8208119427
 30
0.0
 10
54.2539942164
 20
61.7562133527
 30
0.0
  0
SPLINE
  5
566
100
AcDbEntity
  8
3_AXES_OTHER
100
AcDbSpline
 62
7
  6
CONTINUOUS
 70
0
 71
3
 72
17
 73
13
 74
0
 42
0.0000001
 43
0.0000001
 44
0.0000000001
 40
0.0
 40
0.0
 40
0.0
 40
0.0
 40
0.0364627413
 40
0.076100476
 40
0.1211529759
 40
0.1727039269
 40
0.295143563
 40
0.4386035234
 40
0.5927651229
 40
0.7452986007
 40
0.8841567062
 40
1.0
 40
1.0
 40
1.0
 40
1.0
 10
63.9365343111
 20
58.6856725693
 30
0.0
 10
63.9389699992
 20
58.7232580679
 30
0.0
 10
63.9296755472
 20
58.8031594045
 30
0.0
 10
63.8754030251
 20
58.9177641916
 30
0.0
 10
63.7846193174
 20
59.0267789994
 30
0.0
 10
63.6085822811
 20
59.1705215537
 30
0.0
 10
63.3113323309
 20
59.317380514
 30
0.0
 10
62.8917466163
 20
59.4340648497
 30
0.0
 10
62.4282667342
 20
59.4890646355
 30
0.0
 10
61.9663372885
 20
59.4767099491
 30
0.0
 10
61.5513522387
 20
59.398813926
 30
0.0
 10
61.3044781209
 20
59.2972072202
 30
0.0
 10
61.2037521083
 20
59.2326086301
 30
0.0
  0
SPLINE
  5
567
100
AcDbEntity
  8
3_AXES_OTHER
100
AcDbSpline
 62
7
  6
CONTINUOUS
 70
0
 71
3
 72
9
 73
5
 74
0
 42
0.0000001
 43
0.0000001
 44
0.0000000001
 40
0.0
 40
0.0
 40
0.0
 40
0.0
 40
0.4491717505
 40
1.0
 40
1.0
 40
1.0
 40
1.0
 10
63.4257922306
 20
58.7186754774
 30
0.0
 10
63.4229392941
 20
58.6747461747
 30
0.0
 10
63.3826691942
 20
58.5788143088
 30
0.0
 10
63.3047567529
 20
58.5153339285
 30
0.0
 10
63.2593143017
 20
58.4861903319
 30
0.0
  0
SPLINE
  5
568
100
AcDbEntity
  8
3_AXES_OTHER
100
AcDbSpline
 62
7
  6
CONTINUOUS
 70
0
 71
3
 72
9
 73
5
 74
0
 42
0.0000001
 43
0.0000001
 44
0.0000000001
 40
0.0
 40
0.0
 40
0.0
 40
0.0
 40
0.4491717505
 40
1.0
 40
1.0
 40
1.0
 40
1.0
 10
56.4760343388
 20
61.2422801999
 30
0.0
 10
56.4731814022
 20
61.1983508973
 30
0.0
 10
56.4329113023
 20
61.1024190314
 30
0.0
 10
56.354998861
 20
61.038938651
 30
0.0
 10
56.3095564098
 20
61.0097950544
 30
0.0
  0
SPLINE
  5
569
100
AcDbEntity
  8
3_ALL_AXES
100
AcDbSpline
 62
7
  6
CONTINUOUS
 70
0
 71
3
 72
17
 73
13
 74
0
 42
0.0000001
 43
0.0000001
 44
0.0000000001
 40
0.0
 40
0.0
 40
0.0
 40
0.0
 40
0.121225218
 40
0.257851208
 40
0.4031126445
 40
0.5482732693
 40
0.6846186044
 40
0.8054482867
 40
0.8592891412
 40
0.9089667796
 40
0.9553872626
 40
1.0
 40
1.0
 40
1.0
 40
1.0
 10
53.9252848102
 20
54.9901019261
 30
0.0
 10
53.9655333514
 20
54.644612563
 30
0.0
 10
54.1762259759
 20
53.9235552167
 30
0.0
 10
54.7533064095
 20
52.9126330879
 30
0.0
 10
55.560373727
 20
51.9807705166
 30
0.0
 10
56.5244322953
 20
51.2138265841
 30
0.0
 10
57.5572278719
 20
50.6810974897
 30
0.0
 10
58.4365006949
 20
50.4648147632
 30
0.0
 10
59.0833465388
 20
50.4685437651
 30
0.0
 10
59.5083362456
 20
50.5532294581
 30
0.0
 10
59.8803442509
 20
50.7192695917
 30
0.0
 10
60.0873954107
 20
50.8840914266
 30
0.0
 10
60.1761953111
 20
50.9762864518
 30
0.0
  0
SPLINE
  5
56A
100
AcDbEntity
  8
3_ALL_AXES
100
AcDbSpline
 62
7
  6
CONTINUOUS
 70
0
 71
3
 72
15
 73
11
 74
0
 42
0.0000001
 43
0.0000001
 44
0.0000000001
 40
0.0
 40
0.0
 40
0.0
 40
0.0
 40
0.1350252734
 40
0.278704138
 40
0.4244805515
 40
0.5654344613
 40
0.695457024
 40
0.8105338603
 40
0.9103461293
 40
1.0
 40
1.0
 40
1.0
 40
1.0
 10
57.0058683855
 20
56.0399816743
 30
0.0
 10
57.2426307175
 20
55.9540082421
 30
0.0
 10
57.7124019167
 20
55.7222085895
 30
0.0
 10
58.3525696947
 20
55.2503374464
 30
0.0
 10
58.9150841966
 20
54.6722269088
 30
0.0
 10
59.3592506842
 20
54.0293609745
 30
0.0
 10
59.653604289
 20
53.3666031145
 30
0.0
 10
59.7759780794
 20
52.7276052056
 30
0.0
 10
59.7112986952
 20
52.151582057
 30
0.0
 10
59.5265915016
 20
51.8341422723
 30
0.0
 10
59.4105678705
 20
51.7136823357
 30
0.0
  0
SPLINE
  5
56B
100
AcDbEntity
  8
3_ALL_AXES
100
AcDbSpline
 62
7
  6
CONTINUOUS
 70
0
 71
3
 72
11
 73
7
 74
0
 42
0.0000001
 43
0.0000001
 44
0.0000000001
 40
0.0
 40
0.0
 40
0.0
 40
0.0
 40
0.2136801887
 40
0.4455663626
 40
0.7067834677
 40
1.0
 40
1.0
 40
1.0
 40
1.0
 10
56.5003431594
 20
50.3684583744
 30
0.0
 10
56.5654076634
 20
50.4360303914
 30
0.0
 10
56.7311031871
 20
50.5502363878
 30
0.0
 10
57.0375111037
 20
50.6252306776
 30
0.0
 10
57.385867912
 20
50.6103720717
 30
0.0
 10
57.6226315686
 20
50.5465106535
 30
0.0
 10
57.743622864
 20
50.5025761439
 30
0.0
  0
SPLINE
  5
56C
100
AcDbEntity
  8
3_ALL_AXES
100
AcDbSpline
 62
7
  6
CONTINUOUS
 70
0
 71
3
 72
12
 73
8
 74
0
 42
0.0000001
 43
0.0000001
 44
0.0000000001
 40
0.0
 40
0.0
 40
0.0
 40
0.0
 40
0.1674109954
 40
0.2910058884
 40
0.4358064748
 40
0.7444751816
 40
1.0
 40
1.0
 40
1.0
 40
1.0
 10
63.3597486034
 20
60.0411301095
 30
0.0
 10
63.3608003988
 20
60.0575510992
 30
0.0
 10
63.3376777948
 20
60.0837394774
 30
0.0
 10
63.2999007193
 20
60.1014851647
 30
0.0
 10
63.2446273564
 20
60.1172060306
 30
0.0
 10
63.1747156304
 20
60.120155024
 30
0.0
 10
63.1183963026
 20
60.1071987226
 30
0.0
 10
63.0972552199
 20
60.0936403169
 30
0.0
  0
SPLINE
  5
56D
100
AcDbEntity
  8
3_ALL_AXES
100
AcDbSpline
 62
7
  6
CONTINUOUS
 70
0
 71
3
 72
8
 73
4
 74
0
 42
0.0000001
 43
0.0000001
 44
0.0000000001
 40
0.0
 40
0.0
 40
0.0
 40
0.0
 40
1.0
 40
1.0
 40
1.0
 40
1.0
 10
63.3463893473
 20
60.0158889716
 30
0.0
 10
63.3423572832
 20
60.0208400742
 30
0.0
 10
63.3375515868
 20
60.0251895324
 30
0.0
 10
63.3324445882
 20
60.0290222237
 30
0.0
  0
SPLINE
  5
56E
100
AcDbEntity
  8
3_ALL_AXES
100
AcDbSpline
 62
7
  6
CONTINUOUS
 70
0
 71
3
 72
11
 73
7
 74
0
 42
0.0000001
 43
0.0000001
 44
0.0000000001
 40
0.0
 40
0.0
 40
0.0
 40
0.0
 40
0.2295010994
 40
0.5052393804
 40
0.7779909965
 40
1.0
 40
1.0
 40
1.0
 40
1.0
 10
63.3324445882
 20
60.0290222237
 30
0.0
 10
63.3172355107
 20
60.0404363053
 30
0.0
 10
63.2777050803
 20
60.0570508849
 30
0.0
 10
63.2136774257
 20
60.0672290597
 30
0.0
 10
63.1495982491
 20
60.0638697547
 30
0.0
 10
63.1093562515
 20
60.0513486328
 30
0.0
 10
63.093872074
 20
60.0414181689
 30
0.0
  0
SPLINE
  5
56F
100
AcDbEntity
  8
3_ALL_AXES
100
AcDbSpline
 62
7
  6
CONTINUOUS
 70
0
 71
3
 72
12
 73
8
 74
0
 42
0.0000001
 43
0.0000001
 44
0.0000000001
 40
0.0
 40
0.0
 40
0.0
 40
0.0
 40
0.1674109954
 40
0.2910058884
 40
0.4358064748
 40
0.7444751816
 40
1.0
 40
1.0
 40
1.0
 40
1.0
 10
61.7022476602
 20
60.6430039119
 30
0.0
 10
61.7032994555
 20
60.6594249015
 30
0.0
 10
61.6801768515
 20
60.6856132798
 30
0.0
 10
61.6423997761
 20
60.7033589671
 30
0.0
 10
61.5871264132
 20
60.7190798329
 30
0.0
 10
61.5172146872
 20
60.7220288264
 30
0.0
 10
61.4608953594
 20
60.7090725249
 30
0.0
 10
61.4397542766
 20
60.6955141193
 30
0.0
  0
SPLINE
  5
570
100
AcDbEntity
  8
3_AXES_OTHER
100
AcDbSpline
 62
7
  6
CONTINUOUS
 70
0
 71
3
 72
9
 73
5
 74
0
 42
0.0000001
 43
0.0000001
 44
0.0000000001
 40
0.0
 40
0.0
 40
0.0
 40
0.0
 40
0.5508324822
 40
1.0
 40
1.0
 40
1.0
 40
1.0
 10
63.6834779289
 20
58.3321675085
 30
0.0
 10
63.752570018
 20
58.3764783218
 30
0.0
 10
63.8710389078
 20
58.4730008943
 30
0.0
 10
63.9322059974
 20
58.6188816564
 30
0.0
 10
63.9365343111
 20
58.6856725693
 30
0.0
  0
SPLINE
  5
571
100
AcDbEntity
  8
3_ALL_AXES
100
AcDbSpline
 62
7
  6
CONTINUOUS
 70
0
 71
3
 72
8
 73
4
 74
0
 42
0.0000001
 43
0.0000001
 44
0.0000000001
 40
0.0
 40
0.0
 40
0.0
 40
0.0
 40
1.0
 40
1.0
 40
1.0
 40
1.0
 10
61.6888884041
 20
60.617762774
 30
0.0
 10
61.68485634
 20
60.6227138766
 30
0.0
 10
61.6800506436
 20
60.6270633348
 30
0.0
 10
61.674943645
 20
60.6308960261
 30
0.0
  0
SPLINE
  5
572
100
AcDbEntity
  8
3_ALL_AXES
100
AcDbSpline
 62
7
  6
CONTINUOUS
 70
0
 71
3
 72
11
 73
7
 74
0
 42
0.0000001
 43
0.0000001
 44
0.0000000001
 40
0.0
 40
0.0
 40
0.0
 40
0.0
 40
0.2295010994
 40
0.5052393804
 40
0.7779909965
 40
1.0
 40
1.0
 40
1.0
 40
1.0
 10
61.674943645
 20
60.6308960261
 30
0.0
 10
61.6597345675
 20
60.6423101077
 30
0.0
 10
61.6202041371
 20
60.6589246872
 30
0.0
 10
61.5561764824
 20
60.6691028621
 30
0.0
 10
61.4920973059
 20
60.6657435571
 30
0.0
 10
61.4518553082
 20
60.6532224352
 30
0.0
 10
61.4363711308
 20
60.6432919713
 30
0.0
  0
SPLINE
  5
573
100
AcDbEntity
  8
3_AXES_OTHER
100
AcDbSpline
 62
7
  6
CONTINUOUS
 70
0
 71
3
 72
9
 73
5
 74
0
 42
0.0000001
 43
0.0000001
 44
0.0000000001
 40
0.0
 40
0.0
 40
0.0
 40
0.0
 40
0.5508324822
 40
1.0
 40
1.0
 40
1.0
 40
1.0
 10
56.733720037
 20
60.855772231
 30
0.0
 10
56.8028121262
 20
60.9000830444
 30
0.0
 10
56.9212810159
 20
60.9966056169
 30
0.0
 10
56.9824481055
 20
61.142486379
 30
0.0
 10
56.9867764192
 20
61.2092772918
 30
0.0
  0
SPLINE
  5
574
100
AcDbEntity
  8
3_AXES_OTHER
100
AcDbSpline
 62
7
  6
CONTINUOUS
 70
0
 71
3
 72
16
 73
12
 74
0
 42
0.0000001
 43
0.0000001
 44
0.0000000001
 40
0.0
 40
0.0
 40
0.0
 40
0.0
 40
0.1159596814
 40
0.2549543847
 40
0.4076393823
 40
0.5619502812
 40
0.7055460938
 40
0.8280983449
 40
0.8796926253
 40
0.9247817323
 40
1.0
 40
1.0
 40
1.0
 40
1.0
 10
61.6279157355
 20
59.0785858067
 30
0.0
 10
61.6941889685
 20
59.1210888037
 30
0.0
 10
61.856619939
 20
59.1879408265
 30
0.0
 10
62.1296614091
 20
59.2391777807
 30
0.0
 10
62.4335824289
 20
59.2473054345
 30
0.0
 10
62.7385222444
 20
59.2111264116
 30
0.0
 10
63.0145617959
 20
59.1342524956
 30
0.0
 10
63.210139322
 20
59.0378556471
 30
0.0
 10
63.3259031789
 20
58.9428900625
 30
0.0
 10
63.4012522328
 20
58.8535930889
 30
0.0
 10
63.4291019305
 20
58.7696379863
 30
0.0
 10
63.4257922306
 20
58.7186754774
 30
0.0
  0
SPLINE
  5
575
100
AcDbEntity
  8
3_AXES_OTHER
100
AcDbSpline
 62
7
  6
CONTINUOUS
 70
0
 71
3
 72
16
 73
12
 74
0
 42
0.0000001
 43
0.0000001
 44
0.0000000001
 40
0.0
 40
0.0
 40
0.0
 40
0.0
 40
0.1159596814
 40
0.2549543847
 40
0.4076393823
 40
0.5619502812
 40
0.7055460938
 40
0.8280983449
 40
0.8796926253
 40
0.9247817323
 40
1.0
 40
1.0
 40
1.0
 40
1.0
 10
54.6781578436
 20
61.6021905292
 30
0.0
 10
54.7444310766
 20
61.6446935262
 30
0.0
 10
54.9068620471
 20
61.711545549
 30
0.0
 10
55.1799035172
 20
61.7627825032
 30
0.0
 10
55.483824537
 20
61.7709101571
 30
0.0
 10
55.7887643525
 20
61.7347311342
 30
0.0
 10
56.0648039041
 20
61.6578572182
 30
0.0
 10
56.2603814301
 20
61.5614603696
 30
0.0
 10
56.376145287
 20
61.4664947851
 30
0.0
 10
56.4514943409
 20
61.3771978114
 30
0.0
 10
56.4793440386
 20
61.2932427089
 30
0.0
 10
56.4760343388
 20
61.2422801999
 30
0.0
  0
SPLINE
  5
576
100
AcDbEntity
  8
3_ALL_AXES
100
AcDbSpline
 62
7
  6
CONTINUOUS
 70
0
 71
3
 72
9
 73
5
 74
0
 42
0.0000001
 43
0.0000001
 44
0.0000000001
 40
0.0
 40
0.0
 40
0.0
 40
0.0
 40
0.2927803406
 40
1.0
 40
1.0
 40
1.0
 40
1.0
 10
64.4577641403
 20
52.5417430033
 30
0.0
 10
64.4643898855
 20
52.5459922909
 30
0.0
 10
64.487660176
 20
52.559000032
 30
0.0
 10
64.5176186805
 20
52.5634442646
 30
0.0
 10
64.5354843295
 20
52.5569385738
 30
0.0
  0
SPLINE
  5
577
100
AcDbEntity
  8
3_AXES_OTHER
100
AcDbSpline
 62
7
  6
CONTINUOUS
 70
0
 71
3
 72
9
 73
5
 74
0
 42
0.0000001
 43
0.0000001
 44
0.0000000001
 40
0.0
 40
0.0
 40
0.0
 40
0.0
 40
0.5508285196
 40
1.0
 40
1.0
 40
1.0
 40
1.0
 10
63.6733284914
 20
58.1755010643
 30
0.0
 10
63.7424325266
 20
58.2198195391
 30
0.0
 10
63.8609248572
 20
58.3163645129
 30
0.0
 10
63.9220740967
 20
58.4622839111
 30
0.0
 10
63.9263963226
 20
58.5290878892
 30
0.0
  0
SPLINE
  5
578
100
AcDbEntity
  8
3_ALL_AXES
100
AcDbSpline
 62
7
  6
CONTINUOUS
 70
0
 71
3
 72
12
 73
8
 74
0
 42
0.0000001
 43
0.0000001
 44
0.0000000001
 40
0.0
 40
0.0
 40
0.0
 40
0.0
 40
0.1691310116
 40
0.2929921865
 40
0.4377399398
 40
0.7455672909
 40
1.0
 40
1.0
 40
1.0
 40
1.0
 10
64.3487160207
 20
52.0429703419
 30
0.0
 10
64.3188291427
 20
52.0538535057
 30
0.0
 10
64.2899145489
 20
52.1144278569
 30
0.0
 10
64.2874283023
 20
52.1947222901
 30
0.0
 10
64.302124344
 20
52.3035460077
 30
0.0
 10
64.350790693
 20
52.4279365741
 30
0.0
 10
64.4174870032
 20
52.5159120764
 30
0.0
 10
64.4577641403
 20
52.5417430033
 30
0.0
  0
SPLINE
  5
579
100
AcDbEntity
  8
3_ALL_AXES
100
AcDbSpline
 62
7
  6
CONTINUOUS
 70
0
 71
3
 72
12
 73
8
 74
0
 42
0.0000001
 43
0.0000001
 44
0.0000000001
 40
0.0
 40
0.0
 40
0.0
 40
0.0
 40
0.1691088042
 40
0.2929610204
 40
0.4377039082
 40
0.7455387425
 40
1.0
 40
1.0
 40
1.0
 40
1.0
 10
64.5608220597
 20
51.965951358
 30
0.0
 10
64.5309348272
 20
51.9768243235
 30
0.0
 10
64.5020052593
 20
52.0373893312
 30
0.0
 10
64.4995136791
 20
52.1176799611
 30
0.0
 10
64.5141989711
 20
52.2265072403
 30
0.0
 10
64.5628613067
 20
52.3509111975
 30
0.0
 10
64.6295630038
 20
52.4388969366
 30
0.0
 10
64.6698459539
 20
52.4647315916
 30
0.0
  0
SPLINE
  5
57A
100
AcDbEntity
  8
3_AXES_OTHER
100
AcDbSpline
 62
7
  6
CONTINUOUS
 70
0
 71
3
 72
9
 73
5
 74
0
 42
0.0000001
 43
0.0000001
 44
0.0000000001
 40
0.0
 40
0.0
 40
0.0
 40
0.0
 40
0.5508285196
 40
1.0
 40
1.0
 40
1.0
 40
1.0
 10
56.7235705995
 20
60.6991057869
 30
0.0
 10
56.7926746347
 20
60.7434242616
 30
0.0
 10
56.9111669653
 20
60.8399692354
 30
0.0
 10
56.9723162048
 20
60.9858886337
 30
0.0
 10
56.9766384308
 20
61.0526926118
 30
0.0
  0
SPLINE
  5
57B
100
AcDbEntity
  8
3_AXES_OTHER
100
AcDbSpline
 62
7
  6
CONTINUOUS
 70
0
 71
3
 72
17
 73
13
 74
0
 42
0.0000001
 43
0.0000001
 44
0.0000000001
 40
0.0
 40
0.0
 40
0.0
 40
0.0
 40
0.0364627413
 40
0.076100476
 40
0.1211529759
 40
0.1727039269
 40
0.295143563
 40
0.4386035234
 40
0.5927651229
 40
0.7452986007
 40
0.8841567062
 40
1.0
 40
1.0
 40
1.0
 40
1.0
 10
54.0009378342
 20
61.4027082918
 30
0.0
 10
53.9985021462
 20
61.3651227933
 30
0.0
 10
54.0077965981
 20
61.2852214566
 30
0.0
 10
54.0620691202
 20
61.1706166695
 30
0.0
 10
54.1528528279
 20
61.0616018617
 30
0.0
 10
54.3288898642
 20
60.9178593074
 30
0.0
 10
54.6261398144
 20
60.7710003471
 30
0.0
 10
55.0457255291
 20
60.6543160114
 30
0.0
 10
55.5092054111
 20
60.5993162256
 30
0.0
 10
55.9711348568
 20
60.611670912
 30
0.0
 10
56.3861199066
 20
60.6895669351
 30
0.0
 10
56.6329940244
 20
60.7911736409
 30
0.0
 10
56.733720037
 20
60.855772231
 30
0.0
  0
SPLINE
  5
57C
100
AcDbEntity
  8
3_ALL_AXES
100
AcDbSpline
 62
7
  6
CONTINUOUS
 70
0
 71
3
 72
15
 73
11
 74
0
 42
0.0000001
 43
0.0000001
 44
0.0000000001
 40
0.0
 40
0.0
 40
0.0
 40
0.0
 40
0.090356106
 40
0.1919962564
 40
0.3086095772
 40
0.4392066964
 40
0.5796937723
 40
0.7242376796
 40
0.8663670948
 40
1.0
 40
1.0
 40
1.0
 40
1.0
 10
55.1339413
 20
55.8338142815
 30
0.0
 10
55.03300928
 20
55.7032327425
 30
0.0
 10
54.8829868435
 20
55.3729747477
 30
0.0
 10
54.8561805523
 20
54.8005654807
 30
0.0
 10
55.0026978124
 20
54.1740789937
 30
0.0
 10
55.3090459247
 20
53.5307324756
 30
0.0
 10
55.7537087592
 20
52.9110394381
 30
0.0
 10
56.3069639092
 20
52.3560945475
 30
0.0
 10
56.9309975891
 20
51.9035193578
 30
0.0
 10
57.3866662929
 20
51.6805447979
 30
0.0
 10
57.6160983976
 20
51.5972331269
 30
0.0
  0
SPLINE
  5
57D
100
AcDbEntity
  8
3_AXES_OTHER
100
AcDbSpline
 62
7
  6
CONTINUOUS
 70
0
 71
3
 72
17
 73
13
 74
0
 42
0.0000001
 43
0.0000001
 44
0.0000000001
 40
0.0
 40
0.0
 40
0.0
 40
0.0
 40
0.0364632142
 40
0.076102853
 40
0.1211565377
 40
0.1727114238
 40
0.2951555045
 40
0.4386162818
 40
0.5927752587
 40
0.7453051444
 40
0.8841614697
 40
1.0
 40
1.0
 40
1.0
 40
1.0
 10
53.9907769477
 20
61.2459600837
 30
0.0
 10
53.9883451757
 20
61.2083748104
 30
0.0
 10
53.9976805133
 20
61.1284760931
 30
0.0
 10
54.051968799
 20
61.01388427
 30
0.0
 10
54.1427580854
 20
60.9048678715
 30
0.0
 10
54.3188191957
 20
60.761147659
 30
0.0
 10
54.6160748394
 20
60.6143049797
 30
0.0
 10
55.0356557275
 20
60.4976319158
 30
0.0
 10
55.4991194708
 20
60.4426488167
 30
0.0
 10
55.9610285874
 20
60.4550070763
 30
0.0
 10
56.3759910474
 20
60.5329085556
 30
0.0
 10
56.622851313
 20
60.6345115104
 30
0.0
 10
56.7235705995
 20
60.6991057869
 30
0.0
  0
SPLINE
  5
57E
100
AcDbEntity
  8
3_ALL_AXES
100
AcDbSpline
 62
7
  6
CONTINUOUS
 70
0
 71
3
 72
9
 73
5
 74
0
 42
0.0000001
 43
0.0000001
 44
0.0000000001
 40
0.0
 40
0.0
 40
0.0
 40
0.0
 40
0.292554702
 40
1.0
 40
1.0
 40
1.0
 40
1.0
 10
64.6698459539
 20
52.4647315916
 30
0.0
 10
64.6764643789
 20
52.4689761845
 30
0.0
 10
64.6997311609
 20
52.481969931
 30
0.0
 10
64.7296745605
 20
52.4864348731
 30
0.0
 10
64.7475419177
 20
52.4799347343
 30
0.0
  0
SPLINE
  5
57F
100
AcDbEntity
  8
3_ALL_AXES
100
AcDbSpline
 62
7
  6
CONTINUOUS
 70
0
 71
3
 72
11
 73
7
 74
0
 42
0.0000001
 43
0.0000001
 44
0.0000000001
 40
0.0
 40
0.0
 40
0.0
 40
0.0
 40
0.2289529428
 40
0.4673668774
 40
0.7228428105
 40
1.0
 40
1.0
 40
1.0
 40
1.0
 10
60.1761953111
 20
50.9762864518
 30
0.0
 10
60.2660126407
 20
51.0695378059
 30
0.0
 10
60.4245509869
 20
51.2854317132
 30
0.0
 10
60.576857382
 20
51.6688467738
 30
0.0
 10
60.6438315041
 20
52.1028323401
 30
0.0
 10
60.6321550198
 20
52.4056021518
 30
0.0
 10
60.6140189315
 20
52.5612804795
 30
0.0
  0
SPLINE
  5
580
100
AcDbEntity
  8
3_AXES_OTHER
100
AcDbSpline
 62
7
  6
CONTINUOUS
 70
0
 71
3
 72
17
 73
13
 74
0
 42
0.0000001
 43
0.0000001
 44
0.0000000001
 40
0.0
 40
0.0
 40
0.0
 40
0.0
 40
0.0364627413
 40
0.076100476
 40
0.1211529759
 40
0.1727039269
 40
0.295143563
 40
0.4386035234
 40
0.5927651229
 40
0.7452986007
 40
0.8841567062
 40
1.0
 40
1.0
 40
1.0
 40
1.0
 10
60.9506957261
 20
58.8791035693
 30
0.0
 10
60.948260038
 20
58.8415180707
 30
0.0
 10
60.95755449
 20
58.7616167341
 30
0.0
 10
61.0118270121
 20
58.647011947
 30
0.0
 10
61.1026107198
 20
58.5379971391
 30
0.0
 10
61.2786477561
 20
58.3942545848
 30
0.0
 10
61.5758977063
 20
58.2473956245
 30
0.0
 10
61.9954834209
 20
58.1307112889
 30
0.0
 10
62.458963303
 20
58.0757115031
 30
0.0
 10
62.9208927487
 20
58.0880661894
 30
0.0
 10
63.3358777985
 20
58.1659622126
 30
0.0
 10
63.5827519163
 20
58.2675689184
 30
0.0
 10
63.6834779289
 20
58.3321675085
 30
0.0
  0
SPLINE
  5
581
100
AcDbEntity
  8
3_AXES_OTHER
100
AcDbSpline
 62
7
  6
CONTINUOUS
 70
0
 71
3
 72
17
 73
13
 74
0
 42
0.0000001
 43
0.0000001
 44
0.0000000001
 40
0.0
 40
0.0
 40
0.0
 40
0.0
 40
0.0364632142
 40
0.076102853
 40
0.1211565377
 40
0.1727114238
 40
0.2951555045
 40
0.4386162818
 40
0.5927752587
 40
0.7453051444
 40
0.8841614697
 40
1.0
 40
1.0
 40
1.0
 40
1.0
 10
60.9405348396
 20
58.7223553612
 30
0.0
 10
60.9381030676
 20
58.6847700879
 30
0.0
 10
60.9474384052
 20
58.6048713706
 30
0.0
 10
61.0017266909
 20
58.4902795474
 30
0.0
 10
61.0925159773
 20
58.3812631489
 30
0.0
 10
61.2685770875
 20
58.2375429365
 30
0.0
 10
61.5658327313
 20
58.0907002571
 30
0.0
 10
61.9854136194
 20
57.9740271932
 30
0.0
 10
62.4488773627
 20
57.9190440941
 30
0.0
 10
62.9107864793
 20
57.9314023537
 30
0.0
 10
63.3257489393
 20
58.0093038331
 30
0.0
 10
63.5726092049
 20
58.1109067879
 30
0.0
 10
63.6733284914
 20
58.1755010643
 30
0.0
  0
SPLINE
  5
582
100
AcDbEntity
  8
3_ALL_AXES
100
AcDbSpline
 62
7
  6
CONTINUOUS
 70
0
 71
3
 72
10
 73
6
 74
0
 42
0.0000001
 43
0.0000001
 44
0.0000000001
 40
0.0
 40
0.0
 40
0.0
 40
0.0
 40
0.229515619
 40
0.4685221873
 40
1.0
 40
1.0
 40
1.0
 40
1.0
 10
60.2588366764
 20
51.062088737
 30
0.0
 10
60.348656744
 20
51.1553404588
 30
0.0
 10
60.5072157136
 20
51.371324272
 30
0.0
 10
60.7173623507
 20
51.8998709236
 30
0.0
 10
60.7313751326
 20
52.3493103391
 30
0.0
 10
60.6966819729
 20
52.6471128751
 30
0.0
  0
SPLINE
  5
583
100
AcDbEntity
  8
3_AXES_OTHER
100
AcDbSpline
 62
7
  6
CONTINUOUS
 70
0
 71
3
 72
9
 73
5
 74
0
 42
0.0000001
 43
0.0000001
 44
0.0000000001
 40
0.0
 40
0.0
 40
0.0
 40
0.0
 40
0.4491717505
 40
1.0
 40
1.0
 40
1.0
 40
1.0
 10
61.4614378066
 20
58.8461006612
 30
0.0
 10
61.4642907431
 20
58.8900299638
 30
0.0
 10
61.504560843
 20
58.9859618298
 30
0.0
 10
61.5824732843
 20
59.0494422101
 30
0.0
 10
61.6279157355
 20
59.0785858067
 30
0.0
  0
SPLINE
  5
584
100
AcDbEntity
  8
3_AXES_OTHER
100
AcDbSpline
 62
7
  6
CONTINUOUS
 70
0
 71
3
 72
9
 73
5
 74
0
 42
0.0000001
 43
0.0000001
 44
0.0000000001
 40
0.0
 40
0.0
 40
0.0
 40
0.0
 40
0.4491717505
 40
1.0
 40
1.0
 40
1.0
 40
1.0
 10
54.5116799147
 20
61.3697053837
 30
0.0
 10
54.5145328512
 20
61.4136346864
 30
0.0
 10
54.5548029511
 20
61.5095665523
 30
0.0
 10
54.6327153924
 20
61.5730469326
 30
0.0
 10
54.6781578436
 20
61.6021905292
 30
0.0
  0
SPLINE
  5
585
100
AcDbEntity
  8
3_ALL_AXES
100
AcDbSpline
 62
7
  6
CONTINUOUS
 70
0
 71
3
 72
17
 73
13
 74
0
 42
0.0000001
 43
0.0000001
 44
0.0000000001
 40
0.0
 40
0.0
 40
0.0
 40
0.0
 40
0.1212239461
 40
0.2578503223
 40
0.403111732
 40
0.5482720562
 40
0.6846170417
 40
0.8054471034
 40
0.8592883493
 40
0.9089663669
 40
0.9553870953
 40
1.0
 40
1.0
 40
1.0
 40
1.0
 10
60.6966819729
 20
52.6471128751
 30
0.0
 10
60.6564340135
 20
52.9925972447
 30
0.0
 10
60.4457438043
 20
53.7136489596
 30
0.0
 10
59.8686745385
 20
54.7245692054
 30
0.0
 10
59.0616110765
 20
55.6564294388
 30
0.0
 10
58.0975580866
 20
56.4233693743
 30
0.0
 10
57.064768849
 20
56.9560978294
 30
0.0
 10
56.1855022037
 20
57.1723913827
 30
0.0
 10
55.5386556257
 20
57.1686757643
 30
0.0
 10
55.1136628697
 20
57.08399957
 30
0.0
 10
54.7416498955
 20
56.9179692683
 30
0.0
 10
54.5345942525
 20
56.7531522879
 30
0.0
 10
54.4457931482
 20
56.6609584599
 30
0.0
  0
SPLINE
  5
586
100
AcDbEntity
  8
3_ALL_AXES
100
AcDbSpline
 62
7
  6
CONTINUOUS
 70
0
 71
3
 72
15
 73
11
 74
0
 42
0.0000001
 43
0.0000001
 44
0.0000000001
 40
0.0
 40
0.0
 40
0.0
 40
0.0
 40
0.1350229993
 40
0.2786959026
 40
0.4244695267
 40
0.565421929
 40
0.6954473506
 40
0.8105270822
 40
0.9103452445
 40
1.0
 40
1.0
 40
1.0
 40
1.0
 10
57.743622864
 20
50.5025761439
 30
0.0
 10
57.9004075191
 20
50.4456443051
 30
0.0
 10
58.2114896153
 20
50.2921522224
 30
0.0
 10
58.6354070201
 20
49.9796833526
 30
0.0
 10
59.0079256796
 20
49.5968807973
 30
0.0
 10
59.3020622899
 20
49.1711729368
 30
0.0
 10
59.4970435473
 20
48.7323045503
 30
0.0
 10
59.578106858
 20
48.3091423199
 30
0.0
 10
59.5353601423
 20
47.9276802215
 30
0.0
 10
59.4131062643
 20
47.7174159005
 30
0.0
 10
59.3362846683
 20
47.6376336863
 30
0.0
  0
SPLINE
  5
587
100
AcDbEntity
  8
3_ALL_AXES
100
AcDbSpline
 62
7
  6
CONTINUOUS
 70
0
 71
3
 72
11
 73
7
 74
0
 42
0.0000001
 43
0.0000001
 44
0.0000000001
 40
0.0
 40
0.0
 40
0.0
 40
0.0
 40
0.2908024851
 40
0.5522554888
 40
0.7859229274
 40
1.0
 40
1.0
 40
1.0
 40
1.0
 10
57.6160983976
 20
51.5972331269
 30
0.0
 10
57.7866798097
 20
51.5352913925
 30
0.0
 10
58.1210792363
 20
51.4431491321
 30
0.0
 10
58.6145570693
 20
51.4103856463
 30
0.0
 10
59.055056752
 20
51.4939626607
 30
0.0
 10
59.3046335254
 20
51.6336359773
 30
0.0
 10
59.4071442207
 20
51.7193094764
 30
0.0
  0
LINE
  5
588
100
AcDbEntity
  8
3_ALL_AXES
100
AcDbLine
 62
7
  6
CONTINUOUS
 10
59.4071442207
 20
51.7193094764
 11
59.4089546155
 21
51.7208258336
  0
SPLINE
  5
589
100
AcDbEntity
  8
3_ALL_AXES
100
AcDbSpline
 62
7
  6
CONTINUOUS
 70
0
 71
3
 72
17
 73
13
 74
0
 42
0.0000001
 43
0.0000001
 44
0.0000000001
 40
0.0
 40
0.0
 40
0.0
 40
0.0
 40
0.1441502943
 40
0.2974227982
 40
0.4467184416
 40
0.5801331534
 40
0.6915206885
 40
0.7405142725
 40
0.78728752
 40
0.8345343039
 40
0.8848132002
 40
1.0
 40
1.0
 40
1.0
 40
1.0
 10
57.8496087353
 20
55.4536721024
 30
0.0
 10
57.9869406139
 20
55.40380398
 30
0.0
 10
58.2553877265
 20
55.2582028672
 30
0.0
 10
58.5972345342
 20
54.9564101282
 30
0.0
 10
58.8593357991
 20
54.5954965901
 30
0.0
 10
59.009536773
 20
54.2204934362
 30
0.0
 10
59.0218987164
 20
53.912475084
 30
0.0
 10
58.9469743113
 20
53.7133261222
 30
0.0
 10
58.8564065223
 20
53.5971298053
 30
0.0
 10
58.7331916522
 20
53.5140869392
 30
0.0
 10
58.5252165384
 20
53.4489380008
 30
0.0
 10
58.3515692863
 20
53.4612738714
 30
0.0
 10
58.2375287526
 20
53.4862770384
 30
0.0
  0
SPLINE
  5
58A
100
AcDbEntity
  8
3_ALL_AXES
100
AcDbSpline
 62
7
  6
CONTINUOUS
 70
0
 71
3
 72
15
 73
11
 74
0
 42
0.0000001
 43
0.0000001
 44
0.0000000001
 40
0.0
 40
0.0
 40
0.0
 40
0.0
 40
0.1498924739
 40
0.2849725938
 40
0.4058497189
 40
0.5165241239
 40
0.6240927243
 40
0.7368101781
 40
0.8610895991
 40
1.0
 40
1.0
 40
1.0
 40
1.0
 10
57.8496087353
 20
55.4536721024
 30
0.0
 10
57.7784389477
 20
55.4795153641
 30
0.0
 10
57.6388331714
 20
55.5181360816
 30
0.0
 10
57.432741071
 20
55.5329434706
 30
0.0
 10
57.2480586776
 20
55.4998938998
 30
0.0
 10
57.0939253377
 20
55.4177691486
 30
0.0
 10
56.9813329805
 20
55.2892043655
 30
0.0
 10
56.9179537322
 20
55.1237392025
 30
0.0
 10
56.9045183023
 20
54.9321998055
 30
0.0
 10
56.9264364543
 20
54.799932267
 30
0.0
 10
56.9440270101
 20
54.7320037309
 30
0.0
  0
SPLINE
  5
58B
100
AcDbEntity
  8
3_ALL_AXES
100
AcDbSpline
 62
7
  6
CONTINUOUS
 70
0
 71
3
 72
17
 73
13
 74
0
 42
0.0000001
 43
0.0000001
 44
0.0000000001
 40
0.0
 40
0.0
 40
0.0
 40
0.0
 40
0.121225218
 40
0.257851208
 40
0.4031126445
 40
0.5482732693
 40
0.6846186044
 40
0.8054482867
 40
0.8592891412
 40
0.9089667796
 40
0.9553872626
 40
1.0
 40
1.0
 40
1.0
 40
1.0
 10
60.6140189315
 20
52.5612804795
 30
0.0
 10
60.5737703903
 20
52.9067698426
 30
0.0
 10
60.3630777658
 20
53.6278271888
 30
0.0
 10
59.7859973322
 20
54.6387493176
 30
0.0
 10
58.9789300146
 20
55.570611889
 30
0.0
 10
58.0148714464
 20
56.3375558214
 30
0.0
 10
56.9820758698
 20
56.8702849158
 30
0.0
 10
56.1028030468
 20
57.0865676423
 30
0.0
 10
55.4559572029
 20
57.0828386404
 30
0.0
 10
55.0309674961
 20
56.9981529474
 30
0.0
 10
54.6589594907
 20
56.8321128139
 30
0.0
 10
54.451908331
 20
56.6672909789
 30
0.0
 10
54.3631084306
 20
56.5750959538
 30
0.0
  0
SPLINE
  5
58C
100
AcDbEntity
  8
3_ALL_AXES
100
AcDbSpline
 62
7
  6
CONTINUOUS
 70
0
 71
3
 72
11
 73
7
 74
0
 42
0.0000001
 43
0.0000001
 44
0.0000000001
 40
0.0
 40
0.0
 40
0.0
 40
0.0
 40
0.2136803278
 40
0.4455705663
 40
0.7067904758
 40
1.0
 40
1.0
 40
1.0
 40
1.0
 10
59.4105678705
 20
51.7136823357
 30
0.0
 10
59.3123210777
 20
51.6116789566
 30
0.0
 10
59.0620945603
 20
51.4393416529
 30
0.0
 10
58.5994840031
 20
51.3261808471
 30
0.0
 10
58.0735500189
 20
51.3486549023
 30
0.0
 10
57.7160989713
 20
51.4450716923
 30
0.0
 10
57.5334353561
 20
51.5114007312
 30
0.0
  0
SPLINE
  5
58D
100
AcDbEntity
  8
3_ALL_AXES
100
AcDbSpline
 62
7
  6
CONTINUOUS
 70
0
 71
3
 72
15
 73
11
 74
0
 42
0.0000001
 43
0.0000001
 44
0.0000000001
 40
0.0
 40
0.0
 40
0.0
 40
0.0
 40
0.1350252734
 40
0.278704138
 40
0.4244805515
 40
0.5654344613
 40
0.695457024
 40
0.8105338603
 40
0.9103461293
 40
1.0
 40
1.0
 40
1.0
 40
1.0
 10
57.5334353561
 20
51.5114007312
 30
0.0
 10
57.2966730242
 20
51.5973741634
 30
0.0
 10
56.8269018249
 20
51.829173816
 30
0.0
 10
56.1867340469
 20
52.3010449592
 30
0.0
 10
55.6242195451
 20
52.8791554967
 30
0.0
 10
55.1800530575
 20
53.522021431
 30
0.0
 10
54.8856994527
 20
54.184779291
 30
0.0
 10
54.7633256623
 20
54.8237771999
 30
0.0
 10
54.8280050465
 20
55.3998003485
 30
0.0
 10
55.0127122401
 20
55.7172401332
 30
0.0
 10
55.1287358712
 20
55.8377000698
 30
0.0
  0
SPLINE
  5
58E
100
AcDbEntity
  8
3_ALL_AXES
100
AcDbSpline
 62
7
  6
CONTINUOUS
 70
0
 71
3
 72
14
 73
10
 74
0
 42
0.0000001
 43
0.0000001
 44
0.0000000001
 40
0.0
 40
0.0
 40
0.0
 40
0.0
 40
0.2964554957
 40
0.4466862189
 40
0.5815119377
 40
0.6945567075
 40
0.7903206592
 40
0.8863516831
 40
1.0
 40
1.0
 40
1.0
 40
1.0
 10
57.8521889552
 20
49.3613392066
 30
0.0
 10
57.9624806749
 20
49.3212899403
 30
0.0
 10
58.1125608243
 20
49.2121298398
 30
0.0
 10
58.2497910487
 20
49.0261541826
 30
0.0
 10
58.3104356425
 20
48.878533554
 30
0.0
 10
58.3199892324
 20
48.7391355614
 30
0.0
 10
58.2649616787
 20
48.6233517532
 30
0.0
 10
58.1503570777
 20
48.565721129
 30
0.0
 10
58.0648084804
 20
48.5694218979
 30
0.0
 10
58.020578949
 20
48.5776170737
 30
0.0
  0
SPLINE
  5
58F
100
AcDbEntity
  8
3_ALL_AXES
100
AcDbSpline
 62
7
  6
CONTINUOUS
 70
0
 71
3
 72
16
 73
12
 74
0
 42
0.0000001
 43
0.0000001
 44
0.0000000001
 40
0.0
 40
0.0
 40
0.0
 40
0.0
 40
0.1239907643
 40
0.2255698995
 40
0.2722441881
 40
0.3196190763
 40
0.4257559692
 40
0.5550194249
 40
0.7025401698
 40
0.8557119238
 40
1.0
 40
1.0
 40
1.0
 40
1.0
 10
57.7408560931
 20
49.7937173423
 30
0.0
 10
57.6279479942
 20
49.8347166715
 30
0.0
 10
57.4103070544
 20
49.8841830526
 30
0.0
 10
57.1387270002
 20
49.8236541619
 30
0.0
 10
56.9927825451
 20
49.6971962646
 30
0.0
 10
56.8938724571
 20
49.5264751417
 30
0.0
 10
56.8762636056
 20
49.2401737453
 30
0.0
 10
56.998614789
 20
48.8843840859
 30
0.0
 10
57.2356032768
 20
48.5365099422
 30
0.0
 10
57.5562678795
 20
48.2433354164
 30
0.0
 10
57.8121065346
 20
48.1019733378
 30
0.0
 10
57.9434977109
 20
48.0542624105
 30
0.0
  0
SPLINE
  5
590
100
AcDbEntity
  8
3_ALL_AXES
100
AcDbSpline
 62
7
  6
CONTINUOUS
 70
0
 71
3
 72
16
 73
12
 74
0
 42
0.0000001
 43
0.0000001
 44
0.0000000001
 40
0.0
 40
0.0
 40
0.0
 40
0.0
 40
0.1442880762
 40
0.2974598302
 40
0.4449805751
 40
0.5742440308
 40
0.6803809237
 40
0.7277558119
 40
0.7744301005
 40
0.8760092357
 40
1.0
 40
1.0
 40
1.0
 40
1.0
 10
57.7408560931
 20
49.7937173423
 30
0.0
 10
57.8722472694
 20
49.7460064151
 30
0.0
 10
58.1280859245
 20
49.6046443364
 30
0.0
 10
58.4487505272
 20
49.3114698106
 30
0.0
 10
58.685739015
 20
48.963595667
 30
0.0
 10
58.8080901984
 20
48.6078060076
 30
0.0
 10
58.7904813469
 20
48.3215046111
 30
0.0
 10
58.6915712589
 20
48.1507834882
 30
0.0
 10
58.5456268037
 20
48.024325591
 30
0.0
 10
58.2740467496
 20
47.9637967002
 30
0.0
 10
58.0564058098
 20
48.0132630813
 30
0.0
 10
57.9434977109
 20
48.0542624105
 30
0.0
  0
SPLINE
  5
591
100
AcDbEntity
  8
3_ALL_AXES
100
AcDbSpline
 62
7
  6
CONTINUOUS
 70
0
 71
3
 72
15
 73
11
 74
0
 42
0.0000001
 43
0.0000001
 44
0.0000000001
 40
0.0
 40
0.0
 40
0.0
 40
0.0
 40
0.1350271848
 40
0.2787013991
 40
0.4244787868
 40
0.5654316148
 40
0.6954548085
 40
0.810532762
 40
0.9103462538
 40
1.0
 40
1.0
 40
1.0
 40
1.0
 10
57.6674858521
 20
50.42351999
 30
0.0
 10
57.8242822856
 20
50.3665838743
 30
0.0
 10
58.1353853748
 20
50.213082334
 30
0.0
 10
58.5593179351
 20
49.9005756245
 30
0.0
 10
58.9318571491
 20
49.5177515423
 30
0.0
 10
59.2259928026
 20
49.0920091528
 30
0.0
 10
59.4209392048
 20
48.6531079998
 30
0.0
 10
59.5019898575
 20
48.2299353903
 30
0.0
 10
59.4591797747
 20
47.848461601
 30
0.0
 10
59.3368592848
 20
47.6382366189
 30
0.0
 10
59.2600260865
 20
47.558460524
 30
0.0
  0
SPLINE
  5
592
100
AcDbEntity
  8
3_ALL_AXES
100
AcDbSpline
 62
7
  6
CONTINUOUS
 70
0
 71
3
 72
12
 73
8
 74
0
 42
0.0000001
 43
0.0000001
 44
0.0000000001
 40
0.0
 40
0.0
 40
0.0
 40
0.0
 40
0.286886985
 40
0.5192067614
 40
0.6277162332
 40
0.7404944964
 40
1.0
 40
1.0
 40
1.0
 40
1.0
 10
57.8521889552
 20
49.3613392066
 30
0.0
 10
57.7997520216
 20
49.3803801711
 30
0.0
 10
57.6986737401
 20
49.4029565476
 30
0.0
 10
57.5732254204
 20
49.3679607203
 30
0.0
 10
57.5115740013
 20
49.3021007799
 30
0.0
 10
57.4741149912
 20
49.2147750382
 30
0.0
 10
57.4782947032
 20
49.1384848334
 30
0.0
 10
57.4893278489
 20
49.0892432447
 30
0.0
  0
SPLINE
  5
593
100
AcDbEntity
  8
3_ALL_AXES
100
AcDbSpline
 62
7
  6
CONTINUOUS
 70
0
 71
3
 72
11
 73
7
 74
0
 42
0.0000001
 43
0.0000001
 44
0.0000000001
 40
0.0
 40
0.0
 40
0.0
 40
0.0
 40
0.2932104898
 40
0.5544305255
 40
0.7863207866
 40
1.0
 40
1.0
 40
1.0
 40
1.0
 10
57.6674858521
 20
50.42351999
 30
0.0
 10
57.5465124023
 20
50.4674480195
 30
0.0
 10
57.3097819502
 20
50.5313034293
 30
0.0
 10
56.9614697254
 20
50.5461812305
 30
0.0
 10
56.6550959817
 20
50.4712265526
 30
0.0
 10
56.4893913553
 20
50.3570749607
 30
0.0
 10
56.4243277175
 20
50.2895192288
 30
0.0
  0
SPLINE
  5
594
100
AcDbEntity
  8
3_ALL_AXES
100
AcDbSpline
 62
7
  6
CONTINUOUS
 70
0
 71
3
 72
11
 73
7
 74
0
 42
0.0000001
 43
0.0000001
 44
0.0000000001
 40
0.0
 40
0.0
 40
0.0
 40
0.0
 40
0.2459830913
 40
0.4943378506
 40
0.7460072401
 40
1.0
 40
1.0
 40
1.0
 40
1.0
 10
17.8011215444
 20
22.9153957934
 30
0.0
 10
17.8011215444
 20
22.6677592318
 30
0.0
 10
17.9048414958
 20
22.1644034921
 30
0.0
 10
18.3454968506
 20
21.5323853597
 30
0.0
 10
18.9995460172
 20
21.1117611826
 30
0.0
 10
19.5139154624
 20
21.0139670015
 30
0.0
 10
19.7696155327
 20
21.0139670015
 30
0.0
  0
SPLINE
  5
595
100
AcDbEntity
  8
3_ALL_AXES
100
AcDbSpline
 62
7
  6
CONTINUOUS
 70
0
 71
3
 72
11
 73
7
 74
0
 42
0.0000001
 43
0.0000001
 44
0.0000000001
 40
0.0
 40
0.0
 40
0.0
 40
0.0
 40
0.2459830913
 40
0.4943378506
 40
0.7460072401
 40
1.0
 40
1.0
 40
1.0
 40
1.0
 10
21.738109521
 20
22.9153957934
 30
0.0
 10
21.738109521
 20
22.6677592318
 30
0.0
 10
21.6343895697
 20
22.1644034921
 30
0.0
 10
21.1937342149
 20
21.5323853597
 30
0.0
 10
20.5396850483
 20
21.1117611826
 30
0.0
 10
20.0253156031
 20
21.0139670015
 30
0.0
 10
19.7696155327
 20
21.0139670015
 30
0.0
  0
SPLINE
  5
596
100
AcDbEntity
  8
3_ALL_AXES
100
AcDbSpline
 62
7
  6
CONTINUOUS
 70
0
 71
3
 72
11
 73
7
 74
0
 42
0.0000001
 43
0.0000001
 44
0.0000000001
 40
0.0
 40
0.0
 40
0.0
 40
0.0
 40
0.2459836853
 40
0.4943391001
 40
0.7460112841
 40
1.0
 40
1.0
 40
1.0
 40
1.0
 10
16.7971836996
 20
29.0729681614
 30
0.0
 10
16.7971836996
 20
29.4469004148
 30
0.0
 10
16.9538020977
 20
30.2069694964
 30
0.0
 10
17.6191984997
 20
31.1613223759
 30
0.0
 10
18.6068211996
 20
31.7964494456
 30
0.0
 10
19.383514427
 20
31.9441256371
 30
0.0
 10
19.7696155327
 20
31.9441256371
 30
0.0
  0
SPLINE
  5
597
100
AcDbEntity
  8
3_ALL_AXES
100
AcDbSpline
 62
7
  6
CONTINUOUS
 70
0
 71
3
 72
19
 73
15
 74
0
 42
0.0000001
 43
0.0000001
 44
0.0000000001
 40
0.0
 40
0.0
 40
0.0
 40
0.0
 40
0.0615783927
 40
0.1233171449
 40
0.185362391
 40
0.2478004274
 40
0.3733220237
 40
0.5
 40
0.6266779763
 40
0.7521995726
 40
0.814637609
 40
0.8766828551
 40
0.9384216073
 40
1.0
 40
1.0
 40
1.0
 40
1.0
 10
15.7341824619
 20
29.0729681614
 30
0.0
 10
15.7341824619
 20
28.8181636852
 30
0.0
 10
15.7863814527
 20
28.3063765412
 30
0.0
 10
16.018022649
 20
27.5699792574
 30
0.0
 10
16.3942271299
 20
26.891310019
 30
0.0
 10
17.0678342416
 20
26.0986689427
 30
0.0
 10
18.1928422279
 20
25.3748923398
 30
0.0
 10
19.7696155327
 20
25.0746543558
 30
0.0
 10
21.3463888376
 20
25.3748923398
 30
0.0
 10
22.4713968238
 20
26.0986689427
 30
0.0
 10
23.1450039355
 20
26.891310019
 30
0.0
 10
23.5212084165
 20
27.5699792574
 30
0.0
 10
23.7528496127
 20
28.3063765412
 30
0.0
 10
23.8050486036
 20
28.8181636852
 30
0.0
 10
23.8050486036
 20
29.0729681614
 30
0.0
  0
SPLINE
  5
598
100
AcDbEntity
  8
3_ALL_AXES
100
AcDbSpline
 62
7
  6
CONTINUOUS
 70
0
 71
3
 72
11
 73
7
 74
0
 42
0.0000001
 43
0.0000001
 44
0.0000000001
 40
0.0
 40
0.0
 40
0.0
 40
0.0
 40
0.2539887159
 40
0.5056608999
 40
0.7540163147
 40
1.0
 40
1.0
 40
1.0
 40
1.0
 10
19.7696155327
 20
31.9441256371
 30
0.0
 10
20.1557166385
 20
31.9441256371
 30
0.0
 10
20.9324098658
 20
31.7964494456
 30
0.0
 10
21.9200325658
 20
31.1613223759
 30
0.0
 10
22.5854289678
 20
30.2069694964
 30
0.0
 10
22.7420473659
 20
29.4469004148
 30
0.0
 10
22.7420473659
 20
29.0729681614
 30
0.0
  0
SPLINE
  5
599
100
AcDbEntity
  8
3_ALL_AXES
100
AcDbSpline
 62
7
  6
CONTINUOUS
 70
0
 71
3
 72
11
 73
7
 74
0
 42
0.0000001
 43
0.0000001
 44
0.0000000001
 40
0.0
 40
0.0
 40
0.0
 40
0.0
 40
0.2539887159
 40
0.5056608999
 40
0.7540163147
 40
1.0
 40
1.0
 40
1.0
 40
1.0
 10
19.7696155327
 20
26.2018106856
 30
0.0
 10
19.383514427
 20
26.2018106856
 30
0.0
 10
18.6068211996
 20
26.3494868771
 30
0.0
 10
17.6191984997
 20
26.9846139469
 30
0.0
 10
16.9538020977
 20
27.9389668263
 30
0.0
 10
16.7971836996
 20
28.6990359079
 30
0.0
 10
16.7971836996
 20
29.0729681614
 30
0.0
  0
SPLINE
  5
59A
100
AcDbEntity
  8
3_ALL_AXES
100
AcDbSpline
 62
7
  6
CONTINUOUS
 70
0
 71
3
 72
11
 73
7
 74
0
 42
0.0000001
 43
0.0000001
 44
0.0000000001
 40
0.0
 40
0.0
 40
0.0
 40
0.0
 40
0.2539927599
 40
0.5056621494
 40
0.7540169087
 40
1.0
 40
1.0
 40
1.0
 40
1.0
 10
19.7696155327
 20
24.8168245853
 30
0.0
 10
19.5139154624
 20
24.8168245853
 30
0.0
 10
18.9995460172
 20
24.7190304043
 30
0.0
 10
18.3454968506
 20
24.2984062271
 30
0.0
 10
17.9048414958
 20
23.6663880947
 30
0.0
 10
17.8011215444
 20
23.1630323551
 30
0.0
 10
17.8011215444
 20
22.9153957934
 30
0.0
  0
SPLINE
  5
59B
100
AcDbEntity
  8
3_ALL_AXES
100
AcDbSpline
 62
7
  6
CONTINUOUS
 70
0
 71
3
 72
15
 73
11
 74
0
 42
0.0000001
 43
0.0000001
 44
0.0000000001
 40
0.0
 40
0.0
 40
0.0
 40
0.0
 40
0.1270011081
 40
0.2528309035
 40
0.3770085828
 40
0.5
 40
0.6229914172
 40
0.7471690965
 40
0.8729988919
 40
1.0
 40
1.0
 40
1.0
 40
1.0
 10
19.7696155327
 20
30.6139158809
 30
0.0
 10
19.6059614663
 20
30.6139158809
 30
0.0
 10
19.2767643767
 20
30.5512850814
 30
0.0
 10
18.8581798211
 20
30.2822550367
 30
0.0
 10
18.5761519265
 20
29.8771482519
 30
0.0
 10
18.476759978
 20
29.397001454
 30
0.0
 10
18.5761519265
 20
28.9168546562
 30
0.0
 10
18.8581798211
 20
28.5117478714
 30
0.0
 10
19.2767643767
 20
28.2427178267
 30
0.0
 10
19.6059614663
 20
28.1800870272
 30
0.0
 10
19.7696155327
 20
28.1800870272
 30
0.0
  0
SPLINE
  5
59C
100
AcDbEntity
  8
3_ALL_AXES
100
AcDbSpline
 62
7
  6
CONTINUOUS
 70
0
 71
3
 72
15
 73
11
 74
0
 42
0.0000001
 43
0.0000001
 44
0.0000000001
 40
0.0
 40
0.0
 40
0.0
 40
0.0
 40
0.1270082145
 40
0.2528303251
 40
0.3770082094
 40
0.5
 40
0.6229917906
 40
0.7471696749
 40
0.8729917855
 40
1.0
 40
1.0
 40
1.0
 40
1.0
 10
19.7696155327
 20
23.423833022
 30
0.0
 10
19.7046619361
 20
23.423833022
 30
0.0
 10
19.5740105159
 20
23.3989783422
 30
0.0
 10
19.4078946654
 20
23.2921966742
 30
0.0
 10
19.2959578881
 20
23.131430124
 30
0.0
 10
19.2565204852
 20
22.9408701089
 30
0.0
 10
19.2959578881
 20
22.7503100938
 30
0.0
 10
19.4078946654
 20
22.5895435436
 30
0.0
 10
19.5740105159
 20
22.4827618755
 30
0.0
 10
19.7046619361
 20
22.4579071958
 30
0.0
 10
19.7696155327
 20
22.4579071958
 30
0.0
  0
SPLINE
  5
59D
100
AcDbEntity
  8
3_ALL_AXES
100
AcDbSpline
 62
7
  6
CONTINUOUS
 70
0
 71
3
 72
15
 73
11
 74
0
 42
0.0000001
 43
0.0000001
 44
0.0000000001
 40
0.0
 40
0.0
 40
0.0
 40
0.0
 40
0.1270011081
 40
0.2528309035
 40
0.3770085828
 40
0.5
 40
0.6229914172
 40
0.7471690965
 40
0.8729988919
 40
1.0
 40
1.0
 40
1.0
 40
1.0
 10
19.7696155327
 20
30.6139158809
 30
0.0
 10
19.9332695991
 20
30.6139158809
 30
0.0
 10
20.2624666888
 20
30.5512850814
 30
0.0
 10
20.6810512444
 20
30.2822550367
 30
0.0
 10
20.963079139
 20
29.8771482519
 30
0.0
 10
21.0624710875
 20
29.397001454
 30
0.0
 10
20.963079139
 20
28.9168546562
 30
0.0
 10
20.6810512444
 20
28.5117478714
 30
0.0
 10
20.2624666888
 20
28.2427178267
 30
0.0
 10
19.9332695991
 20
28.1800870272
 30
0.0
 10
19.7696155327
 20
28.1800870272
 30
0.0
  0
SPLINE
  5
59E
100
AcDbEntity
  8
3_ALL_AXES
100
AcDbSpline
 62
7
  6
CONTINUOUS
 70
0
 71
3
 72
11
 73
7
 74
0
 42
0.0000001
 43
0.0000001
 44
0.0000000001
 40
0.0
 40
0.0
 40
0.0
 40
0.0
 40
0.2539927599
 40
0.5056621494
 40
0.7540169087
 40
1.0
 40
1.0
 40
1.0
 40
1.0
 10
19.7696155327
 20
24.8168245853
 30
0.0
 10
20.0253156031
 20
24.8168245853
 30
0.0
 10
20.5396850483
 20
24.7190304043
 30
0.0
 10
21.1937342149
 20
24.2984062271
 30
0.0
 10
21.6343895697
 20
23.6663880947
 30
0.0
 10
21.738109521
 20
23.1630323551
 30
0.0
 10
21.738109521
 20
22.9153957934
 30
0.0
  0
SPLINE
  5
59F
100
AcDbEntity
  8
3_ALL_AXES
100
AcDbSpline
 62
7
  6
CONTINUOUS
 70
0
 71
3
 72
11
 73
7
 74
0
 42
0.0000001
 43
0.0000001
 44
0.0000000001
 40
0.0
 40
0.0
 40
0.0
 40
0.0
 40
0.2539546776
 40
0.5056281956
 40
0.754013187
 40
1.0
 40
1.0
 40
1.0
 40
1.0
 10
19.7696155327
 20
26.2405316451
 30
0.0
 10
20.1524738856
 20
26.2405316451
 30
0.0
 10
20.922560181
 20
26.3857000274
 30
0.0
 10
21.9046793743
 20
27.0104848021
 30
0.0
 10
22.5722479187
 20
27.9509570591
 30
0.0
 10
22.7366369094
 20
28.702423993
 30
0.0
 10
22.7417892789
 20
29.0732343159
 30
0.0
  0
SPLINE
  5
5A0
100
AcDbEntity
  8
3_ALL_AXES
100
AcDbSpline
 62
7
  6
CONTINUOUS
 70
0
 71
3
 72
11
 73
7
 74
0
 42
0.0000001
 43
0.0000001
 44
0.0000000001
 40
0.0
 40
0.0
 40
0.0
 40
0.0
 40
0.2539895947
 40
0.5056607357
 40
0.7540161435
 40
1.0
 40
1.0
 40
1.0
 40
1.0
 10
19.7696155327
 20
24.852488627
 30
0.0
 10
20.0253129957
 20
24.852488627
 30
0.0
 10
20.5396808008
 20
24.7546923727
 30
0.0
 10
21.1937362301
 20
24.3340768405
 30
0.0
 10
21.6343979696
 20
23.7020559886
 30
0.0
 10
21.7381194697
 20
23.198697728
 30
0.0
 10
21.7381194697
 20
22.9510598351
 30
0.0
  0
SPLINE
  5
5A1
100
AcDbEntity
  8
3_ALL_AXES
100
AcDbSpline
 62
7
  6
CONTINUOUS
 70
0
 71
3
 72
15
 73
11
 74
0
 42
0.0000001
 43
0.0000001
 44
0.0000000001
 40
0.0
 40
0.0
 40
0.0
 40
0.0
 40
0.1270011081
 40
0.2528309035
 40
0.3770085828
 40
0.5
 40
0.6229914172
 40
0.7471690965
 40
0.8729988919
 40
1.0
 40
1.0
 40
1.0
 40
1.0
 10
19.7696155327
 20
24.0182244927
 30
0.0
 10
19.9179270304
 20
24.0182244927
 30
0.0
 10
20.2162618929
 20
23.9614653307
 30
0.0
 10
20.5956041464
 20
23.7176568527
 30
0.0
 10
20.8511919259
 20
23.350528829
 30
0.0
 10
20.9412658792
 20
22.9153957934
 30
0.0
 10
20.8511919259
 20
22.4802627579
 30
0.0
 10
20.5956041464
 20
22.1131347341
 30
0.0
 10
20.2162618929
 20
21.8693262562
 30
0.0
 10
19.9179270304
 20
21.8125670941
 30
0.0
 10
19.7696155327
 20
21.8125670941
 30
0.0
  0
SPLINE
  5
5A2
100
AcDbEntity
  8
3_ALL_AXES
100
AcDbSpline
 62
7
  6
CONTINUOUS
 70
0
 71
3
 72
15
 73
11
 74
0
 42
0.0000001
 43
0.0000001
 44
0.0000000001
 40
0.0
 40
0.0
 40
0.0
 40
0.0
 40
0.1270011081
 40
0.2528309035
 40
0.3770085828
 40
0.5
 40
0.6229914172
 40
0.7471690965
 40
0.8729988919
 40
1.0
 40
1.0
 40
1.0
 40
1.0
 10
19.7696155327
 20
24.0182244927
 30
0.0
 10
19.621304035
 20
24.0182244927
 30
0.0
 10
19.3229691726
 20
23.9614653307
 30
0.0
 10
18.943626919
 20
23.7176568527
 30
0.0
 10
18.6880391395
 20
23.350528829
 30
0.0
 10
18.5979651862
 20
22.9153957934
 30
0.0
 10
18.6880391395
 20
22.4802627579
 30
0.0
 10
18.943626919
 20
22.1131347341
 30
0.0
 10
19.3229691726
 20
21.8693262562
 30
0.0
 10
19.621304035
 20
21.8125670941
 30
0.0
 10
19.7696155327
 20
21.8125670941
 30
0.0
  0
SPLINE
  5
5A3
100
AcDbEntity
  8
3_ALL_AXES
100
AcDbSpline
 62
7
  6
CONTINUOUS
 70
0
 71
3
 72
19
 73
15
 74
0
 42
0.0000001
 43
0.0000001
 44
0.0000000001
 40
0.0
 40
0.0
 40
0.0
 40
0.0
 40
0.0615786013
 40
0.1233171601
 40
0.185362311
 40
0.2478004333
 40
0.373322037
 40
0.5
 40
0.626677963
 40
0.7521995667
 40
0.814637689
 40
0.8766828399
 40
0.9384213987
 40
1.0
 40
1.0
 40
1.0
 40
1.0
 10
23.8050486036
 20
29.1116891209
 30
0.0
 10
23.8050486036
 20
29.3664945197
 30
0.0
 10
23.7528490381
 20
29.8782818885
 30
0.0
 10
23.5212063343
 20
30.6146784781
 30
0.0
 10
23.1450033528
 20
31.2933473588
 30
0.0
 10
22.4714032065
 20
32.0859944245
 30
0.0
 10
21.3463906825
 20
32.8097720209
 30
0.0
 10
19.7696155327
 20
33.1099878888
 30
0.0
 10
18.192840383
 20
32.8097720209
 30
0.0
 10
17.067827859
 20
32.0859944245
 30
0.0
 10
16.3942277127
 20
31.2933473588
 30
0.0
 10
16.0180247311
 20
30.6146784781
 30
0.0
 10
15.7863820273
 20
29.8782818885
 30
0.0
 10
15.7341824619
 20
29.3664945197
 30
0.0
 10
15.7341824619
 20
29.1116891209
 30
0.0
  0
SPLINE
  5
5A4
100
AcDbEntity
  8
3_ALL_AXES
100
AcDbSpline
 62
7
  6
CONTINUOUS
 70
0
 71
3
 72
15
 73
11
 74
0
 42
0.0000001
 43
0.0000001
 44
0.0000000001
 40
0.0
 40
0.0
 40
0.0
 40
0.0
 40
0.1270082145
 40
0.2528303251
 40
0.3770082094
 40
0.5
 40
0.6229917906
 40
0.7471696749
 40
0.8729917855
 40
1.0
 40
1.0
 40
1.0
 40
1.0
 10
19.7696155327
 20
23.423833022
 30
0.0
 10
19.8345691294
 20
23.423833022
 30
0.0
 10
19.9652205496
 20
23.3989783422
 30
0.0
 10
20.1313364001
 20
23.2921966742
 30
0.0
 10
20.2432731773
 20
23.131430124
 30
0.0
 10
20.2827105802
 20
22.9408701089
 30
0.0
 10
20.2432731773
 20
22.7503100938
 30
0.0
 10
20.1313364001
 20
22.5895435436
 30
0.0
 10
19.9652205496
 20
22.4827618755
 30
0.0
 10
19.8345691294
 20
22.4579071958
 30
0.0
 10
19.7696155327
 20
22.4579071958
 30
0.0
  0
SPLINE
  5
5A5
100
AcDbEntity
  8
3_ALL_AXES
100
AcDbSpline
 62
7
  6
CONTINUOUS
 70
0
 71
3
 72
11
 73
7
 74
0
 42
0.0000001
 43
0.0000001
 44
0.0000000001
 40
0.0
 40
0.0
 40
0.0
 40
0.0
 40
0.2459838565
 40
0.4943392643
 40
0.7460104053
 40
1.0
 40
1.0
 40
1.0
 40
1.0
 10
17.8011115957
 20
22.9510598351
 30
0.0
 10
17.8011115957
 20
23.198697728
 30
0.0
 10
17.9048330958
 20
23.7020559886
 30
0.0
 10
18.3454948354
 20
24.3340768405
 30
0.0
 10
18.9995502647
 20
24.7546923727
 30
0.0
 10
19.5139180697
 20
24.852488627
 30
0.0
 10
19.7696155327
 20
24.852488627
 30
0.0
  0
SPLINE
  5
5A6
100
AcDbEntity
  8
3_ALL_AXES
100
AcDbSpline
 62
7
  6
CONTINUOUS
 70
0
 71
3
 72
11
 73
7
 74
0
 42
0.0000001
 43
0.0000001
 44
0.0000000001
 40
0.0
 40
0.0
 40
0.0
 40
0.0
 40
0.245986813
 40
0.4943718044
 40
0.7460453224
 40
1.0
 40
1.0
 40
1.0
 40
1.0
 10
16.7974417865
 20
29.0732343159
 30
0.0
 10
16.8025941561
 20
28.702423993
 30
0.0
 10
16.9669831467
 20
27.9509570591
 30
0.0
 10
17.6345516911
 20
27.0104848021
 30
0.0
 10
18.6166708845
 20
26.3857000274
 30
0.0
 10
19.3867571799
 20
26.2405316451
 30
0.0
 10
19.7696155327
 20
26.2405316451
 30
0.0
  0
SPLINE
  5
5A7
100
AcDbEntity
  8
3_ALL_AXES
100
AcDbSpline
 62
7
  6
CONTINUOUS
 70
0
 71
3
 72
11
 73
7
 74
0
 42
0.0000001
 43
0.0000001
 44
0.0000000001
 40
0.0
 40
0.0
 40
0.0
 40
0.0
 40
0.2459836853
 40
0.4943391001
 40
0.7460112841
 40
1.0
 40
1.0
 40
1.0
 40
1.0
 10
22.7420473659
 20
29.0729681614
 30
0.0
 10
22.7420473659
 20
28.6990359079
 30
0.0
 10
22.5854289678
 20
27.9389668263
 30
0.0
 10
21.9200325658
 20
26.9846139469
 30
0.0
 10
20.9324098658
 20
26.3494868771
 30
0.0
 10
20.1557166385
 20
26.2018106856
 30
0.0
 10
19.7696155327
 20
26.2018106856
 30
0.0
  0
SPLINE
  5
5A8
100
AcDbEntity
  8
3_ALL_AXES
100
AcDbSpline
 62
7
  6
CONTINUOUS
 70
0
 71
3
 72
19
 73
15
 74
0
 42
0.0000001
 43
0.0000001
 44
0.0000000001
 40
0.0
 40
0.0
 40
0.0
 40
0.0
 40
0.0615775013
 40
0.1233165323
 40
0.1853650678
 40
0.24780575
 40
0.3733310595
 40
0.5
 40
0.6266689405
 40
0.75219425
 40
0.8146349322
 40
0.8766834677
 40
0.9384224987
 40
1.0
 40
1.0
 40
1.0
 40
1.0
 10
23.8048515034
 20
29.1114054385
 30
0.0
 10
23.8022550669
 20
29.3646340146
 30
0.0
 10
23.7455282539
 20
29.8727155194
 30
0.0
 10
23.5092754325
 20
30.6026278137
 30
0.0
 10
23.1307474419
 20
31.2745070777
 30
0.0
 10
22.4568923598
 20
32.0585150836
 30
0.0
 10
21.336565685
 20
32.7735438679
 30
0.0
 10
19.7696155327
 20
33.0700213145
 30
0.0
 10
18.2026653804
 20
32.7735438679
 30
0.0
 10
17.0823387057
 20
32.0585150836
 30
0.0
 10
16.4084836236
 20
31.2745070777
 30
0.0
 10
16.029955633
 20
30.6026278137
 30
0.0
 10
15.7937028116
 20
29.8727155194
 30
0.0
 10
15.7369759986
 20
29.3646340146
 30
0.0
 10
15.734379562
 20
29.1114054385
 30
0.0
  0
ENDSEC
  0
SECTION
  2
OBJECTS
  0
DICTIONARY
  5
C
100
AcDbDictionary
280
0
281
1
  3
ACAD_GROUP
350
D
  3
ACAD_MLINESTYLE
350
17
  3
ACAD_LAYOUT
350
1A
  3
ACAD_PLOTSETTINGS
350
19
  3
ACAD_PLOTSTYLENAME
350
E
  0
DICTIONARY
  5
D
102
{ACAD_REACTORS
330
C
102
}
100
AcDbDictionary
280
0
281
1
  0
ACDBDICTIONARYWDFLT
  5
E
102
{ACAD_REACTORS
330
C
102
}
100
AcDbDictionary
281
1
  3
Normal
350
F
100
AcDbDictionaryWithDefault
340
F
  0
DICTIONARY
  5
17
102
{ACAD_REACTORS
330
C
102
}
100
AcDbDictionary
280
0
281
1
  3
Standard
350
18
  0
DICTIONARY
  5
19
102
{ACAD_REACTORS
330
C
102
}
100
AcDbDictionary
281
1
  0
DICTIONARY
  5
1A
102
{ACAD_REACTORS
330
C
102
}
100
AcDbDictionary
281
1
  3
Model
350
5A9
  3
Layout1
350
5AA
  0
ACDBPLACEHOLDER
  5
F
102
{ACAD_REACTORS
330
E
102
}
  0
MLINESTYLE
  5
18
102
{ACAD_REACTORS
330
17
102
}
100
AcDbMlineStyle
  2
STANDARD
 70
0
  3

 62
256
 51
90.0
 52
90.0
 71
2
 49
0.5
 62
256
  6
BYLAYER
 49
-0.5
 62
256
  6
BYLAYER
  0
LAYOUT
  5
5A9
102
{ACAD_REACTORS
330
1A
102
}
100
AcDbPlotSettings
  1

  2
none_device
  4
ANSI_D_(34.00_x_22.00_Inches)
  6

 40
0.0
 41
0.0
 42
0.0
 43
0.0
 44
863.6
 45
558.8
 46
0.0
 47
0.0
 48
0.0
 49
0.0
140
0.0
141
0.0
142
1.0
143
1.0
 70
1024
 72
0
 73
0
 74
0
  7

 75
0
147
1.0
148
0.0
149
0.0
100
AcDbLayout
  1
Model
 70
0
 71
0
 10
0.0
 20
0.0
 11
34.0
 21
22.0
 12
0.0
 22
0.0
 32
0.0
 14
0.0
 24
0.0
 34
0.0
 15
0.0
 25
0.0
 35
0.0
146
0.0
 13
0.0
 23
0.0
 33
0.0
 16
1.0
 26
0.0
 36
0.0
 17
0.0
 27
1.0
 37
0.0
 76
0
330
210
345
0
346
0
  0
LAYOUT
  5
5AA
102
{ACAD_REACTORS
330
1A
102
}
100
AcDbPlotSettings
  1

  2
none_device
  4
ANSI_D_(34.00_x_22.00_Inches)
  6

 40
0.0
 41
0.0
 42
0.0
 43
0.0
 44
863.6
 45
558.8
 46
0.0
 47
0.0
 48
0.0
 49
0.0
140
0.0
141
0.0
142
1.0
143
1.0
 70
0
 72
0
 73
0
 74
0
  7

 75
0
147
1.0
148
0.0
149
0.0
100
AcDbLayout
  1
Layout1
 70
0
 71
1
 10
0.0
 20
0.0
 11
34.0
 21
22.0
 12
0.0
 22
0.0
 32
0.0
 14
0.0
 24
0.0
 34
0.0
 15
0.0
 25
0.0
 35
0.0
146
0.0
 13
0.0
 23
0.0
 33
0.0
 16
1.0
 26
0.0
 36
0.0
 17
0.0
 27
1.0
 37
0.0
 76
0
330
211
345
0
346
0
  0
ENDSEC
  0
EOF
