999
DXF file: fg-001030-2d-B.dxf
999
Pro/ENGINEER 2016130 by Parametric Technology Corporation
  0
SECTION
  2
HEADER
  9
$ACADVER
  1
AC1015
  9
$DWGCODEPAGE
  3
ANSI_1252
  9
$EXTMAX
 10
102.0
 20
66.0
 30
0.0
  9
$EXTMIN
 10
0.0
 20
0.0
 30
0.0
  9
$LIMMIN
 10
0.0
 20
0.0
  9
$LIMMAX
 10
102.0
 20
66.0
  9
$VIEWCTR
 10
51.0
 20
33.0
  9
$VIEWSIZE
 40
66.0
  9
$CLAYER
  8
0
  9
$LTSCALE
 40
5.61
  9
$CELTYPE
  6
BYLAYER
  9
$DIMSCALE
 40
1.0
  9
$DIMASZ
 40
0.5625
  9
$DIMEXO
 40
0.0625
  9
$DIMDLI
 40
3.876
  9
$DIMEXE
 40
0.125
  9
$DIMCEN
 40
0.918
  9
$DIMLFAC
 40
1.0
  9
$DIMBLK
  1
_FILLED
  9
$DIMALT
 70
0
  9
$DIMALTF
 40
25.4
  9
$DIMTXT
 40
0.46875
  9
$DIMTOL
 70
1
  9
$DIMLIM
 70
0
  9
$DIMTFAC
 40
1.0
  9
$DIMTP
 40
0.01
  9
$DIMTM
 40
0.01
  9
$DIMGAP
 40
0.09
  9
$DIMDSEP
 70
46
  9
$AUNITS
 70
0
  9
$PDMODE
 70
3
  9
$PDSIZE
 40
0.3125
  9
$HANDSEED
  5
607
  9
$TILEMODE
 70
1
  9
$MEASUREMENT
 70
0
  9
$INSUNITS
 70
1
  0
ENDSEC
  0
SECTION
  2
CLASSES
  0
CLASS
  1
ACDBDICTIONARYWDFLT
  2
AcDbDictionaryWithDefault
  3
AutoCAD 2000
 90
0
280
0
281
0
  0
CLASS
  1
ACDBPLACEHOLDER
  2
AcDbPlaceHolder
  3
AutoCAD 2000
 90
0
280
0
281
0
  0
CLASS
  1
LAYOUT
  2
AcDbLayout
  3
AutoCAD 2000
 90
0
280
0
281
0
  0
ENDSEC
  0
SECTION
  2
TABLES
  0
TABLE
  2
VPORT
  5
8
100
AcDbSymbolTable
 70
2
  0
VPORT
  5
1F4
100
AcDbSymbolTableRecord
100
AcDbViewportTableRecord
  2
*ACTIVE
 70
0
 10
0.0
 20
0.0
 11
1.0
 21
1.0
 12
51.0
 22
33.0
 13
0.0
 23
0.0
 14
1.0
 24
1.0
 15
0.0
 25
0.0
 16
0.0
 26
0.0
 36
1.0
 17
0.0
 27
0.0
 37
0.0
 40
66.0
 41
1.5454545455
 42
50.0
 43
0.0
 44
0.0
 50
0.0
 51
0.0
 71
0
 72
100
 73
1
 74
1
 75
0
 76
0
 77
0
 78
0
  0
ENDTAB
  0
TABLE
  2
LTYPE
  5
5
100
AcDbSymbolTable
 70
6
  0
LTYPE
  5
14
100
AcDbSymbolTableRecord
100
AcDbLinetypeTableRecord
  2
BYBLOCK
 70
0
  3

 72
65
 73
0
 40
0.0
  0
LTYPE
  5
15
100
AcDbSymbolTableRecord
100
AcDbLinetypeTableRecord
  2
BYLAYER
 70
0
  3

 72
65
 73
0
 40
0.0
  0
LTYPE
  5
16
100
AcDbSymbolTableRecord
100
AcDbLinetypeTableRecord
  2
CONTINUOUS
 70
64
  3
Solid line
 72
65
 73
0
 40
0.0
  0
LTYPE
  5
1F5
100
AcDbSymbolTableRecord
100
AcDbLinetypeTableRecord
  2
CENTER
 70
64
  3
____ _ ____ _ ____ _ ____ _ ____ _ ____ _ ____
 72
65
 73
4
 40
0.6
 49
0.375
 74
0
 49
-0.075
 74
0
 49
0.075
 74
0
 49
-0.075
 74
0
  0
LTYPE
  5
1F6
100
AcDbSymbolTableRecord
100
AcDbLinetypeTableRecord
  2
HIDDEN
 70
64
  3
- - - - - - - - - - - - - - - - - - - -
 72
65
 73
2
 40
0.2
 49
0.1
 74
0
 49
-0.1
 74
0
  0
LTYPE
  5
1F7
100
AcDbSymbolTableRecord
100
AcDbLinetypeTableRecord
  2
PHANTOM
 70
64
  3
_____ _ _ _____ _ _ _____ _ _ _____
 72
65
 73
6
 40
0.8
 49
0.45
 74
0
 49
-0.05
 74
0
 49
0.1
 74
0
 49
-0.05
 74
0
 49
0.1
 74
0
 49
-0.05
 74
0
  0
LTYPE
  5
1F8
100
AcDbSymbolTableRecord
100
AcDbLinetypeTableRecord
  2
DOT
 70
64
  3
. . . . . . . . . . . . . . . . . . . .
 72
65
 73
2
 40
0.2
 49
0.1
 74
0
 49
-0.1
 74
0
  0
LTYPE
  5
1F9
100
AcDbSymbolTableRecord
100
AcDbLinetypeTableRecord
  2
DASHED
 70
64
  3
- - - - - - - - - - - - - - - - - - - -
 72
65
 73
2
 40
0.2
 49
0.1
 74
0
 49
-0.1
 74
0
  0
ENDTAB
  0
TABLE
  2
LAYER
  5
2
100
AcDbSymbolTable
 70
36
  0
LAYER
  5
10
100
AcDbSymbolTableRecord
100
AcDbLayerTableRecord
  2
0
 70
0
 62
7
  6
CONTINUOUS
370
-3
390
F
  0
LAYER
  5
1FA
100
AcDbSymbolTableRecord
100
AcDbLayerTableRecord
  2
DEFAULT_1
 70
0
 62
7
  6
CENTER
370
-3
390
F
  0
LAYER
  5
1FB
100
AcDbSymbolTableRecord
100
AcDbLayerTableRecord
  2
DEFAULT_2
 70
0
 62
8
  6
HIDDEN
370
-3
390
F
  0
LAYER
  5
1FC
100
AcDbSymbolTableRecord
100
AcDbLayerTableRecord
  2
DEFAULT_3
 70
0
 62
7
  6
PHANTOM
370
-3
390
F
  0
LAYER
  5
1FD
100
AcDbSymbolTableRecord
100
AcDbLayerTableRecord
  2
1_ALL_PLANES
 70
0
 62
7
  6
CONTINUOUS
370
-3
390
F
  0
LAYER
  5
1FE
100
AcDbSymbolTableRecord
100
AcDbLayerTableRecord
  2
1__DEF_PLANES
 70
0
 62
7
  6
CONTINUOUS
370
-3
390
F
  0
LAYER
  5
1FF
100
AcDbSymbolTableRecord
100
AcDbLayerTableRecord
  2
2_ALL_CSYS
 70
0
 62
7
  6
CONTINUOUS
370
-3
390
F
  0
LAYER
  5
200
100
AcDbSymbolTableRecord
100
AcDbLayerTableRecord
  2
2__DEF_CSYS
 70
0
 62
7
  6
CONTINUOUS
370
-3
390
F
  0
LAYER
  5
201
100
AcDbSymbolTableRecord
100
AcDbLayerTableRecord
  2
3_ALL_AXES
 70
0
 62
7
  6
CONTINUOUS
370
-3
390
F
  0
LAYER
  5
202
100
AcDbSymbolTableRecord
100
AcDbLayerTableRecord
  2
3_AXES_OTHER
 70
0
 62
7
  6
CONTINUOUS
370
-3
390
F
  0
LAYER
  5
203
100
AcDbSymbolTableRecord
100
AcDbLayerTableRecord
  2
3_HOLES
 70
0
 62
7
  6
CONTINUOUS
370
-3
390
F
  0
LAYER
  5
204
100
AcDbSymbolTableRecord
100
AcDbLayerTableRecord
  2
4_ALL_POINTS
 70
0
 62
7
  6
CONTINUOUS
370
-3
390
F
  0
LAYER
  5
205
100
AcDbSymbolTableRecord
100
AcDbLayerTableRecord
  2
5_ALL_CURVES
 70
0
 62
7
  6
CONTINUOUS
370
-3
390
F
  0
LAYER
  5
206
100
AcDbSymbolTableRecord
100
AcDbLayerTableRecord
  2
6_ALL_SURFS
 70
0
 62
7
  6
CONTINUOUS
370
-3
390
F
  0
LAYER
  5
207
100
AcDbSymbolTableRecord
100
AcDbLayerTableRecord
  2
6_COPYGEOM
 70
0
 62
7
  6
CONTINUOUS
370
-3
390
F
  0
LAYER
  5
208
100
AcDbSymbolTableRecord
100
AcDbLayerTableRecord
  2
7_ALL_ROUNDS
 70
0
 62
7
  6
CONTINUOUS
370
-3
390
F
  0
LAYER
  5
209
100
AcDbSymbolTableRecord
100
AcDbLayerTableRecord
  2
7_MERGES
 70
0
 62
7
  6
CONTINUOUS
370
-3
390
F
  0
LAYER
  5
20A
100
AcDbSymbolTableRecord
100
AcDbLayerTableRecord
  2
8_GDT
 70
0
 62
7
  6
CONTINUOUS
370
-3
390
F
  0
LAYER
  5
20B
100
AcDbSymbolTableRecord
100
AcDbLayerTableRecord
  2
8_SET_DATUMS
 70
0
 62
7
  6
CONTINUOUS
370
-3
390
F
  0
LAYER
  5
20C
100
AcDbSymbolTableRecord
100
AcDbLayerTableRecord
  2
9_COSMETICS
 70
0
 62
7
  6
CONTINUOUS
370
-3
390
F
  0
LAYER
  5
20D
100
AcDbSymbolTableRecord
100
AcDbLayerTableRecord
  2
9_THREADS
 70
0
 62
7
  6
CONTINUOUS
370
-3
390
F
  0
ENDTAB
  0
TABLE
  2
STYLE
  5
3
100
AcDbSymbolTable
 70
1
  0
STYLE
  5
11
100
AcDbSymbolTableRecord
100
AcDbTextStyleTableRecord
  2
STANDARD
 70
0
 40
0.0
 41
0.8
 50
0.0
 71
0
 42
0.2
  3
txt
  4

  0
STYLE
  5
20E
100
AcDbSymbolTableRecord
100
AcDbTextStyleTableRecord
  2
TEXTSTYLE_1
 70
0
 40
0.0
 41
0.8
 50
0.0
 71
0
 42
0.2
  3
gdt
  4

  0
ENDTAB
  0
TABLE
  2
VIEW
  5
6
100
AcDbSymbolTable
 70
0
  0
ENDTAB
  0
TABLE
  2
UCS
  5
7
100
AcDbSymbolTable
 70
0
  0
ENDTAB
  0
TABLE
  2
APPID
  5
9
100
AcDbSymbolTable
 70
1
  0
APPID
  5
20F
100
AcDbSymbolTableRecord
100
AcDbRegAppTableRecord
  2
ACAD
 70
0
  0
ENDTAB
  0
TABLE
  2
BLOCK_RECORD
  5
1
100
AcDbSymbolTable
 70
0
  0
BLOCK_RECORD
  5
210
100
AcDbSymbolTableRecord
100
AcDbBlockTableRecord
  2
*Model_Space
  0
BLOCK_RECORD
  5
211
100
AcDbSymbolTableRecord
100
AcDbBlockTableRecord
  2
*Paper_Space
  0
BLOCK_RECORD
  5
212
100
AcDbSymbolTableRecord
100
AcDbBlockTableRecord
  2
_FILLED
  0
BLOCK_RECORD
  5
213
100
AcDbSymbolTableRecord
100
AcDbBlockTableRecord
  2
*D0
  0
BLOCK_RECORD
  5
214
100
AcDbSymbolTableRecord
100
AcDbBlockTableRecord
  2
*D1
  0
BLOCK_RECORD
  5
215
100
AcDbSymbolTableRecord
100
AcDbBlockTableRecord
  2
*D2
  0
BLOCK_RECORD
  5
216
100
AcDbSymbolTableRecord
100
AcDbBlockTableRecord
  2
*D3
  0
BLOCK_RECORD
  5
217
100
AcDbSymbolTableRecord
100
AcDbBlockTableRecord
  2
*D4
  0
BLOCK_RECORD
  5
218
100
AcDbSymbolTableRecord
100
AcDbBlockTableRecord
  2
*D5
  0
BLOCK_RECORD
  5
219
100
AcDbSymbolTableRecord
100
AcDbBlockTableRecord
  2
*D6
  0
BLOCK_RECORD
  5
21A
100
AcDbSymbolTableRecord
100
AcDbBlockTableRecord
  2
*D7
  0
BLOCK_RECORD
  5
21B
100
AcDbSymbolTableRecord
100
AcDbBlockTableRecord
  2
*D8
  0
BLOCK_RECORD
  5
21C
100
AcDbSymbolTableRecord
100
AcDbBlockTableRecord
  2
*D9
  0
BLOCK_RECORD
  5
21D
100
AcDbSymbolTableRecord
100
AcDbBlockTableRecord
  2
*D10
  0
BLOCK_RECORD
  5
21E
100
AcDbSymbolTableRecord
100
AcDbBlockTableRecord
  2
*D11
  0
BLOCK_RECORD
  5
21F
100
AcDbSymbolTableRecord
100
AcDbBlockTableRecord
  2
*D12
  0
BLOCK_RECORD
  5
220
100
AcDbSymbolTableRecord
100
AcDbBlockTableRecord
  2
*D13
  0
BLOCK_RECORD
  5
221
100
AcDbSymbolTableRecord
100
AcDbBlockTableRecord
  2
*D14
  0
BLOCK_RECORD
  5
222
100
AcDbSymbolTableRecord
100
AcDbBlockTableRecord
  2
*D15
  0
BLOCK_RECORD
  5
223
100
AcDbSymbolTableRecord
100
AcDbBlockTableRecord
  2
*D16
  0
BLOCK_RECORD
  5
224
100
AcDbSymbolTableRecord
100
AcDbBlockTableRecord
  2
*D17
  0
BLOCK_RECORD
  5
225
100
AcDbSymbolTableRecord
100
AcDbBlockTableRecord
  2
*D18
  0
BLOCK_RECORD
  5
226
100
AcDbSymbolTableRecord
100
AcDbBlockTableRecord
  2
CG_3D_BL3
  0
BLOCK_RECORD
  5
227
100
AcDbSymbolTableRecord
100
AcDbBlockTableRecord
  2
CG_3D_BL2
  0
BLOCK_RECORD
  5
228
100
AcDbSymbolTableRecord
100
AcDbBlockTableRecord
  2
CG_3D_BL1
  0
BLOCK_RECORD
  5
229
100
AcDbSymbolTableRecord
100
AcDbBlockTableRecord
  2
RD010411_BL0
  0
ENDTAB
  0
TABLE
  2
DIMSTYLE
  5
A
100
AcDbSymbolTable
 70
1
100
AcDbDimStyleTable
 71
0
  0
DIMSTYLE
105
22A
100
AcDbSymbolTableRecord
100
AcDbDimStyleTableRecord
  2
STANDARD
 70
0
  3

  4

 40
1.0
 41
0.5625
 42
0.0625
 43
0.38
 44
0.125
 45
0.0
 46
0.0
 47
0.01
 48
0.01
140
0.46875
141
0.09
142
0.0
143
25.4
144
1.0
145
0.0
146
1.0
147
0.09
 71
1.0
 72
0.0
 73
1
 74
1
 75
0
 76
0
 77
0
 78
4
170
0
171
2
172
0
173
0
174
0
175
0
176
0
177
0
178
0
270
2
271
3
272
3
273
2
274
2
275
0
280
0
281
0
282
0
283
1
284
4
285
0
286
0
287
3
288
0
340
11
278
46
341
212
342
212
343
212
344
212
  0
DIMSTYLE
105
22B
100
AcDbSymbolTableRecord
100
AcDbDimStyleTableRecord
  2
DIMSTYLE_1
 70
0
  3

  4

 40
1.0
 41
0.5625
 42
0.0625
 43
0.38
 44
0.125
 45
0.0
 46
0.0
 47
0.01
 48
0.01
140
0.46875
141
0.09
142
0.0
143
25.4
144
1.0
145
0.0
146
1.0
147
0.078125
 71
0.0
 72
0.0
 73
1
 74
1
 75
0
 76
0
 77
0
 78
4
170
0
171
2
172
0
173
0
174
0
175
0
176
0
177
0
178
0
270
2
271
0
272
0
273
2
274
2
275
0
280
0
281
0
282
0
283
1
284
4
285
0
286
0
287
3
288
0
340
11
278
46
341
212
342
212
343
212
344
212
  0
DIMSTYLE
105
22C
100
AcDbSymbolTableRecord
100
AcDbDimStyleTableRecord
  2
DIMSTYLE_2
 70
0
  3

  4

 40
1.0
 41
0.5625
 42
0.0625
 43
0.38
 44
0.125
 45
0.0
 46
0.0
 47
0.01
 48
0.01
140
0.46875
141
0.09
142
0.0
143
25.4
144
1.0
145
0.0
146
1.0
147
0.078125
 71
0.0
 72
0.0
 73
1
 74
1
 75
0
 76
0
 77
0
 78
4
170
0
171
2
172
0
173
0
174
0
175
0
176
0
177
0
178
0
270
2
271
2
272
2
273
2
274
2
275
0
280
0
281
0
282
0
283
1
284
4
285
0
286
0
287
3
288
0
340
11
278
46
341
212
342
212
343
212
344
212
  0
ENDTAB
  0
ENDSEC
  0
SECTION
  2
BLOCKS
  0
BLOCK
  5
20
100
AcDbEntity
  8
0
100
AcDbBlockBegin
  2
*Model_Space
 70
0
 10
0.0
 20
0.0
 30
0.0
  3
*Model_Space
  1

  0
ENDBLK
  5
21
100
AcDbEntity
  8
0
100
AcDbBlockEnd
  0
BLOCK
  5
1C
100
AcDbEntity
  8
0
100
AcDbBlockBegin
  2
*Paper_Space
 70
0
 10
0.0
 20
0.0
 30
0.0
  3
*Paper_Space
  1

  0
ENDBLK
  5
1D
100
AcDbEntity
  8
0
100
AcDbBlockEnd
  0
BLOCK
  5
22D
100
AcDbEntity
  8
0
100
AcDbBlockBegin
 62
2
  6
CONTINUOUS
  2
CG_3D_BL3
 70
64
 10
48.5271993774
 20
26.4854778351
  3
CG_3D_BL3
  1

  0
ARC
  5
22E
100
AcDbEntity
  8
0
100
AcDbCircle
 62
7
  6
CONTINUOUS
 10
48.5271993774
 20
26.4854778351
 40
0.5625
100
AcDbArc
 50
90.0
 51
180.0
  0
ARC
  5
22F
100
AcDbEntity
  8
0
100
AcDbCircle
 62
7
  6
CONTINUOUS
 10
48.5271993774
 20
26.4854778351
 40
0.5625
100
AcDbArc
 50
180.0
 51
270.0
  0
ARC
  5
230
100
AcDbEntity
  8
0
100
AcDbCircle
 62
7
  6
CONTINUOUS
 10
48.5271993774
 20
26.4854778351
 40
0.5625
100
AcDbArc
 50
270.0
 51
360.0
  0
ARC
  5
231
100
AcDbEntity
  8
0
100
AcDbCircle
 62
7
  6
CONTINUOUS
 10
48.5271993774
 20
26.4854778351
 40
0.5625
100
AcDbArc
 50
0.0
 51
90.0
  0
LINE
  5
232
100
AcDbEntity
  8
0
100
AcDbLine
 62
7
  6
CONTINUOUS
 10
48.5271993774
 20
26.4854778351
 11
49.0896993774
 21
26.4854778351
  0
LINE
  5
233
100
AcDbEntity
  8
0
100
AcDbLine
 62
7
  6
CONTINUOUS
 10
48.5271993774
 20
26.4854778351
 11
48.5271993774
 21
25.9229778351
  0
LINE
  5
234
100
AcDbEntity
  8
0
100
AcDbLine
 62
7
  6
CONTINUOUS
 10
47.9646993774
 20
26.4854778351
 11
48.5271993774
 21
26.4854778351
  0
LINE
  5
235
100
AcDbEntity
  8
0
100
AcDbLine
 62
7
  6
CONTINUOUS
 10
48.5271993774
 20
27.0479778351
 11
48.5271993774
 21
26.4854778351
  0
LINE
  5
236
100
AcDbEntity
  8
0
100
AcDbLine
 62
2
  6
CONTINUOUS
 10
48.5271993774
 20
26.4817705892
 11
48.5309066233
 21
26.4854778351
  0
LWPOLYLINE
  5
237
100
AcDbEntity
  8
0
100
AcDbPolyline
 62
7
  6
CONTINUOUS
 90
8
 70
0
 10
48.5271993774
 20
26.4854778351
 10
48.5271993774
 20
25.9229778351
 10
48.7010214368
 20
25.9505085447
 10
48.8578285819
 20
26.0304057758
 10
48.9822714368
 20
26.1548486307
 10
49.0621686679
 20
26.3116557758
 10
49.0896993774
 20
26.4854778351
 10
48.5271993774
 20
26.4854778351
  0
HATCH
  5
238
100
AcDbEntity
  8
0
100
AcDbHatch
 62
7
  6
CONTINUOUS
 10
0.0
 20
0.0
 30
0.0
210
0.0
220
0.0
230
1.0
  2
SOLID
 70
1
 71
1
 91
1
 92
1
 93
7
 72
1
 10
48.5271993774
 20
26.4854778351
 11
48.5271993774
 21
25.9229778351
 72
1
 10
48.5271993774
 20
25.9229778351
 11
48.7010214368
 21
25.9505085447
 72
1
 10
48.7010214368
 20
25.9505085447
 11
48.8578285819
 21
26.0304057758
 72
1
 10
48.8578285819
 20
26.0304057758
 11
48.9822714368
 21
26.1548486307
 72
1
 10
48.9822714368
 20
26.1548486307
 11
49.0621686679
 21
26.3116557758
 72
1
 10
49.0621686679
 20
26.3116557758
 11
49.0896993774
 21
26.4854778351
 72
1
 10
49.0896993774
 20
26.4854778351
 11
48.5271993774
 21
26.4854778351
 97
1
330
237
 75
0
 76
1
 98
1
 10
0.0
 20
0.0
  0
LWPOLYLINE
  5
239
100
AcDbEntity
  8
0
100
AcDbPolyline
 62
7
  6
CONTINUOUS
 90
8
 70
0
 10
48.5271993774
 20
26.4854778351
 10
47.9646993774
 20
26.4854778351
 10
47.992230087
 20
26.6592998944
 10
48.0721273181
 20
26.8161070395
 10
48.196570173
 20
26.9405498944
 10
48.3533773181
 20
27.0204471255
 10
48.5271993774
 20
27.0479778351
 10
48.5271993774
 20
26.4854778351
  0
HATCH
  5
23A
100
AcDbEntity
  8
0
100
AcDbHatch
 62
7
  6
CONTINUOUS
 10
0.0
 20
0.0
 30
0.0
210
0.0
220
0.0
230
1.0
  2
SOLID
 70
1
 71
1
 91
1
 92
1
 93
7
 72
1
 10
48.5271993774
 20
26.4854778351
 11
47.9646993774
 21
26.4854778351
 72
1
 10
47.9646993774
 20
26.4854778351
 11
47.992230087
 21
26.6592998944
 72
1
 10
47.992230087
 20
26.6592998944
 11
48.0721273181
 21
26.8161070395
 72
1
 10
48.0721273181
 20
26.8161070395
 11
48.196570173
 21
26.9405498944
 72
1
 10
48.196570173
 20
26.9405498944
 11
48.3533773181
 21
27.0204471255
 72
1
 10
48.3533773181
 20
27.0204471255
 11
48.5271993774
 21
27.0479778351
 72
1
 10
48.5271993774
 20
27.0479778351
 11
48.5271993774
 21
26.4854778351
 97
1
330
239
 75
0
 76
1
 98
1
 10
0.0
 20
0.0
  0
ENDBLK
  5
23B
100
AcDbEntity
  8
0
  6
BYBLOCK
 62
0
100
AcDbBlockEnd
  0
BLOCK
  5
23C
100
AcDbEntity
  8
0
100
AcDbBlockBegin
 62
2
  6
CONTINUOUS
  2
CG_3D_BL2
 70
64
 10
18.5521767999
 20
26.4840650397
  3
CG_3D_BL2
  1

  0
ARC
  5
23D
100
AcDbEntity
  8
0
100
AcDbCircle
 62
7
  6
CONTINUOUS
 10
18.5521767999
 20
26.4840650397
 40
0.5625
100
AcDbArc
 50
90.0
 51
180.0
  0
ARC
  5
23E
100
AcDbEntity
  8
0
100
AcDbCircle
 62
7
  6
CONTINUOUS
 10
18.5521767999
 20
26.4840650397
 40
0.5625
100
AcDbArc
 50
180.0
 51
270.0
  0
ARC
  5
23F
100
AcDbEntity
  8
0
100
AcDbCircle
 62
7
  6
CONTINUOUS
 10
18.5521767999
 20
26.4840650397
 40
0.5625
100
AcDbArc
 50
270.0
 51
360.0
  0
ARC
  5
240
100
AcDbEntity
  8
0
100
AcDbCircle
 62
7
  6
CONTINUOUS
 10
18.5521767999
 20
26.4840650397
 40
0.5625
100
AcDbArc
 50
0.0
 51
90.0
  0
LINE
  5
241
100
AcDbEntity
  8
0
100
AcDbLine
 62
7
  6
CONTINUOUS
 10
18.5521767999
 20
26.4840650397
 11
19.1146767999
 21
26.4840650397
  0
LINE
  5
242
100
AcDbEntity
  8
0
100
AcDbLine
 62
7
  6
CONTINUOUS
 10
18.5521767999
 20
26.4840650397
 11
18.5521767999
 21
25.9215650397
  0
LINE
  5
243
100
AcDbEntity
  8
0
100
AcDbLine
 62
7
  6
CONTINUOUS
 10
17.9896767999
 20
26.4840650397
 11
18.5521767999
 21
26.4840650397
  0
LINE
  5
244
100
AcDbEntity
  8
0
100
AcDbLine
 62
7
  6
CONTINUOUS
 10
18.5521767999
 20
27.0465650397
 11
18.5521767999
 21
26.4840650397
  0
LINE
  5
245
100
AcDbEntity
  8
0
100
AcDbLine
 62
2
  6
CONTINUOUS
 10
18.5521767999
 20
26.4803577938
 11
18.5558840458
 21
26.4840650397
  0
LWPOLYLINE
  5
246
100
AcDbEntity
  8
0
100
AcDbPolyline
 62
7
  6
CONTINUOUS
 90
8
 70
0
 10
18.5521767999
 20
26.4840650397
 10
18.5521767999
 20
25.9215650397
 10
18.7259988593
 20
25.9490957493
 10
18.8828060043
 20
26.0289929804
 10
19.0072488593
 20
26.1534358353
 10
19.0871460903
 20
26.3102429804
 10
19.1146767999
 20
26.4840650397
 10
18.5521767999
 20
26.4840650397
  0
HATCH
  5
247
100
AcDbEntity
  8
0
100
AcDbHatch
 62
7
  6
CONTINUOUS
 10
0.0
 20
0.0
 30
0.0
210
0.0
220
0.0
230
1.0
  2
SOLID
 70
1
 71
1
 91
1
 92
1
 93
7
 72
1
 10
18.5521767999
 20
26.4840650397
 11
18.5521767999
 21
25.9215650397
 72
1
 10
18.5521767999
 20
25.9215650397
 11
18.7259988593
 21
25.9490957493
 72
1
 10
18.7259988593
 20
25.9490957493
 11
18.8828060043
 21
26.0289929804
 72
1
 10
18.8828060043
 20
26.0289929804
 11
19.0072488593
 21
26.1534358353
 72
1
 10
19.0072488593
 20
26.1534358353
 11
19.0871460903
 21
26.3102429804
 72
1
 10
19.0871460903
 20
26.3102429804
 11
19.1146767999
 21
26.4840650397
 72
1
 10
19.1146767999
 20
26.4840650397
 11
18.5521767999
 21
26.4840650397
 97
1
330
246
 75
0
 76
1
 98
1
 10
0.0
 20
0.0
  0
LWPOLYLINE
  5
248
100
AcDbEntity
  8
0
100
AcDbPolyline
 62
7
  6
CONTINUOUS
 90
8
 70
0
 10
18.5521767999
 20
26.4840650397
 10
17.9896767999
 20
26.4840650397
 10
18.0172075095
 20
26.6578870991
 10
18.0971047406
 20
26.8146942441
 10
18.2215475955
 20
26.9391370991
 10
18.3783547406
 20
27.0190343301
 10
18.5521767999
 20
27.0465650397
 10
18.5521767999
 20
26.4840650397
  0
HATCH
  5
249
100
AcDbEntity
  8
0
100
AcDbHatch
 62
7
  6
CONTINUOUS
 10
0.0
 20
0.0
 30
0.0
210
0.0
220
0.0
230
1.0
  2
SOLID
 70
1
 71
1
 91
1
 92
1
 93
7
 72
1
 10
18.5521767999
 20
26.4840650397
 11
17.9896767999
 21
26.4840650397
 72
1
 10
17.9896767999
 20
26.4840650397
 11
18.0172075095
 21
26.6578870991
 72
1
 10
18.0172075095
 20
26.6578870991
 11
18.0971047406
 21
26.8146942441
 72
1
 10
18.0971047406
 20
26.8146942441
 11
18.2215475955
 21
26.9391370991
 72
1
 10
18.2215475955
 20
26.9391370991
 11
18.3783547406
 21
27.0190343301
 72
1
 10
18.3783547406
 20
27.0190343301
 11
18.5521767999
 21
27.0465650397
 72
1
 10
18.5521767999
 20
27.0465650397
 11
18.5521767999
 21
26.4840650397
 97
1
330
248
 75
0
 76
1
 98
1
 10
0.0
 20
0.0
  0
ENDBLK
  5
24A
100
AcDbEntity
  8
0
  6
BYBLOCK
 62
0
100
AcDbBlockEnd
  0
BLOCK
  5
24B
100
AcDbEntity
  8
0
100
AcDbBlockBegin
 62
2
  6
CONTINUOUS
  2
CG_3D_BL1
 70
64
 10
7.0352609591
 20
6.2235665403
  3
CG_3D_BL1
  1

  0
ARC
  5
24C
100
AcDbEntity
  8
0
100
AcDbCircle
 62
7
  6
CONTINUOUS
 10
7.0352609591
 20
6.2235665403
 40
0.375
100
AcDbArc
 50
90.0
 51
180.0
  0
ARC
  5
24D
100
AcDbEntity
  8
0
100
AcDbCircle
 62
7
  6
CONTINUOUS
 10
7.0352609591
 20
6.2235665403
 40
0.375
100
AcDbArc
 50
180.0
 51
270.0
  0
ARC
  5
24E
100
AcDbEntity
  8
0
100
AcDbCircle
 62
7
  6
CONTINUOUS
 10
7.0352609591
 20
6.2235665403
 40
0.375
100
AcDbArc
 50
270.0
 51
360.0
  0
ARC
  5
24F
100
AcDbEntity
  8
0
100
AcDbCircle
 62
7
  6
CONTINUOUS
 10
7.0352609591
 20
6.2235665403
 40
0.375
100
AcDbArc
 50
0.0
 51
90.0
  0
LINE
  5
250
100
AcDbEntity
  8
0
100
AcDbLine
 62
7
  6
CONTINUOUS
 10
7.0352609591
 20
6.2235665403
 11
7.4102609591
 21
6.2235665403
  0
LINE
  5
251
100
AcDbEntity
  8
0
100
AcDbLine
 62
7
  6
CONTINUOUS
 10
7.0352609591
 20
6.2235665403
 11
7.0352609591
 21
5.8485665403
  0
LINE
  5
252
100
AcDbEntity
  8
0
100
AcDbLine
 62
7
  6
CONTINUOUS
 10
6.6602609591
 20
6.2235665403
 11
7.0352609591
 21
6.2235665403
  0
LINE
  5
253
100
AcDbEntity
  8
0
100
AcDbLine
 62
7
  6
CONTINUOUS
 10
7.0352609591
 20
6.5985665403
 11
7.0352609591
 21
6.2235665403
  0
LINE
  5
254
100
AcDbEntity
  8
0
100
AcDbLine
 62
2
  6
CONTINUOUS
 10
7.0352609591
 20
6.2210950431
 11
7.0377324563
 21
6.2235665403
  0
LWPOLYLINE
  5
255
100
AcDbEntity
  8
0
100
AcDbPolyline
 62
7
  6
CONTINUOUS
 90
8
 70
0
 10
7.0352609591
 20
6.2235665403
 10
7.0352609591
 20
5.8485665403
 10
7.151142332
 20
5.8669203467
 10
7.2556804287
 20
5.9201851674
 10
7.338642332
 20
6.0031470707
 10
7.3919071527
 20
6.1076851674
 10
7.4102609591
 20
6.2235665403
 10
7.0352609591
 20
6.2235665403
  0
HATCH
  5
256
100
AcDbEntity
  8
0
100
AcDbHatch
 62
7
  6
CONTINUOUS
 10
0.0
 20
0.0
 30
0.0
210
0.0
220
0.0
230
1.0
  2
SOLID
 70
1
 71
1
 91
1
 92
1
 93
7
 72
1
 10
7.0352609591
 20
6.2235665403
 11
7.0352609591
 21
5.8485665403
 72
1
 10
7.0352609591
 20
5.8485665403
 11
7.151142332
 21
5.8669203467
 72
1
 10
7.151142332
 20
5.8669203467
 11
7.2556804287
 21
5.9201851674
 72
1
 10
7.2556804287
 20
5.9201851674
 11
7.338642332
 21
6.0031470707
 72
1
 10
7.338642332
 20
6.0031470707
 11
7.3919071527
 21
6.1076851674
 72
1
 10
7.3919071527
 20
6.1076851674
 11
7.4102609591
 21
6.2235665403
 72
1
 10
7.4102609591
 20
6.2235665403
 11
7.0352609591
 21
6.2235665403
 97
1
330
255
 75
0
 76
1
 98
1
 10
0.0
 20
0.0
  0
LWPOLYLINE
  5
257
100
AcDbEntity
  8
0
100
AcDbPolyline
 62
7
  6
CONTINUOUS
 90
8
 70
0
 10
7.0352609591
 20
6.2235665403
 10
6.6602609591
 20
6.2235665403
 10
6.6786147655
 20
6.3394479132
 10
6.7318795862
 20
6.4439860099
 10
6.8148414895
 20
6.5269479132
 10
6.9193795862
 20
6.5802127339
 10
7.0352609591
 20
6.5985665403
 10
7.0352609591
 20
6.2235665403
  0
HATCH
  5
258
100
AcDbEntity
  8
0
100
AcDbHatch
 62
7
  6
CONTINUOUS
 10
0.0
 20
0.0
 30
0.0
210
0.0
220
0.0
230
1.0
  2
SOLID
 70
1
 71
1
 91
1
 92
1
 93
7
 72
1
 10
7.0352609591
 20
6.2235665403
 11
6.6602609591
 21
6.2235665403
 72
1
 10
6.6602609591
 20
6.2235665403
 11
6.6786147655
 21
6.3394479132
 72
1
 10
6.6786147655
 20
6.3394479132
 11
6.7318795862
 21
6.4439860099
 72
1
 10
6.7318795862
 20
6.4439860099
 11
6.8148414895
 21
6.5269479132
 72
1
 10
6.8148414895
 20
6.5269479132
 11
6.9193795862
 21
6.5802127339
 72
1
 10
6.9193795862
 20
6.5802127339
 11
7.0352609591
 21
6.5985665403
 72
1
 10
7.0352609591
 20
6.5985665403
 11
7.0352609591
 21
6.2235665403
 97
1
330
257
 75
0
 76
1
 98
1
 10
0.0
 20
0.0
  0
ENDBLK
  5
259
100
AcDbEntity
  8
0
  6
BYBLOCK
 62
0
100
AcDbBlockEnd
  0
BLOCK
  5
25A
100
AcDbEntity
  8
0
100
AcDbBlockBegin
 62
7
  6
CONTINUOUS
  2
RD010411_BL0
 70
64
 10
86.6664608964
 20
8.1033319955
  3
RD010411_BL0
  1

  0
ARC
  5
25B
100
AcDbEntity
  8
0
100
AcDbCircle
 62
7
  6
CONTINUOUS
 10
88.6229456053
 20
8.4044628681
 40
0.0371145398
100
AcDbArc
 50
270.0
 51
360.0
  0
LINE
  5
25C
100
AcDbEntity
  8
0
100
AcDbLine
 62
7
  6
CONTINUOUS
 10
88.6600601452
 20
8.4044628681
 11
88.6600601452
 21
8.4787174557
  0
ARC
  5
25D
100
AcDbEntity
  8
0
100
AcDbCircle
 62
7
  6
CONTINUOUS
 10
88.6229456053
 20
8.4787174557
 40
0.0371145398
100
AcDbArc
 50
0.0
 51
90.0
  0
LINE
  5
25E
100
AcDbEntity
  8
0
100
AcDbLine
 62
7
  6
CONTINUOUS
 10
88.6229456053
 20
8.5158319955
 11
87.6251656087
 21
8.5158319955
  0
SPLINE
  5
25F
100
AcDbEntity
  8
0
100
AcDbSpline
 62
7
  6
CONTINUOUS
 70
0
 71
3
 72
13
 73
9
 74
0
 42
0.0000001
 43
0.0000001
 44
0.0000000001
 40
0.0
 40
0.0
 40
0.0
 40
0.0
 40
0.1310616762
 40
0.2699656353
 40
0.4157607805
 40
0.5899807757
 40
0.76586761
 40
0.9948829976
 40
0.9948829976
 40
0.9948829976
 40
0.9948829976
 10
87.6251656087
 20
8.5158319955
 30
0.0
 10
87.6041913651
 20
8.51426982
 30
0.0
 10
87.5609878516
 20
8.511051994
 30
0.0
 10
87.5024384871
 20
8.4747714704
 30
0.0
 10
87.4604070302
 20
8.4138630058
 30
0.0
 10
87.4330760053
 20
8.339385361
 30
0.0
 10
87.4176815034
 20
8.2483427176
 30
0.0
 10
87.416264086
 20
8.1840103871
 30
0.0
 10
87.4155294716
 20
8.1476188139
 30
0.0
  0
LINE
  5
260
100
AcDbEntity
  8
0
100
AcDbLine
 62
7
  6
CONTINUOUS
 10
87.4155294716
 20
8.1476188139
 11
87.4155946117
 21
8.1419715272
  0
SPLINE
  5
261
100
AcDbEntity
  8
0
100
AcDbSpline
 62
7
  6
CONTINUOUS
 70
0
 71
3
 72
13
 73
9
 74
0
 42
0.0000001
 43
0.0000001
 44
0.0000000001
 40
0.0
 40
0.0
 40
0.0
 40
0.0
 40
0.2222860645
 40
0.3981728988
 40
0.572392894
 40
0.7181880393
 40
0.8570919984
 40
0.9881536746
 40
0.9881536746
 40
0.9881536746
 40
0.9881536746
 10
87.4155946117
 20
8.1419715272
 30
0.0
 10
87.4163147479
 20
8.1066497413
 30
0.0
 10
87.4178600689
 20
8.0433983415
 30
0.0
 10
87.4330759927
 20
7.9534110472
 30
0.0
 10
87.4604073448
 20
7.878941732
 30
0.0
 10
87.5024374907
 20
7.818007418
 30
0.0
 10
87.5609913238
 20
7.7818136203
 30
0.0
 10
87.6041843042
 20
7.7783915826
 30
0.0
 10
87.6251656087
 20
7.7768288818
 30
0.0
  0
LINE
  5
262
100
AcDbEntity
  8
0
100
AcDbLine
 62
7
  6
CONTINUOUS
 10
87.6251656087
 20
7.7768288818
 11
88.6230266115
 21
7.7790068149
  0
ARC
  5
263
100
AcDbEntity
  8
0
100
AcDbCircle
 62
7
  6
CONTINUOUS
 10
88.6229456053
 20
7.8161212662
 40
0.0371145397
100
AcDbArc
 50
270.125053868
 51
360.0
  0
LINE
  5
264
100
AcDbEntity
  8
0
100
AcDbLine
 62
7
  6
CONTINUOUS
 10
88.6600601452
 20
7.8161212662
 11
88.6600601452
 21
7.887476804
  0
ARC
  5
265
100
AcDbEntity
  8
0
100
AcDbCircle
 62
7
  6
CONTINUOUS
 10
88.6229456053
 20
7.887476804
 40
0.0371145398
100
AcDbArc
 50
0.0
 51
90.0
  0
LINE
  5
266
100
AcDbEntity
  8
0
100
AcDbLine
 62
7
  6
CONTINUOUS
 10
88.6229456053
 20
7.9245913438
 11
87.7677117757
 21
7.9245913438
  0
LINE
  5
267
100
AcDbEntity
  8
0
100
AcDbLine
 62
7
  6
CONTINUOUS
 10
87.7305972359
 20
7.9617058836
 11
87.7305972359
 21
8.3302337885
  0
ARC
  5
268
100
AcDbEntity
  8
0
100
AcDbCircle
 62
7
  6
CONTINUOUS
 10
87.7677117761
 20
8.3302337885
 40
0.0371145398
100
AcDbArc
 50
90.0
 51
180.0
  0
LINE
  5
269
100
AcDbEntity
  8
0
100
AcDbLine
 62
7
  6
CONTINUOUS
 10
87.7677117757
 20
8.3673483283
 11
88.6229456053
 21
8.3673483283
  0
LINE
  5
26A
100
AcDbEntity
  8
0
100
AcDbLine
 62
7
  6
CONTINUOUS
 10
86.242753899
 20
8.0713893017
 11
86.9555897017
 21
8.0713893017
  0
ARC
  5
26B
100
AcDbEntity
  8
0
100
AcDbCircle
 62
7
  6
CONTINUOUS
 10
86.9555897016
 20
8.034274762
 40
0.0371145398
100
AcDbArc
 50
0.0
 51
90.0
  0
LINE
  5
26C
100
AcDbEntity
  8
0
100
AcDbLine
 62
7
  6
CONTINUOUS
 10
86.9927042415
 20
8.0342747619
 11
86.9927042415
 21
7.9584907053
  0
LINE
  5
26D
100
AcDbEntity
  8
0
100
AcDbLine
 62
7
  6
CONTINUOUS
 10
86.9555897017
 20
7.9213761655
 11
86.1246492821
 21
7.9213761655
  0
ARC
  5
26E
100
AcDbEntity
  8
0
100
AcDbCircle
 62
7
  6
CONTINUOUS
 10
86.1246492821
 20
7.8842616257
 40
0.0371145398
100
AcDbArc
 50
90.0
 51
180.0
  0
LINE
  5
26F
100
AcDbEntity
  8
0
100
AcDbLine
 62
7
  6
CONTINUOUS
 10
86.0875347422
 20
7.8842616257
 11
86.0875347422
 21
7.813943047
  0
ARC
  5
270
100
AcDbEntity
  8
0
100
AcDbCircle
 62
7
  6
CONTINUOUS
 10
86.1246492821
 20
7.813943047
 40
0.0371145398
100
AcDbArc
 50
180.0
 51
270.0
  0
LINE
  5
271
100
AcDbEntity
  8
0
100
AcDbLine
 62
7
  6
CONTINUOUS
 10
86.1246492821
 20
7.7768285072
 11
87.1562194332
 21
7.7768285072
  0
SPLINE
  5
272
100
AcDbEntity
  8
0
100
AcDbSpline
 62
7
  6
CONTINUOUS
 70
0
 71
3
 72
13
 73
9
 74
0
 42
0.0000001
 43
0.0000001
 44
0.0000000001
 40
0.0
 40
0.0
 40
0.0
 40
0.0
 40
0.1604571392
 40
0.3334692485
 40
0.4767982758
 40
0.6242014838
 40
0.7505998515
 40
1.0
 40
1.0
 40
1.0
 40
1.0
 10
87.1562194332
 20
7.7768285072
 30
0.0
 10
87.1736118347
 20
7.7776659203
 30
0.0
 10
87.2097575058
 20
7.779406269
 30
0.0
 10
87.2583631947
 20
7.8005086302
 30
0.0
 10
87.2949891827
 20
7.8359799381
 30
0.0
 10
87.3156293674
 20
7.8766464221
 30
0.0
 10
87.3314538892
 20
7.9312009272
 30
0.0
 10
87.332096049
 20
7.9720269307
 30
0.0
 10
87.3325222204
 20
7.9991212665
 30
0.0
  0
SPLINE
  5
273
100
AcDbEntity
  8
0
100
AcDbSpline
 62
7
  6
CONTINUOUS
 70
0
 71
3
 72
13
 73
9
 74
0
 42
0.0000001
 43
0.0000001
 44
0.0000000001
 40
0.0
 40
0.0
 40
0.0
 40
0.0
 40
0.2494001485
 40
0.3757985162
 40
0.5232017242
 40
0.6665307515
 40
0.8395428608
 40
1.0
 40
1.0
 40
1.0
 40
1.0
 10
87.3325222204
 20
7.9991212665
 30
0.0
 10
87.332096049
 20
8.0262156028
 30
0.0
 10
87.3314538892
 20
8.0670416058
 30
0.0
 10
87.3156293674
 20
8.1215961114
 30
0.0
 10
87.2949891827
 20
8.1622625954
 30
0.0
 10
87.2583631947
 20
8.1977339027
 30
0.0
 10
87.2097575058
 20
8.2188362639
 30
0.0
 10
87.1736118347
 20
8.2205766132
 30
0.0
 10
87.1562194332
 20
8.2214140257
 30
0.0
  0
LINE
  5
274
100
AcDbEntity
  8
0
100
AcDbLine
 62
7
  6
CONTINUOUS
 10
87.1562194332
 20
8.2214140257
 11
86.45288526
 21
8.2214140257
  0
LINE
  5
275
100
AcDbEntity
  8
0
100
AcDbLine
 62
7
  6
CONTINUOUS
 10
86.4157707201
 20
8.2585285655
 11
86.4157707201
 21
8.3287529983
  0
ARC
  5
276
100
AcDbEntity
  8
0
100
AcDbCircle
 62
7
  6
CONTINUOUS
 10
86.4528852596
 20
8.3287529983
 40
0.0371145398
100
AcDbArc
 50
90.0
 51
180.0
  0
LINE
  5
277
100
AcDbEntity
  8
0
100
AcDbLine
 62
7
  6
CONTINUOUS
 10
86.45288526
 20
8.3658675381
 11
87.284953559
 21
8.3658675381
  0
ARC
  5
278
100
AcDbEntity
  8
0
100
AcDbCircle
 62
7
  6
CONTINUOUS
 10
87.284953559
 20
8.4029820779
 40
0.0371145398
100
AcDbArc
 50
270.0
 51
360.0
  0
LINE
  5
279
100
AcDbEntity
  8
0
100
AcDbLine
 62
7
  6
CONTINUOUS
 10
87.3220680989
 20
8.4029820779
 11
87.3220680989
 21
8.4787174557
  0
ARC
  5
27A
100
AcDbEntity
  8
0
100
AcDbCircle
 62
7
  6
CONTINUOUS
 10
87.284953559
 20
8.4787174557
 40
0.0371145398
100
AcDbArc
 50
0.0
 51
90.0
  0
LINE
  5
27B
100
AcDbEntity
  8
0
100
AcDbLine
 62
7
  6
CONTINUOUS
 10
87.284953559
 20
8.5158319955
 11
86.242753899
 21
8.5158319955
  0
SPLINE
  5
27C
100
AcDbEntity
  8
0
100
AcDbSpline
 62
7
  6
CONTINUOUS
 70
0
 71
3
 72
13
 73
9
 74
0
 42
0.0000001
 43
0.0000001
 44
0.0000000001
 40
0.0
 40
0.0
 40
0.0
 40
0.0
 40
0.1133740464
 40
0.2392044088
 40
0.3655787964
 40
0.4912154373
 40
0.7445390876
 40
1.0
 40
1.0
 40
1.0
 40
1.0
 10
86.242753899
 20
8.5158319955
 30
0.0
 10
86.2308480206
 20
8.5152455755
 30
0.0
 10
86.2057281749
 20
8.5140083052
 30
0.0
 10
86.1684151288
 20
8.5028602817
 30
0.0
 10
86.1350349729
 20
8.4803489504
 30
0.0
 10
86.100936846
 20
8.4388822191
 30
0.0
 10
86.0794801414
 20
8.3737849682
 30
0.0
 10
86.0771531585
 20
8.3204101597
 30
0.0
 10
86.0759847803
 20
8.2936106486
 30
0.0
  0
SPLINE
  5
27D
100
AcDbEntity
  8
0
100
AcDbSpline
 62
7
  6
CONTINUOUS
 70
0
 71
3
 72
13
 73
9
 74
0
 42
0.0000001
 43
0.0000001
 44
0.0000000001
 40
0.0
 40
0.0
 40
0.0
 40
0.0
 40
0.2554609124
 40
0.5087845627
 40
0.6344212036
 40
0.7607955912
 40
0.8866259536
 40
1.0
 40
1.0
 40
1.0
 40
1.0
 10
86.0759847803
 20
8.2936106486
 30
0.0
 10
86.0771531585
 20
8.2668111376
 30
0.0
 10
86.0794801414
 20
8.2134363285
 30
0.0
 10
86.100936846
 20
8.1483390781
 30
0.0
 10
86.1350349729
 20
8.1068723469
 30
0.0
 10
86.1684151288
 20
8.0843610155
 30
0.0
 10
86.2057281749
 20
8.073212992
 30
0.0
 10
86.2308480206
 20
8.0719757217
 30
0.0
 10
86.242753899
 20
8.0713893017
 30
0.0
  0
LINE
  5
27E
100
AcDbEntity
  8
0
100
AcDbLine
 62
7
  6
CONTINUOUS
 10
84.8714124174
 20
7.7768285072
 11
85.448094908
 21
7.7768285072
  0
LINE
  5
27F
100
AcDbEntity
  8
0
100
AcDbLine
 62
7
  6
CONTINUOUS
 10
85.448094908
 20
7.7768285072
 11
85.448094908
 21
7.7051068185
  0
ARC
  5
280
100
AcDbEntity
  8
0
100
AcDbCircle
 62
7
  6
CONTINUOUS
 10
85.462369731
 20
7.7051068185
 40
0.014274823
100
AcDbArc
 50
180.0
 51
270.0
  0
LINE
  5
281
100
AcDbEntity
  8
0
100
AcDbLine
 62
7
  6
CONTINUOUS
 10
85.462369731
 20
7.6908319955
 11
85.6846432438
 21
7.6908319955
  0
ARC
  5
282
100
AcDbEntity
  8
0
100
AcDbCircle
 62
7
  6
CONTINUOUS
 10
85.6846432438
 20
7.7051068185
 40
0.014274823
100
AcDbArc
 50
270.0
 51
360.0
  0
LINE
  5
283
100
AcDbEntity
  8
0
100
AcDbLine
 62
7
  6
CONTINUOUS
 10
85.6989180668
 20
7.7051068185
 11
85.6989180668
 21
7.7768285072
  0
LINE
  5
284
100
AcDbEntity
  8
0
100
AcDbLine
 62
7
  6
CONTINUOUS
 10
85.6989180668
 20
7.7768285072
 11
85.8123154279
 21
7.7768285072
  0
SPLINE
  5
285
100
AcDbEntity
  8
0
100
AcDbSpline
 62
7
  6
CONTINUOUS
 70
0
 71
3
 72
12
 73
8
 74
0
 42
0.0000001
 43
0.0000001
 44
0.0000000001
 40
0.0
 40
0.0
 40
0.0
 40
0.0
 40
0.2415790084
 40
0.4893269843
 40
0.7378634303
 40
0.8656387112
 40
1.0
 40
1.0
 40
1.0
 40
1.0
 10
85.8123154279
 20
7.7768285072
 30
0.0
 10
85.8326486919
 20
7.7774606455
 30
0.0
 10
85.8738344512
 20
7.7787410646
 30
0.0
 10
85.9341055124
 20
7.8002353279
 30
0.0
 10
85.9707093144
 20
7.8408108088
 30
0.0
 10
85.9868357344
 20
7.8813532201
 30
0.0
 10
85.9871263561
 20
7.9035622673
 30
0.0
 10
85.9872753179
 20
7.9149457842
 30
0.0
  0
LINE
  5
286
100
AcDbEntity
  8
0
100
AcDbLine
 62
7
  6
CONTINUOUS
 10
85.9872753179
 20
7.9149457842
 11
85.9872753179
 21
8.3768479558
  0
SPLINE
  5
287
100
AcDbEntity
  8
0
100
AcDbSpline
 62
7
  6
CONTINUOUS
 70
0
 71
3
 72
12
 73
8
 74
0
 42
0.0000001
 43
0.0000001
 44
0.0000000001
 40
0.0
 40
0.0
 40
0.0
 40
0.0
 40
0.1343612888
 40
0.2621365697
 40
0.5106730157
 40
0.7584209916
 40
1.0
 40
1.0
 40
1.0
 40
1.0
 10
85.9872753179
 20
8.3768479558
 30
0.0
 10
85.9871263561
 20
8.3882314734
 30
0.0
 10
85.9868357344
 20
8.4104405205
 30
0.0
 10
85.9707093144
 20
8.4509829318
 30
0.0
 10
85.9341055124
 20
8.4915584127
 30
0.0
 10
85.8738344512
 20
8.5130526755
 30
0.0
 10
85.8326486919
 20
8.5143330946
 30
0.0
 10
85.8123154279
 20
8.5149652328
 30
0.0
  0
LINE
  5
288
100
AcDbEntity
  8
0
100
AcDbLine
 62
7
  6
CONTINUOUS
 10
85.8123154279
 20
8.5149652328
 11
84.8714124174
 21
8.5149652328
  0
SPLINE
  5
289
100
AcDbEntity
  8
0
100
AcDbSpline
 62
7
  6
CONTINUOUS
 70
0
 71
3
 72
12
 73
8
 74
0
 42
0.0000001
 43
0.0000001
 44
0.0000000001
 40
0.0
 40
0.0
 40
0.0
 40
0.0
 40
0.1341799809
 40
0.290831959
 40
0.5815217441
 40
0.760783857
 40
1.0
 40
1.0
 40
1.0
 40
1.0
 10
84.8714124174
 20
8.5149652328
 30
0.0
 10
84.8508896523
 20
8.5114576976
 30
0.0
 10
84.8064070409
 20
8.5038551963
 30
0.0
 10
84.7315277037
 20
8.4479130175
 30
0.0
 10
84.6960610495
 20
8.3537959193
 30
0.0
 10
84.6753098272
 20
8.2471055141
 30
0.0
 10
84.673752098
 20
8.1825742942
 30
0.0
 10
84.6728616477
 20
8.1456860943
 30
0.0
  0
SPLINE
  5
28A
100
AcDbEntity
  8
0
100
AcDbSpline
 62
7
  6
CONTINUOUS
 70
0
 71
3
 72
12
 73
8
 74
0
 42
0.0000001
 43
0.0000001
 44
0.0000000001
 40
0.0
 40
0.0
 40
0.0
 40
0.0
 40
0.2392679579
 40
0.4185688994
 40
0.7093216488
 40
0.8660075581
 40
1.0
 40
1.0
 40
1.0
 40
1.0
 10
84.6728616477
 20
8.1456860943
 30
0.0
 10
84.6737524537
 20
8.1087993321
 30
0.0
 10
84.6753108048
 20
8.0442706274
 30
0.0
 10
84.6960575493
 20
7.9375621172
 30
0.0
 10
84.7315458727
 20
7.8435326407
 30
0.0
 10
84.80634725
 20
7.7874088062
 30
0.0
 10
84.8508830076
 20
7.780166811
 30
0.0
 10
84.8714124174
 20
7.7768285072
 30
0.0
  0
LINE
  5
28B
100
AcDbEntity
  8
0
100
AcDbLine
 62
7
  6
CONTINUOUS
 10
85.7972134548
 20
7.9668673753
 11
85.7972134548
 21
8.3369563702
  0
ARC
  5
28C
100
AcDbEntity
  8
0
100
AcDbCircle
 62
7
  6
CONTINUOUS
 10
85.0185636441
 20
7.9668673753
 40
0.0371145398
100
AcDbArc
 50
180.0
 51
270.0
  0
LINE
  5
28D
100
AcDbEntity
  8
0
100
AcDbLine
 62
7
  6
CONTINUOUS
 10
85.0185636441
 20
7.9297528355
 11
85.4448483233
 21
7.9297528355
  0
LINE
  5
28E
100
AcDbEntity
  8
0
100
AcDbLine
 62
7
  6
CONTINUOUS
 10
85.4448483233
 20
7.9297528355
 11
85.4448483233
 21
8.0012522988
  0
ARC
  5
28F
100
AcDbEntity
  8
0
100
AcDbCircle
 62
7
  6
CONTINUOUS
 10
85.4591231466
 20
8.0012522988
 40
0.014274823
100
AcDbArc
 50
90.0
 51
180.0
  0
LINE
  5
290
100
AcDbEntity
  8
0
100
AcDbLine
 62
7
  6
CONTINUOUS
 10
85.4591231463
 20
8.0155271218
 11
85.6802639034
 21
8.0155271218
  0
ARC
  5
291
100
AcDbEntity
  8
0
100
AcDbCircle
 62
7
  6
CONTINUOUS
 10
85.6802639029
 20
8.0012522994
 40
0.014274823
100
AcDbArc
 50
0.0
 51
90.0
  0
LINE
  5
292
100
AcDbEntity
  8
0
100
AcDbLine
 62
7
  6
CONTINUOUS
 10
85.6945387264
 20
7.9297528355
 11
85.760098915
 21
7.9297528355
  0
ARC
  5
293
100
AcDbEntity
  8
0
100
AcDbCircle
 62
7
  6
CONTINUOUS
 10
85.760098915
 20
7.9668673753
 40
0.0371145398
100
AcDbArc
 50
270.0
 51
360.0
  0
LINE
  5
294
100
AcDbEntity
  8
0
100
AcDbLine
 62
7
  6
CONTINUOUS
 10
85.6945387264
 20
7.9297528355
 11
85.6945387264
 21
8.0012522988
  0
LINE
  5
295
100
AcDbEntity
  8
0
100
AcDbLine
 62
7
  6
CONTINUOUS
 10
84.9814491043
 20
7.9668673753
 11
84.9814491043
 21
8.3369563702
  0
ARC
  5
296
100
AcDbEntity
  8
0
100
AcDbCircle
 62
7
  6
CONTINUOUS
 10
85.0185636446
 20
8.3369563702
 40
0.0371145398
100
AcDbArc
 50
90.0
 51
180.0
  0
LINE
  5
297
100
AcDbEntity
  8
0
100
AcDbLine
 62
7
  6
CONTINUOUS
 10
85.0185636441
 20
8.37407091
 11
85.760098915
 21
8.37407091
  0
ARC
  5
298
100
AcDbEntity
  8
0
100
AcDbCircle
 62
7
  6
CONTINUOUS
 10
85.7600989153
 20
8.3369563699
 40
0.0371145398
100
AcDbArc
 50
0.0000000277
 51
90.0000000277
  0
ARC
  5
299
100
AcDbEntity
  8
0
100
AcDbCircle
 62
7
  6
CONTINUOUS
 10
86.45288526
 20
8.2585285655
 40
0.0371145398
100
AcDbArc
 50
180.0
 51
270.0
  0
ARC
  5
29A
100
AcDbEntity
  8
0
100
AcDbCircle
 62
7
  6
CONTINUOUS
 10
86.9555897017
 20
7.9584907053
 40
0.0371145398
100
AcDbArc
 50
270.0
 51
360.0
  0
ARC
  5
29B
100
AcDbEntity
  8
0
100
AcDbCircle
 62
7
  6
CONTINUOUS
 10
87.7677117757
 20
7.9617058836
 40
0.0371145398
100
AcDbArc
 50
180.0
 51
270.0
  0
ENDBLK
  5
29C
100
AcDbEntity
  8
0
  6
BYBLOCK
 62
0
100
AcDbBlockEnd
  0
BLOCK
  5
29D
100
AcDbEntity
  8
0
100
AcDbBlockBegin
  2
_FILLED
 70
64
 10
0.0
 20
0.0
  3
_FILLED
  1

  0
SOLID
  5
29E
100
AcDbEntity
  8
0
  6
BYBLOCK
 62
0
100
AcDbTrace
 10
0.0
 20
0.0
 11
-1.0
 21
0.1666666667
 12
-1.0
 22
-0.1666666667
 13
-1.0
 23
-0.1666666667
  0
ENDBLK
  5
29F
100
AcDbEntity
  8
0
  6
BYBLOCK
 62
0
100
AcDbBlockEnd
  0
BLOCK
  5
2A0
100
AcDbEntity
  8
0
100
AcDbBlockBegin
 62
2
  6
CONTINUOUS
  2
*D0
 70
65
 10
0.0
 20
0.0
  3
*D0
  1

  0
MTEXT
  5
2A1
100
AcDbEntity
  8
0
100
AcDbMText
 62
2
  6
CONTINUOUS
  7
STANDARD
 71
3
 72
1
 10
16.2128177472
 20
55.9657378703
 30
0.0
 11
1.0
 21
0.0
 31
0.0
 44
0.9
  1
1.0\P[25]
 40
0.46875
 41
1.6573660714
  0
LINE
  5
2A2
100
AcDbEntity
  8
0
100
AcDbLine
 62
2
  6
CONTINUOUS
 10
18.5533102148
 20
54.4939387053
 11
18.5533102148
 21
56.1063628703
  0
LINE
  5
2A3
100
AcDbEntity
  8
0
100
AcDbLine
 62
2
  6
CONTINUOUS
 10
17.5533102148
 20
54.2536075451
 11
17.5533102148
 21
56.1063628703
  0
LINE
  5
2A4
100
AcDbEntity
  8
0
100
AcDbLine
 62
2
  6
CONTINUOUS
 10
18.5533102148
 20
55.7313628703
 11
20.0533102148
 21
55.7313628703
  0
LINE
  5
2A5
100
AcDbEntity
  8
0
100
AcDbLine
 62
2
  6
CONTINUOUS
 10
17.5533102148
 20
55.7313628703
 11
16.6480856043
 21
55.7313628703
  0
INSERT
  5
2A6
100
AcDbEntity
  8
0
100
AcDbBlockReference
 62
2
  6
CONTINUOUS
  2
_FILLED
 10
18.5533102148
 20
55.7313628703
 41
0.5625
 42
0.5625
 43
0.5625
 50
180.0
  0
INSERT
  5
2A7
100
AcDbEntity
  8
0
100
AcDbBlockReference
 62
2
  6
CONTINUOUS
  2
_FILLED
 10
17.5533102148
 20
55.7313628703
 41
0.5625
 42
0.5625
 43
0.5625
  0
ENDBLK
  5
2A8
100
AcDbEntity
  8
0
  6
BYBLOCK
 62
0
100
AcDbBlockEnd
  0
BLOCK
  5
2A9
100
AcDbEntity
  8
0
100
AcDbBlockBegin
 62
2
  6
CONTINUOUS
  2
*D1
 70
65
 10
0.0
 20
0.0
  3
*D1
  1

  0
MTEXT
  5
2AA
100
AcDbEntity
  8
0
100
AcDbMText
 62
2
  6
CONTINUOUS
  7
STANDARD
 71
2
 72
1
 10
18.5533102148
 20
57.8244285111
 30
0.0
 11
1.0
 21
0.0
 31
0.0
 44
0.9
  1
2.0\P[51]
 40
0.46875
 41
1.5066964286
  0
LINE
  5
2AB
100
AcDbEntity
  8
0
100
AcDbLine
 62
2
  6
CONTINUOUS
 10
17.5533102148
 20
54.2536075451
 11
17.5533102148
 21
57.9650535111
  0
LINE
  5
2AC
100
AcDbEntity
  8
0
100
AcDbLine
 62
2
  6
CONTINUOUS
 10
19.5533102148
 20
54.2536075451
 11
19.5533102148
 21
57.9650535111
  0
LINE
  5
2AD
100
AcDbEntity
  8
0
100
AcDbLine
 62
2
  6
CONTINUOUS
 10
17.5533102148
 20
57.5900535111
 11
16.0533102148
 21
57.5900535111
  0
LINE
  5
2AE
100
AcDbEntity
  8
0
100
AcDbLine
 62
2
  6
CONTINUOUS
 10
19.5533102148
 20
57.5900535111
 11
21.0533102148
 21
57.5900535111
  0
INSERT
  5
2AF
100
AcDbEntity
  8
0
100
AcDbBlockReference
 62
2
  6
CONTINUOUS
  2
_FILLED
 10
17.5533102148
 20
57.5900535111
 41
0.5625
 42
0.5625
 43
0.5625
  0
INSERT
  5
2B0
100
AcDbEntity
  8
0
100
AcDbBlockReference
 62
2
  6
CONTINUOUS
  2
_FILLED
 10
19.5533102148
 20
57.5900535111
 41
0.5625
 42
0.5625
 43
0.5625
 50
180.0
  0
ENDBLK
  5
2B1
100
AcDbEntity
  8
0
  6
BYBLOCK
 62
0
100
AcDbBlockEnd
  0
BLOCK
  5
2B2
100
AcDbEntity
  8
0
100
AcDbBlockBegin
 62
2
  6
CONTINUOUS
  2
*D2
 70
65
 10
0.0
 20
0.0
  3
*D2
  1

  0
MTEXT
  5
2B3
100
AcDbEntity
  8
0
100
AcDbMText
 62
2
  6
CONTINUOUS
  7
STANDARD
 71
3
 72
1
 10
6.4723704033
 20
55.3031923967
 30
0.0
 11
1.0
 21
0.0
 31
0.0
 44
0.9
  1
.9\P[24]
 40
0.46875
 41
1.7075892857
  0
LINE
  5
2B4
100
AcDbEntity
  8
0
100
AcDbLine
 62
2
  6
CONTINUOUS
 10
10.4917944668
 20
52.6062650255
 11
7.440109895
 21
52.6062650255
  0
LINE
  5
2B5
100
AcDbEntity
  8
0
100
AcDbLine
 62
2
  6
CONTINUOUS
 10
17.2221094274
 20
53.5474067577
 11
7.440109895
 21
53.5474067577
  0
LINE
  5
2B6
100
AcDbEntity
  8
0
100
AcDbLine
 62
2
  6
CONTINUOUS
 10
7.815109895
 20
52.6062650255
 11
7.815109895
 21
51.1062650255
  0
LINE
  5
2B7
100
AcDbEntity
  8
0
100
AcDbLine
 62
2
  6
CONTINUOUS
 10
7.815109895
 20
53.5474067577
 11
7.815109895
 21
55.0688173967
  0
LINE
  5
2B8
100
AcDbEntity
  8
0
100
AcDbLine
 62
2
  6
CONTINUOUS
 10
7.815109895
 20
55.0688173967
 11
7.2089775462
 21
55.0688173967
  0
INSERT
  5
2B9
100
AcDbEntity
  8
0
100
AcDbBlockReference
 62
2
  6
CONTINUOUS
  2
_FILLED
 10
7.815109895
 20
52.6062650255
 41
0.5625
 42
0.5625
 43
0.5625
 50
90.0
  0
INSERT
  5
2BA
100
AcDbEntity
  8
0
100
AcDbBlockReference
 62
2
  6
CONTINUOUS
  2
_FILLED
 10
7.815109895
 20
53.5474067577
 41
0.5625
 42
0.5625
 43
0.5625
 50
270.0
  0
ENDBLK
  5
2BB
100
AcDbEntity
  8
0
  6
BYBLOCK
 62
0
100
AcDbBlockEnd
  0
BLOCK
  5
2BC
100
AcDbEntity
  8
0
100
AcDbBlockBegin
 62
2
  6
CONTINUOUS
  2
*D3
 70
65
 10
0.0
 20
0.0
  3
*D3
  1

  0
MTEXT
  5
2BD
100
AcDbEntity
  8
0
100
AcDbMText
 62
2
  6
CONTINUOUS
  7
STANDARD
 71
2
 72
1
 10
18.3691584291
 20
59.9890033707
 30
0.0
 11
1.0
 21
0.0
 31
0.0
 44
0.9
  1
6.9\P[175]
 40
0.46875
 41
2.0591517857
  0
LINE
  5
2BE
100
AcDbEntity
  8
0
100
AcDbLine
 62
2
  6
CONTINUOUS
 10
15.1025228133
 20
53.4118752617
 11
15.1025228133
 21
60.1296283707
  0
LINE
  5
2BF
100
AcDbEntity
  8
0
100
AcDbLine
 62
2
  6
CONTINUOUS
 10
22.0040976164
 20
53.4118752617
 11
22.0040976164
 21
60.1296283707
  0
LINE
  5
2C0
100
AcDbEntity
  8
0
100
AcDbLine
 62
2
  6
CONTINUOUS
 10
15.1025228133
 20
59.7546283707
 11
17.6325512863
 21
59.7546283707
  0
LINE
  5
2C1
100
AcDbEntity
  8
0
100
AcDbLine
 62
2
  6
CONTINUOUS
 10
22.0040976164
 20
59.7546283707
 11
19.4740691434
 21
59.7546283707
  0
INSERT
  5
2C2
100
AcDbEntity
  8
0
100
AcDbBlockReference
 62
2
  6
CONTINUOUS
  2
_FILLED
 10
15.1025228133
 20
59.7546283707
 41
0.5625
 42
0.5625
 43
0.5625
 50
180.0
  0
INSERT
  5
2C3
100
AcDbEntity
  8
0
100
AcDbBlockReference
 62
2
  6
CONTINUOUS
  2
_FILLED
 10
22.0040976164
 20
59.7546283707
 41
0.5625
 42
0.5625
 43
0.5625
  0
ENDBLK
  5
2C4
100
AcDbEntity
  8
0
  6
BYBLOCK
 62
0
100
AcDbBlockEnd
  0
BLOCK
  5
2C5
100
AcDbEntity
  8
0
100
AcDbBlockBegin
 62
2
  6
CONTINUOUS
  2
*D4
 70
65
 10
0.0
 20
0.0
  3
*D4
  1

  0
MTEXT
  5
2C6
100
AcDbEntity
  8
0
100
AcDbMText
 62
2
  6
CONTINUOUS
  7
STANDARD
 71
2
 72
1
 10
18.4193816434
 20
37.5039625149
 30
0.0
 11
1.0
 21
0.0
 31
0.0
 44
0.9
  1
15.7\P[400]
 40
0.46875
 41
2.2600446429
  0
LINE
  5
2C7
100
AcDbEntity
  8
0
100
AcDbLine
 62
2
  6
CONTINUOUS
 10
10.6792944668
 20
34.4245404811
 11
10.6792944668
 21
37.6445875149
  0
LINE
  5
2C8
100
AcDbEntity
  8
0
100
AcDbLine
 62
2
  6
CONTINUOUS
 10
26.4273259629
 20
34.4245404811
 11
26.4273259629
 21
37.6445875149
  0
LINE
  5
2C9
100
AcDbEntity
  8
0
100
AcDbLine
 62
2
  6
CONTINUOUS
 10
10.6792944668
 20
37.2695875149
 11
17.5655870006
 21
37.2695875149
  0
LINE
  5
2CA
100
AcDbEntity
  8
0
100
AcDbLine
 62
2
  6
CONTINUOUS
 10
26.4273259629
 20
37.2695875149
 11
19.5410334291
 21
37.2695875149
  0
INSERT
  5
2CB
100
AcDbEntity
  8
0
100
AcDbBlockReference
 62
2
  6
CONTINUOUS
  2
_FILLED
 10
10.6792944668
 20
37.2695875149
 41
0.5625
 42
0.5625
 43
0.5625
 50
180.0
  0
INSERT
  5
2CC
100
AcDbEntity
  8
0
100
AcDbBlockReference
 62
2
  6
CONTINUOUS
  2
_FILLED
 10
26.4273259629
 20
37.2695875149
 41
0.5625
 42
0.5625
 43
0.5625
  0
ENDBLK
  5
2CD
100
AcDbEntity
  8
0
  6
BYBLOCK
 62
0
100
AcDbBlockEnd
  0
BLOCK
  5
2CE
100
AcDbEntity
  8
0
100
AcDbBlockBegin
 62
2
  6
CONTINUOUS
  2
*D5
 70
65
 10
0.0
 20
0.0
  3
*D5
  1

  0
MTEXT
  5
2CF
100
AcDbEntity
  8
0
100
AcDbMText
 62
2
  6
CONTINUOUS
  7
STANDARD
 71
2
 72
1
 10
50.3365099368
 20
13.1163894507
 30
0.0
 11
1.0
 21
0.0
 31
0.0
 44
0.9
  1
3.8\P[95]
 40
0.46875
 41
1.6573660714
  0
LINE
  5
2D0
100
AcDbEntity
  8
0
100
AcDbLine
 62
2
  6
CONTINUOUS
 10
52.2784742225
 20
14.6007215834
 11
52.2784742225
 21
12.5070144507
  0
LINE
  5
2D1
100
AcDbEntity
  8
0
100
AcDbLine
 62
2
  6
CONTINUOUS
 10
48.5284742225
 20
25.3974344207
 11
48.5284742225
 21
12.5070144507
  0
LINE
  5
2D2
100
AcDbEntity
  8
0
100
AcDbLine
 62
2
  6
CONTINUOUS
 10
52.2784742225
 20
12.8820144507
 11
53.7784742225
 21
12.8820144507
  0
LINE
  5
2D3
100
AcDbEntity
  8
0
100
AcDbLine
 62
2
  6
CONTINUOUS
 10
48.5284742225
 20
12.8820144507
 11
47.0284742225
 21
12.8820144507
  0
INSERT
  5
2D4
100
AcDbEntity
  8
0
100
AcDbBlockReference
 62
2
  6
CONTINUOUS
  2
_FILLED
 10
52.2784742225
 20
12.8820144507
 41
0.5625
 42
0.5625
 43
0.5625
 50
180.0
  0
INSERT
  5
2D5
100
AcDbEntity
  8
0
100
AcDbBlockReference
 62
2
  6
CONTINUOUS
  2
_FILLED
 10
48.5284742225
 20
12.8820144507
 41
0.5625
 42
0.5625
 43
0.5625
  0
ENDBLK
  5
2D6
100
AcDbEntity
  8
0
  6
BYBLOCK
 62
0
100
AcDbBlockEnd
  0
BLOCK
  5
2D7
100
AcDbEntity
  8
0
100
AcDbBlockBegin
 62
2
  6
CONTINUOUS
  2
*D6
 70
65
 10
0.0
 20
0.0
  3
*D6
  1

  0
MTEXT
  5
2D8
100
AcDbEntity
  8
0
100
AcDbMText
 62
2
  6
CONTINUOUS
  7
STANDARD
 71
2
 72
1
 10
37.1573535018
 20
30.5964154811
 30
0.0
 11
1.0
 21
0.0
 31
0.0
 44
0.9
  1
7.8\P[197]
 40
0.46875
 41
2.109375
  0
LINE
  5
2D9
100
AcDbEntity
  8
0
100
AcDbLine
 62
2
  6
CONTINUOUS
 10
42.327194695
 20
34.2370404811
 11
36.983246359
 21
34.2370404811
  0
LINE
  5
2DA
100
AcDbEntity
  8
0
100
AcDbLine
 62
2
  6
CONTINUOUS
 10
47.8224595173
 20
26.4870404811
 11
36.983246359
 21
26.4870404811
  0
LINE
  5
2DB
100
AcDbEntity
  8
0
100
AcDbLine
 62
2
  6
CONTINUOUS
 10
37.358246359
 20
34.2370404811
 11
37.358246359
 21
30.8307904811
  0
LINE
  5
2DC
100
AcDbEntity
  8
0
100
AcDbLine
 62
2
  6
CONTINUOUS
 10
37.358246359
 20
26.4870404811
 11
37.358246359
 21
29.1901654811
  0
INSERT
  5
2DD
100
AcDbEntity
  8
0
100
AcDbBlockReference
 62
2
  6
CONTINUOUS
  2
_FILLED
 10
37.358246359
 20
34.2370404811
 41
0.5625
 42
0.5625
 43
0.5625
 50
90.0
  0
INSERT
  5
2DE
100
AcDbEntity
  8
0
100
AcDbBlockReference
 62
2
  6
CONTINUOUS
  2
_FILLED
 10
37.358246359
 20
26.4870404811
 41
0.5625
 42
0.5625
 43
0.5625
 50
270.0
  0
ENDBLK
  5
2DF
100
AcDbEntity
  8
0
  6
BYBLOCK
 62
0
100
AcDbBlockEnd
  0
BLOCK
  5
2E0
100
AcDbEntity
  8
0
100
AcDbBlockBegin
 62
2
  6
CONTINUOUS
  2
*D7
 70
65
 10
0.0
 20
0.0
  3
*D7
  1

  0
MTEXT
  5
2E1
100
AcDbEntity
  8
0
100
AcDbMText
 62
2
  6
CONTINUOUS
  7
STANDARD
 71
2
 72
1
 10
49.8969092769
 20
10.6153442903
 30
0.0
 11
1.0
 21
0.0
 31
0.0
 44
0.9
  1
5.1\P[129]
 40
0.46875
 41
2.109375
  0
LINE
  5
2E2
100
AcDbEntity
  8
0
100
AcDbLine
 62
2
  6
CONTINUOUS
 10
52.2784742225
 20
14.6007215834
 11
52.2784742225
 21
10.0059692903
  0
LINE
  5
2E3
100
AcDbEntity
  8
0
100
AcDbLine
 62
2
  6
CONTINUOUS
 10
47.1961242507
 20
14.6007215834
 11
47.1961242507
 21
10.0059692903
  0
LINE
  5
2E4
100
AcDbEntity
  8
0
100
AcDbLine
 62
2
  6
CONTINUOUS
 10
52.2784742225
 20
10.3809692903
 11
51.1022664198
 21
10.3809692903
  0
LINE
  5
2E5
100
AcDbEntity
  8
0
100
AcDbLine
 62
2
  6
CONTINUOUS
 10
47.1961242507
 20
10.3809692903
 11
49.2272664198
 21
10.3809692903
  0
INSERT
  5
2E6
100
AcDbEntity
  8
0
100
AcDbBlockReference
 62
2
  6
CONTINUOUS
  2
_FILLED
 10
52.2784742225
 20
10.3809692903
 41
0.5625
 42
0.5625
 43
0.5625
  0
INSERT
  5
2E7
100
AcDbEntity
  8
0
100
AcDbBlockReference
 62
2
  6
CONTINUOUS
  2
_FILLED
 10
47.1961242507
 20
10.3809692903
 41
0.5625
 42
0.5625
 43
0.5625
 50
180.0
  0
ENDBLK
  5
2E8
100
AcDbEntity
  8
0
  6
BYBLOCK
 62
0
100
AcDbBlockEnd
  0
BLOCK
  5
2E9
100
AcDbEntity
  8
0
100
AcDbBlockBegin
 62
2
  6
CONTINUOUS
  2
*D8
 70
65
 10
0.0
 20
0.0
  3
*D8
  1

  0
MTEXT
  5
2EA
100
AcDbEntity
  8
0
100
AcDbMText
 62
2
  6
CONTINUOUS
  7
STANDARD
 71
2
 72
1
 10
47.0656933587
 20
39.0542098094
 30
0.0
 11
1.0
 21
0.0
 31
0.0
 44
0.9
  1
10.3\P[261]
 40
0.46875
 41
2.109375
  0
LINE
  5
2EB
100
AcDbEntity
  8
0
100
AcDbLine
 62
2
  6
CONTINUOUS
 10
52.2784742225
 20
32.5886835592
 11
52.2784742225
 21
39.1948348094
  0
LINE
  5
2EC
100
AcDbEntity
  8
0
100
AcDbLine
 62
2
  6
CONTINUOUS
 10
42.0203232091
 20
34.2920740406
 11
42.0203232091
 21
39.1948348094
  0
LINE
  5
2ED
100
AcDbEntity
  8
0
100
AcDbLine
 62
2
  6
CONTINUOUS
 10
52.2784742225
 20
38.8198348094
 11
48.0868987158
 21
38.8198348094
  0
LINE
  5
2EE
100
AcDbEntity
  8
0
100
AcDbLine
 62
2
  6
CONTINUOUS
 10
42.0203232091
 20
38.8198348094
 11
46.2118987158
 21
38.8198348094
  0
INSERT
  5
2EF
100
AcDbEntity
  8
0
100
AcDbBlockReference
 62
2
  6
CONTINUOUS
  2
_FILLED
 10
52.2784742225
 20
38.8198348094
 41
0.5625
 42
0.5625
 43
0.5625
  0
INSERT
  5
2F0
100
AcDbEntity
  8
0
100
AcDbBlockReference
 62
2
  6
CONTINUOUS
  2
_FILLED
 10
42.0203232091
 20
38.8198348094
 41
0.5625
 42
0.5625
 43
0.5625
 50
180.0
  0
ENDBLK
  5
2F1
100
AcDbEntity
  8
0
  6
BYBLOCK
 62
0
100
AcDbBlockEnd
  0
BLOCK
  5
2F2
100
AcDbEntity
  8
0
100
AcDbBlockBegin
 62
2
  6
CONTINUOUS
  2
*D9
 70
65
 10
0.0
 20
0.0
  3
*D9
  1

  0
MTEXT
  5
2F3
100
AcDbEntity
  8
0
100
AcDbMText
 62
2
  6
CONTINUOUS
  7
STANDARD
 71
2
 72
1
 10
55.7553594448
 20
33.7659830567
 30
0.0
 11
1.0
 21
0.0
 31
0.0
 44
0.9
  1
2.0\P[52]
 40
0.46875
 41
1.6573660714
  0
LINE
  5
2F4
100
AcDbEntity
  8
0
100
AcDbLine
 62
2
  6
CONTINUOUS
 10
48.5289663485
 20
34.2370404811
 11
56.180582659
 21
34.2370404811
  0
LINE
  5
2F5
100
AcDbEntity
  8
0
100
AcDbLine
 62
2
  6
CONTINUOUS
 10
53.765186821
 20
32.1895995362
 11
56.180582659
 21
32.1895995362
  0
LINE
  5
2F6
100
AcDbEntity
  8
0
100
AcDbLine
 62
2
  6
CONTINUOUS
 10
55.805582659
 20
34.2370404811
 11
55.805582659
 21
35.7370404811
  0
LINE
  5
2F7
100
AcDbEntity
  8
0
100
AcDbLine
 62
2
  6
CONTINUOUS
 10
55.805582659
 20
32.1895995362
 11
55.805582659
 21
30.6895995362
  0
INSERT
  5
2F8
100
AcDbEntity
  8
0
100
AcDbBlockReference
 62
2
  6
CONTINUOUS
  2
_FILLED
 10
55.805582659
 20
34.2370404811
 41
0.5625
 42
0.5625
 43
0.5625
 50
270.0
  0
INSERT
  5
2F9
100
AcDbEntity
  8
0
100
AcDbBlockReference
 62
2
  6
CONTINUOUS
  2
_FILLED
 10
55.805582659
 20
32.1895995362
 41
0.5625
 42
0.5625
 43
0.5625
 50
90.0
  0
ENDBLK
  5
2FA
100
AcDbEntity
  8
0
  6
BYBLOCK
 62
0
100
AcDbBlockEnd
  0
BLOCK
  5
2FB
100
AcDbEntity
  8
0
100
AcDbBlockBegin
 62
2
  6
CONTINUOUS
  2
*D10
 70
65
 10
0.0
 20
0.0
  3
*D10
  1

  0
MTEXT
  5
2FC
100
AcDbEntity
  8
0
100
AcDbMText
 62
2
  6
CONTINUOUS
  7
STANDARD
 71
2
 72
1
 10
55.6024139349
 20
29.4449866437
 30
0.0
 11
1.0
 21
0.0
 31
0.0
 44
0.9
  1
6.5\P[165]
 40
0.46875
 41
2.0591517857
  0
LINE
  5
2FD
100
AcDbEntity
  8
0
100
AcDbLine
 62
2
  6
CONTINUOUS
 10
53.765186821
 20
32.1895995362
 11
56.1783067921
 21
32.1895995362
  0
LINE
  5
2FE
100
AcDbEntity
  8
0
100
AcDbLine
 62
2
  6
CONTINUOUS
 10
53.0840844587
 20
25.6947176464
 11
56.1783067921
 21
25.6947176464
  0
LINE
  5
2FF
100
AcDbEntity
  8
0
100
AcDbLine
 62
2
  6
CONTINUOUS
 10
55.8033067921
 20
32.1895995362
 11
55.8033067921
 21
29.6793616437
  0
LINE
  5
300
100
AcDbEntity
  8
0
100
AcDbLine
 62
2
  6
CONTINUOUS
 10
55.8033067921
 20
25.6947176464
 11
55.8033067921
 21
28.0387366437
  0
INSERT
  5
301
100
AcDbEntity
  8
0
100
AcDbBlockReference
 62
2
  6
CONTINUOUS
  2
_FILLED
 10
55.8033067921
 20
32.1895995362
 41
0.5625
 42
0.5625
 43
0.5625
 50
90.0
  0
INSERT
  5
302
100
AcDbEntity
  8
0
100
AcDbBlockReference
 62
2
  6
CONTINUOUS
  2
_FILLED
 10
55.8033067921
 20
25.6947176464
 41
0.5625
 42
0.5625
 43
0.5625
 50
270.0
  0
ENDBLK
  5
303
100
AcDbEntity
  8
0
  6
BYBLOCK
 62
0
100
AcDbBlockEnd
  0
BLOCK
  5
304
100
AcDbEntity
  8
0
100
AcDbBlockBegin
 62
2
  6
CONTINUOUS
  2
*D11
 70
65
 10
0.0
 20
0.0
  3
*D11
  1

  0
MTEXT
  5
305
100
AcDbEntity
  8
0
100
AcDbMText
 62
2
  6
CONTINUOUS
  7
STANDARD
 71
2
 72
1
 10
34.2853931453
 20
24.7470060322
 30
0.0
 11
1.0
 21
0.0
 31
0.0
 44
0.9
  1
19.4\P[494]
 40
0.46875
 41
2.2600446429
  0
LINE
  5
306
100
AcDbEntity
  8
0
100
AcDbLine
 62
2
  6
CONTINUOUS
 10
42.327194695
 20
34.2370404811
 11
34.0275806453
 21
34.2370404811
  0
LINE
  5
307
100
AcDbEntity
  8
0
100
AcDbLine
 62
2
  6
CONTINUOUS
 10
47.0086242507
 20
14.7882215834
 11
34.0275806453
 21
14.7882215834
  0
LINE
  5
308
100
AcDbEntity
  8
0
100
AcDbLine
 62
2
  6
CONTINUOUS
 10
34.4025806453
 20
34.2370404811
 11
34.4025806453
 21
24.9813810322
  0
LINE
  5
309
100
AcDbEntity
  8
0
100
AcDbLine
 62
2
  6
CONTINUOUS
 10
34.4025806453
 20
14.7882215834
 11
34.4025806453
 21
23.3407560322
  0
INSERT
  5
30A
100
AcDbEntity
  8
0
100
AcDbBlockReference
 62
2
  6
CONTINUOUS
  2
_FILLED
 10
34.4025806453
 20
34.2370404811
 41
0.5625
 42
0.5625
 43
0.5625
 50
90.0
  0
INSERT
  5
30B
100
AcDbEntity
  8
0
100
AcDbBlockReference
 62
2
  6
CONTINUOUS
  2
_FILLED
 10
34.4025806453
 20
14.7882215834
 41
0.5625
 42
0.5625
 43
0.5625
 50
270.0
  0
ENDBLK
  5
30C
100
AcDbEntity
  8
0
  6
BYBLOCK
 62
0
100
AcDbBlockEnd
  0
BLOCK
  5
30D
100
AcDbEntity
  8
0
100
AcDbBlockBegin
 62
2
  6
CONTINUOUS
  2
*D12
 70
65
 10
0.0
 20
0.0
  3
*D12
  1

  0
MTEXT
  5
30E
100
AcDbEntity
  8
0
100
AcDbMText
 62
2
  6
CONTINUOUS
  7
STANDARD
 71
1
 72
1
 10
29.5808328526
 20
55.6747402239
 30
0.0
 11
1.0
 21
0.0
 31
0.0
 44
0.9
  1
1.3\P[33]
 40
0.46875
 41
1.6071428571
  0
LINE
  5
30F
100
AcDbEntity
  8
0
100
AcDbLine
 62
2
  6
CONTINUOUS
 10
26.6148259629
 20
52.6062650255
 11
29.2058328526
 21
52.6062650255
  0
LINE
  5
310
100
AcDbEntity
  8
0
100
AcDbLine
 62
2
  6
CONTINUOUS
 10
20.6502590337
 20
53.9054776239
 11
29.2058328526
 21
53.9054776239
  0
LINE
  5
311
100
AcDbEntity
  8
0
100
AcDbLine
 62
2
  6
CONTINUOUS
 10
28.8308328526
 20
52.6062650255
 11
28.8308328526
 21
51.1062650255
  0
LINE
  5
312
100
AcDbEntity
  8
0
100
AcDbLine
 62
2
  6
CONTINUOUS
 10
28.8308328526
 20
53.9054776239
 11
28.8308328526
 21
55.4403652239
  0
LINE
  5
313
100
AcDbEntity
  8
0
100
AcDbLine
 62
2
  6
CONTINUOUS
 10
28.8308328526
 20
55.4403652239
 11
29.3464578526
 21
55.4403652239
  0
INSERT
  5
314
100
AcDbEntity
  8
0
100
AcDbBlockReference
 62
2
  6
CONTINUOUS
  2
_FILLED
 10
28.8308328526
 20
52.6062650255
 41
0.5625
 42
0.5625
 43
0.5625
 50
90.0
  0
INSERT
  5
315
100
AcDbEntity
  8
0
100
AcDbBlockReference
 62
2
  6
CONTINUOUS
  2
_FILLED
 10
28.8308328526
 20
53.9054776239
 41
0.5625
 42
0.5625
 43
0.5625
 50
270.0
  0
ENDBLK
  5
316
100
AcDbEntity
  8
0
  6
BYBLOCK
 62
0
100
AcDbBlockEnd
  0
BLOCK
  5
317
100
AcDbEntity
  8
0
100
AcDbBlockBegin
 62
2
  6
CONTINUOUS
  2
*D13
 70
65
 10
0.0
 20
0.0
  3
*D13
  1

  0
MTEXT
  5
318
100
AcDbEntity
  8
0
100
AcDbMText
 62
2
  6
CONTINUOUS
  7
STANDARD
 71
2
 72
1
 10
39.9061738264
 20
30.8464154811
 30
0.0
 11
1.0
 21
0.0
 31
0.0
 44
0.9
  1
7.3\P[184]
 40
0.46875
 41
2.109375
  0
LINE
  5
319
100
AcDbEntity
  8
0
100
AcDbLine
 62
2
  6
CONTINUOUS
 10
42.327194695
 20
34.2370404811
 11
39.748807755
 21
34.2370404811
  0
LINE
  5
31A
100
AcDbEntity
  8
0
100
AcDbLine
 62
2
  6
CONTINUOUS
 10
47.7655805217
 20
26.9870404811
 11
39.748807755
 21
26.9870404811
  0
LINE
  5
31B
100
AcDbEntity
  8
0
100
AcDbLine
 62
2
  6
CONTINUOUS
 10
40.123807755
 20
34.2370404811
 11
40.123807755
 21
31.0807904811
  0
LINE
  5
31C
100
AcDbEntity
  8
0
100
AcDbLine
 62
2
  6
CONTINUOUS
 10
40.123807755
 20
26.9870404811
 11
40.123807755
 21
29.4401654811
  0
INSERT
  5
31D
100
AcDbEntity
  8
0
100
AcDbBlockReference
 62
2
  6
CONTINUOUS
  2
_FILLED
 10
40.123807755
 20
34.2370404811
 41
0.5625
 42
0.5625
 43
0.5625
 50
90.0
  0
INSERT
  5
31E
100
AcDbEntity
  8
0
100
AcDbBlockReference
 62
2
  6
CONTINUOUS
  2
_FILLED
 10
40.123807755
 20
26.9870404811
 41
0.5625
 42
0.5625
 43
0.5625
 50
270.0
  0
ENDBLK
  5
31F
100
AcDbEntity
  8
0
  6
BYBLOCK
 62
0
100
AcDbBlockEnd
  0
BLOCK
  5
320
100
AcDbEntity
  8
0
100
AcDbBlockBegin
 62
2
  6
CONTINUOUS
  2
*D14
 70
65
 10
0.0
 20
0.0
  3
*D14
  1

  0
MTEXT
  5
321
100
AcDbEntity
  8
0
100
AcDbMText
 62
2
  6
CONTINUOUS
  7
STANDARD
 71
2
 72
1
 10
50.3355256848
 20
36.540711462
 30
0.0
 11
1.0
 21
0.0
 31
0.0
 44
0.9
  1
3.8\P[95]
 40
0.46875
 41
1.6573660714
  0
LINE
  5
322
100
AcDbEntity
  8
0
100
AcDbLine
 62
2
  6
CONTINUOUS
 10
52.2784742225
 20
32.5886835592
 11
52.2784742225
 21
36.681336462
  0
LINE
  5
323
100
AcDbEntity
  8
0
100
AcDbLine
 62
2
  6
CONTINUOUS
 10
48.5265057186
 20
27.7479656779
 11
48.5265057186
 21
36.681336462
  0
LINE
  5
324
100
AcDbEntity
  8
0
100
AcDbLine
 62
2
  6
CONTINUOUS
 10
52.2784742225
 20
36.306336462
 11
51.1893203277
 21
36.306336462
  0
LINE
  5
325
100
AcDbEntity
  8
0
100
AcDbLine
 62
2
  6
CONTINUOUS
 10
48.5265057186
 20
36.306336462
 11
49.6156596134
 21
36.306336462
  0
INSERT
  5
326
100
AcDbEntity
  8
0
100
AcDbBlockReference
 62
2
  6
CONTINUOUS
  2
_FILLED
 10
52.2784742225
 20
36.306336462
 41
0.5625
 42
0.5625
 43
0.5625
  0
INSERT
  5
327
100
AcDbEntity
  8
0
100
AcDbBlockReference
 62
2
  6
CONTINUOUS
  2
_FILLED
 10
48.5265057186
 20
36.306336462
 41
0.5625
 42
0.5625
 43
0.5625
 50
180.0
  0
ENDBLK
  5
328
100
AcDbEntity
  8
0
  6
BYBLOCK
 62
0
100
AcDbBlockEnd
  0
BLOCK
  5
329
100
AcDbEntity
  8
0
100
AcDbBlockBegin
 62
2
  6
CONTINUOUS
  2
*D15
 70
65
 10
0.0
 20
0.0
  3
*D15
  1

  0
MTEXT
  5
32A
100
AcDbEntity
  8
0
100
AcDbMText
 62
2
  6
CONTINUOUS
  7
STANDARD
 71
1
 72
1
 10
77.691790817
 20
36.7985978261
 30
0.0
 11
1.0
 21
0.0
 31
0.0
 44
0.9
  1
1.375\P[34,93]
 40
0.46875
 41
3.1138392857
  0
LINE
  5
32B
100
AcDbEntity
  8
0
100
AcDbLine
 62
2
  6
CONTINUOUS
 10
74.1330155175
 20
34.9687490981
 11
74.1330155175
 21
36.9392228261
  0
LINE
  5
32C
100
AcDbEntity
  8
0
100
AcDbLine
 62
2
  6
CONTINUOUS
 10
75.5080155175
 20
31.9322176464
 11
75.5080155175
 21
36.9392228261
  0
LINE
  5
32D
100
AcDbEntity
  8
0
100
AcDbLine
 62
2
  6
CONTINUOUS
 10
74.1330155175
 20
36.5642228261
 11
74.8205155175
 21
36.5642228261
  0
LINE
  5
32E
100
AcDbEntity
  8
0
100
AcDbLine
 62
2
  6
CONTINUOUS
 10
75.5080155175
 20
36.5642228261
 11
74.8205155175
 21
36.5642228261
  0
LINE
  5
32F
100
AcDbEntity
  8
0
100
AcDbLine
 62
2
  6
CONTINUOUS
 10
74.8205155175
 20
36.5642228261
 11
77.457415817
 21
36.5642228261
  0
INSERT
  5
330
100
AcDbEntity
  8
0
100
AcDbBlockReference
 62
2
  6
CONTINUOUS
  2
_FILLED
 10
74.1330155175
 20
36.5642228261
 41
0.5625
 42
0.5625
 43
0.5625
 50
180.0
  0
INSERT
  5
331
100
AcDbEntity
  8
0
100
AcDbBlockReference
 62
2
  6
CONTINUOUS
  2
_FILLED
 10
75.5080155175
 20
36.5642228261
 41
0.5625
 42
0.5625
 43
0.5625
  0
ENDBLK
  5
332
100
AcDbEntity
  8
0
  6
BYBLOCK
 62
0
100
AcDbBlockEnd
  0
BLOCK
  5
333
100
AcDbEntity
  8
0
100
AcDbBlockBegin
 62
2
  6
CONTINUOUS
  2
*D16
 70
65
 10
0.0
 20
0.0
  3
*D16
  1

  0
MTEXT
  5
334
100
AcDbEntity
  8
0
100
AcDbMText
 62
2
  6
CONTINUOUS
  7
STANDARD
 71
1
 72
1
 10
77.6700706333
 20
39.3904292242
 30
0.0
 11
1.0
 21
0.0
 31
0.0
 44
0.9
  1
2.750\P[69,85]
 40
0.46875
 41
3.1640625
  0
LINE
  5
335
100
AcDbEntity
  8
0
100
AcDbLine
 62
2
  6
CONTINUOUS
 10
72.7580155175
 20
31.9322176464
 11
72.7580155175
 21
39.5310542242
  0
LINE
  5
336
100
AcDbEntity
  8
0
100
AcDbLine
 62
2
  6
CONTINUOUS
 10
75.5080155175
 20
31.9322176464
 11
75.5080155175
 21
39.5310542242
  0
LINE
  5
337
100
AcDbEntity
  8
0
100
AcDbLine
 62
2
  6
CONTINUOUS
 10
72.7580155175
 20
39.1560542242
 11
74.1330155175
 21
39.1560542242
  0
LINE
  5
338
100
AcDbEntity
  8
0
100
AcDbLine
 62
2
  6
CONTINUOUS
 10
75.5080155175
 20
39.1560542242
 11
74.1330155175
 21
39.1560542242
  0
LINE
  5
339
100
AcDbEntity
  8
0
100
AcDbLine
 62
2
  6
CONTINUOUS
 10
74.1330155175
 20
39.1560542242
 11
77.4356956333
 21
39.1560542242
  0
INSERT
  5
33A
100
AcDbEntity
  8
0
100
AcDbBlockReference
 62
2
  6
CONTINUOUS
  2
_FILLED
 10
72.7580155175
 20
39.1560542242
 41
0.5625
 42
0.5625
 43
0.5625
 50
180.0
  0
INSERT
  5
33B
100
AcDbEntity
  8
0
100
AcDbBlockReference
 62
2
  6
CONTINUOUS
  2
_FILLED
 10
75.5080155175
 20
39.1560542242
 41
0.5625
 42
0.5625
 43
0.5625
  0
ENDBLK
  5
33C
100
AcDbEntity
  8
0
  6
BYBLOCK
 62
0
100
AcDbBlockEnd
  0
BLOCK
  5
33D
100
AcDbEntity
  8
0
100
AcDbBlockBegin
 62
2
  6
CONTINUOUS
  2
*D17
 70
65
 10
0.0
 20
0.0
  3
*D17
  1

  0
MTEXT
  5
33E
100
AcDbEntity
  8
0
100
AcDbMText
 62
2
  6
CONTINUOUS
  7
STANDARD
 71
2
 72
1
 10
84.962551265
 20
33.4905115037
 30
0.0
 11
1.0
 21
0.0
 31
0.0
 44
0.9
  1
2.92\P[74]
 40
0.46875
 41
2.0591517857
  0
LINE
  5
33F
100
AcDbEntity
  8
0
100
AcDbLine
 62
2
  6
CONTINUOUS
 10
82.1945312655
 20
34.2370404811
 11
85.337551265
 21
34.2370404811
  0
LINE
  5
340
100
AcDbEntity
  8
0
100
AcDbLine
 62
2
  6
CONTINUOUS
 10
76.1205155175
 20
31.3197176464
 11
85.337551265
 21
31.3197176464
  0
LINE
  5
341
100
AcDbEntity
  8
0
100
AcDbLine
 62
2
  6
CONTINUOUS
 10
84.962551265
 20
34.2370404811
 11
84.962551265
 21
35.7370404811
  0
LINE
  5
342
100
AcDbEntity
  8
0
100
AcDbLine
 62
2
  6
CONTINUOUS
 10
84.962551265
 20
31.3197176464
 11
84.962551265
 21
29.8197176464
  0
INSERT
  5
343
100
AcDbEntity
  8
0
100
AcDbBlockReference
 62
2
  6
CONTINUOUS
  2
_FILLED
 10
84.962551265
 20
34.2370404811
 41
0.5625
 42
0.5625
 43
0.5625
 50
270.0
  0
INSERT
  5
344
100
AcDbEntity
  8
0
100
AcDbBlockReference
 62
2
  6
CONTINUOUS
  2
_FILLED
 10
84.962551265
 20
31.3197176464
 41
0.5625
 42
0.5625
 43
0.5625
 50
90.0
  0
ENDBLK
  5
345
100
AcDbEntity
  8
0
  6
BYBLOCK
 62
0
100
AcDbBlockEnd
  0
BLOCK
  5
346
100
AcDbEntity
  8
0
100
AcDbBlockBegin
 62
2
  6
CONTINUOUS
  2
*D18
 70
65
 10
0.0
 20
0.0
  3
*D18
  1

  0
MTEXT
  5
347
100
AcDbEntity
  8
0
100
AcDbMText
 62
2
  6
CONTINUOUS
  7
STANDARD
 71
2
 72
1
 10
84.962551265
 20
29.4278051328
 30
0.0
 11
1.0
 21
0.0
 31
0.0
 44
0.9
  1
5.000\P[127]
 40
0.46875
 41
2.5613839286
  0
LINE
  5
348
100
AcDbEntity
  8
0
100
AcDbLine
 62
2
  6
CONTINUOUS
 10
76.1205155175
 20
31.3197176464
 11
85.337551265
 21
31.3197176464
  0
LINE
  5
349
100
AcDbEntity
  8
0
100
AcDbLine
 62
2
  6
CONTINUOUS
 10
76.1205155175
 20
26.3197176464
 11
85.337551265
 21
26.3197176464
  0
LINE
  5
34A
100
AcDbEntity
  8
0
100
AcDbLine
 62
2
  6
CONTINUOUS
 10
84.962551265
 20
31.3197176464
 11
84.962551265
 21
29.6621801328
  0
LINE
  5
34B
100
AcDbEntity
  8
0
100
AcDbLine
 62
2
  6
CONTINUOUS
 10
84.962551265
 20
26.3197176464
 11
84.962551265
 21
28.0215551328
  0
INSERT
  5
34C
100
AcDbEntity
  8
0
100
AcDbBlockReference
 62
2
  6
CONTINUOUS
  2
_FILLED
 10
84.962551265
 20
31.3197176464
 41
0.5625
 42
0.5625
 43
0.5625
 50
90.0
  0
INSERT
  5
34D
100
AcDbEntity
  8
0
100
AcDbBlockReference
 62
2
  6
CONTINUOUS
  2
_FILLED
 10
84.962551265
 20
26.3197176464
 41
0.5625
 42
0.5625
 43
0.5625
 50
270.0
  0
ENDBLK
  5
34E
100
AcDbEntity
  8
0
  6
BYBLOCK
 62
0
100
AcDbBlockEnd
  0
ENDSEC
  0
SECTION
  2
ENTITIES
  0
MTEXT
  5
34F
100
AcDbEntity
  8
0
100
AcDbMText
 62
2
  6
CONTINUOUS
  7
STANDARD
 71
1
 72
1
 10
7.3887232342
 20
1.0947500507
 30
0.0
 11
1.0
 21
0.0
 31
0.0
 44
0.9
  1
8
 40
0.46875
 41
0.5524553571
  0
MTEXT
  5
350
100
AcDbEntity
  8
0
100
AcDbMText
 62
2
  6
CONTINUOUS
  7
STANDARD
 71
1
 72
1
 10
19.5762232342
 20
1.0947500507
 30
0.0
 11
1.0
 21
0.0
 31
0.0
 44
0.9
  1
7
 40
0.46875
 41
0.5524553571
  0
MTEXT
  5
351
100
AcDbEntity
  8
0
100
AcDbMText
 62
2
  6
CONTINUOUS
  7
STANDARD
 71
1
 72
1
 10
31.7637232342
 20
1.0947500507
 30
0.0
 11
1.0
 21
0.0
 31
0.0
 44
0.9
  1
6
 40
0.46875
 41
0.5524553571
  0
MTEXT
  5
352
100
AcDbEntity
  8
0
100
AcDbMText
 62
2
  6
CONTINUOUS
  7
STANDARD
 71
1
 72
1
 10
43.9512232342
 20
1.0947500507
 30
0.0
 11
1.0
 21
0.0
 31
0.0
 44
0.9
  1
5
 40
0.46875
 41
0.5022321429
  0
MTEXT
  5
353
100
AcDbEntity
  8
0
100
AcDbMText
 62
2
  6
CONTINUOUS
  7
STANDARD
 71
1
 72
1
 10
56.1387232342
 20
1.0947500507
 30
0.0
 11
1.0
 21
0.0
 31
0.0
 44
0.9
  1
4
 40
0.46875
 41
0.5524553571
  0
MTEXT
  5
354
100
AcDbEntity
  8
0
100
AcDbMText
 62
2
  6
CONTINUOUS
  7
STANDARD
 71
1
 72
1
 10
68.3262232342
 20
1.0947500507
 30
0.0
 11
1.0
 21
0.0
 31
0.0
 44
0.9
  1
3
 40
0.46875
 41
0.5022321429
  0
MTEXT
  5
355
100
AcDbEntity
  8
0
100
AcDbMText
 62
2
  6
CONTINUOUS
  7
STANDARD
 71
1
 72
1
 10
80.5137232342
 20
1.0947500507
 30
0.0
 11
1.0
 21
0.0
 31
0.0
 44
0.9
  1
2
 40
0.46875
 41
0.5524553571
  0
MTEXT
  5
356
100
AcDbEntity
  8
0
100
AcDbMText
 62
2
  6
CONTINUOUS
  7
STANDARD
 71
1
 72
1
 10
92.7012232342
 20
1.0947500507
 30
0.0
 11
1.0
 21
0.0
 31
0.0
 44
0.9
  1
1
 40
0.46875
 41
0.4017857143
  0
MTEXT
  5
357
100
AcDbEntity
  8
0
100
AcDbMText
 62
2
  6
CONTINUOUS
  7
STANDARD
 71
1
 72
1
 10
7.3887232342
 20
65.5947500507
 30
0.0
 11
1.0
 21
0.0
 31
0.0
 44
0.9
  1
8
 40
0.46875
 41
0.6863839286
  0
MTEXT
  5
358
100
AcDbEntity
  8
0
100
AcDbMText
 62
2
  6
CONTINUOUS
  7
STANDARD
 71
1
 72
1
 10
19.5762232342
 20
65.5947500507
 30
0.0
 11
1.0
 21
0.0
 31
0.0
 44
0.9
  1
7
 40
0.46875
 41
0.5524553571
  0
MTEXT
  5
359
100
AcDbEntity
  8
0
100
AcDbMText
 62
2
  6
CONTINUOUS
  7
STANDARD
 71
1
 72
1
 10
31.7637232342
 20
65.5947500507
 30
0.0
 11
1.0
 21
0.0
 31
0.0
 44
0.9
  1
6
 40
0.46875
 41
0.5524553571
  0
MTEXT
  5
35A
100
AcDbEntity
  8
0
100
AcDbMText
 62
2
  6
CONTINUOUS
  7
STANDARD
 71
1
 72
1
 10
43.9512232342
 20
65.5947500507
 30
0.0
 11
1.0
 21
0.0
 31
0.0
 44
0.9
  1
5
 40
0.46875
 41
0.5022321429
  0
MTEXT
  5
35B
100
AcDbEntity
  8
0
100
AcDbMText
 62
2
  6
CONTINUOUS
  7
STANDARD
 71
1
 72
1
 10
56.1387232342
 20
65.5947500507
 30
0.0
 11
1.0
 21
0.0
 31
0.0
 44
0.9
  1
4
 40
0.46875
 41
0.5524553571
  0
MTEXT
  5
35C
100
AcDbEntity
  8
0
100
AcDbMText
 62
2
  6
CONTINUOUS
  7
STANDARD
 71
1
 72
1
 10
68.3262232342
 20
65.5947500507
 30
0.0
 11
1.0
 21
0.0
 31
0.0
 44
0.9
  1
3
 40
0.46875
 41
0.5022321429
  0
MTEXT
  5
35D
100
AcDbEntity
  8
0
100
AcDbMText
 62
2
  6
CONTINUOUS
  7
STANDARD
 71
1
 72
1
 10
80.5137232342
 20
65.5947500507
 30
0.0
 11
1.0
 21
0.0
 31
0.0
 44
0.9
  1
2
 40
0.46875
 41
0.5524553571
  0
MTEXT
  5
35E
100
AcDbEntity
  8
0
100
AcDbMText
 62
2
  6
CONTINUOUS
  7
STANDARD
 71
1
 72
1
 10
92.7012232342
 20
65.5947500507
 30
0.0
 11
1.0
 21
0.0
 31
0.0
 44
0.9
  1
1
 40
0.46875
 41
0.4017857143
  0
MTEXT
  5
35F
100
AcDbEntity
  8
0
100
AcDbMText
 62
2
  6
CONTINUOUS
  7
STANDARD
 71
1
 72
1
 10
0.5946579278
 20
9.6584698477
 30
0.0
 11
1.0
 21
0.0
 31
0.0
 44
0.9
  1
A
 40
0.46875
 41
0.6026785714
  0
MTEXT
  5
360
100
AcDbEntity
  8
0
100
AcDbMText
 62
2
  6
CONTINUOUS
  7
STANDARD
 71
1
 72
1
 10
0.5946579278
 20
25.4084698477
 30
0.0
 11
1.0
 21
0.0
 31
0.0
 44
0.9
  1
B
 40
0.46875
 41
0.5524553571
  0
MTEXT
  5
361
100
AcDbEntity
  8
0
100
AcDbMText
 62
2
  6
CONTINUOUS
  7
STANDARD
 71
1
 72
1
 10
0.5946579278
 20
41.1584698477
 30
0.0
 11
1.0
 21
0.0
 31
0.0
 44
0.9
  1
C
 40
0.46875
 41
0.5859375
  0
MTEXT
  5
362
100
AcDbEntity
  8
0
100
AcDbMText
 62
2
  6
CONTINUOUS
  7
STANDARD
 71
1
 72
1
 10
0.5946579278
 20
56.9084698477
 30
0.0
 11
1.0
 21
0.0
 31
0.0
 44
0.9
  1
D
 40
0.46875
 41
0.6361607143
  0
MTEXT
  5
363
100
AcDbEntity
  8
0
100
AcDbMText
 62
2
  6
CONTINUOUS
  7
STANDARD
 71
1
 72
1
 10
99.5946579278
 20
9.6584698477
 30
0.0
 11
1.0
 21
0.0
 31
0.0
 44
0.9
  1
A
 40
0.46875
 41
0.6026785714
  0
MTEXT
  5
364
100
AcDbEntity
  8
0
100
AcDbMText
 62
2
  6
CONTINUOUS
  7
STANDARD
 71
1
 72
1
 10
99.5946579278
 20
25.4084698477
 30
0.0
 11
1.0
 21
0.0
 31
0.0
 44
0.9
  1
B
 40
0.46875
 41
0.5524553571
  0
MTEXT
  5
365
100
AcDbEntity
  8
0
100
AcDbMText
 62
2
  6
CONTINUOUS
  7
STANDARD
 71
1
 72
1
 10
99.5946579278
 20
41.1584698477
 30
0.0
 11
1.0
 21
0.0
 31
0.0
 44
0.9
  1
C
 40
0.46875
 41
0.5859375
  0
MTEXT
  5
366
100
AcDbEntity
  8
0
100
AcDbMText
 62
2
  6
CONTINUOUS
  7
STANDARD
 71
1
 72
1
 10
99.5946579278
 20
56.9084698477
 30
0.0
 11
1.0
 21
0.0
 31
0.0
 44
0.9
  1
D
 40
0.46875
 41
0.6361607143
  0
MTEXT
  5
367
100
AcDbEntity
  8
0
100
AcDbMText
 62
5
  6
CONTINUOUS
  7
STANDARD
 71
1
 72
1
 10
1.6988688318
 20
64.3685463461
 30
0.0
 11
1.0
 21
0.0
 31
0.0
 44
0.9
  1
THIS DOCUMENT CONTAINS PROPRIETARY INFORMATION\PWHICH IS THE PROPERTY OF QSC, LLC, THAT MAY NOT BE\PDISCLOSED, REPRODUCED OR USED WITHOUT EXPRESS\PWRITTEN CONSENT FROM QSC, LLC.
 40
0.225
 41
13.33125
  0
MTEXT
  5
368
100
AcDbEntity
  8
0
100
AcDbMText
 62
2
  6
CONTINUOUS
  7
STANDARD
 71
2
 72
1
 10
72.6850277561
 20
8.9347723959
 30
0.0
 11
1.0
 21
0.0
 31
0.0
 44
0.9
  1
UNLESS OTHERWISE SPECIFIED\PDIMENSIONS IN INCHES [MM]
 40
0.3
 41
9.1928571429
  0
MTEXT
  5
369
100
AcDbEntity
  8
0
100
AcDbMText
 62
2
  6
CONTINUOUS
  7
STANDARD
 71
2
 72
1
 10
72.7048418375
 20
7.7759564959
 30
0.0
 11
1.0
 21
0.0
 31
0.0
 44
0.9
  1
TOLERANCES ARE:
 40
0.27
 41
4.6382142857
  0
MTEXT
  5
36A
100
AcDbEntity
  8
0
100
AcDbMText
 62
2
  6
CONTINUOUS
  7
STANDARD
 71
2
 72
1
 10
70.4978299226
 20
7.0911167182
 30
0.0
 11
1.0
 21
0.0
 31
0.0
 44
0.9
  1
DECIMALS\P.XX\Fgdt;{\Fgdt;`}\Ftxt;.02[.5]
 40
0.27
 41
3.1339285714
  0
MTEXT
  5
36B
100
AcDbEntity
  8
0
100
AcDbMText
 62
2
  6
CONTINUOUS
  7
STANDARD
 71
2
 72
1
 10
73.125
 20
7.0725
 30
0.0
 11
1.0
 21
0.0
 31
0.0
 44
0.9
  1
DECIMALS\P.XXX\Fgdt;{\Fgdt;`}\Ftxt;.010[.25]
 40
0.27
 41
4.0307142857
  0
MTEXT
  5
36C
100
AcDbEntity
  8
0
100
AcDbMText
 62
2
  6
CONTINUOUS
  7
STANDARD
 71
2
 72
1
 10
75.3878909831
 20
7.0875020839
 30
0.0
 11
1.0
 21
0.0
 31
0.0
 44
0.9
  1
ANGLES\P\Fgdt;{\Fgdt;`}\Ftxt; 1/2
 40
0.27
 41
1.9285714286
  0
MTEXT
  5
36D
100
AcDbEntity
  8
0
100
AcDbMText
 62
2
  6
CONTINUOUS
  7
STANDARD
 71
2
 72
1
 10
72.75
 20
5.9475
 30
0.0
 11
1.0
 21
0.0
 31
0.0
 44
0.9
  1
DEBURR EDGES .010 [.25] R MAX
 40
0.27
 41
8.8232142857
  0
MTEXT
  5
36E
100
AcDbEntity
  8
0
100
AcDbMText
 62
2
  6
CONTINUOUS
  7
STANDARD
 71
2
 72
1
 10
70.3767734424
 20
5.0586597527
 30
0.0
 11
1.0
 21
0.0
 31
0.0
 44
0.9
  1
MATERIAL
 40
0.27
 41
2.5939285714
  0
MTEXT
  5
36F
100
AcDbEntity
  8
0
100
AcDbMText
 62
2
  6
CONTINUOUS
  7
STANDARD
 71
2
 72
1
 10
70.0894191481
 20
3.2314398808
 30
0.0
 11
1.0
 21
0.0
 31
0.0
 44
0.9
  1
FINISH
 40
0.27
 41
1.8417857143
  0
MTEXT
  5
370
100
AcDbEntity
  8
0
100
AcDbMText
 62
2
  6
CONTINUOUS
  7
STANDARD
 71
2
 72
1
 10
90.8093769444
 20
2.0427076852
 30
0.0
 11
1.0
 21
0.0
 31
0.0
 44
0.9
  1
DO NOT SCALE DRAWING
 40
0.375
 41
9.3482142857
  0
MTEXT
  5
371
100
AcDbEntity
  8
0
100
AcDbMText
 62
2
  6
CONTINUOUS
  7
STANDARD
 71
2
 72
1
 10
76.8718403833
 20
8.1529997057
 30
0.0
 11
1.0
 21
0.0
 31
0.0
 44
0.9
  1
DRAWN
 40
0.27
 41
1.9767857143
  0
MTEXT
  5
372
100
AcDbEntity
  8
0
100
AcDbMText
 62
2
  6
CONTINUOUS
  7
STANDARD
 71
2
 72
1
 10
76.9772126356
 20
6.8232164832
 30
0.0
 11
1.0
 21
0.0
 31
0.0
 44
0.9
  1
CHECKED
 40
0.27
 41
2.3335714286
  0
MTEXT
  5
373
100
AcDbEntity
  8
0
100
AcDbMText
 62
2
  6
CONTINUOUS
  7
STANDARD
 71
2
 72
1
 10
76.9585953789
 20
5.5143277336
 30
0.0
 11
1.0
 21
0.0
 31
0.0
 44
0.9
  1
MFG ENG
 40
0.27
 41
2.2757142857
  0
MTEXT
  5
374
100
AcDbEntity
  8
0
100
AcDbMText
 62
2
  6
CONTINUOUS
  7
STANDARD
 71
2
 72
1
 10
77.0939480476
 20
4.1963530404
 30
0.0
 11
1.0
 21
0.0
 31
0.0
 44
0.9
  1
QA CHECK
 40
0.27
 41
2.6903571429
  0
MTEXT
  5
375
100
AcDbEntity
  8
0
100
AcDbMText
 62
2
  6
CONTINUOUS
  7
STANDARD
 71
2
 72
1
 10
77.8695705011
 20
2.0280074066
 30
0.0
 11
1.0
 21
0.0
 31
0.0
 44
0.9
  1
MODEL INFO:
 40
0.27
 41
3.3075
  0
MTEXT
  5
376
100
AcDbEntity
  8
0
100
AcDbMText
 62
2
  6
CONTINUOUS
  7
STANDARD
 71
2
 72
1
 10
77.5915526799
 20
2.7550831245
 30
0.0
 11
1.0
 21
0.0
 31
0.0
 44
0.9
  1
DRAWING INFO:
 40
0.27
 41
4.2042857143
  0
MTEXT
  5
377
100
AcDbEntity
  8
0
100
AcDbMText
 62
2
  6
CONTINUOUS
  7
STANDARD
 71
2
 72
1
 10
78.7239697367
 20
8.8687597942
 30
0.0
 11
1.0
 21
0.0
 31
0.0
 44
0.9
  1
APPROVALS
 40
0.27
 41
2.9603571429
  0
MTEXT
  5
378
100
AcDbEntity
  8
0
100
AcDbMText
 62
2
  6
CONTINUOUS
  7
STANDARD
 71
2
 72
1
 10
82.6321879336
 20
9.1054725154
 30
0.0
 11
1.0
 21
0.0
 31
0.0
 44
0.9
  1
DATE\P(DD-MMM-YY)
 40
0.27
 41
3.3942857143
  0
MTEXT
  5
379
100
AcDbEntity
  8
0
100
AcDbMText
 62
2
  6
CONTINUOUS
  7
STANDARD
 71
2
 72
1
 10
84.7180937442
 20
2.0010609907
 30
0.0
 11
1.0
 21
0.0
 31
0.0
 44
0.9
  1
SCALE:
 40
0.27
 41
1.7742857143
  0
MTEXT
  5
37A
100
AcDbEntity
  8
0
100
AcDbMText
 62
2
  6
CONTINUOUS
  7
STANDARD
 71
2
 72
1
 10
94.8487282029
 20
2.0060426595
 30
0.0
 11
1.0
 21
0.0
 31
0.0
 44
0.9
  1
SHEET
 40
0.27
 41
1.6392857143
  0
MTEXT
  5
37B
100
AcDbEntity
  8
0
100
AcDbMText
 62
2
  6
CONTINUOUS
  7
STANDARD
 71
2
 72
1
 10
84.7259383523
 20
3.630989002
 30
0.0
 11
1.0
 21
0.0
 31
0.0
 44
0.9
  1
SIZE
 40
0.27
 41
1.2632142857
  0
MTEXT
  5
37C
100
AcDbEntity
  8
0
100
AcDbMText
 62
2
  6
CONTINUOUS
  7
STANDARD
 71
2
 72
1
 10
86.951092826
 20
3.6342493293
 30
0.0
 11
1.0
 21
0.0
 31
0.0
 44
0.9
  1
CAGE CODE
 40
0.27
 41
2.9989285714
  0
MTEXT
  5
37D
100
AcDbEntity
  8
0
100
AcDbMText
 62
2
  6
CONTINUOUS
  7
STANDARD
 71
2
 72
1
 10
89.8228492441
 20
3.6279988972
 30
0.0
 11
1.0
 21
0.0
 31
0.0
 44
0.9
  1
DRAWING NO.
 40
0.27
 41
3.7414285714
  0
MTEXT
  5
37E
100
AcDbEntity
  8
0
100
AcDbMText
 62
2
  6
CONTINUOUS
  7
STANDARD
 71
2
 72
1
 10
98.2863979783
 20
3.63202172
 30
0.0
 11
1.0
 21
0.0
 31
0.0
 44
0.9
  1
REV
 40
0.27
 41
1.0221428571
  0
MTEXT
  5
37F
100
AcDbEntity
  8
0
100
AcDbMText
 62
2
  6
CONTINUOUS
  7
STANDARD
 71
2
 72
1
 10
91.2489057495
 20
8.9618953025
 30
0.0
 11
1.0
 21
0.0
 31
0.0
 44
0.9
  1
QSC, LLC
 40
0.46875
 41
4.3191964286
  0
MTEXT
  5
380
100
AcDbEntity
  8
0
100
AcDbMText
 62
2
  6
CONTINUOUS
  7
STANDARD
 71
1
 72
1
 10
89.7363972414
 20
8.2628704917
 30
0.0
 11
1.0
 21
0.0
 31
0.0
 44
0.9
  1
1675 MACARTHUR BOULEVARD\PCOSTA MESA, CA  92626
 40
0.375
 41
10.7544642857
  0
MTEXT
  5
381
100
AcDbEntity
  8
0
100
AcDbMText
 62
2
  6
CONTINUOUS
  7
STANDARD
 71
1
 72
1
 10
85.8903254667
 20
2.9888294753
 30
0.0
 11
1.0
 21
0.0
 31
0.0
 44
0.9
  1
00PW4
 40
0.46875
 41
3.2979910714
  0
INSERT
  5
382
100
AcDbEntity
  8
0
100
AcDbBlockReference
 62
7
  6
CONTINUOUS
  2
RD010411_BL0
 10
86.6664608964
 20
8.1033319955
  0
DIMENSION
  5
383
100
AcDbEntity
  8
0
100
AcDbDimension
 62
2
  6
CONTINUOUS
  2
*D0
 10
17.5533102148
 20
55.7313628703
 11
15.8612552472
 21
55.3798003703
 70
160
 71
3
 42
25.4
  3
DIMSTYLE_1
100
AcDbAlignedDimension
 13
18.5533102148
 23
54.4314387053
 14
17.5533102148
 24
54.1911075451
 50
180.0
100
AcDbRotatedDimension
  0
DIMENSION
  5
384
100
AcDbEntity
  8
0
100
AcDbDimension
 62
2
  6
CONTINUOUS
  2
*D1
 10
19.5533102148
 20
57.5900535111
 11
18.5533102148
 21
57.2384910111
 70
160
 71
2
 42
50.8
  3
DIMSTYLE_1
100
AcDbAlignedDimension
 13
17.5533102148
 23
54.1911075451
 14
19.5533102148
 24
54.1911075451
100
AcDbRotatedDimension
  0
DIMENSION
  5
385
100
AcDbEntity
  8
0
100
AcDbDimension
 62
2
  6
CONTINUOUS
  2
*D2
 10
7.815109895
 20
53.5474067577
 11
6.4054061176
 21
54.7172548967
 70
160
 71
3
 42
23.905
  3
DIMSTYLE_1
100
AcDbAlignedDimension
 13
10.5542944668
 23
52.6062650255
 14
17.2846094274
 24
53.5474067577
 50
90.0
100
AcDbRotatedDimension
  0
DIMENSION
  5
386
100
AcDbEntity
  8
0
100
AcDbDimension
 62
2
  6
CONTINUOUS
  2
*D3
 10
22.0040976164
 20
59.7546283707
 11
18.5533102148
 21
59.4030658707
 70
160
 71
2
 42
175.3
  3
DIMSTYLE_1
100
AcDbAlignedDimension
 13
15.1025228133
 23
53.3493752617
 14
22.0040976164
 24
53.3493752617
100
AcDbRotatedDimension
  0
DIMENSION
  5
387
100
AcDbEntity
  8
0
100
AcDbDimension
 62
2
  6
CONTINUOUS
  2
*D4
 10
26.4273259629
 20
37.2695875149
 11
18.5533102148
 21
36.9180250149
 70
160
 71
2
 42
400.0
  3
DIMSTYLE_1
100
AcDbAlignedDimension
 13
10.6792944668
 23
34.3620404811
 14
26.4273259629
 24
34.3620404811
100
AcDbRotatedDimension
  0
DIMENSION
  5
388
100
AcDbEntity
  8
0
100
AcDbDimension
 62
2
  6
CONTINUOUS
  2
*D5
 10
48.5284742225
 20
12.8820144507
 11
50.4034742225
 21
12.5304519507
 70
160
 71
2
 42
95.25
  3
DIMSTYLE_1
100
AcDbAlignedDimension
 13
52.2784742225
 23
14.6632215834
 14
48.5284742225
 24
25.4599344207
 50
180.0
100
AcDbRotatedDimension
  0
DIMENSION
  5
389
100
AcDbEntity
  8
0
100
AcDbDimension
 62
2
  6
CONTINUOUS
  2
*D6
 10
37.358246359
 20
26.4870404811
 11
37.358246359
 21
30.0104779811
 70
160
 71
2
 42
196.85
  3
DIMSTYLE_1
100
AcDbAlignedDimension
 13
42.389694695
 23
34.2370404811
 14
47.8849595173
 24
26.4870404811
 50
270.0
100
AcDbRotatedDimension
  0
DIMENSION
  5
38A
100
AcDbEntity
  8
0
100
AcDbDimension
 62
2
  6
CONTINUOUS
  2
*D7
 10
47.1961242507
 20
10.3809692903
 11
50.1647664198
 21
10.0294067903
 70
160
 71
2
 42
129.0916892844
  3
DIMSTYLE_1
100
AcDbAlignedDimension
 13
52.2784742225
 23
14.6632215834
 14
47.1961242507
 24
14.6632215834
 50
180.0
100
AcDbRotatedDimension
  0
DIMENSION
  5
38B
100
AcDbEntity
  8
0
100
AcDbDimension
 62
2
  6
CONTINUOUS
  2
*D8
 10
42.0203232091
 20
38.8198348094
 11
47.1493987158
 21
38.4682723094
 70
160
 71
2
 42
260.5570357418
  3
DIMSTYLE_1
100
AcDbAlignedDimension
 13
52.2784742225
 23
32.5261835592
 14
42.0203232091
 24
34.2295740406
 50
180.0
100
AcDbRotatedDimension
  0
DIMENSION
  5
38C
100
AcDbEntity
  8
0
100
AcDbDimension
 62
2
  6
CONTINUOUS
  2
*D9
 10
55.805582659
 20
32.1895995362
 11
55.805582659
 21
33.1800455567
 70
160
 71
2
 42
52.005
  3
DIMSTYLE_1
100
AcDbAlignedDimension
 13
48.4664663485
 23
34.2370404811
 14
53.702686821
 24
32.1895995362
 50
270.0
100
AcDbRotatedDimension
  0
DIMENSION
  5
38D
100
AcDbEntity
  8
0
100
AcDbDimension
 62
2
  6
CONTINUOUS
  2
*D10
 10
55.8033067921
 20
25.6947176464
 11
55.8033067921
 21
28.8590491437
 70
160
 71
2
 42
164.97
  3
DIMSTYLE_1
100
AcDbAlignedDimension
 13
53.702686821
 23
32.1895995362
 14
53.0215844587
 24
25.6947176464
 50
270.0
100
AcDbRotatedDimension
  0
DIMENSION
  5
38E
100
AcDbEntity
  8
0
100
AcDbDimension
 62
2
  6
CONTINUOUS
  2
*D11
 10
34.4025806453
 20
14.7882215834
 11
34.4025806453
 21
24.1610685322
 70
160
 71
2
 42
494.0
  3
DIMSTYLE_1
100
AcDbAlignedDimension
 13
42.389694695
 23
34.2370404811
 14
47.0711242507
 24
14.7882215834
 50
270.0
100
AcDbRotatedDimension
  0
DIMENSION
  5
38F
100
AcDbEntity
  8
0
100
AcDbDimension
 62
2
  6
CONTINUOUS
  2
*D12
 10
28.8308328526
 20
53.9054776239
 11
30.1165471383
 21
55.0888027239
 70
160
 71
1
 42
33.0
  3
DIMSTYLE_1
100
AcDbAlignedDimension
 13
26.5523259629
 23
52.6062650255
 14
20.5877590337
 24
53.9054776239
 50
90.0
100
AcDbRotatedDimension
  0
DIMENSION
  5
390
100
AcDbEntity
  8
0
100
AcDbDimension
 62
2
  6
CONTINUOUS
  2
*D13
 10
40.123807755
 20
26.9870404811
 11
40.123807755
 21
30.2604779811
 70
160
 71
2
 42
184.15
  3
DIMSTYLE_1
100
AcDbAlignedDimension
 13
42.389694695
 23
34.2370404811
 14
47.8280805217
 24
26.9870404811
 50
270.0
100
AcDbRotatedDimension
  0
DIMENSION
  5
391
100
AcDbEntity
  8
0
100
AcDbDimension
 62
2
  6
CONTINUOUS
  2
*D14
 10
48.5265057186
 20
36.306336462
 11
50.4024899706
 21
35.954773962
 70
160
 71
2
 42
95.3
  3
DIMSTYLE_1
100
AcDbAlignedDimension
 13
52.2784742225
 23
32.5261835592
 14
48.5265057186
 24
27.6854656779
 50
180.0
100
AcDbRotatedDimension
  0
DIMENSION
  5
392
100
AcDbEntity
  8
0
100
AcDbDimension
 62
2
  6
CONTINUOUS
  2
*D15
 10
75.5080155175
 20
36.5642228261
 11
78.7297372456
 21
36.2126603261
 70
160
 71
1
 42
34.925
  3
DIMSTYLE_2
100
AcDbAlignedDimension
 13
74.1330155175
 23
34.9062490981
 14
75.5080155175
 24
31.8697176464
100
AcDbRotatedDimension
  0
DIMENSION
  5
393
100
AcDbEntity
  8
0
100
AcDbDimension
 62
2
  6
CONTINUOUS
  2
*D16
 10
75.5080155175
 20
39.1560542242
 11
78.7247581333
 21
38.8044917242
 70
160
 71
1
 42
69.85
  3
DIMSTYLE_2
100
AcDbAlignedDimension
 13
72.7580155175
 23
31.8697176464
 14
75.5080155175
 24
31.8697176464
100
AcDbRotatedDimension
  0
DIMENSION
  5
394
100
AcDbEntity
  8
0
100
AcDbDimension
 62
2
  6
CONTINUOUS
  2
*D17
 10
84.962551265
 20
31.3197176464
 11
84.962551265
 21
32.9045740037
 70
160
 71
2
 42
74.1
  3
DIMSTYLE_1
100
AcDbAlignedDimension
 13
82.1320312655
 23
34.2370404811
 14
76.0580155175
 24
31.3197176464
 50
270.0
100
AcDbRotatedDimension
  0
DIMENSION
  5
395
100
AcDbEntity
  8
0
100
AcDbDimension
 62
2
  6
CONTINUOUS
  2
*D18
 10
84.962551265
 20
26.3197176464
 11
84.962551265
 21
28.8418676328
 70
160
 71
2
 42
127.0
  3
DIMSTYLE_2
100
AcDbAlignedDimension
 13
76.0580155175
 23
31.3197176464
 14
76.0580155175
 24
26.3197176464
 50
270.0
100
AcDbRotatedDimension
  0
LWPOLYLINE
  5
396
100
AcDbEntity
  8
0
100
AcDbPolyline
 62
2
  6
CONTINUOUS
 90
2
 70
0
 43
0.06
 10
99.0301046906
 20
64.4981218332
 10
68.7826046906
 20
64.4981218332
  0
LWPOLYLINE
  5
397
100
AcDbEntity
  8
0
100
AcDbPolyline
 62
2
  6
CONTINUOUS
 90
2
 70
0
 43
0.06
 10
99.0001046906
 20
64.4981218332
 10
99.0001046906
 20
60.7481218332
  0
LWPOLYLINE
  5
398
100
AcDbEntity
  8
0
100
AcDbPolyline
 62
2
  6
CONTINUOUS
 90
2
 70
0
 43
0.06
 10
99.0001046906
 20
63.5606218332
 10
68.8126046906
 20
63.5606218332
  0
LWPOLYLINE
  5
399
100
AcDbEntity
  8
0
100
AcDbPolyline
 62
2
  6
CONTINUOUS
 90
2
 70
0
 43
0.06
 10
99.0001046906
 20
62.6231218332
 10
68.8126046906
 20
62.6231218332
  0
LWPOLYLINE
  5
39A
100
AcDbEntity
  8
0
100
AcDbPolyline
 62
2
  6
CONTINUOUS
 90
2
 70
0
 43
0.06
 10
99.0001046906
 20
61.6856218332
 10
68.8126046906
 20
61.6856218332
  0
LWPOLYLINE
  5
39B
100
AcDbEntity
  8
0
100
AcDbPolyline
 62
2
  6
CONTINUOUS
 90
2
 70
0
 43
0.06
 10
99.0301046906
 20
60.7481218332
 10
68.7826046906
 20
60.7481218332
  0
LWPOLYLINE
  5
39C
100
AcDbEntity
  8
0
100
AcDbPolyline
 62
2
  6
CONTINUOUS
 90
2
 70
0
 43
0.06
 10
96.7501046906
 20
63.5606218332
 10
96.7501046906
 20
60.7481218332
  0
LWPOLYLINE
  5
39D
100
AcDbEntity
  8
0
100
AcDbPolyline
 62
2
  6
CONTINUOUS
 90
2
 70
0
 43
0.06
 10
93.3751046906
 20
63.5606218332
 10
93.3751046906
 20
60.7481218332
  0
LWPOLYLINE
  5
39E
100
AcDbEntity
  8
0
100
AcDbPolyline
 62
2
  6
CONTINUOUS
 90
2
 70
0
 43
0.06
 10
91.8751046906
 20
63.5606218332
 10
91.8751046906
 20
60.7481218332
  0
LWPOLYLINE
  5
39F
100
AcDbEntity
  8
0
100
AcDbPolyline
 62
2
  6
CONTINUOUS
 90
2
 70
0
 43
0.06
 10
72.7501046906
 20
63.5606218332
 10
72.7501046906
 20
60.7481218332
  0
LWPOLYLINE
  5
3A0
100
AcDbEntity
  8
0
100
AcDbPolyline
 62
2
  6
CONTINUOUS
 90
2
 70
0
 43
0.06
 10
70.3126046906
 20
63.5606218332
 10
70.3126046906
 20
60.7481218332
  0
LWPOLYLINE
  5
3A1
100
AcDbEntity
  8
0
100
AcDbPolyline
 62
2
  6
CONTINUOUS
 90
2
 70
0
 43
0.06
 10
68.8126046906
 20
64.4981218332
 10
68.8126046906
 20
60.7481218332
  0
MTEXT
  5
3A2
100
AcDbEntity
  8
0
100
AcDbMText
 62
2
  6
CONTINUOUS
  7
STANDARD
 71
2
 72
1
 10
83.9063546906
 20
64.2637468332
 30
0.0
 11
1.0
 21
0.0
 31
0.0
 44
0.9
  1
REVISIONS
 40
0.46875
 41
4.7544642857
  0
MTEXT
  5
3A3
100
AcDbEntity
  8
0
100
AcDbMText
 62
2
  6
CONTINUOUS
  7
STANDARD
 71
2
 72
1
 10
97.8751046906
 20
63.3258718332
 30
0.0
 11
1.0
 21
0.0
 31
0.0
 44
0.9
  1
ISSUED
 40
0.468
 41
3.2425714286
  0
MTEXT
  5
3A4
100
AcDbEntity
  8
0
100
AcDbMText
 62
2
  6
CONTINUOUS
  7
STANDARD
 71
2
 72
1
 10
95.0626046906
 20
63.3258718332
 30
0.0
 11
1.0
 21
0.0
 31
0.0
 44
0.9
  1
EFF DATE
 40
0.468
 41
4.3958571429
  0
MTEXT
  5
3A5
100
AcDbEntity
  8
0
100
AcDbMText
 62
2
  6
CONTINUOUS
  7
STANDARD
 71
2
 72
1
 10
92.6251046906
 20
63.3262468332
 30
0.0
 11
1.0
 21
0.0
 31
0.0
 44
0.9
  1
BY
 40
0.46875
 41
1.1551339286
  0
MTEXT
  5
3A6
100
AcDbEntity
  8
0
100
AcDbMText
 62
2
  6
CONTINUOUS
  7
STANDARD
 71
2
 72
1
 10
82.3126046906
 20
63.3258718332
 30
0.0
 11
1.0
 21
0.0
 31
0.0
 44
0.9
  1
DESCRIPTION
 40
0.468
 41
5.9837142857
  0
MTEXT
  5
3A7
100
AcDbEntity
  8
0
100
AcDbMText
 62
2
  6
CONTINUOUS
  7
STANDARD
 71
2
 72
1
 10
71.5313546906
 20
63.3262468332
 30
0.0
 11
1.0
 21
0.0
 31
0.0
 44
0.9
  1
ECO
 40
0.46875
 41
1.640625
  0
MTEXT
  5
3A8
100
AcDbEntity
  8
0
100
AcDbMText
 62
2
  6
CONTINUOUS
  7
STANDARD
 71
2
 72
1
 10
69.5626046906
 20
63.3258718332
 30
0.0
 11
1.0
 21
0.0
 31
0.0
 44
0.9
  1
REV
 40
0.468
 41
1.638
  0
MTEXT
  5
3A9
100
AcDbEntity
  8
0
100
AcDbMText
 62
2
  6
CONTINUOUS
  7
STANDARD
 71
2
 72
1
 10
97.8751046906
 20
62.3887468332
 30
0.0
 11
1.0
 21
0.0
 31
0.0
 44
0.9
  1
DD
 40
0.46875
 41
1.40625
  0
MTEXT
  5
3AA
100
AcDbEntity
  8
0
100
AcDbMText
 62
2
  6
CONTINUOUS
  7
STANDARD
 71
2
 72
1
 10
95.0626046906
 20
62.3887468332
 30
0.0
 11
1.0
 21
0.0
 31
0.0
 44
0.9
  1
14-AUG-12
 40
0.46875
 41
4.7544642857
  0
MTEXT
  5
3AB
100
AcDbEntity
  8
0
100
AcDbMText
 62
2
  6
CONTINUOUS
  7
STANDARD
 71
2
 72
1
 10
92.6251046906
 20
62.3887468332
 30
0.0
 11
1.0
 21
0.0
 31
0.0
 44
0.9
  1
VU
 40
0.46875
 41
1.2723214286
  0
MTEXT
  5
3AC
100
AcDbEntity
  8
0
100
AcDbMText
 62
2
  6
CONTINUOUS
  7
STANDARD
 71
1
 72
1
 10
72.9376046906
 20
62.3887468332
 30
0.0
 11
1.0
 21
0.0
 31
0.0
 44
0.9
  1
RELEASE FOR MARKETING DATA
 40
0.46875
 41
14.4810267857
  0
MTEXT
  5
3AD
100
AcDbEntity
  8
0
100
AcDbMText
 62
2
  6
CONTINUOUS
  7
STANDARD
 71
2
 72
1
 10
71.5313546906
 20
62.3887468332
 30
0.0
 11
1.0
 21
0.0
 31
0.0
 44
0.9
  1
-
 40
0.46875
 41
0.6361607143
  0
MTEXT
  5
3AE
100
AcDbEntity
  8
0
100
AcDbMText
 62
2
  6
CONTINUOUS
  7
STANDARD
 71
2
 72
1
 10
69.5626046906
 20
62.3887468332
 30
0.0
 11
1.0
 21
0.0
 31
0.0
 44
0.9
  1
A
 40
0.46875
 41
0.7366071429
  0
MTEXT
  5
3AF
100
AcDbEntity
  8
0
100
AcDbMText
 62
2
  6
CONTINUOUS
  7
STANDARD
 71
2
 72
1
 10
97.8751046906
 20
61.4512468332
 30
0.0
 11
1.0
 21
0.0
 31
0.0
 44
0.9
  1
DD
 40
0.46875
 41
1.40625
  0
MTEXT
  5
3B0
100
AcDbEntity
  8
0
100
AcDbMText
 62
2
  6
CONTINUOUS
  7
STANDARD
 71
2
 72
1
 10
95.0626046906
 20
61.4512468332
 30
0.0
 11
1.0
 21
0.0
 31
0.0
 44
0.9
  1
16-SEP-13
 40
0.46875
 41
4.6037946429
  0
MTEXT
  5
3B1
100
AcDbEntity
  8
0
100
AcDbMText
 62
2
  6
CONTINUOUS
  7
STANDARD
 71
2
 72
1
 10
92.6251046906
 20
61.4512468332
 30
0.0
 11
1.0
 21
0.0
 31
0.0
 44
0.9
  1
VU
 40
0.46875
 41
1.2723214286
  0
MTEXT
  5
3B2
100
AcDbEntity
  8
0
100
AcDbMText
 62
2
  6
CONTINUOUS
  7
STANDARD
 71
1
 72
1
 10
72.9376046906
 20
61.4512468332
 30
0.0
 11
1.0
 21
0.0
 31
0.0
 44
0.9
  1
ADD MOUNTING INFORMATION
 40
0.46875
 41
13.5100446429
  0
MTEXT
  5
3B3
100
AcDbEntity
  8
0
100
AcDbMText
 62
2
  6
CONTINUOUS
  7
STANDARD
 71
2
 72
1
 10
71.5313546906
 20
61.4512468332
 30
0.0
 11
1.0
 21
0.0
 31
0.0
 44
0.9
  1
13080
 40
0.46875
 41
2.6953125
  0
MTEXT
  5
3B4
100
AcDbEntity
  8
0
100
AcDbMText
 62
2
  6
CONTINUOUS
  7
STANDARD
 71
2
 72
1
 10
69.5626046906
 20
61.4512468332
 30
0.0
 11
1.0
 21
0.0
 31
0.0
 44
0.9
  1
B
 40
0.46875
 41
0.6863839286
  0
LINE
  5
3B5
100
AcDbEntity
  8
0
100
AcDbLine
 62
2
  6
CONTINUOUS
 10
69.375
 20
5.25
 11
76.125
 21
5.25
  0
LINE
  5
3B6
100
AcDbEntity
  8
0
100
AcDbLine
 62
2
  6
CONTINUOUS
 10
69.375
 20
5.25
 11
69.375
 21
3.375
  0
LINE
  5
3B7
100
AcDbEntity
  8
0
100
AcDbLine
 62
2
  6
CONTINUOUS
 10
69.375
 20
3.375
 11
76.125
 21
3.375
  0
LINE
  5
3B8
100
AcDbEntity
  8
0
100
AcDbLine
 62
2
  6
CONTINUOUS
 10
76.125
 20
5.25
 11
76.125
 21
3.375
  0
LINE
  5
3B9
100
AcDbEntity
  8
0
100
AcDbLine
 62
2
  6
CONTINUOUS
 10
69.375
 20
3.375
 11
76.125
 21
3.375
  0
LINE
  5
3BA
100
AcDbEntity
  8
0
100
AcDbLine
 62
2
  6
CONTINUOUS
 10
69.375
 20
3.375
 11
69.375
 21
1.5
  0
LINE
  5
3BB
100
AcDbEntity
  8
0
100
AcDbLine
 62
2
  6
CONTINUOUS
 10
69.375
 20
1.5
 11
76.125
 21
1.5
  0
LINE
  5
3BC
100
AcDbEntity
  8
0
100
AcDbLine
 62
2
  6
CONTINUOUS
 10
76.125
 20
3.375
 11
76.125
 21
1.5
  0
LINE
  5
3BD
100
AcDbEntity
  8
0
100
AcDbLine
 62
2
  6
CONTINUOUS
 10
76.125
 20
8.25
 11
81.375
 21
8.25
  0
LINE
  5
3BE
100
AcDbEntity
  8
0
100
AcDbLine
 62
2
  6
CONTINUOUS
 10
76.125
 20
8.25
 11
76.125
 21
6.9609375
  0
LINE
  5
3BF
100
AcDbEntity
  8
0
100
AcDbLine
 62
2
  6
CONTINUOUS
 10
76.125
 20
6.9609375
 11
81.375
 21
6.9609375
  0
LINE
  5
3C0
100
AcDbEntity
  8
0
100
AcDbLine
 62
2
  6
CONTINUOUS
 10
81.375
 20
8.25
 11
81.375
 21
6.9609375
  0
MTEXT
  5
3C1
100
AcDbEntity
  8
0
100
AcDbMText
 62
2
  6
CONTINUOUS
  7
STANDARD
 71
1
 72
1
 10
76.3125
 20
7.6640625
 30
0.0
 11
1.0
 21
0.0
 31
0.0
 44
0.9
  1
V. VU 
 40
0.46875
 41
3.2310267857
  0
LINE
  5
3C2
100
AcDbEntity
  8
0
100
AcDbLine
 62
2
  6
CONTINUOUS
 10
76.125
 20
6.9375
 11
81.375
 21
6.9375
  0
LINE
  5
3C3
100
AcDbEntity
  8
0
100
AcDbLine
 62
2
  6
CONTINUOUS
 10
76.125
 20
6.9375
 11
76.125
 21
5.6175
  0
LINE
  5
3C4
100
AcDbEntity
  8
0
100
AcDbLine
 62
2
  6
CONTINUOUS
 10
76.125
 20
5.6175
 11
81.375
 21
5.6175
  0
LINE
  5
3C5
100
AcDbEntity
  8
0
100
AcDbLine
 62
2
  6
CONTINUOUS
 10
81.375
 20
6.9375
 11
81.375
 21
5.6175
  0
MTEXT
  5
3C6
100
AcDbEntity
  8
0
100
AcDbMText
 62
2
  6
CONTINUOUS
  7
STANDARD
 71
1
 72
1
 10
76.3125
 20
6.320625
 30
0.0
 11
1.0
 21
0.0
 31
0.0
 44
0.9
  1
B. HAWKINS 
 40
0.46875
 41
6.2779017857
  0
LINE
  5
3C7
100
AcDbEntity
  8
0
100
AcDbLine
 62
2
  6
CONTINUOUS
 10
76.125
 20
5.625
 11
81.375
 21
5.625
  0
LINE
  5
3C8
100
AcDbEntity
  8
0
100
AcDbLine
 62
2
  6
CONTINUOUS
 10
76.125
 20
5.625
 11
76.125
 21
4.3359375
  0
LINE
  5
3C9
100
AcDbEntity
  8
0
100
AcDbLine
 62
2
  6
CONTINUOUS
 10
76.125
 20
4.3359375
 11
81.375
 21
4.3359375
  0
LINE
  5
3CA
100
AcDbEntity
  8
0
100
AcDbLine
 62
2
  6
CONTINUOUS
 10
81.375
 20
5.625
 11
81.375
 21
4.3359375
  0
MTEXT
  5
3CB
100
AcDbEntity
  8
0
100
AcDbMText
 62
2
  6
CONTINUOUS
  7
STANDARD
 71
1
 72
1
 10
76.3125
 20
5.0390625
 30
0.0
 11
1.0
 21
0.0
 31
0.0
 44
0.9
  1
N/A
 40
0.46875
 41
1.6908482143
  0
LINE
  5
3CC
100
AcDbEntity
  8
0
100
AcDbLine
 62
2
  6
CONTINUOUS
 10
76.125
 20
4.3125
 11
81.375
 21
4.3125
  0
LINE
  5
3CD
100
AcDbEntity
  8
0
100
AcDbLine
 62
2
  6
CONTINUOUS
 10
76.125
 20
4.3125
 11
76.125
 21
2.9925
  0
LINE
  5
3CE
100
AcDbEntity
  8
0
100
AcDbLine
 62
2
  6
CONTINUOUS
 10
76.125
 20
2.9925
 11
81.375
 21
2.9925
  0
LINE
  5
3CF
100
AcDbEntity
  8
0
100
AcDbLine
 62
2
  6
CONTINUOUS
 10
81.375
 20
4.3125
 11
81.375
 21
2.9925
  0
MTEXT
  5
3D0
100
AcDbEntity
  8
0
100
AcDbMText
 62
2
  6
CONTINUOUS
  7
STANDARD
 71
1
 72
1
 10
76.3125
 20
3.695625
 30
0.0
 11
1.0
 21
0.0
 31
0.0
 44
0.9
  1
N/A
 40
0.46875
 41
1.6908482143
  0
LINE
  5
3D1
100
AcDbEntity
  8
0
100
AcDbLine
 62
2
  6
CONTINUOUS
 10
81.375
 20
8.25
 11
84.0
 21
8.25
  0
LINE
  5
3D2
100
AcDbEntity
  8
0
100
AcDbLine
 62
2
  6
CONTINUOUS
 10
81.375
 20
8.25
 11
81.375
 21
6.93
  0
LINE
  5
3D3
100
AcDbEntity
  8
0
100
AcDbLine
 62
2
  6
CONTINUOUS
 10
81.375
 20
6.93
 11
84.0
 21
6.93
  0
LINE
  5
3D4
100
AcDbEntity
  8
0
100
AcDbLine
 62
2
  6
CONTINUOUS
 10
84.0
 20
8.25
 11
84.0
 21
6.93
  0
MTEXT
  5
3D5
100
AcDbEntity
  8
0
100
AcDbMText
 62
2
  6
CONTINUOUS
  7
STANDARD
 71
2
 72
1
 10
82.6875
 20
7.524375
 30
0.0
 11
1.0
 21
0.0
 31
0.0
 44
0.9
  1
06-AUG-12
 40
0.36
 41
3.6642857143
  0
LINE
  5
3D6
100
AcDbEntity
  8
0
100
AcDbLine
 62
2
  6
CONTINUOUS
 10
81.375
 20
6.9375
 11
84.0
 21
6.9375
  0
LINE
  5
3D7
100
AcDbEntity
  8
0
100
AcDbLine
 62
2
  6
CONTINUOUS
 10
81.375
 20
6.9375
 11
81.375
 21
5.6175
  0
LINE
  5
3D8
100
AcDbEntity
  8
0
100
AcDbLine
 62
2
  6
CONTINUOUS
 10
81.375
 20
5.6175
 11
84.0
 21
5.6175
  0
LINE
  5
3D9
100
AcDbEntity
  8
0
100
AcDbLine
 62
2
  6
CONTINUOUS
 10
84.0
 20
6.9375
 11
84.0
 21
5.6175
  0
MTEXT
  5
3DA
100
AcDbEntity
  8
0
100
AcDbMText
 62
2
  6
CONTINUOUS
  7
STANDARD
 71
2
 72
1
 10
82.6875
 20
6.211875
 30
0.0
 11
1.0
 21
0.0
 31
0.0
 44
0.9
  1
14-AUG-12
 40
0.36
 41
3.5485714286
  0
LINE
  5
3DB
100
AcDbEntity
  8
0
100
AcDbLine
 62
2
  6
CONTINUOUS
 10
81.375
 20
5.625
 11
84.0
 21
5.625
  0
LINE
  5
3DC
100
AcDbEntity
  8
0
100
AcDbLine
 62
2
  6
CONTINUOUS
 10
81.375
 20
5.625
 11
81.375
 21
4.305
  0
LINE
  5
3DD
100
AcDbEntity
  8
0
100
AcDbLine
 62
2
  6
CONTINUOUS
 10
81.375
 20
4.305
 11
84.0
 21
4.305
  0
LINE
  5
3DE
100
AcDbEntity
  8
0
100
AcDbLine
 62
2
  6
CONTINUOUS
 10
84.0
 20
5.625
 11
84.0
 21
4.305
  0
LINE
  5
3DF
100
AcDbEntity
  8
0
100
AcDbLine
 62
2
  6
CONTINUOUS
 10
81.375
 20
4.3125
 11
84.0
 21
4.3125
  0
LINE
  5
3E0
100
AcDbEntity
  8
0
100
AcDbLine
 62
2
  6
CONTINUOUS
 10
81.375
 20
4.3125
 11
81.375
 21
3.0234375
  0
LINE
  5
3E1
100
AcDbEntity
  8
0
100
AcDbLine
 62
2
  6
CONTINUOUS
 10
81.375
 20
3.0234375
 11
84.0
 21
3.0234375
  0
LINE
  5
3E2
100
AcDbEntity
  8
0
100
AcDbLine
 62
2
  6
CONTINUOUS
 10
84.0
 20
4.3125
 11
84.0
 21
3.0234375
  0
LINE
  5
3E3
100
AcDbEntity
  8
0
100
AcDbLine
 62
2
  6
CONTINUOUS
 10
76.125
 20
3.0
 11
84.0
 21
3.0
  0
LINE
  5
3E4
100
AcDbEntity
  8
0
100
AcDbLine
 62
2
  6
CONTINUOUS
 10
76.125
 20
3.0
 11
76.125
 21
2.25
  0
LINE
  5
3E5
100
AcDbEntity
  8
0
100
AcDbLine
 62
2
  6
CONTINUOUS
 10
76.125
 20
2.25
 11
84.0
 21
2.25
  0
LINE
  5
3E6
100
AcDbEntity
  8
0
100
AcDbLine
 62
2
  6
CONTINUOUS
 10
84.0
 20
3.0
 11
84.0
 21
2.25
  0
MTEXT
  5
3E7
100
AcDbEntity
  8
0
100
AcDbMText
 62
2
  6
CONTINUOUS
  7
STANDARD
 71
3
 72
1
 10
83.8125
 20
2.814375
 30
0.0
 11
1.0
 21
0.0
 31
0.0
 44
0.9
  1
FG-001030-2D.B.1
 40
0.33
 41
5.7160714286
  0
LINE
  5
3E8
100
AcDbEntity
  8
0
100
AcDbLine
 62
2
  6
CONTINUOUS
 10
76.125
 20
2.25
 11
84.0
 21
2.25
  0
LINE
  5
3E9
100
AcDbEntity
  8
0
100
AcDbLine
 62
2
  6
CONTINUOUS
 10
76.125
 20
2.25
 11
76.125
 21
1.5
  0
LINE
  5
3EA
100
AcDbEntity
  8
0
100
AcDbLine
 62
2
  6
CONTINUOUS
 10
76.125
 20
1.5
 11
84.0
 21
1.5
  0
LINE
  5
3EB
100
AcDbEntity
  8
0
100
AcDbLine
 62
2
  6
CONTINUOUS
 10
84.0
 20
2.25
 11
84.0
 21
1.5
  0
MTEXT
  5
3EC
100
AcDbEntity
  8
0
100
AcDbMText
 62
2
  6
CONTINUOUS
  7
STANDARD
 71
3
 72
1
 10
83.8125
 20
2.064375
 30
0.0
 11
1.0
 21
0.0
 31
0.0
 44
0.9
  1
FG-001030-3D.B.0
 40
0.33
 41
5.7867857143
  0
LINE
  5
3ED
100
AcDbEntity
  8
0
100
AcDbLine
 62
2
  6
CONTINUOUS
 10
84.0
 20
7.125
 11
99.0
 21
7.125
  0
LINE
  5
3EE
100
AcDbEntity
  8
0
100
AcDbLine
 62
2
  6
CONTINUOUS
 10
84.0
 20
7.125
 11
84.0
 21
3.75
  0
LINE
  5
3EF
100
AcDbEntity
  8
0
100
AcDbLine
 62
2
  6
CONTINUOUS
 10
84.0
 20
3.75
 11
99.0
 21
3.75
  0
LINE
  5
3F0
100
AcDbEntity
  8
0
100
AcDbLine
 62
2
  6
CONTINUOUS
 10
99.0
 20
7.125
 11
99.0
 21
3.75
  0
MTEXT
  5
3F1
100
AcDbEntity
  8
0
100
AcDbMText
 62
2
  6
CONTINUOUS
  7
STANDARD
 71
2
 72
1
 10
91.5
 20
6.7575
 30
0.0
 11
1.0
 21
0.0
 31
0.0
 44
1.02
  1
SPEAKER, FINISHED, SR-1030\P \P 
 40
0.6
 41
17.3357142857
  0
LINE
  5
3F2
100
AcDbEntity
  8
0
100
AcDbLine
 62
2
  6
CONTINUOUS
 10
84.0032769088
 20
3.7438214025
 11
85.5032769088
 21
3.7438214025
  0
LINE
  5
3F3
100
AcDbEntity
  8
0
100
AcDbLine
 62
2
  6
CONTINUOUS
 10
84.0032769088
 20
3.7438214025
 11
84.0032769088
 21
2.2438214025
  0
LINE
  5
3F4
100
AcDbEntity
  8
0
100
AcDbLine
 62
2
  6
CONTINUOUS
 10
84.0032769088
 20
2.2438214025
 11
85.5032769088
 21
2.2438214025
  0
LINE
  5
3F5
100
AcDbEntity
  8
0
100
AcDbLine
 62
2
  6
CONTINUOUS
 10
85.5032769088
 20
3.7438214025
 11
85.5032769088
 21
2.2438214025
  0
MTEXT
  5
3F6
100
AcDbEntity
  8
0
100
AcDbMText
 62
2
  6
CONTINUOUS
  7
STANDARD
 71
2
 72
1
 10
84.7532769088
 20
3.0781964025
 30
0.0
 11
1.0
 21
0.0
 31
0.0
 44
0.9
  1
D
 40
0.6
 41
0.8142857143
  0
LINE
  5
3F7
100
AcDbEntity
  8
0
100
AcDbLine
 62
2
  6
CONTINUOUS
 10
88.5015524928
 20
3.7349237674
 11
97.5015524928
 21
3.7349237674
  0
LINE
  5
3F8
100
AcDbEntity
  8
0
100
AcDbLine
 62
2
  6
CONTINUOUS
 10
88.5015524928
 20
3.7349237674
 11
88.5015524928
 21
2.2349237674
  0
LINE
  5
3F9
100
AcDbEntity
  8
0
100
AcDbLine
 62
2
  6
CONTINUOUS
 10
88.5015524928
 20
2.2349237674
 11
97.5015524928
 21
2.2349237674
  0
LINE
  5
3FA
100
AcDbEntity
  8
0
100
AcDbLine
 62
2
  6
CONTINUOUS
 10
97.5015524928
 20
3.7349237674
 11
97.5015524928
 21
2.2349237674
  0
MTEXT
  5
3FB
100
AcDbEntity
  8
0
100
AcDbMText
 62
2
  6
CONTINUOUS
  7
STANDARD
 71
2
 72
1
 10
93.0015524928
 20
3.1592987674
 30
0.0
 11
1.0
 21
0.0
 31
0.0
 44
0.9
  1
FG-001030-2D
 40
0.69
 41
9.3642857143
  0
LINE
  5
3FC
100
AcDbEntity
  8
0
100
AcDbLine
 62
2
  6
CONTINUOUS
 10
97.4960996888
 20
3.7448634679
 11
98.9960996888
 21
3.7448634679
  0
LINE
  5
3FD
100
AcDbEntity
  8
0
100
AcDbLine
 62
2
  6
CONTINUOUS
 10
97.4960996888
 20
3.7448634679
 11
97.4960996888
 21
2.2448634679
  0
LINE
  5
3FE
100
AcDbEntity
  8
0
100
AcDbLine
 62
2
  6
CONTINUOUS
 10
97.4960996888
 20
2.2448634679
 11
98.9960996888
 21
2.2448634679
  0
LINE
  5
3FF
100
AcDbEntity
  8
0
100
AcDbLine
 62
2
  6
CONTINUOUS
 10
98.9960996888
 20
3.7448634679
 11
98.9960996888
 21
2.2448634679
  0
MTEXT
  5
400
100
AcDbEntity
  8
0
100
AcDbMText
 62
2
  6
CONTINUOUS
  7
STANDARD
 71
2
 72
1
 10
98.2460996888
 20
3.0192384679
 30
0.0
 11
1.0
 21
0.0
 31
0.0
 44
0.9
  1
B
 40
0.54
 41
0.6364285714
  0
LINE
  5
401
100
AcDbEntity
  8
0
100
AcDbLine
 62
2
  6
CONTINUOUS
 10
94.1268618581
 20
2.2287866509
 11
99.0018618581
 21
2.2287866509
  0
LINE
  5
402
100
AcDbEntity
  8
0
100
AcDbLine
 62
2
  6
CONTINUOUS
 10
94.1268618581
 20
2.2287866509
 11
94.1268618581
 21
1.4787866509
  0
LINE
  5
403
100
AcDbEntity
  8
0
100
AcDbLine
 62
2
  6
CONTINUOUS
 10
94.1268618581
 20
1.4787866509
 11
99.0018618581
 21
1.4787866509
  0
LINE
  5
404
100
AcDbEntity
  8
0
100
AcDbLine
 62
2
  6
CONTINUOUS
 10
99.0018618581
 20
2.2287866509
 11
99.0018618581
 21
1.4787866509
  0
MTEXT
  5
405
100
AcDbEntity
  8
0
100
AcDbMText
 62
2
  6
CONTINUOUS
  7
STANDARD
 71
3
 72
1
 10
98.8143618581
 20
2.1331616509
 30
0.0
 11
1.0
 21
0.0
 31
0.0
 44
0.9
  1
1 OF 1
 40
0.42
 41
2.655
  0
LINE
  5
406
100
AcDbEntity
  8
0
100
AcDbLine
 62
2
  6
CONTINUOUS
 10
83.9947794363
 20
2.2464696507
 11
87.5587794363
 21
2.2464696507
  0
LINE
  5
407
100
AcDbEntity
  8
0
100
AcDbLine
 62
2
  6
CONTINUOUS
 10
83.9947794363
 20
2.2464696507
 11
83.9947794363
 21
1.4847509007
  0
LINE
  5
408
100
AcDbEntity
  8
0
100
AcDbLine
 62
2
  6
CONTINUOUS
 10
83.9947794363
 20
1.4847509007
 11
87.5587794363
 21
1.4847509007
  0
LINE
  5
409
100
AcDbEntity
  8
0
100
AcDbLine
 62
2
  6
CONTINUOUS
 10
87.5587794363
 20
2.2464696507
 11
87.5587794363
 21
1.4847509007
  0
MTEXT
  5
40A
100
AcDbEntity
  8
0
100
AcDbMText
 62
2
  6
CONTINUOUS
  7
STANDARD
 71
3
 72
1
 10
87.3712794363
 20
2.0791259007
 30
0.0
 11
1.0
 21
0.0
 31
0.0
 44
0.9
  1
0.333
 40
0.36
 41
1.89
  0
MTEXT
  5
40B
100
AcDbEntity
  8
0
100
AcDbMText
 62
2
  6
CONTINUOUS
  7
STANDARD
 71
1
 72
1
 10
3.0314758339
 20
7.4248899474
 30
0.0
 11
1.0
 21
0.0
 31
0.0
 44
1.2
  3
5. PARTS ARE SYMMETRICAL ABOUT CENTER LINES UNLESS OTHERWISE NOTED.\P4. SYMBOL    INDICATES CENTER OF BALANCE.\P3. SYMBOL \Fgdt;{\Fgdt;r}\Ftxt; INDICATES SUSPENSION POINT OF 5/16-18 THREAD, 2 PLACES. \P2. TOLERANCES ARE IN INCHES: .X \Fgdt;{\Fgdt;`}\
  1
Ftxt; .13, ANGLES: \Fgdt;{\Fgdt;`}\Ftxt; 1\Fgdt;{\Fgdt;~}\Ftxt;.\P1. NET WEIGHT APPROX. 36.5 LBS (16.5 KG).\PNOTE:  UNLESS OTHERWISE SPECIFIED
 40
0.46875
 41
37.1651785714
  0
LEADER
  5
40C
100
AcDbEntity
  8
0
100
AcDbLeader
 62
2
  6
CONTINUOUS
  3
STANDARD
 71
1
 72
0
 73
0
 75
0
 40
0.46875
 41
12.7120535714
 76
3
 10
20.4627590337
 20
53.9054776239
 30
0.0
 10
23.8307940455
 20
57.5352879779
 30
0.0
 10
24.5807940455
 20
57.5352879779
 30
0.0
340
40D
1001
ACAD
1000
DSTYLE
1002
{
1070
77
1070
0
1002
}
  0
MTEXT
  5
40D
102
{ACAD_REACTORS
330
40C
102
}
100
AcDbEntity
  8
0
100
AcDbMText
 62
2
  6
CONTINUOUS
  7
STANDARD
 71
1
 72
1
 10
24.5807940455
 20
57.7696629779
 30
0.0
 11
1.0
 21
0.0
 31
0.0
 44
0.9
  1
REMOVE BRACKET FOR CUSTOM MOUNTING
 40
0.46875
 41
19.0680803571
  0
LEADER
  5
40E
100
AcDbEntity
  8
0
100
AcDbLeader
 62
2
  6
CONTINUOUS
  3
STANDARD
 71
1
 72
0
 73
0
 75
0
 40
0.46875
 41
4.8325892857
 76
3
 10
48.3472254078
 20
27.4287313507
 30
0.0
 10
43.7561843583
 20
36.8804919222
 30
0.0
 10
40.9246924644
 20
36.8804919222
 30
0.0
340
40F
1001
ACAD
1000
DSTYLE
1002
{
1070
77
1070
0
1002
}
  0
MTEXT
  5
40F
102
{ACAD_REACTORS
330
40E
102
}
100
AcDbEntity
  8
0
100
AcDbMText
 62
2
  6
CONTINUOUS
  7
STANDARD
 71
3
 72
1
 10
40.9246924644
 20
37.1148669222
 30
0.0
 11
1.0
 21
0.0
 31
0.0
 44
0.9
  1
SIDE MOUNTING\PUSES 5/16-18 FASTENER
 40
0.46875
 41
11.0825892857
  0
LEADER
  5
410
100
AcDbEntity
  8
0
100
AcDbLeader
 62
2
  6
CONTINUOUS
  3
STANDARD
 71
1
 72
0
 73
0
 75
0
 40
0.46875
 41
4.9330357143
 76
3
 10
75.6134856378
 20
26.2527524596
 30
0.0
 10
83.5913975796
 20
21.1137751076
 30
0.0
 10
84.3413975796
 20
21.1137751076
 30
0.0
340
411
1001
ACAD
1000
DSTYLE
1002
{
1070
77
1070
0
1002
}
  0
MTEXT
  5
411
102
{ACAD_REACTORS
330
410
102
}
100
AcDbEntity
  8
0
100
AcDbMText
 62
2
  6
CONTINUOUS
  7
STANDARD
 71
1
 72
1
 10
84.3413975796
 20
21.3481501076
 30
0.0
 11
1.0
 21
0.0
 31
0.0
 44
0.9
  1
BACK MOUNTING\PUSES M5 FASTENER
 40
0.46875
 41
8.7388392857
  0
INSERT
  5
412
100
AcDbEntity
  8
0
100
AcDbBlockReference
 62
2
  6
CONTINUOUS
  2
CG_3D_BL1
 10
7.0352609591
 20
6.2235665403
  0
INSERT
  5
413
100
AcDbEntity
  8
0
100
AcDbBlockReference
 62
2
  6
CONTINUOUS
  2
CG_3D_BL2
 10
18.5521767999
 20
26.4840650397
  0
INSERT
  5
414
100
AcDbEntity
  8
0
100
AcDbBlockReference
 62
2
  6
CONTINUOUS
  2
CG_3D_BL3
 10
48.5271993774
 20
26.4854778351
  0
LINE
  5
415
100
AcDbEntity
  8
DEFAULT_3
100
AcDbLine
 62
7
  6
PHANTOM
 10
0.0
 20
-0.0
 11
0.0
 21
66.0
  0
LWPOLYLINE
  5
416
100
AcDbEntity
  8
0
100
AcDbPolyline
 62
7
  6
CONTINUOUS
 90
2
 70
0
 43
0.0600000025
 10
0.7873881664
 20
32.494035332
 10
0.7873881664
 20
33.505964668
  0
LWPOLYLINE
  5
417
100
AcDbEntity
  8
0
100
AcDbPolyline
 62
7
  6
CONTINUOUS
 90
2
 70
0
 43
0.0900000007
 10
1.5
 20
64.5
 10
1.5
 20
1.5
  0
LWPOLYLINE
  5
418
100
AcDbEntity
  8
0
100
AcDbPolyline
 62
7
  6
CONTINUOUS
 90
2
 70
0
 43
0.0900000007
 10
10.6875
 20
64.5
 10
10.6875
 20
63.0
  0
LWPOLYLINE
  5
419
100
AcDbEntity
  8
0
100
AcDbPolyline
 62
7
  6
CONTINUOUS
 90
2
 70
0
 43
0.0600000025
 10
13.6875
 20
1.5
 10
13.6875
 20
-0.0
  0
LWPOLYLINE
  5
41A
100
AcDbEntity
  8
0
100
AcDbPolyline
 62
7
  6
CONTINUOUS
 90
2
 70
0
 43
0.0600000025
 10
13.6875
 20
64.5
 10
13.6875
 20
66.0
  0
LINE
  5
41B
100
AcDbEntity
  8
0
100
AcDbLine
 62
7
  6
CONTINUOUS
 10
69.3735093036
 20
1.5009171649
 11
76.1247296715
 21
3.3743232379
  0
LINE
  5
41C
100
AcDbEntity
  8
0
100
AcDbLine
 62
7
  6
CONTINUOUS
 10
69.3753431982
 20
3.375225513
 11
76.1240711423
 21
5.2510213125
  0
LINE
  5
41D
100
AcDbEntity
  8
DEFAULT_3
100
AcDbLine
 62
7
  6
PHANTOM
 10
0.0
 20
-0.0
 11
102.0
 21
-0.0
  0
LWPOLYLINE
  5
41E
100
AcDbEntity
  8
0
100
AcDbPolyline
 62
7
  6
CONTINUOUS
 90
2
 70
0
 43
0.0600000025
 10
49.744035332
 20
0.7873881664
 10
50.755964668
 20
0.7873881664
  0
LWPOLYLINE
  5
41F
100
AcDbEntity
  8
0
100
AcDbPolyline
 62
7
  6
CONTINUOUS
 90
2
 70
0
 43
0.0600000025
 10
1.5
 20
33.0
 10
0.7873881664
 20
32.494035332
  0
LWPOLYLINE
  5
420
100
AcDbEntity
  8
0
100
AcDbPolyline
 62
7
  6
CONTINUOUS
 90
2
 70
0
 43
0.0900000007
 10
1.5
 20
1.5
 10
99.0
 20
1.5
  0
LWPOLYLINE
  5
421
100
AcDbEntity
  8
0
100
AcDbPolyline
 62
7
  6
CONTINUOUS
 90
2
 70
0
 43
0.0600000025
 10
76.125
 20
2.25
 10
99.0
 20
2.25
  0
LWPOLYLINE
  5
422
100
AcDbEntity
  8
0
100
AcDbPolyline
 62
7
  6
CONTINUOUS
 90
2
 70
0
 43
0.0600000025
 10
76.125
 20
3.0
 10
84.0
 20
3.0
  0
LWPOLYLINE
  5
423
100
AcDbEntity
  8
0
100
AcDbPolyline
 62
7
  6
CONTINUOUS
 90
2
 70
0
 43
0.0600000025
 10
76.125
 20
3.375
 10
69.375
 20
3.375
  0
LWPOLYLINE
  5
424
100
AcDbEntity
  8
0
100
AcDbPolyline
 62
7
  6
CONTINUOUS
 90
2
 70
0
 43
0.0600000025
 10
84.0
 20
3.75
 10
99.0
 20
3.75
  0
LWPOLYLINE
  5
425
100
AcDbEntity
  8
0
100
AcDbPolyline
 62
7
  6
CONTINUOUS
 90
2
 70
0
 43
0.0600000025
 10
76.125
 20
4.3125
 10
84.0
 20
4.3125
  0
LWPOLYLINE
  5
426
100
AcDbEntity
  8
0
100
AcDbPolyline
 62
7
  6
CONTINUOUS
 90
2
 70
0
 43
0.0600000025
 10
1.5
 20
33.0
 10
0.7873881664
 20
33.505964668
  0
LWPOLYLINE
  5
427
100
AcDbEntity
  8
0
100
AcDbPolyline
 62
7
  6
CONTINUOUS
 90
2
 70
0
 43
0.0600000025
 10
25.875
 20
1.5
 10
25.875
 20
-0.0
  0
LWPOLYLINE
  5
428
100
AcDbEntity
  8
0
100
AcDbPolyline
 62
7
  6
CONTINUOUS
 90
2
 70
0
 43
0.0600000025
 10
25.875
 20
64.5
 10
25.875
 20
66.0
  0
LWPOLYLINE
  5
429
100
AcDbEntity
  8
0
100
AcDbPolyline
 62
7
  6
CONTINUOUS
 90
2
 70
0
 43
0.0600000025
 10
69.375
 20
5.25
 10
76.125
 20
5.25
  0
LWPOLYLINE
  5
42A
100
AcDbEntity
  8
0
100
AcDbPolyline
 62
7
  6
CONTINUOUS
 90
2
 70
0
 43
0.0600000025
 10
76.125
 20
5.625
 10
84.0
 20
5.625
  0
LWPOLYLINE
  5
42B
100
AcDbEntity
  8
0
100
AcDbPolyline
 62
7
  6
CONTINUOUS
 90
2
 70
0
 43
0.0600000025
 10
76.125
 20
6.9375
 10
84.0
 20
6.9375
  0
LWPOLYLINE
  5
42C
100
AcDbEntity
  8
0
100
AcDbPolyline
 62
7
  6
CONTINUOUS
 90
2
 70
0
 43
0.0600000025
 10
84.0
 20
7.125
 10
99.0
 20
7.125
  0
LWPOLYLINE
  5
42D
100
AcDbEntity
  8
0
100
AcDbPolyline
 62
7
  6
CONTINUOUS
 90
2
 70
0
 43
0.0600000025
 10
76.125
 20
8.25
 10
84.0
 20
8.25
  0
LWPOLYLINE
  5
42E
100
AcDbEntity
  8
0
100
AcDbPolyline
 62
7
  6
CONTINUOUS
 90
2
 70
0
 43
0.0600000025
 10
69.375
 20
9.1875
 10
99.0
 20
9.1875
  0
LWPOLYLINE
  5
42F
100
AcDbEntity
  8
0
100
AcDbPolyline
 62
7
  6
CONTINUOUS
 90
2
 70
0
 43
0.0600000025
 10
50.25
 20
64.5
 10
50.755964668
 20
65.2126118336
  0
LWPOLYLINE
  5
430
100
AcDbEntity
  8
0
100
AcDbPolyline
 62
7
  6
CONTINUOUS
 90
2
 70
0
 43
0.0600000025
 10
50.25
 20
1.5
 10
50.755964668
 20
0.7873881664
  0
LWPOLYLINE
  5
431
100
AcDbEntity
  8
0
100
AcDbPolyline
 62
7
  6
CONTINUOUS
 90
2
 70
0
 43
0.0600000025
 10
1.5
 20
17.25
 10
0.0
 20
17.25
  0
LWPOLYLINE
  5
432
100
AcDbEntity
  8
0
100
AcDbPolyline
 62
7
  6
CONTINUOUS
 90
2
 70
0
 43
0.0600000025
 10
99.0197815525
 20
17.2525231228
 10
100.5197815525
 20
17.2525231228
  0
LWPOLYLINE
  5
433
100
AcDbEntity
  8
0
100
AcDbPolyline
 62
7
  6
CONTINUOUS
 90
2
 70
0
 43
0.0600000025
 10
38.0625
 20
1.5
 10
38.0625
 20
-0.0
  0
LWPOLYLINE
  5
434
100
AcDbEntity
  8
0
100
AcDbPolyline
 62
7
  6
CONTINUOUS
 90
2
 70
0
 43
0.0600000025
 10
38.0625
 20
64.5
 10
38.0625
 20
66.0
  0
LINE
  5
435
100
AcDbEntity
  8
0
100
AcDbLine
 62
7
  6
CONTINUOUS
 10
76.1299879962
 20
5.2529017014
 11
69.3519057325
 21
9.1936472036
  0
LWPOLYLINE
  5
436
100
AcDbEntity
  8
0
100
AcDbPolyline
 62
7
  6
CONTINUOUS
 90
2
 70
0
 43
0.0600000025
 10
50.25
 20
1.5
 10
50.25
 20
-0.0
  0
LWPOLYLINE
  5
437
100
AcDbEntity
  8
0
100
AcDbPolyline
 62
7
  6
CONTINUOUS
 90
2
 70
0
 43
0.0600000025
 10
50.25
 20
64.5
 10
50.25
 20
66.0
  0
LWPOLYLINE
  5
438
100
AcDbEntity
  8
0
100
AcDbPolyline
 62
7
  6
CONTINUOUS
 90
2
 70
0
 43
0.0600000025
 10
1.5
 20
33.0
 10
-0.0
 20
33.0
  0
LWPOLYLINE
  5
439
100
AcDbEntity
  8
0
100
AcDbPolyline
 62
7
  6
CONTINUOUS
 90
2
 70
0
 43
0.0600000025
 10
99.0032380379
 20
33.0040793944
 10
100.5032380379
 20
33.0040793944
  0
LWPOLYLINE
  5
43A
100
AcDbEntity
  8
0
100
AcDbPolyline
 62
7
  6
CONTINUOUS
 90
2
 70
0
 43
0.0600000025
 10
62.4375
 20
1.5
 10
62.4375
 20
-0.0
  0
LWPOLYLINE
  5
43B
100
AcDbEntity
  8
0
100
AcDbPolyline
 62
7
  6
CONTINUOUS
 90
2
 70
0
 43
0.0600000025
 10
62.4375
 20
64.5
 10
62.4375
 20
66.0
  0
LWPOLYLINE
  5
43C
100
AcDbEntity
  8
0
100
AcDbPolyline
 62
7
  6
CONTINUOUS
 90
2
 70
0
 43
0.0600000025
 10
50.25
 20
1.5
 10
49.744035332
 20
0.7873881664
  0
LWPOLYLINE
  5
43D
100
AcDbEntity
  8
0
100
AcDbPolyline
 62
7
  6
CONTINUOUS
 90
2
 70
0
 43
0.0600000025
 10
1.5
 20
48.75
 10
0.0
 20
48.75
  0
LWPOLYLINE
  5
43E
100
AcDbEntity
  8
0
100
AcDbPolyline
 62
7
  6
CONTINUOUS
 90
2
 70
0
 43
0.0600000025
 10
99.0
 20
48.75
 10
100.5
 20
48.75
  0
LWPOLYLINE
  5
43F
100
AcDbEntity
  8
0
100
AcDbPolyline
 62
7
  6
CONTINUOUS
 90
2
 70
0
 43
0.0600000025
 10
50.25
 20
64.5
 10
49.744035332
 20
65.2126118336
  0
LWPOLYLINE
  5
440
100
AcDbEntity
  8
0
100
AcDbPolyline
 62
7
  6
CONTINUOUS
 90
2
 70
0
 43
0.0600000025
 10
69.375
 20
1.5
 10
69.375
 20
9.1875
  0
LWPOLYLINE
  5
441
100
AcDbEntity
  8
0
100
AcDbPolyline
 62
7
  6
CONTINUOUS
 90
2
 70
0
 43
0.0600000025
 10
74.625
 20
1.5
 10
74.625
 20
-0.0
  0
LWPOLYLINE
  5
442
100
AcDbEntity
  8
0
100
AcDbPolyline
 62
7
  6
CONTINUOUS
 90
2
 70
0
 43
0.0600000025
 10
74.625
 20
64.5
 10
74.625
 20
66.0
  0
LWPOLYLINE
  5
443
100
AcDbEntity
  8
0
100
AcDbPolyline
 62
7
  6
CONTINUOUS
 90
2
 70
0
 43
0.0600000025
 10
76.125
 20
1.5
 10
76.125
 20
9.1875
  0
LWPOLYLINE
  5
444
100
AcDbEntity
  8
0
100
AcDbPolyline
 62
7
  6
CONTINUOUS
 90
2
 70
0
 43
0.0600000025
 10
99.0032380379
 20
33.0040793944
 10
99.7158498715
 20
33.5100440624
  0
LWPOLYLINE
  5
445
100
AcDbEntity
  8
0
100
AcDbPolyline
 62
7
  6
CONTINUOUS
 90
2
 70
0
 43
0.0600000025
 10
99.0032380379
 20
33.0040793944
 10
99.7158498715
 20
32.4981147264
  0
LWPOLYLINE
  5
446
100
AcDbEntity
  8
0
100
AcDbPolyline
 62
7
  6
CONTINUOUS
 90
2
 70
0
 43
0.0600000025
 10
81.375
 20
3.0
 10
81.375
 20
9.1875
  0
LWPOLYLINE
  5
447
100
AcDbEntity
  8
0
100
AcDbPolyline
 62
7
  6
CONTINUOUS
 90
2
 70
0
 43
0.0900000007
 10
10.6875
 20
63.0
 10
1.5
 20
63.0
  0
LWPOLYLINE
  5
448
100
AcDbEntity
  8
0
100
AcDbPolyline
 62
7
  6
CONTINUOUS
 90
2
 70
0
 43
0.0900000007
 10
99.0
 20
64.5
 10
1.5
 20
64.5
  0
LWPOLYLINE
  5
449
100
AcDbEntity
  8
0
100
AcDbPolyline
 62
7
  6
CONTINUOUS
 90
2
 70
0
 43
0.0600000025
 10
49.744035332
 20
65.2126118336
 10
50.755964668
 20
65.2126118336
  0
LWPOLYLINE
  5
44A
100
AcDbEntity
  8
0
100
AcDbPolyline
 62
7
  6
CONTINUOUS
 90
2
 70
0
 43
0.0600000025
 10
84.0
 20
1.5
 10
84.0
 20
9.1875
  0
LWPOLYLINE
  5
44B
100
AcDbEntity
  8
0
100
AcDbPolyline
 62
7
  6
CONTINUOUS
 90
2
 70
0
 43
0.0600000025
 10
85.5
 20
2.25
 10
85.5
 20
3.75
  0
LWPOLYLINE
  5
44C
100
AcDbEntity
  8
0
100
AcDbPolyline
 62
7
  6
CONTINUOUS
 90
2
 70
0
 43
0.0600000025
 10
86.8125
 20
1.5
 10
86.8125
 20
-0.0
  0
LWPOLYLINE
  5
44D
100
AcDbEntity
  8
0
100
AcDbPolyline
 62
7
  6
CONTINUOUS
 90
2
 70
0
 43
0.0600000025
 10
86.8125
 20
64.5
 10
86.8125
 20
66.0
  0
LINE
  5
44E
100
AcDbEntity
  8
0
100
AcDbLine
 62
7
  6
CONTINUOUS
 10
69.3834316965
 20
5.2844276655
 11
76.1457509782
 21
9.2094101856
  0
LINE
  5
44F
100
AcDbEntity
  8
DEFAULT_3
100
AcDbLine
 62
7
  6
PHANTOM
 10
0.0
 20
66.0
 11
102.0
 21
66.0
  0
LWPOLYLINE
  5
450
100
AcDbEntity
  8
0
100
AcDbPolyline
 62
7
  6
CONTINUOUS
 90
2
 70
0
 43
0.0600000025
 10
87.5508868996
 20
1.5142504667
 10
87.5508868996
 20
2.2642504667
  0
LWPOLYLINE
  5
451
100
AcDbEntity
  8
0
100
AcDbPolyline
 62
7
  6
CONTINUOUS
 90
2
 70
0
 43
0.0600000025
 10
88.5
 20
2.25
 10
88.5
 20
3.75
  0
LWPOLYLINE
  5
452
100
AcDbEntity
  8
0
100
AcDbPolyline
 62
7
  6
CONTINUOUS
 90
2
 70
0
 43
0.0600000025
 10
94.125
 20
1.5
 10
94.125
 20
2.25
  0
LWPOLYLINE
  5
453
100
AcDbEntity
  8
0
100
AcDbPolyline
 62
7
  6
CONTINUOUS
 90
2
 70
0
 43
0.0600000025
 10
97.5
 20
2.25
 10
97.5
 20
3.75
  0
LWPOLYLINE
  5
454
100
AcDbEntity
  8
0
100
AcDbPolyline
 62
7
  6
CONTINUOUS
 90
2
 70
0
 43
0.0900000007
 10
99.0
 20
64.5
 10
99.0
 20
1.5
  0
LWPOLYLINE
  5
455
100
AcDbEntity
  8
0
100
AcDbPolyline
 62
7
  6
CONTINUOUS
 90
2
 70
0
 43
0.0600000025
 10
99.7158498715
 20
32.4981147264
 10
99.7158498715
 20
33.5100440624
  0
LINE
  5
456
100
AcDbEntity
  8
DEFAULT_3
100
AcDbLine
 62
7
  6
PHANTOM
 10
102.0
 20
-0.0
 11
102.0
 21
66.0
  0
LINE
  5
457
100
AcDbEntity
  8
3_AXES_OTHER
100
AcDbLine
 62
7
  6
CONTINUOUS
 10
47.3100058388
 20
59.3463597878
 11
47.5435088237
 21
59.6575837408
  0
LINE
  5
458
100
AcDbEntity
  8
3_AXES_OTHER
100
AcDbLine
 62
7
  6
CONTINUOUS
 10
47.5435088237
 20
59.6575837408
 11
50.2414956744
 21
61.9385490517
  0
LINE
  5
459
100
AcDbEntity
  8
3_AXES_OTHER
100
AcDbLine
 62
7
  6
CONTINUOUS
 10
62.9843009283
 20
40.4392578192
 11
49.0368562743
 21
44.2100036005
  0
LINE
  5
45A
100
AcDbEntity
  8
3_AXES_OTHER
100
AcDbLine
 62
7
  6
CONTINUOUS
 10
49.5289681862
 20
60.6157878731
 11
49.5351106711
 21
60.7731984783
  0
LINE
  5
45B
100
AcDbEntity
  8
3_AXES_OTHER
100
AcDbLine
 62
7
  6
CONTINUOUS
 10
51.4528865728
 20
44.063468395
 11
60.4489883747
 21
41.6313373661
  0
LINE
  5
45C
100
AcDbEntity
  8
3_ALL_AXES
100
AcDbLine
 62
7
  6
CONTINUOUS
 10
60.3888821614
 20
41.8307320223
 11
51.7414664758
 21
44.1685944067
  0
LINE
  5
45D
100
AcDbEntity
  8
3_ALL_AXES
100
AcDbLine
 62
7
  6
CONTINUOUS
 10
51.6863895576
 20
44.3746923481
 11
51.7189580623
 21
44.3658873264
  0
LINE
  5
45E
100
AcDbEntity
  8
3_ALL_AXES
100
AcDbLine
 62
7
  6
CONTINUOUS
 10
59.5504641507
 20
42.6631636699
 11
52.4372673771
 21
44.5862440183
  0
LINE
  5
45F
100
AcDbEntity
  8
3_AXES_OTHER
100
AcDbLine
 62
7
  6
CONTINUOUS
 10
49.0368562743
 20
44.2100036005
 11
47.3100058388
 21
59.3463597878
  0
LINE
  5
460
100
AcDbEntity
  8
3_ALL_AXES
100
AcDbLine
 62
7
  6
CONTINUOUS
 10
59.5279557372
 20
42.8604565896
 11
52.5565335171
 21
44.7452076374
  0
LINE
  5
461
100
AcDbEntity
  8
3_AXES_OTHER
100
AcDbLine
 62
7
  6
CONTINUOUS
 10
52.802603849
 20
61.3859766021
 11
52.8428396371
 21
61.5579491889
  0
LINE
  5
462
100
AcDbEntity
  8
3_AXES_OTHER
100
AcDbLine
 62
7
  6
CONTINUOUS
 10
57.6392737797
 20
60.5394960704
 11
57.8776459232
 21
60.7410235873
  0
LINE
  5
463
100
AcDbEntity
  8
3_ALL_AXES
100
AcDbLine
 62
7
  6
CONTINUOUS
 10
58.4247693016
 20
60.4468593129
 11
58.3553143698
 21
60.3881398681
  0
LINE
  5
464
100
AcDbEntity
  8
3_ALL_AXES
100
AcDbLine
 62
7
  6
CONTINUOUS
 10
58.4227218066
 20
60.3943891112
 11
58.3629422053
 21
60.3438495036
  0
LINE
  5
465
100
AcDbEntity
  8
3_ALL_AXES
100
AcDbLine
 62
7
  6
CONTINUOUS
 10
58.6098552347
 20
60.3193237576
 11
58.6793101665
 21
60.3780432024
  0
LINE
  5
466
100
AcDbEntity
  8
3_AXES_OTHER
100
AcDbLine
 62
7
  6
CONTINUOUS
 10
51.4528865728
 20
44.063468395
 11
49.8414322254
 21
58.1883436476
  0
LINE
  5
467
100
AcDbEntity
  8
3_ALL_AXES
100
AcDbLine
 62
7
  6
CONTINUOUS
 10
51.6863895576
 20
44.3746923481
 11
50.5973657755
 21
53.9203087627
  0
LINE
  5
468
100
AcDbEntity
  8
3_ALL_AXES
100
AcDbLine
 62
7
  6
CONTINUOUS
 10
50.4410327092
 20
55.2906144517
 11
50.1190028874
 21
58.1133013421
  0
LINE
  5
469
100
AcDbEntity
  8
3_ALL_AXES
100
AcDbLine
 62
7
  6
CONTINUOUS
 10
50.9766206071
 20
50.8726952716
 11
51.7414664758
 21
44.1685944067
  0
LINE
  5
46A
100
AcDbEntity
  8
3_ALL_AXES
100
AcDbLine
 62
7
  6
CONTINUOUS
 10
52.4372673771
 20
44.5862440183
 11
51.8185233028
 21
50.0097193263
  0
LINE
  5
46B
100
AcDbEntity
  8
3_ALL_AXES
100
AcDbLine
 62
7
  6
CONTINUOUS
 10
52.5565335171
 20
44.7452076374
 11
51.9602978563
 21
49.9713900256
  0
LINE
  5
46C
100
AcDbEntity
  8
3_AXES_OTHER
100
AcDbLine
 62
7
  6
CONTINUOUS
 10
52.5188186828
 20
60.4991177685
 11
52.5249611678
 21
60.6565283736
  0
LINE
  5
46D
100
AcDbEntity
  8
3_ALL_AXES
100
AcDbLine
 62
7
  6
CONTINUOUS
 10
51.0958867471
 20
51.0316588907
 11
50.9766206071
 21
50.8726952716
  0
LINE
  5
46E
100
AcDbEntity
  8
3_ALL_AXES
100
AcDbLine
 62
7
  6
CONTINUOUS
 10
60.1960947726
 20
59.9679745987
 11
60.1266398409
 21
59.9092551539
  0
LINE
  5
46F
100
AcDbEntity
  8
3_ALL_AXES
100
AcDbLine
 62
7
  6
CONTINUOUS
 10
60.1940472776
 20
59.915504397
 11
60.1342676764
 21
59.8649647894
  0
LINE
  5
470
100
AcDbEntity
  8
3_ALL_AXES
100
AcDbLine
 62
7
  6
CONTINUOUS
 10
60.3811807058
 20
59.8404390434
 11
60.4506356376
 21
59.8991584882
  0
LINE
  5
471
100
AcDbEntity
  8
3_AXES_OTHER
100
AcDbLine
 62
7
  6
CONTINUOUS
 10
55.1837924866
 20
60.6309726566
 11
55.2374402041
 21
60.860269439
  0
LINE
  5
472
100
AcDbEntity
  8
3_AXES_OTHER
100
AcDbLine
 62
7
  6
CONTINUOUS
 10
55.7464464739
 20
60.8342427924
 11
55.756286631
 21
60.8763008047
  0
LINE
  5
473
100
AcDbEntity
  8
3_AXES_OTHER
100
AcDbLine
 62
7
  6
CONTINUOUS
 10
61.0215291083
 20
59.6250902185
 11
61.2599012518
 21
59.8266177353
  0
LINE
  5
474
100
AcDbEntity
  8
3_AXES_OTHER
100
AcDbLine
 62
7
  6
CONTINUOUS
 10
61.0574688217
 20
59.6040591084
 11
61.2578264569
 21
59.7734479309
  0
LINE
  5
475
100
AcDbEntity
  8
3_AXES_OTHER
100
AcDbLine
 62
7
  6
CONTINUOUS
 10
61.0781426257
 20
59.5238682778
 11
61.0289829571
 21
59.4823071047
  0
LINE
  5
476
100
AcDbEntity
  8
3_AXES_OTHER
100
AcDbLine
 62
7
  6
CONTINUOUS
 10
61.4404627387
 20
59.3781738509
 11
61.4832485143
 21
59.414346329
  0
LINE
  5
477
100
AcDbEntity
  8
3_AXES_OTHER
100
AcDbLine
 62
7
  6
CONTINUOUS
 10
57.0211631772
 20
60.6463781844
 11
56.9763209485
 21
60.4547171179
  0
LINE
  5
478
100
AcDbEntity
  8
3_ALL_AXES
100
AcDbLine
 62
7
  6
CONTINUOUS
 10
51.8185233028
 20
50.0097193263
 11
58.9317200764
 21
48.0866389778
  0
LINE
  5
479
100
AcDbEntity
  8
3_ALL_AXES
100
AcDbLine
 62
7
  6
CONTINUOUS
 10
59.6240362926
 20
48.5348328872
 11
56.7021894767
 21
49.3247655113
  0
LINE
  5
47A
100
AcDbEntity
  8
3_ALL_AXES
100
AcDbLine
 62
7
  6
CONTINUOUS
 10
53.898467423
 20
50.0827626475
 11
50.9766206071
 21
50.8726952716
  0
LINE
  5
47B
100
AcDbEntity
  8
3_ALL_AXES
100
AcDbLine
 62
7
  6
CONTINUOUS
 10
53.9512750211
 20
50.1531471415
 11
53.898467423
 21
50.0827626475
  0
LINE
  5
47C
100
AcDbEntity
  8
3_ALL_AXES
100
AcDbLine
 62
7
  6
CONTINUOUS
 10
59.6400748288
 20
48.7217044895
 11
57.0517390701
 21
49.4214711052
  0
LINE
  5
47D
100
AcDbEntity
  8
3_ALL_AXES
100
AcDbLine
 62
7
  6
CONTINUOUS
 10
53.6294436763
 20
50.3467019441
 11
51.0958867471
 21
51.0316588907
  0
LINE
  5
47E
100
AcDbEntity
  8
3_AXES_OTHER
100
AcDbLine
 62
7
  6
CONTINUOUS
 10
61.4909534778
 20
55.8868379596
 11
64.1889403285
 21
58.1678032705
  0
LINE
  5
47F
100
AcDbEntity
  8
3_ALL_AXES
100
AcDbLine
 62
7
  6
CONTINUOUS
 10
57.5789485309
 20
48.0639157258
 11
59.4772841561
 21
43.3046080253
  0
LINE
  5
480
100
AcDbEntity
  8
3_AXES_OTHER
100
AcDbLine
 62
7
  6
CONTINUOUS
 10
59.5075003294
 20
59.4620414644
 11
59.5611480469
 21
59.6913382468
  0
LINE
  5
481
100
AcDbEntity
  8
3_AXES_OTHER
100
AcDbLine
 62
7
  6
CONTINUOUS
 10
51.4528865728
 20
44.063468395
 11
51.6863895576
 21
44.3746923481
  0
LINE
  5
482
100
AcDbEntity
  8
3_ALL_AXES
100
AcDbLine
 62
7
  6
CONTINUOUS
 10
52.5565335171
 20
44.7452076374
 11
52.4372673771
 21
44.5862440183
  0
LINE
  5
483
100
AcDbEntity
  8
3_AXES_OTHER
100
AcDbLine
 62
7
  6
CONTINUOUS
 10
61.2574504929
 20
55.5756140065
 11
61.4909534778
 21
55.8868379596
  0
LINE
  5
484
100
AcDbEntity
  8
3_ALL_AXES
100
AcDbLine
 62
7
  6
CONTINUOUS
 10
58.3553143698
 20
60.3881398681
 11
58.3536837434
 21
60.3463525647
  0
LINE
  5
485
100
AcDbEntity
  8
3_ALL_AXES
100
AcDbLine
 62
7
  6
CONTINUOUS
 10
58.4247693016
 20
60.4468593129
 11
58.4227218066
 21
60.3943891112
  0
LINE
  5
486
100
AcDbEntity
  8
3_AXES_OTHER
100
AcDbLine
 62
7
  6
CONTINUOUS
 10
60.4736984087
 20
59.3120664224
 11
60.5139341969
 21
59.4840390092
  0
LINE
  5
487
100
AcDbEntity
  8
3_ALL_AXES
100
AcDbLine
 62
7
  6
CONTINUOUS
 10
56.7549970748
 20
49.3951500053
 11
56.7021894767
 21
49.3247655113
  0
LINE
  5
488
100
AcDbEntity
  8
3_ALL_AXES
100
AcDbLine
 62
7
  6
CONTINUOUS
 10
58.9317200764
 20
48.0866389778
 11
59.5504641507
 21
42.6631636699
  0
LINE
  5
489
100
AcDbEntity
  8
3_AXES_OTHER
100
AcDbLine
 62
7
  6
CONTINUOUS
 10
59.8152086186
 20
57.8348628594
 11
59.8213511035
 21
57.9922734646
  0
LINE
  5
48A
100
AcDbEntity
  8
3_AXES_OTHER
100
AcDbLine
 62
7
  6
CONTINUOUS
 10
61.0226001807
 20
59.4550263525
 11
61.0599585861
 21
59.61470066
  0
LINE
  5
48B
100
AcDbEntity
  8
3_ALL_AXES
100
AcDbLine
 62
7
  6
CONTINUOUS
 10
56.9625527375
 20
48.2305607203
 11
52.5565335171
 21
44.7452076374
  0
LINE
  5
48C
100
AcDbEntity
  8
3_ALL_AXES
100
AcDbLine
 62
7
  6
CONTINUOUS
 10
64.1785418129
 20
51.4734238296
 11
63.9518958373
 21
51.5346984485
  0
LINE
  5
48D
100
AcDbEntity
  8
3_ALL_AXES
100
AcDbLine
 62
7
  6
CONTINUOUS
 10
64.3212611485
 20
52.0013220625
 11
64.0946151729
 21
52.0625966815
  0
LINE
  5
48E
100
AcDbEntity
  8
3_ALL_AXES
100
AcDbLine
 62
7
  6
CONTINUOUS
 10
60.3888821614
 20
41.8307320223
 11
59.6240362926
 21
48.5348328872
  0
LINE
  5
48F
100
AcDbEntity
  8
3_AXES_OTHER
100
AcDbLine
 62
7
  6
CONTINUOUS
 10
60.4489883747
 20
41.6313373661
 11
58.8375340273
 21
55.7562126187
  0
LINE
  5
490
100
AcDbEntity
  8
3_ALL_AXES
100
AcDbLine
 62
7
  6
CONTINUOUS
 10
60.1266398409
 20
59.9092551539
 11
60.1250092145
 21
59.8674678505
  0
LINE
  5
491
100
AcDbEntity
  8
3_ALL_AXES
100
AcDbLine
 62
7
  6
CONTINUOUS
 10
60.1960947726
 20
59.9679745987
 11
60.1940472776
 21
59.915504397
  0
LINE
  5
492
100
AcDbEntity
  8
3_AXES_OTHER
100
AcDbLine
 62
7
  6
CONTINUOUS
 10
61.2599012518
 20
59.8266177353
 11
61.2578264569
 21
59.7734479309
  0
LINE
  5
493
100
AcDbEntity
  8
3_ALL_AXES
100
AcDbLine
 62
7
  6
CONTINUOUS
 10
59.656463451
 20
48.5780533558
 11
59.6240362926
 21
48.5348328872
  0
LINE
  5
494
100
AcDbEntity
  8
3_AXES_OTHER
100
AcDbLine
 62
7
  6
CONTINUOUS
 10
61.4832485143
 20
59.414346329
 11
61.4878342837
 21
59.3686254483
  0
LINE
  5
495
100
AcDbEntity
  8
3_AXES_OTHER
100
AcDbLine
 62
7
  6
CONTINUOUS
 10
63.3871454026
 20
58.6304180382
 11
63.4273811907
 21
58.802390625
  0
LINE
  5
496
100
AcDbEntity
  8
3_AXES_OTHER
100
AcDbLine
 62
7
  6
CONTINUOUS
 10
49.8414322254
 20
58.1883436476
 11
58.8375340273
 21
55.7562126187
  0
LINE
  5
497
100
AcDbEntity
  8
3_AXES_OTHER
100
AcDbLine
 62
7
  6
CONTINUOUS
 10
61.2574504929
 20
55.5756140065
 11
47.3100058388
 21
59.3463597878
  0
LINE
  5
498
100
AcDbEntity
  8
3_AXES_OTHER
100
AcDbLine
 62
7
  6
CONTINUOUS
 10
61.4909534778
 20
55.8868379596
 11
47.5435088237
 21
59.6575837408
  0
LINE
  5
499
100
AcDbEntity
  8
3_AXES_OTHER
100
AcDbLine
 62
7
  6
CONTINUOUS
 10
62.9843009283
 20
40.4392578192
 11
61.2574504929
 21
55.5756140065
  0
LINE
  5
49A
100
AcDbEntity
  8
3_AXES_OTHER
100
AcDbLine
 62
7
  6
CONTINUOUS
 10
62.8050591152
 20
57.7181927548
 11
62.8112016002
 21
57.87560336
  0
LINE
  5
49B
100
AcDbEntity
  8
3_AXES_OTHER
100
AcDbLine
 62
7
  6
CONTINUOUS
 10
64.1889403285
 20
58.1678032705
 11
65.9482535771
 21
58.0778455886
  0
LINE
  5
49C
100
AcDbEntity
  8
3_ALL_AXES
100
AcDbLine
 62
7
  6
CONTINUOUS
 10
60.4213093198
 20
41.8739524909
 11
60.3888821614
 21
41.8307320223
  0
LINE
  5
49D
100
AcDbEntity
  8
3_AXES_OTHER
100
AcDbLine
 62
7
  6
CONTINUOUS
 10
59.5075003294
 20
59.4620414644
 11
60.4969504952
 21
59.4114486303
  0
LINE
  5
49E
100
AcDbEntity
  8
3_AXES_OTHER
100
AcDbLine
 62
7
  6
CONTINUOUS
 10
59.5611480469
 20
59.6913382468
 11
61.0599585861
 21
59.61470066
  0
LINE
  5
49F
100
AcDbEntity
  8
3_AXES_OTHER
100
AcDbLine
 62
7
  6
CONTINUOUS
 10
65.9482535771
 20
58.0778455886
 11
65.3375960651
 21
42.428809611
  0
LINE
  5
4A0
100
AcDbEntity
  8
3_AXES_OTHER
100
AcDbLine
 62
7
  6
CONTINUOUS
 10
59.2960071563
 20
59.8275809508
 11
60.2255885865
 21
59.7800493411
  0
LINE
  5
4A1
100
AcDbEntity
  8
3_AXES_OTHER
100
AcDbLine
 62
7
  6
CONTINUOUS
 10
57.0211631772
 20
60.6463781844
 11
56.091581747
 21
60.693909794
  0
LINE
  5
4A2
100
AcDbEntity
  8
3_AXES_OTHER
100
AcDbLine
 62
7
  6
CONTINUOUS
 10
56.7362507433
 20
60.7836318522
 11
55.2374402041
 21
60.860269439
  0
LINE
  5
4A3
100
AcDbEntity
  8
3_AXES_OTHER
100
AcDbLine
 62
7
  6
CONTINUOUS
 10
64.1889403285
 20
58.1678032704
 11
50.2414956744
 21
61.9385490517
  0
LINE
  5
4A4
100
AcDbEntity
  8
3_AXES_OTHER
100
AcDbLine
 62
7
  6
CONTINUOUS
 10
55.1837924866
 20
60.6309726566
 11
59.5075003294
 21
59.4620414644
  0
LINE
  5
4A5
100
AcDbEntity
  8
3_AXES_OTHER
100
AcDbLine
 62
7
  6
CONTINUOUS
 10
55.2374402041
 20
60.860269439
 11
59.5611480469
 21
59.6913382468
  0
LINE
  5
4A6
100
AcDbEntity
  8
3_AXES_OTHER
100
AcDbLine
 62
7
  6
CONTINUOUS
 10
56.091581747
 20
60.693909794
 11
59.2960071563
 21
59.8275809508
  0
LINE
  5
4A7
100
AcDbEntity
  8
3_AXES_OTHER
100
AcDbLine
 62
7
  6
CONTINUOUS
 10
65.9482535771
 20
58.0778455886
 11
63.4165153752
 21
58.7623108351
  0
LINE
  5
4A8
100
AcDbEntity
  8
3_AXES_OTHER
100
AcDbLine
 62
7
  6
CONTINUOUS
 10
53.0313503576
 20
61.5699804943
 11
52.000808923
 21
61.8485913698
  0
LINE
  5
4A9
100
AcDbEntity
  8
3_AXES_OTHER
100
AcDbLine
 62
7
  6
CONTINUOUS
 10
61.0781426257
 20
59.5238682778
 11
61.4832485143
 21
59.414346329
  0
LINE
  5
4AA
100
AcDbEntity
  8
3_AXES_OTHER
100
AcDbLine
 62
7
  6
CONTINUOUS
 10
60.2255885865
 20
59.7800493411
 11
57.0211631772
 21
60.6463781844
  0
LINE
  5
4AB
100
AcDbEntity
  8
3_AXES_OTHER
100
AcDbLine
 62
7
  6
CONTINUOUS
 10
61.0599585861
 20
59.61470066
 11
56.7362507433
 21
60.7836318522
  0
LINE
  5
4AC
100
AcDbEntity
  8
3_AXES_OTHER
100
AcDbLine
 62
7
  6
CONTINUOUS
 10
57.8776459232
 20
60.7410235873
 11
61.2599012518
 21
59.8266177353
  0
LINE
  5
4AD
100
AcDbEntity
  8
3_AXES_OTHER
100
AcDbLine
 62
7
  6
CONTINUOUS
 10
50.2414956744
 20
61.9385490517
 11
52.000808923
 21
61.8485913698
  0
LINE
  5
4AE
100
AcDbEntity
  8
3_AXES_OTHER
100
AcDbLine
 62
7
  6
CONTINUOUS
 10
62.9843009283
 20
40.4392578192
 11
65.3375960651
 21
42.428809611
  0
LINE
  5
4AF
100
AcDbEntity
  8
3_ALL_AXES
100
AcDbLine
 62
7
  6
CONTINUOUS
 10
10.423388955
 20
48.5808713247
 11
10.423388955
 21
49.1277217184
  0
LINE
  5
4B0
100
AcDbEntity
  8
3_AXES_OTHER
100
AcDbLine
 62
7
  6
CONTINUOUS
 10
10.6792944668
 20
42.348114012
 11
10.6792944668
 21
52.6062650255
  0
LINE
  5
4B1
100
AcDbEntity
  8
3_ALL_AXES
100
AcDbLine
 62
7
  6
CENTER
 10
12.7462236007
 20
46.4054776239
 11
12.7462236007
 21
45.1212256554
  0
LINE
  5
4B2
100
AcDbEntity
  8
3_ALL_AXES
100
AcDbLine
 62
7
  6
CENTER
 10
12.7462236007
 20
46.4054776239
 11
12.7462236007
 21
47.6897295924
  0
LINE
  5
4B3
100
AcDbEntity
  8
3_AXES_OTHER
100
AcDbLine
 62
7
  6
CONTINUOUS
 10
26.4273259629
 20
42.348114012
 11
10.6792944668
 21
42.348114012
  0
LINE
  5
4B4
100
AcDbEntity
  8
3_AXES_OTHER
100
AcDbLine
 62
7
  6
CONTINUOUS
 10
26.4273259629
 20
42.8424854979
 11
10.6792944668
 21
42.8424854979
  0
LINE
  5
4B5
100
AcDbEntity
  8
3_AXES_OTHER
100
AcDbLine
 62
7
  6
CONTINUOUS
 10
15.1025228133
 20
52.6062650255
 11
15.1025228133
 21
53.2243752617
  0
LINE
  5
4B6
100
AcDbEntity
  8
3_AXES_OTHER
100
AcDbLine
 62
7
  6
CONTINUOUS
 10
16.0355936794
 20
52.6062650255
 11
16.0355936794
 21
53.2243752617
  0
LINE
  5
4B7
100
AcDbEntity
  8
3_AXES_OTHER
100
AcDbLine
 62
7
  6
CONTINUOUS
 10
16.112365333
 20
48.9611310766
 11
16.112365333
 21
52.4150146022
  0
LINE
  5
4B8
100
AcDbEntity
  8
3_AXES_OTHER
100
AcDbLine
 62
7
  6
CONTINUOUS
 10
16.4929979173
 20
53.2243752617
 11
16.4929979173
 21
53.0452414034
  0
LINE
  5
4B9
100
AcDbEntity
  8
3_AXES_OTHER
100
AcDbLine
 62
7
  6
CONTINUOUS
 10
16.6438613959
 20
53.0452414034
 11
16.6438613959
 21
53.9054776239
  0
LINE
  5
4BA
100
AcDbEntity
  8
3_AXES_OTHER
100
AcDbLine
 62
7
  6
CONTINUOUS
 10
16.7442550967
 20
51.8002239262
 11
16.7442550967
 21
49.7199977851
  0
LINE
  5
4BB
100
AcDbEntity
  8
3_ALL_AXES
100
AcDbLine
 62
7
  6
CENTER
 10
24.360396829
 20
46.4054776239
 11
23.0761448605
 21
46.4054776239
  0
LINE
  5
4BC
100
AcDbEntity
  8
3_ALL_AXES
100
AcDbLine
 62
7
  6
CENTER
 10
12.7462236007
 20
46.4054776239
 11
11.4619716322
 21
46.4054776239
  0
LINE
  5
4BD
100
AcDbEntity
  8
3_ALL_AXES
100
AcDbLine
 62
7
  6
CENTER
 10
12.7462236007
 20
46.4054776239
 11
14.0304755692
 21
46.4054776239
  0
LINE
  5
4BE
100
AcDbEntity
  8
3_ALL_AXES
100
AcDbLine
 62
7
  6
CENTER
 10
24.360396829
 20
46.4054776239
 11
25.6446487975
 21
46.4054776239
  0
LINE
  5
4BF
100
AcDbEntity
  8
3_ALL_AXES
100
AcDbLine
 62
7
  6
CONTINUOUS
 10
17.4096094274
 20
53.6224067577
 11
17.4096094274
 21
53.4724067577
  0
LINE
  5
4C0
100
AcDbEntity
  8
3_ALL_AXES
100
AcDbLine
 62
7
  6
CENTER
 10
17.5533102148
 20
53.6224067577
 11
17.5533102148
 21
53.1787059703
  0
LINE
  5
4C1
100
AcDbEntity
  8
3_ALL_AXES
100
AcDbLine
 62
7
  6
CENTER
 10
17.5533102148
 20
53.1787059703
 11
17.5533102148
 21
53.0287059703
  0
LINE
  5
4C2
100
AcDbEntity
  8
3_ALL_AXES
100
AcDbLine
 62
7
  6
CENTER
 10
17.5533102148
 20
53.6224067577
 11
17.5533102148
 21
53.9161075451
  0
LINE
  5
4C3
100
AcDbEntity
  8
3_ALL_AXES
100
AcDbLine
 62
7
  6
CENTER
 10
17.5533102148
 20
53.9161075451
 11
17.5533102148
 21
54.0661075451
  0
LINE
  5
4C4
100
AcDbEntity
  8
3_ALL_AXES
100
AcDbLine
 62
7
  6
CONTINUOUS
 10
17.6970110022
 20
53.4724067577
 11
17.6970110022
 21
53.6224067577
  0
LINE
  5
4C5
100
AcDbEntity
  8
3_ALL_AXES
100
AcDbLine
 62
7
  6
CENTER
 10
18.5533102148
 20
54.3064387053
 11
18.5533102148
 21
41.9167348464
  0
LINE
  5
4C6
100
AcDbEntity
  8
3_ALL_AXES
100
AcDbLine
 62
7
  6
CONTINUOUS
 10
26.6832314747
 20
48.5808713247
 11
26.4273259629
 21
48.5808713247
  0
LINE
  5
4C7
100
AcDbEntity
  8
3_ALL_AXES
100
AcDbLine
 62
7
  6
CONTINUOUS
 10
10.6792944668
 20
48.5808713247
 11
10.423388955
 21
48.5808713247
  0
LINE
  5
4C8
100
AcDbEntity
  8
3_AXES_OTHER
100
AcDbLine
 62
7
  6
CONTINUOUS
 10
26.4273259629
 20
48.6692571514
 11
10.6792944668
 21
48.6692571514
  0
LINE
  5
4C9
100
AcDbEntity
  8
3_ALL_AXES
100
AcDbLine
 62
7
  6
CONTINUOUS
 10
19.4096094274
 20
53.6224067577
 11
19.4096094274
 21
53.4724067577
  0
LINE
  5
4CA
100
AcDbEntity
  8
3_ALL_AXES
100
AcDbLine
 62
7
  6
CENTER
 10
19.5533102148
 20
53.6224067577
 11
19.5533102148
 21
53.1787059703
  0
LINE
  5
4CB
100
AcDbEntity
  8
3_ALL_AXES
100
AcDbLine
 62
7
  6
CENTER
 10
19.5533102148
 20
53.1787059703
 11
19.5533102148
 21
53.0287059703
  0
LINE
  5
4CC
100
AcDbEntity
  8
3_ALL_AXES
100
AcDbLine
 62
7
  6
CENTER
 10
19.5533102148
 20
53.6224067577
 11
19.5533102148
 21
53.9161075451
  0
LINE
  5
4CD
100
AcDbEntity
  8
3_ALL_AXES
100
AcDbLine
 62
7
  6
CENTER
 10
19.5533102148
 20
53.9161075451
 11
19.5533102148
 21
54.0661075451
  0
LINE
  5
4CE
100
AcDbEntity
  8
3_ALL_AXES
100
AcDbLine
 62
7
  6
CONTINUOUS
 10
19.6970110022
 20
53.4724067577
 11
19.6970110022
 21
53.6224067577
  0
LINE
  5
4CF
100
AcDbEntity
  8
3_AXES_OTHER
100
AcDbLine
 62
7
  6
CONTINUOUS
 10
16.112365333
 20
48.9611310766
 11
20.9942550967
 21
48.9611310766
  0
LINE
  5
4D0
100
AcDbEntity
  8
3_AXES_OTHER
100
AcDbLine
 62
7
  6
CONTINUOUS
 10
16.112365333
 20
49.060962162
 11
20.9942550967
 21
49.060962162
  0
LINE
  5
4D1
100
AcDbEntity
  8
3_ALL_AXES
100
AcDbLine
 62
7
  6
CONTINUOUS
 10
26.6832314747
 20
49.1277217184
 11
26.4273259629
 21
49.1277217184
  0
LINE
  5
4D2
100
AcDbEntity
  8
3_ALL_AXES
100
AcDbLine
 62
7
  6
CONTINUOUS
 10
10.6792944668
 20
49.1277217184
 11
10.423388955
 21
49.1277217184
  0
LINE
  5
4D3
100
AcDbEntity
  8
3_AXES_OTHER
100
AcDbLine
 62
7
  6
CONTINUOUS
 10
20.362365333
 20
49.7199977851
 11
20.362365333
 21
51.8002239262
  0
LINE
  5
4D4
100
AcDbEntity
  8
3_AXES_OTHER
100
AcDbLine
 62
7
  6
CONTINUOUS
 10
20.4627590337
 20
53.0452414034
 11
20.4627590337
 21
53.9054776239
  0
LINE
  5
4D5
100
AcDbEntity
  8
3_AXES_OTHER
100
AcDbLine
 62
7
  6
CONTINUOUS
 10
20.6136225124
 20
53.2243752617
 11
20.6136225124
 21
53.0452414034
  0
LINE
  5
4D6
100
AcDbEntity
  8
3_AXES_OTHER
100
AcDbLine
 62
7
  6
CONTINUOUS
 10
16.7442550967
 20
49.7199977851
 11
20.362365333
 21
49.7199977851
  0
LINE
  5
4D7
100
AcDbEntity
  8
3_AXES_OTHER
100
AcDbLine
 62
7
  6
CONTINUOUS
 10
20.9942550967
 20
48.9611310766
 11
20.9942550967
 21
52.4150146022
  0
LINE
  5
4D8
100
AcDbEntity
  8
3_AXES_OTHER
100
AcDbLine
 62
7
  6
CONTINUOUS
 10
21.0710267503
 20
52.6062650255
 11
21.0710267503
 21
53.2243752617
  0
LINE
  5
4D9
100
AcDbEntity
  8
3_AXES_OTHER
100
AcDbLine
 62
7
  6
CONTINUOUS
 10
20.362365333
 20
51.4674536414
 11
16.7442550967
 21
51.4674536414
  0
LINE
  5
4DA
100
AcDbEntity
  8
3_AXES_OTHER
100
AcDbLine
 62
7
  6
CONTINUOUS
 10
22.0040976164
 20
52.6062650255
 11
22.0040976164
 21
53.2243752617
  0
LINE
  5
4DB
100
AcDbEntity
  8
3_AXES_OTHER
100
AcDbLine
 62
7
  6
CONTINUOUS
 10
20.362365333
 20
51.8002239262
 11
16.7442550967
 21
51.8002239262
  0
LINE
  5
4DC
100
AcDbEntity
  8
3_AXES_OTHER
100
AcDbLine
 62
7
  6
CONTINUOUS
 10
20.9942550967
 20
52.4150146022
 11
16.112365333
 21
52.4150146022
  0
LINE
  5
4DD
100
AcDbEntity
  8
3_AXES_OTHER
100
AcDbLine
 62
7
  6
CONTINUOUS
 10
26.4273259629
 20
52.6062650255
 11
10.6792944668
 21
52.6062650255
  0
LINE
  5
4DE
100
AcDbEntity
  8
3_AXES_OTHER
100
AcDbLine
 62
7
  6
CONTINUOUS
 10
16.4929979173
 20
53.0452414034
 11
16.6438613959
 21
53.0452414034
  0
LINE
  5
4DF
100
AcDbEntity
  8
3_AXES_OTHER
100
AcDbLine
 62
7
  6
CONTINUOUS
 10
20.4627590337
 20
53.0452414034
 11
20.6136225124
 21
53.0452414034
  0
LINE
  5
4E0
100
AcDbEntity
  8
3_AXES_OTHER
100
AcDbLine
 62
7
  6
CONTINUOUS
 10
15.1025228133
 20
53.2243752617
 11
16.4929979173
 21
53.2243752617
  0
LINE
  5
4E1
100
AcDbEntity
  8
3_AXES_OTHER
100
AcDbLine
 62
7
  6
CONTINUOUS
 10
20.6136225124
 20
53.2243752617
 11
22.0040976164
 21
53.2243752617
  0
LINE
  5
4E2
100
AcDbEntity
  8
3_ALL_AXES
100
AcDbLine
 62
7
  6
CENTER
 10
19.5533102148
 20
53.4724067577
 11
19.1096094274
 21
53.4724067577
  0
LINE
  5
4E3
100
AcDbEntity
  8
3_ALL_AXES
100
AcDbLine
 62
7
  6
CENTER
 10
17.5533102148
 20
53.4724067577
 11
17.1096094274
 21
53.4724067577
  0
LINE
  5
4E4
100
AcDbEntity
  8
3_ALL_AXES
100
AcDbLine
 62
7
  6
CENTER
 10
17.5533102148
 20
53.4724067577
 11
17.9970110022
 21
53.4724067577
  0
LINE
  5
4E5
100
AcDbEntity
  8
3_ALL_AXES
100
AcDbLine
 62
7
  6
CENTER
 10
19.5533102148
 20
53.4724067577
 11
19.9970110022
 21
53.4724067577
  0
LINE
  5
4E6
100
AcDbEntity
  8
3_ALL_AXES
100
AcDbLine
 62
7
  6
CENTER
 10
24.360396829
 20
46.4054776239
 11
24.360396829
 21
45.1212256554
  0
LINE
  5
4E7
100
AcDbEntity
  8
3_ALL_AXES
100
AcDbLine
 62
7
  6
CENTER
 10
24.360396829
 20
46.4054776239
 11
24.360396829
 21
47.6897295924
  0
LINE
  5
4E8
100
AcDbEntity
  8
3_ALL_AXES
100
AcDbLine
 62
7
  6
CENTER
 10
19.5533102148
 20
53.6224067577
 11
19.1096094274
 21
53.6224067577
  0
LINE
  5
4E9
100
AcDbEntity
  8
3_ALL_AXES
100
AcDbLine
 62
7
  6
CENTER
 10
17.5533102148
 20
53.6224067577
 11
17.1096094274
 21
53.6224067577
  0
LINE
  5
4EA
100
AcDbEntity
  8
3_ALL_AXES
100
AcDbLine
 62
7
  6
CENTER
 10
17.5533102148
 20
53.6224067577
 11
17.9970110022
 21
53.6224067577
  0
LINE
  5
4EB
100
AcDbEntity
  8
3_ALL_AXES
100
AcDbLine
 62
7
  6
CENTER
 10
19.5533102148
 20
53.6224067577
 11
19.9970110022
 21
53.6224067577
  0
LINE
  5
4EC
100
AcDbEntity
  8
3_AXES_OTHER
100
AcDbLine
 62
7
  6
CONTINUOUS
 10
16.6438613959
 20
53.9054776239
 11
20.4627590337
 21
53.9054776239
  0
LINE
  5
4ED
100
AcDbEntity
  8
3_AXES_OTHER
100
AcDbLine
 62
7
  6
CONTINUOUS
 10
26.4273259629
 20
42.348114012
 11
26.4273259629
 21
52.6062650255
  0
LINE
  5
4EE
100
AcDbEntity
  8
3_ALL_AXES
100
AcDbLine
 62
7
  6
CONTINUOUS
 10
26.6832314747
 20
48.5808713247
 11
26.6832314747
 21
49.1277217184
  0
LINE
  5
4EF
100
AcDbEntity
  8
3_AXES_OTHER
100
AcDbLine
 62
7
  6
CONTINUOUS
 10
26.4273259629
 20
14.7882215834
 11
10.6792944668
 21
14.7882215834
  0
LINE
  5
4F0
100
AcDbEntity
  8
3_AXES_OTHER
100
AcDbLine
 62
7
  6
CONTINUOUS
 10
13.4745700574
 20
15.4553604496
 11
23.6320503723
 21
15.4553604496
  0
LINE
  5
4F1
100
AcDbEntity
  8
3_ALL_AXES
100
AcDbLine
 62
7
  6
CONTINUOUS
 10
23.4351999786
 20
15.5201671082
 11
13.6714204511
 21
15.5201671082
  0
LINE
  5
4F2
100
AcDbEntity
  8
3_ALL_AXES
100
AcDbLine
 62
7
  6
CONTINUOUS
 10
13.4745700574
 20
15.58782689
 11
13.6714204511
 21
15.58782689
  0
LINE
  5
4F3
100
AcDbEntity
  8
3_ALL_AXES
100
AcDbLine
 62
7
  6
CONTINUOUS
 10
23.4351999786
 20
15.58782689
 11
23.6320503723
 21
15.58782689
  0
LINE
  5
4F4
100
AcDbEntity
  8
3_ALL_AXES
100
AcDbLine
 62
7
  6
CONTINUOUS
 10
10.423388955
 20
26.7137094664
 11
10.423388955
 21
27.2603714957
  0
LINE
  5
4F5
100
AcDbEntity
  8
3_AXES_OTHER
100
AcDbLine
 62
7
  6
CONTINUOUS
 10
10.6792944668
 20
14.7882215834
 11
10.6792944668
 21
34.2370404811
  0
LINE
  5
4F6
100
AcDbEntity
  8
3_ALL_AXES
100
AcDbLine
 62
7
  6
CONTINUOUS
 10
22.5690582463
 20
16.3178164864
 11
14.5375621833
 21
16.3178164864
  0
LINE
  5
4F7
100
AcDbEntity
  8
3_ALL_AXES
100
AcDbLine
 62
7
  6
CONTINUOUS
 10
22.5690582463
 20
16.3854762682
 11
14.5375621833
 21
16.3854762682
  0
LINE
  5
4F8
100
AcDbEntity
  8
3_AXES_OTHER
100
AcDbLine
 62
7
  6
CONTINUOUS
 10
11.2501606085
 20
34.2370404811
 11
11.2501606085
 21
34.4142058354
  0
LINE
  5
4F9
100
AcDbEntity
  8
3_AXES_OTHER
100
AcDbLine
 62
7
  6
CONTINUOUS
 10
13.4745700574
 20
15.4553604496
 11
13.4745700574
 21
33.4809053969
  0
LINE
  5
4FA
100
AcDbEntity
  8
3_ALL_AXES
100
AcDbLine
 62
7
  6
CONTINUOUS
 10
13.6714204511
 20
24.1433057392
 11
13.6714204511
 21
15.5201671082
  0
LINE
  5
4FB
100
AcDbEntity
  8
3_AXES_OTHER
100
AcDbLine
 62
7
  6
CONTINUOUS
 10
14.2422865928
 20
34.2370404811
 11
14.2422865928
 21
34.4142058354
  0
LINE
  5
4FC
100
AcDbEntity
  8
3_ALL_AXES
100
AcDbLine
 62
7
  6
CONTINUOUS
 10
14.5375621833
 20
16.3178164864
 11
14.5375621833
 21
23.2390172889
  0
LINE
  5
4FD
100
AcDbEntity
  8
3_AXES_OTHER
100
AcDbLine
 62
7
  6
CONTINUOUS
 10
16.112365333
 20
34.2370404811
 11
16.112365333
 21
34.3150258882
  0
LINE
  5
4FE
100
AcDbEntity
  8
3_ALL_AXES
100
AcDbLine
 62
7
  6
CONTINUOUS
 10
18.2053245942
 20
20.9973830625
 11
14.6450235996
 21
23.2390172889
  0
LINE
  5
4FF
100
AcDbEntity
  8
3_ALL_AXES
100
AcDbLine
 62
7
  6
CONTINUOUS
 10
18.9012958355
 20
20.3251264661
 11
22.5690582463
 21
16.3854762682
  0
LINE
  5
500
100
AcDbEntity
  8
3_ALL_AXES
100
AcDbLine
 62
7
  6
CONTINUOUS
 10
16.9704717701
 20
24.1056037523
 11
16.9704717701
 21
24.0756459573
  0
LINE
  5
501
100
AcDbEntity
  8
3_ALL_AXES
100
AcDbLine
 62
7
  6
CONTINUOUS
 10
14.5375621833
 20
23.2390172889
 11
22.5690582463
 21
23.2390172889
  0
LINE
  5
502
100
AcDbEntity
  8
3_ALL_AXES
100
AcDbLine
 62
7
  6
CENTER
 10
18.5533102148
 20
34.7142058354
 11
18.5533102148
 21
14.4882215834
  0
LINE
  5
503
100
AcDbEntity
  8
3_ALL_AXES
100
AcDbLine
 62
7
  6
CONTINUOUS
 10
23.4351999786
 20
24.0756459573
 11
20.1361486595
 21
24.0756459573
  0
LINE
  5
504
100
AcDbEntity
  8
3_ALL_AXES
100
AcDbLine
 62
7
  6
CONTINUOUS
 10
16.9704717701
 20
24.0756459573
 11
13.6714204511
 21
24.0756459573
  0
LINE
  5
505
100
AcDbEntity
  8
3_ALL_AXES
100
AcDbLine
 62
7
  6
CONTINUOUS
 10
23.4351999786
 20
24.1433057392
 11
20.2299923032
 21
24.1433057392
  0
LINE
  5
506
100
AcDbEntity
  8
3_ALL_AXES
100
AcDbLine
 62
7
  6
CONTINUOUS
 10
16.8766267089
 20
24.1433057392
 11
13.6714204511
 21
24.1433057392
  0
LINE
  5
507
100
AcDbEntity
  8
3_ALL_AXES
100
AcDbLine
 62
7
  6
CONTINUOUS
 10
20.1361486595
 20
24.1056037523
 11
20.1361486595
 21
24.0756459573
  0
LINE
  5
508
100
AcDbEntity
  8
3_AXES_OTHER
100
AcDbLine
 62
7
  6
CONTINUOUS
 10
20.9942550967
 20
34.2370404811
 11
20.9942550967
 21
34.3150258882
  0
LINE
  5
509
100
AcDbEntity
  8
3_ALL_AXES
100
AcDbLine
 62
7
  6
CONTINUOUS
 10
18.2053245942
 20
20.3251264661
 11
14.5375621833
 21
16.3854762682
  0
LINE
  5
50A
100
AcDbEntity
  8
3_ALL_AXES
100
AcDbLine
 62
7
  6
CENTER
 10
18.5533102148
 20
26.4870404811
 11
18.2533062778
 21
26.4870404811
  0
LINE
  5
50B
100
AcDbEntity
  8
3_ALL_AXES
100
AcDbLine
 62
7
  6
CENTER
 10
18.5533102148
 20
26.4870404811
 11
18.8533141519
 21
26.4870404811
  0
LINE
  5
50C
100
AcDbEntity
  8
3_ALL_AXES
100
AcDbLine
 62
7
  6
CONTINUOUS
 10
26.6832314747
 20
26.7136152842
 11
26.4273259629
 21
26.7136152842
  0
LINE
  5
50D
100
AcDbEntity
  8
3_ALL_AXES
100
AcDbLine
 62
7
  6
CONTINUOUS
 10
10.6792944668
 20
26.7136152842
 11
10.423388955
 21
26.7136152842
  0
LINE
  5
50E
100
AcDbEntity
  8
3_ALL_AXES
100
AcDbLine
 62
7
  6
CONTINUOUS
 10
26.6832314747
 20
27.2604656779
 11
26.4273259629
 21
27.2604656779
  0
LINE
  5
50F
100
AcDbEntity
  8
3_ALL_AXES
100
AcDbLine
 62
7
  6
CONTINUOUS
 10
10.6792944668
 20
27.2604656779
 11
10.423388955
 21
27.2604656779
  0
LINE
  5
510
100
AcDbEntity
  8
3_ALL_AXES
100
AcDbLine
 62
7
  6
CONTINUOUS
 10
18.9012958355
 20
20.9973830625
 11
22.4615968301
 21
23.2390172889
  0
LINE
  5
511
100
AcDbEntity
  8
3_ALL_AXES
100
AcDbLine
 62
7
  6
CONTINUOUS
 10
22.5690582463
 20
23.2390172889
 11
22.5690582463
 21
16.3178164864
  0
LINE
  5
512
100
AcDbEntity
  8
3_AXES_OTHER
100
AcDbLine
 62
7
  6
CONTINUOUS
 10
22.8643338369
 20
34.2370404811
 11
22.8643338369
 21
34.4142058354
  0
LINE
  5
513
100
AcDbEntity
  8
3_ALL_AXES
100
AcDbLine
 62
7
  6
CONTINUOUS
 10
23.4351999786
 20
15.5201671082
 11
23.4351999786
 21
24.1433057392
  0
LINE
  5
514
100
AcDbEntity
  8
3_AXES_OTHER
100
AcDbLine
 62
7
  6
CONTINUOUS
 10
23.6320503723
 20
15.4553604496
 11
23.6320503723
 21
33.4809053969
  0
LINE
  5
515
100
AcDbEntity
  8
3_AXES_OTHER
100
AcDbLine
 62
7
  6
CONTINUOUS
 10
25.8564598211
 20
34.2370404811
 11
25.8564598211
 21
34.4142058354
  0
LINE
  5
516
100
AcDbEntity
  8
3_AXES_OTHER
100
AcDbLine
 62
7
  6
CONTINUOUS
 10
26.4273259629
 20
14.7882215834
 11
26.4273259629
 21
34.2370404811
  0
LINE
  5
517
100
AcDbEntity
  8
3_ALL_AXES
100
AcDbLine
 62
7
  6
CONTINUOUS
 10
26.6832314747
 20
26.7137094664
 11
26.6832314747
 21
27.2603714957
  0
LINE
  5
518
100
AcDbEntity
  8
3_AXES_OTHER
100
AcDbLine
 62
7
  6
CONTINUOUS
 10
13.4745700574
 20
33.4809053969
 11
23.6320503723
 21
33.4809053969
  0
LINE
  5
519
100
AcDbEntity
  8
3_AXES_OTHER
100
AcDbLine
 62
7
  6
CONTINUOUS
 10
26.4273259629
 20
34.1045740406
 11
10.6792944668
 21
34.1045740406
  0
LINE
  5
51A
100
AcDbEntity
  8
3_AXES_OTHER
100
AcDbLine
 62
7
  6
CONTINUOUS
 10
26.4273259629
 20
34.2370404811
 11
10.6792944668
 21
34.2370404811
  0
LINE
  5
51B
100
AcDbEntity
  8
3_AXES_OTHER
100
AcDbLine
 62
7
  6
CONTINUOUS
 10
16.112365333
 20
34.3150258882
 11
20.9942550967
 21
34.3150258882
  0
LINE
  5
51C
100
AcDbEntity
  8
3_AXES_OTHER
100
AcDbLine
 62
7
  6
CONTINUOUS
 10
11.2501606085
 20
34.4142058354
 11
14.2422865928
 21
34.4142058354
  0
LINE
  5
51D
100
AcDbEntity
  8
3_AXES_OTHER
100
AcDbLine
 62
7
  6
CONTINUOUS
 10
22.8643338369
 20
34.4142058354
 11
25.8564598211
 21
34.4142058354
  0
LINE
  5
51E
100
AcDbEntity
  8
3_AXES_OTHER
100
AcDbLine
 62
7
  6
CONTINUOUS
 10
47.1961242507
 20
14.7882215834
 11
52.2784742225
 21
14.7882215834
  0
LINE
  5
51F
100
AcDbEntity
  8
3_AXES_OTHER
100
AcDbLine
 62
7
  6
CONTINUOUS
 10
44.5816238288
 20
34.2370404811
 11
44.5816238288
 21
34.4142058354
  0
LINE
  5
520
100
AcDbEntity
  8
3_AXES_OTHER
100
AcDbLine
 62
7
  6
CONTINUOUS
 10
48.6333402736
 20
34.1009374346
 11
48.7331713591
 21
34.3150258882
  0
LINE
  5
521
100
AcDbEntity
  8
3_AXES_OTHER
100
AcDbLine
 62
7
  6
CONTINUOUS
 10
47.1961242507
 20
14.7882215834
 11
42.0203232091
 21
34.1045740406
  0
LINE
  5
522
100
AcDbEntity
  8
3_AXES_OTHER
100
AcDbLine
 62
7
  6
CONTINUOUS
 10
48.9540767459
 20
33.9513755613
 11
49.0289500599
 21
34.1119419015
  0
LINE
  5
523
100
AcDbEntity
  8
3_AXES_OTHER
100
AcDbLine
 62
7
  6
CONTINUOUS
 10
47.5737498131
 20
34.2370404811
 11
47.5737498131
 21
34.4142058354
  0
LINE
  5
524
100
AcDbEntity
  8
3_AXES_OTHER
100
AcDbLine
 62
7
  6
CONTINUOUS
 10
51.6658638252
 20
32.6868484789
 11
51.7407371393
 21
32.8474148192
  0
LINE
  5
525
100
AcDbEntity
  8
3_ALL_AXES
100
AcDbLine
 62
7
  6
CENTER
 10
48.5265057186
 20
26.9870404811
 11
48.5265057186
 21
26.4136152842
  0
LINE
  5
526
100
AcDbEntity
  8
3_ALL_AXES
100
AcDbLine
 62
7
  6
CENTER
 10
48.5265057186
 20
26.9870404811
 11
48.5265057186
 21
27.5604656779
  0
LINE
  5
527
100
AcDbEntity
  8
3_ALL_AXES
100
AcDbLine
 62
7
  6
CENTER
 10
48.5284742225
 20
27.4006883578
 11
48.5284742225
 21
25.5849344207
  0
LINE
  5
528
100
AcDbEntity
  8
3_AXES_OTHER
100
AcDbLine
 62
7
  6
CONTINUOUS
 10
51.9873927138
 20
32.5369170958
 11
52.0872237993
 21
32.7510055495
  0
LINE
  5
529
100
AcDbEntity
  8
3_AXES_OTHER
100
AcDbLine
 62
7
  6
CONTINUOUS
 10
52.2784742225
 20
25.6947176464
 11
52.8965844587
 21
25.6947176464
  0
LINE
  5
52A
100
AcDbEntity
  8
3_ALL_AXES
100
AcDbLine
 62
7
  6
CENTER
 10
48.0099595173
 20
26.4870404811
 11
49.8280011955
 21
26.4870404811
  0
LINE
  5
52B
100
AcDbEntity
  8
3_ALL_AXES
100
AcDbLine
 62
7
  6
CENTER
 10
48.5265057186
 20
26.9870404811
 11
47.9530805217
 21
26.9870404811
  0
LINE
  5
52C
100
AcDbEntity
  8
3_ALL_AXES
100
AcDbLine
 62
7
  6
CENTER
 10
48.5265057186
 20
26.9870404811
 11
49.0999309154
 21
26.9870404811
  0
LINE
  5
52D
100
AcDbEntity
  8
3_AXES_OTHER
100
AcDbLine
 62
7
  6
CONTINUOUS
 10
52.2784742225
 20
32.4011835592
 11
52.2784742225
 21
14.7882215834
  0
LINE
  5
52E
100
AcDbEntity
  8
3_AXES_OTHER
100
AcDbLine
 62
7
  6
CONTINUOUS
 10
52.8965844587
 20
32.1895995362
 11
52.8965844587
 21
25.6947176464
  0
LINE
  5
52F
100
AcDbEntity
  8
3_AXES_OTHER
100
AcDbLine
 62
7
  6
CONTINUOUS
 10
53.577686821
 20
32.1895995362
 11
53.577686821
 21
32.1297570165
  0
LINE
  5
530
100
AcDbEntity
  8
3_AXES_OTHER
100
AcDbLine
 62
7
  6
CONTINUOUS
 10
52.8965844587
 20
32.1297570165
 11
53.577686821
 21
32.1297570165
  0
LINE
  5
531
100
AcDbEntity
  8
3_AXES_OTHER
100
AcDbLine
 62
7
  6
CONTINUOUS
 10
52.2784742225
 20
32.1895995362
 11
53.577686821
 21
32.1895995362
  0
LINE
  5
532
100
AcDbEntity
  8
3_AXES_OTHER
100
AcDbLine
 62
7
  6
CONTINUOUS
 10
48.3414663485
 20
34.2370404811
 11
52.2784742225
 21
32.4011835592
  0
LINE
  5
533
100
AcDbEntity
  8
3_AXES_OTHER
100
AcDbLine
 62
7
  6
CONTINUOUS
 10
49.0289500599
 20
34.1119419015
 11
51.7407371393
 21
32.8474148192
  0
LINE
  5
534
100
AcDbEntity
  8
3_AXES_OTHER
100
AcDbLine
 62
7
  6
CONTINUOUS
 10
48.7331713591
 20
34.3150258882
 11
52.0872237993
 21
32.7510055495
  0
LINE
  5
535
100
AcDbEntity
  8
3_AXES_OTHER
100
AcDbLine
 62
7
  6
CONTINUOUS
 10
42.514694695
 20
34.2370404811
 11
48.3414663485
 21
34.2370404811
  0
LINE
  5
536
100
AcDbEntity
  8
3_AXES_OTHER
100
AcDbLine
 62
7
  6
CONTINUOUS
 10
44.5816238288
 20
34.4142058354
 11
47.5737498131
 21
34.4142058354
  0
LINE
  5
537
100
AcDbEntity
  8
3_AXES_OTHER
100
AcDbLine
 62
7
  6
CONTINUOUS
 10
42.0203232091
 20
34.1045740406
 11
42.514694695
 21
34.2370404811
  0
LINE
  5
538
100
AcDbEntity
  8
3_AXES_OTHER
100
AcDbLine
 62
7
  6
CONTINUOUS
 10
66.2589997695
 20
14.7882215834
 11
82.0070312655
 21
14.7882215834
  0
LINE
  5
539
100
AcDbEntity
  8
3_ALL_AXES
100
AcDbLine
 62
7
  6
CONTINUOUS
 10
66.0030942577
 20
27.2603714957
 11
66.0030942577
 21
26.7137094664
  0
LINE
  5
53A
100
AcDbEntity
  8
3_AXES_OTHER
100
AcDbLine
 62
7
  6
CONTINUOUS
 10
66.2589997695
 20
34.2370404811
 11
66.2589997695
 21
14.7882215834
  0
LINE
  5
53B
100
AcDbEntity
  8
3_AXES_OTHER
100
AcDbLine
 62
7
  6
CONTINUOUS
 10
66.8298659112
 20
34.2370404811
 11
66.8298659112
 21
34.4142058354
  0
LINE
  5
53C
100
AcDbEntity
  8
3_AXES_OTHER
100
AcDbLine
 62
7
  6
CONTINUOUS
 10
68.306243864
 20
33.3191120201
 11
68.306243864
 21
33.4796783603
  0
LINE
  5
53D
100
AcDbEntity
  8
3_AXES_OTHER
100
AcDbLine
 62
7
  6
CONTINUOUS
 10
69.8219918955
 20
34.2370404811
 11
69.8219918955
 21
34.4142058354
  0
LINE
  5
53E
100
AcDbEntity
  8
3_AXES_OTHER
100
AcDbLine
 62
7
  6
CONTINUOUS
 10
71.6152989821
 20
32.1895995362
 11
70.6822281159
 21
25.6947176464
  0
LINE
  5
53F
100
AcDbEntity
  8
3_AXES_OTHER
100
AcDbLine
 62
7
  6
CONTINUOUS
 10
71.2983698482
 20
33.3191120201
 11
71.2983698482
 21
33.4796783603
  0
LINE
  5
540
100
AcDbEntity
  8
3_AXES_OTHER
100
AcDbLine
 62
7
  6
CONTINUOUS
 10
71.6920706356
 20
32.5369170958
 11
71.6920706356
 21
34.3150258882
  0
LINE
  5
541
100
AcDbEntity
  8
3_AXES_OTHER
100
AcDbLine
 62
7
  6
CONTINUOUS
 10
72.07270322
 20
32.1895995362
 11
71.1396323538
 21
25.6947176464
  0
LINE
  5
542
100
AcDbEntity
  8
3_AXES_OTHER
100
AcDbLine
 62
7
  6
CONTINUOUS
 10
72.2235666986
 20
25.6947176464
 11
72.2235666986
 21
32.1895995362
  0
LINE
  5
543
100
AcDbEntity
  8
3_AXES_OTHER
100
AcDbLine
 62
7
  6
CONTINUOUS
 10
72.3239603994
 20
34.0077125301
 11
72.3239603994
 21
33.0376871498
  0
LINE
  5
544
100
AcDbEntity
  8
3_ALL_AXES
100
AcDbLine
 62
7
  6
CENTER
 10
72.7580155175
 20
31.3197176464
 11
72.7580155175
 21
30.8947176464
  0
LINE
  5
545
100
AcDbEntity
  8
3_ALL_AXES
100
AcDbLine
 62
7
  6
CENTER
 10
72.7580155175
 20
26.3197176464
 11
72.7580155175
 21
25.8947176464
  0
LINE
  5
546
100
AcDbEntity
  8
3_ALL_AXES
100
AcDbLine
 62
7
  6
CENTER
 10
72.7580155175
 20
26.3197176464
 11
72.7580155175
 21
26.7447176464
  0
LINE
  5
547
100
AcDbEntity
  8
3_ALL_AXES
100
AcDbLine
 62
7
  6
CENTER
 10
72.7580155175
 20
31.3197176464
 11
72.7580155175
 21
31.7447176464
  0
LINE
  5
548
100
AcDbEntity
  8
3_ALL_AXES
100
AcDbLine
 62
7
  6
CENTER
 10
74.1330155175
 20
14.2180490981
 11
74.1330155175
 21
34.7812490981
  0
LINE
  5
549
100
AcDbEntity
  8
3_ALL_AXES
100
AcDbLine
 62
7
  6
CENTER
 10
75.5080155175
 20
31.3197176464
 11
75.5080155175
 21
30.8947176464
  0
LINE
  5
54A
100
AcDbEntity
  8
3_ALL_AXES
100
AcDbLine
 62
7
  6
CENTER
 10
75.5080155175
 20
26.3197176464
 11
75.5080155175
 21
25.8947176464
  0
LINE
  5
54B
100
AcDbEntity
  8
3_ALL_AXES
100
AcDbLine
 62
7
  6
CENTER
 10
75.5080155175
 20
26.3197176464
 11
75.5080155175
 21
26.7447176464
  0
LINE
  5
54C
100
AcDbEntity
  8
3_ALL_AXES
100
AcDbLine
 62
7
  6
CENTER
 10
75.5080155175
 20
31.3197176464
 11
75.5080155175
 21
31.7447176464
  0
LINE
  5
54D
100
AcDbEntity
  8
3_AXES_OTHER
100
AcDbLine
 62
7
  6
CONTINUOUS
 10
75.9420706356
 20
33.0376871498
 11
75.9420706356
 21
34.0077125301
  0
LINE
  5
54E
100
AcDbEntity
  8
3_AXES_OTHER
100
AcDbLine
 62
7
  6
CONTINUOUS
 10
70.6822281159
 20
25.6947176464
 11
77.5838029191
 21
25.6947176464
  0
LINE
  5
54F
100
AcDbEntity
  8
3_ALL_AXES
100
AcDbLine
 62
7
  6
CENTER
 10
75.5080155175
 20
26.3197176464
 11
75.0830155175
 21
26.3197176464
  0
LINE
  5
550
100
AcDbEntity
  8
3_ALL_AXES
100
AcDbLine
 62
7
  6
CENTER
 10
72.7580155175
 20
26.3197176464
 11
72.3330155175
 21
26.3197176464
  0
LINE
  5
551
100
AcDbEntity
  8
3_ALL_AXES
100
AcDbLine
 62
7
  6
CENTER
 10
72.7580155175
 20
26.3197176464
 11
73.1830155175
 21
26.3197176464
  0
LINE
  5
552
100
AcDbEntity
  8
3_ALL_AXES
100
AcDbLine
 62
7
  6
CENTER
 10
75.5080155175
 20
26.3197176464
 11
75.9330155175
 21
26.3197176464
  0
LINE
  5
553
100
AcDbEntity
  8
3_AXES_OTHER
100
AcDbLine
 62
7
  6
CONTINUOUS
 10
76.0424643364
 20
25.6947176464
 11
76.0424643364
 21
32.1895995362
  0
LINE
  5
554
100
AcDbEntity
  8
3_AXES_OTHER
100
AcDbLine
 62
7
  6
CONTINUOUS
 10
76.5739603994
 20
32.5369170958
 11
76.5739603994
 21
34.3150258882
  0
LINE
  5
555
100
AcDbEntity
  8
3_ALL_AXES
100
AcDbLine
 62
7
  6
CONTINUOUS
 10
66.0030942577
 20
26.7136152842
 11
66.2589997695
 21
26.7136152842
  0
LINE
  5
556
100
AcDbEntity
  8
3_ALL_AXES
100
AcDbLine
 62
7
  6
CONTINUOUS
 10
82.0070312655
 20
26.7136152842
 11
82.2629367773
 21
26.7136152842
  0
LINE
  5
557
100
AcDbEntity
  8
3_ALL_AXES
100
AcDbLine
 62
7
  6
CONTINUOUS
 10
66.0030942577
 20
27.2604656779
 11
66.2589997695
 21
27.2604656779
  0
LINE
  5
558
100
AcDbEntity
  8
3_ALL_AXES
100
AcDbLine
 62
7
  6
CONTINUOUS
 10
82.0070312655
 20
27.2604656779
 11
82.2629367773
 21
27.2604656779
  0
LINE
  5
559
100
AcDbEntity
  8
3_AXES_OTHER
100
AcDbLine
 62
7
  6
CONTINUOUS
 10
76.9676611868
 20
33.3191120201
 11
76.9676611868
 21
33.4796783603
  0
LINE
  5
55A
100
AcDbEntity
  8
3_AXES_OTHER
100
AcDbLine
 62
7
  6
CONTINUOUS
 10
77.1263986812
 20
25.6947176464
 11
76.193327815
 21
32.1895995362
  0
LINE
  5
55B
100
AcDbEntity
  8
3_AXES_OTHER
100
AcDbLine
 62
7
  6
CONTINUOUS
 10
78.4440391395
 20
34.2370404811
 11
78.4440391395
 21
34.4142058354
  0
LINE
  5
55C
100
AcDbEntity
  8
3_AXES_OTHER
100
AcDbLine
 62
7
  6
CONTINUOUS
 10
77.5838029191
 20
25.6947176464
 11
76.6507320529
 21
32.1895995362
  0
LINE
  5
55D
100
AcDbEntity
  8
3_AXES_OTHER
100
AcDbLine
 62
7
  6
CONTINUOUS
 10
79.959787171
 20
33.3191120201
 11
79.959787171
 21
33.4796783603
  0
LINE
  5
55E
100
AcDbEntity
  8
3_ALL_AXES
100
AcDbLine
 62
7
  6
CENTER
 10
75.5080155175
 20
31.3197176464
 11
75.0830155175
 21
31.3197176464
  0
LINE
  5
55F
100
AcDbEntity
  8
3_ALL_AXES
100
AcDbLine
 62
7
  6
CENTER
 10
72.7580155175
 20
31.3197176464
 11
72.3330155175
 21
31.3197176464
  0
LINE
  5
560
100
AcDbEntity
  8
3_ALL_AXES
100
AcDbLine
 62
7
  6
CENTER
 10
72.7580155175
 20
31.3197176464
 11
73.1830155175
 21
31.3197176464
  0
LINE
  5
561
100
AcDbEntity
  8
3_ALL_AXES
100
AcDbLine
 62
7
  6
CENTER
 10
75.5080155175
 20
31.3197176464
 11
75.9330155175
 21
31.3197176464
  0
LINE
  5
562
100
AcDbEntity
  8
3_AXES_OTHER
100
AcDbLine
 62
7
  6
CONTINUOUS
 10
81.4361651238
 20
34.2370404811
 11
81.4361651238
 21
34.4142058354
  0
LINE
  5
563
100
AcDbEntity
  8
3_AXES_OTHER
100
AcDbLine
 62
7
  6
CONTINUOUS
 10
72.2235666986
 20
32.1297570165
 11
76.0424643364
 21
32.1297570165
  0
LINE
  5
564
100
AcDbEntity
  8
3_AXES_OTHER
100
AcDbLine
 62
7
  6
CONTINUOUS
 10
76.6507320529
 20
32.1895995362
 11
71.6152989821
 21
32.1895995362
  0
LINE
  5
565
100
AcDbEntity
  8
3_AXES_OTHER
100
AcDbLine
 62
7
  6
CONTINUOUS
 10
82.0070312655
 20
34.2370404811
 11
82.0070312655
 21
14.7882215834
  0
LINE
  5
566
100
AcDbEntity
  8
3_ALL_AXES
100
AcDbLine
 62
7
  6
CONTINUOUS
 10
82.2629367773
 20
27.2603714957
 11
82.2629367773
 21
26.7137094664
  0
LINE
  5
567
100
AcDbEntity
  8
3_AXES_OTHER
100
AcDbLine
 62
7
  6
CONTINUOUS
 10
66.2589997695
 20
32.4011835592
 11
82.0070312655
 21
32.4011835592
  0
LINE
  5
568
100
AcDbEntity
  8
3_AXES_OTHER
100
AcDbLine
 62
7
  6
CONTINUOUS
 10
71.6920706356
 20
32.5369170958
 11
76.5739603994
 21
32.5369170958
  0
LINE
  5
569
100
AcDbEntity
  8
3_AXES_OTHER
100
AcDbLine
 62
7
  6
CONTINUOUS
 10
71.6920706356
 20
32.7510055495
 11
76.5739603994
 21
32.7510055495
  0
LINE
  5
56A
100
AcDbEntity
  8
3_AXES_OTHER
100
AcDbLine
 62
7
  6
CONTINUOUS
 10
72.3239603994
 20
33.0376871498
 11
75.9420706356
 21
33.0376871498
  0
LINE
  5
56B
100
AcDbEntity
  8
3_AXES_OTHER
100
AcDbLine
 62
7
  6
CONTINUOUS
 10
75.9420706356
 20
33.2940843514
 11
72.3239603994
 21
33.2940843514
  0
LINE
  5
56C
100
AcDbEntity
  8
3_AXES_OTHER
100
AcDbLine
 62
7
  6
CONTINUOUS
 10
75.9420706356
 20
34.0077125301
 11
72.3239603994
 21
34.0077125301
  0
LINE
  5
56D
100
AcDbEntity
  8
3_AXES_OTHER
100
AcDbLine
 62
7
  6
CONTINUOUS
 10
66.2589997695
 20
34.2370404811
 11
71.6920706356
 21
34.2370404811
  0
LINE
  5
56E
100
AcDbEntity
  8
3_AXES_OTHER
100
AcDbLine
 62
7
  6
CONTINUOUS
 10
76.5739603994
 20
34.2370404811
 11
82.0070312655
 21
34.2370404811
  0
LINE
  5
56F
100
AcDbEntity
  8
3_AXES_OTHER
100
AcDbLine
 62
7
  6
CONTINUOUS
 10
76.5739603994
 20
34.3150258882
 11
71.6920706356
 21
34.3150258882
  0
LINE
  5
570
100
AcDbEntity
  8
3_AXES_OTHER
100
AcDbLine
 62
7
  6
CONTINUOUS
 10
66.8298659112
 20
34.4142058354
 11
69.8219918955
 21
34.4142058354
  0
LINE
  5
571
100
AcDbEntity
  8
3_AXES_OTHER
100
AcDbLine
 62
7
  6
CONTINUOUS
 10
78.4440391395
 20
34.4142058354
 11
81.4361651238
 21
34.4142058354
  0
CIRCLE
  5
572
100
AcDbEntity
  8
0
100
AcDbCircle
 62
7
  6
CONTINUOUS
 10
48.5265057186
 20
26.9870404811
 40
0.4766888442
  0
ARC
  5
573
100
AcDbEntity
  8
3_ALL_AXES
100
AcDbCircle
 62
7
  6
CONTINUOUS
 10
58.665615611
 20
60.4080186579
 40
0.0300406799
100
AcDbArc
 50
348.8115297888
 51
357.6460776228
  0
ARC
  5
574
100
AcDbEntity
  8
3_ALL_AXES
100
AcDbCircle
 62
7
  6
CONTINUOUS
 10
60.436941082
 20
59.9291339436
 40
0.0300406799
100
AcDbArc
 50
348.8115297891
 51
357.6460776232
  0
CIRCLE
  5
575
100
AcDbEntity
  8
3_AXES_OTHER
100
AcDbCircle
 62
7
  6
CONTINUOUS
 10
24.360396829
 20
46.4054776239
 40
1.4960629921
  0
CIRCLE
  5
576
100
AcDbEntity
  8
3_AXES_OTHER
100
AcDbCircle
 62
7
  6
CONTINUOUS
 10
12.7462236007
 20
46.4054776239
 40
1.4960629921
  0
ARC
  5
577
100
AcDbEntity
  8
3_AXES_OTHER
100
AcDbCircle
 62
7
  6
CONTINUOUS
 10
22.613157044
 20
50.712703757
 40
1.2252011618
100
AcDbArc
 50
180.0032433166
 51
183.4695818646
  0
ARC
  5
578
100
AcDbEntity
  8
3_AXES_OTHER
100
AcDbCircle
 62
7
  6
CONTINUOUS
 10
23.1548807085
 20
50.712703757
 40
1.2252011618
100
AcDbArc
 50
356.5304181354
 51
359.9967566834
  0
ARC
  5
579
100
AcDbEntity
  8
3_AXES_OTHER
100
AcDbCircle
 62
7
  6
CONTINUOUS
 10
13.9517397212
 20
50.712703757
 40
1.2252011618
100
AcDbArc
 50
180.0032433166
 51
183.4695818646
  0
ARC
  5
57A
100
AcDbEntity
  8
3_AXES_OTHER
100
AcDbCircle
 62
7
  6
CONTINUOUS
 10
14.4934633857
 20
50.712703757
 40
1.2252011618
100
AcDbArc
 50
356.5304181354
 51
359.9967566834
  0
CIRCLE
  5
57B
100
AcDbEntity
  8
3_AXES_OTHER
100
AcDbCircle
 62
7
  6
CONTINUOUS
 10
24.360396829
 20
46.4054776239
 40
0.9842519685
  0
CIRCLE
  5
57C
100
AcDbEntity
  8
3_AXES_OTHER
100
AcDbCircle
 62
7
  6
CONTINUOUS
 10
12.7462236007
 20
46.4054776239
 40
0.9842519685
  0
ARC
  5
57D
100
AcDbEntity
  8
3_ALL_AXES
100
AcDbCircle
 62
7
  6
CONTINUOUS
 10
19.5533102148
 20
53.6224067577
 40
0.1437007874
100
AcDbArc
 50
0.0
 51
180.0
  0
ARC
  5
57E
100
AcDbEntity
  8
3_ALL_AXES
100
AcDbCircle
 62
7
  6
CONTINUOUS
 10
19.5533102148
 20
53.4724067577
 40
0.1437007874
100
AcDbArc
 50
180.0
 51
360.0
  0
ARC
  5
57F
100
AcDbEntity
  8
3_ALL_AXES
100
AcDbCircle
 62
7
  6
CONTINUOUS
 10
17.5533102148
 20
53.6224067577
 40
0.1437007874
100
AcDbArc
 50
0.0
 51
180.0
  0
ARC
  5
580
100
AcDbEntity
  8
3_ALL_AXES
100
AcDbCircle
 62
7
  6
CONTINUOUS
 10
17.5533102148
 20
53.4724067577
 40
0.1437007874
100
AcDbArc
 50
180.0
 51
360.0
  0
ARC
  5
581
100
AcDbEntity
  8
3_ALL_AXES
100
AcDbCircle
 62
7
  6
CONTINUOUS
 10
18.5533102148
 20
29.0804398875
 40
5.2491275299
100
AcDbArc
 50
252.4496881767
 51
287.5503118233
  0
ARC
  5
582
100
AcDbEntity
  8
3_ALL_AXES
100
AcDbCircle
 62
7
  6
CONTINUOUS
 10
18.5533102148
 20
29.1103976825
 40
5.2491275299
100
AcDbArc
 50
252.4496881767
 51
287.5503118233
  0
CIRCLE
  5
583
100
AcDbEntity
  8
3_ALL_AXES
100
AcDbCircle
 62
7
  6
CONTINUOUS
 10
48.5265057186
 20
26.9870404811
 40
0.2734251969
  0
CIRCLE
  5
584
100
AcDbEntity
  8
3_ALL_AXES
100
AcDbCircle
 62
7
  6
CONTINUOUS
 10
72.7580155175
 20
26.3197176464
 40
0.125
  0
CIRCLE
  5
585
100
AcDbEntity
  8
3_ALL_AXES
100
AcDbCircle
 62
7
  6
CONTINUOUS
 10
72.7580155175
 20
31.3197176464
 40
0.125
  0
CIRCLE
  5
586
100
AcDbEntity
  8
3_ALL_AXES
100
AcDbCircle
 62
7
  6
CONTINUOUS
 10
75.5080155175
 20
31.3197176464
 40
0.125
  0
CIRCLE
  5
587
100
AcDbEntity
  8
3_ALL_AXES
100
AcDbCircle
 62
7
  6
CONTINUOUS
 10
75.5080155175
 20
26.3197176464
 40
0.125
  0
SPLINE
  5
588
100
AcDbEntity
  8
3_ALL_AXES
100
AcDbSpline
 62
7
  6
CONTINUOUS
 70
0
 71
3
 72
11
 73
7
 74
0
 42
0.0000001
 43
0.0000001
 44
0.0000000001
 40
0.0
 40
0.0
 40
0.0
 40
0.0
 40
0.2163193152
 40
0.4497972768
 40
0.7105297248
 40
1.0
 40
1.0
 40
1.0
 40
1.0
 10
51.8185974378
 20
55.765763237
 30
0.0
 10
51.9488447588
 20
55.9393856137
 30
0.0
 10
52.2969350718
 20
56.2472508955
 30
0.0
 10
52.9773492949
 20
56.4988988563
 30
0.0
 10
53.7708413794
 20
56.5478061945
 30
0.0
 10
54.3194719106
 20
56.4527328381
 30
0.0
 10
54.5998491345
 20
56.3769317677
 30
0.0
  0
SPLINE
  5
589
100
AcDbEntity
  8
3_ALL_AXES
100
AcDbSpline
 62
7
  6
CONTINUOUS
 70
0
 71
3
 72
9
 73
5
 74
0
 42
0.0000001
 43
0.0000001
 44
0.0000000001
 40
0.0
 40
0.0
 40
0.0
 40
0.0
 40
0.4797899671
 40
1.0
 40
1.0
 40
1.0
 40
1.0
 10
50.8740605393
 20
56.4748796085
 30
0.0
 10
50.6983735916
 20
56.2407338938
 30
0.0
 10
50.4341266313
 20
55.6700084817
 30
0.0
 10
50.4017272631
 20
55.0476972174
 30
0.0
 10
50.4294257119
 20
54.7315183645
 30
0.0
  0
SPLINE
  5
58A
100
AcDbEntity
  8
3_ALL_AXES
100
AcDbSpline
 62
7
  6
CONTINUOUS
 70
0
 71
3
 72
11
 73
7
 74
0
 42
0.0000001
 43
0.0000001
 44
0.0000000001
 40
0.0
 40
0.0
 40
0.0
 40
0.0
 40
0.2184450748
 40
0.4651012637
 40
0.7304494058
 40
1.0
 40
1.0
 40
1.0
 40
1.0
 10
50.4294257119
 20
54.7315183645
 30
0.0
 10
50.4674267215
 20
54.2977353859
 30
0.0
 10
50.7273937752
 20
53.3883538282
 30
0.0
 10
51.4949657038
 20
52.1362898984
 30
0.0
 10
52.5877829775
 20
51.0101740511
 30
0.0
 10
53.4772242928
 20
50.4061008298
 30
0.0
 10
53.9512750211
 20
50.1531471415
 30
0.0
  0
SPLINE
  5
58B
100
AcDbEntity
  8
3_ALL_AXES
100
AcDbSpline
 62
7
  6
CONTINUOUS
 70
0
 71
3
 72
12
 73
8
 74
0
 42
0.0000001
 43
0.0000001
 44
0.0000000001
 40
0.0
 40
0.0
 40
0.0
 40
0.0
 40
0.3065717815
 40
0.6129159003
 40
0.7448277716
 40
0.8538620435
 40
1.0
 40
1.0
 40
1.0
 40
1.0
 10
64.3765063366
 20
51.8444087845
 30
0.0
 10
64.3747198081
 20
51.7986262475
 30
0.0
 10
64.3588470956
 20
51.707534572
 30
0.0
 10
64.3200511564
 20
51.6025533533
 30
0.0
 10
64.2764909024
 20
51.5322798327
 30
0.0
 10
64.2400663981
 20
51.4891472053
 30
0.0
 10
64.1996208595
 20
51.4677194206
 30
0.0
 10
64.178538761
 20
51.4734246238
 30
0.0
  0
SPLINE
  5
58C
100
AcDbEntity
  8
3_ALL_AXES
100
AcDbSpline
 62
7
  6
CONTINUOUS
 70
0
 71
3
 72
8
 73
4
 74
0
 42
0.0000001
 43
0.0000001
 44
0.0000000001
 40
0.0
 40
0.0
 40
0.0
 40
0.0
 40
1.0
 40
1.0
 40
1.0
 40
1.0
 10
60.1103190654
 20
59.8805135334
 30
0.0
 10
60.1101821127
 20
59.877169168
 30
0.0
 10
60.1106278456
 20
59.873764587
 30
0.0
 10
60.1115549347
 20
59.8705483716
 30
0.0
  0
SPLINE
  5
58D
100
AcDbEntity
  8
3_ALL_AXES
100
AcDbSpline
 62
7
  6
CONTINUOUS
 70
0
 71
3
 72
9
 73
5
 74
0
 42
0.0000001
 43
0.0000001
 44
0.0000000001
 40
0.0
 40
0.0
 40
0.0
 40
0.0
 40
0.2878119448
 40
1.0
 40
1.0
 40
1.0
 40
1.0
 10
60.3190442186
 20
59.81420123
 30
0.0
 10
60.3254177689
 20
59.8154905722
 30
0.0
 10
60.3472653401
 20
59.8208880556
 30
0.0
 10
60.3688928653
 20
59.8300505058
 30
0.0
 10
60.3811807058
 20
59.8404390434
 30
0.0
  0
SPLINE
  5
58E
100
AcDbEntity
  8
3_AXES_OTHER
100
AcDbSpline
 62
7
  6
CONTINUOUS
 70
0
 71
3
 72
10
 73
6
 74
0
 42
0.0000001
 43
0.0000001
 44
0.0000000001
 40
0.0
 40
0.0
 40
0.0
 40
0.0
 40
0.7012441845
 40
0.8945990592
 40
1.0
 40
1.0
 40
1.0
 40
1.0
 10
60.6456504516
 20
59.5014356663
 30
0.0
 10
60.6137904873
 20
59.5030647387
 30
0.0
 10
60.572175211
 20
59.5037998498
 30
0.0
 10
60.5282116002
 20
59.4973620614
 30
0.0
 10
60.5150113445
 20
59.4886902111
 30
0.0
 10
60.5139285706
 20
59.4840190756
 30
0.0
  0
SPLINE
  5
58F
100
AcDbEntity
  8
3_AXES_OTHER
100
AcDbSpline
 62
7
  6
CONTINUOUS
 70
0
 71
3
 72
10
 73
6
 74
0
 42
0.0000001
 43
0.0000001
 44
0.0000000001
 40
0.0
 40
0.0
 40
0.0
 40
0.0
 40
0.7012441845
 40
0.8945990592
 40
1.0
 40
1.0
 40
1.0
 40
1.0
 10
52.9745558919
 20
61.575345846
 30
0.0
 10
52.9426959275
 20
61.5769749184
 30
0.0
 10
52.9010806512
 20
61.5777100295
 30
0.0
 10
52.8571170404
 20
61.5712722411
 30
0.0
 10
52.8439167847
 20
61.5626003908
 30
0.0
 10
52.8428340108
 20
61.5579292553
 30
0.0
  0
SPLINE
  5
590
100
AcDbEntity
  8
3_AXES_OTHER
100
AcDbSpline
 62
7
  6
CONTINUOUS
 70
0
 71
3
 72
18
 73
14
 74
0
 42
0.0000001
 43
0.0000001
 44
0.0000000001
 40
0.0
 40
0.0
 40
0.0
 40
0.0
 40
0.0974196649
 40
0.2380932265
 40
0.4060835844
 40
0.5821461056
 40
0.7460906624
 40
0.817543815
 40
0.8791737105
 40
0.9292350869
 40
0.9663777111
 40
0.9897578092
 40
1.0
 40
1.0
 40
1.0
 40
1.0
 10
62.8423729847
 20
58.9075432058
 30
0.0
 10
62.7808183392
 20
58.9106906346
 30
0.0
 10
62.63120567
 20
58.9305497226
 30
0.0
 10
62.3782111565
 20
58.9748835482
 30
0.0
 10
62.0779768461
 20
59.0378776265
 30
0.0
 10
61.7652247313
 20
59.1118659146
 30
0.0
 10
61.5134512052
 20
59.1785513263
 30
0.0
 10
61.3332782684
 20
59.231478981
 30
0.0
 10
61.2225798999
 20
59.2669124182
 30
0.0
 10
61.1346007572
 20
59.2977451054
 30
0.0
 10
61.0678983979
 20
59.3257318952
 30
0.0
 10
61.0317843889
 20
59.3437855703
 30
0.0
 10
61.0108177528
 20
59.3611220476
 30
0.0
 10
61.0122858211
 20
59.3674335444
 30
0.0
  0
SPLINE
  5
591
100
AcDbEntity
  8
3_AXES_OTHER
100
AcDbSpline
 62
7
  6
CONTINUOUS
 70
0
 71
3
 72
18
 73
14
 74
0
 42
0.0000001
 43
0.0000001
 44
0.0000000001
 40
0.0
 40
0.0
 40
0.0
 40
0.0
 40
0.0974196649
 40
0.2380932265
 40
0.4060835844
 40
0.5821461056
 40
0.7460906624
 40
0.817543815
 40
0.8791737105
 40
0.9292350869
 40
0.9663777111
 40
0.9897578092
 40
1.0
 40
1.0
 40
1.0
 40
1.0
 10
55.1712784249
 20
60.9814533855
 30
0.0
 10
55.1097237795
 20
60.9846008143
 30
0.0
 10
54.9601111103
 20
61.0044599023
 30
0.0
 10
54.7071165967
 20
61.0487937279
 30
0.0
 10
54.4068822864
 20
61.1117878062
 30
0.0
 10
54.0941301716
 20
61.1857760943
 30
0.0
 10
53.8423566454
 20
61.252461506
 30
0.0
 10
53.6621837087
 20
61.3053891607
 30
0.0
 10
53.5514853402
 20
61.3408225979
 30
0.0
 10
53.4635061975
 20
61.3716552851
 30
0.0
 10
53.3968038381
 20
61.3996420749
 30
0.0
 10
53.3606898292
 20
61.41769575
 30
0.0
 10
53.339723193
 20
61.4350322273
 30
0.0
 10
53.3411912614
 20
61.4413437241
 30
0.0
  0
SPLINE
  5
592
100
AcDbEntity
  8
3_ALL_AXES
100
AcDbSpline
 62
7
  6
CONTINUOUS
 70
0
 71
3
 72
8
 73
4
 74
0
 42
0.0000001
 43
0.0000001
 44
0.0000000001
 40
0.0
 40
0.0
 40
0.0
 40
0.0
 40
1.0
 40
1.0
 40
1.0
 40
1.0
 10
58.3389935943
 20
60.3593982477
 30
0.0
 10
58.3388566416
 20
60.3560538823
 30
0.0
 10
58.3393023745
 20
60.3526493013
 30
0.0
 10
58.3402294636
 20
60.3494330858
 30
0.0
  0
SPLINE
  5
593
100
AcDbEntity
  8
3_ALL_AXES
100
AcDbSpline
 62
7
  6
CONTINUOUS
 70
0
 71
3
 72
9
 73
5
 74
0
 42
0.0000001
 43
0.0000001
 44
0.0000000001
 40
0.0
 40
0.0
 40
0.0
 40
0.0
 40
0.2878119448
 40
1.0
 40
1.0
 40
1.0
 40
1.0
 10
58.5477187476
 20
60.2930859442
 30
0.0
 10
58.5540922978
 20
60.2943752864
 30
0.0
 10
58.5759398691
 20
60.2997727699
 30
0.0
 10
58.5975673943
 20
60.30893522
 30
0.0
 10
58.6098552347
 20
60.3193237576
 30
0.0
  0
SPLINE
  5
594
100
AcDbEntity
  8
3_AXES_OTHER
100
AcDbSpline
 62
7
  6
CONTINUOUS
 70
0
 71
3
 72
9
 73
5
 74
0
 42
0.0000001
 43
0.0000001
 44
0.0000000001
 40
0.0
 40
0.0
 40
0.0
 40
0.0
 40
0.5392492224
 40
1.0
 40
1.0
 40
1.0
 40
1.0
 10
59.9912691097
 20
58.2921592615
 30
0.0
 10
59.9429046485
 20
58.2512703823
 30
0.0
 10
59.8611197753
 20
58.1632814421
 30
0.0
 10
59.8234654249
 20
58.046415394
 30
0.0
 10
59.8213557844
 20
57.9923432289
 30
0.0
  0
SPLINE
  5
595
100
AcDbEntity
  8
3_AXES_OTHER
100
AcDbSpline
 62
7
  6
CONTINUOUS
 70
0
 71
3
 72
9
 73
5
 74
0
 42
0.0000001
 43
0.0000001
 44
0.0000000001
 40
0.0
 40
0.0
 40
0.0
 40
0.0
 40
0.5392492224
 40
1.0
 40
1.0
 40
1.0
 40
1.0
 10
49.7050286773
 20
61.0730842752
 30
0.0
 10
49.6566642161
 20
61.032195396
 30
0.0
 10
49.5748793429
 20
60.9442064558
 30
0.0
 10
49.5372249925
 20
60.8273404076
 30
0.0
 10
49.535115352
 20
60.7732682426
 30
0.0
  0
SPLINE
  5
596
100
AcDbEntity
  8
3_AXES_OTHER
100
AcDbSpline
 62
7
  6
CONTINUOUS
 70
0
 71
3
 72
16
 73
12
 74
0
 42
0.0000001
 43
0.0000001
 44
0.0000000001
 40
0.0
 40
0.0
 40
0.0
 40
0.0
 40
0.1091156106
 40
0.2443077219
 40
0.396542893
 40
0.5529978079
 40
0.7000552139
 40
0.8259525212
 40
0.8787673476
 40
0.9246207518
 40
1.0
 40
1.0
 40
1.0
 40
1.0
 10
62.1879916427
 20
57.698266801
 30
0.0
 10
62.1298795893
 20
57.6491369922
 30
0.0
 10
61.9757731814
 20
57.5685700193
 30
0.0
 10
61.7068225051
 20
57.4996916185
 30
0.0
 10
61.3968806401
 20
57.4742801811
 30
0.0
 10
61.0785557943
 20
57.4957249271
 30
0.0
 10
60.7853008946
 20
57.561717509
 30
0.0
 10
60.5743442499
 20
57.6522430159
 30
0.0
 10
60.4472815291
 20
57.7454098743
 30
0.0
 10
60.3639800346
 20
57.8337474986
 30
0.0
 10
60.330746397
 20
57.9196569568
 30
0.0
 10
60.3327672607
 20
57.9721874099
 30
0.0
  0
SPLINE
  5
597
100
AcDbEntity
  8
3_AXES_OTHER
100
AcDbSpline
 62
7
  6
CONTINUOUS
 70
0
 71
3
 72
16
 73
12
 74
0
 42
0.0000001
 43
0.0000001
 44
0.0000000001
 40
0.0
 40
0.0
 40
0.0
 40
0.0
 40
0.1091156106
 40
0.2443077219
 40
0.396542893
 40
0.5529978079
 40
0.7000552139
 40
0.8259525212
 40
0.8787673476
 40
0.9246207518
 40
1.0
 40
1.0
 40
1.0
 40
1.0
 10
51.9017512104
 20
60.4791918147
 30
0.0
 10
51.8436391569
 20
60.4300620059
 30
0.0
 10
51.689532749
 20
60.349495033
 30
0.0
 10
51.4205820727
 20
60.2806166322
 30
0.0
 10
51.1106402077
 20
60.2552051948
 30
0.0
 10
50.7923153619
 20
60.2766499408
 30
0.0
 10
50.4990604622
 20
60.3426425227
 30
0.0
 10
50.2881038175
 20
60.4331680296
 30
0.0
 10
50.1610410967
 20
60.526334888
 30
0.0
 10
50.0777396022
 20
60.6146725123
 30
0.0
 10
50.0445059646
 20
60.7005819705
 30
0.0
 10
50.0465268283
 20
60.7531124236
 30
0.0
  0
SPLINE
  5
598
100
AcDbEntity
  8
3_AXES_OTHER
100
AcDbSpline
 62
7
  6
CONTINUOUS
 70
0
 71
3
 72
17
 73
13
 74
0
 42
0.0000001
 43
0.0000001
 44
0.0000000001
 40
0.0
 40
0.0
 40
0.0
 40
0.0
 40
0.0364149478
 40
0.0763264658
 40
0.1221197612
 40
0.1748702246
 40
0.3006267009
 40
0.4475314586
 40
0.6038335355
 40
0.7559238172
 40
0.8909920389
 40
1.0
 40
1.0
 40
1.0
 40
1.0
 10
52.524956487
 20
60.6564586093
 30
0.0
 10
52.5264630661
 20
60.6950737157
 30
0.0
 10
52.5139390689
 20
60.777196095
 30
0.0
 10
52.4518947442
 20
60.8930505006
 30
0.0
 10
52.3511333326
 20
61.0016317922
 30
0.0
 10
52.1580456784
 20
61.1426241559
 30
0.0
 10
51.8374053369
 20
61.2806719231
 30
0.0
 10
51.3916338588
 20
61.3808819051
 30
0.0
 10
50.9077221462
 20
61.4135465861
 30
0.0
 10
50.4365264424
 20
61.3749642492
 30
0.0
 10
50.0276575708
 20
61.2702398635
 30
0.0
 10
49.7933702051
 20
61.1477710589
 30
0.0
 10
49.7050286773
 20
61.0730842752
 30
0.0
  0
SPLINE
  5
599
100
AcDbEntity
  8
3_AXES_OTHER
100
AcDbSpline
 62
7
  6
CONTINUOUS
 70
0
 71
3
 72
17
 73
13
 74
0
 42
0.0000001
 43
0.0000001
 44
0.0000000001
 40
0.0
 40
0.0
 40
0.0
 40
0.0
 40
0.0364149478
 40
0.0763264658
 40
0.1221197612
 40
0.1748702246
 40
0.3006267009
 40
0.4475314586
 40
0.6038335355
 40
0.7559238172
 40
0.8909920389
 40
1.0
 40
1.0
 40
1.0
 40
1.0
 10
62.8111969194
 20
57.8755335957
 30
0.0
 10
62.8127034985
 20
57.914148702
 30
0.0
 10
62.8001795012
 20
57.9962710813
 30
0.0
 10
62.7381351766
 20
58.1121254869
 30
0.0
 10
62.637373765
 20
58.2207067785
 30
0.0
 10
62.4442861108
 20
58.3616991422
 30
0.0
 10
62.1236457693
 20
58.4997469094
 30
0.0
 10
61.6778742912
 20
58.5999568914
 30
0.0
 10
61.1939625785
 20
58.6326215724
 30
0.0
 10
60.7227668748
 20
58.5940392355
 30
0.0
 10
60.3138980032
 20
58.4893148498
 30
0.0
 10
60.0796106375
 20
58.3668460452
 30
0.0
 10
59.9912691097
 20
58.2921592615
 30
0.0
  0
SPLINE
  5
59A
100
AcDbEntity
  8
3_AXES_OTHER
100
AcDbSpline
 62
7
  6
CONTINUOUS
 70
0
 71
3
 72
9
 73
5
 74
0
 42
0.0000001
 43
0.0000001
 44
0.0000000001
 40
0.0
 40
0.0
 40
0.0
 40
0.0
 40
0.4608303975
 40
1.0
 40
1.0
 40
1.0
 40
1.0
 10
62.2997854431
 20
57.8956894147
 30
0.0
 10
62.2984156521
 20
57.8600829849
 30
0.0
 10
62.2736652973
 20
57.7831256156
 30
0.0
 10
62.219828684
 20
57.725182865
 30
0.0
 10
62.1879916427
 20
57.698266801
 30
0.0
  0
SPLINE
  5
59B
100
AcDbEntity
  8
3_AXES_OTHER
100
AcDbSpline
 62
7
  6
CONTINUOUS
 70
0
 71
3
 72
9
 73
5
 74
0
 42
0.0000001
 43
0.0000001
 44
0.0000000001
 40
0.0
 40
0.0
 40
0.0
 40
0.0
 40
0.4608303975
 40
1.0
 40
1.0
 40
1.0
 40
1.0
 10
52.0135450107
 20
60.6766144284
 30
0.0
 10
52.0121752197
 20
60.6410079986
 30
0.0
 10
51.9874248649
 20
60.5640506293
 30
0.0
 10
51.9335882516
 20
60.5061078787
 30
0.0
 10
51.9017512104
 20
60.4791918147
 30
0.0
  0
SPLINE
  5
59C
100
AcDbEntity
  8
3_ALL_AXES
100
AcDbSpline
 62
7
  6
CONTINUOUS
 70
0
 71
3
 72
9
 73
5
 74
0
 42
0.0000001
 43
0.0000001
 44
0.0000000001
 40
0.0
 40
0.0
 40
0.0
 40
0.0
 40
0.2801188954
 40
1.0
 40
1.0
 40
1.0
 40
1.0
 10
58.6793101665
 20
60.3780432024
 30
0.0
 10
58.6813872488
 20
60.379799235
 30
0.0
 10
58.6884117494
 20
60.3864542045
 30
0.0
 10
58.693731268
 20
60.3953321283
 30
0.0
 10
58.6950853443
 20
60.4021896561
 30
0.0
  0
SPLINE
  5
59D
100
AcDbEntity
  8
3_ALL_AXES
100
AcDbSpline
 62
7
  6
CONTINUOUS
 70
0
 71
3
 72
9
 73
5
 74
0
 42
0.0000001
 43
0.0000001
 44
0.0000000001
 40
0.0
 40
0.0
 40
0.0
 40
0.0
 40
0.2801188954
 40
1.0
 40
1.0
 40
1.0
 40
1.0
 10
60.4506356376
 20
59.8991584882
 30
0.0
 10
60.4527127199
 20
59.9009145207
 30
0.0
 10
60.4597372205
 20
59.9075694903
 30
0.0
 10
60.465056739
 20
59.9164474141
 30
0.0
 10
60.4664108154
 20
59.9233049418
 30
0.0
  0
SPLINE
  5
59E
100
AcDbEntity
  8
3_AXES_OTHER
100
AcDbSpline
 62
7
  6
CONTINUOUS
 70
0
 71
3
 72
18
 73
14
 74
0
 42
0.0000001
 43
0.0000001
 44
0.0000000001
 40
0.0
 40
0.0
 40
0.0
 40
0.0
 40
0.0102487027
 40
0.0336358554
 40
0.0707783697
 40
0.1208473615
 40
0.1824806321
 40
0.253932632
 40
0.4178761154
 40
0.5939339957
 40
0.7619187419
 40
0.9025876602
 40
1.0
 40
1.0
 40
1.0
 40
1.0
 10
55.7562922573
 20
60.8763207383
 30
0.0
 10
55.7585178372
 20
60.8859219907
 30
0.0
 10
55.7266262242
 20
60.9122649072
 30
0.0
 10
55.6717238772
 20
60.9397174202
 30
0.0
 10
55.5703227563
 20
60.9822590714
 30
0.0
 10
55.4365832883
 20
61.0291243835
 30
0.0
 10
55.2683123502
 20
61.0829833325
 30
0.0
 10
54.9944490237
 20
61.1634341217
 30
0.0
 10
54.6117596259
 20
61.2647915643
 30
0.0
 10
54.1363868115
 20
61.3772462965
 30
0.0
 10
53.6800465634
 20
61.4729995951
 30
0.0
 10
53.2955110525
 20
61.5403774159
 30
0.0
 10
53.0681117527
 20
61.5705621224
 30
0.0
 10
52.9745558919
 20
61.575345846
 30
0.0
  0
SPLINE
  5
59F
100
AcDbEntity
  8
3_AXES_OTHER
100
AcDbSpline
 62
7
  6
CONTINUOUS
 70
0
 71
3
 72
18
 73
14
 74
0
 42
0.0000001
 43
0.0000001
 44
0.0000000001
 40
0.0
 40
0.0
 40
0.0
 40
0.0
 40
0.0091311285
 40
0.0286493118
 40
0.059503056
 40
0.1013186369
 40
0.1533273692
 40
0.2145120314
 40
0.359262421
 40
0.5238003268
 40
0.6946591011
 40
0.8578426196
 40
1.0
 40
1.0
 40
1.0
 40
1.0
 10
63.427386817
 20
58.8024105586
 30
0.0
 10
63.429114618
 20
58.8098643702
 30
0.0
 10
63.408529774
 20
58.8312353878
 30
0.0
 10
63.3678620107
 20
58.8533015603
 30
0.0
 10
63.2960025131
 20
58.8865783737
 30
0.0
 10
63.1989696407
 20
58.9232769324
 30
0.0
 10
63.0758880842
 20
58.9656934899
 30
0.0
 10
62.8698328127
 20
59.0306125366
 30
0.0
 10
62.5710725896
 20
59.1154355727
 30
0.0
 10
62.1813397275
 20
59.2153798963
 30
0.0
 10
61.7743949327
 20
59.3101392681
 30
0.0
 10
61.3837989928
 20
59.3918877135
 30
0.0
 10
61.1320276418
 20
59.4377678487
 30
0.0
 10
61.0144085542
 20
59.4566243298
 30
0.0
  0
SPLINE
  5
5A0
100
AcDbEntity
  8
3_AXES_OTHER
100
AcDbSpline
 62
7
  6
CONTINUOUS
 70
0
 71
3
 72
9
 73
5
 74
0
 42
0.0000001
 43
0.0000001
 44
0.0000000001
 40
0.0
 40
0.0
 40
0.0
 40
0.0
 40
0.303294652
 40
1.0
 40
1.0
 40
1.0
 40
1.0
 10
61.0144085542
 20
59.4566243298
 30
0.0
 10
60.9773197138
 20
59.4625703462
 30
0.0
 10
60.8549070992
 20
59.4811157251
 30
0.0
 10
60.7318234572
 20
59.4970294449
 30
0.0
 10
60.6456504516
 20
59.5014356663
 30
0.0
  0
SPLINE
  5
5A1
100
AcDbEntity
  8
3_AXES_OTHER
100
AcDbSpline
 62
7
  6
CONTINUOUS
 70
0
 71
3
 72
10
 73
6
 74
0
 42
0.0000001
 43
0.0000001
 44
0.0000000001
 40
0.0
 40
0.0
 40
0.0
 40
0.0
 40
0.1054203464
 40
0.2990557678
 40
1.0
 40
1.0
 40
1.0
 40
1.0
 10
55.2579350067
 20
60.9929062695
 30
0.0
 10
55.2572202356
 20
60.9898333366
 30
0.0
 10
55.2485290151
 20
60.9841242921
 30
0.0
 10
55.2195996672
 20
60.9799167169
 30
0.0
 10
55.1922285588
 20
60.9803821576
 30
0.0
 10
55.1712784249
 20
60.9814533855
 30
0.0
  0
SPLINE
  5
5A2
100
AcDbEntity
  8
3_AXES_OTHER
100
AcDbSpline
 62
7
  6
CONTINUOUS
 70
0
 71
3
 72
10
 73
6
 74
0
 42
0.0000001
 43
0.0000001
 44
0.0000000001
 40
0.0
 40
0.0
 40
0.0
 40
0.0
 40
0.1054203464
 40
0.2990557678
 40
1.0
 40
1.0
 40
1.0
 40
1.0
 10
62.9290295664
 20
58.9189960898
 30
0.0
 10
62.9283147953
 20
58.9159231569
 30
0.0
 10
62.9196235749
 20
58.9102141124
 30
0.0
 10
62.890694227
 20
58.9060065372
 30
0.0
 10
62.8633231186
 20
58.9064719779
 30
0.0
 10
62.8423729847
 20
58.9075432058
 30
0.0
  0
SPLINE
  5
5A3
100
AcDbEntity
  8
3_ALL_AXES
100
AcDbSpline
 62
7
  6
CONTINUOUS
 70
0
 71
3
 72
10
 73
6
 74
0
 42
0.0000001
 43
0.0000001
 44
0.0000000001
 40
0.0
 40
0.0
 40
0.0
 40
0.0
 40
0.3773046803
 40
0.6593608773
 40
1.0
 40
1.0
 40
1.0
 40
1.0
 10
64.3212642004
 20
52.0013212683
 30
0.0
 10
64.3423963352
 20
51.9956025244
 30
0.0
 10
64.3665947836
 20
51.9565458593
 30
0.0
 10
64.3762035641
 20
51.9008059777
 30
0.0
 10
64.3772770142
 20
51.8641585787
 30
0.0
 10
64.3765063366
 20
51.8444087845
 30
0.0
  0
SPLINE
  5
5A4
100
AcDbEntity
  8
3_ALL_AXES
100
AcDbSpline
 62
7
  6
CONTINUOUS
 70
0
 71
3
 72
15
 73
11
 74
0
 42
0.0000001
 43
0.0000001
 44
0.0000000001
 40
0.0
 40
0.0
 40
0.0
 40
0.0
 40
0.1366194269
 40
0.2792775508
 40
0.4223854347
 40
0.5602642194
 40
0.6881235011
 40
0.8031200782
 40
0.9055750485
 40
1.0
 40
1.0
 40
1.0
 40
1.0
 10
54.5998491345
 20
56.3769317677
 30
0.0
 10
54.9152782568
 20
56.2916542805
 30
0.0
 10
55.5428901652
 20
56.0493530181
 30
0.0
 10
56.4102021465
 20
55.522415743
 30
0.0
 10
57.1789208114
 20
54.8546252753
 30
0.0
 10
57.7974606047
 20
54.0902130181
 30
0.0
 10
58.2248166901
 20
53.2783746612
 30
0.0
 10
58.4306187851
 20
52.4686082643
 30
0.0
 10
58.3930861072
 20
51.7098529662
 30
0.0
 10
58.1897623131
 20
51.2684900176
 30
0.0
 10
58.0542399889
 20
51.0878359523
 30
0.0
  0
SPLINE
  5
5A5
100
AcDbEntity
  8
3_ALL_AXES
100
AcDbSpline
 62
7
  6
CONTINUOUS
 70
0
 71
3
 72
11
 73
7
 74
0
 42
0.0000001
 43
0.0000001
 44
0.0000000001
 40
0.0
 40
0.0
 40
0.0
 40
0.0
 40
0.2758527662
 40
0.5312018896
 40
0.7701981597
 40
1.0
 40
1.0
 40
1.0
 40
1.0
 10
56.7549970748
 20
49.3951500053
 30
0.0
 10
56.9879835197
 20
49.3975465014
 30
0.0
 10
57.4376974281
 20
49.4391592288
 30
0.0
 10
58.06537148
 20
49.6282967229
 30
0.0
 10
58.5996301886
 20
49.9383988793
 30
0.0
 10
58.8824167824
 20
50.2236295117
 30
0.0
 10
58.9989033611
 20
50.3788919495
 30
0.0
  0
SPLINE
  5
5A6
100
AcDbEntity
  8
3_ALL_AXES
100
AcDbSpline
 62
7
  6
CONTINUOUS
 70
0
 71
3
 72
9
 73
5
 74
0
 42
0.0000001
 43
0.0000001
 44
0.0000000001
 40
0.0
 40
0.0
 40
0.0
 40
0.0
 40
0.2482075354
 40
1.0
 40
1.0
 40
1.0
 40
1.0
 10
59.0653220251
 20
50.4674169166
 30
0.0
 10
59.0988844903
 20
50.5121499555
 30
0.0
 10
59.2270722317
 20
50.6975815848
 30
0.0
 10
59.3255704887
 20
50.9032409619
 30
0.0
 10
59.3814928562
 20
51.063130631
 30
0.0
  0
SPLINE
  5
5A7
100
AcDbEntity
  8
3_AXES_OTHER
100
AcDbSpline
 62
7
  6
CONTINUOUS
 70
0
 71
3
 72
17
 73
13
 74
0
 42
0.0000001
 43
0.0000001
 44
0.0000000001
 40
0.0
 40
0.0
 40
0.0
 40
0.0
 40
0.0364149478
 40
0.0763264658
 40
0.1221197612
 40
0.1748702246
 40
0.3006267009
 40
0.4475314586
 40
0.6038335355
 40
0.7559238172
 40
0.8909920389
 40
1.0
 40
1.0
 40
1.0
 40
1.0
 10
49.535115352
 20
60.7732682426
 30
0.0
 10
49.5336087729
 20
60.7346531363
 30
0.0
 10
49.5461327701
 20
60.652530757
 30
0.0
 10
49.6081770947
 20
60.5366763514
 30
0.0
 10
49.7089385063
 20
60.4280950598
 30
0.0
 10
49.9020261606
 20
60.287102696
 30
0.0
 10
50.222666502
 20
60.1490549289
 30
0.0
 10
50.6684379802
 20
60.0488449469
 30
0.0
 10
51.1523496928
 20
60.0161802659
 30
0.0
 10
51.6235453965
 20
60.0547626028
 30
0.0
 10
52.0324142681
 20
60.1594869885
 30
0.0
 10
52.2667016339
 20
60.2819557931
 30
0.0
 10
52.3550431616
 20
60.3566425768
 30
0.0
  0
SPLINE
  5
5A8
100
AcDbEntity
  8
3_AXES_OTHER
100
AcDbSpline
 62
7
  6
CONTINUOUS
 70
0
 71
3
 72
17
 73
13
 74
0
 42
0.0000001
 43
0.0000001
 44
0.0000000001
 40
0.0
 40
0.0
 40
0.0
 40
0.0
 40
0.036414947
 40
0.0763252453
 40
0.1221186408
 40
0.1748688608
 40
0.3006213291
 40
0.447527681
 40
0.603829916
 40
0.7559212246
 40
0.8909932501
 40
1.0
 40
1.0
 40
1.0
 40
1.0
 10
49.5289781619
 20
60.6158886248
 30
0.0
 10
49.5274671907
 20
60.5772732891
 30
0.0
 10
49.5399703812
 20
60.4951480866
 30
0.0
 10
49.6020113598
 20
60.3792889237
 30
0.0
 10
49.7027705721
 20
60.2707058664
 30
0.0
 10
49.8958575432
 20
60.1297163194
 30
0.0
 10
50.2164864687
 20
59.99164108
 30
0.0
 10
50.662266029
 20
59.8914489906
 30
0.0
 10
51.1461829762
 20
59.8587606556
 30
0.0
 10
51.6173890857
 20
59.8973527177
 30
0.0
 10
52.0262669892
 20
60.0020731894
 30
0.0
 10
52.2605592126
 20
60.1245452418
 30
0.0
 10
52.3489006766
 20
60.1992319716
 30
0.0
  0
SPLINE
  5
5A9
100
AcDbEntity
  8
3_ALL_AXES
100
AcDbSpline
 62
7
  6
CONTINUOUS
 70
0
 71
3
 72
12
 73
8
 74
0
 42
0.0000001
 43
0.0000001
 44
0.0000000001
 40
0.0
 40
0.0
 40
0.0
 40
0.0
 40
0.1692191625
 40
0.2962399378
 40
0.4446467315
 40
0.755284107
 40
1.0
 40
1.0
 40
1.0
 40
1.0
 10
60.4669564131
 20
59.9279001087
 30
0.0
 10
60.4676551339
 20
59.9449627763
 30
0.0
 10
60.4415967141
 20
59.9711450347
 30
0.0
 10
60.4012761754
 20
59.9875671028
 30
0.0
 10
60.3428041855
 20
60.0010934352
 30
0.0
 10
60.2718000448
 20
60.0006122154
 30
0.0
 10
60.2149539288
 20
59.9839187391
 30
0.0
 10
60.1960947726
 20
59.9679745987
 30
0.0
  0
SPLINE
  5
5AA
100
AcDbEntity
  8
3_ALL_AXES
100
AcDbSpline
 62
7
  6
CONTINUOUS
 70
0
 71
3
 72
12
 73
8
 74
0
 42
0.0000001
 43
0.0000001
 44
0.0000000001
 40
0.0
 40
0.0
 40
0.0
 40
0.0
 40
0.3065832779
 40
0.6129564285
 40
0.7448688685
 40
0.8539077513
 40
1.0
 40
1.0
 40
1.0
 40
1.0
 10
63.8966506491
 20
51.6916117266
 30
0.0
 10
63.8984373862
 20
51.7373996069
 30
0.0
 10
63.9143122083
 20
51.8285041604
 30
0.0
 10
63.953121927
 20
51.9334994744
 30
0.0
 10
63.9966930268
 20
52.0037751955
 30
0.0
 10
64.0331143223
 20
52.0469199143
 30
0.0
 10
64.0735777775
 20
52.0682902087
 30
0.0
 10
64.094653613
 20
52.0625813947
 30
0.0
  0
SPLINE
  5
5AB
100
AcDbEntity
  8
3_ALL_AXES
100
AcDbSpline
 62
7
  6
CONTINUOUS
 70
0
 71
3
 72
12
 73
8
 74
0
 42
0.0000001
 43
0.0000001
 44
0.0000000001
 40
0.0
 40
0.0
 40
0.0
 40
0.0
 40
0.3065717815
 40
0.6129159003
 40
0.7448277716
 40
0.8538620435
 40
1.0
 40
1.0
 40
1.0
 40
1.0
 10
64.1232966248
 20
51.6303371077
 30
0.0
 10
64.1250831534
 20
51.6761196447
 30
0.0
 10
64.1409558658
 20
51.7672113201
 30
0.0
 10
64.179751805
 20
51.8721925388
 30
0.0
 10
64.223312059
 20
51.9424660595
 30
0.0
 10
64.2597365633
 20
51.9855986868
 30
0.0
 10
64.3001821019
 20
52.0070264716
 30
0.0
 10
64.3212642004
 20
52.0013212683
 30
0.0
  0
SPLINE
  5
5AC
100
AcDbEntity
  8
3_AXES_OTHER
100
AcDbSpline
 62
7
  6
CONTINUOUS
 70
0
 71
3
 72
17
 73
13
 74
0
 42
0.0000001
 43
0.0000001
 44
0.0000000001
 40
0.0
 40
0.0
 40
0.0
 40
0.0
 40
0.0364149478
 40
0.0763264658
 40
0.1221197612
 40
0.1748702246
 40
0.3006267009
 40
0.4475314586
 40
0.6038335355
 40
0.7559238172
 40
0.8909920389
 40
1.0
 40
1.0
 40
1.0
 40
1.0
 10
59.8213557844
 20
57.9923432289
 30
0.0
 10
59.8198492053
 20
57.9537281226
 30
0.0
 10
59.8323732025
 20
57.8716057433
 30
0.0
 10
59.8944175271
 20
57.7557513377
 30
0.0
 10
59.9951789387
 20
57.6471700461
 30
0.0
 10
60.1882665929
 20
57.5061776824
 30
0.0
 10
60.5089069344
 20
57.3681299152
 30
0.0
 10
60.9546784126
 20
57.2679199332
 30
0.0
 10
61.4385901252
 20
57.2352552522
 30
0.0
 10
61.9097858289
 20
57.2738375891
 30
0.0
 10
62.3186547005
 20
57.3785619748
 30
0.0
 10
62.5529420663
 20
57.5010307794
 30
0.0
 10
62.641283594
 20
57.5757175631
 30
0.0
  0
SPLINE
  5
5AD
100
AcDbEntity
  8
3_ALL_AXES
100
AcDbSpline
 62
7
  6
CONTINUOUS
 70
0
 71
3
 72
11
 73
7
 74
0
 42
0.0000001
 43
0.0000001
 44
0.0000000001
 40
0.0
 40
0.0
 40
0.0
 40
0.0
 40
0.2156012531
 40
0.4967535415
 40
0.7797464562
 40
1.0
 40
1.0
 40
1.0
 40
1.0
 10
60.452691178
 20
59.9036240559
 30
0.0
 10
60.4392575986
 20
59.9179562109
 30
0.0
 10
60.3964045687
 20
59.9382906069
 30
0.0
 10
60.3260207073
 20
59.9496560638
 30
0.0
 10
60.2544087285
 20
59.9446816798
 30
0.0
 10
60.2093719768
 20
59.9284603931
 30
0.0
 10
60.1940472776
 20
59.915504397
 30
0.0
  0
SPLINE
  5
5AE
100
AcDbEntity
  8
3_AXES_OTHER
100
AcDbSpline
 62
7
  6
CONTINUOUS
 70
0
 71
3
 72
17
 73
13
 74
0
 42
0.0000001
 43
0.0000001
 44
0.0000000001
 40
0.0
 40
0.0
 40
0.0
 40
0.0
 40
0.036414947
 40
0.0763252453
 40
0.1221186408
 40
0.1748688608
 40
0.3006213291
 40
0.447527681
 40
0.603829916
 40
0.7559212246
 40
0.8909932501
 40
1.0
 40
1.0
 40
1.0
 40
1.0
 10
59.8152185943
 20
57.8349636111
 30
0.0
 10
59.8137076231
 20
57.7963482754
 30
0.0
 10
59.8262108136
 20
57.7142230729
 30
0.0
 10
59.8882517922
 20
57.59836391
 30
0.0
 10
59.9890110045
 20
57.4897808527
 30
0.0
 10
60.1820979756
 20
57.3487913057
 30
0.0
 10
60.5027269011
 20
57.2107160663
 30
0.0
 10
60.9485064614
 20
57.1105239769
 30
0.0
 10
61.4324234086
 20
57.0778356419
 30
0.0
 10
61.9036295181
 20
57.116427704
 30
0.0
 10
62.3125074216
 20
57.2211481757
 30
0.0
 10
62.546799645
 20
57.3436202281
 30
0.0
 10
62.635141109
 20
57.4183069579
 30
0.0
  0
SPLINE
  5
5AF
100
AcDbEntity
  8
3_ALL_AXES
100
AcDbSpline
 62
7
  6
CONTINUOUS
 70
0
 71
3
 72
11
 73
7
 74
0
 42
0.0000001
 43
0.0000001
 44
0.0000000001
 40
0.0
 40
0.0
 40
0.0
 40
0.0
 40
0.2163193152
 40
0.4497972768
 40
0.7105297248
 40
1.0
 40
1.0
 40
1.0
 40
1.0
 10
58.0542399889
 20
51.0878359523
 30
0.0
 10
57.9239926679
 20
50.9142135756
 30
0.0
 10
57.5759023548
 20
50.6063482938
 30
0.0
 10
56.8954881317
 20
50.354700333
 30
0.0
 10
56.1019960473
 20
50.3057929948
 30
0.0
 10
55.5533655161
 20
50.4008663513
 30
0.0
 10
55.2729882922
 20
50.4766674217
 30
0.0
  0
SPLINE
  5
5B0
100
AcDbEntity
  8
3_ALL_AXES
100
AcDbSpline
 62
7
  6
CONTINUOUS
 70
0
 71
3
 72
12
 73
8
 74
0
 42
0.0000001
 43
0.0000001
 44
0.0000000001
 40
0.0
 40
0.0
 40
0.0
 40
0.0
 40
0.1692191625
 40
0.2962399378
 40
0.4446467315
 40
0.755284107
 40
1.0
 40
1.0
 40
1.0
 40
1.0
 10
58.695630942
 20
60.4067848229
 30
0.0
 10
58.6963296628
 20
60.4238474906
 30
0.0
 10
58.6702712431
 20
60.4500297489
 30
0.0
 10
58.6299507044
 20
60.466451817
 30
0.0
 10
58.5714787145
 20
60.4799781494
 30
0.0
 10
58.5004745738
 20
60.4794969297
 30
0.0
 10
58.4436284578
 20
60.4628034533
 30
0.0
 10
58.4247693016
 20
60.4468593129
 30
0.0
  0
SPLINE
  5
5B1
100
AcDbEntity
  8
3_AXES_OTHER
100
AcDbSpline
 62
7
  6
CONTINUOUS
 70
0
 71
3
 72
9
 73
5
 74
0
 42
0.0000001
 43
0.0000001
 44
0.0000000001
 40
0.0
 40
0.0
 40
0.0
 40
0.0
 40
0.4608303975
 40
1.0
 40
1.0
 40
1.0
 40
1.0
 10
60.3327672607
 20
57.9721874099
 30
0.0
 10
60.3341370516
 20
58.0077938397
 30
0.0
 10
60.3588874064
 20
58.084751209
 30
0.0
 10
60.4127240197
 20
58.1426939596
 30
0.0
 10
60.444561061
 20
58.1696100236
 30
0.0
  0
SPLINE
  5
5B2
100
AcDbEntity
  8
3_AXES_OTHER
100
AcDbSpline
 62
7
  6
CONTINUOUS
 70
0
 71
3
 72
9
 73
5
 74
0
 42
0.0000001
 43
0.0000001
 44
0.0000000001
 40
0.0
 40
0.0
 40
0.0
 40
0.0
 40
0.4608303975
 40
1.0
 40
1.0
 40
1.0
 40
1.0
 10
50.0465268283
 20
60.7531124236
 30
0.0
 10
50.0478966193
 20
60.7887188534
 30
0.0
 10
50.072646974
 20
60.8656762227
 30
0.0
 10
50.1264835873
 20
60.9236189733
 30
0.0
 10
50.1583206286
 20
60.9505350373
 30
0.0
  0
SPLINE
  5
5B3
100
AcDbEntity
  8
3_AXES_OTHER
100
AcDbSpline
 62
7
  6
CONTINUOUS
 70
0
 71
3
 72
10
 73
6
 74
0
 42
0.0000001
 43
0.0000001
 44
0.0000000001
 40
0.0
 40
0.0
 40
0.0
 40
0.0
 40
0.7012441845
 40
0.8945990592
 40
1.0
 40
1.0
 40
1.0
 40
1.0
 10
63.2956649359
 20
58.7849939679
 30
0.0
 10
63.3275249003
 20
58.7833648956
 30
0.0
 10
63.3691401766
 20
58.7826297844
 30
0.0
 10
63.4131037874
 20
58.7890675728
 30
0.0
 10
63.4263040431
 20
58.7977394231
 30
0.0
 10
63.427386817
 20
58.8024105586
 30
0.0
  0
SPLINE
  5
5B4
100
AcDbEntity
  8
3_ALL_AXES
100
AcDbSpline
 62
7
  6
CONTINUOUS
 70
0
 71
3
 72
9
 73
5
 74
0
 42
0.0000001
 43
0.0000001
 44
0.0000000001
 40
0.0
 40
0.0
 40
0.0
 40
0.0
 40
0.2845126379
 40
1.0
 40
1.0
 40
1.0
 40
1.0
 10
58.3553143698
 20
60.3881398681
 30
0.0
 10
58.3528842103
 20
60.3860853327
 30
0.0
 10
58.3448527322
 20
60.3783841011
 30
0.0
 10
58.3393210324
 20
60.3673942422
 30
0.0
 10
58.3389935943
 20
60.3593982477
 30
0.0
  0
SPLINE
  5
5B5
100
AcDbEntity
  8
3_AXES_OTHER
100
AcDbSpline
 62
7
  6
CONTINUOUS
 70
0
 71
3
 72
10
 73
6
 74
0
 42
0.0000001
 43
0.0000001
 44
0.0000000001
 40
0.0
 40
0.0
 40
0.0
 40
0.0
 40
0.7012441845
 40
0.8945990592
 40
1.0
 40
1.0
 40
1.0
 40
1.0
 10
55.6245703762
 20
60.8589041476
 30
0.0
 10
55.6564303405
 20
60.8572750753
 30
0.0
 10
55.6980456169
 20
60.8565399641
 30
0.0
 10
55.7420092276
 20
60.8629777525
 30
0.0
 10
55.7552094833
 20
60.8716496028
 30
0.0
 10
55.7562922573
 20
60.8763207383
 30
0.0
  0
SPLINE
  5
5B6
100
AcDbEntity
  8
3_ALL_AXES
100
AcDbSpline
 62
7
  6
CONTINUOUS
 70
0
 71
3
 72
9
 73
5
 74
0
 42
0.0000001
 43
0.0000001
 44
0.0000000001
 40
0.0
 40
0.0
 40
0.0
 40
0.0
 40
0.2845126379
 40
1.0
 40
1.0
 40
1.0
 40
1.0
 10
60.1266398409
 20
59.9092551539
 30
0.0
 10
60.1242096814
 20
59.9072006185
 30
0.0
 10
60.1161782033
 20
59.8994993869
 30
0.0
 10
60.1106465035
 20
59.888509528
 30
0.0
 10
60.1103190654
 20
59.8805135334
 30
0.0
  0
SPLINE
  5
5B7
100
AcDbEntity
  8
3_ALL_AXES
100
AcDbSpline
 62
7
  6
CONTINUOUS
 70
0
 71
3
 72
14
 73
10
 74
0
 42
0.0000001
 43
0.0000001
 44
0.0000000001
 40
0.0
 40
0.0
 40
0.0
 40
0.0
 40
0.0947941182
 40
0.19831474
 40
0.3143202962
 40
0.4427160321
 40
0.5805617611
 40
0.7231856567
 40
1.0
 40
1.0
 40
1.0
 40
1.0
 10
51.8221432971
 20
55.7643575925
 30
0.0
 10
51.7004911186
 20
55.577401792
 30
0.0
 10
51.5270093316
 20
55.1293375203
 30
0.0
 10
51.5226124701
 20
54.377572436
 30
0.0
 10
51.7491800396
 20
53.5818023327
 30
0.0
 10
52.1860909436
 20
52.7885873625
 30
0.0
 10
52.804536086
 20
52.0442107655
 30
0.0
 10
53.8040634653
 20
51.1907141563
 30
0.0
 10
54.710675195
 20
50.7352373991
 30
0.0
 10
55.339446834
 20
50.5652465467
 30
0.0
  0
SPLINE
  5
5B8
100
AcDbEntity
  8
3_AXES_OTHER
100
AcDbSpline
 62
7
  6
CONTINUOUS
 70
0
 71
3
 72
18
 73
14
 74
0
 42
0.0000001
 43
0.0000001
 44
0.0000000001
 40
0.0
 40
0.0
 40
0.0
 40
0.0
 40
0.0091152338
 40
0.0285664756
 40
0.0593090858
 40
0.1009772079
 40
0.1528129309
 40
0.2138113923
 40
0.3582071945
 40
0.522520649
 40
0.6934128698
 40
0.8569978002
 40
1.0
 40
1.0
 40
1.0
 40
1.0
 10
52.8428340108
 20
61.5579292553
 30
0.0
 10
52.841116416
 20
61.5505194738
 30
0.0
 10
52.8614804434
 20
61.5292593058
 30
0.0
 10
52.9018518741
 20
61.5073029068
 30
0.0
 10
52.9731145009
 20
61.4742236813
 30
0.0
 10
53.0693911698
 20
61.4377403523
 30
0.0
 10
53.1915324737
 20
61.3955713861
 30
0.0
 10
53.3961294628
 20
61.3310015193
 30
0.0
 10
53.6929910135
 20
61.2465779714
 30
0.0
 10
54.080613094
 20
61.1469949605
 30
0.0
 10
54.485984067
 20
61.052394169
 30
0.0
 10
54.875944205
 20
60.9705261169
 30
0.0
 10
55.1276458708
 20
60.9244301561
 30
0.0
 10
55.2454449966
 20
60.9053846241
 30
0.0
  0
SPLINE
  5
5B9
100
AcDbEntity
  8
3_AXES_OTHER
100
AcDbSpline
 62
7
  6
CONTINUOUS
 70
0
 71
3
 72
9
 73
5
 74
0
 42
0.0000001
 43
0.0000001
 44
0.0000000001
 40
0.0
 40
0.0
 40
0.0
 40
0.0
 40
0.3039056838
 40
1.0
 40
1.0
 40
1.0
 40
1.0
 10
55.2454449966
 20
60.9053846241
 30
0.0
 10
55.2836503137
 20
60.8992076632
 30
0.0
 10
55.4094961829
 20
60.8799848498
 30
0.0
 10
55.5360406043
 20
60.8634308759
 30
0.0
 10
55.6245703762
 20
60.8589041476
 30
0.0
  0
SPLINE
  5
5BA
100
AcDbEntity
  8
3_AXES_OTHER
100
AcDbSpline
 62
7
  6
CONTINUOUS
 70
0
 71
3
 72
18
 73
14
 74
0
 42
0.0000001
 43
0.0000001
 44
0.0000000001
 40
0.0
 40
0.0
 40
0.0
 40
0.0
 40
0.0091137012
 40
0.0285847221
 40
0.0593572799
 40
0.1010740435
 40
0.1529712936
 40
0.2140304199
 40
0.3585564708
 40
0.5229543784
 40
0.6938420889
 40
0.8572909751
 40
1.0
 40
1.0
 40
1.0
 40
1.0
 10
52.8026019021
 20
61.3859705275
 30
0.0
 10
52.8008747241
 20
61.3785524777
 30
0.0
 10
52.8212854951
 20
61.3572366405
 30
0.0
 10
52.8617642308
 20
61.3352639918
 30
0.0
 10
52.9332147323
 20
61.3021035251
 30
0.0
 10
53.0297552009
 20
61.2655498368
 30
0.0
 10
53.152224385
 20
61.2232932044
 30
0.0
 10
53.3573414545
 20
61.1585927
 30
0.0
 10
53.6548873114
 20
61.0740272464
 30
0.0
 10
54.0432802289
 20
60.9743064883
 30
0.0
 10
54.4492350076
 20
60.879642864
 30
0.0
 10
54.839448385
 20
60.7978120997
 30
0.0
 10
55.0911930536
 20
60.7517910715
 30
0.0
 10
55.2089372763
 20
60.7328104454
 30
0.0
  0
SPLINE
  5
5BB
100
AcDbEntity
  8
3_AXES_OTHER
100
AcDbSpline
 62
7
  6
CONTINUOUS
 70
0
 71
3
 72
18
 73
14
 74
0
 42
0.0000001
 43
0.0000001
 44
0.0000000001
 40
0.0
 40
0.0
 40
0.0
 40
0.0
 40
0.0974196649
 40
0.2380932265
 40
0.4060835844
 40
0.5821461056
 40
0.7460906624
 40
0.817543815
 40
0.8791737105
 40
0.9292350869
 40
0.9663777111
 40
0.9897578092
 40
1.0
 40
1.0
 40
1.0
 40
1.0
 10
61.0989424029
 20
59.3788864284
 30
0.0
 10
61.1604970483
 20
59.3757389996
 30
0.0
 10
61.3101097175
 20
59.3558799117
 30
0.0
 10
61.5631042311
 20
59.3115460861
 30
0.0
 10
61.8633385415
 20
59.2485520078
 30
0.0
 10
62.1760906563
 20
59.1745637196
 30
0.0
 10
62.4278641824
 20
59.1078783079
 30
0.0
 10
62.6080371192
 20
59.0549506533
 30
0.0
 10
62.7187354876
 20
59.0195172161
 30
0.0
 10
62.8067146304
 20
58.9886845289
 30
0.0
 10
62.8734169897
 20
58.960697739
 30
0.0
 10
62.9095309986
 20
58.942644064
 30
0.0
 10
62.9304976348
 20
58.9253075866
 30
0.0
 10
62.9290295664
 20
58.9189960898
 30
0.0
  0
SPLINE
  5
5BC
100
AcDbEntity
  8
3_AXES_OTHER
100
AcDbSpline
 62
7
  6
CONTINUOUS
 70
0
 71
3
 72
18
 73
14
 74
0
 42
0.0000001
 43
0.0000001
 44
0.0000000001
 40
0.0
 40
0.0
 40
0.0
 40
0.0
 40
0.0974196649
 40
0.2380932265
 40
0.4060835844
 40
0.5821461056
 40
0.7460906624
 40
0.817543815
 40
0.8791737105
 40
0.9292350869
 40
0.9663777111
 40
0.9897578092
 40
1.0
 40
1.0
 40
1.0
 40
1.0
 10
53.4278478432
 20
61.4527966081
 30
0.0
 10
53.4894024886
 20
61.4496491793
 30
0.0
 10
53.6390151578
 20
61.4297900914
 30
0.0
 10
53.8920096714
 20
61.3854562658
 30
0.0
 10
54.1922439817
 20
61.3224621875
 30
0.0
 10
54.5049960965
 20
61.2484738993
 30
0.0
 10
54.7567696226
 20
61.1817884876
 30
0.0
 10
54.9369425594
 20
61.128860833
 30
0.0
 10
55.0476409279
 20
61.0934273958
 30
0.0
 10
55.1356200706
 20
61.0625947086
 30
0.0
 10
55.20232243
 20
61.0346079187
 30
0.0
 10
55.2384364389
 20
61.0165542437
 30
0.0
 10
55.259403075
 20
60.9992177663
 30
0.0
 10
55.2579350067
 20
60.9929062695
 30
0.0
  0
SPLINE
  5
5BD
100
AcDbEntity
  8
3_AXES_OTHER
100
AcDbSpline
 62
7
  6
CONTINUOUS
 70
0
 71
3
 72
18
 73
14
 74
0
 42
0.0000001
 43
0.0000001
 44
0.0000000001
 40
0.0
 40
0.0
 40
0.0
 40
0.0
 40
0.0102487027
 40
0.0336358554
 40
0.0707783697
 40
0.1208473615
 40
0.1824806321
 40
0.253932632
 40
0.4178761154
 40
0.5939339957
 40
0.7619187419
 40
0.9025876602
 40
1.0
 40
1.0
 40
1.0
 40
1.0
 10
60.5139285706
 20
59.4840190756
 30
0.0
 10
60.5117029906
 20
59.4744178232
 30
0.0
 10
60.5435946036
 20
59.4480749067
 30
0.0
 10
60.5984969506
 20
59.4206223937
 30
0.0
 10
60.6998980715
 20
59.3780807425
 30
0.0
 10
60.8336375395
 20
59.3312154304
 30
0.0
 10
61.0019084776
 20
59.2773564815
 30
0.0
 10
61.2757718041
 20
59.1969056923
 30
0.0
 10
61.6584612019
 20
59.0955482497
 30
0.0
 10
62.1338340164
 20
58.9830935175
 30
0.0
 10
62.5901742644
 20
58.8873402188
 30
0.0
 10
62.9747097753
 20
58.8199623981
 30
0.0
 10
63.2021090751
 20
58.7897776915
 30
0.0
 10
63.2956649359
 20
58.7849939679
 30
0.0
  0
SPLINE
  5
5BE
100
AcDbEntity
  8
3_AXES_OTHER
100
AcDbSpline
 62
7
  6
CONTINUOUS
 70
0
 71
3
 72
18
 73
14
 74
0
 42
0.0000001
 43
0.0000001
 44
0.0000000001
 40
0.0
 40
0.0
 40
0.0
 40
0.0
 40
0.0102401467
 40
0.0336217514
 40
0.0707598219
 40
0.1208226474
 40
0.1824507831
 40
0.2539025898
 40
0.4178494329
 40
0.5939136681
 40
0.7619056373
 40
0.9025850692
 40
1.0
 40
1.0
 40
1.0
 40
1.0
 10
60.4736964619
 20
59.3120603478
 30
0.0
 10
60.4714633243
 20
59.3024692549
 30
0.0
 10
60.5033177574
 20
59.2761046265
 30
0.0
 10
60.5582201843
 20
59.2486799935
 30
0.0
 10
60.6595977753
 20
59.2061290449
 30
0.0
 10
60.7933257488
 20
59.1592700851
 30
0.0
 10
60.9615845521
 20
59.1054089353
 30
0.0
 10
61.2354472483
 20
59.0249573593
 30
0.0
 10
61.6181467881
 20
58.9235965029
 30
0.0
 10
62.0935364629
 20
58.8111328607
 30
0.0
 10
62.5499015751
 20
58.715375483
 30
0.0
 10
62.934457611
 20
58.6479919583
 30
0.0
 10
63.1618703967
 20
58.6178052525
 30
0.0
 10
63.2554291478
 20
58.6130213811
 30
0.0
  0
SPLINE
  5
5BF
100
AcDbEntity
  8
3_ALL_AXES
100
AcDbSpline
 62
7
  6
CONTINUOUS
 70
0
 71
3
 72
11
 73
7
 74
0
 42
0.0000001
 43
0.0000001
 44
0.0000000001
 40
0.0
 40
0.0
 40
0.0
 40
0.0
 40
0.2156012531
 40
0.4967535415
 40
0.7797464562
 40
1.0
 40
1.0
 40
1.0
 40
1.0
 10
58.6813657069
 20
60.3825087701
 30
0.0
 10
58.6679321275
 20
60.3968409251
 30
0.0
 10
58.6250790976
 20
60.4171753211
 30
0.0
 10
58.5546952362
 20
60.428540778
 30
0.0
 10
58.4830832574
 20
60.423566394
 30
0.0
 10
58.4380465057
 20
60.4073451073
 30
0.0
 10
58.4227218066
 20
60.3943891112
 30
0.0
  0
SPLINE
  5
5C0
100
AcDbEntity
  8
3_AXES_OTHER
100
AcDbSpline
 62
7
  6
CONTINUOUS
 70
0
 71
3
 72
10
 73
6
 74
0
 42
0.0000001
 43
0.0000001
 44
0.0000000001
 40
0.0
 40
0.0
 40
0.0
 40
0.0
 40
0.1054203464
 40
0.2990557678
 40
1.0
 40
1.0
 40
1.0
 40
1.0
 10
53.3411912614
 20
61.4413437241
 30
0.0
 10
53.3419060325
 20
61.444416657
 30
0.0
 10
53.350597253
 20
61.4501257015
 30
0.0
 10
53.3795266008
 20
61.4543332767
 30
0.0
 10
53.4068977092
 20
61.4538678361
 30
0.0
 10
53.4278478432
 20
61.4527966081
 30
0.0
  0
SPLINE
  5
5C1
100
AcDbEntity
  8
3_AXES_OTHER
100
AcDbSpline
 62
7
  6
CONTINUOUS
 70
0
 71
3
 72
10
 73
6
 74
0
 42
0.0000001
 43
0.0000001
 44
0.0000000001
 40
0.0
 40
0.0
 40
0.0
 40
0.0
 40
0.1054203464
 40
0.2990557678
 40
1.0
 40
1.0
 40
1.0
 40
1.0
 10
61.0122858211
 20
59.3674335444
 30
0.0
 10
61.0130005922
 20
59.3705064773
 30
0.0
 10
61.0216918127
 20
59.3762155218
 30
0.0
 10
61.0506211606
 20
59.380423097
 30
0.0
 10
61.077992269
 20
59.3799576564
 30
0.0
 10
61.0989424029
 20
59.3788864284
 30
0.0
  0
SPLINE
  5
5C2
100
AcDbEntity
  8
3_AXES_OTHER
100
AcDbSpline
 62
7
  6
CONTINUOUS
 70
0
 71
3
 72
9
 73
5
 74
0
 42
0.0000001
 43
0.0000001
 44
0.0000000001
 40
0.0
 40
0.0
 40
0.0
 40
0.0
 40
0.5392621955
 40
1.0
 40
1.0
 40
1.0
 40
1.0
 10
62.635141109
 20
57.4183069579
 30
0.0
 10
62.6835024786
 20
57.4591932232
 30
0.0
 10
62.7652841226
 20
57.5471721702
 30
0.0
 10
62.8029336163
 20
57.6640263571
 30
0.0
 10
62.8050491394
 20
57.7180920031
 30
0.0
  0
SPLINE
  5
5C3
100
AcDbEntity
  8
3_AXES_OTHER
100
AcDbSpline
 62
7
  6
CONTINUOUS
 70
0
 71
3
 72
9
 73
5
 74
0
 42
0.0000001
 43
0.0000001
 44
0.0000000001
 40
0.0
 40
0.0
 40
0.0
 40
0.0
 40
0.5392492224
 40
1.0
 40
1.0
 40
1.0
 40
1.0
 10
62.641283594
 20
57.5757175631
 30
0.0
 10
62.6896480553
 20
57.6166064423
 30
0.0
 10
62.7714329284
 20
57.7045953825
 30
0.0
 10
62.8090872789
 20
57.8214614307
 30
0.0
 10
62.8111969194
 20
57.8755335957
 30
0.0
  0
SPLINE
  5
5C4
100
AcDbEntity
  8
3_ALL_AXES
100
AcDbSpline
 62
7
  6
CONTINUOUS
 70
0
 71
3
 72
9
 73
5
 74
0
 42
0.0000001
 43
0.0000001
 44
0.0000000001
 40
0.0
 40
0.0
 40
0.0
 40
0.0
 40
0.2471196656
 40
1.0
 40
1.0
 40
1.0
 40
1.0
 10
58.9989033611
 20
50.3788919495
 30
0.0
 10
59.0417505537
 20
50.4360020447
 30
0.0
 10
59.2036512136
 20
50.6756196694
 30
0.0
 10
59.3159935964
 20
50.9477946763
 30
0.0
 10
59.3710000944
 20
51.1582425396
 30
0.0
  0
SPLINE
  5
5C5
100
AcDbEntity
  8
3_ALL_AXES
100
AcDbSpline
 62
7
  6
CONTINUOUS
 70
0
 71
3
 72
9
 73
5
 74
0
 42
0.0000001
 43
0.0000001
 44
0.0000000001
 40
0.0
 40
0.0
 40
0.0
 40
0.0
 40
0.4819552384
 40
1.0
 40
1.0
 40
1.0
 40
1.0
 10
59.1096387859
 20
53.3879299941
 30
0.0
 10
58.8479186164
 20
53.9962039996
 30
0.0
 10
58.0617224785
 20
55.1559923464
 30
0.0
 10
56.9938169016
 20
56.0484638163
 30
0.0
 10
56.3914142235
 20
56.4275874624
 30
0.0
  0
SPLINE
  5
5C6
100
AcDbEntity
  8
3_AXES_OTHER
100
AcDbSpline
 62
7
  6
CONTINUOUS
 70
0
 71
3
 72
9
 73
5
 74
0
 42
0.0000001
 43
0.0000001
 44
0.0000000001
 40
0.0
 40
0.0
 40
0.0
 40
0.0
 40
0.5392492224
 40
1.0
 40
1.0
 40
1.0
 40
1.0
 10
52.3550431616
 20
60.3566425768
 30
0.0
 10
52.4034076229
 20
60.397531456
 30
0.0
 10
52.485192496
 20
60.4855203962
 30
0.0
 10
52.5228468465
 20
60.6023864443
 30
0.0
 10
52.524956487
 20
60.6564586093
 30
0.0
  0
SPLINE
  5
5C7
100
AcDbEntity
  8
3_AXES_OTHER
100
AcDbSpline
 62
7
  6
CONTINUOUS
 70
0
 71
3
 72
16
 73
12
 74
0
 42
0.0000001
 43
0.0000001
 44
0.0000000001
 40
0.0
 40
0.0
 40
0.0
 40
0.0
 40
0.1091156106
 40
0.2443077219
 40
0.396542893
 40
0.5529978079
 40
0.7000552139
 40
0.8259525212
 40
0.8787673476
 40
0.9246207518
 40
1.0
 40
1.0
 40
1.0
 40
1.0
 10
60.444561061
 20
58.1696100236
 30
0.0
 10
60.5026731144
 20
58.2187398324
 30
0.0
 10
60.6567795223
 20
58.2993068053
 30
0.0
 10
60.9257301986
 20
58.3681852061
 30
0.0
 10
61.2356720637
 20
58.3935966435
 30
0.0
 10
61.5539969094
 20
58.3721518975
 30
0.0
 10
61.8472518091
 20
58.3061593156
 30
0.0
 10
62.0582084538
 20
58.2156338087
 30
0.0
 10
62.1852711747
 20
58.1224669503
 30
0.0
 10
62.2685726691
 20
58.034129326
 30
0.0
 10
62.3018063067
 20
57.9482198678
 30
0.0
 10
62.2997854431
 20
57.8956894147
 30
0.0
  0
SPLINE
  5
5C8
100
AcDbEntity
  8
3_AXES_OTHER
100
AcDbSpline
 62
7
  6
CONTINUOUS
 70
0
 71
3
 72
9
 73
5
 74
0
 42
0.0000001
 43
0.0000001
 44
0.0000000001
 40
0.0
 40
0.0
 40
0.0
 40
0.0
 40
0.5392621955
 40
1.0
 40
1.0
 40
1.0
 40
1.0
 10
52.3489006766
 20
60.1992319716
 30
0.0
 10
52.3972620462
 20
60.2401182369
 30
0.0
 10
52.4790436902
 20
60.3280971839
 30
0.0
 10
52.5166931839
 20
60.4449513708
 30
0.0
 10
52.518808707
 20
60.4990170168
 30
0.0
  0
SPLINE
  5
5C9
100
AcDbEntity
  8
3_ALL_AXES
100
AcDbSpline
 62
7
  6
CONTINUOUS
 70
0
 71
3
 72
10
 73
6
 74
0
 42
0.0000001
 43
0.0000001
 44
0.0000000001
 40
0.0
 40
0.0
 40
0.0
 40
0.0
 40
0.3773640026
 40
0.6592766056
 40
1.0
 40
1.0
 40
1.0
 40
1.0
 10
63.9518573971
 20
51.5347137353
 30
0.0
 10
63.9307275445
 20
51.5404371808
 30
0.0
 10
63.906564137
 20
51.5795001918
 30
0.0
 10
63.8969431892
 20
51.6352226194
 30
0.0
 10
63.8958799364
 20
51.6718610308
 30
0.0
 10
63.8966506491
 20
51.6916117266
 30
0.0
  0
SPLINE
  5
5CA
100
AcDbEntity
  8
3_ALL_AXES
100
AcDbSpline
 62
7
  6
CONTINUOUS
 70
0
 71
3
 72
10
 73
6
 74
0
 42
0.0000001
 43
0.0000001
 44
0.0000000001
 40
0.0
 40
0.0
 40
0.0
 40
0.0
 40
0.3773046803
 40
0.6593608773
 40
1.0
 40
1.0
 40
1.0
 40
1.0
 10
64.178538761
 20
51.4734246238
 30
0.0
 10
64.1574066263
 20
51.4791433678
 30
0.0
 10
64.1332081778
 20
51.5182000328
 30
0.0
 10
64.1235993974
 20
51.5739399144
 30
0.0
 10
64.1225259473
 20
51.6105873135
 30
0.0
 10
64.1232966248
 20
51.6303371077
 30
0.0
  0
SPLINE
  5
5CB
100
AcDbEntity
  8
3_AXES_OTHER
100
AcDbSpline
 62
7
  6
CONTINUOUS
 70
0
 71
3
 72
16
 73
12
 74
0
 42
0.0000001
 43
0.0000001
 44
0.0000000001
 40
0.0
 40
0.0
 40
0.0
 40
0.0
 40
0.1091156106
 40
0.2443077219
 40
0.396542893
 40
0.5529978079
 40
0.7000552139
 40
0.8259525212
 40
0.8787673476
 40
0.9246207518
 40
1.0
 40
1.0
 40
1.0
 40
1.0
 10
50.1583206286
 20
60.9505350373
 30
0.0
 10
50.216432682
 20
60.9996648461
 30
0.0
 10
50.3705390899
 20
61.080231819
 30
0.0
 10
50.6394897662
 20
61.1491102198
 30
0.0
 10
50.9494316313
 20
61.1745216572
 30
0.0
 10
51.2677564771
 20
61.1530769112
 30
0.0
 10
51.5610113767
 20
61.0870843293
 30
0.0
 10
51.7719680214
 20
60.9965588223
 30
0.0
 10
51.8990307423
 20
60.903391964
 30
0.0
 10
51.9823322367
 20
60.8150543397
 30
0.0
 10
52.0155658743
 20
60.7291448815
 30
0.0
 10
52.0135450107
 20
60.6766144284
 30
0.0
  0
SPLINE
  5
5CC
100
AcDbEntity
  8
3_ALL_AXES
100
AcDbSpline
 62
7
  6
CONTINUOUS
 70
0
 71
3
 72
9
 73
5
 74
0
 42
0.0000001
 43
0.0000001
 44
0.0000000001
 40
0.0
 40
0.0
 40
0.0
 40
0.0
 40
0.4839746572
 40
1.0
 40
1.0
 40
1.0
 40
1.0
 10
59.0840974185
 20
53.678227891
 30
0.0
 10
58.8350985331
 20
54.1949308135
 30
0.0
 10
58.1507075494
 20
55.1830740719
 30
0.0
 10
57.2525351234
 20
55.9740424305
 30
0.0
 10
56.7501927184
 20
56.3228263662
 30
0.0
  0
SPLINE
  5
5CD
100
AcDbEntity
  8
3_ALL_AXES
100
AcDbSpline
 62
7
  6
CONTINUOUS
 70
0
 71
3
 72
9
 73
5
 74
0
 42
0.0000001
 43
0.0000001
 44
0.0000000001
 40
0.0
 40
0.0
 40
0.0
 40
0.0
 40
0.5200983357
 40
1.0
 40
1.0
 40
1.0
 40
1.0
 10
52.4833750252
 20
57.4763770857
 30
0.0
 10
52.1733908928
 20
57.4141888873
 30
0.0
 10
51.587560942
 20
57.2087514619
 30
0.0
 10
51.1155687137
 20
56.7967595086
 30
0.0
 10
50.9404858227
 20
56.5634146695
 30
0.0
  0
SPLINE
  5
5CE
100
AcDbEntity
  8
3_ALL_AXES
100
AcDbSpline
 62
7
  6
CONTINUOUS
 70
0
 71
3
 72
11
 73
7
 74
0
 42
0.0000001
 43
0.0000001
 44
0.0000000001
 40
0.0
 40
0.0
 40
0.0
 40
0.0
 40
0.2881431936
 40
0.549026902
 40
0.7835294337
 40
1.0
 40
1.0
 40
1.0
 40
1.0
 10
55.339446834
 20
50.5652465467
 30
0.0
 10
55.6085258869
 20
50.4924999807
 30
0.0
 10
56.1356154393
 20
50.3992030858
 30
0.0
 10
56.9002363282
 20
50.4347250805
 30
0.0
 10
57.5636086851
 20
50.6554264629
 30
0.0
 10
57.9155739738
 20
50.9322254848
 30
0.0
 10
58.0520885848
 20
51.0910163805
 30
0.0
  0
SPLINE
  5
5CF
100
AcDbEntity
  8
3_ALL_AXES
100
AcDbSpline
 62
7
  6
CONTINUOUS
 70
0
 71
3
 72
16
 73
12
 74
0
 42
0.0000001
 43
0.0000001
 44
0.0000000001
 40
0.0
 40
0.0
 40
0.0
 40
0.0
 40
0.1443858096
 40
0.2940028524
 40
0.4359362651
 40
0.5601773446
 40
0.6651358328
 40
0.7141142292
 40
0.7635878901
 40
0.871829908
 40
1.0
 40
1.0
 40
1.0
 40
1.0
 10
55.7212917238
 20
55.7431476619
 30
0.0
 10
55.8977093661
 20
55.6954524678
 30
0.0
 10
56.2428129334
 20
55.5421093599
 30
0.0
 10
56.6802643849
 20
55.1972907551
 30
0.0
 10
57.0023085416
 20
54.7728752865
 30
0.0
 10
57.1664809978
 20
54.322698142
 30
0.0
 10
57.1334342486
 20
53.9541719474
 30
0.0
 10
56.9966024688
 20
53.7312670317
 30
0.0
 10
56.795914867
 20
53.5573511145
 30
0.0
 10
56.4319749389
 20
53.4550896336
 30
0.0
 10
56.1294734704
 20
53.4956597305
 30
0.0
 10
55.9728689848
 20
53.5379983609
 30
0.0
  0
SPLINE
  5
5D0
100
AcDbEntity
  8
3_ALL_AXES
100
AcDbSpline
 62
7
  6
CONTINUOUS
 70
0
 71
3
 72
16
 73
12
 74
0
 42
0.0000001
 43
0.0000001
 44
0.0000000001
 40
0.0
 40
0.0
 40
0.0
 40
0.0
 40
0.128170092
 40
0.2364121099
 40
0.2858857708
 40
0.3348641672
 40
0.4398226554
 40
0.5640637349
 40
0.7059971476
 40
0.8556141904
 40
1.0
 40
1.0
 40
1.0
 40
1.0
 10
55.7212917238
 20
55.7431476619
 30
0.0
 10
55.5646872382
 20
55.7854862923
 30
0.0
 10
55.2621857697
 20
55.8260563892
 30
0.0
 10
54.8982458416
 20
55.7237949083
 30
0.0
 10
54.6975582398
 20
55.5498789911
 30
0.0
 10
54.56072646
 20
55.3269740754
 30
0.0
 10
54.5276797108
 20
54.9584478808
 30
0.0
 10
54.691852167
 20
54.5082707364
 30
0.0
 10
55.0138963237
 20
54.0838552677
 30
0.0
 10
55.4513477752
 20
53.7390366629
 30
0.0
 10
55.7964513425
 20
53.585693555
 30
0.0
 10
55.9728689848
 20
53.5379983609
 30
0.0
  0
SPLINE
  5
5D1
100
AcDbEntity
  8
3_AXES_OTHER
100
AcDbSpline
 62
7
  6
CONTINUOUS
 70
0
 71
3
 72
11
 73
7
 74
0
 42
0.0000001
 43
0.0000001
 44
0.0000000001
 40
0.0
 40
0.0
 40
0.0
 40
0.0
 40
0.2246517149
 40
0.4542237576
 40
0.7098335301
 40
1.0
 40
1.0
 40
1.0
 40
1.0
 10
57.5789485309
 20
48.0639157258
 30
0.0
 10
57.6051031466
 20
48.0808477855
 30
0.0
 10
57.6515414928
 20
48.1271239006
 30
0.0
 10
57.6833473753
 20
48.2235252969
 30
0.0
 10
57.6754378389
 20
48.3328304384
 30
0.0
 10
57.6478355176
 20
48.4043636427
 30
0.0
 10
57.6293248407
 20
48.4400970226
 30
0.0
  0
SPLINE
  5
5D2
100
AcDbEntity
  8
3_AXES_OTHER
100
AcDbSpline
 62
7
  6
CONTINUOUS
 70
0
 71
3
 72
10
 73
6
 74
0
 42
0.0000001
 43
0.0000001
 44
0.0000000001
 40
0.0
 40
0.0
 40
0.0
 40
0.0
 40
0.2847619602
 40
0.5595528479
 40
1.0
 40
1.0
 40
1.0
 40
1.0
 10
56.9625527375
 20
48.2305607203
 30
0.0
 10
57.0072300342
 20
48.1847651283
 30
0.0
 10
57.108108772
 20
48.1059704714
 30
0.0
 10
57.3108938993
 20
48.0135921207
 30
0.0
 10
57.495879108
 20
48.0101379743
 30
0.0
 10
57.5789485309
 20
48.0639157258
 30
0.0
  0
SPLINE
  5
5D3
100
AcDbEntity
  8
3_AXES_OTHER
100
AcDbSpline
 62
7
  6
CONTINUOUS
 70
0
 71
3
 72
9
 73
5
 74
0
 42
0.0000001
 43
0.0000001
 44
0.0000000001
 40
0.0
 40
0.0
 40
0.0
 40
0.0
 40
0.442117469
 40
1.0
 40
1.0
 40
1.0
 40
1.0
 10
56.8204040068
 20
48.6587919088
 30
0.0
 10
56.7943258848
 20
48.5947752796
 30
0.0
 10
56.8083648962
 20
48.4237623452
 30
0.0
 10
56.9016429086
 20
48.2929951529
 30
0.0
 10
56.9625527375
 20
48.2305607203
 30
0.0
  0
SPLINE
  5
5D4
100
AcDbEntity
  8
3_ALL_AXES
100
AcDbSpline
 62
7
  6
CONTINUOUS
 70
0
 71
3
 72
9
 73
5
 74
0
 42
0.0000001
 43
0.0000001
 44
0.0000000001
 40
0.0
 40
0.0
 40
0.0
 40
0.0
 40
0.4759029837
 40
1.0
 40
1.0
 40
1.0
 40
1.0
 10
56.7021894767
 20
49.3247655113
 30
0.0
 10
56.237979876
 20
49.3199906562
 30
0.0
 10
55.2595022207
 20
49.4684707535
 30
0.0
 10
54.3495172396
 20
49.8420822564
 30
0.0
 10
53.898467423
 20
50.0827626475
 30
0.0
  0
SPLINE
  5
5D5
100
AcDbEntity
  8
3_ALL_AXES
100
AcDbSpline
 62
7
  6
CONTINUOUS
 70
0
 71
3
 72
15
 73
11
 74
0
 42
0.0000001
 43
0.0000001
 44
0.0000000001
 40
0.0
 40
0.0
 40
0.0
 40
0.0
 40
0.1366194269
 40
0.2792775508
 40
0.4223854347
 40
0.5602642194
 40
0.6881235011
 40
0.8031200782
 40
0.9055750485
 40
1.0
 40
1.0
 40
1.0
 40
1.0
 10
55.2729882922
 20
50.4766674217
 30
0.0
 10
54.9575591699
 20
50.5619449088
 30
0.0
 10
54.3299472614
 20
50.8042461712
 30
0.0
 10
53.4626352801
 20
51.3311834464
 30
0.0
 10
52.6939166152
 20
51.9989739141
 30
0.0
 10
52.075376822
 20
52.7633861712
 30
0.0
 10
51.6480207366
 20
53.5752245281
 30
0.0
 10
51.4422186416
 20
54.384990925
 30
0.0
 10
51.4797513195
 20
55.1437462231
 30
0.0
 10
51.6830751136
 20
55.5851091717
 30
0.0
 10
51.8185974378
 20
55.765763237
 30
0.0
  0
SPLINE
  5
5D6
100
AcDbEntity
  8
3_ALL_AXES
100
AcDbSpline
 62
7
  6
CONTINUOUS
 70
0
 71
3
 72
9
 73
5
 74
0
 42
0.0000001
 43
0.0000001
 44
0.0000000001
 40
0.0
 40
0.0
 40
0.0
 40
0.0
 40
0.5240970163
 40
1.0
 40
1.0
 40
1.0
 40
1.0
 10
53.9512750211
 20
50.1531471415
 30
0.0
 10
54.4023248377
 20
49.9124667504
 30
0.0
 10
55.3123098188
 20
49.5388552475
 30
0.0
 10
56.2907874741
 20
49.3903751502
 30
0.0
 10
56.7549970748
 20
49.3951500053
 30
0.0
  0
SPLINE
  5
5D7
100
AcDbEntity
  8
3_ALL_AXES
100
AcDbSpline
 62
7
  6
CONTINUOUS
 70
0
 71
3
 72
10
 73
6
 74
0
 42
0.0000001
 43
0.0000001
 44
0.0000000001
 40
0.0
 40
0.0
 40
0.0
 40
0.0
 40
0.5231340941
 40
0.7649865706
 40
1.0
 40
1.0
 40
1.0
 40
1.0
 10
52.682326999
 20
57.4303548165
 30
0.0
 10
52.3197668235
 20
57.3861993287
 30
0.0
 10
51.7893802029
 20
57.239120471
 30
0.0
 10
51.2042909716
 20
56.8500478436
 30
0.0
 10
50.9725366806
 20
56.6061230889
 30
0.0
 10
50.8740605393
 20
56.4748796085
 30
0.0
  0
SPLINE
  5
5D8
100
AcDbEntity
  8
3_AXES_OTHER
100
AcDbSpline
 62
7
  6
CONTINUOUS
 70
0
 71
3
 72
10
 73
6
 74
0
 42
0.0000001
 43
0.0000001
 44
0.0000000001
 40
0.0
 40
0.0
 40
0.0
 40
0.0
 40
0.7012226527
 40
0.8945537341
 40
1.0
 40
1.0
 40
1.0
 40
1.0
 10
63.2554291478
 20
58.6130213811
 30
0.0
 10
63.2872851163
 20
58.6113925131
 30
0.0
 10
63.3288993326
 20
58.6106473727
 30
0.0
 10
63.3728502418
 20
58.6170967744
 30
0.0
 10
63.386059631
 20
58.6257524756
 30
0.0
 10
63.3871473494
 20
58.6304241128
 30
0.0
  0
SPLINE
  5
5D9
100
AcDbEntity
  8
3_AXES_OTHER
100
AcDbSpline
 62
7
  6
CONTINUOUS
 70
0
 71
3
 72
15
 73
11
 74
0
 42
0.0000001
 43
0.0000001
 44
0.0000000001
 40
0.0
 40
0.0
 40
0.0
 40
0.0
 40
0.1192785736
 40
0.2419820069
 40
0.3693816887
 40
0.5
 40
0.6306183113
 40
0.7580179931
 40
0.8807214264
 40
1.0
 40
1.0
 40
1.0
 40
1.0
 10
15.7186645456
 20
50.7126344025
 30
0.0
 10
15.7186645456
 20
50.8897150442
 30
0.0
 10
15.6378231544
 20
51.2533631685
 30
0.0
 10
15.2996254953
 20
51.7036051856
 30
0.0
 10
14.8027118908
 20
52.0001418312
 30
0.0
 10
14.2226015534
 20
52.1031475368
 30
0.0
 10
13.642491216
 20
52.0001418312
 30
0.0
 10
13.1455776116
 20
51.7036051856
 30
0.0
 10
12.8073799525
 20
51.2533631685
 30
0.0
 10
12.7265385613
 20
50.8897150442
 30
0.0
 10
12.7265385613
 20
50.7126344025
 30
0.0
  0
SPLINE
  5
5DA
100
AcDbEntity
  8
3_AXES_OTHER
100
AcDbSpline
 62
7
  6
CONTINUOUS
 70
0
 71
3
 72
15
 73
11
 74
0
 42
0.0000001
 43
0.0000001
 44
0.0000000001
 40
0.0
 40
0.0
 40
0.0
 40
0.0
 40
0.1192785736
 40
0.2419820069
 40
0.3693816887
 40
0.5
 40
0.6306183113
 40
0.7580179931
 40
0.8807214264
 40
1.0
 40
1.0
 40
1.0
 40
1.0
 10
24.3800818684
 20
50.7126344025
 30
0.0
 10
24.3800818684
 20
50.8897150442
 30
0.0
 10
24.2992404772
 20
51.2533631685
 30
0.0
 10
23.9610428181
 20
51.7036051856
 30
0.0
 10
23.4641292137
 20
52.0001418312
 30
0.0
 10
22.8840188763
 20
52.1031475368
 30
0.0
 10
22.3039085389
 20
52.0001418312
 30
0.0
 10
21.8069949344
 20
51.7036051856
 30
0.0
 10
21.4687972753
 20
51.2533631685
 30
0.0
 10
21.3879558841
 20
50.8897150442
 30
0.0
 10
21.3879558841
 20
50.7126344025
 30
0.0
  0
SPLINE
  5
5DB
100
AcDbEntity
  8
3_AXES_OTHER
100
AcDbSpline
 62
7
  6
CONTINUOUS
 70
0
 71
3
 72
15
 73
11
 74
0
 42
0.0000001
 43
0.0000001
 44
0.0000000001
 40
0.0
 40
0.0
 40
0.0
 40
0.0
 40
0.1192843268
 40
0.2419819856
 40
0.3693823517
 40
0.5
 40
0.6306176483
 40
0.7580180144
 40
0.8807156732
 40
1.0
 40
1.0
 40
1.0
 40
1.0
 10
23.8682708448
 20
50.7126344025
 30
0.0
 10
23.8682708448
 20
50.5961284656
 30
0.0
 10
23.8150794126
 20
50.3568891286
 30
0.0
 10
23.5925910176
 20
50.0606672323
 30
0.0
 10
23.2656645974
 20
49.8656068207
 30
0.0
 10
22.8840188763
 20
49.7978147533
 30
0.0
 10
22.5023731551
 20
49.8656068207
 30
0.0
 10
22.175446735
 20
50.0606672323
 30
0.0
 10
21.95295834
 20
50.3568891286
 30
0.0
 10
21.8997669078
 20
50.5961284656
 30
0.0
 10
21.8997669078
 20
50.7126344025
 30
0.0
  0
SPLINE
  5
5DC
100
AcDbEntity
  8
3_AXES_OTHER
100
AcDbSpline
 62
7
  6
CONTINUOUS
 70
0
 71
3
 72
15
 73
11
 74
0
 42
0.0000001
 43
0.0000001
 44
0.0000000001
 40
0.0
 40
0.0
 40
0.0
 40
0.0
 40
0.1192843268
 40
0.2419819856
 40
0.3693823517
 40
0.5
 40
0.6306176483
 40
0.7580180144
 40
0.8807156732
 40
1.0
 40
1.0
 40
1.0
 40
1.0
 10
15.2068535219
 20
50.7126344025
 30
0.0
 10
15.2068535219
 20
50.5961284656
 30
0.0
 10
15.1536620897
 20
50.3568891286
 30
0.0
 10
14.9311736947
 20
50.0606672323
 30
0.0
 10
14.6042472746
 20
49.8656068207
 30
0.0
 10
14.2226015534
 20
49.7978147533
 30
0.0
 10
13.8409558323
 20
49.8656068207
 30
0.0
 10
13.5140294121
 20
50.0606672323
 30
0.0
 10
13.2915410171
 20
50.3568891286
 30
0.0
 10
13.2383495849
 20
50.5961284656
 30
0.0
 10
13.2383495849
 20
50.7126344025
 30
0.0
  0
SPLINE
  5
5DD
100
AcDbEntity
  8
3_AXES_OTHER
100
AcDbSpline
 62
7
  6
CONTINUOUS
 70
0
 71
3
 72
15
 73
11
 74
0
 42
0.0000001
 43
0.0000001
 44
0.0000000001
 40
0.0
 40
0.0
 40
0.0
 40
0.0
 40
0.1193356502
 40
0.2422103039
 40
0.3695966541
 40
0.5
 40
0.6304033459
 40
0.7577896961
 40
0.8806643498
 40
1.0
 40
1.0
 40
1.0
 40
1.0
 10
21.3902015923
 20
50.6385562678
 30
0.0
 10
21.4005665148
 20
50.4674807836
 30
0.0
 10
21.4969746479
 20
50.1209254521
 30
0.0
 10
21.8385225088
 20
49.6976690686
 30
0.0
 10
22.3236773347
 20
49.4205250383
 30
0.0
 10
22.8840188763
 20
49.3244755318
 30
0.0
 10
23.4443604178
 20
49.4205250383
 30
0.0
 10
23.9295152437
 20
49.6976690686
 30
0.0
 10
24.2710631046
 20
50.1209254521
 30
0.0
 10
24.3674712377
 20
50.4674807836
 30
0.0
 10
24.3778361602
 20
50.6385562678
 30
0.0
  0
SPLINE
  5
5DE
100
AcDbEntity
  8
3_AXES_OTHER
100
AcDbSpline
 62
7
  6
CONTINUOUS
 70
0
 71
3
 72
15
 73
11
 74
0
 42
0.0000001
 43
0.0000001
 44
0.0000000001
 40
0.0
 40
0.0
 40
0.0
 40
0.0
 40
0.1192766599
 40
0.2419820328
 40
0.3693822622
 40
0.5
 40
0.6306177378
 40
0.7580179672
 40
0.8807233401
 40
1.0
 40
1.0
 40
1.0
 40
1.0
 10
21.3879558841
 20
50.6377610884
 30
0.0
 10
21.3879558841
 20
50.4606832557
 30
0.0
 10
21.4687968335
 20
50.0970363054
 30
0.0
 10
21.8069870494
 20
49.6467862308
 30
0.0
 10
22.3039094075
 20
49.3502544187
 30
0.0
 10
22.8840188763
 20
49.2472580401
 30
0.0
 10
23.464128345
 20
49.3502544187
 30
0.0
 10
23.9610507031
 20
49.6467862308
 30
0.0
 10
24.299240919
 20
50.0970363054
 30
0.0
 10
24.3800818684
 20
50.4606832557
 30
0.0
 10
24.3800818684
 20
50.6377610884
 30
0.0
  0
SPLINE
  5
5DF
100
AcDbEntity
  8
3_AXES_OTHER
100
AcDbSpline
 62
7
  6
CONTINUOUS
 70
0
 71
3
 72
15
 73
11
 74
0
 42
0.0000001
 43
0.0000001
 44
0.0000000001
 40
0.0
 40
0.0
 40
0.0
 40
0.0
 40
0.1193356502
 40
0.2422103039
 40
0.3695966541
 40
0.5
 40
0.6304033459
 40
0.7577896961
 40
0.8806643498
 40
1.0
 40
1.0
 40
1.0
 40
1.0
 10
12.7287842695
 20
50.6385562678
 30
0.0
 10
12.739149192
 20
50.4674807836
 30
0.0
 10
12.8355573251
 20
50.1209254521
 30
0.0
 10
13.177105186
 20
49.6976690686
 30
0.0
 10
13.6622600119
 20
49.4205250383
 30
0.0
 10
14.2226015534
 20
49.3244755318
 30
0.0
 10
14.7829430949
 20
49.4205250383
 30
0.0
 10
15.2680979209
 20
49.6976690686
 30
0.0
 10
15.6096457818
 20
50.1209254521
 30
0.0
 10
15.7060539149
 20
50.4674807836
 30
0.0
 10
15.7164188374
 20
50.6385562678
 30
0.0
  0
SPLINE
  5
5E0
100
AcDbEntity
  8
3_AXES_OTHER
100
AcDbSpline
 62
7
  6
CONTINUOUS
 70
0
 71
3
 72
15
 73
11
 74
0
 42
0.0000001
 43
0.0000001
 44
0.0000000001
 40
0.0
 40
0.0
 40
0.0
 40
0.0
 40
0.1192766599
 40
0.2419820328
 40
0.3693822622
 40
0.5
 40
0.6306177378
 40
0.7580179672
 40
0.8807233401
 40
1.0
 40
1.0
 40
1.0
 40
1.0
 10
12.7265385613
 20
50.6377610884
 30
0.0
 10
12.7265385613
 20
50.4606832557
 30
0.0
 10
12.8073795107
 20
50.0970363054
 30
0.0
 10
13.1455697266
 20
49.6467862308
 30
0.0
 10
13.6424920847
 20
49.3502544187
 30
0.0
 10
14.2226015534
 20
49.2472580401
 30
0.0
 10
14.8027110222
 20
49.3502544187
 30
0.0
 10
15.2996333803
 20
49.6467862308
 30
0.0
 10
15.6378235961
 20
50.0970363054
 30
0.0
 10
15.7186645456
 20
50.4606832557
 30
0.0
 10
15.7186645456
 20
50.6377610884
 30
0.0
  0
SPLINE
  5
5E1
100
AcDbEntity
  8
3_ALL_AXES
100
AcDbSpline
 62
7
  6
CONTINUOUS
 70
0
 71
3
 72
11
 73
7
 74
0
 42
0.0000001
 43
0.0000001
 44
0.0000000001
 40
0.0
 40
0.0
 40
0.0
 40
0.0
 40
0.2449872251
 40
0.5
 40
0.7550127749
 40
1.0
 40
1.0
 40
1.0
 40
1.0
 10
15.0698458377
 20
50.2598282533
 30
0.0
 10
14.9820639474
 20
50.3943439681
 30
0.0
 10
14.7220953202
 20
50.6213285993
 30
0.0
 10
14.2226015534
 20
50.7369089757
 30
0.0
 10
13.7231077866
 20
50.6213285993
 30
0.0
 10
13.4631391594
 20
50.3943439681
 30
0.0
 10
13.3753572692
 20
50.2598282533
 30
0.0
  0
SPLINE
  5
5E2
100
AcDbEntity
  8
3_AXES_OTHER
100
AcDbSpline
 62
7
  6
CONTINUOUS
 70
0
 71
3
 72
15
 73
11
 74
0
 42
0.0000001
 43
0.0000001
 44
0.0000000001
 40
0.0
 40
0.0
 40
0.0
 40
0.0
 40
0.1192843268
 40
0.2419819856
 40
0.3693823517
 40
0.5
 40
0.6306176483
 40
0.7580180144
 40
0.8807156732
 40
1.0
 40
1.0
 40
1.0
 40
1.0
 10
21.8997669078
 20
50.7126344025
 30
0.0
 10
21.8997669078
 20
50.8291403395
 30
0.0
 10
21.95295834
 20
51.0683796764
 30
0.0
 10
22.175446735
 20
51.3646015728
 30
0.0
 10
22.5023731551
 20
51.5596619844
 30
0.0
 10
22.8840188763
 20
51.6274540518
 30
0.0
 10
23.2656645974
 20
51.5596619844
 30
0.0
 10
23.5925910176
 20
51.3646015728
 30
0.0
 10
23.8150794126
 20
51.0683796764
 30
0.0
 10
23.8682708448
 20
50.8291403395
 30
0.0
 10
23.8682708448
 20
50.7126344025
 30
0.0
  0
SPLINE
  5
5E3
100
AcDbEntity
  8
3_ALL_AXES
100
AcDbSpline
 62
7
  6
CONTINUOUS
 70
0
 71
3
 72
11
 73
7
 74
0
 42
0.0000001
 43
0.0000001
 44
0.0000000001
 40
0.0
 40
0.0
 40
0.0
 40
0.0
 40
0.2449872251
 40
0.5
 40
0.7550127749
 40
1.0
 40
1.0
 40
1.0
 40
1.0
 10
23.7312631605
 20
50.2598282533
 30
0.0
 10
23.6434812703
 20
50.3943439681
 30
0.0
 10
23.3835126431
 20
50.6213285993
 30
0.0
 10
22.8840188763
 20
50.7369089757
 30
0.0
 10
22.3845251094
 20
50.6213285993
 30
0.0
 10
22.1245564822
 20
50.3943439681
 30
0.0
 10
22.036774592
 20
50.2598282533
 30
0.0
  0
SPLINE
  5
5E4
100
AcDbEntity
  8
3_AXES_OTHER
100
AcDbSpline
 62
7
  6
CONTINUOUS
 70
0
 71
3
 72
15
 73
11
 74
0
 42
0.0000001
 43
0.0000001
 44
0.0000000001
 40
0.0
 40
0.0
 40
0.0
 40
0.0
 40
0.1192843268
 40
0.2419819856
 40
0.3693823517
 40
0.5
 40
0.6306176483
 40
0.7580180144
 40
0.8807156732
 40
1.0
 40
1.0
 40
1.0
 40
1.0
 10
13.2383495849
 20
50.7126344025
 30
0.0
 10
13.2383495849
 20
50.8291403395
 30
0.0
 10
13.2915410171
 20
51.0683796764
 30
0.0
 10
13.5140294121
 20
51.3646015728
 30
0.0
 10
13.8409558323
 20
51.5596619844
 30
0.0
 10
14.2226015534
 20
51.6274540518
 30
0.0
 10
14.6042472746
 20
51.5596619844
 30
0.0
 10
14.9311736947
 20
51.3646015728
 30
0.0
 10
15.1536620897
 20
51.0683796764
 30
0.0
 10
15.2068535219
 20
50.8291403395
 30
0.0
 10
15.2068535219
 20
50.7126344025
 30
0.0
  0
SPLINE
  5
5E5
100
AcDbEntity
  8
3_ALL_AXES
100
AcDbSpline
 62
7
  6
CONTINUOUS
 70
0
 71
3
 72
11
 73
7
 74
0
 42
0.0000001
 43
0.0000001
 44
0.0000000001
 40
0.0
 40
0.0
 40
0.0
 40
0.0
 40
0.2459839999
 40
0.4943394883
 40
0.7460118334
 40
1.0
 40
1.0
 40
1.0
 40
1.0
 10
14.6556724196
 20
28.7669564357
 30
0.0
 10
14.6556724196
 20
29.2572789895
 30
0.0
 10
14.8610467648
 20
30.2539264985
 30
0.0
 10
15.7335606634
 20
31.5053253752
 30
0.0
 10
17.0285887258
 20
32.3381389705
 30
0.0
 10
18.0470328695
 20
32.5317854437
 30
0.0
 10
18.5533102148
 20
32.5317854437
 30
0.0
  0
SPLINE
  5
5E6
100
AcDbEntity
  8
3_ALL_AXES
100
AcDbSpline
 62
7
  6
CONTINUOUS
 70
0
 71
3
 72
11
 73
7
 74
0
 42
0.0000001
 43
0.0000001
 44
0.0000000001
 40
0.0
 40
0.0
 40
0.0
 40
0.0
 40
0.2468867249
 40
0.4953689167
 40
0.7464136355
 40
1.0
 40
1.0
 40
1.0
 40
1.0
 10
13.474571392
 20
28.7667151826
 30
0.0
 10
13.4745843642
 20
28.2557988128
 30
0.0
 10
13.6436385705
 20
27.2230939023
 30
0.0
 10
14.3776905819
 20
25.8348627828
 30
0.0
 10
15.5160866746
 20
24.7343062348
 30
0.0
 10
16.4701980681
 20
24.2641003181
 30
0.0
 10
16.9704717701
 20
24.1056037523
 30
0.0
  0
SPLINE
  5
5E7
100
AcDbEntity
  8
3_ALL_AXES
100
AcDbSpline
 62
7
  6
CONTINUOUS
 70
0
 71
3
 72
11
 73
7
 74
0
 42
0.0000001
 43
0.0000001
 44
0.0000000001
 40
0.0
 40
0.0
 40
0.0
 40
0.0
 40
0.2535863693
 40
0.5046310886
 40
0.7531132798
 40
1.0
 40
1.0
 40
1.0
 40
1.0
 10
20.1361486595
 20
24.1056037523
 30
0.0
 10
20.6364226017
 20
24.2641003942
 30
0.0
 10
21.5905344313
 20
24.7343066066
 30
0.0
 10
22.7289308197
 20
25.8348639436
 30
0.0
 10
23.46298267
 20
27.2230959951
 30
0.0
 10
23.6320363537
 20
28.2558014809
 30
0.0
 10
23.6320490484
 20
28.7667180766
 30
0.0
  0
SPLINE
  5
5E8
100
AcDbEntity
  8
3_ALL_AXES
100
AcDbSpline
 62
7
  6
CONTINUOUS
 70
0
 71
3
 72
11
 73
7
 74
0
 42
0.0000001
 43
0.0000001
 44
0.0000000001
 40
0.0
 40
0.0
 40
0.0
 40
0.0
 40
0.2539881666
 40
0.5056605117
 40
0.7540160001
 40
1.0
 40
1.0
 40
1.0
 40
1.0
 10
18.5533102148
 20
32.5317854437
 30
0.0
 10
19.0595875601
 20
32.5317854437
 30
0.0
 10
20.0780317039
 20
32.3381389705
 30
0.0
 10
21.3730597663
 20
31.5053253752
 30
0.0
 10
22.2455736649
 20
30.2539264985
 30
0.0
 10
22.4509480101
 20
29.2572789895
 30
0.0
 10
22.4509480101
 20
28.7669564357
 30
0.0
  0
SPLINE
  5
5E9
100
AcDbEntity
  8
3_AXES_OTHER
100
AcDbSpline
 62
7
  6
CONTINUOUS
 70
0
 71
3
 72
11
 73
7
 74
0
 42
0.0000001
 43
0.0000001
 44
0.0000000001
 40
0.0
 40
0.0
 40
0.0
 40
0.0
 40
0.2511993541
 40
0.5
 40
0.7488006459
 40
1.0
 40
1.0
 40
1.0
 40
1.0
 10
18.2053245942
 20
20.9973830625
 30
0.0
 10
18.1603666162
 20
20.9539569905
 30
0.0
 10
18.0869900295
 20
20.8486924268
 30
0.0
 10
18.0483432317
 20
20.6612547643
 30
0.0
 10
18.0869900295
 20
20.4738171018
 30
0.0
 10
18.1603666162
 20
20.3685525381
 30
0.0
 10
18.2053245942
 20
20.3251264661
 30
0.0
  0
SPLINE
  5
5EA
100
AcDbEntity
  8
3_AXES_OTHER
100
AcDbSpline
 62
7
  6
CONTINUOUS
 70
0
 71
3
 72
9
 73
5
 74
0
 42
0.0000001
 43
0.0000001
 44
0.0000000001
 40
0.0
 40
0.0
 40
0.0
 40
0.0
 40
0.5
 40
1.0
 40
1.0
 40
1.0
 40
1.0
 10
18.2053245942
 20
20.3251264661
 30
0.0
 10
18.2951846323
 20
20.2383283346
 30
0.0
 10
18.5533102148
 20
20.1334667981
 30
0.0
 10
18.8114357974
 20
20.2383283346
 30
0.0
 10
18.9012958355
 20
20.3251264661
 30
0.0
  0
SPLINE
  5
5EB
100
AcDbEntity
  8
3_AXES_OTHER
100
AcDbSpline
 62
7
  6
CONTINUOUS
 70
0
 71
3
 72
11
 73
7
 74
0
 42
0.0000001
 43
0.0000001
 44
0.0000000001
 40
0.0
 40
0.0
 40
0.0
 40
0.0
 40
0.2511993541
 40
0.5
 40
0.7488006459
 40
1.0
 40
1.0
 40
1.0
 40
1.0
 10
18.9012958355
 20
20.3251264661
 30
0.0
 10
18.9462538134
 20
20.3685525381
 30
0.0
 10
19.0196304002
 20
20.4738171018
 30
0.0
 10
19.058277198
 20
20.6612547643
 30
0.0
 10
19.0196304002
 20
20.8486924268
 30
0.0
 10
18.9462538134
 20
20.9539569905
 30
0.0
 10
18.9012958355
 20
20.9973830625
 30
0.0
  0
SPLINE
  5
5EC
100
AcDbEntity
  8
3_AXES_OTHER
100
AcDbSpline
 62
7
  6
CONTINUOUS
 70
0
 71
3
 72
9
 73
5
 74
0
 42
0.0000001
 43
0.0000001
 44
0.0000000001
 40
0.0
 40
0.0
 40
0.0
 40
0.0
 40
0.5
 40
1.0
 40
1.0
 40
1.0
 40
1.0
 10
18.9012958355
 20
20.9973830625
 30
0.0
 10
18.8114357974
 20
21.084181194
 30
0.0
 10
18.5533102148
 20
21.1890427306
 30
0.0
 10
18.2951846323
 20
21.084181194
 30
0.0
 10
18.2053245942
 20
20.9973830625
 30
0.0
  0
SPLINE
  5
5ED
100
AcDbEntity
  8
3_ALL_AXES
100
AcDbSpline
 62
7
  6
CONTINUOUS
 70
0
 71
3
 72
15
 73
11
 74
0
 42
0.0000001
 43
0.0000001
 44
0.0000000001
 40
0.0
 40
0.0
 40
0.0
 40
0.0
 40
0.1269983718
 40
0.2528308872
 40
0.3770078667
 40
0.5
 40
0.6229921333
 40
0.7471691128
 40
0.8730016282
 40
1.0
 40
1.0
 40
1.0
 40
1.0
 10
18.5533102148
 20
30.6906328593
 30
0.0
 10
18.3640892006
 20
30.6906328593
 30
0.0
 10
17.9834548118
 20
30.6182199808
 30
0.0
 10
17.4994659201
 20
30.30715084
 30
0.0
 10
17.1733770414
 20
29.8387429711
 30
0.0
 10
17.0584214117
 20
29.2835755533
 30
0.0
 10
17.1733770414
 20
28.7284081355
 30
0.0
 10
17.4994659201
 20
28.2600002665
 30
0.0
 10
17.9834548118
 20
27.9489311258
 30
0.0
 10
18.3640892006
 20
27.8765182473
 30
0.0
 10
18.5533102148
 20
27.8765182473
 30
0.0
  0
SPLINE
  5
5EE
100
AcDbEntity
  8
3_ALL_AXES
100
AcDbSpline
 62
7
  6
CONTINUOUS
 70
0
 71
3
 72
11
 73
7
 74
0
 42
0.0000001
 43
0.0000001
 44
0.0000000001
 40
0.0
 40
0.0
 40
0.0
 40
0.0
 40
0.2459858646
 40
0.4943634347
 40
0.7460368247
 40
1.0
 40
1.0
 40
1.0
 40
1.0
 10
14.655874704
 20
28.7670118397
 30
0.0
 10
14.6609136669
 20
28.2797373101
 30
0.0
 10
14.8739186976
 20
27.2914997772
 30
0.0
 10
15.7485747589
 20
26.0536914601
 30
0.0
 10
17.0382305751
 20
25.2310184775
 30
0.0
 10
18.0502064953
 20
25.0398294146
 30
0.0
 10
18.5533102148
 20
25.0398294146
 30
0.0
  0
SPLINE
  5
5EF
100
AcDbEntity
  8
3_ALL_AXES
100
AcDbSpline
 62
7
  6
CONTINUOUS
 70
0
 71
3
 72
15
 73
11
 74
0
 42
0.0000001
 43
0.0000001
 44
0.0000000001
 40
0.0
 40
0.0
 40
0.0
 40
0.0
 40
0.1269983718
 40
0.2528308872
 40
0.3770078667
 40
0.5
 40
0.6229921333
 40
0.7471691128
 40
0.8730016282
 40
1.0
 40
1.0
 40
1.0
 40
1.0
 10
18.5533102148
 20
30.6906328593
 30
0.0
 10
18.7425312291
 20
30.6906328593
 30
0.0
 10
19.1231656179
 20
30.6182199808
 30
0.0
 10
19.6071545096
 20
30.30715084
 30
0.0
 10
19.9332433882
 20
29.8387429711
 30
0.0
 10
20.0481990179
 20
29.2835755533
 30
0.0
 10
19.9332433882
 20
28.7284081355
 30
0.0
 10
19.6071545096
 20
28.2600002665
 30
0.0
 10
19.1231656179
 20
27.9489311258
 30
0.0
 10
18.7425312291
 20
27.8765182473
 30
0.0
 10
18.5533102148
 20
27.8765182473
 30
0.0
  0
SPLINE
  5
5F0
100
AcDbEntity
  8
3_ALL_AXES
100
AcDbSpline
 62
7
  6
CONTINUOUS
 70
0
 71
3
 72
11
 73
7
 74
0
 42
0.0000001
 43
0.0000001
 44
0.0000000001
 40
0.0
 40
0.0
 40
0.0
 40
0.0
 40
0.2539631753
 40
0.5056365653
 40
0.7540141354
 40
1.0
 40
1.0
 40
1.0
 40
1.0
 10
18.5533102148
 20
25.0398294146
 30
0.0
 10
19.0564139343
 20
25.0398294146
 30
0.0
 10
20.0683898546
 20
25.2310184775
 30
0.0
 10
21.3580456707
 20
26.0536914601
 30
0.0
 10
22.2327017321
 20
27.2914997772
 30
0.0
 10
22.4457067628
 20
28.2797373101
 30
0.0
 10
22.4507457257
 20
28.7670118397
 30
0.0
  0
SPLINE
  5
5F1
100
AcDbEntity
  8
3_ALL_AXES
100
AcDbSpline
 62
7
  6
CONTINUOUS
 70
0
 71
3
 72
11
 73
7
 74
0
 42
0.0000001
 43
0.0000001
 44
0.0000000001
 40
0.0
 40
0.0
 40
0.0
 40
0.0
 40
0.2536393613
 40
0.504713974
 40
0.7531762948
 40
1.0
 40
1.0
 40
1.0
 40
1.0
 10
17.0591752645
 20
33.4932322644
 30
0.0
 10
16.548601042
 20
33.3414425341
 30
0.0
 10
15.5723344565
 20
32.8792261479
 30
0.0
 10
14.4037680183
 20
31.7751073307
 30
0.0
 10
13.648620623
 20
30.3710488165
 30
0.0
 10
13.4745700574
 20
29.3230046068
 30
0.0
 10
13.4745700574
 20
28.8046584226
 30
0.0
  0
SPLINE
  5
5F2
100
AcDbEntity
  8
3_ALL_AXES
100
AcDbSpline
 62
7
  6
CONTINUOUS
 70
0
 71
3
 72
11
 73
7
 74
0
 42
0.0000001
 43
0.0000001
 44
0.0000000001
 40
0.0
 40
0.0
 40
0.0
 40
0.0
 40
0.2468237052
 40
0.495286026
 40
0.7463606387
 40
1.0
 40
1.0
 40
1.0
 40
1.0
 10
23.6320503723
 20
28.8046584226
 30
0.0
 10
23.6320503723
 20
29.3230046068
 30
0.0
 10
23.4579998067
 20
30.3710488165
 30
0.0
 10
22.7028524114
 20
31.7751073307
 30
0.0
 10
21.5342859732
 20
32.8792261479
 30
0.0
 10
20.5580193877
 20
33.3414425341
 30
0.0
 10
20.0474451652
 20
33.4932322644
 30
0.0
  0
SPLINE
  5
5F3
100
AcDbEntity
  8
3_ALL_AXES
100
AcDbSpline
 62
7
  6
CONTINUOUS
 70
0
 71
3
 72
11
 73
7
 74
0
 42
0.0000001
 43
0.0000001
 44
0.0000000001
 40
0.0
 40
0.0
 40
0.0
 40
0.0
 40
0.2537066642
 40
0.5048324231
 40
0.7532683034
 40
1.0
 40
1.0
 40
1.0
 40
1.0
 10
17.1986107099
 20
33.4948868683
 30
0.0
 10
16.6721819643
 20
33.354140503
 30
0.0
 10
15.6613660254
 20
32.9055942716
 30
0.0
 10
14.4452482378
 20
31.7969743934
 30
0.0
 10
13.656594341
 20
30.3686479901
 30
0.0
 10
13.4745579367
 20
29.2966531737
 30
0.0
 10
13.474571392
 20
28.7667151826
 30
0.0
  0
SPLINE
  5
5F4
100
AcDbEntity
  8
3_ALL_AXES
100
AcDbSpline
 62
7
  6
CONTINUOUS
 70
0
 71
3
 72
11
 73
7
 74
0
 42
0.0000001
 43
0.0000001
 44
0.0000000001
 40
0.0
 40
0.0
 40
0.0
 40
0.0
 40
0.2459839999
 40
0.4943394883
 40
0.7460118334
 40
1.0
 40
1.0
 40
1.0
 40
1.0
 10
22.4509480101
 20
28.7669564357
 30
0.0
 10
22.4509480101
 20
28.2766338819
 30
0.0
 10
22.2455736649
 20
27.2799863728
 30
0.0
 10
21.3730597663
 20
26.0285874962
 30
0.0
 10
20.0780317039
 20
25.1957739008
 30
0.0
 10
19.0595875601
 20
25.0021274277
 30
0.0
 10
18.5533102148
 20
25.0021274277
 30
0.0
  0
SPLINE
  5
5F5
100
AcDbEntity
  8
3_ALL_AXES
100
AcDbSpline
 62
7
  6
CONTINUOUS
 70
0
 71
3
 72
11
 73
7
 74
0
 42
0.0000001
 43
0.0000001
 44
0.0000000001
 40
0.0
 40
0.0
 40
0.0
 40
0.0
 40
0.2467317154
 40
0.4951676041
 40
0.7462933578
 40
1.0
 40
1.0
 40
1.0
 40
1.0
 10
23.6320490484
 20
28.7667180766
 30
0.0
 10
23.6320622156
 20
29.2966551408
 30
0.0
 10
23.4500257604
 20
30.3686479184
 30
0.0
 10
22.6613737674
 20
31.7969718969
 30
0.0
 10
21.4452592604
 20
32.9055907087
 30
0.0
 10
20.4344459481
 20
33.3541375439
 30
0.0
 10
19.9080184495
 20
33.4948845398
 30
0.0
  0
SPLINE
  5
5F6
100
AcDbEntity
  8
3_ALL_AXES
100
AcDbSpline
 62
7
  6
CONTINUOUS
 70
0
 71
3
 72
11
 73
7
 74
0
 42
0.0000001
 43
0.0000001
 44
0.0000000001
 40
0.0
 40
0.0
 40
0.0
 40
0.0
 40
0.2539881666
 40
0.5056605117
 40
0.7540160001
 40
1.0
 40
1.0
 40
1.0
 40
1.0
 10
18.5533102148
 20
25.0021274277
 30
0.0
 10
18.0470328695
 20
25.0021274277
 30
0.0
 10
17.0285887258
 20
25.1957739008
 30
0.0
 10
15.7335606634
 20
26.0285874962
 30
0.0
 10
14.8610467648
 20
27.2799863728
 30
0.0
 10
14.6556724196
 20
28.2766338819
 30
0.0
 10
14.6556724196
 20
28.7669564357
 30
0.0
  0
SPLINE
  5
5F7
100
AcDbEntity
  8
3_AXES_OTHER
100
AcDbSpline
 62
7
  6
CONTINUOUS
 70
0
 71
3
 72
15
 73
11
 74
0
 42
0.0000001
 43
0.0000001
 44
0.0000000001
 40
0.0
 40
0.0
 40
0.0
 40
0.0
 40
0.1835094126
 40
0.2538496706
 40
0.331580006
 40
0.5
 40
0.668419994
 40
0.7461503294
 40
0.8164905874
 40
1.0
 40
1.0
 40
1.0
 40
1.0
 10
79.959787171
 20
33.4796783603
 30
0.0
 10
79.959787171
 20
33.688348891
 30
0.0
 10
79.6343895341
 20
33.8973708889
 30
0.0
 10
79.2900109233
 20
34.0109273263
 30
0.0
 10
78.9347980544
 20
34.0907723986
 30
0.0
 10
78.4637241789
 20
34.1264264142
 30
0.0
 10
77.9926503034
 20
34.0907723986
 30
0.0
 10
77.6374374346
 20
34.0109273263
 30
0.0
 10
77.2930588237
 20
33.8973708889
 30
0.0
 10
76.9676611868
 20
33.688348891
 30
0.0
 10
76.9676611868
 20
33.4796783603
 30
0.0
  0
SPLINE
  5
5F8
100
AcDbEntity
  8
3_AXES_OTHER
100
AcDbSpline
 62
7
  6
CONTINUOUS
 70
0
 71
3
 72
15
 73
11
 74
0
 42
0.0000001
 43
0.0000001
 44
0.0000000001
 40
0.0
 40
0.0
 40
0.0
 40
0.0
 40
0.1835094126
 40
0.2538496706
 40
0.331580006
 40
0.5
 40
0.668419994
 40
0.7461503294
 40
0.8164905874
 40
1.0
 40
1.0
 40
1.0
 40
1.0
 10
71.2983698482
 20
33.4796783603
 30
0.0
 10
71.2983698482
 20
33.688348891
 30
0.0
 10
70.9729722113
 20
33.8973708889
 30
0.0
 10
70.6285936004
 20
34.0109273263
 30
0.0
 10
70.2733807316
 20
34.0907723986
 30
0.0
 10
69.8023068561
 20
34.1264264142
 30
0.0
 10
69.3312329806
 20
34.0907723986
 30
0.0
 10
68.9760201117
 20
34.0109273263
 30
0.0
 10
68.6316415009
 20
33.8973708889
 30
0.0
 10
68.306243864
 20
33.688348891
 30
0.0
 10
68.306243864
 20
33.4796783603
 30
0.0
  0
SPLINE
  5
5F9
100
AcDbEntity
  8
3_AXES_OTHER
100
AcDbSpline
 62
7
  6
CONTINUOUS
 70
0
 71
3
 72
15
 73
11
 74
0
 42
0.0000001
 43
0.0000001
 44
0.0000000001
 40
0.0
 40
0.0
 40
0.0
 40
0.0
 40
0.1835082154
 40
0.2538509618
 40
0.3315816823
 40
0.5
 40
0.6684183177
 40
0.7461490382
 40
0.8164917846
 40
1.0
 40
1.0
 40
1.0
 40
1.0
 10
70.7865588246
 20
33.4796783603
 30
0.0
 10
70.7865588246
 20
33.3423958752
 30
0.0
 10
70.5724846164
 20
33.2048757594
 30
0.0
 10
70.3459162814
 20
33.1301719376
 30
0.0
 10
70.1122210758
 20
33.0776504992
 30
0.0
 10
69.8023068561
 20
33.0541810027
 30
0.0
 10
69.4923926364
 20
33.0776504992
 30
0.0
 10
69.2586974308
 20
33.1301719376
 30
0.0
 10
69.0321290957
 20
33.2048757594
 30
0.0
 10
68.8180548876
 20
33.3423958752
 30
0.0
 10
68.8180548876
 20
33.4796783603
 30
0.0
  0
SPLINE
  5
5FA
100
AcDbEntity
  8
3_AXES_OTHER
100
AcDbSpline
 62
7
  6
CONTINUOUS
 70
0
 71
3
 72
15
 73
11
 74
0
 42
0.0000001
 43
0.0000001
 44
0.0000000001
 40
0.0
 40
0.0
 40
0.0
 40
0.0
 40
0.1835082154
 40
0.2538509618
 40
0.3315816823
 40
0.5
 40
0.6684183177
 40
0.7461490382
 40
0.8164917846
 40
1.0
 40
1.0
 40
1.0
 40
1.0
 10
79.4479761474
 20
33.4796783603
 30
0.0
 10
79.4479761474
 20
33.3423958752
 30
0.0
 10
79.2339019393
 20
33.2048757594
 30
0.0
 10
79.0073336042
 20
33.1301719376
 30
0.0
 10
78.7736383986
 20
33.0776504992
 30
0.0
 10
78.4637241789
 20
33.0541810027
 30
0.0
 10
78.1538099592
 20
33.0776504992
 30
0.0
 10
77.9201147536
 20
33.1301719376
 30
0.0
 10
77.6935464186
 20
33.2048757594
 30
0.0
 10
77.4794722104
 20
33.3423958752
 30
0.0
 10
77.4794722104
 20
33.4796783603
 30
0.0
  0
SPLINE
  5
5FB
100
AcDbEntity
  8
3_AXES_OTHER
100
AcDbSpline
 62
7
  6
CONTINUOUS
 70
0
 71
3
 72
15
 73
11
 74
0
 42
0.0000001
 43
0.0000001
 44
0.0000000001
 40
0.0
 40
0.0
 40
0.0
 40
0.0
 40
0.1835087956
 40
0.2538497599
 40
0.3315806004
 40
0.5
 40
0.6684193996
 40
0.7461502401
 40
0.8164912044
 40
1.0
 40
1.0
 40
1.0
 40
1.0
 10
76.9676611868
 20
33.3191120201
 30
0.0
 10
76.9676611868
 20
33.1104420334
 30
0.0
 10
77.2930559251
 20
32.9014166839
 30
0.0
 10
77.6374362086
 20
32.787861451
 30
0.0
 10
77.9926507571
 20
32.7080194796
 30
0.0
 10
78.4637241789
 20
32.6723683692
 30
0.0
 10
78.9347976008
 20
32.7080194796
 30
0.0
 10
79.2900121492
 20
32.787861451
 30
0.0
 10
79.6343924327
 20
32.9014166839
 30
0.0
 10
79.959787171
 20
33.1104420334
 30
0.0
 10
79.959787171
 20
33.3191120201
 30
0.0
  0
SPLINE
  5
5FC
100
AcDbEntity
  8
3_AXES_OTHER
100
AcDbSpline
 62
7
  6
CONTINUOUS
 70
0
 71
3
 72
15
 73
11
 74
0
 42
0.0000001
 43
0.0000001
 44
0.0000000001
 40
0.0
 40
0.0
 40
0.0
 40
0.0
 40
0.1835082154
 40
0.2538509618
 40
0.3315816823
 40
0.5
 40
0.6684183177
 40
0.7461490382
 40
0.8164917846
 40
1.0
 40
1.0
 40
1.0
 40
1.0
 10
68.8180548876
 20
33.4796783603
 30
0.0
 10
68.8180548876
 20
33.6169608455
 30
0.0
 10
69.0321290957
 20
33.7544809613
 30
0.0
 10
69.2586974308
 20
33.8291847831
 30
0.0
 10
69.4923926364
 20
33.8817062215
 30
0.0
 10
69.8023068561
 20
33.905175718
 30
0.0
 10
70.1122210758
 20
33.8817062215
 30
0.0
 10
70.3459162814
 20
33.8291847831
 30
0.0
 10
70.5724846164
 20
33.7544809613
 30
0.0
 10
70.7865588246
 20
33.6169608455
 30
0.0
 10
70.7865588246
 20
33.4796783603
 30
0.0
  0
SPLINE
  5
5FD
100
AcDbEntity
  8
3_AXES_OTHER
100
AcDbSpline
 62
7
  6
CONTINUOUS
 70
0
 71
3
 72
15
 73
11
 74
0
 42
0.0000001
 43
0.0000001
 44
0.0000000001
 40
0.0
 40
0.0
 40
0.0
 40
0.0
 40
0.1835082154
 40
0.2538509618
 40
0.3315816823
 40
0.5
 40
0.6684183177
 40
0.7461490382
 40
0.8164917846
 40
1.0
 40
1.0
 40
1.0
 40
1.0
 10
77.4794722104
 20
33.4796783603
 30
0.0
 10
77.4794722104
 20
33.6169608455
 30
0.0
 10
77.6935464186
 20
33.7544809613
 30
0.0
 10
77.9201147536
 20
33.8291847831
 30
0.0
 10
78.1538099592
 20
33.8817062215
 30
0.0
 10
78.4637241789
 20
33.905175718
 30
0.0
 10
78.7736383986
 20
33.8817062215
 30
0.0
 10
79.0073336042
 20
33.8291847831
 30
0.0
 10
79.2339019393
 20
33.7544809613
 30
0.0
 10
79.4479761474
 20
33.6169608455
 30
0.0
 10
79.4479761474
 20
33.4796783603
 30
0.0
  0
SPLINE
  5
5FE
100
AcDbEntity
  8
3_AXES_OTHER
100
AcDbSpline
 62
7
  6
CONTINUOUS
 70
0
 71
3
 72
9
 73
5
 74
0
 42
0.0000001
 43
0.0000001
 44
0.0000000001
 40
0.0
 40
0.0
 40
0.0
 40
0.0
 40
0.2422406232
 40
1.0
 40
1.0
 40
1.0
 40
1.0
 10
76.9676611868
 20
33.4796783603
 30
0.0
 10
76.9676611868
 20
33.4678503205
 30
0.0
 10
76.9709008718
 20
33.4190206065
 30
0.0
 10
76.9875963083
 20
33.3715458927
 30
0.0
 10
77.0051706095
 20
33.3389864867
 30
0.0
  0
SPLINE
  5
5FF
100
AcDbEntity
  8
3_AXES_OTHER
100
AcDbSpline
 62
7
  6
CONTINUOUS
 70
0
 71
3
 72
15
 73
11
 74
0
 42
0.0000001
 43
0.0000001
 44
0.0000000001
 40
0.0
 40
0.0
 40
0.0
 40
0.0
 40
0.086205987
 40
0.2024298919
 40
0.3441495179
 40
0.5
 40
0.6558504821
 40
0.7975701081
 40
0.913794013
 40
1.0
 40
1.0
 40
1.0
 40
1.0
 10
77.0051706095
 20
33.3389864867
 30
0.0
 10
77.0485550494
 20
33.2586093735
 30
0.0
 10
77.2165032544
 20
33.1096698219
 30
0.0
 10
77.5524780914
 20
32.9646751521
 30
0.0
 10
77.9829625293
 20
32.8688648725
 30
0.0
 10
78.4637241789
 20
32.836180488
 30
0.0
 10
78.9444858286
 20
32.8688648725
 30
0.0
 10
79.3749702664
 20
32.9646751521
 30
0.0
 10
79.7109451035
 20
33.1096698219
 30
0.0
 10
79.8788933084
 20
33.2586093735
 30
0.0
 10
79.9222777483
 20
33.3389864867
 30
0.0
  0
SPLINE
  5
600
100
AcDbEntity
  8
3_AXES_OTHER
100
AcDbSpline
 62
7
  6
CONTINUOUS
 70
0
 71
3
 72
9
 73
5
 74
0
 42
0.0000001
 43
0.0000001
 44
0.0000000001
 40
0.0
 40
0.0
 40
0.0
 40
0.0
 40
0.2626666267
 40
1.0
 40
1.0
 40
1.0
 40
1.0
 10
79.9222777483
 20
33.3389864867
 30
0.0
 10
79.9283677507
 20
33.3502692601
 30
0.0
 10
79.9493003976
 20
33.3943664482
 30
0.0
 10
79.959787171
 20
33.443687228
 30
0.0
 10
79.959787171
 20
33.4796783603
 30
0.0
  0
SPLINE
  5
601
100
AcDbEntity
  8
3_AXES_OTHER
100
AcDbSpline
 62
7
  6
CONTINUOUS
 70
0
 71
3
 72
9
 73
5
 74
0
 42
0.0000001
 43
0.0000001
 44
0.0000000001
 40
0.0
 40
0.0
 40
0.0
 40
0.0
 40
0.2422406232
 40
1.0
 40
1.0
 40
1.0
 40
1.0
 10
68.306243864
 20
33.4796783603
 30
0.0
 10
68.306243864
 20
33.4678503205
 30
0.0
 10
68.309483549
 20
33.4190206065
 30
0.0
 10
68.3261789855
 20
33.3715458927
 30
0.0
 10
68.3437532867
 20
33.3389864867
 30
0.0
  0
SPLINE
  5
602
100
AcDbEntity
  8
3_AXES_OTHER
100
AcDbSpline
 62
7
  6
CONTINUOUS
 70
0
 71
3
 72
15
 73
11
 74
0
 42
0.0000001
 43
0.0000001
 44
0.0000000001
 40
0.0
 40
0.0
 40
0.0
 40
0.0
 40
0.086205987
 40
0.2024298919
 40
0.3441495179
 40
0.5
 40
0.6558504821
 40
0.7975701081
 40
0.913794013
 40
1.0
 40
1.0
 40
1.0
 40
1.0
 10
68.3437532867
 20
33.3389864867
 30
0.0
 10
68.3871377266
 20
33.2586093735
 30
0.0
 10
68.5550859315
 20
33.1096698219
 30
0.0
 10
68.8910607686
 20
32.9646751521
 30
0.0
 10
69.3215452064
 20
32.8688648725
 30
0.0
 10
69.8023068561
 20
32.836180488
 30
0.0
 10
70.2830685057
 20
32.8688648725
 30
0.0
 10
70.7135529436
 20
32.9646751521
 30
0.0
 10
71.0495277806
 20
33.1096698219
 30
0.0
 10
71.2174759856
 20
33.2586093735
 30
0.0
 10
71.2608604255
 20
33.3389864867
 30
0.0
  0
SPLINE
  5
603
100
AcDbEntity
  8
3_AXES_OTHER
100
AcDbSpline
 62
7
  6
CONTINUOUS
 70
0
 71
3
 72
9
 73
5
 74
0
 42
0.0000001
 43
0.0000001
 44
0.0000000001
 40
0.0
 40
0.0
 40
0.0
 40
0.0
 40
0.2626666267
 40
1.0
 40
1.0
 40
1.0
 40
1.0
 10
71.2608604255
 20
33.3389864867
 30
0.0
 10
71.2669504278
 20
33.3502692601
 30
0.0
 10
71.2878830748
 20
33.3943664482
 30
0.0
 10
71.2983698482
 20
33.443687228
 30
0.0
 10
71.2983698482
 20
33.4796783603
 30
0.0
  0
SPLINE
  5
604
100
AcDbEntity
  8
3_AXES_OTHER
100
AcDbSpline
 62
7
  6
CONTINUOUS
 70
0
 71
3
 72
15
 73
11
 74
0
 42
0.0000001
 43
0.0000001
 44
0.0000000001
 40
0.0
 40
0.0
 40
0.0
 40
0.0
 40
0.1835087956
 40
0.2538497599
 40
0.3315806004
 40
0.5
 40
0.6684193996
 40
0.7461502401
 40
0.8164912044
 40
1.0
 40
1.0
 40
1.0
 40
1.0
 10
68.306243864
 20
33.3191120201
 30
0.0
 10
68.306243864
 20
33.1104420334
 30
0.0
 10
68.6316386023
 20
32.9014166839
 30
0.0
 10
68.9760188858
 20
32.787861451
 30
0.0
 10
69.3312334342
 20
32.7080194796
 30
0.0
 10
69.8023068561
 20
32.6723683692
 30
0.0
 10
70.2733802779
 20
32.7080194796
 30
0.0
 10
70.6285948264
 20
32.787861451
 30
0.0
 10
70.9729751099
 20
32.9014166839
 30
0.0
 10
71.2983698482
 20
33.1104420334
 30
0.0
 10
71.2983698482
 20
33.3191120201
 30
0.0
  0
ENDSEC
  0
SECTION
  2
OBJECTS
  0
DICTIONARY
  5
C
100
AcDbDictionary
280
0
281
1
  3
ACAD_GROUP
350
D
  3
ACAD_MLINESTYLE
350
17
  3
ACAD_LAYOUT
350
1A
  3
ACAD_PLOTSETTINGS
350
19
  3
ACAD_PLOTSTYLENAME
350
E
  0
DICTIONARY
  5
D
102
{ACAD_REACTORS
330
C
102
}
100
AcDbDictionary
280
0
281
1
  0
ACDBDICTIONARYWDFLT
  5
E
102
{ACAD_REACTORS
330
C
102
}
100
AcDbDictionary
281
1
  3
Normal
350
F
100
AcDbDictionaryWithDefault
340
F
  0
DICTIONARY
  5
17
102
{ACAD_REACTORS
330
C
102
}
100
AcDbDictionary
280
0
281
1
  3
Standard
350
18
  0
DICTIONARY
  5
19
102
{ACAD_REACTORS
330
C
102
}
100
AcDbDictionary
281
1
  0
DICTIONARY
  5
1A
102
{ACAD_REACTORS
330
C
102
}
100
AcDbDictionary
281
1
  3
Model
350
605
  3
Layout1
350
606
  0
ACDBPLACEHOLDER
  5
F
102
{ACAD_REACTORS
330
E
102
}
  0
MLINESTYLE
  5
18
102
{ACAD_REACTORS
330
17
102
}
100
AcDbMlineStyle
  2
STANDARD
 70
0
  3

 62
256
 51
90.0
 52
90.0
 71
2
 49
0.5
 62
256
  6
BYLAYER
 49
-0.5
 62
256
  6
BYLAYER
  0
LAYOUT
  5
605
102
{ACAD_REACTORS
330
1A
102
}
100
AcDbPlotSettings
  1

  2
none_device
  4
ANSI_D_(34.00_x_22.00_Inches)
  6

 40
0.0
 41
0.0
 42
0.0
 43
0.0
 44
863.6
 45
558.8
 46
0.0
 47
0.0
 48
0.0
 49
0.0
140
0.0
141
0.0
142
1.0
143
1.0
 70
1024
 72
0
 73
0
 74
0
  7

 75
0
147
1.0
148
0.0
149
0.0
100
AcDbLayout
  1
Model
 70
0
 71
0
 10
0.0
 20
0.0
 11
34.0
 21
22.0
 12
0.0
 22
0.0
 32
0.0
 14
0.0
 24
0.0
 34
0.0
 15
0.0
 25
0.0
 35
0.0
146
0.0
 13
0.0
 23
0.0
 33
0.0
 16
1.0
 26
0.0
 36
0.0
 17
0.0
 27
1.0
 37
0.0
 76
0
330
210
345
0
346
0
  0
LAYOUT
  5
606
102
{ACAD_REACTORS
330
1A
102
}
100
AcDbPlotSettings
  1

  2
none_device
  4
ANSI_D_(34.00_x_22.00_Inches)
  6

 40
0.0
 41
0.0
 42
0.0
 43
0.0
 44
863.6
 45
558.8
 46
0.0
 47
0.0
 48
0.0
 49
0.0
140
0.0
141
0.0
142
1.0
143
1.0
 70
0
 72
0
 73
0
 74
0
  7

 75
0
147
1.0
148
0.0
149
0.0
100
AcDbLayout
  1
Layout1
 70
0
 71
1
 10
0.0
 20
0.0
 11
34.0
 21
22.0
 12
0.0
 22
0.0
 32
0.0
 14
0.0
 24
0.0
 34
0.0
 15
0.0
 25
0.0
 35
0.0
146
0.0
 13
0.0
 23
0.0
 33
0.0
 16
1.0
 26
0.0
 36
0.0
 17
0.0
 27
1.0
 37
0.0
 76
0
330
211
345
0
346
0
  0
ENDSEC
  0
EOF
