999
DXF file: rd-000506-01-A.dxf
999
Pro/ENGINEER 2016130 by Parametric Technology Corporation
  0
SECTION
  2
HEADER
  9
$ACADVER
  1
AC1015
  9
$DWGCODEPAGE
  3
ANSI_1252
  9
$EXTMAX
 10
146.6666666667
 20
113.3333333333
 30
0.0
  9
$EXTMIN
 10
0.0
 20
0.0
 30
0.0
  9
$LIMMIN
 10
0.0
 20
0.0
  9
$LIMMAX
 10
146.6666666667
 20
113.3333333333
  9
$VIEWCTR
 10
73.3333333333
 20
56.6666666667
  9
$VIEWSIZE
 40
113.3333333333
  9
$CLAYER
  8
0
  9
$LTSCALE
 40
8.0666666667
  9
$CELTYPE
  6
BYLAYER
  9
$DIMSCALE
 40
1.0
  9
$DIMASZ
 40
1.25
  9
$DIMEXO
 40
0.0625
  9
$DIMDLI
 40
5.5733333333
  9
$DIMEXE
 40
0.125
  9
$DIMCEN
 40
1.32
  9
$DIMLFAC
 40
1.0
  9
$DIMBLK
  1
_FILLED
  9
$DIMALT
 70
0
  9
$DIMALTF
 40
25.4
  9
$DIMTXT
 40
1.0416666667
  9
$DIMTOL
 70
1
  9
$DIMLIM
 70
0
  9
$DIMTFAC
 40
1.0
  9
$DIMTP
 40
0.001
  9
$DIMTM
 40
0.001
  9
$DIMGAP
 40
0.09
  9
$DIMDSEP
 70
46
  9
$AUNITS
 70
0
  9
$PDMODE
 70
3
  9
$PDSIZE
 40
0.3125
  9
$HANDSEED
  5
5A6
  9
$TILEMODE
 70
1
  9
$MEASUREMENT
 70
0
  9
$INSUNITS
 70
1
  0
ENDSEC
  0
SECTION
  2
CLASSES
  0
CLASS
  1
ACDBDICTIONARYWDFLT
  2
AcDbDictionaryWithDefault
  3
AutoCAD 2000
 90
0
280
0
281
0
  0
CLASS
  1
ACDBPLACEHOLDER
  2
AcDbPlaceHolder
  3
AutoCAD 2000
 90
0
280
0
281
0
  0
CLASS
  1
LAYOUT
  2
AcDbLayout
  3
AutoCAD 2000
 90
0
280
0
281
0
  0
ENDSEC
  0
SECTION
  2
TABLES
  0
TABLE
  2
VPORT
  5
8
100
AcDbSymbolTable
 70
2
  0
VPORT
  5
1F4
100
AcDbSymbolTableRecord
100
AcDbViewportTableRecord
  2
*ACTIVE
 70
0
 10
0.0
 20
0.0
 11
1.0
 21
1.0
 12
73.3333333333
 22
56.6666666667
 13
0.0
 23
0.0
 14
1.0
 24
1.0
 15
0.0
 25
0.0
 16
0.0
 26
0.0
 36
1.0
 17
0.0
 27
0.0
 37
0.0
 40
113.3333333333
 41
1.2941176471
 42
50.0
 43
0.0
 44
0.0
 50
0.0
 51
0.0
 71
0
 72
100
 73
1
 74
1
 75
0
 76
0
 77
0
 78
0
  0
ENDTAB
  0
TABLE
  2
LTYPE
  5
5
100
AcDbSymbolTable
 70
6
  0
LTYPE
  5
14
100
AcDbSymbolTableRecord
100
AcDbLinetypeTableRecord
  2
BYBLOCK
 70
0
  3

 72
65
 73
0
 40
0.0
  0
LTYPE
  5
15
100
AcDbSymbolTableRecord
100
AcDbLinetypeTableRecord
  2
BYLAYER
 70
0
  3

 72
65
 73
0
 40
0.0
  0
LTYPE
  5
16
100
AcDbSymbolTableRecord
100
AcDbLinetypeTableRecord
  2
CONTINUOUS
 70
64
  3
Solid line
 72
65
 73
0
 40
0.0
  0
LTYPE
  5
1F5
100
AcDbSymbolTableRecord
100
AcDbLinetypeTableRecord
  2
CENTER
 70
64
  3
____ _ ____ _ ____ _ ____ _ ____ _ ____ _ ____
 72
65
 73
4
 40
0.6
 49
0.375
 74
0
 49
-0.075
 74
0
 49
0.075
 74
0
 49
-0.075
 74
0
  0
LTYPE
  5
1F6
100
AcDbSymbolTableRecord
100
AcDbLinetypeTableRecord
  2
HIDDEN
 70
64
  3
- - - - - - - - - - - - - - - - - - - -
 72
65
 73
2
 40
0.2
 49
0.1
 74
0
 49
-0.1
 74
0
  0
LTYPE
  5
1F7
100
AcDbSymbolTableRecord
100
AcDbLinetypeTableRecord
  2
PHANTOM
 70
64
  3
_____ _ _ _____ _ _ _____ _ _ _____
 72
65
 73
6
 40
0.8
 49
0.45
 74
0
 49
-0.05
 74
0
 49
0.1
 74
0
 49
-0.05
 74
0
 49
0.1
 74
0
 49
-0.05
 74
0
  0
LTYPE
  5
1F8
100
AcDbSymbolTableRecord
100
AcDbLinetypeTableRecord
  2
DOT
 70
64
  3
. . . . . . . . . . . . . . . . . . . .
 72
65
 73
2
 40
0.2
 49
0.1
 74
0
 49
-0.1
 74
0
  0
LTYPE
  5
1F9
100
AcDbSymbolTableRecord
100
AcDbLinetypeTableRecord
  2
DASHED
 70
64
  3
- - - - - - - - - - - - - - - - - - - -
 72
65
 73
2
 40
0.2
 49
0.1
 74
0
 49
-0.1
 74
0
  0
ENDTAB
  0
TABLE
  2
LAYER
  5
2
100
AcDbSymbolTable
 70
36
  0
LAYER
  5
10
100
AcDbSymbolTableRecord
100
AcDbLayerTableRecord
  2
0
 70
0
 62
7
  6
CONTINUOUS
370
-3
390
F
  0
LAYER
  5
1FA
100
AcDbSymbolTableRecord
100
AcDbLayerTableRecord
  2
DEFAULT_1
 70
0
 62
7
  6
CENTER
370
-3
390
F
  0
LAYER
  5
1FB
100
AcDbSymbolTableRecord
100
AcDbLayerTableRecord
  2
DEFAULT_2
 70
0
 62
8
  6
HIDDEN
370
-3
390
F
  0
LAYER
  5
1FC
100
AcDbSymbolTableRecord
100
AcDbLayerTableRecord
  2
DEFAULT_3
 70
0
 62
7
  6
PHANTOM
370
-3
390
F
  0
LAYER
  5
1FD
100
AcDbSymbolTableRecord
100
AcDbLayerTableRecord
  2
01___PRT_ALL_DTM_PLN
 70
0
 62
7
  6
CONTINUOUS
370
-3
390
F
  0
LAYER
  5
1FE
100
AcDbSymbolTableRecord
100
AcDbLayerTableRecord
  2
01___PRT_DEF_DTM_PLN
 70
0
 62
7
  6
CONTINUOUS
370
-3
390
F
  0
LAYER
  5
1FF
100
AcDbSymbolTableRecord
100
AcDbLayerTableRecord
  2
02___PRT_ALL_AXES
 70
0
 62
7
  6
CONTINUOUS
370
-3
390
F
  0
LAYER
  5
200
100
AcDbSymbolTableRecord
100
AcDbLayerTableRecord
  2
03___PRT_ALL_CURVES
 70
0
 62
7
  6
CONTINUOUS
370
-3
390
F
  0
LAYER
  5
201
100
AcDbSymbolTableRecord
100
AcDbLayerTableRecord
  2
04___PRT_ALL_DTM_PNT
 70
0
 62
7
  6
CONTINUOUS
370
-3
390
F
  0
LAYER
  5
202
100
AcDbSymbolTableRecord
100
AcDbLayerTableRecord
  2
05___PRT_ALL_DTM_CSYS
 70
0
 62
7
  6
CONTINUOUS
370
-3
390
F
  0
LAYER
  5
203
100
AcDbSymbolTableRecord
100
AcDbLayerTableRecord
  2
05___PRT_DEF_DTM_CSYS
 70
0
 62
7
  6
CONTINUOUS
370
-3
390
F
  0
LAYER
  5
204
100
AcDbSymbolTableRecord
100
AcDbLayerTableRecord
  2
06___PRT_ALL_SURFS
 70
0
 62
7
  6
CONTINUOUS
370
-3
390
F
  0
LAYER
  5
205
100
AcDbSymbolTableRecord
100
AcDbLayerTableRecord
  2
1_ALL_PLANES
 70
0
 62
7
  6
CONTINUOUS
370
-3
390
F
  0
LAYER
  5
206
100
AcDbSymbolTableRecord
100
AcDbLayerTableRecord
  2
1__DEF_ASM_PLN
 70
0
 62
7
  6
CONTINUOUS
370
-3
390
F
  0
LAYER
  5
207
100
AcDbSymbolTableRecord
100
AcDbLayerTableRecord
  2
1__DEF_PLANES
 70
0
 62
7
  6
CONTINUOUS
370
-3
390
F
  0
LAYER
  5
208
100
AcDbSymbolTableRecord
100
AcDbLayerTableRecord
  2
2_ALL_CSYS
 70
0
 62
7
  6
CONTINUOUS
370
-3
390
F
  0
LAYER
  5
209
100
AcDbSymbolTableRecord
100
AcDbLayerTableRecord
  2
2__DEF_ASM_CSYS
 70
0
 62
7
  6
CONTINUOUS
370
-3
390
F
  0
LAYER
  5
20A
100
AcDbSymbolTableRecord
100
AcDbLayerTableRecord
  2
2__DEF_CSYS
 70
0
 62
7
  6
CONTINUOUS
370
-3
390
F
  0
LAYER
  5
20B
100
AcDbSymbolTableRecord
100
AcDbLayerTableRecord
  2
3_ALL_AXES
 70
0
 62
7
  6
CONTINUOUS
370
-3
390
F
  0
LAYER
  5
20C
100
AcDbSymbolTableRecord
100
AcDbLayerTableRecord
  2
3_AXES_OTHER
 70
0
 62
7
  6
CONTINUOUS
370
-3
390
F
  0
LAYER
  5
20D
100
AcDbSymbolTableRecord
100
AcDbLayerTableRecord
  2
3_HOLES
 70
0
 62
7
  6
CONTINUOUS
370
-3
390
F
  0
LAYER
  5
20E
100
AcDbSymbolTableRecord
100
AcDbLayerTableRecord
  2
4_ALL_POINTS
 70
0
 62
7
  6
CONTINUOUS
370
-3
390
F
  0
LAYER
  5
20F
100
AcDbSymbolTableRecord
100
AcDbLayerTableRecord
  2
5_ALL_CURVES
 70
0
 62
7
  6
CONTINUOUS
370
-3
390
F
  0
LAYER
  5
210
100
AcDbSymbolTableRecord
100
AcDbLayerTableRecord
  2
6_ALL_SURFS
 70
0
 62
7
  6
CONTINUOUS
370
-3
390
F
  0
LAYER
  5
211
100
AcDbSymbolTableRecord
100
AcDbLayerTableRecord
  2
6_COPYGEOM
 70
0
 62
7
  6
CONTINUOUS
370
-3
390
F
  0
LAYER
  5
212
100
AcDbSymbolTableRecord
100
AcDbLayerTableRecord
  2
7_ALL_ROUNDS
 70
0
 62
7
  6
CONTINUOUS
370
-3
390
F
  0
LAYER
  5
213
100
AcDbSymbolTableRecord
100
AcDbLayerTableRecord
  2
7_MERGES
 70
0
 62
7
  6
CONTINUOUS
370
-3
390
F
  0
LAYER
  5
214
100
AcDbSymbolTableRecord
100
AcDbLayerTableRecord
  2
8_GDT
 70
0
 62
7
  6
CONTINUOUS
370
-3
390
F
  0
LAYER
  5
215
100
AcDbSymbolTableRecord
100
AcDbLayerTableRecord
  2
8_SET_DATUMS
 70
0
 62
7
  6
CONTINUOUS
370
-3
390
F
  0
LAYER
  5
216
100
AcDbSymbolTableRecord
100
AcDbLayerTableRecord
  2
9_COSMETICS
 70
0
 62
7
  6
CONTINUOUS
370
-3
390
F
  0
LAYER
  5
217
100
AcDbSymbolTableRecord
100
AcDbLayerTableRecord
  2
9_THREADS
 70
0
 62
7
  6
CONTINUOUS
370
-3
390
F
  0
LAYER
  5
218
100
AcDbSymbolTableRecord
100
AcDbLayerTableRecord
  2
AXES
 70
0
 62
7
  6
CONTINUOUS
370
-3
390
F
  0
LAYER
  5
219
100
AcDbSymbolTableRecord
100
AcDbLayerTableRecord
  2
BASE
 70
0
 62
7
  6
CONTINUOUS
370
-3
390
F
  0
LAYER
  5
21A
100
AcDbSymbolTableRecord
100
AcDbLayerTableRecord
  2
COPY
 70
0
 62
7
  6
CONTINUOUS
370
-3
390
F
  0
LAYER
  5
21B
100
AcDbSymbolTableRecord
100
AcDbLayerTableRecord
  2
COSM
 70
0
 62
7
  6
CONTINUOUS
370
-3
390
F
  0
LAYER
  5
21C
100
AcDbSymbolTableRecord
100
AcDbLayerTableRecord
  2
CRVS
 70
0
 62
7
  6
CONTINUOUS
370
-3
390
F
  0
LAYER
  5
21D
100
AcDbSymbolTableRecord
100
AcDbLayerTableRecord
  2
CSYS
 70
0
 62
7
  6
CONTINUOUS
370
-3
390
F
  0
LAYER
  5
21E
100
AcDbSymbolTableRecord
100
AcDbLayerTableRecord
  2
CTRLS
 70
0
 62
7
  6
CONTINUOUS
370
-3
390
F
  0
LAYER
  5
21F
100
AcDbSymbolTableRecord
100
AcDbLayerTableRecord
  2
DRW_FORMAT
 70
0
 62
7
  6
CONTINUOUS
370
-3
390
F
  0
LAYER
  5
220
100
AcDbSymbolTableRecord
100
AcDbLayerTableRecord
  2
IMPORT
 70
0
 62
7
  6
CONTINUOUS
370
-3
390
F
  0
LAYER
  5
221
100
AcDbSymbolTableRecord
100
AcDbLayerTableRecord
  2
MERGE
 70
0
 62
7
  6
CONTINUOUS
370
-3
390
F
  0
LAYER
  5
222
100
AcDbSymbolTableRecord
100
AcDbLayerTableRecord
  2
NOTES
 70
0
 62
7
  6
CONTINUOUS
370
-3
390
F
  0
LAYER
  5
223
100
AcDbSymbolTableRecord
100
AcDbLayerTableRecord
  2
PAINT_OFFSET_PLANES
 70
0
 62
7
  6
CONTINUOUS
370
-3
390
F
  0
LAYER
  5
224
100
AcDbSymbolTableRecord
100
AcDbLayerTableRecord
  2
PLNS
 70
0
 62
7
  6
CONTINUOUS
370
-3
390
F
  0
LAYER
  5
225
100
AcDbSymbolTableRecord
100
AcDbLayerTableRecord
  2
PNTS
 70
0
 62
7
  6
CONTINUOUS
370
-3
390
F
  0
LAYER
  5
226
100
AcDbSymbolTableRecord
100
AcDbLayerTableRecord
  2
RNDS
 70
0
 62
7
  6
CONTINUOUS
370
-3
390
F
  0
LAYER
  5
227
100
AcDbSymbolTableRecord
100
AcDbLayerTableRecord
  2
SRFS
 70
0
 62
7
  6
CONTINUOUS
370
-3
390
F
  0
LAYER
  5
228
100
AcDbSymbolTableRecord
100
AcDbLayerTableRecord
  2
THDS
 70
0
 62
7
  6
CONTINUOUS
370
-3
390
F
  0
LAYER
  5
229
100
AcDbSymbolTableRecord
100
AcDbLayerTableRecord
  2
XSEC
 70
0
 62
7
  6
CONTINUOUS
370
-3
390
F
  0
ENDTAB
  0
TABLE
  2
STYLE
  5
3
100
AcDbSymbolTable
 70
1
  0
STYLE
  5
11
100
AcDbSymbolTableRecord
100
AcDbTextStyleTableRecord
  2
STANDARD
 70
0
 40
0.0
 41
0.8
 50
0.0
 71
0
 42
0.2
  3
txt
  4

  0
STYLE
  5
22A
100
AcDbSymbolTableRecord
100
AcDbTextStyleTableRecord
  2
TEXTSTYLE_1
 70
0
 40
0.0
 41
0.8
 50
0.0
 71
0
 42
0.2
  3
gdt
  4

  0
STYLE
  5
22B
100
AcDbSymbolTableRecord
100
AcDbTextStyleTableRecord
  2
TEXTSTYLE_2
 70
0
 40
0.0
 41
0.8
 50
0.0
 71
0
 42
0.2
  3
txt
  4

  0
STYLE
  5
22C
100
AcDbSymbolTableRecord
100
AcDbTextStyleTableRecord
  2
TEXTSTYLE_3
 70
0
 40
0.0
 41
0.6
 50
0.0
 71
0
 42
0.2
  3
txt
  4

  0
ENDTAB
  0
TABLE
  2
VIEW
  5
6
100
AcDbSymbolTable
 70
0
  0
ENDTAB
  0
TABLE
  2
UCS
  5
7
100
AcDbSymbolTable
 70
0
  0
ENDTAB
  0
TABLE
  2
APPID
  5
9
100
AcDbSymbolTable
 70
1
  0
APPID
  5
22D
100
AcDbSymbolTableRecord
100
AcDbRegAppTableRecord
  2
ACAD
 70
0
  0
ENDTAB
  0
TABLE
  2
BLOCK_RECORD
  5
1
100
AcDbSymbolTable
 70
0
  0
BLOCK_RECORD
  5
22E
100
AcDbSymbolTableRecord
100
AcDbBlockTableRecord
  2
*Model_Space
  0
BLOCK_RECORD
  5
22F
100
AcDbSymbolTableRecord
100
AcDbBlockTableRecord
  2
*Paper_Space
  0
BLOCK_RECORD
  5
230
100
AcDbSymbolTableRecord
100
AcDbBlockTableRecord
  2
_FILLED
  0
BLOCK_RECORD
  5
231
100
AcDbSymbolTableRecord
100
AcDbBlockTableRecord
  2
*D0
  0
BLOCK_RECORD
  5
232
100
AcDbSymbolTableRecord
100
AcDbBlockTableRecord
  2
*D1
  0
BLOCK_RECORD
  5
233
100
AcDbSymbolTableRecord
100
AcDbBlockTableRecord
  2
*D2
  0
BLOCK_RECORD
  5
234
100
AcDbSymbolTableRecord
100
AcDbBlockTableRecord
  2
*D3
  0
BLOCK_RECORD
  5
235
100
AcDbSymbolTableRecord
100
AcDbBlockTableRecord
  2
*D4
  0
BLOCK_RECORD
  5
236
100
AcDbSymbolTableRecord
100
AcDbBlockTableRecord
  2
*D5
  0
BLOCK_RECORD
  5
237
100
AcDbSymbolTableRecord
100
AcDbBlockTableRecord
  2
*D6
  0
BLOCK_RECORD
  5
238
100
AcDbSymbolTableRecord
100
AcDbBlockTableRecord
  2
*D7
  0
BLOCK_RECORD
  5
239
100
AcDbSymbolTableRecord
100
AcDbBlockTableRecord
  2
RD010411_BL0
  0
ENDTAB
  0
TABLE
  2
DIMSTYLE
  5
A
100
AcDbSymbolTable
 70
1
100
AcDbDimStyleTable
 71
0
  0
DIMSTYLE
105
23A
100
AcDbSymbolTableRecord
100
AcDbDimStyleTableRecord
  2
STANDARD
 70
0
  3

  4

 40
1.0
 41
1.25
 42
0.0625
 43
0.38
 44
0.125
 45
0.0
 46
0.0
 47
0.001
 48
0.001
140
1.0416666667
141
0.09
142
0.0
143
25.4
144
1.0
145
0.0
146
1.0
147
0.09
 71
1.0
 72
0.0
 73
1
 74
1
 75
0
 76
0
 77
0
 78
4
170
0
171
2
172
0
173
0
174
0
175
0
176
0
177
0
178
0
270
2
271
3
272
3
273
2
274
2
275
0
280
0
281
0
282
0
283
1
284
4
285
0
286
0
287
3
288
0
340
11
278
46
341
230
342
230
343
230
344
230
  0
DIMSTYLE
105
23B
100
AcDbSymbolTableRecord
100
AcDbDimStyleTableRecord
  2
DIMSTYLE_1
 70
0
  3

  4

 40
1.0
 41
1.25
 42
0.0625
 43
0.38
 44
0.125
 45
0.0
 46
0.0
 47
0.01
 48
0.01
140
1.0416666667
141
0.09
142
0.0
143
25.4
144
1.0
145
0.0
146
1.0
147
0.078125
 71
0.0
 72
0.0
 73
1
 74
1
 75
0
 76
0
 77
0
 78
4
170
0
171
2
172
0
173
0
174
0
175
0
176
0
177
0
178
0
270
2
271
2
272
2
273
2
274
2
275
0
280
0
281
0
282
0
283
1
284
4
285
0
286
0
287
3
288
0
340
11
278
46
341
230
342
230
343
230
344
230
  0
ENDTAB
  0
ENDSEC
  0
SECTION
  2
BLOCKS
  0
BLOCK
  5
20
100
AcDbEntity
  8
0
100
AcDbBlockBegin
  2
*Model_Space
 70
0
 10
0.0
 20
0.0
 30
0.0
  3
*Model_Space
  1

  0
ENDBLK
  5
21
100
AcDbEntity
  8
0
100
AcDbBlockEnd
  0
BLOCK
  5
1C
100
AcDbEntity
  8
0
100
AcDbBlockBegin
  2
*Paper_Space
 70
0
 10
0.0
 20
0.0
 30
0.0
  3
*Paper_Space
  1

  0
ENDBLK
  5
1D
100
AcDbEntity
  8
0
100
AcDbBlockEnd
  0
BLOCK
  5
23C
100
AcDbEntity
  8
DRW_FORMAT
100
AcDbBlockBegin
 62
7
  6
CONTINUOUS
  2
RD010411_BL0
 70
64
 10
115.3659866676
 20
16.8017381171
  3
RD010411_BL0
  1

  0
ARC
  5
23D
100
AcDbEntity
  8
DRW_FORMAT
100
AcDbCircle
 62
7
  6
CONTINUOUS
 10
119.7137304652
 20
17.470917834
 40
0.0824767551
100
AcDbArc
 50
270.0
 51
360.0
  0
LINE
  5
23E
100
AcDbEntity
  8
DRW_FORMAT
100
AcDbLine
 62
7
  6
CONTINUOUS
 10
119.7962072203
 20
17.470917834
 11
119.7962072203
 21
17.6359280286
  0
ARC
  5
23F
100
AcDbEntity
  8
DRW_FORMAT
100
AcDbCircle
 62
7
  6
CONTINUOUS
 10
119.7137304652
 20
17.6359280286
 40
0.0824767551
100
AcDbArc
 50
0.0
 51
90.0
  0
LINE
  5
240
100
AcDbEntity
  8
DRW_FORMAT
100
AcDbLine
 62
7
  6
CONTINUOUS
 10
119.7137304652
 20
17.7184047838
 11
117.4964415837
 21
17.7184047838
  0
SPLINE
  5
241
100
AcDbEntity
  8
DRW_FORMAT
100
AcDbSpline
 62
7
  6
CONTINUOUS
 70
0
 71
3
 72
13
 73
9
 74
0
 42
0.0000001
 43
0.0000001
 44
0.0000000001
 40
0.0
 40
0.0
 40
0.0
 40
0.0
 40
0.1310616762
 40
0.2699656353
 40
0.4157607805
 40
0.5899807757
 40
0.76586761
 40
0.9948829976
 40
0.9948829976
 40
0.9948829976
 40
0.9948829976
 10
117.4964415837
 20
17.7184047838
 30
0.0
 10
117.4498321536
 20
17.7149332826
 30
0.0
 10
117.3538243458
 20
17.7077825581
 30
0.0
 10
117.2237146469
 20
17.6271591723
 30
0.0
 10
117.1303114093
 20
17.4918070288
 30
0.0
 10
117.0695757984
 20
17.3263011514
 30
0.0
 10
117.0353657942
 20
17.1239841662
 30
0.0
 10
117.0322159778
 20
16.9810234316
 30
0.0
 10
117.0305835014
 20
16.9001532691
 30
0.0
  0
LINE
  5
242
100
AcDbEntity
  8
DRW_FORMAT
100
AcDbLine
 62
7
  6
CONTINUOUS
 10
117.0305835014
 20
16.9001532691
 11
117.030728257
 21
16.8876037431
  0
SPLINE
  5
243
100
AcDbEntity
  8
DRW_FORMAT
100
AcDbSpline
 62
7
  6
CONTINUOUS
 70
0
 71
3
 72
13
 73
9
 74
0
 42
0.0000001
 43
0.0000001
 44
0.0000000001
 40
0.0
 40
0.0
 40
0.0
 40
0.0
 40
0.2222860645
 40
0.3981728988
 40
0.572392894
 40
0.7181880393
 40
0.8570919984
 40
0.9881536746
 40
0.9881536746
 40
0.9881536746
 40
0.9881536746
 10
117.030728257
 20
16.8876037431
 30
0.0
 10
117.0323285598
 20
16.8091108855
 30
0.0
 10
117.0357626064
 20
16.6685522192
 30
0.0
 10
117.0695757705
 20
16.4685804542
 30
0.0
 10
117.1303121085
 20
16.3030930871
 30
0.0
 10
117.2237124327
 20
16.1676835004
 30
0.0
 10
117.3538320618
 20
16.0872528388
 30
0.0
 10
117.4498164628
 20
16.0796483107
 30
0.0
 10
117.4964415837
 20
16.0761756421
 30
0.0
  0
LINE
  5
244
100
AcDbEntity
  8
DRW_FORMAT
100
AcDbLine
 62
7
  6
CONTINUOUS
 10
117.4964415837
 20
16.0761756421
 11
119.7139104789
 21
16.0810154936
  0
ARC
  5
245
100
AcDbEntity
  8
DRW_FORMAT
100
AcDbCircle
 62
7
  6
CONTINUOUS
 10
119.7137304652
 20
16.163492052
 40
0.0824767549
100
AcDbArc
 50
270.125053868
 51
360.0
  0
LINE
  5
246
100
AcDbEntity
  8
DRW_FORMAT
100
AcDbLine
 62
7
  6
CONTINUOUS
 10
119.7962072203
 20
16.163492052
 11
119.7962072203
 21
16.3220599137
  0
ARC
  5
247
100
AcDbEntity
  8
DRW_FORMAT
100
AcDbCircle
 62
7
  6
CONTINUOUS
 10
119.7137304652
 20
16.3220599137
 40
0.0824767551
100
AcDbArc
 50
0.0
 51
90.0
  0
LINE
  5
248
100
AcDbEntity
  8
DRW_FORMAT
100
AcDbLine
 62
7
  6
CONTINUOUS
 10
119.7137304652
 20
16.4045366689
 11
117.8132108439
 21
16.4045366689
  0
LINE
  5
249
100
AcDbEntity
  8
DRW_FORMAT
100
AcDbLine
 62
7
  6
CONTINUOUS
 10
117.7307340887
 20
16.487013424
 11
117.7307340887
 21
17.3059643237
  0
ARC
  5
24A
100
AcDbEntity
  8
DRW_FORMAT
100
AcDbCircle
 62
7
  6
CONTINUOUS
 10
117.8132108446
 20
17.3059643237
 40
0.0824767551
100
AcDbArc
 50
90.0
 51
180.0
  0
LINE
  5
24B
100
AcDbEntity
  8
DRW_FORMAT
100
AcDbLine
 62
7
  6
CONTINUOUS
 10
117.8132108439
 20
17.3884410789
 11
119.7137304652
 21
17.3884410789
  0
LINE
  5
24C
100
AcDbEntity
  8
DRW_FORMAT
100
AcDbLine
 62
7
  6
CONTINUOUS
 10
114.4244155623
 20
16.7307543531
 11
116.0084951237
 21
16.7307543531
  0
ARC
  5
24D
100
AcDbEntity
  8
DRW_FORMAT
100
AcDbCircle
 62
7
  6
CONTINUOUS
 10
116.0084951235
 20
16.6482775982
 40
0.0824767551
100
AcDbArc
 50
0.0
 51
90.0
  0
LINE
  5
24E
100
AcDbEntity
  8
DRW_FORMAT
100
AcDbLine
 62
7
  6
CONTINUOUS
 10
116.0909718789
 20
16.648277598
 11
116.0909718789
 21
16.4798685832
  0
LINE
  5
24F
100
AcDbEntity
  8
DRW_FORMAT
100
AcDbLine
 62
7
  6
CONTINUOUS
 10
116.0084951237
 20
16.3973918281
 11
114.1619608579
 21
16.3973918281
  0
ARC
  5
250
100
AcDbEntity
  8
DRW_FORMAT
100
AcDbCircle
 62
7
  6
CONTINUOUS
 10
114.1619608579
 20
16.314915073
 40
0.0824767551
100
AcDbArc
 50
90.0
 51
180.0
  0
LINE
  5
251
100
AcDbEntity
  8
DRW_FORMAT
100
AcDbLine
 62
7
  6
CONTINUOUS
 10
114.0794841027
 20
16.314915073
 11
114.0794841027
 21
16.1586515649
  0
ARC
  5
252
100
AcDbEntity
  8
DRW_FORMAT
100
AcDbCircle
 62
7
  6
CONTINUOUS
 10
114.1619608579
 20
16.1586515649
 40
0.0824767551
100
AcDbArc
 50
180.0
 51
270.0
  0
LINE
  5
253
100
AcDbEntity
  8
DRW_FORMAT
100
AcDbLine
 62
7
  6
CONTINUOUS
 10
114.1619608579
 20
16.0761748097
 11
116.4543389716
 21
16.0761748097
  0
SPLINE
  5
254
100
AcDbEntity
  8
DRW_FORMAT
100
AcDbSpline
 62
7
  6
CONTINUOUS
 70
0
 71
3
 72
13
 73
9
 74
0
 42
0.0000001
 43
0.0000001
 44
0.0000000001
 40
0.0
 40
0.0
 40
0.0
 40
0.0
 40
0.1604571392
 40
0.3334692485
 40
0.4767982758
 40
0.6242014838
 40
0.7505998515
 40
1.0
 40
1.0
 40
1.0
 40
1.0
 10
116.4543389716
 20
16.0761748097
 30
0.0
 10
116.4929887527
 20
16.0780357277
 30
0.0
 10
116.5733124661
 20
16.0819031693
 30
0.0
 10
116.6813251083
 20
16.1287973054
 30
0.0
 10
116.7627161927
 20
16.2076224339
 30
0.0
 10
116.8085832698
 20
16.2979923985
 30
0.0
 10
116.8437488737
 20
16.4192246319
 30
0.0
 10
116.8451758954
 20
16.5099490841
 30
0.0
 10
116.846122943
 20
16.5701587192
 30
0.0
  0
SPLINE
  5
255
100
AcDbEntity
  8
DRW_FORMAT
100
AcDbSpline
 62
7
  6
CONTINUOUS
 70
0
 71
3
 72
13
 73
9
 74
0
 42
0.0000001
 43
0.0000001
 44
0.0000000001
 40
0.0
 40
0.0
 40
0.0
 40
0.0
 40
0.2494001485
 40
0.3757985162
 40
0.5232017242
 40
0.6665307515
 40
0.8395428608
 40
1.0
 40
1.0
 40
1.0
 40
1.0
 10
116.846122943
 20
16.5701587192
 30
0.0
 10
116.8451758954
 20
16.6303683556
 30
0.0
 10
116.8437488737
 20
16.7210928065
 30
0.0
 10
116.8085832698
 20
16.8423250412
 30
0.0
 10
116.7627161927
 20
16.9326950058
 30
0.0
 10
116.6813251083
 20
17.0115201331
 30
0.0
 10
116.5733124661
 20
17.0584142691
 30
0.0
 10
116.4929887527
 20
17.062281712
 30
0.0
 10
116.4543389716
 20
17.0641426287
 30
0.0
  0
LINE
  5
256
100
AcDbEntity
  8
DRW_FORMAT
100
AcDbLine
 62
7
  6
CONTINUOUS
 10
116.4543389716
 20
17.0641426287
 11
114.8913741421
 21
17.0641426287
  0
LINE
  5
257
100
AcDbEntity
  8
DRW_FORMAT
100
AcDbLine
 62
7
  6
CONTINUOUS
 10
114.808897387
 20
17.1466193838
 11
114.808897387
 21
17.3026736788
  0
ARC
  5
258
100
AcDbEntity
  8
DRW_FORMAT
100
AcDbCircle
 62
7
  6
CONTINUOUS
 10
114.8913741414
 20
17.3026736788
 40
0.0824767551
100
AcDbArc
 50
90.0
 51
180.0
  0
LINE
  5
259
100
AcDbEntity
  8
DRW_FORMAT
100
AcDbLine
 62
7
  6
CONTINUOUS
 10
114.8913741421
 20
17.385150434
 11
116.7404148067
 21
17.385150434
  0
ARC
  5
25A
100
AcDbEntity
  8
DRW_FORMAT
100
AcDbCircle
 62
7
  6
CONTINUOUS
 10
116.7404148067
 20
17.4676271891
 40
0.0824767551
100
AcDbArc
 50
270.0
 51
360.0
  0
LINE
  5
25B
100
AcDbEntity
  8
DRW_FORMAT
100
AcDbLine
 62
7
  6
CONTINUOUS
 10
116.8228915619
 20
17.4676271891
 11
116.8228915619
 21
17.6359280286
  0
ARC
  5
25C
100
AcDbEntity
  8
DRW_FORMAT
100
AcDbCircle
 62
7
  6
CONTINUOUS
 10
116.7404148067
 20
17.6359280286
 40
0.0824767551
100
AcDbArc
 50
0.0
 51
90.0
  0
LINE
  5
25D
100
AcDbEntity
  8
DRW_FORMAT
100
AcDbLine
 62
7
  6
CONTINUOUS
 10
116.7404148067
 20
17.7184047838
 11
114.4244155623
 21
17.7184047838
  0
SPLINE
  5
25E
100
AcDbEntity
  8
DRW_FORMAT
100
AcDbSpline
 62
7
  6
CONTINUOUS
 70
0
 71
3
 72
13
 73
9
 74
0
 42
0.0000001
 43
0.0000001
 44
0.0000000001
 40
0.0
 40
0.0
 40
0.0
 40
0.0
 40
0.1133740464
 40
0.2392044088
 40
0.3655787964
 40
0.4912154373
 40
0.7445390876
 40
1.0
 40
1.0
 40
1.0
 40
1.0
 10
114.4244155623
 20
17.7184047838
 30
0.0
 10
114.3979580546
 20
17.7171016282
 30
0.0
 10
114.3421361753
 20
17.7143521387
 30
0.0
 10
114.2592182951
 20
17.6895787531
 30
0.0
 10
114.1850401709
 20
17.6395535723
 30
0.0
 10
114.1092665555
 20
17.5474052807
 30
0.0
 10
114.0615849897
 20
17.4027447231
 30
0.0
 10
114.0564139167
 20
17.2841340374
 30
0.0
 10
114.0538175205
 20
17.2245795684
 30
0.0
  0
SPLINE
  5
25F
100
AcDbEntity
  8
DRW_FORMAT
100
AcDbSpline
 62
7
  6
CONTINUOUS
 70
0
 71
3
 72
13
 73
9
 74
0
 42
0.0000001
 43
0.0000001
 44
0.0000000001
 40
0.0
 40
0.0
 40
0.0
 40
0.0
 40
0.2554609124
 40
0.5087845627
 40
0.6344212036
 40
0.7607955912
 40
0.8866259536
 40
1.0
 40
1.0
 40
1.0
 40
1.0
 10
114.0538175205
 20
17.2245795684
 30
0.0
 10
114.0564139167
 20
17.1650250995
 30
0.0
 10
114.0615849897
 20
17.0464144126
 30
0.0
 10
114.1092665555
 20
16.9017538562
 30
0.0
 10
114.1850401709
 20
16.8096055646
 30
0.0
 10
114.2592182951
 20
16.7595803838
 30
0.0
 10
114.3421361753
 20
16.7348069982
 30
0.0
 10
114.3979580546
 20
16.7320575087
 30
0.0
 10
114.4244155623
 20
16.7307543531
 30
0.0
  0
LINE
  5
260
100
AcDbEntity
  8
DRW_FORMAT
100
AcDbLine
 62
7
  6
CONTINUOUS
 10
111.3769900475
 20
16.0761748097
 11
112.6585066933
 21
16.0761748097
  0
LINE
  5
261
100
AcDbEntity
  8
DRW_FORMAT
100
AcDbLine
 62
7
  6
CONTINUOUS
 10
112.6585066933
 20
16.0761748097
 11
112.6585066933
 21
15.9167932793
  0
ARC
  5
262
100
AcDbEntity
  8
DRW_FORMAT
100
AcDbCircle
 62
7
  6
CONTINUOUS
 10
112.6902285222
 20
15.9167932793
 40
0.0317218289
100
AcDbArc
 50
180.0
 51
270.0
  0
LINE
  5
263
100
AcDbEntity
  8
DRW_FORMAT
100
AcDbLine
 62
7
  6
CONTINUOUS
 10
112.6902285222
 20
15.8850714504
 11
113.1841696618
 21
15.8850714504
  0
ARC
  5
264
100
AcDbEntity
  8
DRW_FORMAT
100
AcDbCircle
 62
7
  6
CONTINUOUS
 10
113.1841696618
 20
15.9167932793
 40
0.0317218289
100
AcDbArc
 50
270.0
 51
360.0
  0
LINE
  5
265
100
AcDbEntity
  8
DRW_FORMAT
100
AcDbLine
 62
7
  6
CONTINUOUS
 10
113.2158914907
 20
15.9167932793
 11
113.2158914907
 21
16.0761748097
  0
LINE
  5
266
100
AcDbEntity
  8
DRW_FORMAT
100
AcDbLine
 62
7
  6
CONTINUOUS
 10
113.2158914907
 20
16.0761748097
 11
113.4678856263
 21
16.0761748097
  0
SPLINE
  5
267
100
AcDbEntity
  8
DRW_FORMAT
100
AcDbSpline
 62
7
  6
CONTINUOUS
 70
0
 71
3
 72
12
 73
8
 74
0
 42
0.0000001
 43
0.0000001
 44
0.0000000001
 40
0.0
 40
0.0
 40
0.0
 40
0.0
 40
0.2415790084
 40
0.4893269843
 40
0.7378634303
 40
0.8656387112
 40
1.0
 40
1.0
 40
1.0
 40
1.0
 10
113.4678856263
 20
16.0761748097
 30
0.0
 10
113.5130706575
 20
16.0775795614
 30
0.0
 10
113.604594567
 20
16.0804249372
 30
0.0
 10
113.7385302586
 20
16.1281899668
 30
0.0
 10
113.8198720409
 20
16.2183577022
 30
0.0
 10
113.8557085298
 20
16.3084519496
 30
0.0
 10
113.8563543558
 20
16.3578053876
 30
0.0
 10
113.856685382
 20
16.383102092
 30
0.0
  0
LINE
  5
268
100
AcDbEntity
  8
DRW_FORMAT
100
AcDbLine
 62
7
  6
CONTINUOUS
 10
113.856685382
 20
16.383102092
 11
113.856685382
 21
17.4095513622
  0
SPLINE
  5
269
100
AcDbEntity
  8
DRW_FORMAT
100
AcDbSpline
 62
7
  6
CONTINUOUS
 70
0
 71
3
 72
12
 73
8
 74
0
 42
0.0000001
 43
0.0000001
 44
0.0000000001
 40
0.0
 40
0.0
 40
0.0
 40
0.0
 40
0.1343612888
 40
0.2621365697
 40
0.5106730157
 40
0.7584209916
 40
1.0
 40
1.0
 40
1.0
 40
1.0
 10
113.856685382
 20
17.4095513622
 30
0.0
 10
113.8563543558
 20
17.4348480678
 30
0.0
 10
113.8557085298
 20
17.4842015059
 30
0.0
 10
113.8198720409
 20
17.5742957532
 30
0.0
 10
113.7385302586
 20
17.6644634886
 30
0.0
 10
113.604594567
 20
17.712228517
 30
0.0
 10
113.5130706575
 20
17.7150738928
 30
0.0
 10
113.4678856263
 20
17.7164786445
 30
0.0
  0
LINE
  5
26A
100
AcDbEntity
  8
DRW_FORMAT
100
AcDbLine
 62
7
  6
CONTINUOUS
 10
113.4678856263
 20
17.7164786445
 11
111.3769900475
 21
17.7164786445
  0
SPLINE
  5
26B
100
AcDbEntity
  8
DRW_FORMAT
100
AcDbSpline
 62
7
  6
CONTINUOUS
 70
0
 71
3
 72
12
 73
8
 74
0
 42
0.0000001
 43
0.0000001
 44
0.0000000001
 40
0.0
 40
0.0
 40
0.0
 40
0.0
 40
0.1341799809
 40
0.290831959
 40
0.5815217441
 40
0.760783857
 40
1.0
 40
1.0
 40
1.0
 40
1.0
 10
111.3769900475
 20
17.7164786445
 30
0.0
 10
111.3313839028
 20
17.7086841216
 30
0.0
 10
111.2325336554
 20
17.6917896745
 30
0.0
 10
111.0661351283
 20
17.5674737214
 30
0.0
 10
110.9873203411
 20
17.3583246143
 30
0.0
 10
110.9412065138
 20
17.1212348252
 30
0.0
 10
110.9377448933
 20
16.9778321142
 30
0.0
 10
110.9357661148
 20
16.8958583365
 30
0.0
  0
SPLINE
  5
26C
100
AcDbEntity
  8
DRW_FORMAT
100
AcDbSpline
 62
7
  6
CONTINUOUS
 70
0
 71
3
 72
12
 73
8
 74
0
 42
0.0000001
 43
0.0000001
 44
0.0000000001
 40
0.0
 40
0.0
 40
0.0
 40
0.0
 40
0.2392679579
 40
0.4185688994
 40
0.7093216488
 40
0.8660075581
 40
1.0
 40
1.0
 40
1.0
 40
1.0
 10
110.9357661148
 20
16.8958583365
 30
0.0
 10
110.9377456838
 20
16.8138877539
 30
0.0
 10
110.9412086861
 20
16.6704906323
 30
0.0
 10
110.9873125629
 20
16.4333606097
 30
0.0
 10
111.0661755038
 20
16.2244062175
 30
0.0
 10
111.2324007866
 20
16.0996865852
 30
0.0
 10
111.3313691369
 20
16.0835932627
 30
0.0
 10
111.3769900475
 20
16.0761748097
 30
0.0
  0
LINE
  5
26D
100
AcDbEntity
  8
DRW_FORMAT
100
AcDbLine
 62
7
  6
CONTINUOUS
 10
113.4343256862
 20
16.4984834054
 11
113.4343256862
 21
17.3209033942
  0
ARC
  5
26E
100
AcDbEntity
  8
DRW_FORMAT
100
AcDbCircle
 62
7
  6
CONTINUOUS
 10
111.7039927735
 20
16.4984834054
 40
0.0824767551
100
AcDbArc
 50
180.0
 51
270.0
  0
LINE
  5
26F
100
AcDbEntity
  8
DRW_FORMAT
100
AcDbLine
 62
7
  6
CONTINUOUS
 10
111.7039927735
 20
16.4160066503
 11
112.6512920607
 21
16.4160066503
  0
LINE
  5
270
100
AcDbEntity
  8
DRW_FORMAT
100
AcDbLine
 62
7
  6
CONTINUOUS
 10
112.6512920607
 20
16.4160066503
 11
112.6512920607
 21
16.5748943467
  0
ARC
  5
271
100
AcDbEntity
  8
DRW_FORMAT
100
AcDbCircle
 62
7
  6
CONTINUOUS
 10
112.6830138902
 20
16.5748943467
 40
0.0317218289
100
AcDbArc
 50
90.0
 51
180.0
  0
LINE
  5
272
100
AcDbEntity
  8
DRW_FORMAT
100
AcDbLine
 62
7
  6
CONTINUOUS
 10
112.6830138896
 20
16.6066161756
 11
113.1744377942
 21
16.6066161756
  0
ARC
  5
273
100
AcDbEntity
  8
DRW_FORMAT
100
AcDbCircle
 62
7
  6
CONTINUOUS
 10
113.174437793
 20
16.5748943479
 40
0.0317218289
100
AcDbArc
 50
0.0
 51
90.0
  0
LINE
  5
274
100
AcDbEntity
  8
DRW_FORMAT
100
AcDbLine
 62
7
  6
CONTINUOUS
 10
113.2061596231
 20
16.4160066503
 11
113.3518489311
 21
16.4160066503
  0
ARC
  5
275
100
AcDbEntity
  8
DRW_FORMAT
100
AcDbCircle
 62
7
  6
CONTINUOUS
 10
113.3518489311
 20
16.4984834054
 40
0.0824767551
100
AcDbArc
 50
270.0
 51
360.0
  0
LINE
  5
276
100
AcDbEntity
  8
DRW_FORMAT
100
AcDbLine
 62
7
  6
CONTINUOUS
 10
113.2061596231
 20
16.4160066503
 11
113.2061596231
 21
16.5748943467
  0
LINE
  5
277
100
AcDbEntity
  8
DRW_FORMAT
100
AcDbLine
 62
7
  6
CONTINUOUS
 10
111.6215160184
 20
16.4984834054
 11
111.6215160184
 21
17.3209033942
  0
ARC
  5
278
100
AcDbEntity
  8
DRW_FORMAT
100
AcDbCircle
 62
7
  6
CONTINUOUS
 10
111.7039927746
 20
17.3209033942
 40
0.0824767551
100
AcDbArc
 50
90.0
 51
180.0
  0
LINE
  5
279
100
AcDbEntity
  8
DRW_FORMAT
100
AcDbLine
 62
7
  6
CONTINUOUS
 10
111.7039927735
 20
17.4033801494
 11
113.3518489311
 21
17.4033801494
  0
ARC
  5
27A
100
AcDbEntity
  8
DRW_FORMAT
100
AcDbCircle
 62
7
  6
CONTINUOUS
 10
113.3518489318
 20
17.3209033935
 40
0.0824767551
100
AcDbArc
 50
0.0000000277
 51
90.0000000277
  0
ARC
  5
27B
100
AcDbEntity
  8
DRW_FORMAT
100
AcDbCircle
 62
7
  6
CONTINUOUS
 10
114.8913741421
 20
17.1466193838
 40
0.0824767551
100
AcDbArc
 50
180.0
 51
270.0
  0
ARC
  5
27C
100
AcDbEntity
  8
DRW_FORMAT
100
AcDbCircle
 62
7
  6
CONTINUOUS
 10
116.0084951237
 20
16.4798685832
 40
0.0824767551
100
AcDbArc
 50
270.0
 51
360.0
  0
ARC
  5
27D
100
AcDbEntity
  8
DRW_FORMAT
100
AcDbCircle
 62
7
  6
CONTINUOUS
 10
117.8132108439
 20
16.487013424
 40
0.0824767551
100
AcDbArc
 50
180.0
 51
270.0
  0
ENDBLK
  5
27E
100
AcDbEntity
  8
0
  6
BYBLOCK
 62
0
100
AcDbBlockEnd
  0
BLOCK
  5
27F
100
AcDbEntity
  8
0
100
AcDbBlockBegin
  2
_FILLED
 70
64
 10
0.0
 20
0.0
  3
_FILLED
  1

  0
SOLID
  5
280
100
AcDbEntity
  8
0
  6
BYBLOCK
 62
0
100
AcDbTrace
 10
0.0
 20
0.0
 11
-1.0
 21
0.1666666667
 12
-1.0
 22
-0.1666666667
 13
-1.0
 23
-0.1666666667
  0
ENDBLK
  5
281
100
AcDbEntity
  8
0
  6
BYBLOCK
 62
0
100
AcDbBlockEnd
  0
BLOCK
  5
282
100
AcDbEntity
  8
0
100
AcDbBlockBegin
 62
2
  6
CONTINUOUS
  2
*D0
 70
65
 10
0.0
 20
0.0
  3
*D0
  1

  0
MTEXT
  5
283
100
AcDbEntity
  8
0
100
AcDbMText
 62
2
  6
CONTINUOUS
  7
STANDARD
 71
1
 72
1
 10
54.0772679594
 20
27.736162849
 30
0.0
 11
1.0
 21
0.0
 31
0.0
 44
0.9
  1
.75\P[19,1]
 40
1.0416666667
 41
5.2455357143
  0
LINE
  5
284
100
AcDbEntity
  8
0
100
AcDbLine
 62
2
  6
CONTINUOUS
 10
49.7903464903
 20
30.732747666
 11
53.2439346261
 21
30.732747666
  0
LINE
  5
285
100
AcDbEntity
  8
0
100
AcDbLine
 62
2
  6
CONTINUOUS
 10
48.8753464903
 20
29.982747666
 11
53.2439346261
 21
29.982747666
  0
LINE
  5
286
100
AcDbEntity
  8
0
100
AcDbLine
 62
2
  6
CONTINUOUS
 10
52.4106012927
 20
30.732747666
 11
52.4106012927
 21
34.0660809993
  0
LINE
  5
287
100
AcDbEntity
  8
0
100
AcDbLine
 62
2
  6
CONTINUOUS
 10
52.4106012927
 20
29.982747666
 11
52.4106012927
 21
27.2153295157
  0
LINE
  5
288
100
AcDbEntity
  8
0
100
AcDbLine
 62
2
  6
CONTINUOUS
 10
52.4106012927
 20
27.2153295157
 11
53.5564346261
 21
27.2153295157
  0
INSERT
  5
289
100
AcDbEntity
  8
0
100
AcDbBlockReference
 62
2
  6
CONTINUOUS
  2
_FILLED
 10
52.4106012927
 20
30.732747666
 41
1.25
 42
1.25
 43
1.25
 50
270.0
  0
INSERT
  5
28A
100
AcDbEntity
  8
0
100
AcDbBlockReference
 62
2
  6
CONTINUOUS
  2
_FILLED
 10
52.4106012927
 20
29.982747666
 41
1.25
 42
1.25
 43
1.25
 50
90.0
  0
ENDBLK
  5
28B
100
AcDbEntity
  8
0
  6
BYBLOCK
 62
0
100
AcDbBlockEnd
  0
BLOCK
  5
28C
100
AcDbEntity
  8
0
100
AcDbBlockBegin
 62
2
  6
CONTINUOUS
  2
*D1
 70
65
 10
0.0
 20
0.0
  3
*D1
  1

  0
MTEXT
  5
28D
100
AcDbEntity
  8
0
100
AcDbMText
 62
2
  6
CONTINUOUS
  7
STANDARD
 71
2
 72
1
 10
60.1292545085
 20
48.3706544676
 30
0.0
 11
1.0
 21
0.0
 31
0.0
 44
0.9
  1
35.75\P[907,9]
 40
1.0416666667
 41
7.1428571429
  0
LINE
  5
28E
100
AcDbEntity
  8
0
100
AcDbLine
 62
2
  6
CONTINUOUS
 10
48.8653752708
 20
65.722747666
 11
61.5206235562
 21
65.722747666
  0
LINE
  5
28F
100
AcDbEntity
  8
0
100
AcDbLine
 62
2
  6
CONTINUOUS
 10
48.8653752708
 20
29.9768946025
 11
61.5206235562
 21
29.9768946025
  0
LINE
  5
290
100
AcDbEntity
  8
0
100
AcDbLine
 62
2
  6
CONTINUOUS
 10
60.6872902228
 20
65.722747666
 11
60.6872902228
 21
48.8914878009
  0
LINE
  5
291
100
AcDbEntity
  8
0
100
AcDbLine
 62
2
  6
CONTINUOUS
 10
60.6872902228
 20
29.9768946025
 11
60.6872902228
 21
45.2456544676
  0
INSERT
  5
292
100
AcDbEntity
  8
0
100
AcDbBlockReference
 62
2
  6
CONTINUOUS
  2
_FILLED
 10
60.6872902228
 20
65.722747666
 41
1.25
 42
1.25
 43
1.25
 50
90.0
  0
INSERT
  5
293
100
AcDbEntity
  8
0
100
AcDbBlockReference
 62
2
  6
CONTINUOUS
  2
_FILLED
 10
60.6872902228
 20
29.9768946025
 41
1.25
 42
1.25
 43
1.25
 50
270.0
  0
ENDBLK
  5
294
100
AcDbEntity
  8
0
  6
BYBLOCK
 62
0
100
AcDbBlockEnd
  0
BLOCK
  5
295
100
AcDbEntity
  8
0
100
AcDbBlockBegin
 62
2
  6
CONTINUOUS
  2
*D2
 70
65
 10
0.0
 20
0.0
  3
*D2
  1

  0
MTEXT
  5
296
100
AcDbEntity
  8
0
100
AcDbMText
 62
2
  6
CONTINUOUS
  7
STANDARD
 71
2
 72
1
 10
57.449620819
 20
94.5415015948
 30
0.0
 11
1.0
 21
0.0
 31
0.0
 44
0.9
  1
20.25\P[514,4]
 40
1.0416666667
 41
6.6964285714
  0
LINE
  5
297
100
AcDbEntity
  8
0
100
AcDbLine
 62
2
  6
CONTINUOUS
 10
50.2694617843
 20
83.8956682614
 11
58.6177755809
 21
83.8956682614
  0
LINE
  5
298
100
AcDbEntity
  8
0
100
AcDbLine
 62
2
  6
CONTINUOUS
 10
50.2694617843
 20
104.1456682614
 11
58.6177755809
 21
104.1456682614
  0
LINE
  5
299
100
AcDbEntity
  8
0
100
AcDbLine
 62
2
  6
CONTINUOUS
 10
57.7844422476
 20
83.8956682614
 11
57.7844422476
 21
91.4165015948
  0
LINE
  5
29A
100
AcDbEntity
  8
0
100
AcDbLine
 62
2
  6
CONTINUOUS
 10
57.7844422476
 20
104.1456682614
 11
57.7844422476
 21
95.0623349281
  0
INSERT
  5
29B
100
AcDbEntity
  8
0
100
AcDbBlockReference
 62
2
  6
CONTINUOUS
  2
_FILLED
 10
57.7844422476
 20
83.8956682614
 41
1.25
 42
1.25
 43
1.25
 50
270.0
  0
INSERT
  5
29C
100
AcDbEntity
  8
0
100
AcDbBlockReference
 62
2
  6
CONTINUOUS
  2
_FILLED
 10
57.7844422476
 20
104.1456682614
 41
1.25
 42
1.25
 43
1.25
 50
90.0
  0
ENDBLK
  5
29D
100
AcDbEntity
  8
0
  6
BYBLOCK
 62
0
100
AcDbBlockEnd
  0
BLOCK
  5
29E
100
AcDbEntity
  8
0
100
AcDbBlockBegin
 62
2
  6
CONTINUOUS
  2
*D3
 70
65
 10
0.0
 20
0.0
  3
*D3
  1

  0
MTEXT
  5
29F
100
AcDbEntity
  8
0
100
AcDbMText
 62
2
  6
CONTINUOUS
  7
STANDARD
 71
2
 72
1
 10
113.6131808523
 20
39.9548000832
 30
0.0
 11
1.0
 21
0.0
 31
0.0
 44
0.9
  1
18.90\P[480,1]
 40
1.0416666667
 41
6.8080357143
  0
LINE
  5
2A0
100
AcDbEntity
  8
0
100
AcDbLine
 62
2
  6
CONTINUOUS
 10
105.2903771388
 20
48.8851858338
 11
114.892942757
 21
48.8851858338
  0
LINE
  5
2A1
100
AcDbEntity
  8
0
100
AcDbLine
 62
2
  6
CONTINUOUS
 10
107.4601725352
 20
29.982747666
 11
114.892942757
 21
29.982747666
  0
LINE
  5
2A2
100
AcDbEntity
  8
0
100
AcDbLine
 62
2
  6
CONTINUOUS
 10
114.0596094237
 20
48.8851858338
 11
114.0596094237
 21
40.4756334166
  0
LINE
  5
2A3
100
AcDbEntity
  8
0
100
AcDbLine
 62
2
  6
CONTINUOUS
 10
114.0596094237
 20
29.982747666
 11
114.0596094237
 21
36.8298000832
  0
INSERT
  5
2A4
100
AcDbEntity
  8
0
100
AcDbBlockReference
 62
2
  6
CONTINUOUS
  2
_FILLED
 10
114.0596094237
 20
48.8851858338
 41
1.25
 42
1.25
 43
1.25
 50
90.0
  0
INSERT
  5
2A5
100
AcDbEntity
  8
0
100
AcDbBlockReference
 62
2
  6
CONTINUOUS
  2
_FILLED
 10
114.0596094237
 20
29.982747666
 41
1.25
 42
1.25
 43
1.25
 50
270.0
  0
ENDBLK
  5
2A6
100
AcDbEntity
  8
0
  6
BYBLOCK
 62
0
100
AcDbBlockEnd
  0
BLOCK
  5
2A7
100
AcDbEntity
  8
0
100
AcDbBlockBegin
 62
2
  6
CONTINUOUS
  2
*D4
 70
65
 10
0.0
 20
0.0
  3
*D4
  1

  0
MTEXT
  5
2A8
100
AcDbEntity
  8
0
100
AcDbMText
 62
2
  6
CONTINUOUS
  7
STANDARD
 71
1
 72
1
 10
115.7262760904
 20
59.9254555303
 30
0.0
 11
1.0
 21
0.0
 31
0.0
 44
0.9
  1
7.10\P[180,3]
 40
1.0416666667
 41
6.6964285714
  0
LINE
  5
2A9
100
AcDbEntity
  8
0
100
AcDbLine
 62
2
  6
CONTINUOUS
 10
105.3771725352
 20
48.862747666
 11
114.892942757
 21
48.862747666
  0
LINE
  5
2AA
100
AcDbEntity
  8
0
100
AcDbLine
 62
2
  6
CONTINUOUS
 10
105.3771725352
 20
55.962747666
 11
114.892942757
 21
55.962747666
  0
LINE
  5
2AB
100
AcDbEntity
  8
0
100
AcDbLine
 62
2
  6
CONTINUOUS
 10
114.0596094237
 20
48.862747666
 11
114.0596094237
 21
52.412747666
  0
LINE
  5
2AC
100
AcDbEntity
  8
0
100
AcDbLine
 62
2
  6
CONTINUOUS
 10
114.0596094237
 20
55.962747666
 11
114.0596094237
 21
52.412747666
  0
LINE
  5
2AD
100
AcDbEntity
  8
0
100
AcDbLine
 62
2
  6
CONTINUOUS
 10
114.0596094237
 20
52.412747666
 11
114.0596094237
 21
59.404622197
  0
LINE
  5
2AE
100
AcDbEntity
  8
0
100
AcDbLine
 62
2
  6
CONTINUOUS
 10
114.0596094237
 20
59.404622197
 11
115.205442757
 21
59.404622197
  0
INSERT
  5
2AF
100
AcDbEntity
  8
0
100
AcDbBlockReference
 62
2
  6
CONTINUOUS
  2
_FILLED
 10
114.0596094237
 20
48.862747666
 41
1.25
 42
1.25
 43
1.25
 50
270.0
  0
INSERT
  5
2B0
100
AcDbEntity
  8
0
100
AcDbBlockReference
 62
2
  6
CONTINUOUS
  2
_FILLED
 10
114.0596094237
 20
55.962747666
 41
1.25
 42
1.25
 43
1.25
 50
90.0
  0
ENDBLK
  5
2B1
100
AcDbEntity
  8
0
  6
BYBLOCK
 62
0
100
AcDbBlockEnd
  0
BLOCK
  5
2B2
100
AcDbEntity
  8
0
100
AcDbBlockBegin
 62
2
  6
CONTINUOUS
  2
*D5
 70
65
 10
0.0
 20
0.0
  3
*D5
  1

  0
MTEXT
  5
2B3
100
AcDbEntity
  8
0
100
AcDbMText
 62
2
  6
CONTINUOUS
  7
STANDARD
 71
1
 72
1
 10
110.6118580353
 20
69.2347650397
 30
0.0
 11
1.0
 21
0.0
 31
0.0
 44
0.9
  1
5.05\P[128,3]
 40
1.0416666667
 41
6.6964285714
  0
LINE
  5
2B4
100
AcDbEntity
  8
0
100
AcDbLine
 62
2
  6
CONTINUOUS
 10
105.1485058685
 20
56.1914143326
 11
105.1485058685
 21
69.5472650397
  0
LINE
  5
2B5
100
AcDbEntity
  8
0
100
AcDbLine
 62
2
  6
CONTINUOUS
 10
100.0985058685
 20
56.1914143326
 11
100.0985058685
 21
69.5472650397
  0
LINE
  5
2B6
100
AcDbEntity
  8
0
100
AcDbLine
 62
2
  6
CONTINUOUS
 10
105.1485058685
 20
68.7139317064
 11
102.6235058685
 21
68.7139317064
  0
LINE
  5
2B7
100
AcDbEntity
  8
0
100
AcDbLine
 62
2
  6
CONTINUOUS
 10
102.6235058685
 20
68.7139317064
 11
110.091024702
 21
68.7139317064
  0
LINE
  5
2B8
100
AcDbEntity
  8
0
100
AcDbLine
 62
2
  6
CONTINUOUS
 10
100.0985058685
 20
68.7139317064
 11
102.6235058685
 21
68.7139317064
  0
INSERT
  5
2B9
100
AcDbEntity
  8
0
100
AcDbBlockReference
 62
2
  6
CONTINUOUS
  2
_FILLED
 10
105.1485058685
 20
68.7139317064
 41
1.25
 42
1.25
 43
1.25
  0
INSERT
  5
2BA
100
AcDbEntity
  8
0
100
AcDbBlockReference
 62
2
  6
CONTINUOUS
  2
_FILLED
 10
100.0985058685
 20
68.7139317064
 41
1.25
 42
1.25
 43
1.25
 50
180.0
  0
ENDBLK
  5
2BB
100
AcDbEntity
  8
0
  6
BYBLOCK
 62
0
100
AcDbBlockEnd
  0
BLOCK
  5
2BC
100
AcDbEntity
  8
0
100
AcDbBlockBegin
 62
2
  6
CONTINUOUS
  2
*D6
 70
65
 10
0.0
 20
0.0
  3
*D6
  1

  0
MTEXT
  5
2BD
100
AcDbEntity
  8
0
100
AcDbMText
 62
2
  6
CONTINUOUS
  7
STANDARD
 71
2
 72
1
 10
93.8563630114
 20
72.5245252997
 30
0.0
 11
1.0
 21
0.0
 31
0.0
 44
0.9
  1
11.22\P[284,9]
 40
1.0416666667
 41
7.1428571429
  0
LINE
  5
2BE
100
AcDbEntity
  8
0
100
AcDbLine
 62
2
  6
CONTINUOUS
 10
100.1335058685
 20
56.1374143326
 11
100.1335058685
 21
72.8370252997
  0
LINE
  5
2BF
100
AcDbEntity
  8
0
100
AcDbLine
 62
2
  6
CONTINUOUS
 10
88.9185058685
 20
65.8794143326
 11
88.9185058685
 21
72.8370252997
  0
LINE
  5
2C0
100
AcDbEntity
  8
0
100
AcDbLine
 62
2
  6
CONTINUOUS
 10
100.1335058685
 20
72.0036919663
 11
97.4277915828
 21
72.0036919663
  0
LINE
  5
2C1
100
AcDbEntity
  8
0
100
AcDbLine
 62
2
  6
CONTINUOUS
 10
88.9185058685
 20
72.0036919663
 11
91.6242201542
 21
72.0036919663
  0
INSERT
  5
2C2
100
AcDbEntity
  8
0
100
AcDbBlockReference
 62
2
  6
CONTINUOUS
  2
_FILLED
 10
100.1335058685
 20
72.0036919663
 41
1.25
 42
1.25
 43
1.25
  0
INSERT
  5
2C3
100
AcDbEntity
  8
0
100
AcDbBlockReference
 62
2
  6
CONTINUOUS
  2
_FILLED
 10
88.9185058685
 20
72.0036919663
 41
1.25
 42
1.25
 43
1.25
 50
180.0
  0
ENDBLK
  5
2C4
100
AcDbEntity
  8
0
  6
BYBLOCK
 62
0
100
AcDbBlockEnd
  0
BLOCK
  5
2C5
100
AcDbEntity
  8
0
100
AcDbBlockBegin
 62
2
  6
CONTINUOUS
  2
*D7
 70
65
 10
0.0
 20
0.0
  3
*D7
  1

  0
MTEXT
  5
2C6
100
AcDbEntity
  8
0
100
AcDbMText
 62
2
  6
CONTINUOUS
  7
STANDARD
 71
2
 72
1
 10
34.8436798236
 20
73.2102484956
 30
0.0
 11
1.0
 21
0.0
 31
0.0
 44
0.9
  1
30.00\P[762]
 40
1.0416666667
 41
5.6919642857
  0
LINE
  5
2C7
100
AcDbEntity
  8
0
100
AcDbLine
 62
2
  6
CONTINUOUS
 10
49.8436798236
 20
66.1676357973
 11
49.8436798236
 21
73.5227484956
  0
LINE
  5
2C8
100
AcDbEntity
  8
0
100
AcDbLine
 62
2
  6
CONTINUOUS
 10
19.8436798236
 20
66.1676357973
 11
19.8436798236
 21
73.5227484956
  0
LINE
  5
2C9
100
AcDbEntity
  8
0
100
AcDbLine
 62
2
  6
CONTINUOUS
 10
49.8436798236
 20
72.6894151622
 11
37.2618345855
 21
72.6894151622
  0
LINE
  5
2CA
100
AcDbEntity
  8
0
100
AcDbLine
 62
2
  6
CONTINUOUS
 10
19.8436798236
 20
72.6894151622
 11
32.4255250617
 21
72.6894151622
  0
INSERT
  5
2CB
100
AcDbEntity
  8
0
100
AcDbBlockReference
 62
2
  6
CONTINUOUS
  2
_FILLED
 10
49.8436798236
 20
72.6894151622
 41
1.25
 42
1.25
 43
1.25
  0
INSERT
  5
2CC
100
AcDbEntity
  8
0
100
AcDbBlockReference
 62
2
  6
CONTINUOUS
  2
_FILLED
 10
19.8436798236
 20
72.6894151622
 41
1.25
 42
1.25
 43
1.25
 50
180.0
  0
ENDBLK
  5
2CD
100
AcDbEntity
  8
0
  6
BYBLOCK
 62
0
100
AcDbBlockEnd
  0
ENDSEC
  0
SECTION
  2
ENTITIES
  0
MTEXT
  5
2CE
100
AcDbEntity
  8
DRW_FORMAT
100
AcDbMText
 62
2
  6
CONTINUOUS
  7
TEXTSTYLE_2
 71
1
 72
1
 10
10.6243079183
 20
1.5741503998
 30
0.0
 11
1.0
 21
0.0
 31
0.0
 44
0.9
  1
8
 40
0.6740196078
 41
0.5392156863
  0
MTEXT
  5
2CF
100
AcDbEntity
  8
DRW_FORMAT
100
AcDbMText
 62
2
  6
CONTINUOUS
  7
TEXTSTYLE_2
 71
1
 72
1
 10
28.1488177222
 20
1.5741503998
 30
0.0
 11
1.0
 21
0.0
 31
0.0
 44
0.9
  1
7
 40
0.6740196078
 41
0.5392156863
  0
MTEXT
  5
2D0
100
AcDbEntity
  8
DRW_FORMAT
100
AcDbMText
 62
2
  6
CONTINUOUS
  7
TEXTSTYLE_2
 71
1
 72
1
 10
45.6733275262
 20
1.5741503998
 30
0.0
 11
1.0
 21
0.0
 31
0.0
 44
0.9
  1
6
 40
0.6740196078
 41
0.5392156863
  0
MTEXT
  5
2D1
100
AcDbEntity
  8
DRW_FORMAT
100
AcDbMText
 62
2
  6
CONTINUOUS
  7
TEXTSTYLE_2
 71
1
 72
1
 10
63.1978373301
 20
1.5741503998
 30
0.0
 11
1.0
 21
0.0
 31
0.0
 44
0.9
  1
5
 40
0.6740196078
 41
0.5392156863
  0
MTEXT
  5
2D2
100
AcDbEntity
  8
DRW_FORMAT
100
AcDbMText
 62
2
  6
CONTINUOUS
  7
TEXTSTYLE_2
 71
1
 72
1
 10
80.722347134
 20
1.5741503998
 30
0.0
 11
1.0
 21
0.0
 31
0.0
 44
0.9
  1
4
 40
0.6740196078
 41
0.5392156863
  0
MTEXT
  5
2D3
100
AcDbEntity
  8
DRW_FORMAT
100
AcDbMText
 62
2
  6
CONTINUOUS
  7
TEXTSTYLE_2
 71
1
 72
1
 10
98.2468569379
 20
1.5741503998
 30
0.0
 11
1.0
 21
0.0
 31
0.0
 44
0.9
  1
3
 40
0.6740196078
 41
0.5392156863
  0
MTEXT
  5
2D4
100
AcDbEntity
  8
DRW_FORMAT
100
AcDbMText
 62
2
  6
CONTINUOUS
  7
TEXTSTYLE_2
 71
1
 72
1
 10
115.7713667418
 20
1.5741503998
 30
0.0
 11
1.0
 21
0.0
 31
0.0
 44
0.9
  1
2
 40
0.6740196078
 41
0.5392156863
  0
MTEXT
  5
2D5
100
AcDbEntity
  8
DRW_FORMAT
100
AcDbMText
 62
2
  6
CONTINUOUS
  7
TEXTSTYLE_2
 71
1
 72
1
 10
133.2958765458
 20
1.5741503998
 30
0.0
 11
1.0
 21
0.0
 31
0.0
 44
0.9
  1
1
 40
0.6740196078
 41
0.5392156863
  0
MTEXT
  5
2D6
100
AcDbEntity
  8
DRW_FORMAT
100
AcDbMText
 62
2
  6
CONTINUOUS
  7
TEXTSTYLE_2
 71
1
 72
1
 10
10.9292437227
 20
112.6163958962
 30
0.0
 11
1.0
 21
0.0
 31
0.0
 44
0.9
  1
8
 40
0.67402
 41
0.539216
  0
MTEXT
  5
2D7
100
AcDbEntity
  8
DRW_FORMAT
100
AcDbMText
 62
2
  6
CONTINUOUS
  7
TEXTSTYLE_2
 71
1
 72
1
 10
28.5157982082
 20
112.6414709635
 30
0.0
 11
1.0
 21
0.0
 31
0.0
 44
0.9
  1
7
 40
0.6740196078
 41
0.5392156863
  0
MTEXT
  5
2D8
100
AcDbEntity
  8
DRW_FORMAT
100
AcDbMText
 62
2
  6
CONTINUOUS
  7
TEXTSTYLE_2
 71
1
 72
1
 10
46.0503458508
 20
112.5760531426
 30
0.0
 11
1.0
 21
0.0
 31
0.0
 44
0.9
  1
6
 40
0.6740196078
 41
0.5392156863
  0
MTEXT
  5
2D9
100
AcDbEntity
  8
DRW_FORMAT
100
AcDbMText
 62
2
  6
CONTINUOUS
  7
TEXTSTYLE_2
 71
1
 72
1
 10
63.609338157
 20
112.647441672
 30
0.0
 11
1.0
 21
0.0
 31
0.0
 44
0.9
  1
5
 40
0.6740196078
 41
0.5392156863
  0
MTEXT
  5
2DA
100
AcDbEntity
  8
DRW_FORMAT
100
AcDbMText
 62
2
  6
CONTINUOUS
  7
TEXTSTYLE_2
 71
1
 72
1
 10
81.1368333152
 20
112.6018395553
 30
0.0
 11
1.0
 21
0.0
 31
0.0
 44
0.9
  1
4
 40
0.6740196078
 41
0.5392156863
  0
MTEXT
  5
2DB
100
AcDbEntity
  8
DRW_FORMAT
100
AcDbMText
 62
2
  6
CONTINUOUS
  7
TEXTSTYLE_2
 71
1
 72
1
 10
98.5087881948
 20
112.5958688467
 30
0.0
 11
1.0
 21
0.0
 31
0.0
 44
0.9
  1
3
 40
0.6740196078
 41
0.5392156863
  0
MTEXT
  5
2DC
100
AcDbEntity
  8
DRW_FORMAT
100
AcDbMText
 62
2
  6
CONTINUOUS
  7
TEXTSTYLE_2
 71
1
 72
1
 10
116.0270673169
 20
112.6018395553
 30
0.0
 11
1.0
 21
0.0
 31
0.0
 44
0.9
  1
2
 40
0.6740196078
 41
0.5392156863
  0
MTEXT
  5
2DD
100
AcDbEntity
  8
DRW_FORMAT
100
AcDbMText
 62
2
  6
CONTINUOUS
  7
TEXTSTYLE_2
 71
1
 72
1
 10
133.6389741975
 20
112.6672575722
 30
0.0
 11
1.0
 21
0.0
 31
0.0
 44
0.9
  1
1
 40
0.67402
 41
0.539216
  0
MTEXT
  5
2DE
100
AcDbEntity
  8
DRW_FORMAT
100
AcDbMText
 62
2
  6
CONTINUOUS
  7
TEXTSTYLE_2
 71
1
 72
1
 10
0.7621082082
 20
16.1278303247
 30
0.0
 11
1.0
 21
0.0
 31
0.0
 44
0.9
  1
A
 40
0.6740196078
 41
0.5392156863
  0
MTEXT
  5
2DF
100
AcDbEntity
  8
DRW_FORMAT
100
AcDbMText
 62
2
  6
CONTINUOUS
  7
TEXTSTYLE_2
 71
1
 72
1
 10
0.8550636872
 20
43.3484298976
 30
0.0
 11
1.0
 21
0.0
 31
0.0
 44
0.9
  1
B
 40
0.6740196078
 41
0.5392156863
  0
MTEXT
  5
2E0
100
AcDbEntity
  8
DRW_FORMAT
100
AcDbMText
 62
2
  6
CONTINUOUS
  7
TEXTSTYLE_2
 71
1
 72
1
 10
0.8916145907
 20
70.8812423207
 30
0.0
 11
1.0
 21
0.0
 31
0.0
 44
0.9
  1
C
 40
0.6740196078
 41
0.5392156863
  0
MTEXT
  5
2E1
100
AcDbEntity
  8
DRW_FORMAT
100
AcDbMText
 62
2
  6
CONTINUOUS
  7
TEXTSTYLE_2
 71
1
 72
1
 10
0.7813255885
 20
98.0347386956
 30
0.0
 11
1.0
 21
0.0
 31
0.0
 44
0.9
  1
D
 40
0.6740196078
 41
0.5392156863
  0
MTEXT
  5
2E2
100
AcDbEntity
  8
DRW_FORMAT
100
AcDbMText
 62
2
  6
CONTINUOUS
  7
TEXTSTYLE_2
 71
1
 72
1
 10
143.2080048636
 20
13.8879958593
 30
0.0
 11
1.0
 21
0.0
 31
0.0
 44
0.9
  1
A
 40
0.6740196078
 41
0.5392156863
  0
MTEXT
  5
2E3
100
AcDbEntity
  8
DRW_FORMAT
100
AcDbMText
 62
2
  6
CONTINUOUS
  7
TEXTSTYLE_2
 71
1
 72
1
 10
143.9102518204
 20
70.5936265532
 30
0.0
 11
1.0
 21
0.0
 31
0.0
 44
0.9
  1
C
 40
0.6740196078
 41
0.5392156863
  0
MTEXT
  5
2E4
100
AcDbEntity
  8
DRW_FORMAT
100
AcDbMText
 62
2
  6
CONTINUOUS
  7
TEXTSTYLE_2
 71
1
 72
1
 10
143.5397967003
 20
98.0798877574
 30
0.0
 11
1.0
 21
0.0
 31
0.0
 44
0.9
  1
D
 40
0.6740196078
 41
0.5392156863
  0
MTEXT
  5
2E5
100
AcDbEntity
  8
DRW_FORMAT
100
AcDbMText
 62
5
  6
CONTINUOUS
  7
TEXTSTYLE_2
 71
1
 72
1
 10
93.4271558482
 20
1.797950559
 30
0.0
 11
1.0
 21
0.0
 31
0.0
 44
0.9
  1
MODEL INFO
 40
0.3882333333
 41
3.1058666667
  0
MTEXT
  5
2E6
100
AcDbEntity
  8
DRW_FORMAT
100
AcDbMText
 62
5
  6
CONTINUOUS
  7
TEXTSTYLE_2
 71
1
 72
1
 10
120.6504589715
 20
1.8193192953
 30
0.0
 11
1.0
 21
0.0
 31
0.0
 44
0.9
  1
DRAWING INFO
 40
0.3882333333
 41
3.72704
  0
MTEXT
  5
2E7
100
AcDbEntity
  8
DRW_FORMAT
100
AcDbMText
 62
5
  6
CONTINUOUS
  7
TEXTSTYLE_2
 71
1
 72
1
 10
2.5509847016
 20
110.9804854268
 30
0.0
 11
1.0
 21
0.0
 31
0.0
 44
0.9
  1
THIS DOCUMENT CONTAINS PROPRIETARY INFORMATION\PWHICH IS THE PROPERTY OF QSC AUDIO PRODUCTS, THAT\PMAY NOT BE DISCLOSED, REPRODUCED OR USED WITHOUT\PEXPRESS WRITTEN CONSENT FROM QSC AUDIO PRODUCTS.
 40
0.3235266667
 41
12.6822453333
  0
MTEXT
  5
2E8
100
AcDbEntity
  8
0
100
AcDbMText
 62
2
  6
CONTINUOUS
  7
TEXTSTYLE_2
 71
1
 72
1
 10
143.2167928932
 20
43.3402646445
 30
0.0
 11
1.0
 21
0.0
 31
0.0
 44
0.9
  1
B
 40
0.6740196078
 41
0.5392156863
  0
INSERT
  5
2E9
100
AcDbEntity
  8
DRW_FORMAT
100
AcDbBlockReference
 62
7
  6
CONTINUOUS
  2
RD010411_BL0
 10
115.3659866676
 20
16.8017381171
  0
DIMENSION
  5
2EA
100
AcDbEntity
  8
0
100
AcDbDimension
 62
2
  6
CONTINUOUS
  2
*D0
 10
52.4106012927
 20
29.982747666
 11
55.8257798642
 21
26.4340795157
 70
160
 71
1
 42
0.75
  3
DIMSTYLE_1
100
AcDbAlignedDimension
 13
49.7278464903
 23
30.732747666
 14
48.8128464903
 24
29.982747666
 50
270.0
100
AcDbRotatedDimension
  0
DIMENSION
  5
2EB
100
AcDbEntity
  8
0
100
AcDbDimension
 62
2
  6
CONTINUOUS
  2
*D1
 10
60.6872902228
 20
29.9768946025
 11
60.6872902228
 21
47.0685711342
 70
160
 71
2
 42
35.7458530635
  3
DIMSTYLE_1
100
AcDbAlignedDimension
 13
48.8028752708
 23
65.722747666
 14
48.8028752708
 24
29.9768946025
 50
270.0
100
AcDbRotatedDimension
  0
DIMENSION
  5
2EC
100
AcDbEntity
  8
0
100
AcDbDimension
 62
2
  6
CONTINUOUS
  2
*D2
 10
57.7844422476
 20
104.1456682614
 11
57.7844422476
 21
93.2394182614
 70
160
 71
2
 42
20.25
  3
DIMSTYLE_1
100
AcDbAlignedDimension
 13
50.2069617843
 23
83.8956682614
 14
50.2069617843
 24
104.1456682614
 50
90.0
100
AcDbRotatedDimension
  0
DIMENSION
  5
2ED
100
AcDbEntity
  8
0
100
AcDbDimension
 62
2
  6
CONTINUOUS
  2
*D3
 10
114.0596094237
 20
29.982747666
 11
114.0596094237
 21
38.6527167499
 70
160
 71
2
 42
18.9024381679
  3
DIMSTYLE_1
100
AcDbAlignedDimension
 13
105.2278771388
 23
48.8851858338
 14
107.3976725352
 24
29.982747666
 50
270.0
100
AcDbRotatedDimension
  0
DIMENSION
  5
2EE
100
AcDbEntity
  8
0
100
AcDbDimension
 62
2
  6
CONTINUOUS
  2
*D4
 10
114.0596094237
 20
55.962747666
 11
117.9584189475
 21
58.623372197
 70
160
 71
1
 42
7.1
  3
DIMSTYLE_1
100
AcDbAlignedDimension
 13
105.3146725352
 23
48.862747666
 14
105.3146725352
 24
55.962747666
 50
90.0
100
AcDbRotatedDimension
  0
DIMENSION
  5
2EF
100
AcDbEntity
  8
0
100
AcDbDimension
 62
2
  6
CONTINUOUS
  2
*D5
 10
100.0985058685
 20
68.7139317064
 11
112.8440008925
 21
67.9326817064
 70
160
 71
1
 42
5.05
  3
DIMSTYLE_1
100
AcDbAlignedDimension
 13
105.1485058685
 23
56.1289143326
 14
100.0985058685
 24
56.1289143326
 50
180.0
100
AcDbRotatedDimension
  0
DIMENSION
  5
2F0
100
AcDbEntity
  8
0
100
AcDbDimension
 62
2
  6
CONTINUOUS
  2
*D6
 10
88.9185058685
 20
72.0036919663
 11
94.5260058685
 21
71.2224419663
 70
160
 71
2
 42
11.215
  3
DIMSTYLE_1
100
AcDbAlignedDimension
 13
100.1335058685
 23
56.0749143326
 14
88.9185058685
 24
65.8169143326
 50
180.0
100
AcDbRotatedDimension
  0
DIMENSION
  5
2F1
100
AcDbEntity
  8
0
100
AcDbDimension
 62
2
  6
CONTINUOUS
  2
*D7
 10
19.8436798236
 20
72.6894151622
 11
34.8436798236
 21
71.9081651622
 70
160
 71
2
 42
30.0
  3
DIMSTYLE_1
100
AcDbAlignedDimension
 13
49.8436798236
 23
66.1051357973
 14
19.8436798236
 24
66.1051357973
 50
180.0
100
AcDbRotatedDimension
  0
LWPOLYLINE
  5
2F2
100
AcDbEntity
  8
0
100
AcDbPolyline
 62
2
  6
CONTINUOUS
 90
2
 70
0
 43
0.1333333333
 10
142.3725639756
 20
111.2220907795
 10
87.2392306423
 20
111.2220907795
  0
LWPOLYLINE
  5
2F3
100
AcDbEntity
  8
0
100
AcDbPolyline
 62
2
  6
CONTINUOUS
 90
2
 70
0
 43
0.1333333333
 10
142.305897309
 20
111.2220907795
 10
142.305897309
 20
102.8887574462
  0
LWPOLYLINE
  5
2F4
100
AcDbEntity
  8
0
100
AcDbPolyline
 62
2
  6
CONTINUOUS
 90
2
 70
0
 43
0.1333333333
 10
142.305897309
 20
109.5554241129
 10
87.305897309
 20
109.5554241129
  0
LWPOLYLINE
  5
2F5
100
AcDbEntity
  8
0
100
AcDbPolyline
 62
2
  6
CONTINUOUS
 90
2
 70
0
 43
0.1333333333
 10
142.305897309
 20
107.8887574462
 10
87.305897309
 20
107.8887574462
  0
LWPOLYLINE
  5
2F6
100
AcDbEntity
  8
0
100
AcDbPolyline
 62
2
  6
CONTINUOUS
 90
2
 70
0
 43
0.1333333333
 10
142.305897309
 20
106.2220907795
 10
87.305897309
 20
106.2220907795
  0
LWPOLYLINE
  5
2F7
100
AcDbEntity
  8
0
100
AcDbPolyline
 62
2
  6
CONTINUOUS
 90
2
 70
0
 43
0.1333333333
 10
142.305897309
 20
104.5554241129
 10
87.305897309
 20
104.5554241129
  0
LWPOLYLINE
  5
2F8
100
AcDbEntity
  8
0
100
AcDbPolyline
 62
2
  6
CONTINUOUS
 90
2
 70
0
 43
0.1333333333
 10
142.3725639756
 20
102.8887574462
 10
87.2392306423
 20
102.8887574462
  0
LWPOLYLINE
  5
2F9
100
AcDbEntity
  8
0
100
AcDbPolyline
 62
2
  6
CONTINUOUS
 90
2
 70
0
 43
0.1333333333
 10
134.805897309
 20
109.5554241129
 10
134.805897309
 20
102.8887574462
  0
LWPOLYLINE
  5
2FA
100
AcDbEntity
  8
0
100
AcDbPolyline
 62
2
  6
CONTINUOUS
 90
2
 70
0
 43
0.1333333333
 10
131.4725639756
 20
109.5554241129
 10
131.4725639756
 20
102.8887574462
  0
LWPOLYLINE
  5
2FB
100
AcDbEntity
  8
0
100
AcDbPolyline
 62
2
  6
CONTINUOUS
 90
2
 70
0
 43
0.1333333333
 10
124.805897309
 20
109.5554241129
 10
124.805897309
 20
102.8887574462
  0
LWPOLYLINE
  5
2FC
100
AcDbEntity
  8
0
100
AcDbPolyline
 62
2
  6
CONTINUOUS
 90
2
 70
0
 43
0.1333333333
 10
90.6392306423
 20
109.5554241129
 10
90.6392306423
 20
102.8887574462
  0
LWPOLYLINE
  5
2FD
100
AcDbEntity
  8
0
100
AcDbPolyline
 62
2
  6
CONTINUOUS
 90
2
 70
0
 43
0.1333333333
 10
87.305897309
 20
111.2220907795
 10
87.305897309
 20
102.8887574462
  0
MTEXT
  5
2FE
100
AcDbEntity
  8
0
100
AcDbMText
 62
2
  6
CONTINUOUS
  7
STANDARD
 71
2
 72
1
 10
114.805897309
 20
110.8554241129
 30
0.0
 11
1.0
 21
0.0
 31
0.0
 44
0.9
  1
REVISIONS
 40
0.9333333333
 41
9.4666666667
  0
MTEXT
  5
2FF
100
AcDbEntity
  8
0
100
AcDbMText
 62
2
  6
CONTINUOUS
  7
STANDARD
 71
2
 72
1
 10
138.555897309
 20
109.1887574462
 30
0.0
 11
1.0
 21
0.0
 31
0.0
 44
0.9
  1
APVD
 40
0.9333333333
 41
4.7333333333
  0
MTEXT
  5
300
100
AcDbEntity
  8
0
100
AcDbMText
 62
2
  6
CONTINUOUS
  7
STANDARD
 71
2
 72
1
 10
133.1392306423
 20
109.1887574462
 30
0.0
 11
1.0
 21
0.0
 31
0.0
 44
0.9
  1
CHK
 40
0.9333333333
 41
3.3666666667
  0
MTEXT
  5
301
100
AcDbEntity
  8
0
100
AcDbMText
 62
2
  6
CONTINUOUS
  7
STANDARD
 71
2
 72
1
 10
128.1392306423
 20
109.1887574462
 30
0.0
 11
1.0
 21
0.0
 31
0.0
 44
0.9
  1
EFF DATE
 40
0.9333333333
 41
8.7666666667
  0
MTEXT
  5
302
100
AcDbEntity
  8
0
100
AcDbMText
 62
2
  6
CONTINUOUS
  7
STANDARD
 71
2
 72
1
 10
107.7225639756
 20
109.1887574462
 30
0.0
 11
1.0
 21
0.0
 31
0.0
 44
0.9
  1
DESCRIPTION
 40
0.9333333333
 41
11.9333333333
  0
MTEXT
  5
303
100
AcDbEntity
  8
0
100
AcDbMText
 62
2
  6
CONTINUOUS
  7
STANDARD
 71
2
 72
1
 10
88.9725639756
 20
109.1887574462
 30
0.0
 11
1.0
 21
0.0
 31
0.0
 44
0.9
  1
REV
 40
0.9333333333
 41
3.2666666667
  0
MTEXT
  5
304
100
AcDbEntity
  8
0
100
AcDbMText
 62
2
  6
CONTINUOUS
  7
STANDARD
 71
2
 72
1
 10
138.555897309
 20
107.5220907795
 30
0.0
 11
1.0
 21
0.0
 31
0.0
 44
0.9
  1
 DD 
 40
0.9333333333
 41
4.7333333333
  0
MTEXT
  5
305
100
AcDbEntity
  8
0
100
AcDbMText
 62
2
  6
CONTINUOUS
  7
STANDARD
 71
2
 72
1
 10
133.1392306423
 20
107.5220907795
 30
0.0
 11
1.0
 21
0.0
 31
0.0
 44
0.9
  1
 BF 
 40
0.9333333333
 41
4.3
  0
MTEXT
  5
306
100
AcDbEntity
  8
0
100
AcDbMText
 62
2
  6
CONTINUOUS
  7
STANDARD
 71
2
 72
1
 10
128.1392306423
 20
107.5220907795
 30
0.0
 11
1.0
 21
0.0
 31
0.0
 44
0.9
  1
 1-08-09 
 40
0.9333333333
 41
9.4
  0
MTEXT
  5
307
100
AcDbEntity
  8
0
100
AcDbMText
 62
2
  6
CONTINUOUS
  7
STANDARD
 71
1
 72
1
 10
91.055897309
 20
107.5220907795
 30
0.0
 11
1.0
 21
0.0
 31
0.0
 44
0.9
  1
PRODUCTION RELEASE W/O CHANGE PER ECO 8939 JD 
 40
0.9333333333
 41
50.9
  0
MTEXT
  5
308
100
AcDbEntity
  8
0
100
AcDbMText
 62
2
  6
CONTINUOUS
  7
STANDARD
 71
2
 72
1
 10
88.9725639756
 20
107.5220907795
 30
0.0
 11
1.0
 21
0.0
 31
0.0
 44
0.9
  1
 A 
 40
0.9333333333
 41
3.4
  0
LWPOLYLINE
  5
309
100
AcDbEntity
  8
DRW_FORMAT
100
AcDbPolyline
 62
7
  6
CONTINUOUS
 90
2
 70
0
 43
0.0862733333
 10
142.4085236254
 20
2.1339371127
 10
77.3222502921
 20
2.1339371127
  0
LWPOLYLINE
  5
30A
100
AcDbEntity
  8
DRW_FORMAT
100
AcDbPolyline
 62
7
  6
CONTINUOUS
 90
2
 70
0
 43
0.0862733333
 10
142.3653869587
 20
2.1339371127
 10
142.3653869587
 20
19.2172704461
  0
LWPOLYLINE
  5
30B
100
AcDbEntity
  8
DRW_FORMAT
100
AcDbPolyline
 62
7
  6
CONTINUOUS
 90
2
 70
0
 43
0.0862733333
 10
142.3653869587
 20
3.8006037794
 10
77.3653869587
 20
3.8006037794
  0
LWPOLYLINE
  5
30C
100
AcDbEntity
  8
DRW_FORMAT
100
AcDbPolyline
 62
7
  6
CONTINUOUS
 90
2
 70
0
 43
0.0862733333
 10
109.0320536254
 20
6.3006037794
 10
92.3653869587
 20
6.3006037794
  0
LWPOLYLINE
  5
30D
100
AcDbEntity
  8
DRW_FORMAT
100
AcDbPolyline
 62
7
  6
CONTINUOUS
 90
2
 70
0
 43
0.0862733333
 10
142.3653869587
 20
7.1339371127
 10
109.0320536254
 20
7.1339371127
  0
LWPOLYLINE
  5
30E
100
AcDbEntity
  8
DRW_FORMAT
100
AcDbPolyline
 62
7
  6
CONTINUOUS
 90
2
 70
0
 43
0.0862733333
 10
92.3653869587
 20
7.1339371127
 10
77.3653869587
 20
7.1339371127
  0
LWPOLYLINE
  5
30F
100
AcDbEntity
  8
DRW_FORMAT
100
AcDbPolyline
 62
7
  6
CONTINUOUS
 90
2
 70
0
 43
0.0862733333
 10
109.0320536254
 20
8.8006037794
 10
92.3653869587
 20
8.8006037794
  0
LWPOLYLINE
  5
310
100
AcDbEntity
  8
DRW_FORMAT
100
AcDbPolyline
 62
7
  6
CONTINUOUS
 90
2
 70
0
 43
0.0862733333
 10
92.3653869587
 20
10.4672704461
 10
77.3653869587
 20
10.4672704461
  0
LWPOLYLINE
  5
311
100
AcDbEntity
  8
DRW_FORMAT
100
AcDbPolyline
 62
7
  6
CONTINUOUS
 90
2
 70
0
 43
0.0862733333
 10
109.0320536254
 20
11.3006037794
 10
92.3653869587
 20
11.3006037794
  0
LWPOLYLINE
  5
312
100
AcDbEntity
  8
DRW_FORMAT
100
AcDbPolyline
 62
7
  6
CONTINUOUS
 90
2
 70
0
 43
0.0862733333
 10
109.0320536254
 20
13.8006037794
 10
92.3653869587
 20
13.8006037794
  0
LWPOLYLINE
  5
313
100
AcDbEntity
  8
DRW_FORMAT
100
AcDbPolyline
 62
7
  6
CONTINUOUS
 90
2
 70
0
 43
0.0862733333
 10
142.3653869587
 20
14.6339371127
 10
109.0320536254
 20
14.6339371127
  0
LWPOLYLINE
  5
314
100
AcDbEntity
  8
DRW_FORMAT
100
AcDbPolyline
 62
7
  6
CONTINUOUS
 90
2
 70
0
 43
0.0862733333
 10
109.0320536254
 20
15.8839371127
 10
92.3653869587
 20
15.8839371127
  0
LWPOLYLINE
  5
315
100
AcDbEntity
  8
DRW_FORMAT
100
AcDbPolyline
 62
7
  6
CONTINUOUS
 90
2
 70
0
 43
0.0862733333
 10
142.4085236254
 20
19.2172704461
 10
77.3222502921
 20
19.2172704461
  0
LWPOLYLINE
  5
316
100
AcDbEntity
  8
DRW_FORMAT
100
AcDbPolyline
 62
7
  6
CONTINUOUS
 90
2
 70
0
 43
0.0862733333
 10
139.0320536254
 20
3.8006037794
 10
139.0320536254
 20
7.1339371127
  0
LWPOLYLINE
  5
317
100
AcDbEntity
  8
DRW_FORMAT
100
AcDbPolyline
 62
7
  6
CONTINUOUS
 90
2
 70
0
 43
0.0862733333
 10
133.1987202921
 20
2.1339371127
 10
133.1987202921
 20
3.8006037794
  0
LWPOLYLINE
  5
318
100
AcDbEntity
  8
DRW_FORMAT
100
AcDbPolyline
 62
7
  6
CONTINUOUS
 90
2
 70
0
 43
0.0862733333
 10
119.0320536254
 20
3.8006037794
 10
119.0320536254
 20
7.1339371127
  0
LWPOLYLINE
  5
319
100
AcDbEntity
  8
DRW_FORMAT
100
AcDbPolyline
 62
7
  6
CONTINUOUS
 90
2
 70
0
 43
0.0862733333
 10
115.6987202921
 20
2.1339371127
 10
115.6987202921
 20
3.8006037794
  0
LWPOLYLINE
  5
31A
100
AcDbEntity
  8
DRW_FORMAT
100
AcDbPolyline
 62
7
  6
CONTINUOUS
 90
2
 70
0
 43
0.0862733333
 10
112.3653869587
 20
3.8006037794
 10
112.3653869587
 20
7.1339371127
  0
LWPOLYLINE
  5
31B
100
AcDbEntity
  8
DRW_FORMAT
100
AcDbPolyline
 62
7
  6
CONTINUOUS
 90
2
 70
0
 43
0.0862733333
 10
109.0320536254
 20
2.1339371127
 10
109.0320536254
 20
19.2172704461
  0
LWPOLYLINE
  5
31C
100
AcDbEntity
  8
DRW_FORMAT
100
AcDbPolyline
 62
7
  6
CONTINUOUS
 90
2
 70
0
 43
0.0862733333
 10
104.0320536254
 20
3.8006037794
 10
104.0320536254
 20
15.8839371127
  0
LWPOLYLINE
  5
31D
100
AcDbEntity
  8
DRW_FORMAT
100
AcDbPolyline
 62
7
  6
CONTINUOUS
 90
2
 70
0
 43
0.0862733333
 10
92.3653869587
 20
2.1339371127
 10
92.3653869587
 20
19.2172704461
  0
LWPOLYLINE
  5
31E
100
AcDbEntity
  8
DRW_FORMAT
100
AcDbPolyline
 62
7
  6
CONTINUOUS
 90
2
 70
0
 43
0.0862733333
 10
77.3653869587
 20
2.1339371127
 10
77.3653869587
 20
19.2172704461
  0
MTEXT
  5
31F
100
AcDbEntity
  8
DRW_FORMAT
100
AcDbMText
 62
2
  6
CONTINUOUS
  7
TEXTSTYLE_2
 71
2
 72
1
 10
139.0320536254
 20
3.3839371127
 30
0.0
 11
1.0
 21
0.0
 31
0.0
 44
0.9
  1
1 of 1
 40
0.8333333333
 41
4.0
  0
MTEXT
  5
320
100
AcDbEntity
  8
DRW_FORMAT
100
AcDbMText
 62
2
  6
CONTINUOUS
  7
TEXTSTYLE_2
 71
2
 72
1
 10
124.4487202921
 20
3.3006037794
 30
0.0
 11
1.0
 21
0.0
 31
0.0
 44
0.9
  1
RD-000506-01..+
 40
0.6666666667
 41
8.0
  0
MTEXT
  5
321
100
AcDbEntity
  8
DRW_FORMAT
100
AcDbMText
 62
2
  6
CONTINUOUS
  7
TEXTSTYLE_2
 71
3
 72
1
 10
115.2820536254
 20
3.3839371127
 30
0.0
 11
1.0
 21
0.0
 31
0.0
 44
0.9
  1
0.150
 40
0.8333333333
 41
3.3333333333
  0
MTEXT
  5
322
100
AcDbEntity
  8
DRW_FORMAT
100
AcDbMText
 62
2
  6
CONTINUOUS
  7
TEXTSTYLE_2
 71
2
 72
1
 10
100.6987202921
 20
3.3006037794
 30
0.0
 11
1.0
 21
0.0
 31
0.0
 44
0.9
  1
WP-511800-00.+
 40
0.6666666667
 41
7.4666666667
  0
MTEXT
  5
323
100
AcDbEntity
  8
DRW_FORMAT
100
AcDbMText
 62
2
  6
CONTINUOUS
  7
TEXTSTYLE_2
 71
2
 72
1
 10
84.8653869587
 20
3.3839371127
 30
0.0
 11
1.0
 21
0.0
 31
0.0
 44
0.9
  1
DO NOT SCALE DRAWING
 40
0.8333333333
 41
13.3333333333
  0
MTEXT
  5
324
100
AcDbEntity
  8
DRW_FORMAT
100
AcDbMText
 62
2
  6
CONTINUOUS
  7
TEXTSTYLE_2
 71
1
 72
1
 10
133.6153869587
 20
3.6839371127
 30
0.0
 11
1.0
 21
0.0
 31
0.0
 44
0.9
  1
SHEET
 40
0.6
 41
2.4
  0
MTEXT
  5
325
100
AcDbEntity
  8
DRW_FORMAT
100
AcDbMText
 62
2
  6
CONTINUOUS
  7
TEXTSTYLE_2
 71
1
 72
1
 10
109.4487202921
 20
3.6839371127
 30
0.0
 11
1.0
 21
0.0
 31
0.0
 44
0.9
  1
SCALE
 40
0.6
 41
2.4
  0
MTEXT
  5
326
100
AcDbEntity
  8
DRW_FORMAT
100
AcDbMText
 62
2
  6
CONTINUOUS
  7
TEXTSTYLE_2
 71
2
 72
1
 10
129.0320536254
 20
5.5714371127
 30
0.0
 11
1.0
 21
0.0
 31
0.0
 44
0.9
  1
RD-000506-01
 40
1.0416666667
 41
10.0
  0
MTEXT
  5
327
100
AcDbEntity
  8
DRW_FORMAT
100
AcDbMText
 62
2
  6
CONTINUOUS
  7
TEXTSTYLE_2
 71
3
 72
1
 10
118.6153869587
 20
5.6547704461
 30
0.0
 11
1.0
 21
0.0
 31
0.0
 44
0.9
  1
00PW4
 40
1.3333333333
 41
5.3333333333
  0
MTEXT
  5
328
100
AcDbEntity
  8
DRW_FORMAT
100
AcDbMText
 62
2
  6
CONTINUOUS
  7
TEXTSTYLE_2
 71
2
 72
1
 10
110.6987202921
 20
5.7172704461
 30
0.0
 11
1.0
 21
0.0
 31
0.0
 44
0.9
  1
C
 40
1.3333333333
 41
1.0666666667
  0
MTEXT
  5
329
100
AcDbEntity
  8
DRW_FORMAT
100
AcDbMText
 62
2
  6
CONTINUOUS
  7
TEXTSTYLE_3
 71
2
 72
1
 10
106.5320536254
 20
5.4672704461
 30
0.0
 11
1.0
 21
0.0
 31
0.0
 44
0.9
  1
 1-08-09 
 40
0.8333333333
 41
4.5
  0
MTEXT
  5
32A
100
AcDbEntity
  8
DRW_FORMAT
100
AcDbMText
 62
2
  6
CONTINUOUS
  7
TEXTSTYLE_2
 71
2
 72
1
 10
98.1987202921
 20
5.1547704461
 30
0.0
 11
1.0
 21
0.0
 31
0.0
 44
0.9
  1
D. DELARM
 40
1.0416666667
 41
7.5
  0
MTEXT
  5
32B
100
AcDbEntity
  8
DRW_FORMAT
100
AcDbMText
 62
2
  6
CONTINUOUS
  7
TEXTSTYLE_2
 71
2
 72
1
 10
84.8653869587
 20
5.5714371127
 30
0.0
 11
1.0
 21
0.0
 31
0.0
 44
0.9
  1
NONE 
 40
1.0416666667
 41
4.1666666667
  0
MTEXT
  5
32C
100
AcDbEntity
  8
DRW_FORMAT
100
AcDbMText
 62
2
  6
CONTINUOUS
  7
TEXTSTYLE_2
 71
1
 72
1
 10
92.7820536254
 20
6.1839371127
 30
0.0
 11
1.0
 21
0.0
 31
0.0
 44
0.9
  1
ISSUED
 40
0.6
 41
2.88
  0
MTEXT
  5
32D
100
AcDbEntity
  8
DRW_FORMAT
100
AcDbMText
 62
2
  6
CONTINUOUS
  7
TEXTSTYLE_2
 71
2
 72
1
 10
140.6987202921
 20
7.0172704461
 30
0.0
 11
1.0
 21
0.0
 31
0.0
 44
0.9
  1
REV
 40
0.6
 41
1.44
  0
MTEXT
  5
32E
100
AcDbEntity
  8
DRW_FORMAT
100
AcDbMText
 62
2
  6
CONTINUOUS
  7
TEXTSTYLE_2
 71
1
 72
1
 10
119.4487202921
 20
7.0172704461
 30
0.0
 11
1.0
 21
0.0
 31
0.0
 44
0.9
  1
DWG NO.
 40
0.6
 41
3.36
  0
MTEXT
  5
32F
100
AcDbEntity
  8
DRW_FORMAT
100
AcDbMText
 62
2
  6
CONTINUOUS
  7
TEXTSTYLE_2
 71
1
 72
1
 10
112.7820536254
 20
7.0172704461
 30
0.0
 11
1.0
 21
0.0
 31
0.0
 44
0.9
  1
CAGE CODE
 40
0.6
 41
4.32
  0
MTEXT
  5
330
100
AcDbEntity
  8
DRW_FORMAT
100
AcDbMText
 62
2
  6
CONTINUOUS
  7
TEXTSTYLE_2
 71
2
 72
1
 10
110.6987202921
 20
7.0172704461
 30
0.0
 11
1.0
 21
0.0
 31
0.0
 44
0.9
  1
SIZE
 40
0.6
 41
1.92
  0
MTEXT
  5
331
100
AcDbEntity
  8
DRW_FORMAT
100
AcDbMText
 62
2
  6
CONTINUOUS
  7
TEXTSTYLE_3
 71
2
 72
1
 10
106.5320536254
 20
7.9672704461
 30
0.0
 11
1.0
 21
0.0
 31
0.0
 44
0.9
  1
1-07-09
 40
0.8333333333
 41
3.5
  0
MTEXT
  5
332
100
AcDbEntity
  8
DRW_FORMAT
100
AcDbMText
 62
2
  6
CONTINUOUS
  7
TEXTSTYLE_2
 71
2
 72
1
 10
98.1987202921
 20
7.6547704461
 30
0.0
 11
1.0
 21
0.0
 31
0.0
 44
0.9
  1
N/A
 40
1.0416666667
 41
2.5
  0
MTEXT
  5
333
100
AcDbEntity
  8
DRW_FORMAT
100
AcDbMText
 62
2
  6
CONTINUOUS
  7
TEXTSTYLE_2
 71
1
 72
1
 10
77.7820536254
 20
6.6131037794
 30
0.0
 11
1.0
 21
0.0
 31
0.0
 44
0.9
  1
FINISH
 40
0.6
 41
2.88
  0
MTEXT
  5
334
100
AcDbEntity
  8
DRW_FORMAT
100
AcDbMText
 62
2
  6
CONTINUOUS
  7
TEXTSTYLE_2
 71
2
 72
1
 10
125.6987202921
 20
13.5506037794
 30
0.0
 11
1.0
 21
0.0
 31
0.0
 44
0.9
  1
SPEAKER, FINISHED,\PSB-5118, SB-7118\P 
 40
1.3333333333
 41
19.2
  0
MTEXT
  5
335
100
AcDbEntity
  8
DRW_FORMAT
100
AcDbMText
 62
2
  6
CONTINUOUS
  7
TEXTSTYLE_2
 71
2
 72
1
 10
84.8653869587
 20
8.9047704461
 30
0.0
 11
1.0
 21
0.0
 31
0.0
 44
0.9
  1
NONE 
 40
1.0416666667
 41
4.1666666667
  0
MTEXT
  5
336
100
AcDbEntity
  8
DRW_FORMAT
100
AcDbMText
 62
2
  6
CONTINUOUS
  7
TEXTSTYLE_2
 71
1
 72
1
 10
92.7820536254
 20
8.6839371127
 30
0.0
 11
1.0
 21
0.0
 31
0.0
 44
0.9
  1
MFG ENG
 40
0.6
 41
3.36
  0
MTEXT
  5
337
100
AcDbEntity
  8
DRW_FORMAT
100
AcDbMText
 62
2
  6
CONTINUOUS
  7
TEXTSTYLE_3
 71
2
 72
1
 10
106.5320536254
 20
10.4672704461
 30
0.0
 11
1.0
 21
0.0
 31
0.0
 44
0.9
  1
12-23-08
 40
0.8333333333
 41
4.0
  0
MTEXT
  5
338
100
AcDbEntity
  8
DRW_FORMAT
100
AcDbMText
 62
2
  6
CONTINUOUS
  7
TEXTSTYLE_2
 71
2
 72
1
 10
98.1987202921
 20
10.1547704461
 30
0.0
 11
1.0
 21
0.0
 31
0.0
 44
0.9
  1
M. HARRIS
 40
1.0416666667
 41
7.5
  0
MTEXT
  5
339
100
AcDbEntity
  8
DRW_FORMAT
100
AcDbMText
 62
2
  6
CONTINUOUS
  7
TEXTSTYLE_2
 71
1
 72
1
 10
77.7820536254
 20
9.9464371127
 30
0.0
 11
1.0
 21
0.0
 31
0.0
 44
0.9
  1
MATERIAL
 40
0.6
 41
3.84
  0
MTEXT
  5
33A
100
AcDbEntity
  8
DRW_FORMAT
100
AcDbMText
 62
2
  6
CONTINUOUS
  7
TEXTSTYLE_2
 71
1
 72
1
 10
92.7820536254
 20
11.1839371127
 30
0.0
 11
1.0
 21
0.0
 31
0.0
 44
0.9
  1
CHECKED
 40
0.6
 41
3.36
  0
MTEXT
  5
33B
100
AcDbEntity
  8
DRW_FORMAT
100
AcDbMText
 62
2
  6
CONTINUOUS
  7
TEXTSTYLE_2
 71
2
 72
1
 10
84.8653869587
 20
11.5881037794
 30
0.0
 11
1.0
 21
0.0
 31
0.0
 44
0.9
  1
DEBURR EDGES .010 R MAX
 40
0.6
 41
11.04
  0
MTEXT
  5
33C
100
AcDbEntity
  8
DRW_FORMAT
100
AcDbMText
 62
2
  6
CONTINUOUS
  7
TEXTSTYLE_3
 71
2
 72
1
 10
106.5320536254
 20
12.9672704461
 30
0.0
 11
1.0
 21
0.0
 31
0.0
 44
0.9
  1
18-Dec-08
 40
0.8333333333
 41
4.5
  0
MTEXT
  5
33D
100
AcDbEntity
  8
DRW_FORMAT
100
AcDbMText
 62
2
  6
CONTINUOUS
  7
TEXTSTYLE_2
 71
2
 72
1
 10
98.1987202921
 20
12.6547704461
 30
0.0
 11
1.0
 21
0.0
 31
0.0
 44
0.9
  1
J. DELARM 
 40
1.0416666667
 41
8.3333333333
  0
MTEXT
  5
33E
100
AcDbEntity
  8
DRW_FORMAT
100
AcDbMText
 62
2
  6
CONTINUOUS
  7
TEXTSTYLE_1
 71
2
 72
1
 10
89.8653869587
 20
13.2547704461
 30
0.0
 11
1.0
 21
0.0
 31
0.0
 44
0.9
  1
{\Fgdt;`}\Ftxt;1/2
 40
0.6
 41
2.14
  0
MTEXT
  5
33F
100
AcDbEntity
  8
DRW_FORMAT
100
AcDbMText
 62
2
  6
CONTINUOUS
  7
TEXTSTYLE_2
 71
2
 72
1
 10
84.8653869587
 20
13.2547704461
 30
0.0
 11
1.0
 21
0.0
 31
0.0
 44
0.9
  1
.XXX \Fgdt;{\Fgdt;`}\Ftxt;.010
 40
0.6
 41
5.02
  0
MTEXT
  5
340
100
AcDbEntity
  8
DRW_FORMAT
100
AcDbMText
 62
2
  6
CONTINUOUS
  7
TEXTSTYLE_2
 71
2
 72
1
 10
79.8653869587
 20
13.2547704461
 30
0.0
 11
1.0
 21
0.0
 31
0.0
 44
0.9
  1
.XX \Fgdt;{\Fgdt;`}\Ftxt;.02
 40
0.6
 41
4.06
  0
MTEXT
  5
341
100
AcDbEntity
  8
DRW_FORMAT
100
AcDbMText
 62
2
  6
CONTINUOUS
  7
TEXTSTYLE_2
 71
1
 72
1
 10
92.7820536254
 20
13.6839371127
 30
0.0
 11
1.0
 21
0.0
 31
0.0
 44
0.9
  1
DRAWN
 40
0.6
 41
2.4
  0
MTEXT
  5
342
100
AcDbEntity
  8
DRW_FORMAT
100
AcDbMText
 62
2
  6
CONTINUOUS
  7
TEXTSTYLE_2
 71
2
 72
1
 10
106.5320536254
 20
15.1422704461
 30
0.0
 11
1.0
 21
0.0
 31
0.0
 44
0.9
  1
DATE
 40
0.6
 41
1.92
  0
MTEXT
  5
343
100
AcDbEntity
  8
DRW_FORMAT
100
AcDbMText
 62
2
  6
CONTINUOUS
  7
TEXTSTYLE_2
 71
2
 72
1
 10
98.1987202921
 20
15.1422704461
 30
0.0
 11
1.0
 21
0.0
 31
0.0
 44
0.9
  1
APPROVALS
 40
0.6
 41
4.32
  0
MTEXT
  5
344
100
AcDbEntity
  8
DRW_FORMAT
100
AcDbMText
 62
2
  6
CONTINUOUS
  7
TEXTSTYLE_2
 71
2
 72
1
 10
89.8653869587
 20
14.5172704461
 30
0.0
 11
1.0
 21
0.0
 31
0.0
 44
0.9
  1
ANGLES
 40
0.6
 41
2.88
  0
MTEXT
  5
345
100
AcDbEntity
  8
DRW_FORMAT
100
AcDbMText
 62
2
  6
CONTINUOUS
  7
TEXTSTYLE_2
 71
2
 72
1
 10
84.8653869587
 20
14.5172704461
 30
0.0
 11
1.0
 21
0.0
 31
0.0
 44
0.9
  1
DECIMALS
 40
0.6
 41
3.84
  0
MTEXT
  5
346
100
AcDbEntity
  8
DRW_FORMAT
100
AcDbMText
 62
2
  6
CONTINUOUS
  7
TEXTSTYLE_2
 71
2
 72
1
 10
79.8653869587
 20
14.5172704461
 30
0.0
 11
1.0
 21
0.0
 31
0.0
 44
0.9
  1
DECIMALS
 40
0.6
 41
3.84
  0
MTEXT
  5
347
100
AcDbEntity
  8
DRW_FORMAT
100
AcDbMText
 62
2
  6
CONTINUOUS
  7
TEXTSTYLE_2
 71
1
 72
1
 10
121.1153869587
 20
15.9881037794
 30
0.0
 11
1.0
 21
0.0
 31
0.0
 44
0.9
  1
COSTA MESA, CA  92626
 40
0.8333333333
 41
14.0
  0
MTEXT
  5
348
100
AcDbEntity
  8
DRW_FORMAT
100
AcDbMText
 62
2
  6
CONTINUOUS
  7
TEXTSTYLE_2
 71
2
 72
1
 10
84.8653869587
 20
15.7547704461
 30
0.0
 11
1.0
 21
0.0
 31
0.0
 44
0.9
  1
TOLERANCES ARE:
 40
0.6
 41
7.2
  0
MTEXT
  5
349
100
AcDbEntity
  8
DRW_FORMAT
100
AcDbMText
 62
2
  6
CONTINUOUS
  7
TEXTSTYLE_2
 71
1
 72
1
 10
121.1153869587
 20
17.2381037794
 30
0.0
 11
1.0
 21
0.0
 31
0.0
 44
0.9
  1
1675 MACARTHUR BOULEVARD
 40
0.8333333333
 41
16.0
  0
MTEXT
  5
34A
100
AcDbEntity
  8
DRW_FORMAT
100
AcDbMText
 62
2
  6
CONTINUOUS
  7
TEXTSTYLE_2
 71
1
 72
1
 10
121.1153869587
 20
18.6964371127
 30
0.0
 11
1.0
 21
0.0
 31
0.0
 44
0.9
  1
QSC AUDIO PRODUCTS, LLC
 40
1.0416666667
 41
19.1666666667
  0
MTEXT
  5
34B
100
AcDbEntity
  8
DRW_FORMAT
100
AcDbMText
 62
2
  6
CONTINUOUS
  7
TEXTSTYLE_2
 71
1
 72
1
 10
92.7820536254
 20
19.0881037794
 30
0.0
 11
1.0
 21
0.0
 31
0.0
 44
0.9
  1
CONTRACT NO.
 40
0.6
 41
5.76
  0
MTEXT
  5
34C
100
AcDbEntity
  8
DRW_FORMAT
100
AcDbMText
 62
2
  6
CONTINUOUS
  7
TEXTSTYLE_2
 71
2
 72
1
 10
84.8653869587
 20
18.2797704461
 30
0.0
 11
1.0
 21
0.0
 31
0.0
 44
0.9
  1
UNLESS OTHERWISE SPECIFIED\PDIMENSIONS ARE IN INCHES.
 40
0.6
 41
12.48
  0
MTEXT
  5
34D
100
AcDbEntity
  8
0
100
AcDbMText
 62
2
  6
CONTINUOUS
  7
STANDARD
 71
1
 72
1
 10
5.1625200307
 20
4.3409642721
 30
0.0
 11
1.0
 21
0.0
 31
0.0
 44
0.9
  1
NOTE:  UNLESS OTHERWISE SPECIFIED
 40
1.0416666667
 41
39.5461309524
  0
MTEXT
  5
34E
100
AcDbEntity
  8
0
100
AcDbMText
 62
2
  6
CONTINUOUS
  7
STANDARD
 71
1
 72
1
 10
5.2328721475
 20
9.5310454304
 30
0.0
 11
1.0
 21
0.0
 31
0.0
 44
0.9
  1
2. TOLERANCES (INCHES): .XX \Fgdt;{\Fgdt;`}\Ftxt; .13, ANGLES: 1\Fgdt;{\Fgdt;~}\Ftxt;.\P1. NET WEIGHT APPROX.: SB-5118- 160 LBS (72 KG).\P                       SB-7118- 162 LBS (73 KG).
 40
1.0416666667
 41
55.9151785714
  0
MTEXT
  5
34F
100
AcDbEntity
  8
0
100
AcDbMText
 62
2
  6
CONTINUOUS
  7
STANDARD
 71
1
 72
1
 10
31.3567568963
 20
26.4532246698
 30
0.0
 11
1.0
 21
0.0
 31
0.0
 44
0.9
  1
FRONT
 40
1.6666666667
 41
9.8214285714
  0
MTEXT
  5
350
100
AcDbEntity
  8
0
100
AcDbMText
 62
2
  6
CONTINUOUS
  7
STANDARD
 71
1
 72
1
 10
96.1800631187
 20
25.4896805921
 30
0.0
 11
1.0
 21
0.0
 31
0.0
 44
0.9
  1
RIGHT
 40
1.6666666667
 41
9.6428571429
  0
MTEXT
  5
351
100
AcDbEntity
  8
0
100
AcDbMText
 62
2
  6
CONTINUOUS
  7
STANDARD
 71
1
 72
1
 10
32.9542403523
 20
79.9454769453
 30
0.0
 11
1.0
 21
0.0
 31
0.0
 44
0.9
  1
TOP
 40
1.6666666667
 41
6.0714285714
  0
MTEXT
  5
352
100
AcDbEntity
  8
0
100
AcDbMText
 62
2
  6
CONTINUOUS
  7
STANDARD
 71
1
 72
1
 10
102.4224370982
 20
8.628350047
 30
0.0
 11
1.0
 21
0.0
 31
0.0
 44
0.9
  1
MKT
 40
0.6
 41
2.25
  0
LINE
  5
353
100
AcDbEntity
  8
DRW_FORMAT
100
AcDbLine
 62
7
  6
CONTINUOUS
 10
1.0935370466
 20
55.9813430625
 11
1.0935370466
 21
57.4364048525
  0
LINE
  5
354
100
AcDbEntity
  8
DRW_FORMAT
100
AcDbLine
 62
7
  6
PHANTOM
 10
0.0
 20
0.0
 11
0.0360555912
 21
113.4345346436
  0
LINE
  5
355
100
AcDbEntity
  8
DRW_FORMAT
100
AcDbLine
 62
7
  6
CONTINUOUS
 10
2.1929183363
 20
111.2776718985
 11
2.1568627451
 21
2.1568627451
  0
LINE
  5
356
100
AcDbEntity
  8
DRW_FORMAT
100
AcDbLine
 62
7
  6
CONTINUOUS
 10
15.40370265
 20
111.2776718985
 11
15.40370265
 21
109.1208091534
  0
LINE
  5
357
100
AcDbEntity
  8
DRW_FORMAT
100
AcDbLine
 62
7
  6
PHANTOM
 10
0.0
 20
0.0
 11
146.6666666667
 21
0.0
  0
LINE
  5
358
100
AcDbEntity
  8
DRW_FORMAT
100
AcDbLine
 62
7
  6
CONTINUOUS
 10
19.681372549
 20
2.1568627451
 11
19.681372549
 21
0.0
  0
LINE
  5
359
100
AcDbEntity
  8
DRW_FORMAT
100
AcDbLine
 62
7
  6
CONTINUOUS
 10
19.7174281402
 20
111.2776718985
 11
19.7174281402
 21
113.4345346436
  0
LINE
  5
35A
100
AcDbEntity
  8
0
100
AcDbLine
 62
7
  6
CONTINUOUS
 10
96.2895380017
 20
8.6964827182
 11
92.5411063999
 21
8.0659054394
  0
LINE
  5
35B
100
AcDbEntity
  8
DRW_FORMAT
100
AcDbLine
 62
7
  6
CONTINUOUS
 10
71.5273710658
 20
1.1321921345
 11
72.9824328558
 21
1.1321921345
  0
LINE
  5
35C
100
AcDbEntity
  8
DRW_FORMAT
100
AcDbLine
 62
7
  6
CONTINUOUS
 10
2.1568627451
 20
2.1568627451
 11
142.3529411765
 21
2.1568627451
  0
LINE
  5
35D
100
AcDbEntity
  8
DRW_FORMAT
100
AcDbLine
 62
7
  6
CONTINUOUS
 10
2.1182076571
 20
56.7088739575
 11
1.0935370466
 21
55.9813430625
  0
LINE
  5
35E
100
AcDbEntity
  8
0
100
AcDbLine
 62
7
  6
CONTINUOUS
 10
92.5340999857
 20
8.7315147892
 11
96.2825315875
 21
8.1149503388
  0
LINE
  5
35F
100
AcDbEntity
  8
DRW_FORMAT
100
AcDbLine
 62
7
  6
CONTINUOUS
 10
2.1182076571
 20
56.7088739575
 11
1.0935370466
 21
57.4364048525
  0
LINE
  5
360
100
AcDbEntity
  8
DRW_FORMAT
100
AcDbLine
 62
7
  6
CONTINUOUS
 10
37.2058823529
 20
2.1568627451
 11
37.2058823529
 21
0.0
  0
LINE
  5
361
100
AcDbEntity
  8
DRW_FORMAT
100
AcDbLine
 62
7
  6
CONTINUOUS
 10
37.2419379441
 20
111.2776718985
 11
37.2419379441
 21
113.4345346436
  0
LINE
  5
362
100
AcDbEntity
  8
DRW_FORMAT
100
AcDbLine
 62
7
  6
CONTINUOUS
 10
72.290957552
 20
111.2776718985
 11
73.018488447
 21
112.3023425091
  0
LWPOLYLINE
  5
363
100
AcDbEntity
  8
0
100
AcDbPolyline
 62
7
  6
CONTINUOUS
 90
2
 70
0
 43
0.1000000008
 10
77.4079803496
 20
19.1952926852
 10
92.3539139801
 20
10.4714859309
  0
LINE
  5
364
100
AcDbEntity
  8
DRW_FORMAT
100
AcDbLine
 62
7
  6
CONTINUOUS
 10
72.2549019608
 20
2.1568627451
 11
72.9824328558
 21
1.1321921345
  0
LINE
  5
365
100
AcDbEntity
  8
0
100
AcDbLine
 62
7
  6
CONTINUOUS
 10
144.5185919511
 20
29.4034427998
 11
142.361729206
 21
29.4034427998
  0
LINE
  5
366
100
AcDbEntity
  8
DRW_FORMAT
100
AcDbLine
 62
7
  6
CONTINUOUS
 10
2.1568627451
 20
29.4116080529
 11
0.0
 21
29.4116080529
  0
LINE
  5
367
100
AcDbEntity
  8
0
100
AcDbLine
 62
7
  6
CONTINUOUS
 10
48.4487086041
 20
29.9768946025
 11
48.4508261628
 21
29.9768946025
  0
LINE
  5
368
100
AcDbEntity
  8
DRW_FORMAT
100
AcDbLine
 62
7
  6
CONTINUOUS
 10
54.7303921569
 20
2.1568627451
 11
54.7303921569
 21
0.0
  0
LINE
  5
369
100
AcDbEntity
  8
DRW_FORMAT
100
AcDbLine
 62
7
  6
CONTINUOUS
 10
54.766447748
 20
111.2776718985
 11
54.766447748
 21
113.4345346436
  0
LINE
  5
36A
100
AcDbEntity
  8
0
100
AcDbLine
 62
7
  6
CONTINUOUS
 10
104.8737104722
 20
48.8851858338
 11
104.8837251962
 21
48.8848006521
  0
LINE
  5
36B
100
AcDbEntity
  8
DRW_FORMAT
100
AcDbLine
 62
7
  6
CONTINUOUS
 10
72.2549019608
 20
2.1568627451
 11
72.2549019608
 21
0.0
  0
LINE
  5
36C
100
AcDbEntity
  8
DRW_FORMAT
100
AcDbLine
 62
7
  6
CONTINUOUS
 10
72.290957552
 20
111.2776718985
 11
72.290957552
 21
113.4345346436
  0
LINE
  5
36D
100
AcDbEntity
  8
DRW_FORMAT
100
AcDbLine
 62
7
  6
CONTINUOUS
 10
142.4107653835
 20
56.7081138096
 11
144.5676281286
 21
56.7081138096
  0
LINE
  5
36E
100
AcDbEntity
  8
DRW_FORMAT
100
AcDbLine
 62
7
  6
CONTINUOUS
 10
2.1182076571
 20
56.7088739575
 11
-0.038655088
 21
56.7088739575
  0
LINE
  5
36F
100
AcDbEntity
  8
DRW_FORMAT
100
AcDbLine
 62
7
  6
CONTINUOUS
 10
89.7794117647
 20
2.1568627451
 11
89.7794117647
 21
0.0
  0
LINE
  5
370
100
AcDbEntity
  8
DRW_FORMAT
100
AcDbLine
 62
7
  6
CONTINUOUS
 10
89.8154673559
 20
111.2776718985
 11
89.8154673559
 21
113.4345346436
  0
LINE
  5
371
100
AcDbEntity
  8
DRW_FORMAT
100
AcDbLine
 62
7
  6
CONTINUOUS
 10
72.2549019608
 20
2.1568627451
 11
71.5273710658
 21
1.1321921345
  0
LINE
  5
372
100
AcDbEntity
  8
DRW_FORMAT
100
AcDbLine
 62
7
  6
CONTINUOUS
 10
2.1650357154
 20
83.9897114497
 11
0.0081729703
 21
83.9897114497
  0
LINE
  5
373
100
AcDbEntity
  8
DRW_FORMAT
100
AcDbLine
 62
7
  6
CONTINUOUS
 10
142.5285029157
 20
84.0259371908
 11
144.6853656608
 21
84.0259371908
  0
LINE
  5
374
100
AcDbEntity
  8
DRW_FORMAT
100
AcDbLine
 62
7
  6
CONTINUOUS
 10
72.290957552
 20
111.2776718985
 11
71.5634266569
 21
112.3023425091
  0
LINE
  5
375
100
AcDbEntity
  8
DRW_FORMAT
100
AcDbLine
 62
7
  6
CONTINUOUS
 10
107.3039215686
 20
2.1568627451
 11
107.3039215686
 21
0.0
  0
LINE
  5
376
100
AcDbEntity
  8
DRW_FORMAT
100
AcDbLine
 62
7
  6
CONTINUOUS
 10
107.3399771598
 20
111.2776718985
 11
107.3399771598
 21
113.4345346436
  0
LINE
  5
377
100
AcDbEntity
  8
DRW_FORMAT
100
AcDbLine
 62
7
  6
CONTINUOUS
 10
142.4107653835
 20
56.7081138096
 11
143.4354359937
 21
57.435644705
  0
LINE
  5
378
100
AcDbEntity
  8
DRW_FORMAT
100
AcDbLine
 62
7
  6
CONTINUOUS
 10
142.4107653835
 20
56.7081138096
 11
143.4354359937
 21
55.9805829145
  0
LWPOLYLINE
  5
379
100
AcDbEntity
  8
0
100
AcDbPolyline
 62
7
  6
CONTINUOUS
 90
2
 70
0
 43
0.1000000008
 10
92.3752958594
 20
19.1739108059
 10
77.4079803496
 20
10.4928678102
  0
LINE
  5
37A
100
AcDbEntity
  8
DRW_FORMAT
100
AcDbLine
 62
7
  6
CONTINUOUS
 10
124.8284313725
 20
2.1568627451
 11
124.8284313725
 21
0.0
  0
LINE
  5
37B
100
AcDbEntity
  8
DRW_FORMAT
100
AcDbLine
 62
7
  6
CONTINUOUS
 10
124.8644869637
 20
111.2776718985
 11
124.8644869637
 21
113.4345346436
  0
LINE
  5
37C
100
AcDbEntity
  8
DRW_FORMAT
100
AcDbLine
 62
7
  6
CONTINUOUS
 10
15.40370265
 20
109.1208091534
 11
2.1929183363
 21
109.1208091534
  0
LINE
  5
37D
100
AcDbEntity
  8
DRW_FORMAT
100
AcDbLine
 62
7
  6
CONTINUOUS
 10
142.3889967676
 20
111.2776718985
 11
2.1929183363
 21
111.2776718985
  0
LINE
  5
37E
100
AcDbEntity
  8
DRW_FORMAT
100
AcDbLine
 62
7
  6
CONTINUOUS
 10
71.5634266569
 20
112.3023425091
 11
73.018488447
 21
112.3023425091
  0
LINE
  5
37F
100
AcDbEntity
  8
DRW_FORMAT
100
AcDbLine
 62
7
  6
PHANTOM
 10
0.0360819213
 20
113.3801061943
 11
146.6666666667
 21
113.3801061943
  0
LINE
  5
380
100
AcDbEntity
  8
DRW_FORMAT
100
AcDbLine
 62
7
  6
CONTINUOUS
 10
143.4354359937
 20
55.9805829145
 11
143.4354359937
 21
57.435644705
  0
LINE
  5
381
100
AcDbEntity
  8
DRW_FORMAT
100
AcDbLine
 62
7
  6
PHANTOM
 10
146.6666666667
 20
0.0
 11
146.6666666667
 21
113.3801061943
  0
LINE
  5
382
100
AcDbEntity
  8
DRW_FORMAT
100
AcDbLine
 62
7
  6
CONTINUOUS
 10
142.3889967676
 20
111.2776718985
 11
142.3529411765
 21
2.1568627451
  0
LINE
  5
383
100
AcDbEntity
  8
CTRLS
100
AcDbLine
 62
7
  6
CONTINUOUS
 10
21.2086798236
 20
29.982747666
 11
22.4586798236
 21
29.982747666
  0
LINE
  5
384
100
AcDbEntity
  8
CTRLS
100
AcDbLine
 62
7
  6
CONTINUOUS
 10
47.2086798236
 20
29.982747666
 11
48.4586798236
 21
29.982747666
  0
LINE
  5
385
100
AcDbEntity
  8
7_ALL_ROUNDS
100
AcDbLine
 62
7
  6
CONTINUOUS
 10
49.5836798236
 20
30.702747666
 11
49.3836798236
 21
30.702747666
  0
LINE
  5
386
100
AcDbEntity
  8
7_ALL_ROUNDS
100
AcDbLine
 62
7
  6
CONTINUOUS
 10
20.3036798236
 20
30.702747666
 11
20.1036798236
 21
30.702747666
  0
LINE
  5
387
100
AcDbEntity
  8
7_ALL_ROUNDS
100
AcDbLine
 62
7
  6
CONTINUOUS
 10
49.3736798236
 20
30.732747666
 11
20.3136798236
 21
30.732747666
  0
LINE
  5
388
100
AcDbEntity
  8
3_AXES_OTHER
100
AcDbLine
 62
7
  6
CONTINUOUS
 10
29.1036798236
 20
64.962747666
 11
20.6036798236
 21
56.462747666
  0
LINE
  5
389
100
AcDbEntity
  8
7_ALL_ROUNDS
100
AcDbLine
 62
7
  6
CONTINUOUS
 10
29.1176798236
 20
64.962747666
 11
20.6036798236
 21
56.448747666
  0
LINE
  5
38A
100
AcDbEntity
  8
3_AXES_OTHER
100
AcDbLine
 62
7
  6
CONTINUOUS
 10
49.3736798236
 20
31.482747666
 11
20.3136798236
 21
31.482747666
  0
LINE
  5
38B
100
AcDbEntity
  8
3_AXES_OTHER
100
AcDbLine
 62
7
  6
CONTINUOUS
 10
20.3036798236
 20
31.492747666
 11
20.6036798236
 21
31.492747666
  0
LINE
  5
38C
100
AcDbEntity
  8
3_AXES_OTHER
100
AcDbLine
 62
7
  6
CONTINUOUS
 10
49.0836798236
 20
31.492747666
 11
49.3836798236
 21
31.492747666
  0
LINE
  5
38D
100
AcDbEntity
  8
7_ALL_ROUNDS
100
AcDbLine
 62
7
  6
CONTINUOUS
 10
47.5166798236
 20
31.5418027841
 11
48.1366504091
 21
31.5418027841
  0
LINE
  5
38E
100
AcDbEntity
  8
3_AXES_OTHER
100
AcDbLine
 62
7
  6
CONTINUOUS
 10
48.1366504091
 20
31.5418027841
 11
48.1506798236
 21
31.5418027841
  0
LINE
  5
38F
100
AcDbEntity
  8
7_ALL_ROUNDS
100
AcDbLine
 62
7
  6
CONTINUOUS
 10
19.8536798236
 20
30.952747666
 11
19.8536798236
 21
65.492747666
  0
LINE
  5
390
100
AcDbEntity
  8
7_ALL_ROUNDS
100
AcDbLine
 62
7
  6
CONTINUOUS
 10
20.3036798236
 20
30.702747666
 11
20.3036798236
 21
31.492747666
  0
LINE
  5
391
100
AcDbEntity
  8
7_ALL_ROUNDS
100
AcDbLine
 62
7
  6
CONTINUOUS
 10
20.3036798236
 20
64.952747666
 11
20.3036798236
 21
65.742747666
  0
LINE
  5
392
100
AcDbEntity
  8
7_ALL_ROUNDS
100
AcDbLine
 62
7
  6
CONTINUOUS
 10
20.3136798236
 20
30.732747666
 11
20.3136798236
 21
31.482747666
  0
LINE
  5
393
100
AcDbEntity
  8
7_ALL_ROUNDS
100
AcDbLine
 62
7
  6
CONTINUOUS
 10
20.3136798236
 20
64.962747666
 11
20.3136798236
 21
65.712747666
  0
LINE
  5
394
100
AcDbEntity
  8
3_AXES_OTHER
100
AcDbLine
 62
7
  6
CONTINUOUS
 10
20.6036798236
 20
64.952747666
 11
20.6036798236
 21
31.492747666
  0
LINE
  5
395
100
AcDbEntity
  8
CTRLS
100
AcDbLine
 62
7
  6
CONTINUOUS
 10
21.0836798236
 20
30.107747666
 11
21.0836798236
 21
30.732747666
  0
LINE
  5
396
100
AcDbEntity
  8
CTRLS
100
AcDbLine
 62
7
  6
CONTINUOUS
 10
22.5836798236
 20
30.107747666
 11
22.5836798236
 21
30.732747666
  0
LINE
  5
397
100
AcDbEntity
  8
CTRLS
100
AcDbLine
 62
7
  6
CONTINUOUS
 10
47.0836798236
 20
30.107747666
 11
47.0836798236
 21
30.732747666
  0
LINE
  5
398
100
AcDbEntity
  8
7_ALL_ROUNDS
100
AcDbLine
 62
7
  6
CONTINUOUS
 10
47.5166798236
 20
31.482747666
 11
47.5166798236
 21
31.5418027841
  0
LINE
  5
399
100
AcDbEntity
  8
3_AXES_OTHER
100
AcDbLine
 62
7
  6
CONTINUOUS
 10
48.1366504091
 20
31.482747666
 11
48.1366504091
 21
31.5418027841
  0
LINE
  5
39A
100
AcDbEntity
  8
7_ALL_ROUNDS
100
AcDbLine
 62
7
  6
CONTINUOUS
 10
48.1506798236
 20
31.482747666
 11
48.1506798236
 21
31.5418027841
  0
LINE
  5
39B
100
AcDbEntity
  8
CTRLS
100
AcDbLine
 62
7
  6
CONTINUOUS
 10
48.5836798236
 20
30.107747666
 11
48.5836798236
 21
30.732747666
  0
LINE
  5
39C
100
AcDbEntity
  8
3_AXES_OTHER
100
AcDbLine
 62
7
  6
CONTINUOUS
 10
49.0836798236
 20
64.952747666
 11
49.0836798236
 21
31.492747666
  0
LINE
  5
39D
100
AcDbEntity
  8
7_ALL_ROUNDS
100
AcDbLine
 62
7
  6
CONTINUOUS
 10
49.3736798236
 20
31.482747666
 11
49.3736798236
 21
30.732747666
  0
LINE
  5
39E
100
AcDbEntity
  8
7_ALL_ROUNDS
100
AcDbLine
 62
7
  6
CONTINUOUS
 10
49.3736798236
 20
64.962747666
 11
49.3736798236
 21
65.712747666
  0
LINE
  5
39F
100
AcDbEntity
  8
7_ALL_ROUNDS
100
AcDbLine
 62
7
  6
CONTINUOUS
 10
49.3836798236
 20
30.702747666
 11
49.3836798236
 21
31.492747666
  0
LINE
  5
3A0
100
AcDbEntity
  8
7_ALL_ROUNDS
100
AcDbLine
 62
7
  6
CONTINUOUS
 10
49.3836798236
 20
64.952747666
 11
49.3836798236
 21
65.742747666
  0
LINE
  5
3A1
100
AcDbEntity
  8
7_ALL_ROUNDS
100
AcDbLine
 62
7
  6
CONTINUOUS
 10
49.8336798236
 20
65.492747666
 11
49.8336798236
 21
30.952747666
  0
LINE
  5
3A2
100
AcDbEntity
  8
7_ALL_ROUNDS
100
AcDbLine
 62
7
  6
CONTINUOUS
 10
40.5696798236
 20
31.482747666
 11
49.0836798236
 21
39.996747666
  0
LINE
  5
3A3
100
AcDbEntity
  8
3_AXES_OTHER
100
AcDbLine
 62
7
  6
CONTINUOUS
 10
40.5836798236
 20
31.482747666
 11
49.0836798236
 21
39.982747666
  0
LINE
  5
3A4
100
AcDbEntity
  8
3_AXES_OTHER
100
AcDbLine
 62
7
  6
CONTINUOUS
 10
20.3036798236
 20
64.952747666
 11
20.6036798236
 21
64.952747666
  0
LINE
  5
3A5
100
AcDbEntity
  8
3_AXES_OTHER
100
AcDbLine
 62
7
  6
CONTINUOUS
 10
49.0836798236
 20
64.952747666
 11
49.3836798236
 21
64.952747666
  0
LINE
  5
3A6
100
AcDbEntity
  8
3_AXES_OTHER
100
AcDbLine
 62
7
  6
CONTINUOUS
 10
20.3136798236
 20
64.962747666
 11
49.3736798236
 21
64.962747666
  0
LINE
  5
3A7
100
AcDbEntity
  8
7_ALL_ROUNDS
100
AcDbLine
 62
7
  6
CONTINUOUS
 10
20.3136798236
 20
65.712747666
 11
49.3736798236
 21
65.712747666
  0
LINE
  5
3A8
100
AcDbEntity
  8
7_ALL_ROUNDS
100
AcDbLine
 62
7
  6
CONTINUOUS
 10
49.5836798236
 20
65.742747666
 11
49.3836798236
 21
65.742747666
  0
LINE
  5
3A9
100
AcDbEntity
  8
7_ALL_ROUNDS
100
AcDbLine
 62
7
  6
CONTINUOUS
 10
20.3036798236
 20
65.742747666
 11
20.1036798236
 21
65.742747666
  0
LINE
  5
3AA
100
AcDbEntity
  8
CTRLS
100
AcDbLine
 62
7
  6
CONTINUOUS
 10
107.2935058685
 20
29.982747666
 11
106.0435058685
 21
29.982747666
  0
LINE
  5
3AB
100
AcDbEntity
  8
CTRLS
100
AcDbLine
 62
7
  6
CONTINUOUS
 10
92.0435058685
 20
29.982747666
 11
90.7935058685
 21
29.982747666
  0
LINE
  5
3AC
100
AcDbEntity
  8
7_ALL_ROUNDS
100
AcDbLine
 62
7
  6
CONTINUOUS
 10
89.1685058685
 20
30.702747666
 11
108.9285058685
 21
30.702747666
  0
LINE
  5
3AD
100
AcDbEntity
  8
7_ALL_ROUNDS
100
AcDbLine
 62
7
  6
CONTINUOUS
 10
88.9185058685
 20
65.492747666
 11
88.9185058685
 21
30.952747666
  0
LINE
  5
3AE
100
AcDbEntity
  8
CTRLS
100
AcDbLine
 62
7
  6
CONTINUOUS
 10
90.6685058685
 20
30.107747666
 11
90.6685058685
 21
30.702747666
  0
LINE
  5
3AF
100
AcDbEntity
  8
CTRLS
100
AcDbLine
 62
7
  6
CONTINUOUS
 10
92.1685058685
 20
30.107747666
 11
92.1685058685
 21
30.702747666
  0
LINE
  5
3B0
100
AcDbEntity
  8
3_AXES_OTHER
100
AcDbLine
 62
7
  6
CONTINUOUS
 10
101.5655058685
 20
55.739747666
 11
101.5930837634
 21
55.755669771
  0
LINE
  5
3B1
100
AcDbEntity
  8
3_AXES_OTHER
100
AcDbLine
 62
7
  6
CONTINUOUS
 10
101.6815058685
 20
55.710747666
 11
101.6539279736
 21
55.6948255609
  0
LINE
  5
3B2
100
AcDbEntity
  8
3_AXES_OTHER
100
AcDbLine
 62
7
  6
CONTINUOUS
 10
100.2555058685
 20
54.007247666
 11
100.2830837634
 21
54.023169771
  0
LINE
  5
3B3
100
AcDbEntity
  8
3_AXES_OTHER
100
AcDbLine
 62
7
  6
CONTINUOUS
 10
100.3715058685
 20
53.978247666
 11
100.3439279736
 21
53.9623255609
  0
LINE
  5
3B4
100
AcDbEntity
  8
3_AXES_OTHER
100
AcDbLine
 62
7
  6
CONTINUOUS
 10
103.5655058685
 20
55.739747666
 11
103.5930837634
 21
55.755669771
  0
LINE
  5
3B5
100
AcDbEntity
  8
3_AXES_OTHER
100
AcDbLine
 62
7
  6
CONTINUOUS
 10
103.6815058685
 20
55.710747666
 11
103.6539279736
 21
55.6948255609
  0
LINE
  5
3B6
100
AcDbEntity
  8
3_AXES_OTHER
100
AcDbLine
 62
7
  6
CONTINUOUS
 10
101.5930837634
 20
55.6948255609
 11
101.6539279736
 21
55.755669771
  0
LINE
  5
3B7
100
AcDbEntity
  8
3_AXES_OTHER
100
AcDbLine
 62
7
  6
CONTINUOUS
 10
100.2830837634
 20
53.9623255609
 11
100.3439279736
 21
54.023169771
  0
LINE
  5
3B8
100
AcDbEntity
  8
3_AXES_OTHER
100
AcDbLine
 62
7
  6
CONTINUOUS
 10
100.2830837634
 20
54.023169771
 11
100.2990058685
 21
54.050747666
  0
LINE
  5
3B9
100
AcDbEntity
  8
3_AXES_OTHER
100
AcDbLine
 62
7
  6
CONTINUOUS
 10
100.3439279736
 20
53.9623255609
 11
100.3280058685
 21
53.934747666
  0
LINE
  5
3BA
100
AcDbEntity
  8
3_AXES_OTHER
100
AcDbLine
 62
7
  6
CONTINUOUS
 10
101.5930837634
 20
55.755669771
 11
101.6090058685
 21
55.783247666
  0
LINE
  5
3BB
100
AcDbEntity
  8
3_AXES_OTHER
100
AcDbLine
 62
7
  6
CONTINUOUS
 10
101.6539279736
 20
55.6948255609
 11
101.6380058685
 21
55.667247666
  0
LINE
  5
3BC
100
AcDbEntity
  8
3_AXES_OTHER
100
AcDbLine
 62
7
  6
CONTINUOUS
 10
103.5930837634
 20
55.6948255609
 11
103.6539279736
 21
55.755669771
  0
LINE
  5
3BD
100
AcDbEntity
  8
3_AXES_OTHER
100
AcDbLine
 62
7
  6
CONTINUOUS
 10
100.2830837634
 20
50.8023255609
 11
100.3439279736
 21
50.863169771
  0
LINE
  5
3BE
100
AcDbEntity
  8
3_AXES_OTHER
100
AcDbLine
 62
7
  6
CONTINUOUS
 10
104.8755058685
 20
54.007247666
 11
104.9030837634
 21
54.023169771
  0
LINE
  5
3BF
100
AcDbEntity
  8
3_AXES_OTHER
100
AcDbLine
 62
7
  6
CONTINUOUS
 10
104.9915058685
 20
53.978247666
 11
104.9639279736
 21
53.9623255609
  0
LINE
  5
3C0
100
AcDbEntity
  8
3_AXES_OTHER
100
AcDbLine
 62
7
  6
CONTINUOUS
 10
100.2555058685
 20
50.847247666
 11
100.2830837634
 21
50.863169771
  0
LINE
  5
3C1
100
AcDbEntity
  8
3_AXES_OTHER
100
AcDbLine
 62
7
  6
CONTINUOUS
 10
100.3715058685
 20
50.818247666
 11
100.3439279736
 21
50.8023255609
  0
LINE
  5
3C2
100
AcDbEntity
  8
3_AXES_OTHER
100
AcDbLine
 62
7
  6
CONTINUOUS
 10
100.2990058685
 20
53.934747666
 11
100.3280058685
 21
54.050747666
  0
LINE
  5
3C3
100
AcDbEntity
  8
3_AXES_OTHER
100
AcDbLine
 62
7
  6
CONTINUOUS
 10
100.2830837634
 20
50.863169771
 11
100.2990058685
 21
50.890747666
  0
LINE
  5
3C4
100
AcDbEntity
  8
3_AXES_OTHER
100
AcDbLine
 62
7
  6
CONTINUOUS
 10
100.3439279736
 20
50.8023255609
 11
100.3280058685
 21
50.774747666
  0
LINE
  5
3C5
100
AcDbEntity
  8
3_AXES_OTHER
100
AcDbLine
 62
7
  6
CONTINUOUS
 10
103.5930837634
 20
55.755669771
 11
103.6090058685
 21
55.783247666
  0
LINE
  5
3C6
100
AcDbEntity
  8
3_AXES_OTHER
100
AcDbLine
 62
7
  6
CONTINUOUS
 10
103.6539279736
 20
55.6948255609
 11
103.6380058685
 21
55.667247666
  0
LINE
  5
3C7
100
AcDbEntity
  8
3_AXES_OTHER
100
AcDbLine
 62
7
  6
CONTINUOUS
 10
104.9030837634
 20
53.9623255609
 11
104.9639279736
 21
54.023169771
  0
LINE
  5
3C8
100
AcDbEntity
  8
3_AXES_OTHER
100
AcDbLine
 62
7
  6
CONTINUOUS
 10
101.5655058685
 20
49.114747666
 11
101.5930837634
 21
49.130669771
  0
LINE
  5
3C9
100
AcDbEntity
  8
3_AXES_OTHER
100
AcDbLine
 62
7
  6
CONTINUOUS
 10
103.5655058685
 20
49.085747666
 11
103.6815058685
 21
49.114747666
  0
LINE
  5
3CA
100
AcDbEntity
  8
7_ALL_ROUNDS
100
AcDbLine
 62
7
  6
CONTINUOUS
 10
100.0985058685
 20
55.774747666
 11
100.0985058685
 21
49.050747666
  0
LINE
  5
3CB
100
AcDbEntity
  8
3_ALL_AXES
100
AcDbLine
 62
7
  6
CONTINUOUS
 10
100.1335058685
 20
55.720747666
 11
100.1335058685
 21
49.104747666
  0
LINE
  5
3CC
100
AcDbEntity
  8
3_AXES_OTHER
100
AcDbLine
 62
7
  6
CONTINUOUS
 10
100.2265058685
 20
50.818247666
 11
100.2265058685
 21
50.847247666
  0
LINE
  5
3CD
100
AcDbEntity
  8
3_AXES_OTHER
100
AcDbLine
 62
7
  6
CONTINUOUS
 10
100.2265058685
 20
53.978247666
 11
100.2265058685
 21
54.007247666
  0
LINE
  5
3CE
100
AcDbEntity
  8
3_AXES_OTHER
100
AcDbLine
 62
7
  6
CONTINUOUS
 10
100.2990058685
 20
50.745747666
 11
100.2990058685
 21
50.774747666
  0
LINE
  5
3CF
100
AcDbEntity
  8
3_AXES_OTHER
100
AcDbLine
 62
7
  6
CONTINUOUS
 10
100.2990058685
 20
50.890747666
 11
100.2990058685
 21
50.919747666
  0
LINE
  5
3D0
100
AcDbEntity
  8
3_AXES_OTHER
100
AcDbLine
 62
7
  6
CONTINUOUS
 10
100.2990058685
 20
53.905747666
 11
100.2990058685
 21
53.934747666
  0
LINE
  5
3D1
100
AcDbEntity
  8
3_AXES_OTHER
100
AcDbLine
 62
7
  6
CONTINUOUS
 10
100.2990058685
 20
54.050747666
 11
100.2990058685
 21
54.079747666
  0
LINE
  5
3D2
100
AcDbEntity
  8
3_AXES_OTHER
100
AcDbLine
 62
7
  6
CONTINUOUS
 10
100.3280058685
 20
54.079747666
 11
100.3280058685
 21
54.050747666
  0
LINE
  5
3D3
100
AcDbEntity
  8
3_AXES_OTHER
100
AcDbLine
 62
7
  6
CONTINUOUS
 10
100.3280058685
 20
53.934747666
 11
100.3280058685
 21
53.905747666
  0
LINE
  5
3D4
100
AcDbEntity
  8
3_AXES_OTHER
100
AcDbLine
 62
7
  6
CONTINUOUS
 10
100.3280058685
 20
50.919747666
 11
100.3280058685
 21
50.890747666
  0
LINE
  5
3D5
100
AcDbEntity
  8
3_AXES_OTHER
100
AcDbLine
 62
7
  6
CONTINUOUS
 10
100.3280058685
 20
50.774747666
 11
100.3280058685
 21
50.745747666
  0
LINE
  5
3D6
100
AcDbEntity
  8
3_AXES_OTHER
100
AcDbLine
 62
7
  6
CONTINUOUS
 10
100.4005058685
 20
54.007247666
 11
100.4005058685
 21
53.978247666
  0
LINE
  5
3D7
100
AcDbEntity
  8
3_AXES_OTHER
100
AcDbLine
 62
7
  6
CONTINUOUS
 10
100.4005058685
 20
50.847247666
 11
100.4005058685
 21
50.818247666
  0
LINE
  5
3D8
100
AcDbEntity
  8
3_AXES_OTHER
100
AcDbLine
 62
7
  6
CONTINUOUS
 10
100.2990058685
 20
53.905747666
 11
100.3280058685
 21
54.079747666
  0
LINE
  5
3D9
100
AcDbEntity
  8
3_AXES_OTHER
100
AcDbLine
 62
7
  6
CONTINUOUS
 10
100.2990058685
 20
50.745747666
 11
100.3280058685
 21
50.919747666
  0
LINE
  5
3DA
100
AcDbEntity
  8
3_AXES_OTHER
100
AcDbLine
 62
7
  6
CONTINUOUS
 10
101.6090058685
 20
55.638247666
 11
101.6380058685
 21
55.812247666
  0
LINE
  5
3DB
100
AcDbEntity
  8
3_AXES_OTHER
100
AcDbLine
 62
7
  6
CONTINUOUS
 10
100.2990058685
 20
50.774747666
 11
100.3280058685
 21
50.890747666
  0
LINE
  5
3DC
100
AcDbEntity
  8
3_AXES_OTHER
100
AcDbLine
 62
7
  6
CONTINUOUS
 10
101.6090058685
 20
55.667247666
 11
101.6380058685
 21
55.783247666
  0
LINE
  5
3DD
100
AcDbEntity
  8
3_AXES_OTHER
100
AcDbLine
 62
7
  6
CONTINUOUS
 10
101.5930837634
 20
49.0698255609
 11
101.6539279736
 21
49.130669771
  0
LINE
  5
3DE
100
AcDbEntity
  8
3_AXES_OTHER
100
AcDbLine
 62
7
  6
CONTINUOUS
 10
101.6815058685
 20
49.085747666
 11
101.6539279736
 21
49.0698255609
  0
LINE
  5
3DF
100
AcDbEntity
  8
3_AXES_OTHER
100
AcDbLine
 62
7
  6
CONTINUOUS
 10
104.8755058685
 20
50.847247666
 11
104.9030837634
 21
50.863169771
  0
LINE
  5
3E0
100
AcDbEntity
  8
3_AXES_OTHER
100
AcDbLine
 62
7
  6
CONTINUOUS
 10
104.9915058685
 20
50.818247666
 11
104.9639279736
 21
50.8023255609
  0
LINE
  5
3E1
100
AcDbEntity
  8
3_AXES_OTHER
100
AcDbLine
 62
7
  6
CONTINUOUS
 10
103.5655058685
 20
49.114747666
 11
103.5930837634
 21
49.130669771
  0
LINE
  5
3E2
100
AcDbEntity
  8
3_AXES_OTHER
100
AcDbLine
 62
7
  6
CONTINUOUS
 10
103.6815058685
 20
49.085747666
 11
103.6539279736
 21
49.0698255609
  0
LINE
  5
3E3
100
AcDbEntity
  8
3_AXES_OTHER
100
AcDbLine
 62
7
  6
CONTINUOUS
 10
101.5655058685
 20
49.085747666
 11
101.6815058685
 21
49.114747666
  0
LINE
  5
3E4
100
AcDbEntity
  8
3_AXES_OTHER
100
AcDbLine
 62
7
  6
CONTINUOUS
 10
104.8755058685
 20
50.818247666
 11
104.9915058685
 21
50.847247666
  0
LINE
  5
3E5
100
AcDbEntity
  8
3_AXES_OTHER
100
AcDbLine
 62
7
  6
CONTINUOUS
 10
103.5365058685
 20
49.085747666
 11
103.7105058685
 21
49.114747666
  0
LINE
  5
3E6
100
AcDbEntity
  8
3_AXES_OTHER
100
AcDbLine
 62
7
  6
CONTINUOUS
 10
101.5365058685
 20
49.085747666
 11
101.7105058685
 21
49.114747666
  0
LINE
  5
3E7
100
AcDbEntity
  8
7_ALL_ROUNDS
100
AcDbLine
 62
7
  6
CONTINUOUS
 10
100.2865058685
 20
48.862747666
 11
104.9605058685
 21
48.862747666
  0
LINE
  5
3E8
100
AcDbEntity
  8
3_ALL_AXES
100
AcDbLine
 62
7
  6
CONTINUOUS
 10
100.3205058685
 20
48.917747666
 11
104.9265058685
 21
48.917747666
  0
LINE
  5
3E9
100
AcDbEntity
  8
3_AXES_OTHER
100
AcDbLine
 62
7
  6
CONTINUOUS
 10
103.6380058685
 20
49.013247666
 11
103.6090058685
 21
49.013247666
  0
LINE
  5
3EA
100
AcDbEntity
  8
3_AXES_OTHER
100
AcDbLine
 62
7
  6
CONTINUOUS
 10
101.6380058685
 20
49.013247666
 11
101.6090058685
 21
49.013247666
  0
LINE
  5
3EB
100
AcDbEntity
  8
3_AXES_OTHER
100
AcDbLine
 62
7
  6
CONTINUOUS
 10
103.7105058685
 20
49.085747666
 11
103.6815058685
 21
49.085747666
  0
LINE
  5
3EC
100
AcDbEntity
  8
3_AXES_OTHER
100
AcDbLine
 62
7
  6
CONTINUOUS
 10
103.5655058685
 20
49.085747666
 11
103.5365058685
 21
49.085747666
  0
LINE
  5
3ED
100
AcDbEntity
  8
3_AXES_OTHER
100
AcDbLine
 62
7
  6
CONTINUOUS
 10
101.7105058685
 20
49.085747666
 11
101.6815058685
 21
49.085747666
  0
LINE
  5
3EE
100
AcDbEntity
  8
3_AXES_OTHER
100
AcDbLine
 62
7
  6
CONTINUOUS
 10
101.5655058685
 20
49.085747666
 11
101.5365058685
 21
49.085747666
  0
LINE
  5
3EF
100
AcDbEntity
  8
3_AXES_OTHER
100
AcDbLine
 62
7
  6
CONTINUOUS
 10
101.5365058685
 20
49.114747666
 11
101.5655058685
 21
49.114747666
  0
LINE
  5
3F0
100
AcDbEntity
  8
3_AXES_OTHER
100
AcDbLine
 62
7
  6
CONTINUOUS
 10
101.6815058685
 20
49.114747666
 11
101.7105058685
 21
49.114747666
  0
LINE
  5
3F1
100
AcDbEntity
  8
3_AXES_OTHER
100
AcDbLine
 62
7
  6
CONTINUOUS
 10
103.5365058685
 20
49.114747666
 11
103.5655058685
 21
49.114747666
  0
LINE
  5
3F2
100
AcDbEntity
  8
3_AXES_OTHER
100
AcDbLine
 62
7
  6
CONTINUOUS
 10
103.6815058685
 20
49.114747666
 11
103.7105058685
 21
49.114747666
  0
LINE
  5
3F3
100
AcDbEntity
  8
3_AXES_OTHER
100
AcDbLine
 62
7
  6
CONTINUOUS
 10
101.6090058685
 20
49.187247666
 11
101.6380058685
 21
49.187247666
  0
LINE
  5
3F4
100
AcDbEntity
  8
3_AXES_OTHER
100
AcDbLine
 62
7
  6
CONTINUOUS
 10
103.6090058685
 20
49.187247666
 11
103.6380058685
 21
49.187247666
  0
LINE
  5
3F5
100
AcDbEntity
  8
3_ALL_AXES
100
AcDbLine
 62
7
  6
CONTINUOUS
 10
100.8235058685
 20
49.795247666
 11
100.8235058685
 21
55.030247666
  0
LINE
  5
3F6
100
AcDbEntity
  8
3_ALL_AXES
100
AcDbLine
 62
7
  6
CONTINUOUS
 10
101.0295058685
 20
54.307747666
 11
101.0295058685
 21
53.607747666
  0
LINE
  5
3F7
100
AcDbEntity
  8
3_ALL_AXES
100
AcDbLine
 62
7
  6
CONTINUOUS
 10
101.1545058685
 20
54.307747666
 11
101.1545058685
 21
53.607747666
  0
LINE
  5
3F8
100
AcDbEntity
  8
3_ALL_AXES
100
AcDbLine
 62
7
  6
CONTINUOUS
 10
101.5295058685
 20
54.307747666
 11
101.5295058685
 21
53.607747666
  0
LINE
  5
3F9
100
AcDbEntity
  8
3_AXES_OTHER
100
AcDbLine
 62
7
  6
CONTINUOUS
 10
101.5365058685
 20
49.085747666
 11
101.5365058685
 21
49.114747666
  0
LINE
  5
3FA
100
AcDbEntity
  8
3_AXES_OTHER
100
AcDbLine
 62
7
  6
CONTINUOUS
 10
101.5365058685
 20
55.710747666
 11
101.5365058685
 21
55.739747666
  0
LINE
  5
3FB
100
AcDbEntity
  8
3_AXES_OTHER
100
AcDbLine
 62
7
  6
CONTINUOUS
 10
101.6090058685
 20
49.013247666
 11
101.6090058685
 21
49.042247666
  0
LINE
  5
3FC
100
AcDbEntity
  8
3_AXES_OTHER
100
AcDbLine
 62
7
  6
CONTINUOUS
 10
101.6090058685
 20
49.158247666
 11
101.6090058685
 21
49.187247666
  0
LINE
  5
3FD
100
AcDbEntity
  8
3_AXES_OTHER
100
AcDbLine
 62
7
  6
CONTINUOUS
 10
101.6090058685
 20
55.638247666
 11
101.6090058685
 21
55.667247666
  0
LINE
  5
3FE
100
AcDbEntity
  8
3_AXES_OTHER
100
AcDbLine
 62
7
  6
CONTINUOUS
 10
101.6090058685
 20
55.783247666
 11
101.6090058685
 21
55.812247666
  0
LINE
  5
3FF
100
AcDbEntity
  8
7_ALL_ROUNDS
100
AcDbLine
 62
7
  6
CONTINUOUS
 10
101.6235058685
 20
50.232747666
 11
101.6235058685
 21
51.232747666
  0
LINE
  5
400
100
AcDbEntity
  8
3_AXES_OTHER
100
AcDbLine
 62
7
  6
CONTINUOUS
 10
101.6380058685
 20
55.812247666
 11
101.6380058685
 21
55.783247666
  0
LINE
  5
401
100
AcDbEntity
  8
3_AXES_OTHER
100
AcDbLine
 62
7
  6
CONTINUOUS
 10
101.6380058685
 20
55.667247666
 11
101.6380058685
 21
55.638247666
  0
LINE
  5
402
100
AcDbEntity
  8
3_AXES_OTHER
100
AcDbLine
 62
7
  6
CONTINUOUS
 10
101.6380058685
 20
49.187247666
 11
101.6380058685
 21
49.158247666
  0
LINE
  5
403
100
AcDbEntity
  8
3_AXES_OTHER
100
AcDbLine
 62
7
  6
CONTINUOUS
 10
101.6380058685
 20
49.042247666
 11
101.6380058685
 21
49.013247666
  0
LINE
  5
404
100
AcDbEntity
  8
3_ALL_AXES
100
AcDbLine
 62
7
  6
CONTINUOUS
 10
101.6545058685
 20
54.307747666
 11
101.6545058685
 21
53.607747666
  0
LINE
  5
405
100
AcDbEntity
  8
3_AXES_OTHER
100
AcDbLine
 62
7
  6
CONTINUOUS
 10
101.7105058685
 20
55.739747666
 11
101.7105058685
 21
55.710747666
  0
LINE
  5
406
100
AcDbEntity
  8
3_AXES_OTHER
100
AcDbLine
 62
7
  6
CONTINUOUS
 10
101.7105058685
 20
49.114747666
 11
101.7105058685
 21
49.085747666
  0
LINE
  5
407
100
AcDbEntity
  8
3_AXES_OTHER
100
AcDbLine
 62
7
  6
CONTINUOUS
 10
101.6090058685
 20
49.013247666
 11
101.6380058685
 21
49.187247666
  0
LINE
  5
408
100
AcDbEntity
  8
3_AXES_OTHER
100
AcDbLine
 62
7
  6
CONTINUOUS
 10
101.6090058685
 20
49.042247666
 11
101.6380058685
 21
49.158247666
  0
LINE
  5
409
100
AcDbEntity
  8
3_AXES_OTHER
100
AcDbLine
 62
7
  6
CONTINUOUS
 10
103.6090058685
 20
55.667247666
 11
103.6380058685
 21
55.783247666
  0
LINE
  5
40A
100
AcDbEntity
  8
3_AXES_OTHER
100
AcDbLine
 62
7
  6
CONTINUOUS
 10
101.5930837634
 20
49.130669771
 11
101.6090058685
 21
49.158247666
  0
LINE
  5
40B
100
AcDbEntity
  8
3_AXES_OTHER
100
AcDbLine
 62
7
  6
CONTINUOUS
 10
101.6539279736
 20
49.0698255609
 11
101.6380058685
 21
49.042247666
  0
LINE
  5
40C
100
AcDbEntity
  8
3_AXES_OTHER
100
AcDbLine
 62
7
  6
CONTINUOUS
 10
104.9030837634
 20
54.023169771
 11
104.9190058685
 21
54.050747666
  0
LINE
  5
40D
100
AcDbEntity
  8
3_AXES_OTHER
100
AcDbLine
 62
7
  6
CONTINUOUS
 10
104.9639279736
 20
53.9623255609
 11
104.9480058685
 21
53.934747666
  0
LINE
  5
40E
100
AcDbEntity
  8
3_AXES_OTHER
100
AcDbLine
 62
7
  6
CONTINUOUS
 10
104.9030837634
 20
50.8023255609
 11
104.9639279736
 21
50.863169771
  0
LINE
  5
40F
100
AcDbEntity
  8
3_AXES_OTHER
100
AcDbLine
 62
7
  6
CONTINUOUS
 10
103.5930837634
 20
49.0698255609
 11
103.6539279736
 21
49.130669771
  0
LINE
  5
410
100
AcDbEntity
  8
3_AXES_OTHER
100
AcDbLine
 62
7
  6
CONTINUOUS
 10
100.2555058685
 20
50.818247666
 11
100.3715058685
 21
50.847247666
  0
LINE
  5
411
100
AcDbEntity
  8
3_AXES_OTHER
100
AcDbLine
 62
7
  6
CONTINUOUS
 10
104.8465058685
 20
50.818247666
 11
105.0205058685
 21
50.847247666
  0
LINE
  5
412
100
AcDbEntity
  8
3_AXES_OTHER
100
AcDbLine
 62
7
  6
CONTINUOUS
 10
100.2265058685
 20
50.818247666
 11
100.4005058685
 21
50.847247666
  0
LINE
  5
413
100
AcDbEntity
  8
3_ALL_AXES
100
AcDbLine
 62
7
  6
CONTINUOUS
 10
104.2360058685
 20
49.607747666
 11
101.0110058685
 21
49.607747666
  0
LINE
  5
414
100
AcDbEntity
  8
7_ALL_ROUNDS
100
AcDbLine
 62
7
  6
CONTINUOUS
 10
101.7485058685
 20
50.107747666
 11
103.4985058685
 21
50.107747666
  0
LINE
  5
415
100
AcDbEntity
  8
3_AXES_OTHER
100
AcDbLine
 62
7
  6
CONTINUOUS
 10
104.9480058685
 20
50.745747666
 11
104.9190058685
 21
50.745747666
  0
LINE
  5
416
100
AcDbEntity
  8
3_AXES_OTHER
100
AcDbLine
 62
7
  6
CONTINUOUS
 10
100.3280058685
 20
50.745747666
 11
100.2990058685
 21
50.745747666
  0
LINE
  5
417
100
AcDbEntity
  8
3_AXES_OTHER
100
AcDbLine
 62
7
  6
CONTINUOUS
 10
101.5365058685
 20
49.114747666
 11
101.7105058685
 21
49.085747666
  0
LINE
  5
418
100
AcDbEntity
  8
3_AXES_OTHER
100
AcDbLine
 62
7
  6
CONTINUOUS
 10
103.5365058685
 20
49.114747666
 11
103.7105058685
 21
49.085747666
  0
LINE
  5
419
100
AcDbEntity
  8
3_AXES_OTHER
100
AcDbLine
 62
7
  6
CONTINUOUS
 10
101.5655058685
 20
49.114747666
 11
101.6815058685
 21
49.085747666
  0
LINE
  5
41A
100
AcDbEntity
  8
3_AXES_OTHER
100
AcDbLine
 62
7
  6
CONTINUOUS
 10
103.5655058685
 20
49.114747666
 11
103.6815058685
 21
49.085747666
  0
LINE
  5
41B
100
AcDbEntity
  8
3_AXES_OTHER
100
AcDbLine
 62
7
  6
CONTINUOUS
 10
101.5930837634
 20
49.0698255609
 11
101.5655058685
 21
49.085747666
  0
LINE
  5
41C
100
AcDbEntity
  8
3_AXES_OTHER
100
AcDbLine
 62
7
  6
CONTINUOUS
 10
101.6539279736
 20
49.130669771
 11
101.6815058685
 21
49.114747666
  0
LINE
  5
41D
100
AcDbEntity
  8
3_AXES_OTHER
100
AcDbLine
 62
7
  6
CONTINUOUS
 10
101.5930837634
 20
49.130669771
 11
101.6539279736
 21
49.0698255609
  0
LINE
  5
41E
100
AcDbEntity
  8
3_AXES_OTHER
100
AcDbLine
 62
7
  6
CONTINUOUS
 10
100.2990058685
 20
50.774747666
 11
100.2830837634
 21
50.8023255609
  0
LINE
  5
41F
100
AcDbEntity
  8
3_AXES_OTHER
100
AcDbLine
 62
7
  6
CONTINUOUS
 10
100.3280058685
 20
50.890747666
 11
100.3439279736
 21
50.863169771
  0
LINE
  5
420
100
AcDbEntity
  8
3_AXES_OTHER
100
AcDbLine
 62
7
  6
CONTINUOUS
 10
101.6090058685
 20
49.042247666
 11
101.5930837634
 21
49.0698255609
  0
LINE
  5
421
100
AcDbEntity
  8
3_AXES_OTHER
100
AcDbLine
 62
7
  6
CONTINUOUS
 10
101.6380058685
 20
49.158247666
 11
101.6539279736
 21
49.130669771
  0
LINE
  5
422
100
AcDbEntity
  8
3_AXES_OTHER
100
AcDbLine
 62
7
  6
CONTINUOUS
 10
100.3280058685
 20
50.774747666
 11
100.2990058685
 21
50.890747666
  0
LINE
  5
423
100
AcDbEntity
  8
3_AXES_OTHER
100
AcDbLine
 62
7
  6
CONTINUOUS
 10
100.3280058685
 20
53.934747666
 11
100.2990058685
 21
54.050747666
  0
LINE
  5
424
100
AcDbEntity
  8
3_AXES_OTHER
100
AcDbLine
 62
7
  6
CONTINUOUS
 10
101.6380058685
 20
49.042247666
 11
101.6090058685
 21
49.158247666
  0
LINE
  5
425
100
AcDbEntity
  8
3_AXES_OTHER
100
AcDbLine
 62
7
  6
CONTINUOUS
 10
100.3280058685
 20
50.745747666
 11
100.2990058685
 21
50.919747666
  0
LINE
  5
426
100
AcDbEntity
  8
3_AXES_OTHER
100
AcDbLine
 62
7
  6
CONTINUOUS
 10
100.3280058685
 20
53.905747666
 11
100.2990058685
 21
54.079747666
  0
LINE
  5
427
100
AcDbEntity
  8
3_AXES_OTHER
100
AcDbLine
 62
7
  6
CONTINUOUS
 10
101.6380058685
 20
49.013247666
 11
101.6090058685
 21
49.187247666
  0
LINE
  5
428
100
AcDbEntity
  8
3_ALL_AXES
100
AcDbLine
 62
7
  6
CONTINUOUS
 10
102.0295058685
 20
54.307747666
 11
102.0295058685
 21
53.607747666
  0
LINE
  5
429
100
AcDbEntity
  8
3_ALL_AXES
100
AcDbLine
 62
7
  6
CONTINUOUS
 10
102.1545058685
 20
54.307747666
 11
102.1545058685
 21
53.607747666
  0
LINE
  5
42A
100
AcDbEntity
  8
3_ALL_AXES
100
AcDbLine
 62
7
  6
CONTINUOUS
 10
102.2485058685
 20
51.682747666
 11
102.2485058685
 21
52.132747666
  0
LINE
  5
42B
100
AcDbEntity
  8
3_ALL_AXES
100
AcDbLine
 62
7
  6
CONTINUOUS
 10
102.5620058685
 20
54.307747666
 11
102.5620058685
 21
53.607747666
  0
LINE
  5
42C
100
AcDbEntity
  8
3_ALL_AXES
100
AcDbLine
 62
7
  6
CONTINUOUS
 10
102.6870058685
 20
54.307747666
 11
102.6870058685
 21
53.607747666
  0
LINE
  5
42D
100
AcDbEntity
  8
3_ALL_AXES
100
AcDbLine
 62
7
  6
CONTINUOUS
 10
102.9985058685
 20
52.132747666
 11
102.9985058685
 21
51.682747666
  0
LINE
  5
42E
100
AcDbEntity
  8
3_ALL_AXES
100
AcDbLine
 62
7
  6
CONTINUOUS
 10
103.0945058685
 20
54.307747666
 11
103.0945058685
 21
53.607747666
  0
LINE
  5
42F
100
AcDbEntity
  8
3_ALL_AXES
100
AcDbLine
 62
7
  6
CONTINUOUS
 10
103.2195058685
 20
54.307747666
 11
103.2195058685
 21
53.607747666
  0
LINE
  5
430
100
AcDbEntity
  8
3_AXES_OTHER
100
AcDbLine
 62
7
  6
CONTINUOUS
 10
103.6090058685
 20
55.638247666
 11
103.6380058685
 21
55.812247666
  0
LINE
  5
431
100
AcDbEntity
  8
3_AXES_OTHER
100
AcDbLine
 62
7
  6
CONTINUOUS
 10
103.6090058685
 20
49.042247666
 11
103.6380058685
 21
49.158247666
  0
LINE
  5
432
100
AcDbEntity
  8
3_AXES_OTHER
100
AcDbLine
 62
7
  6
CONTINUOUS
 10
104.9190058685
 20
53.934747666
 11
104.9480058685
 21
54.050747666
  0
LINE
  5
433
100
AcDbEntity
  8
3_AXES_OTHER
100
AcDbLine
 62
7
  6
CONTINUOUS
 10
103.5930837634
 20
49.130669771
 11
103.6090058685
 21
49.158247666
  0
LINE
  5
434
100
AcDbEntity
  8
3_AXES_OTHER
100
AcDbLine
 62
7
  6
CONTINUOUS
 10
103.6539279736
 20
49.0698255609
 11
103.6380058685
 21
49.042247666
  0
LINE
  5
435
100
AcDbEntity
  8
3_AXES_OTHER
100
AcDbLine
 62
7
  6
CONTINUOUS
 10
104.9030837634
 20
50.863169771
 11
104.9190058685
 21
50.890747666
  0
LINE
  5
436
100
AcDbEntity
  8
3_AXES_OTHER
100
AcDbLine
 62
7
  6
CONTINUOUS
 10
104.9639279736
 20
50.8023255609
 11
104.9480058685
 21
50.774747666
  0
LINE
  5
437
100
AcDbEntity
  8
3_AXES_OTHER
100
AcDbLine
 62
7
  6
CONTINUOUS
 10
105.0205058685
 20
50.818247666
 11
104.9915058685
 21
50.818247666
  0
LINE
  5
438
100
AcDbEntity
  8
3_AXES_OTHER
100
AcDbLine
 62
7
  6
CONTINUOUS
 10
104.8755058685
 20
50.818247666
 11
104.8465058685
 21
50.818247666
  0
LINE
  5
439
100
AcDbEntity
  8
3_AXES_OTHER
100
AcDbLine
 62
7
  6
CONTINUOUS
 10
100.4005058685
 20
50.818247666
 11
100.3715058685
 21
50.818247666
  0
LINE
  5
43A
100
AcDbEntity
  8
3_AXES_OTHER
100
AcDbLine
 62
7
  6
CONTINUOUS
 10
100.2555058685
 20
50.818247666
 11
100.2265058685
 21
50.818247666
  0
LINE
  5
43B
100
AcDbEntity
  8
3_AXES_OTHER
100
AcDbLine
 62
7
  6
CONTINUOUS
 10
100.2265058685
 20
50.847247666
 11
100.2555058685
 21
50.847247666
  0
LINE
  5
43C
100
AcDbEntity
  8
3_AXES_OTHER
100
AcDbLine
 62
7
  6
CONTINUOUS
 10
100.3715058685
 20
50.847247666
 11
100.4005058685
 21
50.847247666
  0
LINE
  5
43D
100
AcDbEntity
  8
3_AXES_OTHER
100
AcDbLine
 62
7
  6
CONTINUOUS
 10
104.8465058685
 20
50.847247666
 11
104.8755058685
 21
50.847247666
  0
LINE
  5
43E
100
AcDbEntity
  8
3_AXES_OTHER
100
AcDbLine
 62
7
  6
CONTINUOUS
 10
104.9915058685
 20
50.847247666
 11
105.0205058685
 21
50.847247666
  0
LINE
  5
43F
100
AcDbEntity
  8
3_AXES_OTHER
100
AcDbLine
 62
7
  6
CONTINUOUS
 10
100.2990058685
 20
50.919747666
 11
100.3280058685
 21
50.919747666
  0
LINE
  5
440
100
AcDbEntity
  8
3_AXES_OTHER
100
AcDbLine
 62
7
  6
CONTINUOUS
 10
104.9190058685
 20
50.919747666
 11
104.9480058685
 21
50.919747666
  0
LINE
  5
441
100
AcDbEntity
  8
7_ALL_ROUNDS
100
AcDbLine
 62
7
  6
CONTINUOUS
 10
101.7485058685
 20
51.357747666
 11
103.4985058685
 21
51.357747666
  0
LINE
  5
442
100
AcDbEntity
  8
3_ALL_AXES
100
AcDbLine
 62
7
  6
CONTINUOUS
 10
102.8735058685
 20
51.557747666
 11
102.3735058685
 21
51.557747666
  0
LINE
  5
443
100
AcDbEntity
  8
3_AXES_OTHER
100
AcDbLine
 62
7
  6
CONTINUOUS
 10
100.2265058685
 20
50.847247666
 11
100.4005058685
 21
50.818247666
  0
LINE
  5
444
100
AcDbEntity
  8
3_AXES_OTHER
100
AcDbLine
 62
7
  6
CONTINUOUS
 10
104.8465058685
 20
50.847247666
 11
105.0205058685
 21
50.818247666
  0
LINE
  5
445
100
AcDbEntity
  8
3_AXES_OTHER
100
AcDbLine
 62
7
  6
CONTINUOUS
 10
100.2555058685
 20
50.847247666
 11
100.3715058685
 21
50.818247666
  0
LINE
  5
446
100
AcDbEntity
  8
3_AXES_OTHER
100
AcDbLine
 62
7
  6
CONTINUOUS
 10
100.2830837634
 20
50.8023255609
 11
100.2555058685
 21
50.818247666
  0
LINE
  5
447
100
AcDbEntity
  8
3_AXES_OTHER
100
AcDbLine
 62
7
  6
CONTINUOUS
 10
100.3439279736
 20
50.863169771
 11
100.3715058685
 21
50.847247666
  0
LINE
  5
448
100
AcDbEntity
  8
3_AXES_OTHER
100
AcDbLine
 62
7
  6
CONTINUOUS
 10
103.5930837634
 20
49.0698255609
 11
103.5655058685
 21
49.085747666
  0
LINE
  5
449
100
AcDbEntity
  8
3_AXES_OTHER
100
AcDbLine
 62
7
  6
CONTINUOUS
 10
103.6539279736
 20
49.130669771
 11
103.6815058685
 21
49.114747666
  0
LINE
  5
44A
100
AcDbEntity
  8
3_AXES_OTHER
100
AcDbLine
 62
7
  6
CONTINUOUS
 10
100.2830837634
 20
50.863169771
 11
100.3439279736
 21
50.8023255609
  0
LINE
  5
44B
100
AcDbEntity
  8
3_AXES_OTHER
100
AcDbLine
 62
7
  6
CONTINUOUS
 10
103.5930837634
 20
49.130669771
 11
103.6539279736
 21
49.0698255609
  0
LINE
  5
44C
100
AcDbEntity
  8
3_AXES_OTHER
100
AcDbLine
 62
7
  6
CONTINUOUS
 10
100.2990058685
 20
53.934747666
 11
100.2830837634
 21
53.9623255609
  0
LINE
  5
44D
100
AcDbEntity
  8
3_AXES_OTHER
100
AcDbLine
 62
7
  6
CONTINUOUS
 10
100.3280058685
 20
54.050747666
 11
100.3439279736
 21
54.023169771
  0
LINE
  5
44E
100
AcDbEntity
  8
3_AXES_OTHER
100
AcDbLine
 62
7
  6
CONTINUOUS
 10
101.6380058685
 20
55.638247666
 11
101.6090058685
 21
55.812247666
  0
LINE
  5
44F
100
AcDbEntity
  8
3_AXES_OTHER
100
AcDbLine
 62
7
  6
CONTINUOUS
 10
103.5365058685
 20
49.085747666
 11
103.5365058685
 21
49.114747666
  0
LINE
  5
450
100
AcDbEntity
  8
3_AXES_OTHER
100
AcDbLine
 62
7
  6
CONTINUOUS
 10
103.5365058685
 20
55.710747666
 11
103.5365058685
 21
55.739747666
  0
LINE
  5
451
100
AcDbEntity
  8
3_ALL_AXES
100
AcDbLine
 62
7
  6
CONTINUOUS
 10
103.5945058685
 20
54.307747666
 11
103.5945058685
 21
53.607747666
  0
LINE
  5
452
100
AcDbEntity
  8
3_AXES_OTHER
100
AcDbLine
 62
7
  6
CONTINUOUS
 10
103.6090058685
 20
49.013247666
 11
103.6090058685
 21
49.042247666
  0
LINE
  5
453
100
AcDbEntity
  8
3_AXES_OTHER
100
AcDbLine
 62
7
  6
CONTINUOUS
 10
103.6090058685
 20
49.158247666
 11
103.6090058685
 21
49.187247666
  0
LINE
  5
454
100
AcDbEntity
  8
3_AXES_OTHER
100
AcDbLine
 62
7
  6
CONTINUOUS
 10
103.6090058685
 20
55.638247666
 11
103.6090058685
 21
55.667247666
  0
LINE
  5
455
100
AcDbEntity
  8
3_AXES_OTHER
100
AcDbLine
 62
7
  6
CONTINUOUS
 10
103.6090058685
 20
55.783247666
 11
103.6090058685
 21
55.812247666
  0
LINE
  5
456
100
AcDbEntity
  8
7_ALL_ROUNDS
100
AcDbLine
 62
7
  6
CONTINUOUS
 10
103.6235058685
 20
50.232747666
 11
103.6235058685
 21
51.232747666
  0
LINE
  5
457
100
AcDbEntity
  8
3_AXES_OTHER
100
AcDbLine
 62
7
  6
CONTINUOUS
 10
103.6380058685
 20
55.812247666
 11
103.6380058685
 21
55.783247666
  0
LINE
  5
458
100
AcDbEntity
  8
3_AXES_OTHER
100
AcDbLine
 62
7
  6
CONTINUOUS
 10
103.6380058685
 20
55.667247666
 11
103.6380058685
 21
55.638247666
  0
LINE
  5
459
100
AcDbEntity
  8
3_AXES_OTHER
100
AcDbLine
 62
7
  6
CONTINUOUS
 10
103.6380058685
 20
49.187247666
 11
103.6380058685
 21
49.158247666
  0
LINE
  5
45A
100
AcDbEntity
  8
3_AXES_OTHER
100
AcDbLine
 62
7
  6
CONTINUOUS
 10
103.6380058685
 20
49.042247666
 11
103.6380058685
 21
49.013247666
  0
LINE
  5
45B
100
AcDbEntity
  8
3_AXES_OTHER
100
AcDbLine
 62
7
  6
CONTINUOUS
 10
103.7105058685
 20
55.739747666
 11
103.7105058685
 21
55.710747666
  0
LINE
  5
45C
100
AcDbEntity
  8
3_AXES_OTHER
100
AcDbLine
 62
7
  6
CONTINUOUS
 10
103.7105058685
 20
49.114747666
 11
103.7105058685
 21
49.085747666
  0
LINE
  5
45D
100
AcDbEntity
  8
3_ALL_AXES
100
AcDbLine
 62
7
  6
CONTINUOUS
 10
103.7195058685
 20
54.307747666
 11
103.7195058685
 21
53.607747666
  0
LINE
  5
45E
100
AcDbEntity
  8
3_ALL_AXES
100
AcDbLine
 62
7
  6
CONTINUOUS
 10
104.0945058685
 20
54.307747666
 11
104.0945058685
 21
53.607747666
  0
LINE
  5
45F
100
AcDbEntity
  8
3_ALL_AXES
100
AcDbLine
 62
7
  6
CONTINUOUS
 10
104.2195058685
 20
54.307747666
 11
104.2195058685
 21
53.607747666
  0
LINE
  5
460
100
AcDbEntity
  8
3_ALL_AXES
100
AcDbLine
 62
7
  6
CONTINUOUS
 10
104.4235058685
 20
55.030247666
 11
104.4235058685
 21
49.795247666
  0
LINE
  5
461
100
AcDbEntity
  8
3_AXES_OTHER
100
AcDbLine
 62
7
  6
CONTINUOUS
 10
103.6090058685
 20
49.013247666
 11
103.6380058685
 21
49.187247666
  0
LINE
  5
462
100
AcDbEntity
  8
3_AXES_OTHER
100
AcDbLine
 62
7
  6
CONTINUOUS
 10
104.9190058685
 20
53.905747666
 11
104.9480058685
 21
54.079747666
  0
LINE
  5
463
100
AcDbEntity
  8
3_AXES_OTHER
100
AcDbLine
 62
7
  6
CONTINUOUS
 10
104.9190058685
 20
50.745747666
 11
104.9480058685
 21
50.919747666
  0
LINE
  5
464
100
AcDbEntity
  8
3_AXES_OTHER
100
AcDbLine
 62
7
  6
CONTINUOUS
 10
104.9190058685
 20
50.774747666
 11
104.9480058685
 21
50.890747666
  0
LINE
  5
465
100
AcDbEntity
  8
3_AXES_OTHER
100
AcDbLine
 62
7
  6
CONTINUOUS
 10
104.8755058685
 20
53.978247666
 11
104.9915058685
 21
54.007247666
  0
LINE
  5
466
100
AcDbEntity
  8
3_AXES_OTHER
100
AcDbLine
 62
7
  6
CONTINUOUS
 10
100.2555058685
 20
53.978247666
 11
100.3715058685
 21
54.007247666
  0
LINE
  5
467
100
AcDbEntity
  8
3_AXES_OTHER
100
AcDbLine
 62
7
  6
CONTINUOUS
 10
104.8465058685
 20
53.978247666
 11
105.0205058685
 21
54.007247666
  0
LINE
  5
468
100
AcDbEntity
  8
3_ALL_AXES
100
AcDbLine
 62
7
  6
CONTINUOUS
 10
102.3735058685
 20
52.257747666
 11
102.8735058685
 21
52.257747666
  0
LINE
  5
469
100
AcDbEntity
  8
3_AXES_OTHER
100
AcDbLine
 62
7
  6
CONTINUOUS
 10
104.8755058685
 20
50.847247666
 11
104.9915058685
 21
50.818247666
  0
LINE
  5
46A
100
AcDbEntity
  8
3_AXES_OTHER
100
AcDbLine
 62
7
  6
CONTINUOUS
 10
104.9030837634
 20
50.8023255609
 11
104.8755058685
 21
50.818247666
  0
LINE
  5
46B
100
AcDbEntity
  8
3_AXES_OTHER
100
AcDbLine
 62
7
  6
CONTINUOUS
 10
104.9639279736
 20
50.863169771
 11
104.9915058685
 21
50.847247666
  0
LINE
  5
46C
100
AcDbEntity
  8
3_AXES_OTHER
100
AcDbLine
 62
7
  6
CONTINUOUS
 10
100.2830837634
 20
54.023169771
 11
100.3439279736
 21
53.9623255609
  0
LINE
  5
46D
100
AcDbEntity
  8
3_AXES_OTHER
100
AcDbLine
 62
7
  6
CONTINUOUS
 10
103.6090058685
 20
49.042247666
 11
103.5930837634
 21
49.0698255609
  0
LINE
  5
46E
100
AcDbEntity
  8
3_AXES_OTHER
100
AcDbLine
 62
7
  6
CONTINUOUS
 10
103.6380058685
 20
49.158247666
 11
103.6539279736
 21
49.130669771
  0
LINE
  5
46F
100
AcDbEntity
  8
3_AXES_OTHER
100
AcDbLine
 62
7
  6
CONTINUOUS
 10
101.6380058685
 20
55.667247666
 11
101.6090058685
 21
55.783247666
  0
LINE
  5
470
100
AcDbEntity
  8
3_AXES_OTHER
100
AcDbLine
 62
7
  6
CONTINUOUS
 10
103.6380058685
 20
49.042247666
 11
103.6090058685
 21
49.158247666
  0
LINE
  5
471
100
AcDbEntity
  8
3_AXES_OTHER
100
AcDbLine
 62
7
  6
CONTINUOUS
 10
103.6380058685
 20
49.013247666
 11
103.6090058685
 21
49.187247666
  0
LINE
  5
472
100
AcDbEntity
  8
3_AXES_OTHER
100
AcDbLine
 62
7
  6
CONTINUOUS
 10
104.8465058685
 20
50.818247666
 11
104.8465058685
 21
50.847247666
  0
LINE
  5
473
100
AcDbEntity
  8
3_AXES_OTHER
100
AcDbLine
 62
7
  6
CONTINUOUS
 10
104.8465058685
 20
53.978247666
 11
104.8465058685
 21
54.007247666
  0
LINE
  5
474
100
AcDbEntity
  8
3_AXES_OTHER
100
AcDbLine
 62
7
  6
CONTINUOUS
 10
104.9190058685
 20
50.745747666
 11
104.9190058685
 21
50.774747666
  0
LINE
  5
475
100
AcDbEntity
  8
3_AXES_OTHER
100
AcDbLine
 62
7
  6
CONTINUOUS
 10
104.9190058685
 20
50.890747666
 11
104.9190058685
 21
50.919747666
  0
LINE
  5
476
100
AcDbEntity
  8
3_AXES_OTHER
100
AcDbLine
 62
7
  6
CONTINUOUS
 10
104.9190058685
 20
53.905747666
 11
104.9190058685
 21
53.934747666
  0
LINE
  5
477
100
AcDbEntity
  8
3_AXES_OTHER
100
AcDbLine
 62
7
  6
CONTINUOUS
 10
104.9190058685
 20
54.050747666
 11
104.9190058685
 21
54.079747666
  0
LINE
  5
478
100
AcDbEntity
  8
3_AXES_OTHER
100
AcDbLine
 62
7
  6
CONTINUOUS
 10
104.9480058685
 20
54.079747666
 11
104.9480058685
 21
54.050747666
  0
LINE
  5
479
100
AcDbEntity
  8
3_AXES_OTHER
100
AcDbLine
 62
7
  6
CONTINUOUS
 10
104.9480058685
 20
53.934747666
 11
104.9480058685
 21
53.905747666
  0
LINE
  5
47A
100
AcDbEntity
  8
3_AXES_OTHER
100
AcDbLine
 62
7
  6
CONTINUOUS
 10
104.9480058685
 20
50.919747666
 11
104.9480058685
 21
50.890747666
  0
LINE
  5
47B
100
AcDbEntity
  8
3_AXES_OTHER
100
AcDbLine
 62
7
  6
CONTINUOUS
 10
104.9480058685
 20
50.774747666
 11
104.9480058685
 21
50.745747666
  0
LINE
  5
47C
100
AcDbEntity
  8
3_AXES_OTHER
100
AcDbLine
 62
7
  6
CONTINUOUS
 10
105.0205058685
 20
54.007247666
 11
105.0205058685
 21
53.978247666
  0
LINE
  5
47D
100
AcDbEntity
  8
3_AXES_OTHER
100
AcDbLine
 62
7
  6
CONTINUOUS
 10
105.0205058685
 20
50.847247666
 11
105.0205058685
 21
50.818247666
  0
LINE
  5
47E
100
AcDbEntity
  8
3_ALL_AXES
100
AcDbLine
 62
7
  6
CONTINUOUS
 10
105.1135058685
 20
49.104747666
 11
105.1135058685
 21
55.720747666
  0
LINE
  5
47F
100
AcDbEntity
  8
7_ALL_ROUNDS
100
AcDbLine
 62
7
  6
CONTINUOUS
 10
105.1485058685
 20
49.050747666
 11
105.1485058685
 21
55.774747666
  0
LINE
  5
480
100
AcDbEntity
  8
CTRLS
100
AcDbLine
 62
7
  6
CONTINUOUS
 10
105.9185058685
 20
30.107747666
 11
105.9185058685
 21
30.702747666
  0
LINE
  5
481
100
AcDbEntity
  8
3_AXES_OTHER
100
AcDbLine
 62
7
  6
CONTINUOUS
 10
103.5655058685
 20
55.710747666
 11
103.6815058685
 21
55.739747666
  0
LINE
  5
482
100
AcDbEntity
  8
3_AXES_OTHER
100
AcDbLine
 62
7
  6
CONTINUOUS
 10
101.5655058685
 20
55.710747666
 11
101.6815058685
 21
55.739747666
  0
LINE
  5
483
100
AcDbEntity
  8
3_AXES_OTHER
100
AcDbLine
 62
7
  6
CONTINUOUS
 10
100.2265058685
 20
53.978247666
 11
100.4005058685
 21
54.007247666
  0
LINE
  5
484
100
AcDbEntity
  8
3_AXES_OTHER
100
AcDbLine
 62
7
  6
CONTINUOUS
 10
103.5365058685
 20
55.710747666
 11
103.7105058685
 21
55.739747666
  0
LINE
  5
485
100
AcDbEntity
  8
3_ALL_AXES
100
AcDbLine
 62
7
  6
CONTINUOUS
 10
101.0295058685
 20
53.607747666
 11
104.2195058685
 21
53.607747666
  0
LINE
  5
486
100
AcDbEntity
  8
3_ALL_AXES
100
AcDbLine
 62
7
  6
CONTINUOUS
 10
101.1545058685
 20
53.707747666
 11
101.5295058685
 21
53.707747666
  0
LINE
  5
487
100
AcDbEntity
  8
3_ALL_AXES
100
AcDbLine
 62
7
  6
CONTINUOUS
 10
101.6545058685
 20
53.707747666
 11
102.0295058685
 21
53.707747666
  0
LINE
  5
488
100
AcDbEntity
  8
3_ALL_AXES
100
AcDbLine
 62
7
  6
CONTINUOUS
 10
102.1545058685
 20
53.707747666
 11
102.5620058685
 21
53.707747666
  0
LINE
  5
489
100
AcDbEntity
  8
3_ALL_AXES
100
AcDbLine
 62
7
  6
CONTINUOUS
 10
102.6870058685
 20
53.707747666
 11
103.0945058685
 21
53.707747666
  0
LINE
  5
48A
100
AcDbEntity
  8
3_ALL_AXES
100
AcDbLine
 62
7
  6
CONTINUOUS
 10
103.2195058685
 20
53.707747666
 11
103.5945058685
 21
53.707747666
  0
LINE
  5
48B
100
AcDbEntity
  8
3_ALL_AXES
100
AcDbLine
 62
7
  6
CONTINUOUS
 10
103.7195058685
 20
53.707747666
 11
104.0945058685
 21
53.707747666
  0
LINE
  5
48C
100
AcDbEntity
  8
3_AXES_OTHER
100
AcDbLine
 62
7
  6
CONTINUOUS
 10
104.9480058685
 20
53.905747666
 11
104.9190058685
 21
53.905747666
  0
LINE
  5
48D
100
AcDbEntity
  8
3_AXES_OTHER
100
AcDbLine
 62
7
  6
CONTINUOUS
 10
100.3280058685
 20
53.905747666
 11
100.2990058685
 21
53.905747666
  0
LINE
  5
48E
100
AcDbEntity
  8
3_AXES_OTHER
100
AcDbLine
 62
7
  6
CONTINUOUS
 10
105.0205058685
 20
53.978247666
 11
104.9915058685
 21
53.978247666
  0
LINE
  5
48F
100
AcDbEntity
  8
3_AXES_OTHER
100
AcDbLine
 62
7
  6
CONTINUOUS
 10
104.8755058685
 20
53.978247666
 11
104.8465058685
 21
53.978247666
  0
LINE
  5
490
100
AcDbEntity
  8
3_AXES_OTHER
100
AcDbLine
 62
7
  6
CONTINUOUS
 10
100.4005058685
 20
53.978247666
 11
100.3715058685
 21
53.978247666
  0
LINE
  5
491
100
AcDbEntity
  8
3_AXES_OTHER
100
AcDbLine
 62
7
  6
CONTINUOUS
 10
100.2555058685
 20
53.978247666
 11
100.2265058685
 21
53.978247666
  0
LINE
  5
492
100
AcDbEntity
  8
3_AXES_OTHER
100
AcDbLine
 62
7
  6
CONTINUOUS
 10
100.2265058685
 20
54.007247666
 11
100.2555058685
 21
54.007247666
  0
LINE
  5
493
100
AcDbEntity
  8
3_AXES_OTHER
100
AcDbLine
 62
7
  6
CONTINUOUS
 10
100.3715058685
 20
54.007247666
 11
100.4005058685
 21
54.007247666
  0
LINE
  5
494
100
AcDbEntity
  8
3_AXES_OTHER
100
AcDbLine
 62
7
  6
CONTINUOUS
 10
104.8465058685
 20
54.007247666
 11
104.8755058685
 21
54.007247666
  0
LINE
  5
495
100
AcDbEntity
  8
3_AXES_OTHER
100
AcDbLine
 62
7
  6
CONTINUOUS
 10
104.9915058685
 20
54.007247666
 11
105.0205058685
 21
54.007247666
  0
LINE
  5
496
100
AcDbEntity
  8
3_AXES_OTHER
100
AcDbLine
 62
7
  6
CONTINUOUS
 10
100.2990058685
 20
54.079747666
 11
100.3280058685
 21
54.079747666
  0
LINE
  5
497
100
AcDbEntity
  8
3_AXES_OTHER
100
AcDbLine
 62
7
  6
CONTINUOUS
 10
104.9190058685
 20
54.079747666
 11
104.9480058685
 21
54.079747666
  0
LINE
  5
498
100
AcDbEntity
  8
3_ALL_AXES
100
AcDbLine
 62
7
  6
CONTINUOUS
 10
101.1545058685
 20
54.207747666
 11
101.5295058685
 21
54.207747666
  0
LINE
  5
499
100
AcDbEntity
  8
3_ALL_AXES
100
AcDbLine
 62
7
  6
CONTINUOUS
 10
101.6545058685
 20
54.207747666
 11
102.0295058685
 21
54.207747666
  0
LINE
  5
49A
100
AcDbEntity
  8
3_ALL_AXES
100
AcDbLine
 62
7
  6
CONTINUOUS
 10
102.1545058685
 20
54.207747666
 11
102.5620058685
 21
54.207747666
  0
LINE
  5
49B
100
AcDbEntity
  8
3_ALL_AXES
100
AcDbLine
 62
7
  6
CONTINUOUS
 10
102.6870058685
 20
54.207747666
 11
103.0945058685
 21
54.207747666
  0
LINE
  5
49C
100
AcDbEntity
  8
3_ALL_AXES
100
AcDbLine
 62
7
  6
CONTINUOUS
 10
103.2195058685
 20
54.207747666
 11
103.5945058685
 21
54.207747666
  0
LINE
  5
49D
100
AcDbEntity
  8
3_ALL_AXES
100
AcDbLine
 62
7
  6
CONTINUOUS
 10
103.7195058685
 20
54.207747666
 11
104.0945058685
 21
54.207747666
  0
LINE
  5
49E
100
AcDbEntity
  8
3_ALL_AXES
100
AcDbLine
 62
7
  6
CONTINUOUS
 10
101.0295058685
 20
54.307747666
 11
104.2195058685
 21
54.307747666
  0
LINE
  5
49F
100
AcDbEntity
  8
3_AXES_OTHER
100
AcDbLine
 62
7
  6
CONTINUOUS
 10
100.2265058685
 20
54.007247666
 11
100.4005058685
 21
53.978247666
  0
LINE
  5
4A0
100
AcDbEntity
  8
3_AXES_OTHER
100
AcDbLine
 62
7
  6
CONTINUOUS
 10
104.8465058685
 20
54.007247666
 11
105.0205058685
 21
53.978247666
  0
LINE
  5
4A1
100
AcDbEntity
  8
3_AXES_OTHER
100
AcDbLine
 62
7
  6
CONTINUOUS
 10
100.2555058685
 20
54.007247666
 11
100.3715058685
 21
53.978247666
  0
LINE
  5
4A2
100
AcDbEntity
  8
3_AXES_OTHER
100
AcDbLine
 62
7
  6
CONTINUOUS
 10
100.2830837634
 20
53.9623255609
 11
100.2555058685
 21
53.978247666
  0
LINE
  5
4A3
100
AcDbEntity
  8
3_AXES_OTHER
100
AcDbLine
 62
7
  6
CONTINUOUS
 10
100.3439279736
 20
54.023169771
 11
100.3715058685
 21
54.007247666
  0
LINE
  5
4A4
100
AcDbEntity
  8
3_AXES_OTHER
100
AcDbLine
 62
7
  6
CONTINUOUS
 10
104.9030837634
 20
50.863169771
 11
104.9639279736
 21
50.8023255609
  0
LINE
  5
4A5
100
AcDbEntity
  8
3_AXES_OTHER
100
AcDbLine
 62
7
  6
CONTINUOUS
 10
101.6090058685
 20
55.667247666
 11
101.5930837634
 21
55.6948255609
  0
LINE
  5
4A6
100
AcDbEntity
  8
3_AXES_OTHER
100
AcDbLine
 62
7
  6
CONTINUOUS
 10
101.6380058685
 20
55.783247666
 11
101.6539279736
 21
55.755669771
  0
LINE
  5
4A7
100
AcDbEntity
  8
3_AXES_OTHER
100
AcDbLine
 62
7
  6
CONTINUOUS
 10
104.9190058685
 20
50.774747666
 11
104.9030837634
 21
50.8023255609
  0
LINE
  5
4A8
100
AcDbEntity
  8
3_AXES_OTHER
100
AcDbLine
 62
7
  6
CONTINUOUS
 10
104.9480058685
 20
50.890747666
 11
104.9639279736
 21
50.863169771
  0
LINE
  5
4A9
100
AcDbEntity
  8
3_AXES_OTHER
100
AcDbLine
 62
7
  6
CONTINUOUS
 10
103.6380058685
 20
55.667247666
 11
103.6090058685
 21
55.783247666
  0
LINE
  5
4AA
100
AcDbEntity
  8
3_AXES_OTHER
100
AcDbLine
 62
7
  6
CONTINUOUS
 10
104.9480058685
 20
50.774747666
 11
104.9190058685
 21
50.890747666
  0
LINE
  5
4AB
100
AcDbEntity
  8
3_AXES_OTHER
100
AcDbLine
 62
7
  6
CONTINUOUS
 10
103.6380058685
 20
55.638247666
 11
103.6090058685
 21
55.812247666
  0
LINE
  5
4AC
100
AcDbEntity
  8
3_AXES_OTHER
100
AcDbLine
 62
7
  6
CONTINUOUS
 10
104.9480058685
 20
50.745747666
 11
104.9190058685
 21
50.919747666
  0
LINE
  5
4AD
100
AcDbEntity
  8
3_AXES_OTHER
100
AcDbLine
 62
7
  6
CONTINUOUS
 10
104.9480058685
 20
53.905747666
 11
104.9190058685
 21
54.079747666
  0
LINE
  5
4AE
100
AcDbEntity
  8
CTRLS
100
AcDbLine
 62
7
  6
CONTINUOUS
 10
107.4185058685
 20
30.107747666
 11
107.4185058685
 21
30.702747666
  0
LINE
  5
4AF
100
AcDbEntity
  8
3_AXES_OTHER
100
AcDbLine
 62
7
  6
CONTINUOUS
 10
101.5365058685
 20
55.710747666
 11
101.7105058685
 21
55.739747666
  0
LINE
  5
4B0
100
AcDbEntity
  8
3_ALL_AXES
100
AcDbLine
 62
7
  6
CONTINUOUS
 10
101.0110058685
 20
55.217747666
 11
104.2360058685
 21
55.217747666
  0
LINE
  5
4B1
100
AcDbEntity
  8
3_AXES_OTHER
100
AcDbLine
 62
7
  6
CONTINUOUS
 10
103.6380058685
 20
55.638247666
 11
103.6090058685
 21
55.638247666
  0
LINE
  5
4B2
100
AcDbEntity
  8
3_AXES_OTHER
100
AcDbLine
 62
7
  6
CONTINUOUS
 10
101.6380058685
 20
55.638247666
 11
101.6090058685
 21
55.638247666
  0
LINE
  5
4B3
100
AcDbEntity
  8
3_AXES_OTHER
100
AcDbLine
 62
7
  6
CONTINUOUS
 10
103.7105058685
 20
55.710747666
 11
103.6815058685
 21
55.710747666
  0
LINE
  5
4B4
100
AcDbEntity
  8
3_AXES_OTHER
100
AcDbLine
 62
7
  6
CONTINUOUS
 10
103.5655058685
 20
55.710747666
 11
103.5365058685
 21
55.710747666
  0
LINE
  5
4B5
100
AcDbEntity
  8
3_AXES_OTHER
100
AcDbLine
 62
7
  6
CONTINUOUS
 10
101.7105058685
 20
55.710747666
 11
101.6815058685
 21
55.710747666
  0
LINE
  5
4B6
100
AcDbEntity
  8
3_AXES_OTHER
100
AcDbLine
 62
7
  6
CONTINUOUS
 10
101.5655058685
 20
55.710747666
 11
101.5365058685
 21
55.710747666
  0
LINE
  5
4B7
100
AcDbEntity
  8
3_AXES_OTHER
100
AcDbLine
 62
7
  6
CONTINUOUS
 10
101.5365058685
 20
55.739747666
 11
101.5655058685
 21
55.739747666
  0
LINE
  5
4B8
100
AcDbEntity
  8
3_AXES_OTHER
100
AcDbLine
 62
7
  6
CONTINUOUS
 10
101.6815058685
 20
55.739747666
 11
101.7105058685
 21
55.739747666
  0
LINE
  5
4B9
100
AcDbEntity
  8
3_AXES_OTHER
100
AcDbLine
 62
7
  6
CONTINUOUS
 10
103.5365058685
 20
55.739747666
 11
103.5655058685
 21
55.739747666
  0
LINE
  5
4BA
100
AcDbEntity
  8
3_AXES_OTHER
100
AcDbLine
 62
7
  6
CONTINUOUS
 10
103.6815058685
 20
55.739747666
 11
103.7105058685
 21
55.739747666
  0
LINE
  5
4BB
100
AcDbEntity
  8
3_AXES_OTHER
100
AcDbLine
 62
7
  6
CONTINUOUS
 10
101.6090058685
 20
55.812247666
 11
101.6380058685
 21
55.812247666
  0
LINE
  5
4BC
100
AcDbEntity
  8
3_AXES_OTHER
100
AcDbLine
 62
7
  6
CONTINUOUS
 10
103.6090058685
 20
55.812247666
 11
103.6380058685
 21
55.812247666
  0
LINE
  5
4BD
100
AcDbEntity
  8
3_ALL_AXES
100
AcDbLine
 62
7
  6
CONTINUOUS
 10
104.9265058685
 20
55.907747666
 11
100.3205058685
 21
55.907747666
  0
LINE
  5
4BE
100
AcDbEntity
  8
7_ALL_ROUNDS
100
AcDbLine
 62
7
  6
CONTINUOUS
 10
104.9605058685
 20
55.962747666
 11
100.2865058685
 21
55.962747666
  0
LINE
  5
4BF
100
AcDbEntity
  8
3_AXES_OTHER
100
AcDbLine
 62
7
  6
CONTINUOUS
 10
101.5365058685
 20
55.739747666
 11
101.7105058685
 21
55.710747666
  0
LINE
  5
4C0
100
AcDbEntity
  8
3_AXES_OTHER
100
AcDbLine
 62
7
  6
CONTINUOUS
 10
104.8755058685
 20
54.007247666
 11
104.9915058685
 21
53.978247666
  0
LINE
  5
4C1
100
AcDbEntity
  8
3_AXES_OTHER
100
AcDbLine
 62
7
  6
CONTINUOUS
 10
101.5655058685
 20
55.739747666
 11
101.6815058685
 21
55.710747666
  0
LINE
  5
4C2
100
AcDbEntity
  8
3_AXES_OTHER
100
AcDbLine
 62
7
  6
CONTINUOUS
 10
101.5930837634
 20
55.6948255609
 11
101.5655058685
 21
55.710747666
  0
LINE
  5
4C3
100
AcDbEntity
  8
3_AXES_OTHER
100
AcDbLine
 62
7
  6
CONTINUOUS
 10
101.6539279736
 20
55.755669771
 11
101.6815058685
 21
55.739747666
  0
LINE
  5
4C4
100
AcDbEntity
  8
3_AXES_OTHER
100
AcDbLine
 62
7
  6
CONTINUOUS
 10
104.9030837634
 20
53.9623255609
 11
104.8755058685
 21
53.978247666
  0
LINE
  5
4C5
100
AcDbEntity
  8
3_AXES_OTHER
100
AcDbLine
 62
7
  6
CONTINUOUS
 10
104.9639279736
 20
54.023169771
 11
104.9915058685
 21
54.007247666
  0
LINE
  5
4C6
100
AcDbEntity
  8
3_AXES_OTHER
100
AcDbLine
 62
7
  6
CONTINUOUS
 10
101.5930837634
 20
55.755669771
 11
101.6539279736
 21
55.6948255609
  0
LINE
  5
4C7
100
AcDbEntity
  8
3_AXES_OTHER
100
AcDbLine
 62
7
  6
CONTINUOUS
 10
103.6090058685
 20
55.667247666
 11
103.5930837634
 21
55.6948255609
  0
LINE
  5
4C8
100
AcDbEntity
  8
3_AXES_OTHER
100
AcDbLine
 62
7
  6
CONTINUOUS
 10
103.6380058685
 20
55.783247666
 11
103.6539279736
 21
55.755669771
  0
LINE
  5
4C9
100
AcDbEntity
  8
3_AXES_OTHER
100
AcDbLine
 62
7
  6
CONTINUOUS
 10
104.9190058685
 20
53.934747666
 11
104.9030837634
 21
53.9623255609
  0
LINE
  5
4CA
100
AcDbEntity
  8
3_AXES_OTHER
100
AcDbLine
 62
7
  6
CONTINUOUS
 10
104.9480058685
 20
54.050747666
 11
104.9639279736
 21
54.023169771
  0
LINE
  5
4CB
100
AcDbEntity
  8
3_AXES_OTHER
100
AcDbLine
 62
7
  6
CONTINUOUS
 10
104.9480058685
 20
53.934747666
 11
104.9190058685
 21
54.050747666
  0
LINE
  5
4CC
100
AcDbEntity
  8
3_AXES_OTHER
100
AcDbLine
 62
7
  6
CONTINUOUS
 10
103.5365058685
 20
55.739747666
 11
103.7105058685
 21
55.710747666
  0
LINE
  5
4CD
100
AcDbEntity
  8
3_AXES_OTHER
100
AcDbLine
 62
7
  6
CONTINUOUS
 10
103.5655058685
 20
55.739747666
 11
103.6815058685
 21
55.710747666
  0
LINE
  5
4CE
100
AcDbEntity
  8
3_AXES_OTHER
100
AcDbLine
 62
7
  6
CONTINUOUS
 10
103.5930837634
 20
55.6948255609
 11
103.5655058685
 21
55.710747666
  0
LINE
  5
4CF
100
AcDbEntity
  8
3_AXES_OTHER
100
AcDbLine
 62
7
  6
CONTINUOUS
 10
103.6539279736
 20
55.755669771
 11
103.6815058685
 21
55.739747666
  0
LINE
  5
4D0
100
AcDbEntity
  8
3_AXES_OTHER
100
AcDbLine
 62
7
  6
CONTINUOUS
 10
104.9030837634
 20
54.023169771
 11
104.9639279736
 21
53.9623255609
  0
LINE
  5
4D1
100
AcDbEntity
  8
3_AXES_OTHER
100
AcDbLine
 62
7
  6
CONTINUOUS
 10
103.5930837634
 20
55.755669771
 11
103.6539279736
 21
55.6948255609
  0
LINE
  5
4D2
100
AcDbEntity
  8
7_ALL_ROUNDS
100
AcDbLine
 62
7
  6
CONTINUOUS
 10
109.1785058685
 20
30.952747666
 11
109.1785058685
 21
65.492747666
  0
LINE
  5
4D3
100
AcDbEntity
  8
7_ALL_ROUNDS
100
AcDbLine
 62
7
  6
CONTINUOUS
 10
108.9285058685
 20
65.742747666
 11
89.1685058685
 21
65.742747666
  0
LINE
  5
4D4
100
AcDbEntity
  8
7_ALL_ROUNDS
100
AcDbLine
 62
7
  6
CONTINUOUS
 10
19.8536798236
 20
84.1556682614
 11
19.8536798236
 21
103.9156682614
  0
LINE
  5
4D5
100
AcDbEntity
  8
7_ALL_ROUNDS
100
AcDbLine
 62
7
  6
CONTINUOUS
 10
20.3036798236
 20
83.9056682614
 11
20.3036798236
 21
104.1656682614
  0
LINE
  5
4D6
100
AcDbEntity
  8
7_ALL_ROUNDS
100
AcDbLine
 62
7
  6
CONTINUOUS
 10
20.3136798236
 20
83.9056682614
 11
20.3136798236
 21
104.1656682614
  0
LINE
  5
4D7
100
AcDbEntity
  8
7_ALL_ROUNDS
100
AcDbLine
 62
7
  6
CONTINUOUS
 10
49.5836798236
 20
83.9056682614
 11
49.3836798236
 21
83.9056682614
  0
LINE
  5
4D8
100
AcDbEntity
  8
7_ALL_ROUNDS
100
AcDbLine
 62
7
  6
CONTINUOUS
 10
20.3036798236
 20
83.9056682614
 11
20.1036798236
 21
83.9056682614
  0
LINE
  5
4D9
100
AcDbEntity
  8
7_ALL_ROUNDS
100
AcDbLine
 62
7
  6
CONTINUOUS
 10
20.3136798236
 20
83.9056682614
 11
49.3736798236
 21
83.9056682614
  0
LINE
  5
4DA
100
AcDbEntity
  8
7_ALL_ROUNDS
100
AcDbLine
 62
7
  6
CONTINUOUS
 10
49.5836798236
 20
104.1656682614
 11
49.3836798236
 21
104.1656682614
  0
LINE
  5
4DB
100
AcDbEntity
  8
7_ALL_ROUNDS
100
AcDbLine
 62
7
  6
CONTINUOUS
 10
49.3736798236
 20
104.1656682614
 11
20.3136798236
 21
104.1656682614
  0
LINE
  5
4DC
100
AcDbEntity
  8
7_ALL_ROUNDS
100
AcDbLine
 62
7
  6
CONTINUOUS
 10
20.3036798236
 20
104.1656682614
 11
20.1036798236
 21
104.1656682614
  0
LINE
  5
4DD
100
AcDbEntity
  8
7_ALL_ROUNDS
100
AcDbLine
 62
7
  6
CONTINUOUS
 10
49.3736798236
 20
83.9056682614
 11
49.3736798236
 21
104.1656682614
  0
LINE
  5
4DE
100
AcDbEntity
  8
7_ALL_ROUNDS
100
AcDbLine
 62
7
  6
CONTINUOUS
 10
49.3836798236
 20
83.9056682614
 11
49.3836798236
 21
104.1656682614
  0
LINE
  5
4DF
100
AcDbEntity
  8
7_ALL_ROUNDS
100
AcDbLine
 62
7
  6
CONTINUOUS
 10
49.8336798236
 20
103.9156682614
 11
49.8336798236
 21
84.1556682614
  0
ARC
  5
4E0
100
AcDbEntity
  8
7_ALL_ROUNDS
100
AcDbCircle
 62
7
  6
CONTINUOUS
 10
20.1036798236
 20
30.952747666
 40
0.25
100
AcDbArc
 50
180.0
 51
270.0
  0
CIRCLE
  5
4E1
100
AcDbEntity
  8
3_AXES_OTHER
100
AcDbCircle
 62
7
  6
CONTINUOUS
 10
26.8752188557
 20
44.9221030618
 40
0.187007874
  0
CIRCLE
  5
4E2
100
AcDbEntity
  8
3_AXES_OTHER
100
AcDbCircle
 62
7
  6
CONTINUOUS
 10
31.5430352195
 20
40.2542866981
 40
0.187007874
  0
ARC
  5
4E3
100
AcDbEntity
  8
CTRLS
100
AcDbCircle
 62
7
  6
CONTINUOUS
 10
21.2086798236
 20
30.107747666
 40
0.125
100
AcDbArc
 50
180.0
 51
270.0
  0
ARC
  5
4E4
100
AcDbEntity
  8
CTRLS
100
AcDbCircle
 62
7
  6
CONTINUOUS
 10
22.4586798236
 20
30.107747666
 40
0.125
100
AcDbArc
 50
270.0
 51
360.0
  0
CIRCLE
  5
4E5
100
AcDbEntity
  8
3_AXES_OTHER
100
AcDbCircle
 62
7
  6
CONTINUOUS
 10
26.8752188557
 20
44.9221030618
 40
0.0984251969
  0
CIRCLE
  5
4E6
100
AcDbEntity
  8
3_AXES_OTHER
100
AcDbCircle
 62
7
  6
CONTINUOUS
 10
31.5430352195
 20
40.2542866981
 40
0.0984251969
  0
ARC
  5
4E7
100
AcDbEntity
  8
3_AXES_OTHER
100
AcDbCircle
 62
7
  6
CONTINUOUS
 10
26.9412416544
 20
44.8077482201
 40
0.0619176445
100
AcDbArc
 50
86.236076059
 51
153.763923941
  0
ARC
  5
4E8
100
AcDbEntity
  8
3_AXES_OTHER
100
AcDbCircle
 62
7
  6
CONTINUOUS
 10
27.007264453
 20
44.9221030618
 40
0.0619176445
100
AcDbArc
 50
146.236076059
 51
213.763923941
  0
ARC
  5
4E9
100
AcDbEntity
  8
3_AXES_OTHER
100
AcDbCircle
 62
7
  6
CONTINUOUS
 10
26.9412416544
 20
45.0364579035
 40
0.0619176445
100
AcDbArc
 50
206.236076059
 51
273.763923941
  0
ARC
  5
4EA
100
AcDbEntity
  8
3_AXES_OTHER
100
AcDbCircle
 62
7
  6
CONTINUOUS
 10
26.8091960571
 20
45.0364579035
 40
0.0619176445
100
AcDbArc
 50
266.236076059
 51
333.763923941
  0
ARC
  5
4EB
100
AcDbEntity
  8
3_AXES_OTHER
100
AcDbCircle
 62
7
  6
CONTINUOUS
 10
26.7431732585
 20
44.9221030618
 40
0.0619176445
100
AcDbArc
 50
326.236076059
 51
33.763923941
  0
ARC
  5
4EC
100
AcDbEntity
  8
3_AXES_OTHER
100
AcDbCircle
 62
7
  6
CONTINUOUS
 10
26.8091960571
 20
44.8077482201
 40
0.0619176445
100
AcDbArc
 50
26.236076059
 51
93.763923941
  0
ARC
  5
4ED
100
AcDbEntity
  8
3_AXES_OTHER
100
AcDbCircle
 62
7
  6
CONTINUOUS
 10
31.6090580181
 20
40.1399318564
 40
0.0619176445
100
AcDbArc
 50
86.236076059
 51
153.763923941
  0
ARC
  5
4EE
100
AcDbEntity
  8
3_AXES_OTHER
100
AcDbCircle
 62
7
  6
CONTINUOUS
 10
31.6750808168
 20
40.2542866981
 40
0.0619176445
100
AcDbArc
 50
146.236076059
 51
213.763923941
  0
ARC
  5
4EF
100
AcDbEntity
  8
3_AXES_OTHER
100
AcDbCircle
 62
7
  6
CONTINUOUS
 10
31.6090580181
 20
40.3686415398
 40
0.0619176445
100
AcDbArc
 50
206.236076059
 51
273.763923941
  0
ARC
  5
4F0
100
AcDbEntity
  8
3_AXES_OTHER
100
AcDbCircle
 62
7
  6
CONTINUOUS
 10
31.4770124209
 20
40.3686415398
 40
0.0619176445
100
AcDbArc
 50
266.236076059
 51
333.763923941
  0
ARC
  5
4F1
100
AcDbEntity
  8
3_AXES_OTHER
100
AcDbCircle
 62
7
  6
CONTINUOUS
 10
31.4109896222
 20
40.2542866981
 40
0.0619176445
100
AcDbArc
 50
326.236076059
 51
33.763923941
  0
ARC
  5
4F2
100
AcDbEntity
  8
3_AXES_OTHER
100
AcDbCircle
 62
7
  6
CONTINUOUS
 10
31.4770124209
 20
40.1399318564
 40
0.0619176445
100
AcDbArc
 50
26.236076059
 51
93.763923941
  0
CIRCLE
  5
4F3
100
AcDbEntity
  8
3_AXES_OTHER
100
AcDbCircle
 62
7
  6
CONTINUOUS
 10
26.8752188557
 20
44.9221030618
 40
0.0346948819
  0
CIRCLE
  5
4F4
100
AcDbEntity
  8
3_AXES_OTHER
100
AcDbCircle
 62
7
  6
CONTINUOUS
 10
31.5430352195
 20
40.2542866981
 40
0.0346948819
  0
ARC
  5
4F5
100
AcDbEntity
  8
3_AXES_OTHER
100
AcDbCircle
 62
7
  6
CONTINUOUS
 10
26.8752188557
 20
44.8402871169
 40
0.0116879921
100
AcDbArc
 50
206.236076059
 51
333.763923941
  0
ARC
  5
4F6
100
AcDbEntity
  8
3_AXES_OTHER
100
AcDbCircle
 62
7
  6
CONTINUOUS
 10
26.9460735424
 20
44.8811950894
 40
0.0116879921
100
AcDbArc
 50
266.236076059
 51
33.763923941
  0
ARC
  5
4F7
100
AcDbEntity
  8
3_AXES_OTHER
100
AcDbCircle
 62
7
  6
CONTINUOUS
 10
26.9460735424
 20
44.9630110343
 40
0.0116879921
100
AcDbArc
 50
326.236076059
 51
93.763923941
  0
ARC
  5
4F8
100
AcDbEntity
  8
3_AXES_OTHER
100
AcDbCircle
 62
7
  6
CONTINUOUS
 10
26.8752188557
 20
45.0039190067
 40
0.0116879921
100
AcDbArc
 50
26.236076059
 51
153.763923941
  0
ARC
  5
4F9
100
AcDbEntity
  8
3_AXES_OTHER
100
AcDbCircle
 62
7
  6
CONTINUOUS
 10
26.804364169
 20
44.9630110343
 40
0.0116879921
100
AcDbArc
 50
86.236076059
 51
213.763923941
  0
ARC
  5
4FA
100
AcDbEntity
  8
3_AXES_OTHER
100
AcDbCircle
 62
7
  6
CONTINUOUS
 10
26.804364169
 20
44.8811950894
 40
0.0116879921
100
AcDbArc
 50
146.236076059
 51
273.763923941
  0
ARC
  5
4FB
100
AcDbEntity
  8
3_AXES_OTHER
100
AcDbCircle
 62
7
  6
CONTINUOUS
 10
31.5430352195
 20
40.1724707532
 40
0.0116879921
100
AcDbArc
 50
206.236076059
 51
333.763923941
  0
ARC
  5
4FC
100
AcDbEntity
  8
3_AXES_OTHER
100
AcDbCircle
 62
7
  6
CONTINUOUS
 10
31.6138899062
 20
40.2133787256
 40
0.0116879921
100
AcDbArc
 50
266.236076059
 51
33.763923941
  0
ARC
  5
4FD
100
AcDbEntity
  8
3_AXES_OTHER
100
AcDbCircle
 62
7
  6
CONTINUOUS
 10
31.6138899062
 20
40.2951946705
 40
0.0116879921
100
AcDbArc
 50
326.236076059
 51
93.763923941
  0
ARC
  5
4FE
100
AcDbEntity
  8
3_AXES_OTHER
100
AcDbCircle
 62
7
  6
CONTINUOUS
 10
31.5430352195
 20
40.3361026429
 40
0.0116879921
100
AcDbArc
 50
26.236076059
 51
153.763923941
  0
ARC
  5
4FF
100
AcDbEntity
  8
3_AXES_OTHER
100
AcDbCircle
 62
7
  6
CONTINUOUS
 10
31.4721805328
 20
40.2951946705
 40
0.0116879921
100
AcDbArc
 50
86.236076059
 51
213.763923941
  0
ARC
  5
500
100
AcDbEntity
  8
3_AXES_OTHER
100
AcDbCircle
 62
7
  6
CONTINUOUS
 10
31.4721805328
 20
40.2133787256
 40
0.0116879921
100
AcDbArc
 50
146.236076059
 51
273.763923941
  0
ARC
  5
501
100
AcDbEntity
  8
7_ALL_ROUNDS
100
AcDbCircle
 62
7
  6
CONTINUOUS
 10
20.1036798236
 20
65.492747666
 40
0.25
100
AcDbArc
 50
90.0
 51
180.0
  0
CIRCLE
  5
502
100
AcDbEntity
  8
3_AXES_OTHER
100
AcDbCircle
 62
7
  6
CONTINUOUS
 10
31.5430352195
 20
56.1912086339
 40
0.187007874
  0
CIRCLE
  5
503
100
AcDbEntity
  8
3_AXES_OTHER
100
AcDbCircle
 62
7
  6
CONTINUOUS
 10
26.8752188557
 20
51.5233922701
 40
0.187007874
  0
CIRCLE
  5
504
100
AcDbEntity
  8
3_AXES_OTHER
100
AcDbCircle
 62
7
  6
CONTINUOUS
 10
31.5430352195
 20
56.1912086339
 40
0.0984251969
  0
CIRCLE
  5
505
100
AcDbEntity
  8
3_AXES_OTHER
100
AcDbCircle
 62
7
  6
CONTINUOUS
 10
26.8752188557
 20
51.5233922701
 40
0.0984251969
  0
ARC
  5
506
100
AcDbEntity
  8
3_AXES_OTHER
100
AcDbCircle
 62
7
  6
CONTINUOUS
 10
31.6090580181
 20
56.0768537922
 40
0.0619176445
100
AcDbArc
 50
86.236076059
 51
153.763923941
  0
ARC
  5
507
100
AcDbEntity
  8
3_AXES_OTHER
100
AcDbCircle
 62
7
  6
CONTINUOUS
 10
31.6750808168
 20
56.1912086339
 40
0.0619176445
100
AcDbArc
 50
146.236076059
 51
213.763923941
  0
ARC
  5
508
100
AcDbEntity
  8
3_AXES_OTHER
100
AcDbCircle
 62
7
  6
CONTINUOUS
 10
31.6090580181
 20
56.3055634756
 40
0.0619176445
100
AcDbArc
 50
206.236076059
 51
273.763923941
  0
ARC
  5
509
100
AcDbEntity
  8
3_AXES_OTHER
100
AcDbCircle
 62
7
  6
CONTINUOUS
 10
31.4770124209
 20
56.3055634756
 40
0.0619176445
100
AcDbArc
 50
266.236076059
 51
333.763923941
  0
ARC
  5
50A
100
AcDbEntity
  8
3_AXES_OTHER
100
AcDbCircle
 62
7
  6
CONTINUOUS
 10
31.4109896222
 20
56.1912086339
 40
0.0619176445
100
AcDbArc
 50
326.236076059
 51
33.763923941
  0
ARC
  5
50B
100
AcDbEntity
  8
3_AXES_OTHER
100
AcDbCircle
 62
7
  6
CONTINUOUS
 10
31.4770124209
 20
56.0768537922
 40
0.0619176445
100
AcDbArc
 50
26.236076059
 51
93.763923941
  0
ARC
  5
50C
100
AcDbEntity
  8
3_AXES_OTHER
100
AcDbCircle
 62
7
  6
CONTINUOUS
 10
26.9412416544
 20
51.4090374284
 40
0.0619176445
100
AcDbArc
 50
86.236076059
 51
153.763923941
  0
ARC
  5
50D
100
AcDbEntity
  8
3_AXES_OTHER
100
AcDbCircle
 62
7
  6
CONTINUOUS
 10
27.007264453
 20
51.5233922701
 40
0.0619176445
100
AcDbArc
 50
146.236076059
 51
213.763923941
  0
ARC
  5
50E
100
AcDbEntity
  8
3_AXES_OTHER
100
AcDbCircle
 62
7
  6
CONTINUOUS
 10
26.9412416544
 20
51.6377471118
 40
0.0619176445
100
AcDbArc
 50
206.236076059
 51
273.763923941
  0
ARC
  5
50F
100
AcDbEntity
  8
3_AXES_OTHER
100
AcDbCircle
 62
7
  6
CONTINUOUS
 10
26.8091960571
 20
51.6377471118
 40
0.0619176445
100
AcDbArc
 50
266.236076059
 51
333.763923941
  0
ARC
  5
510
100
AcDbEntity
  8
3_AXES_OTHER
100
AcDbCircle
 62
7
  6
CONTINUOUS
 10
26.7431732585
 20
51.5233922701
 40
0.0619176445
100
AcDbArc
 50
326.236076059
 51
33.763923941
  0
ARC
  5
511
100
AcDbEntity
  8
3_AXES_OTHER
100
AcDbCircle
 62
7
  6
CONTINUOUS
 10
26.8091960571
 20
51.4090374284
 40
0.0619176445
100
AcDbArc
 50
26.236076059
 51
93.763923941
  0
CIRCLE
  5
512
100
AcDbEntity
  8
3_AXES_OTHER
100
AcDbCircle
 62
7
  6
CONTINUOUS
 10
31.5430352195
 20
56.1912086339
 40
0.0346948819
  0
CIRCLE
  5
513
100
AcDbEntity
  8
3_AXES_OTHER
100
AcDbCircle
 62
7
  6
CONTINUOUS
 10
26.8752188557
 20
51.5233922701
 40
0.0346948819
  0
ARC
  5
514
100
AcDbEntity
  8
3_AXES_OTHER
100
AcDbCircle
 62
7
  6
CONTINUOUS
 10
31.5430352195
 20
56.109392689
 40
0.0116879921
100
AcDbArc
 50
206.236076059
 51
333.763923941
  0
ARC
  5
515
100
AcDbEntity
  8
3_AXES_OTHER
100
AcDbCircle
 62
7
  6
CONTINUOUS
 10
31.6138899062
 20
56.1503006614
 40
0.0116879921
100
AcDbArc
 50
266.236076059
 51
33.763923941
  0
ARC
  5
516
100
AcDbEntity
  8
3_AXES_OTHER
100
AcDbCircle
 62
7
  6
CONTINUOUS
 10
31.6138899062
 20
56.2321166063
 40
0.0116879921
100
AcDbArc
 50
326.236076059
 51
93.763923941
  0
ARC
  5
517
100
AcDbEntity
  8
3_AXES_OTHER
100
AcDbCircle
 62
7
  6
CONTINUOUS
 10
31.5430352195
 20
56.2730245788
 40
0.0116879921
100
AcDbArc
 50
26.236076059
 51
153.763923941
  0
ARC
  5
518
100
AcDbEntity
  8
3_AXES_OTHER
100
AcDbCircle
 62
7
  6
CONTINUOUS
 10
31.4721805328
 20
56.2321166063
 40
0.0116879921
100
AcDbArc
 50
86.236076059
 51
213.763923941
  0
ARC
  5
519
100
AcDbEntity
  8
3_AXES_OTHER
100
AcDbCircle
 62
7
  6
CONTINUOUS
 10
31.4721805328
 20
56.1503006614
 40
0.0116879921
100
AcDbArc
 50
146.236076059
 51
273.763923941
  0
ARC
  5
51A
100
AcDbEntity
  8
3_AXES_OTHER
100
AcDbCircle
 62
7
  6
CONTINUOUS
 10
26.8752188557
 20
51.4415763252
 40
0.0116879921
100
AcDbArc
 50
206.236076059
 51
333.763923941
  0
ARC
  5
51B
100
AcDbEntity
  8
3_AXES_OTHER
100
AcDbCircle
 62
7
  6
CONTINUOUS
 10
26.9460735424
 20
51.4824842977
 40
0.0116879921
100
AcDbArc
 50
266.236076059
 51
33.763923941
  0
ARC
  5
51C
100
AcDbEntity
  8
3_AXES_OTHER
100
AcDbCircle
 62
7
  6
CONTINUOUS
 10
26.9460735424
 20
51.5643002426
 40
0.0116879921
100
AcDbArc
 50
326.236076059
 51
93.763923941
  0
ARC
  5
51D
100
AcDbEntity
  8
3_AXES_OTHER
100
AcDbCircle
 62
7
  6
CONTINUOUS
 10
26.8752188557
 20
51.605208215
 40
0.0116879921
100
AcDbArc
 50
26.236076059
 51
153.763923941
  0
ARC
  5
51E
100
AcDbEntity
  8
3_AXES_OTHER
100
AcDbCircle
 62
7
  6
CONTINUOUS
 10
26.804364169
 20
51.5643002426
 40
0.0116879921
100
AcDbArc
 50
86.236076059
 51
213.763923941
  0
ARC
  5
51F
100
AcDbEntity
  8
3_AXES_OTHER
100
AcDbCircle
 62
7
  6
CONTINUOUS
 10
26.804364169
 20
51.4824842977
 40
0.0116879921
100
AcDbArc
 50
146.236076059
 51
273.763923941
  0
CIRCLE
  5
520
100
AcDbEntity
  8
3_AXES_OTHER
100
AcDbCircle
 62
7
  6
CONTINUOUS
 10
38.1443244278
 20
40.2542866981
 40
0.187007874
  0
CIRCLE
  5
521
100
AcDbEntity
  8
3_AXES_OTHER
100
AcDbCircle
 62
7
  6
CONTINUOUS
 10
42.8121407916
 20
44.9221030618
 40
0.187007874
  0
CIRCLE
  5
522
100
AcDbEntity
  8
3_AXES_OTHER
100
AcDbCircle
 62
7
  6
CONTINUOUS
 10
38.1443244278
 20
40.2542866981
 40
0.0984251969
  0
CIRCLE
  5
523
100
AcDbEntity
  8
3_AXES_OTHER
100
AcDbCircle
 62
7
  6
CONTINUOUS
 10
42.8121407916
 20
44.9221030618
 40
0.0984251969
  0
ARC
  5
524
100
AcDbEntity
  8
3_AXES_OTHER
100
AcDbCircle
 62
7
  6
CONTINUOUS
 10
38.2103472264
 20
40.1399318564
 40
0.0619176445
100
AcDbArc
 50
86.236076059
 51
153.763923941
  0
ARC
  5
525
100
AcDbEntity
  8
3_AXES_OTHER
100
AcDbCircle
 62
7
  6
CONTINUOUS
 10
38.2763700251
 20
40.2542866981
 40
0.0619176445
100
AcDbArc
 50
146.236076059
 51
213.763923941
  0
ARC
  5
526
100
AcDbEntity
  8
3_AXES_OTHER
100
AcDbCircle
 62
7
  6
CONTINUOUS
 10
38.2103472264
 20
40.3686415398
 40
0.0619176445
100
AcDbArc
 50
206.236076059
 51
273.763923941
  0
ARC
  5
527
100
AcDbEntity
  8
3_AXES_OTHER
100
AcDbCircle
 62
7
  6
CONTINUOUS
 10
38.0783016292
 20
40.3686415398
 40
0.0619176445
100
AcDbArc
 50
266.236076059
 51
333.763923941
  0
ARC
  5
528
100
AcDbEntity
  8
3_AXES_OTHER
100
AcDbCircle
 62
7
  6
CONTINUOUS
 10
38.0122788305
 20
40.2542866981
 40
0.0619176445
100
AcDbArc
 50
326.236076059
 51
33.763923941
  0
ARC
  5
529
100
AcDbEntity
  8
3_AXES_OTHER
100
AcDbCircle
 62
7
  6
CONTINUOUS
 10
38.0783016292
 20
40.1399318564
 40
0.0619176445
100
AcDbArc
 50
26.236076059
 51
93.763923941
  0
ARC
  5
52A
100
AcDbEntity
  8
3_AXES_OTHER
100
AcDbCircle
 62
7
  6
CONTINUOUS
 10
42.8781635902
 20
44.8077482201
 40
0.0619176445
100
AcDbArc
 50
86.236076059
 51
153.763923941
  0
ARC
  5
52B
100
AcDbEntity
  8
3_AXES_OTHER
100
AcDbCircle
 62
7
  6
CONTINUOUS
 10
42.9441863888
 20
44.9221030618
 40
0.0619176445
100
AcDbArc
 50
146.236076059
 51
213.763923941
  0
ARC
  5
52C
100
AcDbEntity
  8
3_AXES_OTHER
100
AcDbCircle
 62
7
  6
CONTINUOUS
 10
42.8781635902
 20
45.0364579035
 40
0.0619176445
100
AcDbArc
 50
206.236076059
 51
273.763923941
  0
ARC
  5
52D
100
AcDbEntity
  8
3_AXES_OTHER
100
AcDbCircle
 62
7
  6
CONTINUOUS
 10
42.7461179929
 20
45.0364579035
 40
0.0619176445
100
AcDbArc
 50
266.236076059
 51
333.763923941
  0
ARC
  5
52E
100
AcDbEntity
  8
3_AXES_OTHER
100
AcDbCircle
 62
7
  6
CONTINUOUS
 10
42.6800951943
 20
44.9221030618
 40
0.0619176445
100
AcDbArc
 50
326.236076059
 51
33.763923941
  0
ARC
  5
52F
100
AcDbEntity
  8
3_AXES_OTHER
100
AcDbCircle
 62
7
  6
CONTINUOUS
 10
42.7461179929
 20
44.8077482201
 40
0.0619176445
100
AcDbArc
 50
26.236076059
 51
93.763923941
  0
CIRCLE
  5
530
100
AcDbEntity
  8
3_AXES_OTHER
100
AcDbCircle
 62
7
  6
CONTINUOUS
 10
38.1443244278
 20
40.2542866981
 40
0.0346948819
  0
CIRCLE
  5
531
100
AcDbEntity
  8
3_AXES_OTHER
100
AcDbCircle
 62
7
  6
CONTINUOUS
 10
42.8121407916
 20
44.9221030618
 40
0.0346948819
  0
ARC
  5
532
100
AcDbEntity
  8
3_AXES_OTHER
100
AcDbCircle
 62
7
  6
CONTINUOUS
 10
38.1443244278
 20
40.1724707532
 40
0.0116879921
100
AcDbArc
 50
206.236076059
 51
333.763923941
  0
ARC
  5
533
100
AcDbEntity
  8
3_AXES_OTHER
100
AcDbCircle
 62
7
  6
CONTINUOUS
 10
38.2151791145
 20
40.2133787256
 40
0.0116879921
100
AcDbArc
 50
266.236076059
 51
33.763923941
  0
ARC
  5
534
100
AcDbEntity
  8
3_AXES_OTHER
100
AcDbCircle
 62
7
  6
CONTINUOUS
 10
38.2151791145
 20
40.2951946705
 40
0.0116879921
100
AcDbArc
 50
326.236076059
 51
93.763923941
  0
ARC
  5
535
100
AcDbEntity
  8
3_AXES_OTHER
100
AcDbCircle
 62
7
  6
CONTINUOUS
 10
38.1443244278
 20
40.3361026429
 40
0.0116879921
100
AcDbArc
 50
26.236076059
 51
153.763923941
  0
ARC
  5
536
100
AcDbEntity
  8
3_AXES_OTHER
100
AcDbCircle
 62
7
  6
CONTINUOUS
 10
38.0734697411
 20
40.2951946705
 40
0.0116879921
100
AcDbArc
 50
86.236076059
 51
213.763923941
  0
ARC
  5
537
100
AcDbEntity
  8
3_AXES_OTHER
100
AcDbCircle
 62
7
  6
CONTINUOUS
 10
38.0734697411
 20
40.2133787256
 40
0.0116879921
100
AcDbArc
 50
146.236076059
 51
273.763923941
  0
ARC
  5
538
100
AcDbEntity
  8
3_AXES_OTHER
100
AcDbCircle
 62
7
  6
CONTINUOUS
 10
42.8121407916
 20
44.8402871169
 40
0.0116879921
100
AcDbArc
 50
206.236076059
 51
333.763923941
  0
ARC
  5
539
100
AcDbEntity
  8
3_AXES_OTHER
100
AcDbCircle
 62
7
  6
CONTINUOUS
 10
42.8829954783
 20
44.8811950894
 40
0.0116879921
100
AcDbArc
 50
266.236076059
 51
33.763923941
  0
ARC
  5
53A
100
AcDbEntity
  8
3_AXES_OTHER
100
AcDbCircle
 62
7
  6
CONTINUOUS
 10
42.8829954783
 20
44.9630110343
 40
0.0116879921
100
AcDbArc
 50
326.236076059
 51
93.763923941
  0
ARC
  5
53B
100
AcDbEntity
  8
3_AXES_OTHER
100
AcDbCircle
 62
7
  6
CONTINUOUS
 10
42.8121407916
 20
45.0039190067
 40
0.0116879921
100
AcDbArc
 50
26.236076059
 51
153.763923941
  0
ARC
  5
53C
100
AcDbEntity
  8
3_AXES_OTHER
100
AcDbCircle
 62
7
  6
CONTINUOUS
 10
42.7412861049
 20
44.9630110343
 40
0.0116879921
100
AcDbArc
 50
86.236076059
 51
213.763923941
  0
ARC
  5
53D
100
AcDbEntity
  8
3_AXES_OTHER
100
AcDbCircle
 62
7
  6
CONTINUOUS
 10
42.7412861049
 20
44.8811950894
 40
0.0116879921
100
AcDbArc
 50
146.236076059
 51
273.763923941
  0
ARC
  5
53E
100
AcDbEntity
  8
7_ALL_ROUNDS
100
AcDbCircle
 62
7
  6
CONTINUOUS
 10
49.5836798236
 20
30.952747666
 40
0.25
100
AcDbArc
 50
270.0
 51
360.0
  0
ARC
  5
53F
100
AcDbEntity
  8
7_ALL_ROUNDS
100
AcDbCircle
 62
7
  6
CONTINUOUS
 10
47.8347349418
 20
31.4168027841
 40
0.125
100
AcDbArc
 50
31.8577580885
 51
90.0
  0
ARC
  5
540
100
AcDbEntity
  8
CTRLS
100
AcDbCircle
 62
7
  6
CONTINUOUS
 10
47.2086798236
 20
30.107747666
 40
0.125
100
AcDbArc
 50
180.0
 51
270.0
  0
ARC
  5
541
100
AcDbEntity
  8
CTRLS
100
AcDbCircle
 62
7
  6
CONTINUOUS
 10
48.4586798236
 20
30.107747666
 40
0.125
100
AcDbArc
 50
270.0
 51
360.0
  0
CIRCLE
  5
542
100
AcDbEntity
  8
3_AXES_OTHER
100
AcDbCircle
 62
7
  6
CONTINUOUS
 10
34.8436798236
 20
48.222747666
 40
9.1
  0
CIRCLE
  5
543
100
AcDbEntity
  8
3_AXES_OTHER
100
AcDbCircle
 62
7
  6
CONTINUOUS
 10
34.8436798236
 20
48.222747666
 40
8.94
  0
CIRCLE
  5
544
100
AcDbEntity
  8
3_AXES_OTHER
100
AcDbCircle
 62
7
  6
CONTINUOUS
 10
34.8436798236
 20
48.222747666
 40
8.34
  0
CIRCLE
  5
545
100
AcDbEntity
  8
3_AXES_OTHER
100
AcDbCircle
 62
7
  6
CONTINUOUS
 10
34.8436798236
 20
48.222747666
 40
7.3039
  0
CIRCLE
  5
546
100
AcDbEntity
  8
3_AXES_OTHER
100
AcDbCircle
 62
7
  6
CONTINUOUS
 10
34.8436798236
 20
48.222747666
 40
2.925
  0
CIRCLE
  5
547
100
AcDbEntity
  8
3_AXES_OTHER
100
AcDbCircle
 62
7
  6
CONTINUOUS
 10
38.1443244278
 20
56.1912086339
 40
0.187007874
  0
CIRCLE
  5
548
100
AcDbEntity
  8
3_AXES_OTHER
100
AcDbCircle
 62
7
  6
CONTINUOUS
 10
38.1443244278
 20
56.1912086339
 40
0.0984251969
  0
ARC
  5
549
100
AcDbEntity
  8
3_AXES_OTHER
100
AcDbCircle
 62
7
  6
CONTINUOUS
 10
38.2103472264
 20
56.0768537922
 40
0.0619176445
100
AcDbArc
 50
86.236076059
 51
153.763923941
  0
ARC
  5
54A
100
AcDbEntity
  8
3_AXES_OTHER
100
AcDbCircle
 62
7
  6
CONTINUOUS
 10
38.2763700251
 20
56.1912086339
 40
0.0619176445
100
AcDbArc
 50
146.236076059
 51
213.763923941
  0
ARC
  5
54B
100
AcDbEntity
  8
3_AXES_OTHER
100
AcDbCircle
 62
7
  6
CONTINUOUS
 10
38.2103472264
 20
56.3055634756
 40
0.0619176445
100
AcDbArc
 50
206.236076059
 51
273.763923941
  0
ARC
  5
54C
100
AcDbEntity
  8
3_AXES_OTHER
100
AcDbCircle
 62
7
  6
CONTINUOUS
 10
38.0783016292
 20
56.3055634756
 40
0.0619176445
100
AcDbArc
 50
266.236076059
 51
333.763923941
  0
ARC
  5
54D
100
AcDbEntity
  8
3_AXES_OTHER
100
AcDbCircle
 62
7
  6
CONTINUOUS
 10
38.0122788305
 20
56.1912086339
 40
0.0619176445
100
AcDbArc
 50
326.236076059
 51
33.763923941
  0
ARC
  5
54E
100
AcDbEntity
  8
3_AXES_OTHER
100
AcDbCircle
 62
7
  6
CONTINUOUS
 10
38.0783016292
 20
56.0768537922
 40
0.0619176445
100
AcDbArc
 50
26.236076059
 51
93.763923941
  0
CIRCLE
  5
54F
100
AcDbEntity
  8
3_AXES_OTHER
100
AcDbCircle
 62
7
  6
CONTINUOUS
 10
38.1443244278
 20
56.1912086339
 40
0.0346948819
  0
ARC
  5
550
100
AcDbEntity
  8
3_AXES_OTHER
100
AcDbCircle
 62
7
  6
CONTINUOUS
 10
38.1443244278
 20
56.109392689
 40
0.0116879921
100
AcDbArc
 50
206.236076059
 51
333.763923941
  0
ARC
  5
551
100
AcDbEntity
  8
3_AXES_OTHER
100
AcDbCircle
 62
7
  6
CONTINUOUS
 10
38.2151791145
 20
56.1503006614
 40
0.0116879921
100
AcDbArc
 50
266.236076059
 51
33.763923941
  0
ARC
  5
552
100
AcDbEntity
  8
3_AXES_OTHER
100
AcDbCircle
 62
7
  6
CONTINUOUS
 10
38.2151791145
 20
56.2321166063
 40
0.0116879921
100
AcDbArc
 50
326.236076059
 51
93.763923941
  0
ARC
  5
553
100
AcDbEntity
  8
3_AXES_OTHER
100
AcDbCircle
 62
7
  6
CONTINUOUS
 10
38.1443244278
 20
56.2730245788
 40
0.0116879921
100
AcDbArc
 50
26.236076059
 51
153.763923941
  0
ARC
  5
554
100
AcDbEntity
  8
3_AXES_OTHER
100
AcDbCircle
 62
7
  6
CONTINUOUS
 10
38.0734697411
 20
56.2321166063
 40
0.0116879921
100
AcDbArc
 50
86.236076059
 51
213.763923941
  0
ARC
  5
555
100
AcDbEntity
  8
3_AXES_OTHER
100
AcDbCircle
 62
7
  6
CONTINUOUS
 10
38.0734697411
 20
56.1503006614
 40
0.0116879921
100
AcDbArc
 50
146.236076059
 51
273.763923941
  0
CIRCLE
  5
556
100
AcDbEntity
  8
3_AXES_OTHER
100
AcDbCircle
 62
7
  6
CONTINUOUS
 10
42.8121407916
 20
51.5233922701
 40
0.187007874
  0
CIRCLE
  5
557
100
AcDbEntity
  8
3_AXES_OTHER
100
AcDbCircle
 62
7
  6
CONTINUOUS
 10
42.8121407916
 20
51.5233922701
 40
0.0984251969
  0
ARC
  5
558
100
AcDbEntity
  8
3_AXES_OTHER
100
AcDbCircle
 62
7
  6
CONTINUOUS
 10
42.8781635902
 20
51.4090374284
 40
0.0619176445
100
AcDbArc
 50
86.236076059
 51
153.763923941
  0
ARC
  5
559
100
AcDbEntity
  8
3_AXES_OTHER
100
AcDbCircle
 62
7
  6
CONTINUOUS
 10
42.9441863888
 20
51.5233922701
 40
0.0619176445
100
AcDbArc
 50
146.236076059
 51
213.763923941
  0
ARC
  5
55A
100
AcDbEntity
  8
3_AXES_OTHER
100
AcDbCircle
 62
7
  6
CONTINUOUS
 10
42.8781635902
 20
51.6377471118
 40
0.0619176445
100
AcDbArc
 50
206.236076059
 51
273.763923941
  0
ARC
  5
55B
100
AcDbEntity
  8
3_AXES_OTHER
100
AcDbCircle
 62
7
  6
CONTINUOUS
 10
42.7461179929
 20
51.6377471118
 40
0.0619176445
100
AcDbArc
 50
266.236076059
 51
333.763923941
  0
ARC
  5
55C
100
AcDbEntity
  8
3_AXES_OTHER
100
AcDbCircle
 62
7
  6
CONTINUOUS
 10
42.6800951943
 20
51.5233922701
 40
0.0619176445
100
AcDbArc
 50
326.236076059
 51
33.763923941
  0
ARC
  5
55D
100
AcDbEntity
  8
3_AXES_OTHER
100
AcDbCircle
 62
7
  6
CONTINUOUS
 10
42.7461179929
 20
51.4090374284
 40
0.0619176445
100
AcDbArc
 50
26.236076059
 51
93.763923941
  0
CIRCLE
  5
55E
100
AcDbEntity
  8
3_AXES_OTHER
100
AcDbCircle
 62
7
  6
CONTINUOUS
 10
42.8121407916
 20
51.5233922701
 40
0.0346948819
  0
ARC
  5
55F
100
AcDbEntity
  8
3_AXES_OTHER
100
AcDbCircle
 62
7
  6
CONTINUOUS
 10
42.8121407916
 20
51.4415763252
 40
0.0116879921
100
AcDbArc
 50
206.236076059
 51
333.763923941
  0
ARC
  5
560
100
AcDbEntity
  8
3_AXES_OTHER
100
AcDbCircle
 62
7
  6
CONTINUOUS
 10
42.8829954783
 20
51.4824842977
 40
0.0116879921
100
AcDbArc
 50
266.236076059
 51
33.763923941
  0
ARC
  5
561
100
AcDbEntity
  8
3_AXES_OTHER
100
AcDbCircle
 62
7
  6
CONTINUOUS
 10
42.8829954783
 20
51.5643002426
 40
0.0116879921
100
AcDbArc
 50
326.236076059
 51
93.763923941
  0
ARC
  5
562
100
AcDbEntity
  8
3_AXES_OTHER
100
AcDbCircle
 62
7
  6
CONTINUOUS
 10
42.8121407916
 20
51.605208215
 40
0.0116879921
100
AcDbArc
 50
26.236076059
 51
153.763923941
  0
ARC
  5
563
100
AcDbEntity
  8
3_AXES_OTHER
100
AcDbCircle
 62
7
  6
CONTINUOUS
 10
42.7412861049
 20
51.5643002426
 40
0.0116879921
100
AcDbArc
 50
86.236076059
 51
213.763923941
  0
ARC
  5
564
100
AcDbEntity
  8
3_AXES_OTHER
100
AcDbCircle
 62
7
  6
CONTINUOUS
 10
42.7412861049
 20
51.4824842977
 40
0.0116879921
100
AcDbArc
 50
146.236076059
 51
273.763923941
  0
ARC
  5
565
100
AcDbEntity
  8
7_ALL_ROUNDS
100
AcDbCircle
 62
7
  6
CONTINUOUS
 10
49.5836798236
 20
65.492747666
 40
0.25
100
AcDbArc
 50
0.0
 51
90.0
  0
ARC
  5
566
100
AcDbEntity
  8
7_ALL_ROUNDS
100
AcDbCircle
 62
7
  6
CONTINUOUS
 10
89.1685058685
 20
30.952747666
 40
0.25
100
AcDbArc
 50
180.0
 51
270.0
  0
ARC
  5
567
100
AcDbEntity
  8
CTRLS
100
AcDbCircle
 62
7
  6
CONTINUOUS
 10
92.0435058685
 20
30.107747666
 40
0.125
100
AcDbArc
 50
270.0
 51
360.0
  0
ARC
  5
568
100
AcDbEntity
  8
CTRLS
100
AcDbCircle
 62
7
  6
CONTINUOUS
 10
90.7935058685
 20
30.107747666
 40
0.125
100
AcDbArc
 50
180.0
 51
270.0
  0
ARC
  5
569
100
AcDbEntity
  8
7_ALL_ROUNDS
100
AcDbCircle
 62
7
  6
CONTINUOUS
 10
89.1685058685
 20
65.492747666
 40
0.25
100
AcDbArc
 50
90.0
 51
180.0
  0
ARC
  5
56A
100
AcDbEntity
  8
7_ALL_ROUNDS
100
AcDbCircle
 62
7
  6
CONTINUOUS
 10
108.9285058685
 20
30.952747666
 40
0.25
100
AcDbArc
 50
270.0
 51
360.0
  0
ARC
  5
56B
100
AcDbEntity
  8
CTRLS
100
AcDbCircle
 62
7
  6
CONTINUOUS
 10
107.2935058685
 20
30.107747666
 40
0.125
100
AcDbArc
 50
270.0
 51
360.0
  0
ARC
  5
56C
100
AcDbEntity
  8
CTRLS
100
AcDbCircle
 62
7
  6
CONTINUOUS
 10
106.0435058685
 20
30.107747666
 40
0.125
100
AcDbArc
 50
180.0
 51
270.0
  0
ARC
  5
56D
100
AcDbEntity
  8
7_ALL_ROUNDS
100
AcDbCircle
 62
7
  6
CONTINUOUS
 10
100.2865058685
 20
49.050747666
 40
0.188
100
AcDbArc
 50
180.0
 51
270.0
  0
ARC
  5
56E
100
AcDbEntity
  8
3_ALL_AXES
100
AcDbCircle
 62
7
  6
CONTINUOUS
 10
101.0110058685
 20
49.795247666
 40
0.1875
100
AcDbArc
 50
180.0
 51
270.0
  0
ARC
  5
56F
100
AcDbEntity
  8
3_ALL_AXES
100
AcDbCircle
 62
7
  6
CONTINUOUS
 10
100.3205058685
 20
49.104747666
 40
0.187
100
AcDbArc
 50
180.0
 51
270.0
  0
CIRCLE
  5
570
100
AcDbEntity
  8
3_AXES_OTHER
100
AcDbCircle
 62
7
  6
CONTINUOUS
 10
100.3135058685
 20
50.832747666
 40
0.1395
  0
CIRCLE
  5
571
100
AcDbEntity
  8
02___PRT_ALL_AXES
100
AcDbCircle
 62
7
  6
CONTINUOUS
 10
100.3135058685
 20
50.832747666
 40
0.1395
  0
CIRCLE
  5
572
100
AcDbEntity
  8
3_AXES_OTHER
100
AcDbCircle
 62
7
  6
CONTINUOUS
 10
101.6235058685
 20
49.100247666
 40
0.1395
  0
CIRCLE
  5
573
100
AcDbEntity
  8
02___PRT_ALL_AXES
100
AcDbCircle
 62
7
  6
CONTINUOUS
 10
101.6235058685
 20
49.100247666
 40
0.1395
  0
ARC
  5
574
100
AcDbEntity
  8
7_ALL_ROUNDS
100
AcDbCircle
 62
7
  6
CONTINUOUS
 10
101.7485058685
 20
51.232747666
 40
0.125
100
AcDbArc
 50
90.0
 51
180.0
  0
ARC
  5
575
100
AcDbEntity
  8
7_ALL_ROUNDS
100
AcDbCircle
 62
7
  6
CONTINUOUS
 10
101.7485058685
 20
50.232747666
 40
0.125
100
AcDbArc
 50
180.0
 51
270.0
  0
CIRCLE
  5
576
100
AcDbEntity
  8
3_AXES_OTHER
100
AcDbCircle
 62
7
  6
CONTINUOUS
 10
100.3135058685
 20
53.992747666
 40
0.1395
  0
CIRCLE
  5
577
100
AcDbEntity
  8
02___PRT_ALL_AXES
100
AcDbCircle
 62
7
  6
CONTINUOUS
 10
100.3135058685
 20
53.992747666
 40
0.1395
  0
ARC
  5
578
100
AcDbEntity
  8
7_ALL_ROUNDS
100
AcDbCircle
 62
7
  6
CONTINUOUS
 10
100.2865058685
 20
55.774747666
 40
0.188
100
AcDbArc
 50
90.0
 51
180.0
  0
ARC
  5
579
100
AcDbEntity
  8
3_ALL_AXES
100
AcDbCircle
 62
7
  6
CONTINUOUS
 10
101.0110058685
 20
55.030247666
 40
0.1875
100
AcDbArc
 50
90.0
 51
180.0
  0
ARC
  5
57A
100
AcDbEntity
  8
3_ALL_AXES
100
AcDbCircle
 62
7
  6
CONTINUOUS
 10
100.3205058685
 20
55.720747666
 40
0.187
100
AcDbArc
 50
90.0
 51
180.0
  0
CIRCLE
  5
57B
100
AcDbEntity
  8
3_ALL_AXES
100
AcDbCircle
 62
7
  6
CONTINUOUS
 10
101.8420058685
 20
53.957747666
 40
0.135
  0
CIRCLE
  5
57C
100
AcDbEntity
  8
3_ALL_AXES
100
AcDbCircle
 62
7
  6
CONTINUOUS
 10
101.3420058685
 20
53.957747666
 40
0.0835
  0
CIRCLE
  5
57D
100
AcDbEntity
  8
3_AXES_OTHER
100
AcDbCircle
 62
7
  6
CONTINUOUS
 10
101.6235058685
 20
55.725247666
 40
0.1395
  0
CIRCLE
  5
57E
100
AcDbEntity
  8
02___PRT_ALL_AXES
100
AcDbCircle
 62
7
  6
CONTINUOUS
 10
101.6235058685
 20
55.725247666
 40
0.1395
  0
ARC
  5
57F
100
AcDbEntity
  8
3_ALL_AXES
100
AcDbCircle
 62
7
  6
CONTINUOUS
 10
102.8735058685
 20
52.132747666
 40
0.125
100
AcDbArc
 50
0.0
 51
90.0
  0
ARC
  5
580
100
AcDbEntity
  8
3_ALL_AXES
100
AcDbCircle
 62
7
  6
CONTINUOUS
 10
102.8735058685
 20
51.682747666
 40
0.125
100
AcDbArc
 50
270.0
 51
360.0
  0
ARC
  5
581
100
AcDbEntity
  8
3_ALL_AXES
100
AcDbCircle
 62
7
  6
CONTINUOUS
 10
102.3735058685
 20
51.682747666
 40
0.125
100
AcDbArc
 50
180.0
 51
270.0
  0
ARC
  5
582
100
AcDbEntity
  8
3_ALL_AXES
100
AcDbCircle
 62
7
  6
CONTINUOUS
 10
102.3735058685
 20
52.132747666
 40
0.125
100
AcDbArc
 50
90.0
 51
180.0
  0
CIRCLE
  5
583
100
AcDbEntity
  8
3_AXES_OTHER
100
AcDbCircle
 62
7
  6
CONTINUOUS
 10
103.6235058685
 20
49.100247666
 40
0.1395
  0
CIRCLE
  5
584
100
AcDbEntity
  8
02___PRT_ALL_AXES
100
AcDbCircle
 62
7
  6
CONTINUOUS
 10
103.6235058685
 20
49.100247666
 40
0.1395
  0
ARC
  5
585
100
AcDbEntity
  8
7_ALL_ROUNDS
100
AcDbCircle
 62
7
  6
CONTINUOUS
 10
103.4985058685
 20
50.232747666
 40
0.125
100
AcDbArc
 50
270.0
 51
360.0
  0
ARC
  5
586
100
AcDbEntity
  8
3_ALL_AXES
100
AcDbCircle
 62
7
  6
CONTINUOUS
 10
104.2360058685
 20
49.795247666
 40
0.1875
100
AcDbArc
 50
270.0
 51
360.0
  0
ARC
  5
587
100
AcDbEntity
  8
7_ALL_ROUNDS
100
AcDbCircle
 62
7
  6
CONTINUOUS
 10
103.4985058685
 20
51.232747666
 40
0.125
100
AcDbArc
 50
0.0
 51
90.0
  0
CIRCLE
  5
588
100
AcDbEntity
  8
3_ALL_AXES
100
AcDbCircle
 62
7
  6
CONTINUOUS
 10
102.3582558685
 20
53.957747666
 40
0.135
  0
CIRCLE
  5
589
100
AcDbEntity
  8
3_ALL_AXES
100
AcDbCircle
 62
7
  6
CONTINUOUS
 10
102.8907558685
 20
53.957747666
 40
0.135
  0
CIRCLE
  5
58A
100
AcDbEntity
  8
3_ALL_AXES
100
AcDbCircle
 62
7
  6
CONTINUOUS
 10
103.4070058685
 20
53.957747666
 40
0.135
  0
CIRCLE
  5
58B
100
AcDbEntity
  8
3_ALL_AXES
100
AcDbCircle
 62
7
  6
CONTINUOUS
 10
103.9070058685
 20
53.957747666
 40
0.0835
  0
CIRCLE
  5
58C
100
AcDbEntity
  8
3_AXES_OTHER
100
AcDbCircle
 62
7
  6
CONTINUOUS
 10
103.6235058685
 20
55.725247666
 40
0.1395
  0
CIRCLE
  5
58D
100
AcDbEntity
  8
02___PRT_ALL_AXES
100
AcDbCircle
 62
7
  6
CONTINUOUS
 10
103.6235058685
 20
55.725247666
 40
0.1395
  0
ARC
  5
58E
100
AcDbEntity
  8
3_ALL_AXES
100
AcDbCircle
 62
7
  6
CONTINUOUS
 10
104.2360058685
 20
55.030247666
 40
0.1875
100
AcDbArc
 50
0.0
 51
90.0
  0
ARC
  5
58F
100
AcDbEntity
  8
3_ALL_AXES
100
AcDbCircle
 62
7
  6
CONTINUOUS
 10
104.9265058685
 20
49.104747666
 40
0.187
100
AcDbArc
 50
270.0
 51
360.0
  0
CIRCLE
  5
590
100
AcDbEntity
  8
3_AXES_OTHER
100
AcDbCircle
 62
7
  6
CONTINUOUS
 10
104.9335058685
 20
50.832747666
 40
0.1395
  0
CIRCLE
  5
591
100
AcDbEntity
  8
02___PRT_ALL_AXES
100
AcDbCircle
 62
7
  6
CONTINUOUS
 10
104.9335058685
 20
50.832747666
 40
0.1395
  0
ARC
  5
592
100
AcDbEntity
  8
3_ALL_AXES
100
AcDbCircle
 62
7
  6
CONTINUOUS
 10
104.9265058685
 20
55.720747666
 40
0.187
100
AcDbArc
 50
0.0
 51
90.0
  0
CIRCLE
  5
593
100
AcDbEntity
  8
3_AXES_OTHER
100
AcDbCircle
 62
7
  6
CONTINUOUS
 10
104.9335058685
 20
53.992747666
 40
0.1395
  0
CIRCLE
  5
594
100
AcDbEntity
  8
02___PRT_ALL_AXES
100
AcDbCircle
 62
7
  6
CONTINUOUS
 10
104.9335058685
 20
53.992747666
 40
0.1395
  0
ARC
  5
595
100
AcDbEntity
  8
7_ALL_ROUNDS
100
AcDbCircle
 62
7
  6
CONTINUOUS
 10
104.9605058685
 20
49.050747666
 40
0.188
100
AcDbArc
 50
270.0
 51
360.0
  0
ARC
  5
596
100
AcDbEntity
  8
7_ALL_ROUNDS
100
AcDbCircle
 62
7
  6
CONTINUOUS
 10
104.9605058685
 20
55.774747666
 40
0.188
100
AcDbArc
 50
0.0
 51
90.0
  0
ARC
  5
597
100
AcDbEntity
  8
7_ALL_ROUNDS
100
AcDbCircle
 62
7
  6
CONTINUOUS
 10
108.9285058685
 20
65.492747666
 40
0.25
100
AcDbArc
 50
0.0
 51
90.0
  0
CIRCLE
  5
598
100
AcDbEntity
  8
0
100
AcDbCircle
 62
7
  6
CONTINUOUS
 10
21.8336798236
 20
86.4056682614
 40
0.8724666521
  0
CIRCLE
  5
599
100
AcDbEntity
  8
0
100
AcDbCircle
 62
7
  6
CONTINUOUS
 10
21.8336798236
 20
86.4056682614
 40
0.8125
  0
ARC
  5
59A
100
AcDbEntity
  8
7_ALL_ROUNDS
100
AcDbCircle
 62
7
  6
CONTINUOUS
 10
20.1036798236
 20
84.1556682614
 40
0.25
100
AcDbArc
 50
180.0
 51
270.0
  0
CIRCLE
  5
59B
100
AcDbEntity
  8
0
100
AcDbCircle
 62
7
  6
CONTINUOUS
 10
21.8336798236
 20
101.6556682614
 40
0.8724666521
  0
CIRCLE
  5
59C
100
AcDbEntity
  8
0
100
AcDbCircle
 62
7
  6
CONTINUOUS
 10
21.8336798236
 20
101.6556682614
 40
0.8125
  0
ARC
  5
59D
100
AcDbEntity
  8
7_ALL_ROUNDS
100
AcDbCircle
 62
7
  6
CONTINUOUS
 10
20.1036798236
 20
103.9156682614
 40
0.25
100
AcDbArc
 50
90.0
 51
180.0
  0
CIRCLE
  5
59E
100
AcDbEntity
  8
0
100
AcDbCircle
 62
7
  6
CONTINUOUS
 10
47.8336798236
 20
86.4056682614
 40
0.8724666521
  0
CIRCLE
  5
59F
100
AcDbEntity
  8
0
100
AcDbCircle
 62
7
  6
CONTINUOUS
 10
47.8336798236
 20
86.4056682614
 40
0.8125
  0
ARC
  5
5A0
100
AcDbEntity
  8
7_ALL_ROUNDS
100
AcDbCircle
 62
7
  6
CONTINUOUS
 10
49.5836798236
 20
84.1556682614
 40
0.25
100
AcDbArc
 50
270.0
 51
360.0
  0
CIRCLE
  5
5A1
100
AcDbEntity
  8
0
100
AcDbCircle
 62
7
  6
CONTINUOUS
 10
47.8336798236
 20
101.6556682614
 40
0.8724666521
  0
CIRCLE
  5
5A2
100
AcDbEntity
  8
0
100
AcDbCircle
 62
7
  6
CONTINUOUS
 10
47.8336798236
 20
101.6556682614
 40
0.8125
  0
ARC
  5
5A3
100
AcDbEntity
  8
7_ALL_ROUNDS
100
AcDbCircle
 62
7
  6
CONTINUOUS
 10
49.5836798236
 20
103.9156682614
 40
0.25
100
AcDbArc
 50
0.0
 51
90.0
  0
ENDSEC
  0
SECTION
  2
OBJECTS
  0
DICTIONARY
  5
C
100
AcDbDictionary
280
0
281
1
  3
ACAD_GROUP
350
D
  3
ACAD_MLINESTYLE
350
17
  3
ACAD_LAYOUT
350
1A
  3
ACAD_PLOTSETTINGS
350
19
  3
ACAD_PLOTSTYLENAME
350
E
  0
DICTIONARY
  5
D
102
{ACAD_REACTORS
330
C
102
}
100
AcDbDictionary
280
0
281
1
  0
ACDBDICTIONARYWDFLT
  5
E
102
{ACAD_REACTORS
330
C
102
}
100
AcDbDictionary
281
1
  3
Normal
350
F
100
AcDbDictionaryWithDefault
340
F
  0
DICTIONARY
  5
17
102
{ACAD_REACTORS
330
C
102
}
100
AcDbDictionary
280
0
281
1
  3
Standard
350
18
  0
DICTIONARY
  5
19
102
{ACAD_REACTORS
330
C
102
}
100
AcDbDictionary
281
1
  0
DICTIONARY
  5
1A
102
{ACAD_REACTORS
330
C
102
}
100
AcDbDictionary
281
1
  3
Model
350
5A4
  3
Layout1
350
5A5
  0
ACDBPLACEHOLDER
  5
F
102
{ACAD_REACTORS
330
E
102
}
  0
MLINESTYLE
  5
18
102
{ACAD_REACTORS
330
17
102
}
100
AcDbMlineStyle
  2
STANDARD
 70
0
  3

 62
256
 51
90.0
 52
90.0
 71
2
 49
0.5
 62
256
  6
BYLAYER
 49
-0.5
 62
256
  6
BYLAYER
  0
LAYOUT
  5
5A4
102
{ACAD_REACTORS
330
1A
102
}
100
AcDbPlotSettings
  1

  2
none_device
  4
ANSI_C_(22.00_x_17.00_Inches)
  6

 40
0.0
 41
0.0
 42
0.0
 43
0.0
 44
558.8
 45
431.8
 46
0.0
 47
0.0
 48
0.0
 49
0.0
140
0.0
141
0.0
142
1.0
143
1.0
 70
1024
 72
0
 73
0
 74
0
  7

 75
0
147
1.0
148
0.0
149
0.0
100
AcDbLayout
  1
Model
 70
0
 71
0
 10
0.0
 20
0.0
 11
22.0
 21
17.0
 12
0.0
 22
0.0
 32
0.0
 14
0.0
 24
0.0
 34
0.0
 15
0.0
 25
0.0
 35
0.0
146
0.0
 13
0.0
 23
0.0
 33
0.0
 16
1.0
 26
0.0
 36
0.0
 17
0.0
 27
1.0
 37
0.0
 76
0
330
22E
345
0
346
0
  0
LAYOUT
  5
5A5
102
{ACAD_REACTORS
330
1A
102
}
100
AcDbPlotSettings
  1

  2
none_device
  4
ANSI_C_(22.00_x_17.00_Inches)
  6

 40
0.0
 41
0.0
 42
0.0
 43
0.0
 44
558.8
 45
431.8
 46
0.0
 47
0.0
 48
0.0
 49
0.0
140
0.0
141
0.0
142
1.0
143
1.0
 70
0
 72
0
 73
0
 74
0
  7

 75
0
147
1.0
148
0.0
149
0.0
100
AcDbLayout
  1
Layout1
 70
0
 71
1
 10
0.0
 20
0.0
 11
22.0
 21
17.0
 12
0.0
 22
0.0
 32
0.0
 14
0.0
 24
0.0
 34
0.0
 15
0.0
 25
0.0
 35
0.0
146
0.0
 13
0.0
 23
0.0
 33
0.0
 16
1.0
 26
0.0
 36
0.0
 17
0.0
 27
1.0
 37
0.0
 76
0
330
22F
345
0
346
0
  0
ENDSEC
  0
EOF
