999
DXF file: C:\Users\suzanne.stasiak\OneDrive - qsc.com\Documents\L024 MARKETING FILES\fg-901339-2d-A.dxf
999
Pro/ENGINEER 2022014 by Parametric Technology Corporation
  0
SECTION
  2
HEADER
  9
$ACADVER
  1
AC1015
  9
$DWGCODEPAGE
  3
ANSI_1252
  9
$EXTMAX
 10
3454.4
 20
2235.2
 30
0.0
  9
$EXTMIN
 10
0.0
 20
0.0
 30
0.0
  9
$LIMMIN
 10
0.0
 20
0.0
  9
$LIMMAX
 10
3454.4
 20
2235.2
  9
$VIEWCTR
 10
1727.2
 20
1117.6
  9
$VIEWSIZE
 40
2235.2
  9
$CLAYER
  8
0
  9
$LTSCALE
 40
189.992
  9
$CELTYPE
  6
BYLAYER
  9
$DIMSCALE
 40
1.0
  9
$DIMASZ
 40
16.0
  9
$DIMEXO
 40
1.5875
  9
$DIMDLI
 40
131.2672
  9
$DIMEXE
 40
3.175
  9
$DIMCEN
 40
31.0896
  9
$DIMLFAC
 40
1.0
  9
$DIMBLK
  1
_FILLED
  9
$DIMALT
 70
1
  9
$DIMALTD
 70
1
  9
$DIMALTTD
 70
2
  9
$DIMALTF
 40
0.0393700787
  9
$DIMTXT
 40
18.288
  9
$DIMTOL
 70
1
  9
$DIMLIM
 70
0
  9
$DIMTFAC
 40
1.0
  9
$DIMTP
 40
0.02
  9
$DIMTM
 40
0.02
  9
$DIMGAP
 40
0.625
  9
$DIMDSEP
 70
46
  9
$AUNITS
 70
0
  9
$PDMODE
 70
3
  9
$PDSIZE
 40
7.9375
  9
$HANDSEED
  5
610
  9
$TILEMODE
 70
1
  9
$MEASUREMENT
 70
1
  9
$INSUNITS
 70
4
  0
ENDSEC
  0
SECTION
  2
CLASSES
  0
CLASS
  1
ACDBDICTIONARYWDFLT
  2
AcDbDictionaryWithDefault
  3
AutoCAD 2000
 90
0
280
0
281
0
  0
CLASS
  1
ACDBPLACEHOLDER
  2
AcDbPlaceHolder
  3
AutoCAD 2000
 90
0
280
0
281
0
  0
CLASS
  1
LAYOUT
  2
AcDbLayout
  3
AutoCAD 2000
 90
0
280
0
281
0
  0
ENDSEC
  0
SECTION
  2
TABLES
  0
TABLE
  2
VPORT
  5
8
100
AcDbSymbolTable
 70
2
  0
VPORT
  5
1F4
100
AcDbSymbolTableRecord
100
AcDbViewportTableRecord
  2
*ACTIVE
 70
0
 10
0.0
 20
0.0
 11
1.0
 21
1.0
 12
1727.2
 22
1117.6
 13
0.0
 23
0.0
 14
1.0
 24
1.0
 15
0.0
 25
0.0
 16
0.0
 26
0.0
 36
1.0
 17
0.0
 27
0.0
 37
0.0
 40
2235.2
 41
1.5454545455
 42
50.0
 43
0.0
 44
0.0
 50
0.0
 51
0.0
 71
0
 72
100
 73
1
 74
1
 75
0
 76
0
 77
0
 78
0
  0
ENDTAB
  0
TABLE
  2
LTYPE
  5
5
100
AcDbSymbolTable
 70
6
  0
LTYPE
  5
14
100
AcDbSymbolTableRecord
100
AcDbLinetypeTableRecord
  2
BYBLOCK
 70
0
  3

 72
65
 73
0
 40
0.0
  0
LTYPE
  5
15
100
AcDbSymbolTableRecord
100
AcDbLinetypeTableRecord
  2
BYLAYER
 70
0
  3

 72
65
 73
0
 40
0.0
  0
LTYPE
  5
16
100
AcDbSymbolTableRecord
100
AcDbLinetypeTableRecord
  2
CONTINUOUS
 70
64
  3
Solid line
 72
65
 73
0
 40
0.0
  0
LTYPE
  5
1F5
100
AcDbSymbolTableRecord
100
AcDbLinetypeTableRecord
  2
CENTER
 70
64
  3
____ _ ____ _ ____ _ ____ _ ____ _ ____ _ ____
 72
65
 73
4
 40
0.6
 49
0.375
 74
0
 49
-0.075
 74
0
 49
0.075
 74
0
 49
-0.075
 74
0
  0
LTYPE
  5
1F6
100
AcDbSymbolTableRecord
100
AcDbLinetypeTableRecord
  2
HIDDEN
 70
64
  3
- - - - - - - - - - - - - - - - - - - -
 72
65
 73
2
 40
0.2
 49
0.1
 74
0
 49
-0.1
 74
0
  0
LTYPE
  5
1F7
100
AcDbSymbolTableRecord
100
AcDbLinetypeTableRecord
  2
PHANTOM
 70
64
  3
_____ _ _ _____ _ _ _____ _ _ _____
 72
65
 73
6
 40
0.8
 49
0.45
 74
0
 49
-0.05
 74
0
 49
0.1
 74
0
 49
-0.05
 74
0
 49
0.1
 74
0
 49
-0.05
 74
0
  0
LTYPE
  5
1F8
100
AcDbSymbolTableRecord
100
AcDbLinetypeTableRecord
  2
DOT
 70
64
  3
. . . . . . . . . . . . . . . . . . . .
 72
65
 73
2
 40
0.2
 49
0.1
 74
0
 49
-0.1
 74
0
  0
LTYPE
  5
1F9
100
AcDbSymbolTableRecord
100
AcDbLinetypeTableRecord
  2
DASHED
 70
64
  3
- - - - - - - - - - - - - - - - - - - -
 72
65
 73
2
 40
0.2
 49
0.1
 74
0
 49
-0.1
 74
0
  0
ENDTAB
  0
TABLE
  2
LAYER
  5
2
100
AcDbSymbolTable
 70
36
  0
LAYER
  5
10
100
AcDbSymbolTableRecord
100
AcDbLayerTableRecord
  2
0
 70
0
 62
7
  6
CONTINUOUS
370
-3
390
F
  0
LAYER
  5
1FA
100
AcDbSymbolTableRecord
100
AcDbLayerTableRecord
  2
DEFAULT_1
 70
0
 62
7
  6
CENTER
370
-3
390
F
  0
LAYER
  5
1FB
100
AcDbSymbolTableRecord
100
AcDbLayerTableRecord
  2
DEFAULT_2
 70
0
 62
8
  6
HIDDEN
370
-3
390
F
  0
LAYER
  5
1FC
100
AcDbSymbolTableRecord
100
AcDbLayerTableRecord
  2
DEFAULT_3
 70
0
 62
7
  6
PHANTOM
370
-3
390
F
  0
LAYER
  5
1FD
100
AcDbSymbolTableRecord
100
AcDbLayerTableRecord
  2
1_ALL_PLANES
 70
0
 62
7
  6
CONTINUOUS
370
-3
390
F
  0
LAYER
  5
1FE
100
AcDbSymbolTableRecord
100
AcDbLayerTableRecord
  2
1_DEF_PLANES
 70
0
 62
7
  6
CONTINUOUS
370
-3
390
F
  0
LAYER
  5
1FF
100
AcDbSymbolTableRecord
100
AcDbLayerTableRecord
  2
2_ALL_CSYS
 70
0
 62
7
  6
CONTINUOUS
370
-3
390
F
  0
LAYER
  5
200
100
AcDbSymbolTableRecord
100
AcDbLayerTableRecord
  2
2_DEF_CSYS
 70
0
 62
7
  6
CONTINUOUS
370
-3
390
F
  0
LAYER
  5
201
100
AcDbSymbolTableRecord
100
AcDbLayerTableRecord
  2
3_ALL_AXES
 70
0
 62
7
  6
CONTINUOUS
370
-3
390
F
  0
LAYER
  5
202
100
AcDbSymbolTableRecord
100
AcDbLayerTableRecord
  2
3_AXES_OTHER
 70
0
 62
7
  6
CONTINUOUS
370
-3
390
F
  0
LAYER
  5
203
100
AcDbSymbolTableRecord
100
AcDbLayerTableRecord
  2
3_HOLES
 70
0
 62
7
  6
CONTINUOUS
370
-3
390
F
  0
LAYER
  5
204
100
AcDbSymbolTableRecord
100
AcDbLayerTableRecord
  2
4_ALL_POINTS
 70
0
 62
7
  6
CONTINUOUS
370
-3
390
F
  0
LAYER
  5
205
100
AcDbSymbolTableRecord
100
AcDbLayerTableRecord
  2
5_ALL_CURVES
 70
0
 62
7
  6
CONTINUOUS
370
-3
390
F
  0
LAYER
  5
206
100
AcDbSymbolTableRecord
100
AcDbLayerTableRecord
  2
6_ALL_SURFS
 70
0
 62
7
  6
CONTINUOUS
370
-3
390
F
  0
LAYER
  5
207
100
AcDbSymbolTableRecord
100
AcDbLayerTableRecord
  2
6_COPYGEOM
 70
0
 62
7
  6
CONTINUOUS
370
-3
390
F
  0
LAYER
  5
208
100
AcDbSymbolTableRecord
100
AcDbLayerTableRecord
  2
7_ALL_ROUNDS
 70
0
 62
7
  6
CONTINUOUS
370
-3
390
F
  0
LAYER
  5
209
100
AcDbSymbolTableRecord
100
AcDbLayerTableRecord
  2
7_MERGES
 70
0
 62
7
  6
CONTINUOUS
370
-3
390
F
  0
LAYER
  5
20A
100
AcDbSymbolTableRecord
100
AcDbLayerTableRecord
  2
8_GDT
 70
0
 62
7
  6
CONTINUOUS
370
-3
390
F
  0
LAYER
  5
20B
100
AcDbSymbolTableRecord
100
AcDbLayerTableRecord
  2
8_SET_DATUMS
 70
0
 62
7
  6
CONTINUOUS
370
-3
390
F
  0
LAYER
  5
20C
100
AcDbSymbolTableRecord
100
AcDbLayerTableRecord
  2
9_COSMETICS
 70
0
 62
7
  6
CONTINUOUS
370
-3
390
F
  0
LAYER
  5
20D
100
AcDbSymbolTableRecord
100
AcDbLayerTableRecord
  2
9_THREADS
 70
0
 62
7
  6
CONTINUOUS
370
-3
390
F
  0
ENDTAB
  0
TABLE
  2
STYLE
  5
3
100
AcDbSymbolTable
 70
1
  0
STYLE
  5
11
100
AcDbSymbolTableRecord
100
AcDbTextStyleTableRecord
  2
STANDARD
 70
0
 40
0.0
 41
1.0
 50
0.0
 71
0
 42
0.2
  3
gothic.ttf
  4

1001
ACAD
1000
Century Gothic
1071
34
  0
STYLE
  5
20E
100
AcDbSymbolTableRecord
100
AcDbTextStyleTableRecord
  2
TEXTSTYLE_1
 70
0
 40
0.0
 41
0.8
 50
0.0
 71
0
 42
0.2
  3
gdt
  4

  0
STYLE
  5
20F
100
AcDbSymbolTableRecord
100
AcDbTextStyleTableRecord
  2
TEXTSTYLE_2
 70
0
 40
0.0
 41
1.0
 50
0.0
 71
0
 42
0.2
  3
gothic.ttf
  4

1001
ACAD
1000
Century Gothic
1071
34
  0
STYLE
  5
210
100
AcDbSymbolTableRecord
100
AcDbTextStyleTableRecord
  2
TEXTSTYLE_3
 70
0
 40
0.0
 41
1.0
 50
0.0
 71
0
 42
0.2
  3
gdt
  4

  0
ENDTAB
  0
TABLE
  2
VIEW
  5
6
100
AcDbSymbolTable
 70
0
  0
ENDTAB
  0
TABLE
  2
UCS
  5
7
100
AcDbSymbolTable
 70
0
  0
ENDTAB
  0
TABLE
  2
APPID
  5
9
100
AcDbSymbolTable
 70
1
  0
APPID
  5
211
100
AcDbSymbolTableRecord
100
AcDbRegAppTableRecord
  2
ACAD
 70
0
  0
ENDTAB
  0
TABLE
  2
BLOCK_RECORD
  5
1
100
AcDbSymbolTable
 70
0
  0
BLOCK_RECORD
  5
212
100
AcDbSymbolTableRecord
100
AcDbBlockTableRecord
  2
*Model_Space
  0
BLOCK_RECORD
  5
213
100
AcDbSymbolTableRecord
100
AcDbBlockTableRecord
  2
*Paper_Space
  0
BLOCK_RECORD
  5
214
100
AcDbSymbolTableRecord
100
AcDbBlockTableRecord
  2
_FILLED
  0
BLOCK_RECORD
  5
215
100
AcDbSymbolTableRecord
100
AcDbBlockTableRecord
  2
XSEC_FILLED
  0
BLOCK_RECORD
  5
216
100
AcDbSymbolTableRecord
100
AcDbBlockTableRecord
  2
*D0
  0
BLOCK_RECORD
  5
217
100
AcDbSymbolTableRecord
100
AcDbBlockTableRecord
  2
*D1
  0
BLOCK_RECORD
  5
218
100
AcDbSymbolTableRecord
100
AcDbBlockTableRecord
  2
*D2
  0
BLOCK_RECORD
  5
219
100
AcDbSymbolTableRecord
100
AcDbBlockTableRecord
  2
*D3
  0
BLOCK_RECORD
  5
21A
100
AcDbSymbolTableRecord
100
AcDbBlockTableRecord
  2
*D4
  0
BLOCK_RECORD
  5
21B
100
AcDbSymbolTableRecord
100
AcDbBlockTableRecord
  2
*D5
  0
BLOCK_RECORD
  5
21C
100
AcDbSymbolTableRecord
100
AcDbBlockTableRecord
  2
*D6
  0
BLOCK_RECORD
  5
21D
100
AcDbSymbolTableRecord
100
AcDbBlockTableRecord
  2
*D7
  0
BLOCK_RECORD
  5
21E
100
AcDbSymbolTableRecord
100
AcDbBlockTableRecord
  2
*D8
  0
BLOCK_RECORD
  5
21F
100
AcDbSymbolTableRecord
100
AcDbBlockTableRecord
  2
*D9
  0
BLOCK_RECORD
  5
220
100
AcDbSymbolTableRecord
100
AcDbBlockTableRecord
  2
*D10
  0
BLOCK_RECORD
  5
221
100
AcDbSymbolTableRecord
100
AcDbBlockTableRecord
  2
*D11
  0
BLOCK_RECORD
  5
222
100
AcDbSymbolTableRecord
100
AcDbBlockTableRecord
  2
*D12
  0
BLOCK_RECORD
  5
223
100
AcDbSymbolTableRecord
100
AcDbBlockTableRecord
  2
*D13
  0
BLOCK_RECORD
  5
224
100
AcDbSymbolTableRecord
100
AcDbBlockTableRecord
  2
CG_3D_BL2
  0
BLOCK_RECORD
  5
225
100
AcDbSymbolTableRecord
100
AcDbBlockTableRecord
  2
CG_3D_BL1
  0
BLOCK_RECORD
  5
226
100
AcDbSymbolTableRecord
100
AcDbBlockTableRecord
  2
CG_3D_BL0
  0
ENDTAB
  0
TABLE
  2
DIMSTYLE
  5
A
100
AcDbSymbolTable
 70
1
100
AcDbDimStyleTable
 71
0
  0
DIMSTYLE
105
227
100
AcDbSymbolTableRecord
100
AcDbDimStyleTableRecord
  2
STANDARD
 70
0
  3

  4

 40
1.0
 41
16.0
 42
1.5875
 43
0.38
 44
3.175
 45
0.0
 46
0.0
 47
0.02
 48
0.02
140
18.288
141
0.09
142
0.0
143
0.0393700787
144
1.0
145
0.0
146
1.0
147
0.625
 71
1
 72
0
 73
1
 74
1
 75
0
 76
0
 77
0
 78
4
 79
1
170
1
171
1
172
0
173
0
174
0
175
0
176
0
177
0
178
0
270
2
179
2
271
2
272
2
273
2
274
2
275
0
280
0
281
0
282
0
283
1
284
4
285
0
286
0
287
3
288
0
340
11
278
46
341
214
342
214
343
214
344
214
  0
DIMSTYLE
105
228
100
AcDbSymbolTableRecord
100
AcDbDimStyleTableRecord
  2
DIMSTYLE_1
 70
0
  3

  4

 40
1.0
 41
16.0
 42
1.5875
 43
0.38
 44
3.175
 45
0.0
 46
0.0
 47
0.02
 48
0.02
140
18.288
141
0.09
142
0.0
143
0.0393700787
144
1.0
145
0.0
146
1.0
147
1.143
 71
0
 72
0
 73
1
 74
1
 75
0
 76
0
 77
0
 78
4
 79
1
170
1
171
1
172
0
173
0
174
0
175
0
176
0
177
0
178
0
270
2
179
2
271
0
272
0
273
2
274
1
275
0
280
0
281
0
282
0
283
1
284
4
285
0
286
0
287
3
288
0
340
11
278
46
341
214
342
214
343
214
344
214
  0
DIMSTYLE
105
229
100
AcDbSymbolTableRecord
100
AcDbDimStyleTableRecord
  2
DIMSTYLE_2
 70
0
  3

  4

 40
1.0
 41
16.0
 42
1.5875
 43
0.38
 44
3.175
 45
0.0
 46
0.0
 47
0.02
 48
0.02
140
18.288
141
0.09
142
0.0
143
0.0393700787
144
1.0
145
0.0
146
1.0
147
1.143
 71
0
 72
0
 73
1
 74
1
 75
0
 76
0
 77
0
 78
4
 79
1
170
1
171
2
172
0
173
0
174
0
175
0
176
0
177
0
178
0
270
2
179
2
271
1
272
1
273
2
274
2
275
0
280
0
281
0
282
0
283
1
284
4
285
0
286
0
287
3
288
0
340
11
278
46
341
214
342
214
343
214
344
214
  0
DIMSTYLE
105
22A
100
AcDbSymbolTableRecord
100
AcDbDimStyleTableRecord
  2
DIMSTYLE_3
 70
0
  3
<>
  4

 40
1.0
 41
16.0
 42
1.5875
 43
0.38
 44
3.175
 45
0.0
 46
0.0
 47
0.02
 48
0.02
140
18.288
141
0.09
142
0.0
143
0.0393700787
144
1.0
145
0.0
146
1.0
147
0.625
 71
0
 72
0
 73
1
 74
1
 75
0
 76
0
 77
0
 78
4
 79
1
170
1
171
1
172
0
173
0
174
0
175
0
176
0
177
0
178
0
270
2
179
2
271
0
272
0
273
2
274
1
275
0
280
0
281
0
282
0
283
1
284
4
285
0
286
0
287
3
288
1
340
11
278
46
289
1
341
214
342
214
343
214
344
214
  0
ENDTAB
  0
ENDSEC
  0
SECTION
  2
BLOCKS
  0
BLOCK
  5
20
100
AcDbEntity
  8
0
100
AcDbBlockBegin
  2
*Model_Space
 70
0
 10
0.0
 20
0.0
 30
0.0
  3
*Model_Space
  1

  0
ENDBLK
  5
21
100
AcDbEntity
  8
0
100
AcDbBlockEnd
  0
BLOCK
  5
1C
100
AcDbEntity
  8
0
100
AcDbBlockBegin
  2
*Paper_Space
 70
0
 10
0.0
 20
0.0
 30
0.0
  3
*Paper_Space
  1

  0
ENDBLK
  5
1D
100
AcDbEntity
  8
0
100
AcDbBlockEnd
  0
BLOCK
  5
22B
100
AcDbEntity
  8
0
100
AcDbBlockBegin
 62
2
  6
CONTINUOUS
  2
CG_3D_BL2
 70
64
 10
555.2566026388
 20
1329.1224058324
  3
CG_3D_BL2
  1

  0
ARC
  5
22C
100
AcDbEntity
  8
0
100
AcDbCircle
 62
7
  6
CONTINUOUS
 10
555.2566026388
 20
1329.1224058324
 40
16.0
100
AcDbArc
 50
90.0
 51
180.0
  0
ARC
  5
22D
100
AcDbEntity
  8
0
100
AcDbCircle
 62
7
  6
CONTINUOUS
 10
555.2566026388
 20
1329.1224058324
 40
16.0
100
AcDbArc
 50
180.0
 51
270.0
  0
ARC
  5
22E
100
AcDbEntity
  8
0
100
AcDbCircle
 62
7
  6
CONTINUOUS
 10
555.2566026388
 20
1329.1224058324
 40
16.0
100
AcDbArc
 50
270.0
 51
360.0
  0
ARC
  5
22F
100
AcDbEntity
  8
0
100
AcDbCircle
 62
7
  6
CONTINUOUS
 10
555.2566026388
 20
1329.1224058324
 40
16.0
100
AcDbArc
 50
0.0
 51
90.0
  0
LINE
  5
230
100
AcDbEntity
  8
0
100
AcDbLine
 62
7
  6
CONTINUOUS
 10
555.2566026388
 20
1329.1224058324
 11
571.2566026388
 21
1329.1224058324
  0
LINE
  5
231
100
AcDbEntity
  8
0
100
AcDbLine
 62
7
  6
CONTINUOUS
 10
555.2566026388
 20
1329.1224058324
 11
555.2566026388
 21
1313.1224058324
  0
LINE
  5
232
100
AcDbEntity
  8
0
100
AcDbLine
 62
7
  6
CONTINUOUS
 10
539.2566026388
 20
1329.1224058324
 11
555.2566026388
 21
1329.1224058324
  0
LINE
  5
233
100
AcDbEntity
  8
0
100
AcDbLine
 62
7
  6
CONTINUOUS
 10
555.2566026388
 20
1345.1224058324
 11
555.2566026388
 21
1329.1224058324
  0
LINE
  5
234
100
AcDbEntity
  8
0
100
AcDbLine
 62
2
  6
CONTINUOUS
 10
555.2566026388
 20
1329.0169552826
 11
555.3620531886
 21
1329.1224058324
  0
LWPOLYLINE
  5
235
100
AcDbEntity
  8
0
100
AcDbPolyline
 62
7
  6
CONTINUOUS
 90
8
 70
0
 10
555.2566026388
 20
1329.1224058324
 10
555.2566026388
 20
1313.1224058324
 10
560.2008745488
 20
1313.9055015717
 10
564.6611666755
 20
1316.1781339224
 10
568.2008745488
 20
1319.7178417957
 10
570.4735068995
 20
1324.1781339224
 10
571.2566026388
 20
1329.1224058324
 10
555.2566026388
 20
1329.1224058324
  0
HATCH
  5
236
100
AcDbEntity
  8
0
100
AcDbHatch
 62
7
  6
CONTINUOUS
 10
0.0
 20
0.0
 30
0.0
210
0.0
220
0.0
230
1.0
  2
SOLID
 70
1
 71
1
 91
1
 92
1
 93
7
 72
1
 10
555.2566026388
 20
1329.1224058324
 11
555.2566026388
 21
1313.1224058324
 72
1
 10
555.2566026388
 20
1313.1224058324
 11
560.2008745488
 21
1313.9055015717
 72
1
 10
560.2008745488
 20
1313.9055015717
 11
564.6611666755
 21
1316.1781339224
 72
1
 10
564.6611666755
 20
1316.1781339224
 11
568.2008745488
 21
1319.7178417957
 72
1
 10
568.2008745488
 20
1319.7178417957
 11
570.4735068995
 21
1324.1781339224
 72
1
 10
570.4735068995
 20
1324.1781339224
 11
571.2566026388
 21
1329.1224058324
 72
1
 10
571.2566026388
 20
1329.1224058324
 11
555.2566026388
 21
1329.1224058324
 97
1
330
235
 75
0
 76
1
 98
1
 10
0.0
 20
0.0
  0
LWPOLYLINE
  5
237
100
AcDbEntity
  8
0
100
AcDbPolyline
 62
7
  6
CONTINUOUS
 90
8
 70
0
 10
555.2566026388
 20
1329.1224058324
 10
539.2566026388
 20
1329.1224058324
 10
540.0396983781
 20
1334.0666777424
 10
542.3123307288
 20
1338.5269698691
 10
545.8520386021
 20
1342.0666777424
 10
550.3123307288
 20
1344.3393100931
 10
555.2566026388
 20
1345.1224058324
 10
555.2566026388
 20
1329.1224058324
  0
HATCH
  5
238
100
AcDbEntity
  8
0
100
AcDbHatch
 62
7
  6
CONTINUOUS
 10
0.0
 20
0.0
 30
0.0
210
0.0
220
0.0
230
1.0
  2
SOLID
 70
1
 71
1
 91
1
 92
1
 93
7
 72
1
 10
555.2566026388
 20
1329.1224058324
 11
539.2566026388
 21
1329.1224058324
 72
1
 10
539.2566026388
 20
1329.1224058324
 11
540.0396983781
 21
1334.0666777424
 72
1
 10
540.0396983781
 20
1334.0666777424
 11
542.3123307288
 21
1338.5269698691
 72
1
 10
542.3123307288
 20
1338.5269698691
 11
545.8520386021
 21
1342.0666777424
 72
1
 10
545.8520386021
 20
1342.0666777424
 11
550.3123307288
 21
1344.3393100931
 72
1
 10
550.3123307288
 20
1344.3393100931
 11
555.2566026388
 21
1345.1224058324
 72
1
 10
555.2566026388
 20
1345.1224058324
 11
555.2566026388
 21
1329.1224058324
 97
1
330
237
 75
0
 76
1
 98
1
 10
0.0
 20
0.0
  0
ENDBLK
  5
239
100
AcDbEntity
  8
0
  6
BYBLOCK
 62
0
100
AcDbBlockEnd
  0
BLOCK
  5
23A
100
AcDbEntity
  8
0
100
AcDbBlockBegin
 62
2
  6
CONTINUOUS
  2
CG_3D_BL1
 70
64
 10
1262.9814092942
 20
1328.9123851464
  3
CG_3D_BL1
  1

  0
ARC
  5
23B
100
AcDbEntity
  8
0
100
AcDbCircle
 62
7
  6
CONTINUOUS
 10
1262.9814092942
 20
1328.9123851464
 40
16.0
100
AcDbArc
 50
90.0
 51
180.0
  0
ARC
  5
23C
100
AcDbEntity
  8
0
100
AcDbCircle
 62
7
  6
CONTINUOUS
 10
1262.9814092942
 20
1328.9123851464
 40
16.0
100
AcDbArc
 50
180.0
 51
270.0
  0
ARC
  5
23D
100
AcDbEntity
  8
0
100
AcDbCircle
 62
7
  6
CONTINUOUS
 10
1262.9814092942
 20
1328.9123851464
 40
16.0
100
AcDbArc
 50
270.0
 51
360.0
  0
ARC
  5
23E
100
AcDbEntity
  8
0
100
AcDbCircle
 62
7
  6
CONTINUOUS
 10
1262.9814092942
 20
1328.9123851464
 40
16.0
100
AcDbArc
 50
0.0
 51
90.0
  0
LINE
  5
23F
100
AcDbEntity
  8
0
100
AcDbLine
 62
7
  6
CONTINUOUS
 10
1262.9814092942
 20
1328.9123851464
 11
1278.9814092942
 21
1328.9123851464
  0
LINE
  5
240
100
AcDbEntity
  8
0
100
AcDbLine
 62
7
  6
CONTINUOUS
 10
1262.9814092942
 20
1328.9123851464
 11
1262.9814092942
 21
1312.9123851464
  0
LINE
  5
241
100
AcDbEntity
  8
0
100
AcDbLine
 62
7
  6
CONTINUOUS
 10
1246.9814092942
 20
1328.9123851464
 11
1262.9814092942
 21
1328.9123851464
  0
LINE
  5
242
100
AcDbEntity
  8
0
100
AcDbLine
 62
7
  6
CONTINUOUS
 10
1262.9814092942
 20
1344.9123851464
 11
1262.9814092942
 21
1328.9123851464
  0
LINE
  5
243
100
AcDbEntity
  8
0
100
AcDbLine
 62
2
  6
CONTINUOUS
 10
1262.9814092942
 20
1328.8069345966
 11
1263.086859844
 21
1328.9123851464
  0
LWPOLYLINE
  5
244
100
AcDbEntity
  8
0
100
AcDbPolyline
 62
7
  6
CONTINUOUS
 90
8
 70
0
 10
1262.9814092942
 20
1328.9123851464
 10
1262.9814092942
 20
1312.9123851464
 10
1267.9256812042
 20
1313.6954808857
 10
1272.3859733309
 20
1315.9681132364
 10
1275.9256812042
 20
1319.5078211097
 10
1278.1983135549
 20
1323.9681132364
 10
1278.9814092942
 20
1328.9123851464
 10
1262.9814092942
 20
1328.9123851464
  0
HATCH
  5
245
100
AcDbEntity
  8
0
100
AcDbHatch
 62
7
  6
CONTINUOUS
 10
0.0
 20
0.0
 30
0.0
210
0.0
220
0.0
230
1.0
  2
SOLID
 70
1
 71
1
 91
1
 92
1
 93
7
 72
1
 10
1262.9814092942
 20
1328.9123851464
 11
1262.9814092942
 21
1312.9123851464
 72
1
 10
1262.9814092942
 20
1312.9123851464
 11
1267.9256812042
 21
1313.6954808857
 72
1
 10
1267.9256812042
 20
1313.6954808857
 11
1272.3859733309
 21
1315.9681132364
 72
1
 10
1272.3859733309
 20
1315.9681132364
 11
1275.9256812042
 21
1319.5078211097
 72
1
 10
1275.9256812042
 20
1319.5078211097
 11
1278.1983135549
 21
1323.9681132364
 72
1
 10
1278.1983135549
 20
1323.9681132364
 11
1278.9814092942
 21
1328.9123851464
 72
1
 10
1278.9814092942
 20
1328.9123851464
 11
1262.9814092942
 21
1328.9123851464
 97
1
330
244
 75
0
 76
1
 98
1
 10
0.0
 20
0.0
  0
LWPOLYLINE
  5
246
100
AcDbEntity
  8
0
100
AcDbPolyline
 62
7
  6
CONTINUOUS
 90
8
 70
0
 10
1262.9814092942
 20
1328.9123851464
 10
1246.9814092942
 20
1328.9123851464
 10
1247.7645050335
 20
1333.8566570564
 10
1250.0371373842
 20
1338.3169491831
 10
1253.5768452575
 20
1341.8566570564
 10
1258.0371373842
 20
1344.1292894071
 10
1262.9814092942
 20
1344.9123851464
 10
1262.9814092942
 20
1328.9123851464
  0
HATCH
  5
247
100
AcDbEntity
  8
0
100
AcDbHatch
 62
7
  6
CONTINUOUS
 10
0.0
 20
0.0
 30
0.0
210
0.0
220
0.0
230
1.0
  2
SOLID
 70
1
 71
1
 91
1
 92
1
 93
7
 72
1
 10
1262.9814092942
 20
1328.9123851464
 11
1246.9814092942
 21
1328.9123851464
 72
1
 10
1246.9814092942
 20
1328.9123851464
 11
1247.7645050335
 21
1333.8566570564
 72
1
 10
1247.7645050335
 20
1333.8566570564
 11
1250.0371373842
 21
1338.3169491831
 72
1
 10
1250.0371373842
 20
1338.3169491831
 11
1253.5768452575
 21
1341.8566570564
 72
1
 10
1253.5768452575
 20
1341.8566570564
 11
1258.0371373842
 21
1344.1292894071
 72
1
 10
1258.0371373842
 20
1344.1292894071
 11
1262.9814092942
 21
1344.9123851464
 72
1
 10
1262.9814092942
 20
1344.9123851464
 11
1262.9814092942
 21
1328.9123851464
 97
1
330
246
 75
0
 76
1
 98
1
 10
0.0
 20
0.0
  0
ENDBLK
  5
248
100
AcDbEntity
  8
0
  6
BYBLOCK
 62
0
100
AcDbBlockEnd
  0
BLOCK
  5
249
100
AcDbEntity
  8
0
100
AcDbBlockBegin
 62
2
  6
CONTINUOUS
  2
CG_3D_BL0
 70
64
 10
269.7003348912
 20
1853.6929916876
  3
CG_3D_BL0
  1

  0
ARC
  5
24A
100
AcDbEntity
  8
0
100
AcDbCircle
 62
7
  6
CONTINUOUS
 10
269.7003348912
 20
1853.6929916876
 40
12.0
100
AcDbArc
 50
90.0
 51
180.0
  0
ARC
  5
24B
100
AcDbEntity
  8
0
100
AcDbCircle
 62
7
  6
CONTINUOUS
 10
269.7003348912
 20
1853.6929916876
 40
12.0
100
AcDbArc
 50
180.0
 51
270.0
  0
ARC
  5
24C
100
AcDbEntity
  8
0
100
AcDbCircle
 62
7
  6
CONTINUOUS
 10
269.7003348912
 20
1853.6929916876
 40
12.0
100
AcDbArc
 50
270.0
 51
360.0
  0
ARC
  5
24D
100
AcDbEntity
  8
0
100
AcDbCircle
 62
7
  6
CONTINUOUS
 10
269.7003348912
 20
1853.6929916876
 40
12.0
100
AcDbArc
 50
0.0
 51
90.0
  0
LINE
  5
24E
100
AcDbEntity
  8
0
100
AcDbLine
 62
7
  6
CONTINUOUS
 10
269.7003348912
 20
1853.6929916876
 11
281.7003348912
 21
1853.6929916876
  0
LINE
  5
24F
100
AcDbEntity
  8
0
100
AcDbLine
 62
7
  6
CONTINUOUS
 10
269.7003348912
 20
1853.6929916876
 11
269.7003348912
 21
1841.6929916876
  0
LINE
  5
250
100
AcDbEntity
  8
0
100
AcDbLine
 62
7
  6
CONTINUOUS
 10
257.7003348912
 20
1853.6929916876
 11
269.7003348912
 21
1853.6929916876
  0
LINE
  5
251
100
AcDbEntity
  8
0
100
AcDbLine
 62
7
  6
CONTINUOUS
 10
269.7003348912
 20
1865.6929916876
 11
269.7003348912
 21
1853.6929916876
  0
LINE
  5
252
100
AcDbEntity
  8
0
100
AcDbLine
 62
2
  6
CONTINUOUS
 10
269.7003348912
 20
1853.6139037752
 11
269.7794228036
 21
1853.6929916876
  0
LWPOLYLINE
  5
253
100
AcDbEntity
  8
0
100
AcDbPolyline
 62
7
  6
CONTINUOUS
 90
8
 70
0
 10
269.7003348912
 20
1853.6929916876
 10
269.7003348912
 20
1841.6929916876
 10
273.4085388237
 20
1842.2803134921
 10
276.7537579187
 20
1843.9847877551
 10
279.4085388237
 20
1846.6395686601
 10
281.1130130868
 20
1849.9847877551
 10
281.7003348912
 20
1853.6929916876
 10
269.7003348912
 20
1853.6929916876
  0
HATCH
  5
254
100
AcDbEntity
  8
0
100
AcDbHatch
 62
7
  6
CONTINUOUS
 10
0.0
 20
0.0
 30
0.0
210
0.0
220
0.0
230
1.0
  2
SOLID
 70
1
 71
1
 91
1
 92
1
 93
7
 72
1
 10
269.7003348912
 20
1853.6929916876
 11
269.7003348912
 21
1841.6929916876
 72
1
 10
269.7003348912
 20
1841.6929916876
 11
273.4085388237
 21
1842.2803134921
 72
1
 10
273.4085388237
 20
1842.2803134921
 11
276.7537579187
 21
1843.9847877551
 72
1
 10
276.7537579187
 20
1843.9847877551
 11
279.4085388237
 21
1846.6395686601
 72
1
 10
279.4085388237
 20
1846.6395686601
 11
281.1130130868
 21
1849.9847877551
 72
1
 10
281.1130130868
 20
1849.9847877551
 11
281.7003348912
 21
1853.6929916876
 72
1
 10
281.7003348912
 20
1853.6929916876
 11
269.7003348912
 21
1853.6929916876
 97
1
330
253
 75
0
 76
1
 98
1
 10
0.0
 20
0.0
  0
LWPOLYLINE
  5
255
100
AcDbEntity
  8
0
100
AcDbPolyline
 62
7
  6
CONTINUOUS
 90
8
 70
0
 10
269.7003348912
 20
1853.6929916876
 10
257.7003348912
 20
1853.6929916876
 10
258.2876566957
 20
1857.4011956201
 10
259.9921309587
 20
1860.7464147151
 10
262.6469118637
 20
1863.4011956201
 10
265.9921309587
 20
1865.1056698831
 10
269.7003348912
 20
1865.6929916876
 10
269.7003348912
 20
1853.6929916876
  0
HATCH
  5
256
100
AcDbEntity
  8
0
100
AcDbHatch
 62
7
  6
CONTINUOUS
 10
0.0
 20
0.0
 30
0.0
210
0.0
220
0.0
230
1.0
  2
SOLID
 70
1
 71
1
 91
1
 92
1
 93
7
 72
1
 10
269.7003348912
 20
1853.6929916876
 11
257.7003348912
 21
1853.6929916876
 72
1
 10
257.7003348912
 20
1853.6929916876
 11
258.2876566957
 21
1857.4011956201
 72
1
 10
258.2876566957
 20
1857.4011956201
 11
259.9921309587
 21
1860.7464147151
 72
1
 10
259.9921309587
 20
1860.7464147151
 11
262.6469118637
 21
1863.4011956201
 72
1
 10
262.6469118637
 20
1863.4011956201
 11
265.9921309587
 21
1865.1056698831
 72
1
 10
265.9921309587
 20
1865.1056698831
 11
269.7003348912
 21
1865.6929916876
 72
1
 10
269.7003348912
 20
1865.6929916876
 11
269.7003348912
 21
1853.6929916876
 97
1
330
255
 75
0
 76
1
 98
1
 10
0.0
 20
0.0
  0
ENDBLK
  5
257
100
AcDbEntity
  8
0
  6
BYBLOCK
 62
0
100
AcDbBlockEnd
  0
BLOCK
  5
258
100
AcDbEntity
  8
0
100
AcDbBlockBegin
  2
_FILLED
 70
64
 10
0.0
 20
0.0
  3
_FILLED
  1

  0
SOLID
  5
259
100
AcDbEntity
  8
0
  6
BYBLOCK
 62
0
100
AcDbTrace
 10
0.0
 20
0.0
 11
-1.0
 21
0.1275
 12
-1.0
 22
-0.1275
 13
-1.0
 23
-0.1275
  0
ENDBLK
  5
25A
100
AcDbEntity
  8
0
  6
BYBLOCK
 62
0
100
AcDbBlockEnd
  0
BLOCK
  5
25B
100
AcDbEntity
  8
0
100
AcDbBlockBegin
  2
XSEC_FILLED
 70
64
 10
0.0
 20
0.0
  3
XSEC_FILLED
  1

  0
SOLID
  5
25C
100
AcDbEntity
  8
0
  6
BYBLOCK
 62
0
100
AcDbTrace
 10
0.0
 20
0.0
 11
-1.0
 21
0.166
 12
-1.0
 22
-0.166
 13
-1.0
 23
-0.166
  0
ENDBLK
  5
25D
100
AcDbEntity
  8
0
  6
BYBLOCK
 62
0
100
AcDbBlockEnd
  0
BLOCK
  5
25E
100
AcDbEntity
  8
0
100
AcDbBlockBegin
 62
2
  6
CONTINUOUS
  2
*D0
 70
65
 10
0.0
 20
0.0
  3
*D0
  1

  0
MTEXT
  5
25F
100
AcDbEntity
  8
0
100
AcDbMText
 62
2
  6
CONTINUOUS
  7
STANDARD
 71
2
 72
1
 10
1250.5476896699
 20
726.6499266063
 30
0.0
 11
1.0
 21
0.0
 31
0.0
 73
2
 44
0.9
  1
583\P[23.0]
 40
18.288
 41
67.4412490706
  0
LINE
  5
260
100
AcDbEntity
  8
0
100
AcDbLine
 62
2
  6
CONTINUOUS
 10
971.5569536104
 20
642.2111122031
 11
971.5569536104
 21
742.9059266063
  0
LINE
  5
261
100
AcDbEntity
  8
0
100
AcDbLine
 62
2
  6
CONTINUOUS
 10
1554.5569536104
 20
642.2111122031
 11
1554.5569536104
 21
742.9059266063
  0
LINE
  5
262
100
AcDbEntity
  8
0
100
AcDbLine
 62
2
  6
CONTINUOUS
 10
971.5569536104
 20
717.5059266063
 11
1220.1923290751
 21
717.5059266063
  0
LINE
  5
263
100
AcDbEntity
  8
0
100
AcDbLine
 62
2
  6
CONTINUOUS
 10
1554.5569536104
 20
717.5059266063
 11
1305.9215781457
 21
717.5059266063
  0
INSERT
  5
264
100
AcDbEntity
  8
0
100
AcDbBlockReference
 62
2
  6
CONTINUOUS
  2
_FILLED
 10
971.5569536104
 20
717.5059266063
 41
16.0
 42
16.0
 43
16.0
 50
180.0
  0
INSERT
  5
265
100
AcDbEntity
  8
0
100
AcDbBlockReference
 62
2
  6
CONTINUOUS
  2
_FILLED
 10
1554.5569536104
 20
717.5059266063
 41
16.0
 42
16.0
 43
16.0
  0
ENDBLK
  5
266
100
AcDbEntity
  8
0
  6
BYBLOCK
 62
0
100
AcDbBlockEnd
  0
BLOCK
  5
267
100
AcDbEntity
  8
0
100
AcDbBlockBegin
 62
2
  6
CONTINUOUS
  2
*D1
 70
65
 10
0.0
 20
0.0
  3
*D1
  1

  0
MTEXT
  5
268
100
AcDbEntity
  8
0
100
AcDbMText
 62
2
  6
CONTINUOUS
  7
STANDARD
 71
1
 72
1
 10
639.2755161213
 20
1706.8318406885
 30
0.0
 11
1.0
 21
0.0
 31
0.0
 73
2
 44
0.9
  1
45,4\P[1.79]
 40
18.288
 41
67.4412490706
  0
LINE
  5
269
100
AcDbEntity
  8
0
100
AcDbLine
 62
2
  6
CONTINUOUS
 10
600.748042362
 20
1632.9547817715
 11
600.748042362
 21
1723.0878406885
  0
LINE
  5
26A
100
AcDbEntity
  8
0
100
AcDbLine
 62
2
  6
CONTINUOUS
 10
555.338042362
 20
1341.7947817715
 11
555.338042362
 21
1723.0878406885
  0
LINE
  5
26B
100
AcDbEntity
  8
0
100
AcDbLine
 62
2
  6
CONTINUOUS
 10
600.748042362
 20
1697.6878406885
 11
578.043042362
 21
1697.6878406885
  0
LINE
  5
26C
100
AcDbEntity
  8
0
100
AcDbLine
 62
2
  6
CONTINUOUS
 10
578.043042362
 20
1697.6878406885
 11
630.1315161213
 21
1697.6878406885
  0
LINE
  5
26D
100
AcDbEntity
  8
0
100
AcDbLine
 62
2
  6
CONTINUOUS
 10
555.338042362
 20
1697.6878406885
 11
578.043042362
 21
1697.6878406885
  0
INSERT
  5
26E
100
AcDbEntity
  8
0
100
AcDbBlockReference
 62
2
  6
CONTINUOUS
  2
_FILLED
 10
600.748042362
 20
1697.6878406885
 41
16.0
 42
16.0
 43
16.0
  0
INSERT
  5
26F
100
AcDbEntity
  8
0
100
AcDbBlockReference
 62
2
  6
CONTINUOUS
  2
_FILLED
 10
555.338042362
 20
1697.6878406885
 41
16.0
 42
16.0
 43
16.0
 50
180.0
  0
ENDBLK
  5
270
100
AcDbEntity
  8
0
  6
BYBLOCK
 62
0
100
AcDbBlockEnd
  0
BLOCK
  5
271
100
AcDbEntity
  8
0
100
AcDbBlockBegin
 62
2
  6
CONTINUOUS
  2
*D2
 70
65
 10
0.0
 20
0.0
  3
*D2
  1

  0
MTEXT
  5
272
100
AcDbEntity
  8
0
100
AcDbMText
 62
2
  6
CONTINUOUS
  7
STANDARD
 71
2
 72
1
 10
1634.916928744
 20
1486.3187817715
 30
0.0
 11
1.0
 21
0.0
 31
0.0
 73
2
 44
0.9
  1
296,2\P[11.66]
 40
18.288
 41
81.5821561338
  0
LINE
  5
273
100
AcDbEntity
  8
0
100
AcDbLine
 62
2
  6
CONTINUOUS
 10
1567.2569536104
 20
1625.2547817715
 11
1669.2909659187
 21
1625.2547817715
  0
LINE
  5
274
100
AcDbEntity
  8
0
100
AcDbLine
 62
2
  6
CONTINUOUS
 10
1575.0997201825
 20
1329.0947817715
 11
1669.2909659187
 21
1329.0947817715
  0
LINE
  5
275
100
AcDbEntity
  8
0
100
AcDbLine
 62
2
  6
CONTINUOUS
 10
1643.8909659187
 20
1625.2547817715
 11
1643.8909659187
 21
1495.4627817715
  0
LINE
  5
276
100
AcDbEntity
  8
0
100
AcDbLine
 62
2
  6
CONTINUOUS
 10
1643.8909659187
 20
1329.0947817715
 11
1643.8909659187
 21
1426.4918804687
  0
INSERT
  5
277
100
AcDbEntity
  8
0
100
AcDbBlockReference
 62
2
  6
CONTINUOUS
  2
_FILLED
 10
1643.8909659187
 20
1625.2547817715
 41
16.0
 42
16.0
 43
16.0
 50
90.0
  0
INSERT
  5
278
100
AcDbEntity
  8
0
100
AcDbBlockReference
 62
2
  6
CONTINUOUS
  2
_FILLED
 10
1643.8909659187
 20
1329.0947817715
 41
16.0
 42
16.0
 43
16.0
 50
270.0
  0
ENDBLK
  5
279
100
AcDbEntity
  8
0
  6
BYBLOCK
 62
0
100
AcDbBlockEnd
  0
BLOCK
  5
27A
100
AcDbEntity
  8
0
100
AcDbBlockBegin
 62
2
  6
CONTINUOUS
  2
*D3
 70
65
 10
0.0
 20
0.0
  3
*D3
  1

  0
MTEXT
  5
27B
100
AcDbEntity
  8
0
100
AcDbMText
 62
2
  6
CONTINUOUS
  7
STANDARD
 71
2
 72
1
 10
862.0194849826
 20
1334.3987817715
 30
0.0
 11
1.0
 21
0.0
 31
0.0
 73
2
 44
0.9
  1
600\P[23.6]
 40
18.288
 41
67.4412490706
  0
LINE
  5
27C
100
AcDbEntity
  8
0
100
AcDbLine
 62
2
  6
CONTINUOUS
 10
958.8569536104
 20
1625.2547817715
 11
849.1287489231
 21
1625.2547817715
  0
LINE
  5
27D
100
AcDbEntity
  8
0
100
AcDbLine
 62
2
  6
CONTINUOUS
 10
958.8569536104
 20
1025.2547817715
 11
849.1287489231
 21
1025.2547817715
  0
LINE
  5
27E
100
AcDbEntity
  8
0
100
AcDbLine
 62
2
  6
CONTINUOUS
 10
874.5287489231
 20
1625.2547817715
 11
874.5287489231
 21
1343.5427817715
  0
LINE
  5
27F
100
AcDbEntity
  8
0
100
AcDbLine
 62
2
  6
CONTINUOUS
 10
874.5287489231
 20
1025.2547817715
 11
874.5287489231
 21
1274.5718635742
  0
INSERT
  5
280
100
AcDbEntity
  8
0
100
AcDbBlockReference
 62
2
  6
CONTINUOUS
  2
_FILLED
 10
874.5287489231
 20
1625.2547817715
 41
16.0
 42
16.0
 43
16.0
 50
90.0
  0
INSERT
  5
281
100
AcDbEntity
  8
0
100
AcDbBlockReference
 62
2
  6
CONTINUOUS
  2
_FILLED
 10
874.5287489231
 20
1025.2547817715
 41
16.0
 42
16.0
 43
16.0
 50
270.0
  0
ENDBLK
  5
282
100
AcDbEntity
  8
0
  6
BYBLOCK
 62
0
100
AcDbBlockEnd
  0
BLOCK
  5
283
100
AcDbEntity
  8
0
100
AcDbBlockBegin
 62
2
  6
CONTINUOUS
  2
*D4
 70
65
 10
0.0
 20
0.0
  3
*D4
  1

  0
MTEXT
  5
284
100
AcDbEntity
  8
0
100
AcDbMText
 62
2
  6
CONTINUOUS
  7
STANDARD
 71
1
 72
1
 10
632.660386292
 20
970.5136741371
 30
0.0
 11
1.0
 21
0.0
 31
0.0
 73
2
 44
0.9
  1
47\P[1.9]
 40
18.288
 41
53.3003420074
  0
LINE
  5
285
100
AcDbEntity
  8
0
100
AcDbLine
 62
2
  6
CONTINUOUS
 10
600.748042362
 20
1017.5547817715
 11
600.748042362
 21
935.9696741371
  0
LINE
  5
286
100
AcDbEntity
  8
0
100
AcDbLine
 62
2
  6
CONTINUOUS
 10
553.748042362
 20
1060.5348778681
 11
553.748042362
 21
935.9696741371
  0
LINE
  5
287
100
AcDbEntity
  8
0
100
AcDbLine
 62
2
  6
CONTINUOUS
 10
600.748042362
 20
961.3696741371
 11
577.248042362
 21
961.3696741371
  0
LINE
  5
288
100
AcDbEntity
  8
0
100
AcDbLine
 62
2
  6
CONTINUOUS
 10
577.248042362
 20
961.3696741371
 11
623.516386292
 21
961.3696741371
  0
LINE
  5
289
100
AcDbEntity
  8
0
100
AcDbLine
 62
2
  6
CONTINUOUS
 10
553.748042362
 20
961.3696741371
 11
577.248042362
 21
961.3696741371
  0
INSERT
  5
28A
100
AcDbEntity
  8
0
100
AcDbBlockReference
 62
2
  6
CONTINUOUS
  2
_FILLED
 10
600.748042362
 20
961.3696741371
 41
16.0
 42
16.0
 43
16.0
  0
INSERT
  5
28B
100
AcDbEntity
  8
0
100
AcDbBlockReference
 62
2
  6
CONTINUOUS
  2
_FILLED
 10
553.748042362
 20
961.3696741371
 41
16.0
 42
16.0
 43
16.0
 50
180.0
  0
ENDBLK
  5
28C
100
AcDbEntity
  8
0
  6
BYBLOCK
 62
0
100
AcDbBlockEnd
  0
BLOCK
  5
28D
100
AcDbEntity
  8
0
100
AcDbBlockBegin
 62
2
  6
CONTINUOUS
  2
*D5
 70
65
 10
0.0
 20
0.0
  3
*D5
  1

  0
MTEXT
  5
28E
100
AcDbEntity
  8
0
100
AcDbMText
 62
2
  6
CONTINUOUS
  7
STANDARD
 71
2
 72
1
 10
670.4566357925
 20
1081.2462259248
 30
0.0
 11
1.0
 21
0.0
 31
0.0
 73
2
 44
0.9
  1
60\P[2.4]
 40
18.288
 41
53.3003420074
  0
LINE
  5
28F
100
AcDbEntity
  8
0
100
AcDbLine
 62
2
  6
CONTINUOUS
 10
608.448042362
 20
1025.2547817715
 11
708.365899733
 21
1025.2547817715
  0
LINE
  5
290
100
AcDbEntity
  8
0
100
AcDbLine
 62
2
  6
CONTINUOUS
 10
578.4679462654
 20
1085.2547817715
 11
708.365899733
 21
1085.2547817715
  0
LINE
  5
291
100
AcDbEntity
  8
0
100
AcDbLine
 62
2
  6
CONTINUOUS
 10
682.965899733
 20
1025.2547817715
 11
682.965899733
 21
993.2547817715
  0
LINE
  5
292
100
AcDbEntity
  8
0
100
AcDbLine
 62
2
  6
CONTINUOUS
 10
682.965899733
 20
1085.2547817715
 11
682.965899733
 21
1117.2547817715
  0
INSERT
  5
293
100
AcDbEntity
  8
0
100
AcDbBlockReference
 62
2
  6
CONTINUOUS
  2
_FILLED
 10
682.965899733
 20
1025.2547817715
 41
16.0
 42
16.0
 43
16.0
 50
90.0
  0
INSERT
  5
294
100
AcDbEntity
  8
0
100
AcDbBlockReference
 62
2
  6
CONTINUOUS
  2
_FILLED
 10
682.965899733
 20
1085.2547817715
 41
16.0
 42
16.0
 43
16.0
 50
270.0
  0
ENDBLK
  5
295
100
AcDbEntity
  8
0
  6
BYBLOCK
 62
0
100
AcDbBlockEnd
  0
BLOCK
  5
296
100
AcDbEntity
  8
0
100
AcDbBlockBegin
 62
2
  6
CONTINUOUS
  2
*D6
 70
65
 10
0.0
 20
0.0
  3
*D6
  1

  0
MTEXT
  5
297
100
AcDbEntity
  8
0
100
AcDbMText
 62
2
  6
CONTINUOUS
  7
STANDARD
 71
2
 72
1
 10
446.0013323321
 20
1214.3880282974
 30
0.0
 11
1.0
 21
0.0
 31
0.0
 73
2
 44
0.9
  1
40{\ftxt;\W0.0001;\H0.0001;\~}{\ftxt;\W1.3680297398;\H18.288; }TYP\P[1.6]
 40
18.288
 41
94.3633605948
  0
LINE
  5
298
100
AcDbEntity
  8
0
100
AcDbLine
 62
2
  6
CONTINUOUS
 10
529.1597817578
 20
1125.2547817715
 11
420.6013323321
 21
1125.2547817715
  0
LINE
  5
299
100
AcDbEntity
  8
0
100
AcDbLine
 62
2
  6
CONTINUOUS
 10
529.0281384586
 20
1085.2547817715
 11
420.6013323321
 21
1085.2547817715
  0
LINE
  5
29A
100
AcDbEntity
  8
0
100
AcDbLine
 62
2
  6
CONTINUOUS
 10
446.0013323321
 20
1125.2547817715
 11
446.0013323321
 21
1154.5610865723
  0
LINE
  5
29B
100
AcDbEntity
  8
0
100
AcDbLine
 62
2
  6
CONTINUOUS
 10
446.0013323321
 20
1085.2547817715
 11
446.0013323321
 21
1053.2547817715
  0
INSERT
  5
29C
100
AcDbEntity
  8
0
100
AcDbBlockReference
 62
2
  6
CONTINUOUS
  2
_FILLED
 10
446.0013323321
 20
1125.2547817715
 41
16.0
 42
16.0
 43
16.0
 50
270.0
  0
INSERT
  5
29D
100
AcDbEntity
  8
0
100
AcDbBlockReference
 62
2
  6
CONTINUOUS
  2
_FILLED
 10
446.0013323321
 20
1085.2547817715
 41
16.0
 42
16.0
 43
16.0
 50
90.0
  0
ENDBLK
  5
29E
100
AcDbEntity
  8
0
  6
BYBLOCK
 62
0
100
AcDbBlockEnd
  0
BLOCK
  5
29F
100
AcDbEntity
  8
0
100
AcDbBlockBegin
 62
2
  6
CONTINUOUS
  2
*D7
 70
65
 10
0.0
 20
0.0
  3
*D7
  1

  0
MTEXT
  5
2A0
100
AcDbEntity
  8
0
100
AcDbMText
 62
2
  6
CONTINUOUS
  7
TEXTSTYLE_3
 71
1
 72
1
 10
672.5672357696
 20
1183.9794777755
 30
0.0
 11
1.0
 21
0.0
 31
0.0
 73
2
 44
0.9
  1
{\fgdt;n}\fCentury Gothic;{\W0.8;20}{\W0.8;{\ftxt;\W0.0001;\H0.0001;\~}{\ftxt;\W0.594795539;\H18.288; }TYP}\P{\W0.8;[}{\W0.8;.8}{\W0.8;]}
 40
18.288
 41
104.6064535316
  0
LINE
  5
2A1
100
AcDbEntity
  8
0
100
AcDbLine
 62
2
  6
CONTINUOUS
 10
561.8290582592
 20
1131.1452131708
 11
621.7672357696
 21
1174.8354777755
  0
LINE
  5
2A2
100
AcDbEntity
  8
0
100
AcDbLine
 62
2
  6
CONTINUOUS
 10
621.7672357696
 20
1174.8354777755
 11
663.4232357696
 21
1174.8354777755
  0
INSERT
  5
2A3
100
AcDbEntity
  8
0
100
AcDbBlockReference
 62
2
  6
CONTINUOUS
  2
_FILLED
 10
561.8290582592
 20
1131.1452131708
 41
16.0
 42
16.0
 43
16.0
 50
216.0891358726
  0
ENDBLK
  5
2A4
100
AcDbEntity
  8
0
  6
BYBLOCK
 62
0
100
AcDbBlockEnd
  0
BLOCK
  5
2A5
100
AcDbEntity
  8
0
100
AcDbBlockBegin
 62
2
  6
CONTINUOUS
  2
*D8
 70
65
 10
0.0
 20
0.0
  3
*D8
  1

  0
MTEXT
  5
2A6
100
AcDbEntity
  8
0
100
AcDbMText
 62
2
  6
CONTINUOUS
  7
STANDARD
 71
1
 72
1
 10
2001.5738396994
 20
983.7810179464
 30
0.0
 11
1.0
 21
0.0
 31
0.0
 73
2
 44
0.9
  1
30\P[1.2]
 40
18.288
 41
53.3003420074
  0
LINE
  5
2A7
100
AcDbEntity
  8
0
100
AcDbLine
 62
2
  6
CONTINUOUS
 10
1918.2700577664
 20
1017.5547817715
 11
1918.2700577664
 21
949.2370179464
  0
LINE
  5
2A8
100
AcDbEntity
  8
0
100
AcDbLine
 62
2
  6
CONTINUOUS
 10
1948.2700577664
 20
1060.6308786678
 11
1948.2700577664
 21
949.2370179464
  0
LINE
  5
2A9
100
AcDbEntity
  8
0
100
AcDbLine
 62
2
  6
CONTINUOUS
 10
1918.2700577664
 20
974.6370179464
 11
1886.2700577664
 21
974.6370179464
  0
LINE
  5
2AA
100
AcDbEntity
  8
0
100
AcDbLine
 62
2
  6
CONTINUOUS
 10
1948.2700577664
 20
974.6370179464
 11
1992.4298396994
 21
974.6370179464
  0
INSERT
  5
2AB
100
AcDbEntity
  8
0
100
AcDbBlockReference
 62
2
  6
CONTINUOUS
  2
_FILLED
 10
1918.2700577664
 20
974.6370179464
 41
16.0
 42
16.0
 43
16.0
  0
INSERT
  5
2AC
100
AcDbEntity
  8
0
100
AcDbBlockReference
 62
2
  6
CONTINUOUS
  2
_FILLED
 10
1948.2700577664
 20
974.6370179464
 41
16.0
 42
16.0
 43
16.0
 50
180.0
  0
ENDBLK
  5
2AD
100
AcDbEntity
  8
0
  6
BYBLOCK
 62
0
100
AcDbBlockEnd
  0
BLOCK
  5
2AE
100
AcDbEntity
  8
0
100
AcDbBlockBegin
 62
2
  6
CONTINUOUS
  2
*D9
 70
65
 10
0.0
 20
0.0
  3
*D9
  1

  0
MTEXT
  5
2AF
100
AcDbEntity
  8
0
100
AcDbMText
 62
2
  6
CONTINUOUS
  7
STANDARD
 71
2
 72
1
 10
1813.5298611704
 20
994.6897968389
 30
0.0
 11
1.0
 21
0.0
 31
0.0
 73
2
 44
0.9
  1
60\P[2.4]
 40
18.288
 41
53.3003420074
  0
LINE
  5
2B0
100
AcDbEntity
  8
0
100
AcDbLine
 62
2
  6
CONTINUOUS
 10
1910.5700577664
 20
1025.2547817715
 11
1800.6391251109
 21
1025.2547817715
  0
LINE
  5
2B1
100
AcDbEntity
  8
0
100
AcDbLine
 62
2
  6
CONTINUOUS
 10
1923.6461546626
 20
1085.2547817715
 11
1800.6391251109
 21
1085.2547817715
  0
LINE
  5
2B2
100
AcDbEntity
  8
0
100
AcDbLine
 62
2
  6
CONTINUOUS
 10
1826.0391251109
 20
1025.2547817715
 11
1826.0391251109
 21
1055.2547817715
  0
LINE
  5
2B3
100
AcDbEntity
  8
0
100
AcDbLine
 62
2
  6
CONTINUOUS
 10
1826.0391251109
 20
1055.2547817715
 11
1826.0391251109
 21
1003.8337968389
  0
LINE
  5
2B4
100
AcDbEntity
  8
0
100
AcDbLine
 62
2
  6
CONTINUOUS
 10
1826.0391251109
 20
1085.2547817715
 11
1826.0391251109
 21
1055.2547817715
  0
INSERT
  5
2B5
100
AcDbEntity
  8
0
100
AcDbBlockReference
 62
2
  6
CONTINUOUS
  2
_FILLED
 10
1826.0391251109
 20
1025.2547817715
 41
16.0
 42
16.0
 43
16.0
 50
270.0
  0
INSERT
  5
2B6
100
AcDbEntity
  8
0
100
AcDbBlockReference
 62
2
  6
CONTINUOUS
  2
_FILLED
 10
1826.0391251109
 20
1085.2547817715
 41
16.0
 42
16.0
 43
16.0
 50
90.0
  0
ENDBLK
  5
2B7
100
AcDbEntity
  8
0
  6
BYBLOCK
 62
0
100
AcDbBlockEnd
  0
BLOCK
  5
2B8
100
AcDbEntity
  8
0
100
AcDbBlockBegin
 62
2
  6
CONTINUOUS
  2
*D10
 70
65
 10
0.0
 20
0.0
  3
*D10
  1

  0
MTEXT
  5
2B9
100
AcDbEntity
  8
0
100
AcDbMText
 62
2
  6
CONTINUOUS
  7
STANDARD
 71
2
 72
1
 10
1826.0391251109
 20
1215.6854255097
 30
0.0
 11
1.0
 21
0.0
 31
0.0
 73
2
 44
0.9
  1
40{\ftxt;\W0.0001;\H0.0001;\~}{\ftxt;\W1.3680297398;\H18.288; }TYP\P[1.6]
 40
18.288
 41
94.3633605948
  0
LINE
  5
2BA
100
AcDbEntity
  8
0
100
AcDbLine
 62
2
  6
CONTINUOUS
 10
1923.6461546626
 20
1085.2547817715
 11
1800.6391251109
 21
1085.2547817715
  0
LINE
  5
2BB
100
AcDbEntity
  8
0
100
AcDbLine
 62
2
  6
CONTINUOUS
 10
1923.751469302
 20
1125.2547817715
 11
1800.6391251109
 21
1125.2547817715
  0
LINE
  5
2BC
100
AcDbEntity
  8
0
100
AcDbLine
 62
2
  6
CONTINUOUS
 10
1826.0391251109
 20
1085.2547817715
 11
1826.0391251109
 21
1053.2547817715
  0
LINE
  5
2BD
100
AcDbEntity
  8
0
100
AcDbLine
 62
2
  6
CONTINUOUS
 10
1826.0391251109
 20
1125.2547817715
 11
1826.0391251109
 21
1155.8584895508
  0
INSERT
  5
2BE
100
AcDbEntity
  8
0
100
AcDbBlockReference
 62
2
  6
CONTINUOUS
  2
_FILLED
 10
1826.0391251109
 20
1085.2547817715
 41
16.0
 42
16.0
 43
16.0
 50
90.0
  0
INSERT
  5
2BF
100
AcDbEntity
  8
0
100
AcDbBlockReference
 62
2
  6
CONTINUOUS
  2
_FILLED
 10
1826.0391251109
 20
1125.2547817715
 41
16.0
 42
16.0
 43
16.0
 50
270.0
  0
ENDBLK
  5
2C0
100
AcDbEntity
  8
0
  6
BYBLOCK
 62
0
100
AcDbBlockEnd
  0
BLOCK
  5
2C1
100
AcDbEntity
  8
0
100
AcDbBlockBegin
 62
2
  6
CONTINUOUS
  2
*D11
 70
65
 10
0.0
 20
0.0
  3
*D11
  1

  0
MTEXT
  5
2C2
100
AcDbEntity
  8
0
100
AcDbMText
 62
2
  6
CONTINUOUS
  7
TEXTSTYLE_3
 71
1
 72
1
 10
2083.4196332368
 20
1147.6662391251
 30
0.0
 11
1.0
 21
0.0
 31
0.0
 73
2
 44
0.9
  1
{\fgdt;n}\fCentury Gothic;{\W0.8;20}{\W0.8;{\ftxt;\W0.0001;\H0.0001;\~}{\ftxt;\W0.594795539;\H18.288; }TYP}\P{\W0.8;[}{\W0.8;.8}{\W0.8;]}
 40
18.288
 41
104.6064535316
  0
LINE
  5
2C3
100
AcDbEntity
  8
0
100
AcDbLine
 62
2
  6
CONTINUOUS
 10
1956.7252164581
 20
1090.5942846975
 11
2032.6196332368
 21
1138.5222391251
  0
LINE
  5
2C4
100
AcDbEntity
  8
0
100
AcDbLine
 62
2
  6
CONTINUOUS
 10
2032.6196332368
 20
1138.5222391251
 11
2074.2756332368
 21
1138.5222391251
  0
INSERT
  5
2C5
100
AcDbEntity
  8
0
100
AcDbBlockReference
 62
2
  6
CONTINUOUS
  2
_FILLED
 10
1956.7252164581
 20
1090.5942846975
 41
16.0
 42
16.0
 43
16.0
 50
212.2727508156
  0
ENDBLK
  5
2C6
100
AcDbEntity
  8
0
  6
BYBLOCK
 62
0
100
AcDbBlockEnd
  0
BLOCK
  5
2C7
100
AcDbEntity
  8
0
100
AcDbBlockBegin
 62
2
  6
CONTINUOUS
  2
*D12
 70
65
 10
0.0
 20
0.0
  3
*D12
  1

  0
MTEXT
  5
2C8
100
AcDbEntity
  8
0
100
AcDbMText
 62
2
  6
CONTINUOUS
  7
STANDARD
 71
3
 72
1
 10
1859.0675615649
 20
1702.3968174986
 30
0.0
 11
1.0
 21
0.0
 31
0.0
 73
2
 44
0.9
  1
86,5\P[3.41]
 40
18.288
 41
67.4412490706
  0
LINE
  5
2C9
100
AcDbEntity
  8
0
100
AcDbLine
 62
2
  6
CONTINUOUS
 10
2004.7700577664
 20
1637.9547817715
 11
2004.7700577664
 21
1718.6528174986
  0
LINE
  5
2CA
100
AcDbEntity
  8
0
100
AcDbLine
 62
2
  6
CONTINUOUS
 10
1918.2700577664
 20
1632.9547817715
 11
1918.2700577664
 21
1718.6528174986
  0
LINE
  5
2CB
100
AcDbEntity
  8
0
100
AcDbLine
 62
2
  6
CONTINUOUS
 10
2004.7700577664
 20
1693.2528174986
 11
1961.5200577664
 21
1693.2528174986
  0
LINE
  5
2CC
100
AcDbEntity
  8
0
100
AcDbLine
 62
2
  6
CONTINUOUS
 10
1918.2700577664
 20
1693.2528174986
 11
1961.5200577664
 21
1693.2528174986
  0
LINE
  5
2CD
100
AcDbEntity
  8
0
100
AcDbLine
 62
2
  6
CONTINUOUS
 10
1961.5200577664
 20
1693.2528174986
 11
1886.1596359143
 21
1693.2528174986
  0
INSERT
  5
2CE
100
AcDbEntity
  8
0
100
AcDbBlockReference
 62
2
  6
CONTINUOUS
  2
_FILLED
 10
2004.7700577664
 20
1693.2528174986
 41
16.0
 42
16.0
 43
16.0
  0
INSERT
  5
2CF
100
AcDbEntity
  8
0
100
AcDbBlockReference
 62
2
  6
CONTINUOUS
  2
_FILLED
 10
1918.2700577664
 20
1693.2528174986
 41
16.0
 42
16.0
 43
16.0
 50
180.0
  0
ENDBLK
  5
2D0
100
AcDbEntity
  8
0
  6
BYBLOCK
 62
0
100
AcDbBlockEnd
  0
BLOCK
  5
2D1
100
AcDbEntity
  8
0
100
AcDbBlockBegin
 62
2
  6
CONTINUOUS
  2
*D13
 70
65
 10
0.0
 20
0.0
  3
*D13
  1

  0
MTEXT
  5
2D2
100
AcDbEntity
  8
0
100
AcDbMText
 62
2
  6
CONTINUOUS
  7
STANDARD
 71
1
 72
1
 10
2058.3827240562
 20
1749.8778734954
 30
0.0
 11
1.0
 21
0.0
 31
0.0
 73
2
 44
0.9
  1
108\P[4.3]
 40
18.288
 41
53.3003420074
  0
LINE
  5
2D3
100
AcDbEntity
  8
0
100
AcDbLine
 62
2
  6
CONTINUOUS
 10
2026.2700577664
 20
1632.9547817715
 11
2026.2700577664
 21
1766.1338734954
  0
LINE
  5
2D4
100
AcDbEntity
  8
0
100
AcDbLine
 62
2
  6
CONTINUOUS
 10
1918.2700577664
 20
1632.9547817715
 11
1918.2700577664
 21
1766.1338734954
  0
LINE
  5
2D5
100
AcDbEntity
  8
0
100
AcDbLine
 62
2
  6
CONTINUOUS
 10
2026.2700577664
 20
1740.7338734954
 11
1972.2700577664
 21
1740.7338734954
  0
LINE
  5
2D6
100
AcDbEntity
  8
0
100
AcDbLine
 62
2
  6
CONTINUOUS
 10
1972.2700577664
 20
1740.7338734954
 11
2049.2387240562
 21
1740.7338734954
  0
LINE
  5
2D7
100
AcDbEntity
  8
0
100
AcDbLine
 62
2
  6
CONTINUOUS
 10
1918.2700577664
 20
1740.7338734954
 11
1972.2700577664
 21
1740.7338734954
  0
INSERT
  5
2D8
100
AcDbEntity
  8
0
100
AcDbBlockReference
 62
2
  6
CONTINUOUS
  2
_FILLED
 10
2026.2700577664
 20
1740.7338734954
 41
16.0
 42
16.0
 43
16.0
  0
INSERT
  5
2D9
100
AcDbEntity
  8
0
100
AcDbBlockReference
 62
2
  6
CONTINUOUS
  2
_FILLED
 10
1918.2700577664
 20
1740.7338734954
 41
16.0
 42
16.0
 43
16.0
 50
180.0
  0
ENDBLK
  5
2DA
100
AcDbEntity
  8
0
  6
BYBLOCK
 62
0
100
AcDbBlockEnd
  0
ENDSEC
  0
SECTION
  2
ENTITIES
  0
MTEXT
  5
2DB
100
AcDbEntity
  8
0
100
AcDbMText
 62
2
  6
CONTINUOUS
  7
TEXTSTYLE_2
 71
1
 72
1
 10
46.1422896613
 20
347.0362191475
 30
0.0
 11
1.0
 21
0.0
 31
0.0
 73
2
 44
1.0
  1
A
 40
19.05
 41
19.6165427509
  0
MTEXT
  5
2DC
100
AcDbEntity
  8
0
100
AcDbMText
 62
2
  6
CONTINUOUS
  7
TEXTSTYLE_2
 71
1
 72
1
 10
46.0670300861
 20
870.0133720483
 30
0.0
 11
1.0
 21
0.0
 31
0.0
 73
2
 44
1.0
  1
B
 40
19.05
 41
15.2258364312
  0
MTEXT
  5
2DD
100
AcDbEntity
  8
0
100
AcDbMText
 62
2
  6
CONTINUOUS
  7
TEXTSTYLE_2
 71
1
 72
1
 10
46.0706758837
 20
1393.0868403219
 30
0.0
 11
1.0
 21
0.0
 31
0.0
 73
2
 44
1.0
  1
C
 40
19.05
 41
21.5994423792
  0
MTEXT
  5
2DE
100
AcDbEntity
  8
0
100
AcDbMText
 62
2
  6
CONTINUOUS
  7
TEXTSTYLE_2
 71
1
 72
1
 10
46.0314209061
 20
1916.3612198155
 30
0.0
 11
1.0
 21
0.0
 31
0.0
 73
2
 44
1.0
  1
D
 40
19.05
 41
19.7581784387
  0
MTEXT
  5
2DF
100
AcDbEntity
  8
0
100
AcDbMText
 62
2
  6
CONTINUOUS
  7
TEXTSTYLE_2
 71
1
 72
1
 10
2917.6661184528
 20
94.5332098548
 30
0.0
 11
1.0
 21
0.0
 31
0.0
 73
2
 44
1.0000002
  1
SCALE:  
 40
10.583336
 41
57.2444382156
  0
MTEXT
  5
2E0
100
AcDbEntity
  8
0
100
AcDbMText
 62
2
  6
CONTINUOUS
  7
TEXTSTYLE_2
 71
1
 72
1
 10
2918.5418202065
 20
148.5514984576
 30
0.0
 11
1.0
 21
0.0
 31
0.0
 73
2
 44
1.0000002
  1
SIZE
 40
10.583336
 41
25.6911464981
  0
MTEXT
  5
2E1
100
AcDbEntity
  8
0
100
AcDbMText
 62
2
  6
CONTINUOUS
  7
TEXTSTYLE_2
 71
1
 72
1
 10
3012.1482135343
 20
93.7754319029
 30
0.0
 11
1.0
 21
0.0
 31
0.0
 73
2
 44
1.0000002
  1
CAD FILE:                   
 40
10.656
 41
146.014929368
  0
MTEXT
  5
2E2
100
AcDbEntity
  8
0
100
AcDbMText
 62
2
  6
CONTINUOUS
  7
TEXTSTYLE_2
 71
1
 72
1
 10
3051.7465721336
 20
148.1821387249
 30
0.0
 11
1.0
 21
0.0
 31
0.0
 73
2
 44
1.0000002
  1
DWG. NO.
 40
10.583336
 41
74.004665487
  0
MTEXT
  5
2E3
100
AcDbEntity
  8
0
100
AcDbMText
 62
2
  6
CONTINUOUS
  7
TEXTSTYLE_2
 71
1
 72
1
 10
2924.9415006765
 20
125.2290941671
 30
0.0
 11
1.0
 21
0.0
 31
0.0
 73
2
 44
1.0000002
  1
B
 40
14.816664
 41
11.8423150929
  0
MTEXT
  5
2E4
100
AcDbEntity
  8
0
100
AcDbMText
 62
2
  6
CONTINUOUS
  7
TEXTSTYLE_2
 71
1
 72
1
 10
3248.9190273295
 20
94.1676672306
 30
0.0
 11
1.0
 21
0.0
 31
0.0
 73
2
 44
1.0000002
  1
SHEET:
 40
10.583336
 41
43.6316714647
  0
MTEXT
  5
2E5
100
AcDbEntity
  8
0
100
AcDbMText
 62
2
  6
CONTINUOUS
  7
TEXTSTYLE_2
 71
1
 72
1
 10
2642.7447744993
 20
283.6153047843
 30
0.0
 11
1.0
 21
0.0
 31
0.0
 73
2
 44
1.0000002
  1
DRAWN BY
 40
10.583336
 41
77.1914692639
  0
MTEXT
  5
2E6
100
AcDbEntity
  8
0
100
AcDbMText
 62
2
  6
CONTINUOUS
  7
TEXTSTYLE_2
 71
1
 72
1
 10
2643.8183216357
 20
229.9382881359
 30
0.0
 11
1.0
 21
0.0
 31
0.0
 73
2
 44
1.0000002
  1
MECH ENGINEER
 40
10.583336
 41
118.3445155688
  0
MTEXT
  5
2E7
100
AcDbEntity
  8
0
100
AcDbMText
 62
2
  6
CONTINUOUS
  7
TEXTSTYLE_2
 71
1
 72
1
 10
2643.8183216357
 20
176.2224187999
 30
0.0
 11
1.0
 21
0.0
 31
0.0
 73
2
 44
1.0000002
  1
TECH DIRECTOR
 40
10.583336
 41
111.6561619628
  0
MTEXT
  5
2E8
100
AcDbEntity
  8
0
100
AcDbMText
 62
2
  6
CONTINUOUS
  7
TEXTSTYLE_2
 71
1
 72
1
 10
2643.8183216357
 20
121.6428096559
 30
0.0
 11
1.0
 21
0.0
 31
0.0
 73
2
 44
1.0000002
  1
MFG ENGINEER
 40
10.583336
 41
108.3906716729
  0
MTEXT
  5
2E9
100
AcDbEntity
  8
0
100
AcDbMText
 62
2
  6
CONTINUOUS
  7
TEXTSTYLE_2
 71
1
 72
1
 10
2398.8013379275
 20
298.7141390561
 30
0.0
 11
1.0
 21
0.0
 31
0.0
 73
2
 44
1.0000002
  1
DECIMALS                    ANGLES
 40
10.583336
 41
211.430660461
  0
MTEXT
  5
2EA
100
AcDbEntity
  8
0
100
AcDbMText
 62
2
  6
CONTINUOUS
  7
TEXTSTYLE_2
 71
1
 72
1
 10
2371.910236377
 20
216.6302462747
 30
0.0
 11
1.0
 21
0.0
 31
0.0
 73
2
 44
1.0000002
  1
MATERIAL
 40
10.583336
 41
68.6933258587
  0
MTEXT
  5
2EB
100
AcDbEntity
  8
0
100
AcDbMText
 62
2
  6
CONTINUOUS
  7
TEXTSTYLE_2
 71
1
 72
1
 10
2372.636241709
 20
179.6004322594
 30
0.0
 11
1.0
 21
0.0
 31
0.0
 73
2
 44
1.0000002
  1
FINISH
 40
10.583336
 41
42.175970974
  0
MTEXT
  5
2EC
100
AcDbEntity
  8
0
100
AcDbMText
 62
2
  6
CONTINUOUS
  7
TEXTSTYLE_2
 71
1
 72
1
 10
2386.4644317727
 20
137.5122319372
 30
0.0
 11
1.0
 21
0.0
 31
0.0
 73
2
 44
1.0000002
  1
DO  NOT  SCALE  DRAWING
 40
12.7
 41
234.5486988848
  0
MTEXT
  5
2ED
100
AcDbEntity
  8
0
100
AcDbMText
 62
2
  6
CONTINUOUS
  7
TEXTSTYLE_2
 71
1
 72
1
 10
3169.7190420717
 20
70.1680284291
 30
0.0
 11
1.0
 21
0.0
 31
0.0
 73
2
 44
1.0
  1
1
 40
19.05
 41
14.7301115242
  0
MTEXT
  5
2EE
100
AcDbEntity
  8
0
100
AcDbMText
 62
2
  6
CONTINUOUS
  7
TEXTSTYLE_2
 71
1
 72
1
 10
2755.6064902453
 20
70.8297358291
 30
0.0
 11
1.0
 21
0.0
 31
0.0
 73
2
 44
1.0
  1
2
 40
19.05
 41
14.7301115242
  0
MTEXT
  5
2EF
100
AcDbEntity
  8
0
100
AcDbMText
 62
2
  6
CONTINUOUS
  7
TEXTSTYLE_2
 71
1
 72
1
 10
2341.2200296333
 20
70.4078522331
 30
0.0
 11
1.0
 21
0.0
 31
0.0
 73
2
 44
1.0
  1
3
 40
19.05
 41
14.7301115242
  0
MTEXT
  5
2F0
100
AcDbEntity
  8
0
100
AcDbMText
 62
2
  6
CONTINUOUS
  7
TEXTSTYLE_2
 71
1
 72
1
 10
1927.4976001157
 20
70.6547791563
 30
0.0
 11
1.0
 21
0.0
 31
0.0
 73
2
 44
1.0
  1
4
 40
19.05
 41
14.7301115242
  0
MTEXT
  5
2F1
100
AcDbEntity
  8
0
100
AcDbMText
 62
2
  6
CONTINUOUS
  7
TEXTSTYLE_2
 71
1
 72
1
 10
1513.8168043877
 20
70.4446454899
 30
0.0
 11
1.0
 21
0.0
 31
0.0
 73
2
 44
1.0
  1
5
 40
19.05
 41
14.7301115242
  0
MTEXT
  5
2F2
100
AcDbEntity
  8
0
100
AcDbMText
 62
2
  6
CONTINUOUS
  7
TEXTSTYLE_2
 71
1
 72
1
 10
1099.7468574213
 20
71.0099714915
 30
0.0
 11
1.0
 21
0.0
 31
0.0
 73
2
 44
1.0
  1
6
 40
19.05
 41
14.7301115242
  0
MTEXT
  5
2F3
100
AcDbEntity
  8
0
100
AcDbMText
 62
2
  6
CONTINUOUS
  7
TEXTSTYLE_2
 71
1
 72
1
 10
685.5881223709
 20
70.6842592307
 30
0.0
 11
1.0
 21
0.0
 31
0.0
 73
2
 44
1.0
  1
7
 40
19.05
 41
14.7301115242
  0
MTEXT
  5
2F4
100
AcDbEntity
  8
0
100
AcDbMText
 62
2
  6
CONTINUOUS
  7
TEXTSTYLE_2
 71
1
 72
1
 10
271.2574717245
 20
70.3951255195
 30
0.0
 11
1.0
 21
0.0
 31
0.0
 73
2
 44
1.0
  1
8
 40
19.05
 41
14.7301115242
  0
MTEXT
  5
2F5
100
AcDbEntity
  8
0
100
AcDbMText
 62
2
  6
CONTINUOUS
  7
TEXTSTYLE_2
 71
1
 72
1
 10
277.0098145764
 20
2188.9479803641
 30
0.0
 11
1.0
 21
0.0
 31
0.0
 73
2
 44
1.0000002
  1
8
 40
19.05
 41
14.7301115242
  0
MTEXT
  5
2F6
100
AcDbEntity
  8
0
100
AcDbMText
 62
2
  6
CONTINUOUS
  7
TEXTSTYLE_2
 71
1
 72
1
 10
2371.3004445988
 20
99.2676007193
 30
0.0
 11
1.0
 21
0.0
 31
0.0
 73
2
 44
1.0000002
  1
PROJECTION SYMBOL
 40
12.56
 41
181.3028996283
  0
MTEXT
  5
2F7
100
AcDbEntity
  8
0
100
AcDbMText
 62
2
  6
CONTINUOUS
  7
TEXTSTYLE_2
 71
1
 72
1
 10
2729.2444615678
 20
305.9381132319
 30
0.0
 11
1.0
 21
0.0
 31
0.0
 73
2
 44
1.0000002
  1
APPROVALS
 40
10.583336
 41
85.5715828996
  0
MTEXT
  5
2F8
100
AcDbEntity
  8
0
100
AcDbMText
 62
2
  6
CONTINUOUS
  7
TEXTSTYLE_2
 71
1
 72
1
 10
686.2524549445
 20
2189.1268215635
 30
0.0
 11
1.0
 21
0.0
 31
0.0
 73
2
 44
1.0000002
  1
7
 40
19.05
 41
14.7301115242
  0
MTEXT
  5
2F9
100
AcDbEntity
  8
0
100
AcDbMText
 62
2
  6
CONTINUOUS
  7
TEXTSTYLE_2
 71
1
 72
1
 10
1513.8586447757
 20
2188.3274984227
 30
0.0
 11
1.0
 21
0.0
 31
0.0
 73
2
 44
1.0
  1
5
 40
19.05
 41
14.7301115242
  0
MTEXT
  5
2FA
100
AcDbEntity
  8
0
100
AcDbMText
 62
2
  6
CONTINUOUS
  7
TEXTSTYLE_2
 71
1
 72
1
 10
1927.8104302645
 20
2188.3955656579
 30
0.0
 11
1.0
 21
0.0
 31
0.0
 73
2
 44
1.0
  1
4
 40
19.05
 41
14.7301115242
  0
MTEXT
  5
2FB
100
AcDbEntity
  8
0
100
AcDbMText
 62
2
  6
CONTINUOUS
  7
TEXTSTYLE_2
 71
1
 72
1
 10
2341.5971560645
 20
2188.3463969659
 30
0.0
 11
1.0
 21
0.0
 31
0.0
 73
2
 44
1.0
  1
3
 40
19.05
 41
14.7301115242
  0
MTEXT
  5
2FC
100
AcDbEntity
  8
0
100
AcDbMText
 62
2
  6
CONTINUOUS
  7
TEXTSTYLE_2
 71
1
 72
1
 10
2755.7323609741
 20
2188.7685032475
 30
0.0
 11
1.0
 21
0.0
 31
0.0
 73
2
 44
1.0
  1
2
 40
19.05
 41
14.7301115242
  0
MTEXT
  5
2FD
100
AcDbEntity
  8
0
100
AcDbMText
 62
2
  6
CONTINUOUS
  7
TEXTSTYLE_2
 71
1
 72
1
 10
3170.4849130933
 20
2188.9341988755
 30
0.0
 11
1.0
 21
0.0
 31
0.0
 73
2
 44
1.0
  1
1
 40
19.05
 41
14.7301115242
  0
MTEXT
  5
2FE
100
AcDbEntity
  8
0
100
AcDbMText
 62
2
  6
CONTINUOUS
  7
TEXTSTYLE_2
 71
1
 72
1
 10
3390.7153003757
 20
1915.7983048283
 30
0.0
 11
1.0
 21
0.0
 31
0.0
 73
2
 44
1.0
  1
D
 40
19.05
 41
19.7581784387
  0
MTEXT
  5
2FF
100
AcDbEntity
  8
0
100
AcDbMText
 62
2
  6
CONTINUOUS
  7
TEXTSTYLE_2
 71
1
 72
1
 10
3388.6074243117
 20
1392.9626197867
 30
0.0
 11
1.0
 21
0.0
 31
0.0
 73
2
 44
1.0
  1
C
 40
19.05
 41
21.5994423792
  0
MTEXT
  5
300
100
AcDbEntity
  8
0
100
AcDbMText
 62
2
  6
CONTINUOUS
  7
TEXTSTYLE_2
 71
1
 72
1
 10
3394.4220460037
 20
869.2428970811
 30
0.0
 11
1.0
 21
0.0
 31
0.0
 73
2
 44
1.0
  1
B
 40
19.05
 41
15.2258364312
  0
MTEXT
  5
301
100
AcDbEntity
  8
0
100
AcDbMText
 62
2
  6
CONTINUOUS
  7
TEXTSTYLE_2
 71
1
 72
1
 10
3390.2390657349
 20
346.3237354235
 30
0.0
 11
1.0
 21
0.0
 31
0.0
 73
2
 44
1.0
  1
A
 40
19.05
 41
19.6165427509
  0
MTEXT
  5
302
100
AcDbEntity
  8
0
100
AcDbMText
 62
2
  6
CONTINUOUS
  7
TEXTSTYLE_2
 71
1
 72
1
 10
2373.237673354
 20
371.9905015836
 30
0.0
 11
1.0
 21
0.0
 31
0.0
 73
2
 44
1.2
  1
UNLESS  OTHERWISE  SPECIFIED\PDIMENSIONS ARE IN MM [IN]\PTOLERANCES ARE:
 40
12.7
 41
256.7382899628
  0
MTEXT
  5
303
100
AcDbEntity
  8
0
100
AcDbMText
 62
2
  6
CONTINUOUS
  7
TEXTSTYLE_2
 71
1
 72
1
 10
2649.495260769
 20
365.9794258478
 30
0.0
 11
1.0
 21
0.0
 31
0.0
 73
2
 44
1.0000002
  1
CAD GENERATED DRAWING\PDO NOT MANUALLY UPDATE
 40
12.7
 41
238.656133829
  0
MTEXT
  5
304
100
AcDbEntity
  8
0
100
AcDbMText
 62
2
  6
CONTINUOUS
  7
TEXTSTYLE_2
 71
1
 72
1
 10
3329.0121535107
 20
148.5433329174
 30
0.0
 11
1.0
 21
0.0
 31
0.0
 73
2
 44
1.0000002
  1
REV
 40
10.583336
 41
27.2255335019
  0
MTEXT
  5
305
100
AcDbEntity
  8
0
100
AcDbMText
 62
2
  6
CONTINUOUS
  7
TEXTSTYLE_2
 71
1
 72
1
 10
1099.7706913637
 20
2188.6241504779
 30
0.0
 11
1.0
 21
0.0
 31
0.0
 73
2
 44
1.0
  1
6
 40
19.05
 41
14.7301115242
  0
MTEXT
  5
306
100
AcDbEntity
  8
0
100
AcDbMText
 62
2
  6
CONTINUOUS
  7
TEXTSTYLE_2
 71
1
 72
1
 10
2952.1653628928
 20
147.6604394467
 30
0.0
 11
1.0
 21
0.0
 31
0.0
 73
2
 44
1.0000002
  1
CAGE CODE
 40
10.583336
 41
91.4730713755
  0
MTEXT
  5
307
100
AcDbEntity
  8
0
100
AcDbMText
 62
2
  6
CONTINUOUS
  7
TEXTSTYLE_2
 71
1
 72
1
 10
2965.5815006765
 20
125.2290941671
 30
0.0
 11
1.0
 21
0.0
 31
0.0
 73
2
 44
1.0000002
  1
00PW4
 40
14.816664
 41
66.4271255911
  0
MTEXT
  5
308
100
AcDbEntity
  8
0
100
AcDbMText
 62
2
  6
CONTINUOUS
  7
TEXTSTYLE_2
 71
1
 72
1
 10
3126.7453204661
 20
343.3134970692
 30
0.0
 11
1.0
 21
0.0
 31
0.0
 73
2
 44
1.0000002
  1
1675 MACARTHUR BOULEVARD\PCOSTA MESA, CA 92626 USA
 40
12.192
 41
252.4514498141
  0
MTEXT
  5
309
100
AcDbEntity
  8
0
100
AcDbMText
 62
2
  6
CONTINUOUS
  7
TEXTSTYLE_2
 71
1
 72
1
 10
3128.4654375948
 20
372.0562665651
 30
0.0
 11
1.0
 21
0.0
 31
0.0
 73
2
 44
1.0000002
  1
QSC, LLC
 40
20.32
 41
126.7544981413
  0
MTEXT
  5
30A
100
AcDbEntity
  8
0
100
AcDbMText
 62
2
  6
CONTINUOUS
  7
TEXTSTYLE_2
 71
3
 72
1
 10
3381.3175679885
 20
59.3181024067
 30
0.0
 11
1.0
 21
0.0
 31
0.0
 73
2
 44
1.0000002
  1
Form: QMS100206 Rev C
 40
8.0
 41
130.8847583643
  0
MTEXT
  5
30B
100
AcDbEntity
  8
0
100
AcDbMText
 62
2
  6
CONTINUOUS
  7
TEXTSTYLE_2
 71
1
 72
1
 10
76.8541822189
 20
2159.9261770569
 30
0.0
 11
1.0
 21
0.0
 31
0.0
 73
2
 44
1.0000002
  3
THIS DOCUMENT CONTAINS CONFIDENTIAL OR PROPRIETARY INFORMATION \PWHICH IS THE PROPERTY OF QSC, LLC, THAT MAY NOT BE DISCLOSED, \PREPRODUCED OR USED WITHOUT EXPRESS WRITTEN CONSENT FROM QSC, \PLLC. NO PORTION OF THIS DOCUMENT MAY BE REPRODUCED,\PREDIS
  1
TRUBUTED, OR OTHERWISE DISCLOSED TO ANY THIRD PARTY WITHOUT \PQSC'S WRITTEN PERMISSION.
 40
10.583336
 41
534.9502587063
  0
HATCH
  5
30C
100
AcDbEntity
  8
0
100
AcDbHatch
 62
2
  6
CONTINUOUS
 10
0.0
 20
0.0
 30
0.0
210
0.0
220
0.0
230
1.0
  2
A
 70
0
 71
0
 91
2
 92
1
 93
12
 72
1
 10
584.748042362
 20
1589.2547817715
 11
595.748042362
 21
1589.2547817715
 72
1
 10
584.748042362
 20
1622.2547817715
 11
584.748042362
 21
1589.2547817715
 72
1
 10
497.748042362
 20
1622.2547817715
 11
584.748042362
 21
1622.2547817715
 72
2
 10
497.748042362
 20
1620.2547817715
 40
2.0
 50
90.0
 51
180.0
 73
1
 72
1
 10
495.748042362
 20
1592.2547817715
 11
495.748042362
 21
1620.2547817715
 72
1
 10
492.748042362
 20
1592.2547817715
 11
495.748042362
 21
1592.2547817715
 72
1
 10
492.748042362
 20
1620.2547817715
 11
492.748042362
 21
1592.2547817715
 72
2
 10
497.748042362
 20
1620.2547817715
 40
5.0
 50
90.0
 51
180.0
 73
1
 72
1
 10
595.748042362
 20
1625.2547817715
 11
497.748042362
 21
1625.2547817715
 72
2
 10
595.748042362
 20
1620.2547817715
 40
5.0
 50
0.0
 51
90.0
 73
1
 72
1
 10
600.748042362
 20
1594.2547817715
 11
600.748042362
 21
1620.2547817715
 72
2
 10
595.748042362
 20
1594.2547817715
 40
5.0
 50
-90.0
 51
0.0
 73
1
 97
0
 92
1
 93
12
 72
1
 10
600.748042362
 20
1030.2547817715
 11
600.748042362
 21
1056.2547817715
 72
2
 10
595.748042362
 20
1030.2547817715
 40
5.0
 50
-90.0
 51
0.0
 73
1
 72
1
 10
520.748042362
 20
1025.2547817715
 11
595.748042362
 21
1025.2547817715
 72
2
 10
520.748042362
 20
1030.2547817715
 40
5.0
 50
180.0
 51
270.0
 73
1
 72
1
 10
515.748042362
 20
1078.2547817715
 11
515.748042362
 21
1030.2547817715
 72
1
 10
518.748042362
 20
1078.2547817715
 11
515.748042362
 21
1078.2547817715
 72
1
 10
518.748042362
 20
1030.2547817715
 11
518.748042362
 21
1078.2547817715
 72
2
 10
520.748042362
 20
1030.2547817715
 40
2.0
 50
180.0
 51
270.0
 73
1
 72
1
 10
584.748042362
 20
1028.2547817715
 11
520.748042362
 21
1028.2547817715
 72
1
 10
584.748042362
 20
1061.2547817715
 11
584.748042362
 21
1028.2547817715
 72
1
 10
595.748042362
 20
1061.2547817715
 11
584.748042362
 21
1061.2547817715
 72
2
 10
595.748042362
 20
1056.2547817715
 40
5.0
 50
0.0
 51
90.0
 73
1
 97
0
 75
0
 76
0
 52
45.0
 41
36.9430769882
 77
0
 78
1
 53
45.0
 43
0.0
 44
0.0
 45
-26.1227002563
 46
26.1227002563
 79
0
 98
1
 10
0.0
 20
0.0
  0
MTEXT
  5
30D
100
AcDbEntity
  8
0
100
AcDbMText
 62
7
  6
CONTINUOUS
  7
STANDARD
 71
1
 72
1
 10
1342.6005630273
 20
1718.7517596977
 30
0.0
 11
1.0
 21
0.0
 31
0.0
 73
2
 44
0.9
  1
A
 40
32.0
 41
32.9516728625
  0
LEADER
  5
30E
100
AcDbEntity
  8
0
100
AcDbLeader
 62
7
  6
CONTINUOUS
  3
STANDARD
 71
1
 72
0
 73
3
 75
0
 76
2
 10
1309.19769666
 20
1682.839877983
 30
0.0
 10
1221.5569536104
 20
1682.839877983
 30
0.0
1001
ACAD
1000
DSTYLE
1002
{
1070
77
1070
0
1070
341
1005
215
1070
41
1040
50.8
1002
}
  0
MTEXT
  5
30F
100
AcDbEntity
  8
0
100
AcDbMText
 62
7
  6
CONTINUOUS
  7
STANDARD
 71
1
 72
1
 10
1312.9187853811
 20
937.7439063566
 30
0.0
 11
1.0
 21
0.0
 31
0.0
 73
2
 44
0.9
  1
A
 40
32.0
 41
32.9516728625
  0
LEADER
  5
310
100
AcDbEntity
  8
0
100
AcDbLeader
 62
7
  6
CONTINUOUS
  3
STANDARD
 71
1
 72
0
 73
3
 75
0
 76
2
 10
1306.7329117751
 20
921.7439063566
 30
0.0
 10
1221.5569536104
 20
921.7439063566
 30
0.0
1001
ACAD
1000
DSTYLE
1002
{
1070
77
1070
0
1070
341
1005
215
1070
41
1040
50.8
1002
}
  0
DIMENSION
  5
311
100
AcDbEntity
  8
0
100
AcDbDimension
 62
2
  6
CONTINUOUS
  2
*D0
 10
1554.5569536104
 20
717.5059266063
 11
1263.0569536104
 21
703.7899266063
 70
160
 71
2
 72
2
 41
0.9
 42
583.0
  1
<>\P[]
  3
DIMSTYLE_1
100
AcDbAlignedDimension
 13
971.5569536104
 23
640.6236122031
 14
1554.5569536104
 24
640.6236122031
100
AcDbRotatedDimension
  0
DIMENSION
  5
312
100
AcDbEntity
  8
0
100
AcDbDimension
 62
2
  6
CONTINUOUS
  2
*D1
 10
555.338042362
 20
1697.6878406885
 11
672.9961406566
 21
1683.9718406885
 70
160
 71
1
 72
2
 41
0.9
 42
45.41
  1
<>\P[]
  3
DIMSTYLE_2
100
AcDbAlignedDimension
 13
600.748042362
 23
1631.3672817715
 14
555.338042362
 24
1340.2072817715
 50
180.0
100
AcDbRotatedDimension
  0
DIMENSION
  5
313
100
AcDbEntity
  8
0
100
AcDbDimension
 62
2
  6
CONTINUOUS
  2
*D2
 10
1643.8909659187
 20
1329.0947817715
 11
1643.8909659187
 21
1463.4587817715
 70
160
 71
2
 72
2
 41
0.9
 42
296.16
  1
<>\P[]
  3
DIMSTYLE_2
100
AcDbAlignedDimension
 13
1565.6694536104
 23
1625.2547817715
 14
1573.5122201825
 24
1329.0947817715
 50
270.0
100
AcDbRotatedDimension
  0
DIMENSION
  5
314
100
AcDbEntity
  8
0
100
AcDbDimension
 62
2
  6
CONTINUOUS
  2
*D3
 10
874.5287489231
 20
1025.2547817715
 11
874.5287489231
 21
1311.5387817715
 70
160
 71
2
 72
2
 41
0.9
 42
600.0
  1
<>\P[]
  3
DIMSTYLE_1
100
AcDbAlignedDimension
 13
960.4444536104
 23
1625.2547817715
 14
960.4444536104
 24
1025.2547817715
 50
270.0
100
AcDbRotatedDimension
  0
DIMENSION
  5
315
100
AcDbEntity
  8
0
100
AcDbDimension
 62
2
  6
CONTINUOUS
  2
*D4
 10
553.748042362
 20
961.3696741371
 11
659.3105572957
 21
947.6536741371
 70
160
 71
1
 72
2
 41
0.9
 42
47.0
  1
<>\P[]
  3
DIMSTYLE_1
100
AcDbAlignedDimension
 13
600.748042362
 23
1019.1422817715
 14
553.748042362
 24
1062.1223778681
 50
180.0
100
AcDbRotatedDimension
  0
DIMENSION
  5
316
100
AcDbEntity
  8
0
100
AcDbDimension
 62
2
  6
CONTINUOUS
  2
*D5
 10
682.965899733
 20
1085.2547817715
 11
682.965899733
 21
1058.3862259248
 70
160
 71
2
 72
2
 41
0.9
 42
60.0
  1
<>\P[]
  3
DIMSTYLE_1
100
AcDbAlignedDimension
 13
606.860542362
 23
1025.2547817715
 14
576.8804462654
 24
1085.2547817715
 50
90.0
100
AcDbRotatedDimension
  0
DIMENSION
  5
317
100
AcDbEntity
  8
0
100
AcDbDimension
 62
2
  6
CONTINUOUS
  2
*D6
 10
446.0013323321
 20
1085.2547817715
 11
446.0013323321
 21
1191.5280282974
 70
160
 71
2
 72
2
 41
0.9
 42
40.0
  1
<>TYP\P[]
  3
DIMSTYLE_1
100
AcDbAlignedDimension
 13
530.7472817578
 23
1125.2547817715
 14
530.6156384586
 24
1085.2547817715
 50
270.0
100
AcDbRotatedDimension
  0
DIMENSION
  5
318
100
AcDbEntity
  8
0
100
AcDbDimension
 62
2
  6
CONTINUOUS
  2
*D7
 10
561.8290582592
 20
1131.1452131708
 11
724.8704625354
 21
1161.1194777755
 70
163
 71
1
 72
2
 41
0.9
 42
20.0
  1
%%c<>TYP\P[]
  3
DIMSTYLE_3
100
AcDbDiametricDimension
 15
545.6670264648
 25
1119.3643503722
  0
DIMENSION
  5
319
100
AcDbEntity
  8
0
100
AcDbDimension
 62
2
  6
CONTINUOUS
  2
*D8
 10
1948.2700577664
 20
974.6370179464
 11
2028.2240107031
 21
960.9210179464
 70
160
 71
1
 72
2
 41
0.9
 42
30.0
  1
<>\P[]
  3
DIMSTYLE_1
100
AcDbAlignedDimension
 13
1918.2700577664
 23
1019.1422817715
 14
1948.2700577664
 24
1062.2183786678
100
AcDbRotatedDimension
  0
DIMENSION
  5
31A
100
AcDbEntity
  8
0
100
AcDbDimension
 62
2
  6
CONTINUOUS
  2
*D9
 10
1826.0391251109
 20
1085.2547817715
 11
1826.0391251109
 21
971.8297968389
 70
160
 71
2
 72
2
 41
0.9
 42
60.0
  1
<>\P[]
  3
DIMSTYLE_1
100
AcDbAlignedDimension
 13
1912.1575577664
 23
1025.2547817715
 14
1925.2336546626
 24
1085.2547817715
 50
90.0
100
AcDbRotatedDimension
  0
DIMENSION
  5
31B
100
AcDbEntity
  8
0
100
AcDbDimension
 62
2
  6
CONTINUOUS
  2
*D10
 10
1826.0391251109
 20
1125.2547817715
 11
1826.0391251109
 21
1192.8254255097
 70
160
 71
2
 72
2
 41
0.9
 42
40.0
  1
<>TYP\P[]
  3
DIMSTYLE_1
100
AcDbAlignedDimension
 13
1925.2336546626
 23
1085.2547817715
 14
1925.338969302
 24
1125.2547817715
 50
90.0
100
AcDbRotatedDimension
  0
DIMENSION
  5
31C
100
AcDbEntity
  8
0
100
AcDbDimension
 62
2
  6
CONTINUOUS
  2
*D11
 10
1956.7252164581
 20
1090.5942846975
 11
2135.7228600026
 21
1124.8062391251
 70
163
 71
1
 72
2
 41
0.9
 42
20.0
  1
%%c<>TYP\P[]
  3
DIMSTYLE_3
100
AcDbDiametricDimension
 15
1939.8148990746
 25
1079.9152788455
  0
DIMENSION
  5
31D
100
AcDbEntity
  8
0
100
AcDbDimension
 62
2
  6
CONTINUOUS
  2
*D12
 10
1918.2700577664
 20
1693.2528174986
 11
1843.295011379
 21
1679.5368174986
 70
160
 71
3
 72
2
 41
0.9
 42
86.5
  1
<>\P[]
  3
DIMSTYLE_2
100
AcDbAlignedDimension
 13
2004.7700577664
 23
1636.3672817715
 14
1918.2700577664
 24
1631.3672817715
 50
180.0
100
AcDbRotatedDimension
  0
DIMENSION
  5
31E
100
AcDbEntity
  8
0
100
AcDbDimension
 62
2
  6
CONTINUOUS
  2
*D13
 10
1918.2700577664
 20
1740.7338734954
 11
2085.0328950599
 21
1727.0178734954
 70
160
 71
1
 72
2
 41
0.9
 42
108.0
  1
<>\P[]
  3
DIMSTYLE_1
100
AcDbAlignedDimension
 13
2026.2700577664
 23
1631.3672817715
 14
1918.2700577664
 24
1631.3672817715
 50
180.0
100
AcDbRotatedDimension
  0
LINE
  5
31F
100
AcDbEntity
  8
0
100
AcDbLine
 62
2
  6
CONTINUOUS
 10
2912.9646030407
 20
304.121305865
 11
3384.1646030407
 21
304.121305865
  0
LINE
  5
320
100
AcDbEntity
  8
0
100
AcDbLine
 62
2
  6
CONTINUOUS
 10
2912.9646030407
 20
304.121305865
 11
2912.9646030407
 21
151.246305865
  0
LINE
  5
321
100
AcDbEntity
  8
0
100
AcDbLine
 62
2
  6
CONTINUOUS
 10
2912.9646030407
 20
151.246305865
 11
3384.1646030407
 21
151.246305865
  0
LINE
  5
322
100
AcDbEntity
  8
0
100
AcDbLine
 62
2
  6
CONTINUOUS
 10
3384.1646030407
 20
304.121305865
 11
3384.1646030407
 21
151.246305865
  0
MTEXT
  5
323
100
AcDbEntity
  8
0
100
AcDbMText
 62
2
  6
CONTINUOUS
  7
TEXTSTYLE_2
 71
2
 72
1
 10
3148.5646030407
 20
259.433805865
 30
0.0
 11
1.0
 21
0.0
 31
0.0
 73
2
 44
0.9
  1
ACCESSORY,\PLA112-AF,2D
 40
25.4
 41
221.1405204461
  0
LINE
  5
324
100
AcDbEntity
  8
0
100
AcDbLine
 62
2
  6
CONTINUOUS
 10
3300.1284106175
 20
151.180170661
 11
3383.8284106175
 21
151.180170661
  0
LINE
  5
325
100
AcDbEntity
  8
0
100
AcDbLine
 62
2
  6
CONTINUOUS
 10
3300.1284106175
 20
151.180170661
 11
3300.1284106175
 21
101.180170661
  0
LINE
  5
326
100
AcDbEntity
  8
0
100
AcDbLine
 62
2
  6
CONTINUOUS
 10
3300.1284106175
 20
101.180170661
 11
3383.8284106175
 21
101.180170661
  0
LINE
  5
327
100
AcDbEntity
  8
0
100
AcDbLine
 62
2
  6
CONTINUOUS
 10
3383.8284106175
 20
151.180170661
 11
3383.8284106175
 21
101.180170661
  0
MTEXT
  5
328
100
AcDbEntity
  8
0
100
AcDbMText
 62
2
  6
CONTINUOUS
  7
TEXTSTYLE_2
 71
2
 72
1
 10
3341.9784106175
 20
131.805170661
 30
0.0
 11
1.0
 21
0.0
 31
0.0
 73
2
 44
0.9
  1
A
 40
25.4
 41
26.1553903346
  0
LINE
  5
329
100
AcDbEntity
  8
0
100
AcDbLine
 62
2
  6
CONTINUOUS
 10
3046.8245911202
 20
151.0243736665
 11
3298.8245911202
 21
151.0243736665
  0
LINE
  5
32A
100
AcDbEntity
  8
0
100
AcDbLine
 62
2
  6
CONTINUOUS
 10
3046.8245911202
 20
151.0243736665
 11
3046.8245911202
 21
101.1493736665
  0
LINE
  5
32B
100
AcDbEntity
  8
0
100
AcDbLine
 62
2
  6
CONTINUOUS
 10
3046.8245911202
 20
101.1493736665
 11
3298.8245911202
 21
101.1493736665
  0
LINE
  5
32C
100
AcDbEntity
  8
0
100
AcDbLine
 62
2
  6
CONTINUOUS
 10
3298.8245911202
 20
151.0243736665
 11
3298.8245911202
 21
101.1493736665
  0
MTEXT
  5
32D
100
AcDbEntity
  8
0
100
AcDbMText
 62
2
  6
CONTINUOUS
  7
TEXTSTYLE_2
 71
2
 72
1
 10
3172.8245911202
 20
133.7743736665
 30
0.0
 11
1.0
 21
0.0
 31
0.0
 73
2
 44
0.9
  1
FG-901339-2D
 40
25.4
 41
235.492936803
  0
LINE
  5
32E
100
AcDbEntity
  8
0
100
AcDbLine
 62
2
  6
CONTINUOUS
 10
2367.7533040004
 20
221.131370612
 11
2635.7533040004
 21
221.131370612
  0
LINE
  5
32F
100
AcDbEntity
  8
0
100
AcDbLine
 62
2
  6
CONTINUOUS
 10
2367.7533040004
 20
221.131370612
 11
2367.7533040004
 21
184.318870612
  0
LINE
  5
330
100
AcDbEntity
  8
0
100
AcDbLine
 62
2
  6
CONTINUOUS
 10
2367.7533040004
 20
184.318870612
 11
2635.7533040004
 21
184.318870612
  0
LINE
  5
331
100
AcDbEntity
  8
0
100
AcDbLine
 62
2
  6
CONTINUOUS
 10
2635.7533040004
 20
221.131370612
 11
2635.7533040004
 21
184.318870612
  0
MTEXT
  5
332
100
AcDbEntity
  8
0
100
AcDbMText
 62
2
  6
CONTINUOUS
  7
TEXTSTYLE_2
 71
2
 72
1
 10
2528.5533040004
 20
211.869120612
 30
0.0
 11
1.0
 21
0.0
 31
0.0
 73
2
 44
0.9
  1
SEE NOTES
 40
18.288
 41
125.3645799257
  0
LINE
  5
333
100
AcDbEntity
  8
0
100
AcDbLine
 62
2
  6
CONTINUOUS
 10
2367.9207607637
 20
183.8936992446
 11
2635.9207607637
 21
183.8936992446
  0
LINE
  5
334
100
AcDbEntity
  8
0
100
AcDbLine
 62
2
  6
CONTINUOUS
 10
2367.9207607637
 20
183.8936992446
 11
2367.9207607637
 21
147.0811992446
  0
LINE
  5
335
100
AcDbEntity
  8
0
100
AcDbLine
 62
2
  6
CONTINUOUS
 10
2367.9207607637
 20
147.0811992446
 11
2635.9207607637
 21
147.0811992446
  0
LINE
  5
336
100
AcDbEntity
  8
0
100
AcDbLine
 62
2
  6
CONTINUOUS
 10
2635.9207607637
 20
183.8936992446
 11
2635.9207607637
 21
147.0811992446
  0
MTEXT
  5
337
100
AcDbEntity
  8
0
100
AcDbMText
 62
2
  6
CONTINUOUS
  7
TEXTSTYLE_2
 71
2
 72
1
 10
2528.7207607637
 20
174.6314492446
 30
0.0
 11
1.0
 21
0.0
 31
0.0
 73
2
 44
0.9
  1
SEE NOTES
 40
18.288
 41
125.3645799257
  0
LINE
  5
338
100
AcDbEntity
  8
0
100
AcDbLine
 62
2
  6
CONTINUOUS
 10
2636.1660422868
 20
288.5880285951
 11
2912.1660422868
 21
288.5880285951
  0
LINE
  5
339
100
AcDbEntity
  8
0
100
AcDbLine
 62
2
  6
CONTINUOUS
 10
2636.1660422868
 20
288.5880285951
 11
2636.1660422868
 21
237.0880285951
  0
LINE
  5
33A
100
AcDbEntity
  8
0
100
AcDbLine
 62
2
  6
CONTINUOUS
 10
2636.1660422868
 20
237.0880285951
 11
2912.1660422868
 21
237.0880285951
  0
LINE
  5
33B
100
AcDbEntity
  8
0
100
AcDbLine
 62
2
  6
CONTINUOUS
 10
2912.1660422868
 20
288.5880285951
 11
2912.1660422868
 21
237.0880285951
  0
MTEXT
  5
33C
100
AcDbEntity
  8
0
100
AcDbMText
 62
2
  6
CONTINUOUS
  7
TEXTSTYLE_2
 71
1
 72
1
 10
2636.6660422868
 20
262.7505285951
 30
0.0
 11
1.0
 21
0.0
 31
0.0
 73
2
 44
0.9
  1
 M. DAVILA
 40
12.7
 41
94.9431226766
  0
LINE
  5
33D
100
AcDbEntity
  8
0
100
AcDbLine
 62
2
  6
CONTINUOUS
 10
2636.2423267059
 20
237.3526565659
 11
2912.2423267059
 21
237.3526565659
  0
LINE
  5
33E
100
AcDbEntity
  8
0
100
AcDbLine
 62
2
  6
CONTINUOUS
 10
2636.2423267059
 20
237.3526565659
 11
2636.2423267059
 21
182.8526565659
  0
LINE
  5
33F
100
AcDbEntity
  8
0
100
AcDbLine
 62
2
  6
CONTINUOUS
 10
2636.2423267059
 20
182.8526565659
 11
2912.2423267059
 21
182.8526565659
  0
LINE
  5
340
100
AcDbEntity
  8
0
100
AcDbLine
 62
2
  6
CONTINUOUS
 10
2912.2423267059
 20
237.3526565659
 11
2912.2423267059
 21
182.8526565659
  0
MTEXT
  5
341
100
AcDbEntity
  8
0
100
AcDbMText
 62
2
  6
CONTINUOUS
  7
TEXTSTYLE_2
 71
1
 72
1
 10
2636.7423267059
 20
209.6401565659
 30
0.0
 11
1.0
 21
0.0
 31
0.0
 73
2
 44
0.9
  1
 T. AMUNDSON
 40
12.7
 41
126.8111524164
  0
LINE
  5
342
100
AcDbEntity
  8
0
100
AcDbLine
 62
2
  6
CONTINUOUS
 10
2636.2989176483
 20
182.7458783779
 11
2912.2989176483
 21
182.7458783779
  0
LINE
  5
343
100
AcDbEntity
  8
0
100
AcDbLine
 62
2
  6
CONTINUOUS
 10
2636.2989176483
 20
182.7458783779
 11
2636.2989176483
 21
128.2458783779
  0
LINE
  5
344
100
AcDbEntity
  8
0
100
AcDbLine
 62
2
  6
CONTINUOUS
 10
2636.2989176483
 20
128.2458783779
 11
2912.2989176483
 21
128.2458783779
  0
LINE
  5
345
100
AcDbEntity
  8
0
100
AcDbLine
 62
2
  6
CONTINUOUS
 10
2912.2989176483
 20
182.7458783779
 11
2912.2989176483
 21
128.2458783779
  0
MTEXT
  5
346
100
AcDbEntity
  8
0
100
AcDbMText
 62
2
  6
CONTINUOUS
  7
TEXTSTYLE_2
 71
1
 72
1
 10
2636.7989176483
 20
155.0333783779
 30
0.0
 11
1.0
 21
0.0
 31
0.0
 73
2
 44
0.9
  1
 R. VAUCHER
 40
12.7
 41
109.3427509294
  0
LINE
  5
347
100
AcDbEntity
  8
0
100
AcDbLine
 62
2
  6
CONTINUOUS
 10
2636.2615330401
 20
128.9475123085
 11
2912.2615330401
 21
128.9475123085
  0
LINE
  5
348
100
AcDbEntity
  8
0
100
AcDbLine
 62
2
  6
CONTINUOUS
 10
2636.2615330401
 20
128.9475123085
 11
2636.2615330401
 21
74.4475123085
  0
LINE
  5
349
100
AcDbEntity
  8
0
100
AcDbLine
 62
2
  6
CONTINUOUS
 10
2636.2615330401
 20
74.4475123085
 11
2912.2615330401
 21
74.4475123085
  0
LINE
  5
34A
100
AcDbEntity
  8
0
100
AcDbLine
 62
2
  6
CONTINUOUS
 10
2912.2615330401
 20
128.9475123085
 11
2912.2615330401
 21
74.4475123085
  0
MTEXT
  5
34B
100
AcDbEntity
  8
0
100
AcDbMText
 62
2
  6
CONTINUOUS
  7
TEXTSTYLE_2
 71
1
 72
1
 10
2636.7615330401
 20
101.2350123085
 30
0.0
 11
1.0
 21
0.0
 31
0.0
 73
2
 44
0.9
  1
 C. YOMOGIDA
 40
12.7
 41
132.3821561338
  0
LINE
  5
34C
100
AcDbEntity
  8
0
100
AcDbLine
 62
2
  6
CONTINUOUS
 10
2912.8824510229
 20
99.6129637168
 11
3007.2824510229
 21
99.6129637168
  0
LINE
  5
34D
100
AcDbEntity
  8
0
100
AcDbLine
 62
2
  6
CONTINUOUS
 10
2912.8824510229
 20
99.6129637168
 11
2912.8824510229
 21
74.8004637168
  0
LINE
  5
34E
100
AcDbEntity
  8
0
100
AcDbLine
 62
2
  6
CONTINUOUS
 10
2912.8824510229
 20
74.8004637168
 11
3007.2824510229
 21
74.8004637168
  0
LINE
  5
34F
100
AcDbEntity
  8
0
100
AcDbLine
 62
2
  6
CONTINUOUS
 10
3007.2824510229
 20
99.6129637168
 11
3007.2824510229
 21
74.8004637168
  0
MTEXT
  5
350
100
AcDbEntity
  8
0
100
AcDbMText
 62
2
  6
CONTINUOUS
  7
TEXTSTYLE_2
 71
2
 72
1
 10
2983.6824510229
 20
94.3187137168
 30
0.0
 11
1.0
 21
0.0
 31
0.0
 73
2
 44
0.9
  1
1:8
 40
14.224
 41
27.4962081784
  0
LINE
  5
351
100
AcDbEntity
  8
0
100
AcDbLine
 62
2
  6
CONTINUOUS
 10
3246.3434537039
 20
99.8008641797
 11
3384.3434537039
 21
99.8008641797
  0
LINE
  5
352
100
AcDbEntity
  8
0
100
AcDbLine
 62
2
  6
CONTINUOUS
 10
3246.3434537039
 20
99.8008641797
 11
3246.3434537039
 21
75.7383641797
  0
LINE
  5
353
100
AcDbEntity
  8
0
100
AcDbLine
 62
2
  6
CONTINUOUS
 10
3246.3434537039
 20
75.7383641797
 11
3384.3434537039
 21
75.7383641797
  0
LINE
  5
354
100
AcDbEntity
  8
0
100
AcDbLine
 62
2
  6
CONTINUOUS
 10
3384.3434537039
 20
99.8008641797
 11
3384.3434537039
 21
75.7383641797
  0
MTEXT
  5
355
100
AcDbEntity
  8
0
100
AcDbMText
 62
2
  6
CONTINUOUS
  7
TEXTSTYLE_2
 71
2
 72
1
 10
3342.9434537039
 20
95.1779461797
 30
0.0
 11
1.0
 21
0.0
 31
0.0
 73
2
 44
0.9
  1
1 OF 1
 40
14.816664
 41
62.3511659777
  0
LINE
  5
356
100
AcDbEntity
  8
0
100
AcDbLine
 62
2
  6
CONTINUOUS
 10
3007.2241838951
 20
99.7453402727
 11
3245.6241838951
 21
99.7453402727
  0
LINE
  5
357
100
AcDbEntity
  8
0
100
AcDbLine
 62
2
  6
CONTINUOUS
 10
3007.2241838951
 20
99.7453402727
 11
3007.2241838951
 21
75.6828402727
  0
LINE
  5
358
100
AcDbEntity
  8
0
100
AcDbLine
 62
2
  6
CONTINUOUS
 10
3007.2241838951
 20
75.6828402727
 11
3245.6241838951
 21
75.6828402727
  0
LINE
  5
359
100
AcDbEntity
  8
0
100
AcDbLine
 62
2
  6
CONTINUOUS
 10
3245.6241838951
 20
99.7453402727
 11
3245.6241838951
 21
75.6828402727
  0
MTEXT
  5
35A
100
AcDbEntity
  8
0
100
AcDbMText
 62
2
  6
CONTINUOUS
  7
TEXTSTYLE_2
 71
2
 72
1
 10
3156.2241838951
 20
92.7940902727
 30
0.0
 11
1.0
 21
0.0
 31
0.0
 73
2
 44
0.9
  1
FG-901339-2D.A.6 
 40
10.16
 41
124.2994795539
  0
LINE
  5
35B
100
AcDbEntity
  8
0
100
AcDbLine
 62
2
  6
CONTINUOUS
 10
2368.465627759
 20
379.0397495629
 11
2635.465627759
 21
379.0397495629
  0
LINE
  5
35C
100
AcDbEntity
  8
0
100
AcDbLine
 62
2
  6
CONTINUOUS
 10
2368.465627759
 20
379.0397495629
 11
2368.465627759
 21
222.5397495629
  0
LINE
  5
35D
100
AcDbEntity
  8
0
100
AcDbLine
 62
2
  6
CONTINUOUS
 10
2368.465627759
 20
222.5397495629
 11
2635.465627759
 21
222.5397495629
  0
LINE
  5
35E
100
AcDbEntity
  8
0
100
AcDbLine
 62
2
  6
CONTINUOUS
 10
2635.465627759
 20
379.0397495629
 11
2635.465627759
 21
222.5397495629
  0
MTEXT
  5
35F
100
AcDbEntity
  8
0
100
AcDbMText
 62
2
  6
CONTINUOUS
  7
TEXTSTYLE_2
 71
1
 72
1
 10
2395.665627759
 20
277.5397495629
 30
0.0
 11
1.0
 21
0.0
 31
0.0
 73
2
 44
0.9
  1
.X \fgdt;{\W1.0;{\fgdt;`}}\fCentury Gothic; 3.0 [.12]               \fgdt;{\W1.0;{\fgdt;`}}\fCentury Gothic;1\fgdt;{\W1.0;{\fgdt;~}}\P\fCentury Gothic;.XX \fgdt;{\W1.0;{\fgdt;`}}
 40
12.7
 41
213.5394052045
  0
LINE
  5
360
100
AcDbEntity
  8
0
100
AcDbLine
 62
2
  6
CONTINUOUS
 10
2247.9946321239
 20
2167.0700427448
 11
3383.3146321239
 21
2167.0700427448
  0
LINE
  5
361
100
AcDbEntity
  8
0
100
AcDbLine
 62
2
  6
CONTINUOUS
 10
2247.9946321239
 20
2167.0700427448
 11
2247.9946321239
 21
2057.3420427448
  0
LINE
  5
362
100
AcDbEntity
  8
0
100
AcDbLine
 62
2
  6
CONTINUOUS
 10
2247.9946321239
 20
2130.4940427448
 11
3383.3146321239
 21
2130.4940427448
  0
LINE
  5
363
100
AcDbEntity
  8
0
100
AcDbLine
 62
2
  6
CONTINUOUS
 10
2247.9946321239
 20
2093.9180427448
 11
3383.3146321239
 21
2093.9180427448
  0
LINE
  5
364
100
AcDbEntity
  8
0
100
AcDbLine
 62
2
  6
CONTINUOUS
 10
2247.9946321239
 20
2057.3420427448
 11
3383.3146321239
 21
2057.3420427448
  0
LINE
  5
365
100
AcDbEntity
  8
0
100
AcDbLine
 62
2
  6
CONTINUOUS
 10
2327.0026321239
 20
2130.4940427448
 11
2327.0026321239
 21
2057.3420427448
  0
LINE
  5
366
100
AcDbEntity
  8
0
100
AcDbLine
 62
2
  6
CONTINUOUS
 10
3155.0826321239
 20
2130.4940427448
 11
3155.0826321239
 21
2057.3420427448
  0
LINE
  5
367
100
AcDbEntity
  8
0
100
AcDbLine
 62
2
  6
CONTINUOUS
 10
3228.2346321239
 20
2130.4940427448
 11
3228.2346321239
 21
2057.3420427448
  0
LINE
  5
368
100
AcDbEntity
  8
0
100
AcDbLine
 62
2
  6
CONTINUOUS
 10
3383.3146321239
 20
2167.0700427448
 11
3383.3146321239
 21
2057.3420427448
  0
MTEXT
  5
369
100
AcDbEntity
  8
0
100
AcDbMText
 62
2
  6
CONTINUOUS
  7
TEXTSTYLE_2
 71
2
 72
1
 10
2815.6546321239
 20
2157.9260427448
 30
0.0
 11
1.0
 21
0.0
 31
0.0
 73
2
 44
0.9
  1
REVISION
 40
18.288
 41
112.3114349442
  0
MTEXT
  5
36A
100
AcDbEntity
  8
0
100
AcDbMText
 62
2
  6
CONTINUOUS
  7
TEXTSTYLE_2
 71
2
 72
1
 10
2287.4986321239
 20
2121.3500427448
 30
0.0
 11
1.0
 21
0.0
 31
0.0
 73
2
 44
0.9
  1
REV
 40
18.288
 41
47.0457100372
  0
MTEXT
  5
36B
100
AcDbEntity
  8
0
100
AcDbMText
 62
2
  6
CONTINUOUS
  7
TEXTSTYLE_2
 71
1
 72
1
 10
2334.3178321239
 20
2121.3500427448
 30
0.0
 11
1.0
 21
0.0
 31
0.0
 73
2
 44
0.9
  1
                                                  DESCRIPTION
 40
18.288
 41
513.6276579926
  0
MTEXT
  5
36C
100
AcDbEntity
  8
0
100
AcDbMText
 62
2
  6
CONTINUOUS
  7
TEXTSTYLE_2
 71
2
 72
1
 10
3191.6586321239
 20
2121.3500427448
 30
0.0
 11
1.0
 21
0.0
 31
0.0
 73
2
 44
0.9
  1
BY
 40
18.288
 41
29.7095018587
  0
MTEXT
  5
36D
100
AcDbEntity
  8
0
100
AcDbMText
 62
2
  6
CONTINUOUS
  7
TEXTSTYLE_2
 71
2
 72
1
 10
3305.7746321239
 20
2121.3500427448
 30
0.0
 11
1.0
 21
0.0
 31
0.0
 73
2
 44
0.9
  1
DATE
 40
18.288
 41
62.3423643123
  0
MTEXT
  5
36E
100
AcDbEntity
  8
0
100
AcDbMText
 62
2
  6
CONTINUOUS
  7
STANDARD
 71
2
 72
1
 10
2287.4986321239
 20
2084.7740427448
 30
0.0
 11
1.0
 21
0.0
 31
0.0
 73
2
 44
0.9
  1
A
 40
18.288
 41
18.8318810409
  0
MTEXT
  5
36F
100
AcDbEntity
  8
0
100
AcDbMText
 62
2
  6
CONTINUOUS
  7
STANDARD
 71
1
 72
1
 10
2334.3178321239
 20
2084.7740427448
 30
0.0
 11
1.0
 21
0.0
 31
0.0
 73
2
 44
0.9
  1
INITIAL RELEASE
 40
18.288
 41
184.5116431227
  0
MTEXT
  5
370
100
AcDbEntity
  8
0
100
AcDbMText
 62
2
  6
CONTINUOUS
  7
STANDARD
 71
2
 72
1
 10
3191.6586321239
 20
2084.7740427448
 30
0.0
 11
1.0
 21
0.0
 31
0.0
 73
2
 44
0.9
  1
MD
 40
18.288
 41
42.4227211896
  0
MTEXT
  5
371
100
AcDbEntity
  8
0
100
AcDbMText
 62
2
  6
CONTINUOUS
  7
STANDARD
 71
2
 72
1
 10
3305.7746321239
 20
2084.7740427448
 30
0.0
 11
1.0
 21
0.0
 31
0.0
 73
2
 44
0.9
  1
30-SEP-22
 40
18.288
 41
115.0308401487
  0
MTEXT
  5
372
100
AcDbEntity
  8
0
100
AcDbMText
 62
2
  6
CONTINUOUS
  7
STANDARD
 71
1
 72
1
 10
99.0657372095
 20
2027.4490145804
 30
0.0
 11
1.0
 21
0.0
 31
0.0
 73
2
 44
0.9
  1
NOTES: UNLESS OTHERWISE SPECIFIED\P \P1.    NET WEIGHT APPROX. 11.6 KG [25.6 LBS]. \P \P2.    PARTS ARE SYMMETRICAL ABOUT CENTER LINES UNLESS OTHERWISE NOTED. \P \P3.    SYMBOL      INDICATES CENTER OF GRAVITY.  
 40
18.288
 41
959.4741412639
  0
MTEXT
  5
373
100
AcDbEntity
  8
0
100
AcDbMText
 62
2
  6
CONTINUOUS
  7
TEXTSTYLE_3
 71
1
 72
1
 10
1250.8184053893
 20
496.3545608194
 30
0.0
 11
1.0
 21
0.0
 31
0.0
 73
2
 44
0.9
  1
{\fgdt;q}
 40
18.288
 41
28.956
  0
MTEXT
  5
374
100
AcDbEntity
  8
0
100
AcDbMText
 62
2
  6
CONTINUOUS
  7
TEXTSTYLE_3
 71
1
 72
1
 10
1251.8092693005
 20
994.7317226715
 30
0.0
 11
1.0
 21
0.0
 31
0.0
 73
2
 44
0.9
  1
{\fgdt;q}
 40
18.288
 41
28.956
  0
MTEXT
  5
375
100
AcDbEntity
  8
0
100
AcDbMText
 62
2
  6
CONTINUOUS
  7
STANDARD
 71
3
 72
1
 10
705.4445583482
 20
880.1499483584
 30
0.0
 11
1.0
 21
0.0
 31
0.0
 73
2
 44
0.9
  1
SECTION\H18.288; \H32.0;A-A
 40
32.0
 41
271.1596728625
  0
INSERT
  5
376
100
AcDbEntity
  8
0
100
AcDbBlockReference
 62
2
  6
CONTINUOUS
  2
CG_3D_BL0
 10
269.7003348912
 20
1853.6929916876
  0
INSERT
  5
377
100
AcDbEntity
  8
0
100
AcDbBlockReference
 62
2
  6
CONTINUOUS
  2
CG_3D_BL1
 10
1262.9814092942
 20
1328.9123851464
  0
INSERT
  5
378
100
AcDbEntity
  8
0
100
AcDbBlockReference
 62
2
  6
CONTINUOUS
  2
CG_3D_BL2
 10
555.2566026388
 20
1329.1224058324
  0
LWPOLYLINE
  5
379
100
AcDbEntity
  8
0
100
AcDbPolyline
 62
7
  6
CONTINUOUS
 90
2
 70
0
 43
1.999999991
 10
59.1347637795
 20
1128.8249112643
 10
59.1347637795
 20
1114.1602144267
  0
LWPOLYLINE
  5
37A
100
AcDbEntity
  8
0
100
AcDbPolyline
 62
7
  6
CONTINUOUS
 90
2
 70
0
 43
1.999999991
 10
71.8347637795
 20
2167.9725628459
 10
71.8347637795
 20
75.0125628459
  0
LWPOLYLINE
  5
37B
100
AcDbEntity
  8
0
100
AcDbPolyline
 62
7
  6
CONTINUOUS
 90
2
 70
0
 43
1.999999991
 10
485.8547637795
 20
75.0125628459
 10
485.8547637795
 20
49.6125628459
  0
LWPOLYLINE
  5
37C
100
AcDbEntity
  8
0
100
AcDbPolyline
 62
7
  6
CONTINUOUS
 90
2
 70
0
 43
1.999999991
 10
485.8547637795
 20
2167.9725628459
 10
485.8547637795
 20
2193.3725628459
  0
LWPOLYLINE
  5
37D
100
AcDbEntity
  8
0
100
AcDbPolyline
 62
7
  6
CONTINUOUS
 90
2
 70
0
 43
1.999999991
 10
611.3180257754
 20
2055.0435075666
 10
611.3180257754
 20
2166.994927034
  0
LWPOLYLINE
  5
37E
100
AcDbEntity
  8
0
100
AcDbPolyline
 62
7
  6
CONTINUOUS
 90
2
 70
0
 43
1.999999991
 10
2596.4465570971
 20
99.0714506643
 10
2626.9265570979
 20
104.1514506643
  0
LWPOLYLINE
  5
37F
100
AcDbEntity
  8
0
100
AcDbPolyline
 62
7
  6
CONTINUOUS
 90
2
 70
0
 43
1.999999991
 10
1735.2471121979
 20
62.3125628459
 10
1720.5824153611
 20
62.3125628459
  0
LWPOLYLINE
  5
380
100
AcDbEntity
  8
0
100
AcDbPolyline
 62
7
  6
CONTINUOUS
 90
2
 70
0
 43
1.999999991
 10
3383.9947637795
 20
75.0125628459
 10
71.8347637795
 20
75.0125628459
  0
LWPOLYLINE
  5
381
100
AcDbEntity
  8
0
100
AcDbPolyline
 62
7
  6
CONTINUOUS
 90
2
 70
0
 43
0.7999999758
 10
2562.9591970971
 20
93.9914506643
 10
2589.2939170979
 20
93.9914506643
  0
LWPOLYLINE
  5
382
100
AcDbEntity
  8
0
100
AcDbPolyline
 62
7
  6
CONTINUOUS
 90
2
 70
0
 43
0.7999999758
 10
2592.6634651627
 20
93.9914506643
 10
2630.0355851579
 20
93.9914506643
  0
LWPOLYLINE
  5
383
100
AcDbEntity
  8
0
100
AcDbPolyline
 62
7
  6
CONTINUOUS
 90
2
 70
0
 43
1.999999991
 10
2912.9058402979
 20
100.4125628459
 10
3383.9947637795
 20
100.4125628459
  0
LWPOLYLINE
  5
384
100
AcDbEntity
  8
0
100
AcDbPolyline
 62
7
  6
CONTINUOUS
 90
2
 70
0
 43
1.999999991
 10
2367.9947637795
 20
111.5885628459
 10
2635.6068612347
 20
111.5885628459
  0
LWPOLYLINE
  5
385
100
AcDbEntity
  8
0
100
AcDbPolyline
 62
7
  6
CONTINUOUS
 90
2
 70
0
 43
1.999999991
 10
2635.3178193955
 20
129.0125628459
 10
2912.6167984587
 20
129.0125628459
  0
LWPOLYLINE
  5
386
100
AcDbEntity
  8
0
100
AcDbPolyline
 62
7
  6
CONTINUOUS
 90
2
 70
0
 43
1.999999991
 10
2367.9947637795
 20
148.1645628459
 10
2635.6068612347
 20
148.1645628459
  0
LWPOLYLINE
  5
387
100
AcDbEntity
  8
0
100
AcDbPolyline
 62
7
  6
CONTINUOUS
 90
2
 70
0
 43
1.999999991
 10
2912.9058402979
 20
152.0125628459
 10
3383.9947637795
 20
152.0125628459
  0
LWPOLYLINE
  5
388
100
AcDbEntity
  8
0
100
AcDbPolyline
 62
7
  6
CONTINUOUS
 90
2
 70
0
 43
1.999999991
 10
59.1347637795
 20
1114.1602144267
 10
71.8347637795
 20
1121.4925628459
  0
LWPOLYLINE
  5
389
100
AcDbEntity
  8
0
100
AcDbPolyline
 62
7
  6
CONTINUOUS
 90
2
 70
0
 43
1.999999991
 10
2635.6068612347
 20
183.0125628459
 10
2912.9058402979
 20
183.0125628459
  0
LWPOLYLINE
  5
38A
100
AcDbEntity
  8
0
100
AcDbPolyline
 62
7
  6
CONTINUOUS
 90
2
 70
0
 43
1.999999991
 10
2367.9947637795
 20
184.7405628459
 10
2635.6068612347
 20
184.7405628459
  0
LWPOLYLINE
  5
38B
100
AcDbEntity
  8
0
100
AcDbPolyline
 62
7
  6
CONTINUOUS
 90
2
 70
0
 43
1.999999991
 10
2635.6068612347
 20
221.8535008235
 10
2367.9947637795
 20
221.8535008235
  0
LWPOLYLINE
  5
38C
100
AcDbEntity
  8
0
100
AcDbPolyline
 62
7
  6
CONTINUOUS
 90
2
 70
0
 43
1.999999991
 10
2635.6068612347
 20
237.0125628459
 10
2912.9058402979
 20
237.0125628459
  0
LWPOLYLINE
  5
38D
100
AcDbEntity
  8
0
100
AcDbPolyline
 62
7
  6
CONTINUOUS
 90
2
 70
0
 43
1.999999991
 10
2635.6068612347
 20
288.8109404515
 10
2912.9058402979
 20
288.8109404515
  0
LWPOLYLINE
  5
38E
100
AcDbEntity
  8
0
100
AcDbPolyline
 62
7
  6
CONTINUOUS
 90
2
 70
0
 43
1.999999991
 10
2596.4465570971
 20
88.9114506643
 10
2626.9265570979
 20
83.8314506643
  0
LWPOLYLINE
  5
38F
100
AcDbEntity
  8
0
100
AcDbPolyline
 62
7
  6
CONTINUOUS
 90
2
 70
0
 43
1.999999991
 10
899.8747637795
 20
75.0125628459
 10
899.8747637795
 20
49.6125628459
  0
LWPOLYLINE
  5
390
100
AcDbEntity
  8
0
100
AcDbPolyline
 62
7
  6
CONTINUOUS
 90
2
 70
0
 43
1.999999991
 10
899.8747637795
 20
2167.9725628459
 10
899.8747637795
 20
2193.3725628459
  0
LWPOLYLINE
  5
391
100
AcDbEntity
  8
0
100
AcDbPolyline
 62
7
  6
CONTINUOUS
 90
2
 70
0
 43
1.999999991
 10
2912.9058402979
 20
303.6125628459
 10
3383.9947637795
 20
303.6125628459
  0
LWPOLYLINE
  5
392
100
AcDbEntity
  8
0
100
AcDbPolyline
 62
7
  6
CONTINUOUS
 90
2
 70
0
 43
1.999999991
 10
2635.6068612347
 20
310.1469404515
 10
2912.9058402979
 20
310.1469404515
  0
LINE
  5
393
100
AcDbEntity
  8
0
100
AcDbLine
 62
7
  6
CONTINUOUS
 10
2962.3417252432
 20
319.9450529654
 11
2973.1815599254
 21
319.9450529654
  0
LINE
  5
394
100
AcDbEntity
  8
0
100
AcDbLine
 62
7
  6
CONTINUOUS
 10
2933.5219189737
 20
324.1389308483
 11
2961.64557068
 21
324.1389308483
  0
LINE
  5
395
100
AcDbEntity
  8
0
100
AcDbLine
 62
7
  6
CONTINUOUS
 10
2973.8777144886
 20
324.1389308483
 11
2979.4078769993
 21
324.1389308483
  0
LINE
  5
396
100
AcDbEntity
  8
0
100
AcDbLine
 62
7
  6
CONTINUOUS
 10
2994.6397743965
 20
324.1389308336
 11
3044.9473875203
 21
324.1389308336
  0
LINE
  5
397
100
AcDbEntity
  8
0
100
AcDbLine
 62
7
  6
CONTINUOUS
 10
3035.1630767843
 20
331.1882310384
 11
2994.6397743965
 21
331.1882310384
  0
LINE
  5
398
100
AcDbEntity
  8
0
100
AcDbLine
 62
7
  6
CONTINUOUS
 10
3116.4766894889
 20
331.345028856
 11
3074.7686460867
 21
331.345028856
  0
LINE
  5
399
100
AcDbEntity
  8
0
100
AcDbLine
 62
7
  6
CONTINUOUS
 10
2940.6981899977
 20
331.5967444758
 11
2961.4872412374
 21
331.5967444758
  0
LINE
  5
39A
100
AcDbEntity
  8
0
100
AcDbLine
 62
7
  6
CONTINUOUS
 10
2973.6641427696
 20
331.5967445123
 11
2976.8613820912
 21
331.5967445123
  0
LINE
  5
39B
100
AcDbEntity
  8
0
100
AcDbLine
 62
7
  6
CONTINUOUS
 10
2962.1833958083
 20
335.7797848822
 11
2972.9679882358
 21
335.7797848822
  0
LINE
  5
39C
100
AcDbEntity
  8
0
100
AcDbLine
 62
7
  6
CONTINUOUS
 10
3000.3995003555
 20
338.5040716669
 11
3035.1630767913
 21
338.5040716669
  0
LINE
  5
39D
100
AcDbEntity
  8
0
100
AcDbLine
 62
7
  6
CONTINUOUS
 10
3044.9473875203
 20
345.8204773949
 11
3010.6471865616
 21
345.8204773949
  0
LINE
  5
39E
100
AcDbEntity
  8
0
100
AcDbLine
 62
7
  6
CONTINUOUS
 10
3010.6471865545
 20
352.86518628
 11
3051.2254933795
 21
352.86518628
  0
LINE
  5
39F
100
AcDbEntity
  8
0
100
AcDbLine
 62
7
  6
CONTINUOUS
 10
3074.7686460944
 20
352.9374014979
 11
3116.4766894813
 21
352.9374014979
  0
LINE
  5
3A0
100
AcDbEntity
  8
0
100
AcDbLine
 62
7
  6
CONTINUOUS
 10
2940.6981900048
 20
353.2652483504
 11
2976.8613820765
 21
353.2652483504
  0
LINE
  5
3A1
100
AcDbEntity
  8
0
100
AcDbLine
 62
7
  6
CONTINUOUS
 10
2979.4078769993
 20
360.1363826819
 11
2933.5219189737
 21
360.1363826819
  0
LINE
  5
3A2
100
AcDbEntity
  8
0
100
AcDbLine
 62
7
  6
CONTINUOUS
 10
3116.4766894909
 20
360.1786529654
 11
3067.8169546166
 21
360.1786529654
  0
LINE
  5
3A3
100
AcDbEntity
  8
0
100
AcDbLine
 62
7
  6
CONTINUOUS
 10
3051.2254933795
 20
360.1786529584
 11
3000.3995003555
 21
360.1786529584
  0
LWPOLYLINE
  5
3A4
100
AcDbEntity
  8
0
100
AcDbPolyline
 62
7
  6
CONTINUOUS
 90
2
 70
0
 43
1.999999991
 10
2367.9947637795
 20
379.8125628459
 10
3383.9947637795
 20
379.8125628459
  0
LINE
  5
3A5
100
AcDbEntity
  8
0
100
AcDbLine
 62
7
  6
CONTINUOUS
 10
3067.8169546166
 20
324.1389491069
 11
3116.480639992
 21
324.0785406781
  0
LWPOLYLINE
  5
3A6
100
AcDbEntity
  8
0
100
AcDbPolyline
 62
7
  6
CONTINUOUS
 90
2
 70
0
 43
1.999999991
 10
71.8347637795
 20
1121.4925628459
 10
59.1347637795
 20
1128.8249112643
  0
LWPOLYLINE
  5
3A7
100
AcDbEntity
  8
0
100
AcDbPolyline
 62
7
  6
CONTINUOUS
 90
2
 70
0
 43
1.999999991
 10
1727.9147637795
 20
2167.9725628459
 10
1735.2471121979
 20
2180.6725628459
  0
LWPOLYLINE
  5
3A8
100
AcDbEntity
  8
0
100
AcDbPolyline
 62
7
  6
CONTINUOUS
 90
2
 70
0
 43
1.999999991
 10
71.8347637795
 20
598.2525628459
 10
46.4347637795
 20
598.2525628459
  0
LWPOLYLINE
  5
3A9
100
AcDbEntity
  8
0
100
AcDbPolyline
 62
7
  6
CONTINUOUS
 90
2
 70
0
 43
1.999999991
 10
3383.9947637795
 20
598.2525628459
 10
3409.3947637795
 20
598.2525628459
  0
LWPOLYLINE
  5
3AA
100
AcDbEntity
  8
0
100
AcDbPolyline
 62
7
  6
CONTINUOUS
 90
2
 70
0
 43
1.999999991
 10
1727.9147637795
 20
75.0125628459
 10
1735.2471121979
 20
62.3125628459
  0
LINE
  5
3AB
100
AcDbEntity
  8
DEFAULT_1
100
AcDbLine
 62
7
  6
CENTER
 10
1263.0569536104
 20
1625.2547817715
 11
1263.0569536104
 21
1006.2938510742
  0
LINE
  5
3AC
100
AcDbEntity
  8
DEFAULT_1
100
AcDbLine
 62
7
  6
CENTER
 10
1263.0569536104
 20
629.5111122031
 11
1263.0569536104
 21
509.4951202758
  0
LWPOLYLINE
  5
3AD
100
AcDbEntity
  8
0
100
AcDbPolyline
 62
7
  6
CONTINUOUS
 90
2
 70
0
 43
1.999999991
 10
1313.8947637795
 20
75.0125628459
 10
1313.8947637795
 20
49.6125628459
  0
LWPOLYLINE
  5
3AE
100
AcDbEntity
  8
0
100
AcDbPolyline
 62
7
  6
CONTINUOUS
 90
2
 70
0
 43
1.999999991
 10
1313.8947637795
 20
2167.9725628459
 10
1313.8947637795
 20
2193.3725628459
  0
LWPOLYLINE
  5
3AF
100
AcDbEntity
  8
0
100
AcDbPolyline
 62
7
  6
CONTINUOUS
 90
2
 70
0
 43
1.999999991
 10
1727.9147637795
 20
75.0125628459
 10
1727.9147637795
 20
49.6125628459
  0
LWPOLYLINE
  5
3B0
100
AcDbEntity
  8
0
100
AcDbPolyline
 62
7
  6
CONTINUOUS
 90
2
 70
0
 43
1.999999991
 10
1727.9147637795
 20
2167.9725628459
 10
1727.9147637795
 20
2193.3725628459
  0
LWPOLYLINE
  5
3B1
100
AcDbEntity
  8
0
100
AcDbPolyline
 62
7
  6
CONTINUOUS
 90
2
 70
0
 43
1.999999991
 10
71.8347637795
 20
1121.4925628459
 10
46.4347637795
 20
1121.4925628459
  0
LWPOLYLINE
  5
3B2
100
AcDbEntity
  8
0
100
AcDbPolyline
 62
7
  6
CONTINUOUS
 90
2
 70
0
 43
1.999999991
 10
3383.9947637795
 20
1121.4925628459
 10
3409.3947637795
 20
1121.4925628459
  0
LWPOLYLINE
  5
3B3
100
AcDbEntity
  8
0
100
AcDbPolyline
 62
7
  6
CONTINUOUS
 90
2
 70
0
 43
1.999999991
 10
2141.9347637795
 20
75.0125628459
 10
2141.9347637795
 20
49.6125628459
  0
LWPOLYLINE
  5
3B4
100
AcDbEntity
  8
0
100
AcDbPolyline
 62
7
  6
CONTINUOUS
 90
2
 70
0
 43
1.999999991
 10
2141.9347637795
 20
2167.9725628459
 10
2141.9347637795
 20
2193.3725628459
  0
LWPOLYLINE
  5
3B5
100
AcDbEntity
  8
0
100
AcDbPolyline
 62
7
  6
CONTINUOUS
 90
2
 70
0
 43
1.999999991
 10
1727.9147637795
 20
75.0125628459
 10
1720.5824153611
 20
62.3125628459
  0
LWPOLYLINE
  5
3B6
100
AcDbEntity
  8
0
100
AcDbPolyline
 62
7
  6
CONTINUOUS
 90
2
 70
0
 43
1.999999991
 10
71.8347637795
 20
1644.7325628459
 10
46.4347637795
 20
1644.7325628459
  0
LWPOLYLINE
  5
3B7
100
AcDbEntity
  8
0
100
AcDbPolyline
 62
7
  6
CONTINUOUS
 90
2
 70
0
 43
1.999999991
 10
3383.9947637795
 20
1644.7325628459
 10
3409.3947637795
 20
1644.7325628459
  0
LWPOLYLINE
  5
3B8
100
AcDbEntity
  8
0
100
AcDbPolyline
 62
7
  6
CONTINUOUS
 90
2
 70
0
 43
1.999999991
 10
1727.9147637795
 20
2167.9725628459
 10
1720.5824153611
 20
2180.6725628459
  0
LWPOLYLINE
  5
3B9
100
AcDbEntity
  8
0
100
AcDbPolyline
 62
7
  6
CONTINUOUS
 90
2
 70
0
 43
1.999999991
 10
2367.9947637795
 20
75.0125628459
 10
2367.9947637795
 20
379.8125628459
  0
LWPOLYLINE
  5
3BA
100
AcDbEntity
  8
0
100
AcDbPolyline
 62
7
  6
CONTINUOUS
 90
2
 70
0
 43
1.999999991
 10
2555.9547637795
 20
49.6125628459
 10
2555.9547637795
 20
111.5885628459
  0
LWPOLYLINE
  5
3BB
100
AcDbEntity
  8
0
100
AcDbPolyline
 62
7
  6
CONTINUOUS
 90
2
 70
0
 43
1.999999991
 10
2555.9547637795
 20
2167.9725628459
 10
2555.9547637795
 20
2193.3725628459
  0
LWPOLYLINE
  5
3BC
100
AcDbEntity
  8
0
100
AcDbPolyline
 62
7
  6
CONTINUOUS
 90
2
 70
0
 43
0.7999999758
 10
2576.1265570971
 20
80.8240906643
 10
2576.1265570971
 20
107.1588106643
  0
LWPOLYLINE
  5
3BD
100
AcDbEntity
  8
0
100
AcDbPolyline
 62
7
  6
CONTINUOUS
 90
2
 70
0
 43
1.999999991
 10
3383.9947637795
 20
1121.4925628459
 10
3396.6947637795
 20
1128.8249112643
  0
LWPOLYLINE
  5
3BE
100
AcDbEntity
  8
0
100
AcDbPolyline
 62
7
  6
CONTINUOUS
 90
2
 70
0
 43
1.999999991
 10
3396.6947637795
 20
1114.1602144267
 10
3383.9947637795
 20
1121.4925628459
  0
LWPOLYLINE
  5
3BF
100
AcDbEntity
  8
0
100
AcDbPolyline
 62
7
  6
CONTINUOUS
 90
2
 70
0
 43
1.999999991
 10
2596.4465570971
 20
99.0714506643
 10
2596.4465570971
 20
88.9114506643
  0
LWPOLYLINE
  5
3C0
100
AcDbEntity
  8
0
100
AcDbPolyline
 62
7
  6
CONTINUOUS
 90
2
 70
0
 43
1.999999991
 10
2626.9265570979
 20
104.1514506643
 10
2626.9265570979
 20
83.8314506643
  0
LWPOLYLINE
  5
3C1
100
AcDbEntity
  8
0
100
AcDbPolyline
 62
7
  6
CONTINUOUS
 90
2
 70
0
 43
1.999999991
 10
2635.6068612347
 20
379.8125628459
 10
2635.6068612347
 20
75.0125628459
  0
LWPOLYLINE
  5
3C2
100
AcDbEntity
  8
0
100
AcDbPolyline
 62
7
  6
CONTINUOUS
 90
2
 70
0
 43
1.999999991
 10
71.8341804197
 20
2055.879608186
 10
612.351891337
 20
2055.879608186
  0
LWPOLYLINE
  5
3C3
100
AcDbEntity
  8
0
100
AcDbPolyline
 62
7
  6
CONTINUOUS
 90
2
 70
0
 43
1.999999991
 10
71.8347637795
 20
2167.1725628459
 10
3383.9947637795
 20
2167.1725628459
  0
LWPOLYLINE
  5
3C4
100
AcDbEntity
  8
0
100
AcDbPolyline
 62
7
  6
CONTINUOUS
 90
2
 70
0
 43
1.999999991
 10
1735.2471121979
 20
2180.6725628459
 10
1720.5824153611
 20
2180.6725628459
  0
LWPOLYLINE
  5
3C5
100
AcDbEntity
  8
0
100
AcDbPolyline
 62
7
  6
CONTINUOUS
 90
2
 70
0
 43
1.999999991
 10
2912.9058402979
 20
379.8125628459
 10
2912.9058402979
 20
75.0125628459
  0
LINE
  5
3C6
100
AcDbEntity
  8
0
100
AcDbLine
 62
7
  6
CONTINUOUS
 10
2938.8881881155
 20
333.4067463581
 11
2938.8881881155
 21
351.4552464611
  0
LINE
  5
3C7
100
AcDbEntity
  8
0
100
AcDbLine
 62
7
  6
CONTINUOUS
 10
3057.5934194781
 20
342.2216325251
 11
3057.5965962205
 21
341.9462256477
  0
LWPOLYLINE
  5
3C8
100
AcDbEntity
  8
0
100
AcDbPolyline
 62
7
  6
CONTINUOUS
 90
2
 70
0
 43
1.999999991
 10
2949.6258849755
 20
151.2125628459
 10
2949.6258849755
 20
100.4125628459
  0
LINE
  5
3C9
100
AcDbEntity
  8
0
100
AcDbLine
 62
7
  6
CONTINUOUS
 10
2961.4872412374
 20
331.5967444758
 11
2961.4872412374
 21
335.083630312
  0
LINE
  5
3CA
100
AcDbEntity
  8
0
100
AcDbLine
 62
7
  6
CONTINUOUS
 10
2961.64557068
 20
324.1389308483
 11
2961.64557068
 21
320.6412075286
  0
LWPOLYLINE
  5
3CB
100
AcDbEntity
  8
0
100
AcDbPolyline
 62
7
  6
CONTINUOUS
 90
2
 70
0
 43
1.999999991
 10
2969.9747637795
 20
75.0125628459
 10
2969.9747637795
 20
49.6125628459
  0
LWPOLYLINE
  5
3CC
100
AcDbEntity
  8
0
100
AcDbPolyline
 62
7
  6
CONTINUOUS
 90
2
 70
0
 43
1.999999991
 10
2969.9747637795
 20
2167.9725628459
 10
2969.9747637795
 20
2193.3725628459
  0
LINE
  5
3CD
100
AcDbEntity
  8
0
100
AcDbLine
 62
7
  6
CONTINUOUS
 10
2973.6641427696
 20
331.5967445123
 11
2973.6641427696
 21
335.0836303337
  0
LINE
  5
3CE
100
AcDbEntity
  8
0
100
AcDbLine
 62
7
  6
CONTINUOUS
 10
2973.8777144886
 20
320.6412075286
 11
2973.8777144886
 21
324.1389308483
  0
LINE
  5
3CF
100
AcDbEntity
  8
0
100
AcDbLine
 62
7
  6
CONTINUOUS
 10
2978.6713839657
 20
333.4067463869
 11
2978.6713839657
 21
351.4552464905
  0
LINE
  5
3D0
100
AcDbEntity
  8
0
100
AcDbLine
 62
7
  6
CONTINUOUS
 10
2987.9403209104
 20
330.8746342077
 11
2987.9403209104
 21
353.4006793078
  0
LINE
  5
3D1
100
AcDbEntity
  8
0
100
AcDbLine
 62
7
  6
CONTINUOUS
 10
2992.8297725149
 20
329.3782291561
 11
2992.8297725149
 21
325.9489327152
  0
LWPOLYLINE
  5
3D2
100
AcDbEntity
  8
0
100
AcDbPolyline
 62
7
  6
CONTINUOUS
 90
2
 70
0
 43
1.999999991
 10
3007.6554000283
 20
100.4125628459
 10
3007.6554000283
 20
75.0125628459
  0
LINE
  5
3D3
100
AcDbEntity
  8
0
100
AcDbLine
 62
7
  6
CONTINUOUS
 10
3008.83718468
 20
347.6304792765
 11
3008.83718468
 21
351.0551844054
  0
LINE
  5
3D4
100
AcDbEntity
  8
0
100
AcDbLine
 62
7
  6
CONTINUOUS
 10
3036.9730786589
 20
336.6940697853
 11
3036.9730786589
 21
332.9982329129
  0
LWPOLYLINE
  5
3D5
100
AcDbEntity
  8
0
100
AcDbPolyline
 62
7
  6
CONTINUOUS
 90
2
 70
0
 43
1.999999991
 10
3046.1458849755
 20
151.2125628459
 10
3046.1458849755
 20
100.4125628459
  0
LINE
  5
3D6
100
AcDbEntity
  8
0
100
AcDbLine
 62
7
  6
CONTINUOUS
 10
3053.0354952611
 20
354.6751881622
 11
3053.0354952611
 21
358.3686510614
  0
LINE
  5
3D7
100
AcDbEntity
  8
0
100
AcDbLine
 62
7
  6
CONTINUOUS
 10
3072.9586442051
 20
333.1550307376
 11
3072.9586442051
 21
351.1273996086
  0
LINE
  5
3D8
100
AcDbEntity
  8
0
100
AcDbLine
 62
7
  6
CONTINUOUS
 10
3118.2866913635
 20
325.888538239
 11
3118.2866913635
 21
329.5350269814
  0
LINE
  5
3D9
100
AcDbEntity
  8
0
100
AcDbLine
 62
7
  6
CONTINUOUS
 10
3118.2866913635
 20
354.7474033801
 11
3118.2866913635
 21
358.3686511081
  0
LWPOLYLINE
  5
3DA
100
AcDbEntity
  8
0
100
AcDbPolyline
 62
7
  6
CONTINUOUS
 90
2
 70
0
 43
1.999999991
 10
3245.5442010803
 20
100.4125628459
 10
3245.5442010803
 20
75.0125628459
  0
LWPOLYLINE
  5
3DB
100
AcDbEntity
  8
0
100
AcDbPolyline
 62
7
  6
CONTINUOUS
 90
2
 70
0
 43
1.999999991
 10
3299.6128210891
 20
151.2125628459
 10
3299.6128210891
 20
100.4125628459
  0
LWPOLYLINE
  5
3DC
100
AcDbEntity
  8
0
100
AcDbPolyline
 62
7
  6
CONTINUOUS
 90
2
 70
0
 43
1.999999991
 10
3383.9947637795
 20
75.0125628459
 10
3383.9947637795
 20
2167.9725628459
  0
LWPOLYLINE
  5
3DD
100
AcDbEntity
  8
0
100
AcDbPolyline
 62
7
  6
CONTINUOUS
 90
2
 70
0
 43
1.999999991
 10
3396.6947637795
 20
1128.8249112643
 10
3396.6947637795
 20
1114.1602144267
  0
LINE
  5
3DE
100
AcDbEntity
  8
0
100
AcDbLine
 62
7
  6
CONTINUOUS
 10
2402.9297229782
 20
1441.214895369
 11
2402.9297229782
 21
1495.0966122912
  0
LINE
  5
3DF
100
AcDbEntity
  8
0
100
AcDbLine
 62
7
  6
CONTINUOUS
 10
2416.7183052114
 20
1425.9044621149
 11
2416.7183052114
 21
1433.2519689679
  0
LINE
  5
3E0
100
AcDbEntity
  8
6_ALL_SURFS
100
AcDbLine
 62
7
  6
CONTINUOUS
 10
2406.4652568842
 20
1501.2203365431
 11
2823.6582577842
 21
1742.149904576
  0
LINE
  5
3E1
100
AcDbEntity
  8
0
100
AcDbLine
 62
7
  6
CONTINUOUS
 10
2802.4194371173
 20
1201.4711657621
 11
2417.7533481519
 21
1423.6163945924
  0
LINE
  5
3E2
100
AcDbEntity
  8
6_ALL_SURFS
100
AcDbLine
 62
7
  6
CONTINUOUS
 10
2801.3843941768
 20
1203.7592332846
 11
2416.7183052114
 21
1425.9044621149
  0
LINE
  5
3E3
100
AcDbEntity
  8
6_ALL_SURFS
100
AcDbLine
 62
7
  6
CONTINUOUS
 10
2815.17297641
 20
1203.1438137365
 11
2801.3843941768
 21
1211.1067401376
  0
LINE
  5
3E4
100
AcDbEntity
  8
0
100
AcDbLine
 62
7
  6
CONTINUOUS
 10
2402.9297229782
 20
1441.214895369
 11
2416.7183052114
 21
1433.2519689679
  0
LINE
  5
3E5
100
AcDbEntity
  8
6_ALL_SURFS
100
AcDbLine
 62
7
  6
CONTINUOUS
 10
2837.3746106144
 20
1194.6213244165
 11
2833.1319699273
 21
1197.0714556169
  0
LINE
  5
3E6
100
AcDbEntity
  8
0
100
AcDbLine
 62
7
  6
CONTINUOUS
 10
2437.5779552564
 20
1504.4871781436
 11
2818.0014035347
 21
1724.1822757736
  0
LINE
  5
3E7
100
AcDbEntity
  8
0
100
AcDbLine
 62
7
  6
CONTINUOUS
 10
2450.3520933593
 20
1498.8020271708
 11
2814.4658696288
 21
1709.0782653679
  0
LINE
  5
3E8
100
AcDbEntity
  8
6_ALL_SURFS
100
AcDbLine
 62
7
  6
CONTINUOUS
 10
2844.376486473
 20
1210.8074590718
 11
2835.6790730644
 21
1214.9861145381
  0
LINE
  5
3E9
100
AcDbEntity
  8
6_ALL_SURFS
100
AcDbLine
 62
7
  6
CONTINUOUS
 10
2835.4857557429
 20
1201.1385977587
 11
2831.2431150558
 21
1203.588728959
  0
LINE
  5
3EA
100
AcDbEntity
  8
6_ALL_SURFS
100
AcDbLine
 62
7
  6
CONTINUOUS
 10
2839.0530013629
 20
1204.3792279834
 11
2834.8103606758
 21
1206.8293591837
  0
LINE
  5
3EB
100
AcDbEntity
  8
6_ALL_SURFS
100
AcDbLine
 62
7
  6
CONTINUOUS
 10
2844.376486473
 20
1206.1302594431
 11
2840.1338457859
 21
1208.5803906434
  0
LINE
  5
3EC
100
AcDbEntity
  8
0
100
AcDbLine
 62
7
  6
CONTINUOUS
 10
2628.3907201595
 20
1551.578757905
 11
2628.3907201595
 21
1555.9056230518
  0
LINE
  5
3ED
100
AcDbEntity
  8
0
100
AcDbLine
 62
7
  6
CONTINUOUS
 10
2642.4621451052
 20
1569.7466190852
 11
2642.4621451052
 21
1559.7050263861
  0
LINE
  5
3EE
100
AcDbEntity
  8
0
100
AcDbLine
 62
7
  6
CONTINUOUS
 10
2645.2905722299
 20
1568.5246006079
 11
2645.2905722299
 21
1575.2995981391
  0
LINE
  5
3EF
100
AcDbEntity
  8
0
100
AcDbLine
 62
7
  6
CONTINUOUS
 10
2649.533212917
 20
1566.0744694076
 11
2649.533212917
 21
1573.8301710858
  0
LINE
  5
3F0
100
AcDbEntity
  8
0
100
AcDbLine
 62
7
  6
CONTINUOUS
 10
2829.3151120337
 20
1677.6544807
 11
2808.1019085981
 21
1665.4038246983
  0
LINE
  5
3F1
100
AcDbEntity
  8
0
100
AcDbLine
 62
7
  6
CONTINUOUS
 10
2808.4553231363
 20
1662.7505583347
 11
2805.6134164812
 21
1661.109353086
  0
LINE
  5
3F2
100
AcDbEntity
  8
0
100
AcDbLine
 62
7
  6
CONTINUOUS
 10
2628.3907201595
 20
1555.9056230518
 11
2489.9311891841
 21
1475.9450414601
  0
LINE
  5
3F3
100
AcDbEntity
  8
0
100
AcDbLine
 62
7
  6
CONTINUOUS
 10
2801.0308407862
 20
1653.5645710195
 11
2649.533212917
 21
1566.0744694076
  0
LINE
  5
3F4
100
AcDbEntity
  8
0
100
AcDbLine
 62
7
  6
CONTINUOUS
 10
2642.4621451052
 20
1559.7050263861
 11
2628.3907201595
 21
1551.578757905
  0
LINE
  5
3F5
100
AcDbEntity
  8
0
100
AcDbLine
 62
7
  6
CONTINUOUS
 10
2820.1227238783
 20
1658.4617862973
 11
2841.3359273139
 21
1670.712442299
  0
LINE
  5
3F6
100
AcDbEntity
  8
6_ALL_SURFS
100
AcDbLine
 62
7
  6
CONTINUOUS
 10
2815.17297641
 20
1257.0255306587
 11
2402.9297229782
 21
1495.0966122912
  0
LINE
  5
3F7
100
AcDbEntity
  8
6_ALL_SURFS
100
AcDbLine
 62
7
  6
CONTINUOUS
 10
2406.4652568842
 20
1501.2203365431
 11
2818.7085103159
 21
1263.1492549106
  0
LINE
  5
3F8
100
AcDbEntity
  8
0
100
AcDbLine
 62
7
  6
CONTINUOUS
 10
2820.1227238783
 20
1635.6028760879
 11
2839.9217137515
 21
1647.0368216895
  0
LINE
  5
3F9
100
AcDbEntity
  8
6_ALL_SURFS
100
AcDbLine
 62
7
  6
CONTINUOUS
 10
2824.3653645654
 20
1281.1168837131
 11
2437.5779552564
 21
1504.4871781436
  0
LINE
  5
3FA
100
AcDbEntity
  8
0
100
AcDbLine
 62
7
  6
CONTINUOUS
 10
2825.830237445
 20
1281.962849943
 11
2440.0784462218
 21
1504.7350734147
  0
LINE
  5
3FB
100
AcDbEntity
  8
6_ALL_SURFS
100
AcDbLine
 62
7
  6
CONTINUOUS
 10
2839.6196578243
 20
1203.5259322552
 11
2839.7693879503
 21
1202.8636158589
  0
LINE
  5
3FC
100
AcDbEntity
  8
6_ALL_SURFS
100
AcDbLine
 62
7
  6
CONTINUOUS
 10
2801.3843941768
 20
1203.7592332846
 11
2801.3843941768
 21
1211.1067401376
  0
LINE
  5
3FD
100
AcDbEntity
  8
0
100
AcDbLine
 62
7
  6
CONTINUOUS
 10
2808.1019085981
 20
1665.4038246983
 11
2808.1019085981
 21
1662.9546557473
  0
LINE
  5
3FE
100
AcDbEntity
  8
0
100
AcDbLine
 62
7
  6
CONTINUOUS
 10
2814.4658696288
 20
1709.0782653679
 11
2814.4658696288
 21
1718.0585515216
  0
LINE
  5
3FF
100
AcDbEntity
  8
6_ALL_SURFS
100
AcDbLine
 62
7
  6
CONTINUOUS
 10
2815.17297641
 20
1203.1438137365
 11
2815.17297641
 21
1257.0255306587
  0
LINE
  5
400
100
AcDbEntity
  8
0
100
AcDbLine
 62
7
  6
CONTINUOUS
 10
2818.0014035347
 20
1657.2376829465
 11
2818.0014035347
 21
1634.3787727371
  0
LINE
  5
401
100
AcDbEntity
  8
0
100
AcDbLine
 62
7
  6
CONTINUOUS
 10
2820.1227238783
 20
1635.6028760879
 11
2820.1227238783
 21
1658.4617862973
  0
LINE
  5
402
100
AcDbEntity
  8
0
100
AcDbLine
 62
7
  6
CONTINUOUS
 10
2635.9676234208
 20
1391.6087871562
 11
3000.0813996903
 21
1601.8850253533
  0
LINE
  5
403
100
AcDbEntity
  8
6_ALL_SURFS
100
AcDbLine
 62
7
  6
CONTINUOUS
 10
2651.5239726069
 20
1382.6249727549
 11
3015.6377488764
 21
1592.901210952
  0
LINE
  5
404
100
AcDbEntity
  8
6_ALL_SURFS
100
AcDbLine
 62
7
  6
CONTINUOUS
 10
3036.3913329042
 20
1315.9578074728
 11
3032.645138799
 21
1318.1212400462
  0
LINE
  5
405
100
AcDbEntity
  8
0
100
AcDbLine
 62
7
  6
CONTINUOUS
 10
2624.6445260543
 20
1553.7421904784
 11
2628.3907201595
 21
1551.578757905
  0
LINE
  5
406
100
AcDbEntity
  8
6_ALL_SURFS
100
AcDbLine
 62
7
  6
CONTINUOUS
 10
3057.5338256617
 20
1330.4535189754
 11
3053.2911849745
 21
1332.9036501758
  0
LINE
  5
407
100
AcDbEntity
  8
0
100
AcDbLine
 62
7
  6
CONTINUOUS
 10
2645.2905722299
 20
1568.5246006079
 11
2649.533212917
 21
1566.0744694076
  0
LINE
  5
408
100
AcDbEntity
  8
0
100
AcDbLine
 62
7
  6
CONTINUOUS
 10
2829.3151120337
 20
1700.5028061667
 11
2829.3151120337
 21
1677.6544807
  0
LINE
  5
409
100
AcDbEntity
  8
6_ALL_SURFS
100
AcDbLine
 62
7
  6
CONTINUOUS
 10
2840.1338457859
 20
1208.5803906434
 11
2840.1338457859
 21
1212.845827592
  0
LINE
  5
40A
100
AcDbEntity
  8
0
100
AcDbLine
 62
7
  6
CONTINUOUS
 10
2841.3359273139
 20
1649.4863113903
 11
2841.3359273139
 21
1670.712442299
  0
LINE
  5
40B
100
AcDbEntity
  8
6_ALL_SURFS
100
AcDbLine
 62
7
  6
CONTINUOUS
 10
2844.376486473
 20
1206.1302594431
 11
2844.376486473
 21
1210.8074590718
  0
LINE
  5
40C
100
AcDbEntity
  8
6_ALL_SURFS
100
AcDbLine
 62
7
  6
CONTINUOUS
 10
2698.174691653
 20
1355.6841142939
 11
3038.9722726555
 21
1552.4952156318
  0
LINE
  5
40D
100
AcDbEntity
  8
6_ALL_SURFS
100
AcDbLine
 62
7
  6
CONTINUOUS
 10
3057.5338256617
 20
1338.2092206536
 11
3054.0000248848
 21
1340.2499957693
  0
LINE
  5
40E
100
AcDbEntity
  8
0
100
AcDbLine
 62
7
  6
CONTINUOUS
 10
2645.9994121402
 20
1575.8709462015
 11
2649.533212917
 21
1573.8301710858
  0
LINE
  5
40F
100
AcDbEntity
  8
6_ALL_SURFS
100
AcDbLine
 62
7
  6
CONTINUOUS
 10
2824.3653645654
 20
1281.1168837131
 11
3204.7888128438
 21
1500.8119813431
  0
LINE
  5
410
100
AcDbEntity
  8
6_ALL_SURFS
100
AcDbLine
 62
7
  6
CONTINUOUS
 10
3201.960385719
 20
1412.6418991068
 11
3200.9056961989
 21
1413.2509838468
  0
LINE
  5
411
100
AcDbEntity
  8
6_ALL_SURFS
100
AcDbLine
 62
7
  6
CONTINUOUS
 10
3163.7235584483
 20
1434.723722765
 11
3161.7704533083
 21
1435.8516438391
  0
LINE
  5
412
100
AcDbEntity
  8
6_ALL_SURFS
100
AcDbLine
 62
7
  6
CONTINUOUS
 10
3127.0370590242
 20
1455.9102298248
 11
2999.3815132321
 21
1529.6314941757
  0
LINE
  5
413
100
AcDbEntity
  8
6_ALL_SURFS
100
AcDbLine
 62
7
  6
CONTINUOUS
 10
2937.1744449999
 20
1565.556167038
 11
2818.0014035347
 21
1634.3787727371
  0
LINE
  5
414
100
AcDbEntity
  8
6_ALL_SURFS
100
AcDbLine
 62
7
  6
CONTINUOUS
 10
3165.7637190478
 20
1435.9946959867
 11
3161.8357525869
 21
1438.2631023612
  0
LINE
  5
415
100
AcDbEntity
  8
6_ALL_SURFS
100
AcDbLine
 62
7
  6
CONTINUOUS
 10
3129.1575462535
 20
1457.1348143003
 11
3001.5020004614
 21
1530.8560786512
  0
LINE
  5
416
100
AcDbEntity
  8
6_ALL_SURFS
100
AcDbLine
 62
7
  6
CONTINUOUS
 10
2939.2949322292
 20
1566.7807515135
 11
2820.1227238783
 21
1635.6028760879
  0
LINE
  5
417
100
AcDbEntity
  8
0
100
AcDbLine
 62
7
  6
CONTINUOUS
 10
2808.1019085981
 20
1662.9546557473
 11
2818.0014035347
 21
1657.2376829465
  0
LINE
  5
418
100
AcDbEntity
  8
0
100
AcDbLine
 62
7
  6
CONTINUOUS
 10
2820.1227238783
 20
1658.4617862973
 11
2808.1019085981
 21
1665.4038246983
  0
LINE
  5
419
100
AcDbEntity
  8
6_ALL_SURFS
100
AcDbLine
 62
7
  6
CONTINUOUS
 10
3148.9565361267
 20
1468.5687599019
 11
3021.3009903347
 21
1542.2900242528
  0
LINE
  5
41A
100
AcDbEntity
  8
6_ALL_SURFS
100
AcDbLine
 62
7
  6
CONTINUOUS
 10
2959.0939221025
 20
1578.2146971151
 11
2839.9217137515
 21
1647.0368216895
  0
LINE
  5
41B
100
AcDbEntity
  8
6_ALL_SURFS
100
AcDbLine
 62
7
  6
CONTINUOUS
 10
3151.784407842
 20
1470.2018599523
 11
3024.1288620499
 21
1543.9231243032
  0
LINE
  5
41C
100
AcDbEntity
  8
6_ALL_SURFS
100
AcDbLine
 62
7
  6
CONTINUOUS
 10
2961.9217938178
 20
1579.8477971655
 11
2841.3359273139
 21
1649.4863113903
  0
LINE
  5
41D
100
AcDbEntity
  8
6_ALL_SURFS
100
AcDbLine
 62
7
  6
CONTINUOUS
 10
3235.901511216
 20
1504.0788229435
 11
2818.7085103159
 21
1263.1492549106
  0
LINE
  5
41E
100
AcDbEntity
  8
6_ALL_SURFS
100
AcDbLine
 62
7
  6
CONTINUOUS
 10
3233.7801908724
 20
1432.2360525893
 11
3229.5375501853
 21
1434.6861837897
  0
LINE
  5
41F
100
AcDbEntity
  8
0
100
AcDbLine
 62
7
  6
CONTINUOUS
 10
2829.3151120337
 20
1677.6544807
 11
2841.3359273139
 21
1670.712442299
  0
LINE
  5
420
100
AcDbEntity
  8
6_ALL_SURFS
100
AcDbLine
 62
7
  6
CONTINUOUS
 10
3036.3913329042
 20
1315.9578074728
 11
3036.3913329042
 21
1320.2846726196
  0
LINE
  5
421
100
AcDbEntity
  8
6_ALL_SURFS
100
AcDbLine
 62
7
  6
CONTINUOUS
 10
3038.9722726555
 20
1552.4952156318
 11
3038.9722726555
 21
1579.4254893502
  0
LINE
  5
422
100
AcDbEntity
  8
6_ALL_SURFS
100
AcDbLine
 62
7
  6
CONTINUOUS
 10
3050.4627578498
 20
1334.1256686531
 11
3050.4627578498
 21
1324.0840759539
  0
LINE
  5
423
100
AcDbEntity
  8
6_ALL_SURFS
100
AcDbLine
 62
7
  6
CONTINUOUS
 10
3053.2911849745
 20
1332.9036501758
 11
3053.2911849745
 21
1339.6786477069
  0
LINE
  5
424
100
AcDbEntity
  8
6_ALL_SURFS
100
AcDbLine
 62
7
  6
CONTINUOUS
 10
3057.5338256617
 20
1330.4535189754
 11
3057.5338256617
 21
1338.2092206536
  0
LINE
  5
425
100
AcDbEntity
  8
6_ALL_SURFS
100
AcDbLine
 62
7
  6
CONTINUOUS
 10
2811.2800012472
 20
1205.3920125853
 11
2804.9199280828
 21
1201.7190610332
  0
LINE
  5
426
100
AcDbEntity
  8
6_ALL_SURFS
100
AcDbLine
 62
7
  6
CONTINUOUS
 10
2815.17297641
 20
1203.1438137365
 11
2835.6790730644
 21
1214.9861145381
  0
LINE
  5
427
100
AcDbEntity
  8
6_ALL_SURFS
100
AcDbLine
 62
7
  6
CONTINUOUS
 10
3233.7801908724
 20
1437.1343904913
 11
3213.6140292258
 21
1425.4884026538
  0
LINE
  5
428
100
AcDbEntity
  8
6_ALL_SURFS
100
AcDbLine
 62
7
  6
CONTINUOUS
 10
3036.3913329042
 20
1320.2846726196
 11
2886.5907613098
 21
1233.7746234878
  0
LINE
  5
429
100
AcDbEntity
  8
6_ALL_SURFS
100
AcDbLine
 62
7
  6
CONTINUOUS
 10
3239.4370451219
 20
1435.5028941898
 11
3233.7801908724
 21
1432.2360525893
  0
LINE
  5
42A
100
AcDbEntity
  8
6_ALL_SURFS
100
AcDbLine
 62
7
  6
CONTINUOUS
 10
3209.0314535309
 20
1417.9436205874
 11
3057.5338256617
 21
1330.4535189754
  0
LINE
  5
42B
100
AcDbEntity
  8
0
100
AcDbLine
 62
7
  6
CONTINUOUS
 10
3000.0813996903
 20
1601.8850253533
 11
2814.4658696288
 21
1709.0782653679
  0
LINE
  5
42C
100
AcDbEntity
  8
6_ALL_SURFS
100
AcDbLine
 62
7
  6
CONTINUOUS
 10
3000.0813996903
 20
1601.8850253533
 11
3189.9440137145
 21
1492.2390881401
  0
LINE
  5
42D
100
AcDbEntity
  8
6_ALL_SURFS
100
AcDbLine
 62
7
  6
CONTINUOUS
 10
3197.7191335556
 20
1496.7292312169
 11
2814.4658696288
 21
1718.0585515216
  0
LINE
  5
42E
100
AcDbEntity
  8
6_ALL_SURFS
100
AcDbLine
 62
7
  6
CONTINUOUS
 10
3204.7888128438
 20
1500.8119813431
 11
2818.0014035347
 21
1724.1822757736
  0
LINE
  5
42F
100
AcDbEntity
  8
6_ALL_SURFS
100
AcDbLine
 62
7
  6
CONTINUOUS
 10
3221.7593755922
 20
1424.0758447084
 11
3201.960385719
 21
1412.6418991068
  0
LINE
  5
430
100
AcDbEntity
  8
6_ALL_SURFS
100
AcDbLine
 62
7
  6
CONTINUOUS
 10
3050.4627578498
 20
1324.0840759539
 11
3036.3913329042
 21
1315.9578074728
  0
LINE
  5
431
100
AcDbEntity
  8
6_ALL_SURFS
100
AcDbLine
 62
7
  6
CONTINUOUS
 10
3235.901511216
 20
1504.0788229435
 11
2823.6582577842
 21
1742.149904576
  0
LINE
  5
432
100
AcDbEntity
  8
0
100
AcDbLine
 62
7
  6
CONTINUOUS
 10
3238.4020021814
 20
1504.3267182146
 11
2826.1587487496
 21
1742.3977998471
  0
LINE
  5
433
100
AcDbEntity
  8
6_ALL_SURFS
100
AcDbLine
 62
7
  6
CONTINUOUS
 10
3201.960385719
 20
1413.8600685868
 11
3201.960385719
 21
1412.6418991068
  0
LINE
  5
434
100
AcDbEntity
  8
6_ALL_SURFS
100
AcDbLine
 62
7
  6
CONTINUOUS
 10
3225.2949094982
 20
1430.1995689603
 11
3225.2949094982
 21
1432.2341280907
  0
LINE
  5
435
100
AcDbEntity
  8
6_ALL_SURFS
100
AcDbLine
 62
7
  6
CONTINUOUS
 10
3233.7801908724
 20
1432.2360525893
 11
3233.7801908724
 21
1437.1343904913
  0
LINE
  5
436
100
AcDbEntity
  8
6_ALL_SURFS
100
AcDbLine
 62
7
  6
CONTINUOUS
 10
3239.4370451219
 20
1502.0386506921
 11
3239.4370451219
 21
1435.5028941898
  0
LINE
  5
437
100
AcDbEntity
  8
0
100
AcDbLine
 62
7
  6
CONTINUOUS
 10
971.5569536104
 20
529.4083831058
 11
971.5569536104
 21
629.5111122031
  0
LINE
  5
438
100
AcDbEntity
  8
0
100
AcDbLine
 62
7
  6
CONTINUOUS
 10
977.5569536104
 20
529.4083831058
 11
977.5569536104
 21
558.5111122031
  0
LINE
  5
439
100
AcDbEntity
  8
0
100
AcDbLine
 62
7
  6
CONTINUOUS
 10
991.0569536104
 20
544.5111122031
 11
991.0569536104
 21
558.5111122031
  0
LINE
  5
43A
100
AcDbEntity
  8
0
100
AcDbLine
 62
7
  6
CONTINUOUS
 10
991.5569536104
 20
544.5111122031
 11
991.5569536104
 21
521.5111122031
  0
LINE
  5
43B
100
AcDbEntity
  8
0
100
AcDbLine
 62
7
  6
CONTINUOUS
 10
994.5569536104
 20
524.5111122031
 11
994.5569536104
 21
544.5111122031
  0
LINE
  5
43C
100
AcDbEntity
  8
6_ALL_SURFS
100
AcDbLine
 62
7
  6
CONTINUOUS
 10
1534.5569536104
 20
521.5111122031
 11
991.5569536104
 21
521.5111122031
  0
LINE
  5
43D
100
AcDbEntity
  8
6_ALL_SURFS
100
AcDbLine
 62
7
  6
CONTINUOUS
 10
1531.5569536104
 20
524.5111122031
 11
994.5569536104
 21
524.5111122031
  0
LINE
  5
43E
100
AcDbEntity
  8
6_ALL_SURFS
100
AcDbLine
 62
7
  6
CONTINUOUS
 10
1531.5569536104
 20
526.5111122031
 11
994.5569536104
 21
526.5111122031
  0
LINE
  5
43F
100
AcDbEntity
  8
6_ALL_SURFS
100
AcDbLine
 62
7
  6
CONTINUOUS
 10
1554.5569536104
 20
529.4083806548
 11
1548.5569536104
 21
529.4083806548
  0
LINE
  5
440
100
AcDbEntity
  8
0
100
AcDbLine
 62
7
  6
CONTINUOUS
 10
977.5569536104
 20
529.4083806548
 11
971.5569536104
 21
529.4083806548
  0
LINE
  5
441
100
AcDbEntity
  8
6_ALL_SURFS
100
AcDbLine
 62
7
  6
CONTINUOUS
 10
1554.5569536104
 20
529.4390070215
 11
1548.5569536104
 21
529.4390070215
  0
LINE
  5
442
100
AcDbEntity
  8
0
100
AcDbLine
 62
7
  6
CONTINUOUS
 10
971.5569536104
 20
529.4390070215
 11
977.5569536104
 21
529.4390070215
  0
LINE
  5
443
100
AcDbEntity
  8
6_ALL_SURFS
100
AcDbLine
 62
7
  6
CONTINUOUS
 10
1554.5569536104
 20
541.6859653655
 11
1548.5569536104
 21
541.6859653655
  0
LINE
  5
444
100
AcDbEntity
  8
0
100
AcDbLine
 62
7
  6
CONTINUOUS
 10
971.5569536104
 20
541.6859653655
 11
977.5569536104
 21
541.6859653655
  0
LINE
  5
445
100
AcDbEntity
  8
6_ALL_SURFS
100
AcDbLine
 62
7
  6
CONTINUOUS
 10
1554.5569536104
 20
544.0111122031
 11
1548.5569536104
 21
544.0111122031
  0
LINE
  5
446
100
AcDbEntity
  8
0
100
AcDbLine
 62
7
  6
CONTINUOUS
 10
977.5569536104
 20
544.0111122031
 11
971.5569536104
 21
544.0111122031
  0
LINE
  5
447
100
AcDbEntity
  8
6_ALL_SURFS
100
AcDbLine
 62
7
  6
CONTINUOUS
 10
1535.0569536104
 20
544.5111122031
 11
991.0569536104
 21
544.5111122031
  0
LINE
  5
448
100
AcDbEntity
  8
6_ALL_SURFS
100
AcDbLine
 62
7
  6
CONTINUOUS
 10
1554.5569536104
 20
547.2402387627
 11
1548.5569536104
 21
547.2402387627
  0
LINE
  5
449
100
AcDbEntity
  8
0
100
AcDbLine
 62
7
  6
CONTINUOUS
 10
971.5569536104
 20
547.2402387627
 11
977.5569536104
 21
547.2402387627
  0
LINE
  5
44A
100
AcDbEntity
  8
6_ALL_SURFS
100
AcDbLine
 62
7
  6
CONTINUOUS
 10
1548.5569536104
 20
549.5111122031
 11
991.0569536104
 21
549.5111122031
  0
LINE
  5
44B
100
AcDbEntity
  8
0
100
AcDbLine
 62
7
  6
CONTINUOUS
 10
977.5569536104
 20
549.5111122031
 11
991.0569536104
 21
549.5111122031
  0
LINE
  5
44C
100
AcDbEntity
  8
0
100
AcDbLine
 62
7
  6
CONTINUOUS
 10
991.0569536104
 20
552.5111122031
 11
977.5569536104
 21
552.5111122031
  0
LINE
  5
44D
100
AcDbEntity
  8
6_ALL_SURFS
100
AcDbLine
 62
7
  6
CONTINUOUS
 10
1535.0569536104
 20
552.5111122031
 11
1548.5569536104
 21
552.5111122031
  0
LINE
  5
44E
100
AcDbEntity
  8
6_ALL_SURFS
100
AcDbLine
 62
7
  6
CONTINUOUS
 10
1554.5569536104
 20
558.5111122031
 11
1535.0569536104
 21
558.5111122031
  0
LINE
  5
44F
100
AcDbEntity
  8
0
100
AcDbLine
 62
7
  6
CONTINUOUS
 10
971.5569536104
 20
558.5111122031
 11
991.0569536104
 21
558.5111122031
  0
LINE
  5
450
100
AcDbEntity
  8
6_ALL_SURFS
100
AcDbLine
 62
7
  6
CONTINUOUS
 10
1554.5569536104
 20
624.5111122031
 11
971.5569536104
 21
624.5111122031
  0
LINE
  5
451
100
AcDbEntity
  8
6_ALL_SURFS
100
AcDbLine
 62
7
  6
CONTINUOUS
 10
971.5569536104
 20
629.5111122031
 11
1554.5569536104
 21
629.5111122031
  0
LINE
  5
452
100
AcDbEntity
  8
6_ALL_SURFS
100
AcDbLine
 62
7
  6
CONTINUOUS
 10
1531.5569536104
 20
524.5111122031
 11
1531.5569536104
 21
544.5111122031
  0
LINE
  5
453
100
AcDbEntity
  8
6_ALL_SURFS
100
AcDbLine
 62
7
  6
CONTINUOUS
 10
1534.5569536104
 20
544.5111122031
 11
1534.5569536104
 21
521.5111122031
  0
LINE
  5
454
100
AcDbEntity
  8
6_ALL_SURFS
100
AcDbLine
 62
7
  6
CONTINUOUS
 10
1535.0569536104
 20
544.5111122031
 11
1535.0569536104
 21
558.5111122031
  0
LINE
  5
455
100
AcDbEntity
  8
6_ALL_SURFS
100
AcDbLine
 62
7
  6
CONTINUOUS
 10
1548.5569536104
 20
529.4083831058
 11
1548.5569536104
 21
558.5111122031
  0
LINE
  5
456
100
AcDbEntity
  8
6_ALL_SURFS
100
AcDbLine
 62
7
  6
CONTINUOUS
 10
1554.5569536104
 20
529.4083831058
 11
1554.5569536104
 21
629.5111122031
  0
LINE
  5
457
100
AcDbEntity
  8
0
100
AcDbLine
 62
7
  6
CONTINUOUS
 10
971.5569536104
 20
1025.2547817715
 11
971.5569536104
 21
1030.2547817715
  0
LINE
  5
458
100
AcDbEntity
  8
6_ALL_SURFS
100
AcDbLine
 62
7
  6
CONTINUOUS
 10
971.5569536104
 20
1030.2547817715
 11
971.5569536104
 21
1620.2547817715
  0
LINE
  5
459
100
AcDbEntity
  8
0
100
AcDbLine
 62
7
  6
CONTINUOUS
 10
971.5569536104
 20
1620.2547817715
 11
971.5569536104
 21
1625.2547817715
  0
LINE
  5
45A
100
AcDbEntity
  8
6_ALL_SURFS
100
AcDbLine
 62
7
  6
CONTINUOUS
 10
1554.5569536104
 20
1025.2547817715
 11
971.5569536104
 21
1025.2547817715
  0
LINE
  5
45B
100
AcDbEntity
  8
6_ALL_SURFS
100
AcDbLine
 62
7
  6
CONTINUOUS
 10
971.5569536104
 20
1030.2547817715
 11
1554.5569536104
 21
1030.2547817715
  0
LINE
  5
45C
100
AcDbEntity
  8
0
100
AcDbLine
 62
7
  6
CONTINUOUS
 10
989.5569536104
 20
1056.2547817715
 11
989.5569536104
 21
1594.2547817715
  0
LINE
  5
45D
100
AcDbEntity
  8
0
100
AcDbLine
 62
7
  6
CONTINUOUS
 10
994.0569536104
 20
1078.2547817715
 11
994.0569536104
 21
1061.2547817715
  0
LINE
  5
45E
100
AcDbEntity
  8
6_ALL_SURFS
100
AcDbLine
 62
7
  6
CONTINUOUS
 10
1536.5569536104
 20
1056.2547817715
 11
989.5569536104
 21
1056.2547817715
  0
LINE
  5
45F
100
AcDbEntity
  8
6_ALL_SURFS
100
AcDbLine
 62
7
  6
CONTINUOUS
 10
1536.5569536104
 20
1061.2547817715
 11
989.5569536104
 21
1061.2547817715
  0
LINE
  5
460
100
AcDbEntity
  8
0
100
AcDbLine
 62
7
  6
CONTINUOUS
 10
989.5569536104
 20
1078.2547817715
 11
1252.0569536104
 21
1078.2547817715
  0
LINE
  5
461
100
AcDbEntity
  8
6_ALL_SURFS
100
AcDbLine
 62
7
  6
CONTINUOUS
 10
1274.0569536104
 20
1078.2547817715
 11
1536.5569536104
 21
1078.2547817715
  0
LINE
  5
462
100
AcDbEntity
  8
DEFAULT_3
100
AcDbLine
 62
7
  6
PHANTOM
 10
1221.5569536104
 20
1682.839877983
 11
1221.5569536104
 21
921.7439063566
  0
LINE
  5
463
100
AcDbEntity
  8
0
100
AcDbLine
 62
7
  6
CONTINUOUS
 10
1252.0569536104
 20
1061.2547817715
 11
1252.0569536104
 21
1589.2547817715
  0
LINE
  5
464
100
AcDbEntity
  8
3_ALL_AXES
100
AcDbLine
 62
7
  6
CENTER
 10
1263.0569536104
 20
1329.0947817715
 11
1263.0569536104
 21
1308.7746817715
  0
LINE
  5
465
100
AcDbEntity
  8
3_ALL_AXES
100
AcDbLine
 62
7
  6
CENTER
 10
1263.0569536104
 20
1329.0947817715
 11
1263.0569536104
 21
1349.4148817715
  0
LINE
  5
466
100
AcDbEntity
  8
6_ALL_SURFS
100
AcDbLine
 62
7
  6
CONTINUOUS
 10
1274.0569536104
 20
1061.2547817715
 11
1274.0569536104
 21
1589.2547817715
  0
LINE
  5
467
100
AcDbEntity
  8
3_ALL_AXES
100
AcDbLine
 62
7
  6
CENTER
 10
1263.0569536104
 20
1329.0947817715
 11
950.3838001135
 21
1329.0947817715
  0
LINE
  5
468
100
AcDbEntity
  8
3_ALL_AXES
100
AcDbLine
 62
7
  6
CENTER
 10
1263.0569536104
 20
1329.0947817715
 11
1586.3431200664
 21
1329.0947817715
  0
LINE
  5
469
100
AcDbEntity
  8
6_ALL_SURFS
100
AcDbLine
 62
7
  6
CONTINUOUS
 10
1532.0569536104
 20
1078.2547817715
 11
1532.0569536104
 21
1061.2547817715
  0
LINE
  5
46A
100
AcDbEntity
  8
6_ALL_SURFS
100
AcDbLine
 62
7
  6
CONTINUOUS
 10
1536.5569536104
 20
1056.2547817715
 11
1536.5569536104
 21
1594.2547817715
  0
LINE
  5
46B
100
AcDbEntity
  8
6_ALL_SURFS
100
AcDbLine
 62
7
  6
CONTINUOUS
 10
1536.5569536104
 20
1589.2547817715
 11
989.5569536104
 21
1589.2547817715
  0
LINE
  5
46C
100
AcDbEntity
  8
6_ALL_SURFS
100
AcDbLine
 62
7
  6
CONTINUOUS
 10
1536.5569536104
 20
1594.2547817715
 11
989.5569536104
 21
1594.2547817715
  0
LINE
  5
46D
100
AcDbEntity
  8
6_ALL_SURFS
100
AcDbLine
 62
7
  6
CONTINUOUS
 10
1554.5569536104
 20
1025.2547817715
 11
1554.5569536104
 21
1625.2547817715
  0
LINE
  5
46E
100
AcDbEntity
  8
6_ALL_SURFS
100
AcDbLine
 62
7
  6
CONTINUOUS
 10
1554.5569536104
 20
1620.2547817715
 11
971.5569536104
 21
1620.2547817715
  0
LINE
  5
46F
100
AcDbEntity
  8
6_ALL_SURFS
100
AcDbLine
 62
7
  6
CONTINUOUS
 10
1554.5569536104
 20
1625.2547817715
 11
971.5569536104
 21
1625.2547817715
  0
LINE
  5
470
100
AcDbEntity
  8
6_ALL_SURFS
100
AcDbLine
 62
7
  6
CONTINUOUS
 10
1998.2700577664
 20
1025.2547817715
 11
1923.2700577664
 21
1025.2547817715
  0
LINE
  5
471
100
AcDbEntity
  8
6_ALL_SURFS
100
AcDbLine
 62
7
  6
CONTINUOUS
 10
2006.095204604
 20
1059.8276101827
 11
2007.012396245
 21
1060.0393605575
  0
LINE
  5
472
100
AcDbEntity
  8
6_ALL_SURFS
100
AcDbLine
 62
7
  6
CONTINUOUS
 10
2006.2700577664
 20
1066.5547817715
 11
2000.5409312068
 21
1066.5547817715
  0
LINE
  5
473
100
AcDbEntity
  8
3_AXES_OTHER
100
AcDbLine
 62
7
  6
CENTER
 10
1948.2700577664
 20
1085.2547817715
 11
1936.3461546626
 21
1085.2547817715
  0
LINE
  5
474
100
AcDbEntity
  8
3_AXES_OTHER
100
AcDbLine
 62
7
  6
CENTER
 10
1948.2700577664
 20
1085.2547817715
 11
1960.1939608701
 21
1085.2547817715
  0
LINE
  5
475
100
AcDbEntity
  8
3_AXES_OTHER
100
AcDbLine
 62
7
  6
CENTER
 10
1948.2700577664
 20
1125.2547817715
 11
1936.451469302
 21
1125.2547817715
  0
LINE
  5
476
100
AcDbEntity
  8
3_AXES_OTHER
100
AcDbLine
 62
7
  6
CENTER
 10
1948.2700577664
 20
1125.2547817715
 11
1960.0886462307
 21
1125.2547817715
  0
LINE
  5
477
100
AcDbEntity
  8
6_ALL_SURFS
100
AcDbLine
 62
7
  6
CONTINUOUS
 10
1918.2700577664
 20
1620.2547817715
 11
1918.2700577664
 21
1030.2547817715
  0
LINE
  5
478
100
AcDbEntity
  8
3_AXES_OTHER
100
AcDbLine
 62
7
  6
CENTER
 10
1948.2700577664
 20
1125.2547817715
 11
1948.2700577664
 21
1113.4361933072
  0
LINE
  5
479
100
AcDbEntity
  8
3_AXES_OTHER
100
AcDbLine
 62
7
  6
CENTER
 10
1948.2700577664
 20
1085.2547817715
 11
1948.2700577664
 21
1073.3308786678
  0
LINE
  5
47A
100
AcDbEntity
  8
3_AXES_OTHER
100
AcDbLine
 62
7
  6
CENTER
 10
1948.2700577664
 20
1085.2547817715
 11
1948.2700577664
 21
1097.1786848752
  0
LINE
  5
47B
100
AcDbEntity
  8
3_AXES_OTHER
100
AcDbLine
 62
7
  6
CENTER
 10
1948.2700577664
 20
1125.2547817715
 11
1948.2700577664
 21
1137.0733702358
  0
LINE
  5
47C
100
AcDbEntity
  8
6_ALL_SURFS
100
AcDbLine
 62
7
  6
CONTINUOUS
 10
1989.2700577664
 20
1025.2547817715
 11
1989.2700577664
 21
1054.2547817715
  0
LINE
  5
47D
100
AcDbEntity
  8
6_ALL_SURFS
100
AcDbLine
 62
7
  6
CONTINUOUS
 10
2007.5700577664
 20
1338.1047817715
 11
2002.2700577664
 21
1338.1047817715
  0
LINE
  5
47E
100
AcDbEntity
  8
6_ALL_SURFS
100
AcDbLine
 62
7
  6
CONTINUOUS
 10
1998.7700577664
 20
1617.2547817715
 11
1998.7700577664
 21
1588.7355224699
  0
LINE
  5
47F
100
AcDbEntity
  8
6_ALL_SURFS
100
AcDbLine
 62
7
  6
CONTINUOUS
 10
2000.2700577664
 20
1358.0047817715
 11
2000.2700577664
 21
1368.0047817715
  0
LINE
  5
480
100
AcDbEntity
  8
6_ALL_SURFS
100
AcDbLine
 62
7
  6
CONTINUOUS
 10
2000.2700577664
 20
1579.7575026593
 11
2000.2700577664
 21
1584.7520608837
  0
LINE
  5
481
100
AcDbEntity
  8
6_ALL_SURFS
100
AcDbLine
 62
7
  6
CONTINUOUS
 10
2000.2700577664
 20
1588.3305032309
 11
2000.2700577664
 21
1592.2547817715
  0
LINE
  5
482
100
AcDbEntity
  8
6_ALL_SURFS
100
AcDbLine
 62
7
  6
CONTINUOUS
 10
2002.2700577664
 20
1338.1047817715
 11
2002.2700577664
 21
1126.2547817715
  0
LINE
  5
483
100
AcDbEntity
  8
6_ALL_SURFS
100
AcDbLine
 62
7
  6
CONTINUOUS
 10
2003.2700577664
 20
1066.5547817715
 11
2003.2700577664
 21
1030.2547817715
  0
LINE
  5
484
100
AcDbEntity
  8
6_ALL_SURFS
100
AcDbLine
 62
7
  6
CONTINUOUS
 10
2004.7700577664
 20
1625.2547817715
 11
2004.7700577664
 21
1617.2547817715
  0
LINE
  5
485
100
AcDbEntity
  8
6_ALL_SURFS
100
AcDbLine
 62
7
  6
CONTINUOUS
 10
2004.7700577664
 20
1582.2547817715
 11
2004.7700577664
 21
1368.0047817715
  0
LINE
  5
486
100
AcDbEntity
  8
6_ALL_SURFS
100
AcDbLine
 62
7
  6
CONTINUOUS
 10
2007.5700577664
 20
1358.0047817715
 11
2007.5700577664
 21
1338.1047817715
  0
LINE
  5
487
100
AcDbEntity
  8
6_ALL_SURFS
100
AcDbLine
 62
7
  6
CONTINUOUS
 10
1995.2700577664
 20
1358.0047817715
 11
2007.5700577664
 21
1358.0047817715
  0
LINE
  5
488
100
AcDbEntity
  8
6_ALL_SURFS
100
AcDbLine
 62
7
  6
CONTINUOUS
 10
2004.7700577664
 20
1368.0047817715
 11
1995.2700577664
 21
1368.0047817715
  0
LINE
  5
489
100
AcDbEntity
  8
6_ALL_SURFS
100
AcDbLine
 62
7
  6
CONTINUOUS
 10
2026.2700577664
 20
1620.2547817715
 11
2026.2700577664
 21
1592.2547817715
  0
LINE
  5
48A
100
AcDbEntity
  8
6_ALL_SURFS
100
AcDbLine
 62
7
  6
CONTINUOUS
 10
2000.5409312068
 20
1066.5547817715
 11
1989.2700577664
 21
1054.2547817715
  0
LINE
  5
48B
100
AcDbEntity
  8
6_ALL_SURFS
100
AcDbLine
 62
7
  6
CONTINUOUS
 10
1998.7700577664
 20
1592.2547817715
 11
2026.2700577664
 21
1592.2547817715
  0
LINE
  5
48C
100
AcDbEntity
  8
6_ALL_SURFS
100
AcDbLine
 62
7
  6
CONTINUOUS
 10
2004.7700577664
 20
1617.2547817715
 11
1998.7700577664
 21
1617.2547817715
  0
LINE
  5
48D
100
AcDbEntity
  8
6_ALL_SURFS
100
AcDbLine
 62
7
  6
CONTINUOUS
 10
1923.2700577664
 20
1625.2547817715
 11
2021.2700577664
 21
1625.2547817715
  0
LINE
  5
48E
100
AcDbEntity
  8
0
100
AcDbLine
 62
7
  6
CONTINUOUS
 10
520.748042362
 20
1025.2547817715
 11
595.748042362
 21
1025.2547817715
  0
LINE
  5
48F
100
AcDbEntity
  8
0
100
AcDbLine
 62
7
  6
CONTINUOUS
 10
584.748042362
 20
1028.2547817715
 11
520.748042362
 21
1028.2547817715
  0
LINE
  5
490
100
AcDbEntity
  8
0
100
AcDbLine
 62
7
  6
CONTINUOUS
 10
595.748042362
 20
1061.2547817715
 11
584.748042362
 21
1061.2547817715
  0
LINE
  5
491
100
AcDbEntity
  8
6_ALL_SURFS
100
AcDbLine
 62
7
  6
CONTINUOUS
 10
512.9228955244
 20
1059.8276101827
 11
512.0057038834
 21
1060.0393605575
  0
LINE
  5
492
100
AcDbEntity
  8
6_ALL_SURFS
100
AcDbLine
 62
7
  6
CONTINUOUS
 10
512.748042362
 20
1066.5547817715
 11
515.748042362
 21
1066.5547817715
  0
LINE
  5
493
100
AcDbEntity
  8
0
100
AcDbLine
 62
7
  6
CONTINUOUS
 10
518.748042362
 20
1078.2547817715
 11
515.748042362
 21
1078.2547817715
  0
LINE
  5
494
100
AcDbEntity
  8
3_AXES_OTHER
100
AcDbLine
 62
7
  6
CENTER
 10
553.748042362
 20
1085.2547817715
 11
541.7281384586
 21
1085.2547817715
  0
LINE
  5
495
100
AcDbEntity
  8
3_AXES_OTHER
100
AcDbLine
 62
7
  6
CENTER
 10
553.748042362
 20
1085.2547817715
 11
565.7679462654
 21
1085.2547817715
  0
LINE
  5
496
100
AcDbEntity
  8
3_AXES_OTHER
100
AcDbLine
 62
7
  6
CENTER
 10
553.748042362
 20
1125.2547817715
 11
541.8597817578
 21
1125.2547817715
  0
LINE
  5
497
100
AcDbEntity
  8
3_AXES_OTHER
100
AcDbLine
 62
7
  6
CENTER
 10
553.748042362
 20
1125.2547817715
 11
565.6363029662
 21
1125.2547817715
  0
LINE
  5
498
100
AcDbEntity
  8
0
100
AcDbLine
 62
7
  6
CONTINUOUS
 10
492.748042362
 20
1620.2547817715
 11
492.748042362
 21
1592.2547817715
  0
LINE
  5
499
100
AcDbEntity
  8
0
100
AcDbLine
 62
7
  6
CONTINUOUS
 10
495.748042362
 20
1592.2547817715
 11
495.748042362
 21
1620.2547817715
  0
LINE
  5
49A
100
AcDbEntity
  8
6_ALL_SURFS
100
AcDbLine
 62
7
  6
CONTINUOUS
 10
511.448042362
 20
1358.0047817715
 11
511.448042362
 21
1338.1047817715
  0
LINE
  5
49B
100
AcDbEntity
  8
6_ALL_SURFS
100
AcDbLine
 62
7
  6
CONTINUOUS
 10
514.248042362
 20
1582.2547817715
 11
514.248042362
 21
1368.0047817715
  0
LINE
  5
49C
100
AcDbEntity
  8
0
100
AcDbLine
 62
7
  6
CONTINUOUS
 10
515.748042362
 20
1078.2547817715
 11
515.748042362
 21
1030.2547817715
  0
LINE
  5
49D
100
AcDbEntity
  8
6_ALL_SURFS
100
AcDbLine
 62
7
  6
CONTINUOUS
 10
516.748042362
 20
1338.1047817715
 11
516.748042362
 21
1126.2547817715
  0
LINE
  5
49E
100
AcDbEntity
  8
0
100
AcDbLine
 62
7
  6
CONTINUOUS
 10
518.748042362
 20
1030.2547817715
 11
518.748042362
 21
1622.2547817715
  0
LINE
  5
49F
100
AcDbEntity
  8
3_AXES_OTHER
100
AcDbLine
 62
7
  6
CENTER
 10
553.748042362
 20
1125.2547817715
 11
553.748042362
 21
1113.3665211673
  0
LINE
  5
4A0
100
AcDbEntity
  8
3_AXES_OTHER
100
AcDbLine
 62
7
  6
CENTER
 10
553.748042362
 20
1085.2547817715
 11
553.748042362
 21
1073.2348778681
  0
LINE
  5
4A1
100
AcDbEntity
  8
3_AXES_OTHER
100
AcDbLine
 62
7
  6
CENTER
 10
553.748042362
 20
1085.2547817715
 11
553.748042362
 21
1097.2746856749
  0
LINE
  5
4A2
100
AcDbEntity
  8
3_AXES_OTHER
100
AcDbLine
 62
7
  6
CENTER
 10
553.748042362
 20
1125.2547817715
 11
553.748042362
 21
1137.1430423757
  0
LINE
  5
4A3
100
AcDbEntity
  8
6_ALL_SURFS
100
AcDbLine
 62
7
  6
CONTINUOUS
 10
511.448042362
 20
1338.1047817715
 11
516.748042362
 21
1338.1047817715
  0
LINE
  5
4A4
100
AcDbEntity
  8
0
100
AcDbLine
 62
7
  6
CONTINUOUS
 10
584.748042362
 20
1028.2547817715
 11
584.748042362
 21
1622.2547817715
  0
LINE
  5
4A5
100
AcDbEntity
  8
6_ALL_SURFS
100
AcDbLine
 62
7
  6
CONTINUOUS
 10
518.748042362
 20
1358.0047817715
 11
511.448042362
 21
1358.0047817715
  0
LINE
  5
4A6
100
AcDbEntity
  8
6_ALL_SURFS
100
AcDbLine
 62
7
  6
CONTINUOUS
 10
514.248042362
 20
1368.0047817715
 11
518.748042362
 21
1368.0047817715
  0
LINE
  5
4A7
100
AcDbEntity
  8
0
100
AcDbLine
 62
7
  6
CONTINUOUS
 10
600.748042362
 20
1030.2547817715
 11
600.748042362
 21
1056.2547817715
  0
LINE
  5
4A8
100
AcDbEntity
  8
6_ALL_SURFS
100
AcDbLine
 62
7
  6
CONTINUOUS
 10
600.748042362
 20
1056.2547817715
 11
600.748042362
 21
1594.2547817715
  0
LINE
  5
4A9
100
AcDbEntity
  8
0
100
AcDbLine
 62
7
  6
CONTINUOUS
 10
600.748042362
 20
1594.2547817715
 11
600.748042362
 21
1620.2547817715
  0
LINE
  5
4AA
100
AcDbEntity
  8
0
100
AcDbLine
 62
7
  6
CONTINUOUS
 10
584.748042362
 20
1589.2547817715
 11
595.748042362
 21
1589.2547817715
  0
LINE
  5
4AB
100
AcDbEntity
  8
0
100
AcDbLine
 62
7
  6
CONTINUOUS
 10
492.748042362
 20
1592.2547817715
 11
495.748042362
 21
1592.2547817715
  0
LINE
  5
4AC
100
AcDbEntity
  8
6_ALL_SURFS
100
AcDbLine
 62
7
  6
CONTINUOUS
 10
495.748042362
 20
1592.2547817715
 11
518.748042362
 21
1592.2547817715
  0
LINE
  5
4AD
100
AcDbEntity
  8
0
100
AcDbLine
 62
7
  6
CONTINUOUS
 10
497.748042362
 20
1622.2547817715
 11
584.748042362
 21
1622.2547817715
  0
LINE
  5
4AE
100
AcDbEntity
  8
0
100
AcDbLine
 62
7
  6
CONTINUOUS
 10
595.748042362
 20
1625.2547817715
 11
497.748042362
 21
1625.2547817715
  0
LWPOLYLINE
  5
4AF
100
AcDbEntity
  8
0
100
AcDbPolyline
 62
7
  6
CONTINUOUS
 90
2
 70
1
 43
2.0
 10
2565.9665570971
 20
93.9914506643
 42
1.0
 10
2586.2865570971
 20
93.9914506643
 42
1.0
  0
LWPOLYLINE
  5
4B0
100
AcDbEntity
  8
0
100
AcDbPolyline
 62
7
  6
CONTINUOUS
 90
2
 70
1
 43
2.0
 10
2571.0465570971
 20
93.9914506643
 42
1.0
 10
2581.2065570971
 20
93.9914506643
 42
1.0
  0
ARC
  5
4B1
100
AcDbEntity
  8
0
100
AcDbCircle
 62
7
  6
CONTINUOUS
 10
3074.7686460944
 20
351.1273996086
 40
1.8100018892
100
AcDbArc
 50
90.0
 51
180.0
  0
ARC
  5
4B2
100
AcDbEntity
  8
0
100
AcDbCircle
 62
7
  6
CONTINUOUS
 10
2940.6981900048
 20
351.4552464611
 40
1.8100018892
100
AcDbArc
 50
90.0
 51
180.0
  0
ARC
  5
4B3
100
AcDbEntity
  8
0
100
AcDbCircle
 62
7
  6
CONTINUOUS
 10
3116.4766894813
 20
354.7474033801
 40
1.8100018818
100
AcDbArc
 50
270.0
 51
360.0
  0
ARC
  5
4B4
100
AcDbEntity
  8
0
100
AcDbCircle
 62
7
  6
CONTINUOUS
 10
3035.1630767773
 20
336.6940697853
 40
1.8100018818
100
AcDbArc
 50
0.0
 51
89.9999995368
  0
ARC
  5
4B5
100
AcDbEntity
  8
0
100
AcDbCircle
 62
7
  6
CONTINUOUS
 10
2994.6397743965
 20
329.3782291561
 40
1.8100018818
100
AcDbArc
 50
90.0
 51
180.0
  0
ARC
  5
4B6
100
AcDbEntity
  8
0
100
AcDbCircle
 62
7
  6
CONTINUOUS
 10
2994.6397743965
 20
325.9489327152
 40
1.8100018818
100
AcDbArc
 50
180.0
 51
270.0
  0
ARC
  5
4B7
100
AcDbEntity
  8
0
100
AcDbCircle
 62
7
  6
CONTINUOUS
 10
3051.2254933795
 20
354.6751881622
 40
1.8100018818
100
AcDbArc
 50
270.0
 51
360.0
  0
ARC
  5
4B8
100
AcDbEntity
  8
0
100
AcDbCircle
 62
7
  6
CONTINUOUS
 10
3051.2254933795
 20
358.3686510761
 40
1.8100018818
100
AcDbArc
 50
359.9999995369
 51
90.0
  0
ARC
  5
4B9
100
AcDbEntity
  8
0
100
AcDbCircle
 62
7
  6
CONTINUOUS
 10
2940.6981899977
 20
333.4067463581
 40
1.8100018818
100
AcDbArc
 50
180.0
 51
270.0
  0
ARC
  5
4BA
100
AcDbEntity
  8
0
100
AcDbCircle
 62
7
  6
CONTINUOUS
 10
3010.6471865616
 20
347.6304792765
 40
1.8100018818
100
AcDbArc
 50
180.0
 51
270.0
  0
ARC
  5
4BB
100
AcDbEntity
  8
0
100
AcDbCircle
 62
7
  6
CONTINUOUS
 10
3074.7686460867
 20
333.1550307376
 40
1.8100018818
100
AcDbArc
 50
180.0
 51
270.0
  0
ARC
  5
4BC
100
AcDbEntity
  8
0
100
AcDbCircle
 62
7
  6
CONTINUOUS
 10
3116.4766894889
 20
358.3686510909
 40
1.8100018745
100
AcDbArc
 50
0.000000539
 51
89.9999999245
  0
ARC
  5
4BD
100
AcDbEntity
  8
0
100
AcDbCircle
 62
7
  6
CONTINUOUS
 10
3116.4766894909
 20
325.888538239
 40
1.8100018721
100
AcDbArc
 50
270.1250535673
 51
360.0
  0
ARC
  5
4BE
100
AcDbEntity
  8
0
100
AcDbCircle
 62
7
  6
CONTINUOUS
 10
3116.4766894889
 20
329.5350269814
 40
1.8100018745
100
AcDbArc
 50
0.0
 51
90.0
  0
ARC
  5
4BF
100
AcDbEntity
  8
0
100
AcDbCircle
 62
7
  6
CONTINUOUS
 10
3010.6471865545
 20
351.0551844054
 40
1.8100018745
100
AcDbArc
 50
90.0
 51
180.0
  0
ARC
  5
4C0
100
AcDbEntity
  8
0
100
AcDbCircle
 62
7
  6
CONTINUOUS
 10
2976.8613820912
 20
333.4067463869
 40
1.8100018745
100
AcDbArc
 50
270.0
 51
360.0
  0
ARC
  5
4C1
100
AcDbEntity
  8
0
100
AcDbCircle
 62
7
  6
CONTINUOUS
 10
2976.8613820912
 20
351.4552464758
 40
1.8100018745
100
AcDbArc
 50
0.0000004631
 51
90.0000004631
  0
ARC
  5
4C2
100
AcDbEntity
  8
0
100
AcDbCircle
 62
7
  6
CONTINUOUS
 10
3035.1630767843
 20
332.9982329129
 40
1.8100018745
100
AcDbArc
 50
270.0
 51
360.0
  0
ARC
  5
4C3
100
AcDbEntity
  8
0
100
AcDbCircle
 62
7
  6
CONTINUOUS
 10
2962.1833958083
 20
335.083630312
 40
0.6961545705
100
AcDbArc
 50
90.0000000001
 51
180.0
  0
ARC
  5
4C4
100
AcDbEntity
  8
0
100
AcDbCircle
 62
7
  6
CONTINUOUS
 10
2962.3417252432
 20
320.6412075286
 40
0.6961545632
100
AcDbArc
 50
180.0
 51
270.0
  0
ARC
  5
4C5
100
AcDbEntity
  8
0
100
AcDbCircle
 62
7
  6
CONTINUOUS
 10
2973.1815599254
 20
320.6412075286
 40
0.6961545632
100
AcDbArc
 50
270.0
 51
360.0
  0
ARC
  5
4C6
100
AcDbEntity
  8
0
100
AcDbCircle
 62
7
  6
CONTINUOUS
 10
2972.9679882211
 20
335.0836303337
 40
0.6961545486
100
AcDbArc
 50
0.0
 51
89.9999987958
  0
ARC
  5
4C7
100
AcDbEntity
  8
0
100
AcDbCircle
 62
7
  6
CONTINUOUS
 10
2436.6898676877
 20
1504.3790900639
 40
15.8635755546
100
AcDbArc
 50
337.2511872987
 51
342.5326801068
  0
ARC
  5
4C8
100
AcDbEntity
  8
6_ALL_SURFS
100
AcDbCircle
 62
7
  6
CONTINUOUS
 10
2835.5716747458
 20
1208.1784472711
 40
4.2729908305
100
AcDbArc
 50
308.2109115147
 51
313.9647025349
  0
ARC
  5
4C9
100
AcDbEntity
  8
6_ALL_SURFS
100
AcDbCircle
 62
7
  6
CONTINUOUS
 10
1898.3727893147
 20
1066.2101516345
 40
120.0
100
AcDbArc
 50
358.7054942507
 51
30.0246089361
  0
CIRCLE
  5
4CA
100
AcDbEntity
  8
6_ALL_SURFS
100
AcDbCircle
 62
7
  6
CONTINUOUS
 10
1948.2700577664
 20
1285.2547817715
 40
10.0
  0
CIRCLE
  5
4CB
100
AcDbEntity
  8
6_ALL_SURFS
100
AcDbCircle
 62
7
  6
CONTINUOUS
 10
1948.2700577664
 20
1245.2547817715
 40
10.0
  0
CIRCLE
  5
4CC
100
AcDbEntity
  8
6_ALL_SURFS
100
AcDbCircle
 62
7
  6
CONTINUOUS
 10
1948.2700577664
 20
1205.2547817715
 40
10.0
  0
CIRCLE
  5
4CD
100
AcDbEntity
  8
6_ALL_SURFS
100
AcDbCircle
 62
7
  6
CONTINUOUS
 10
1948.2700577664
 20
1165.2547817715
 40
10.0
  0
CIRCLE
  5
4CE
100
AcDbEntity
  8
6_ALL_SURFS
100
AcDbCircle
 62
7
  6
CONTINUOUS
 10
1948.2700577664
 20
1125.2547817715
 40
10.0
  0
CIRCLE
  5
4CF
100
AcDbEntity
  8
6_ALL_SURFS
100
AcDbCircle
 62
7
  6
CONTINUOUS
 10
1948.2700577664
 20
1085.2547817715
 40
10.0
  0
ARC
  5
4D0
100
AcDbEntity
  8
6_ALL_SURFS
100
AcDbCircle
 62
7
  6
CONTINUOUS
 10
1923.2700577664
 20
1030.2547817715
 40
5.0
100
AcDbArc
 50
180.0
 51
270.0
  0
CIRCLE
  5
4D1
100
AcDbEntity
  8
6_ALL_SURFS
100
AcDbCircle
 62
7
  6
CONTINUOUS
 10
1948.2700577664
 20
1565.2547817715
 40
10.0
  0
CIRCLE
  5
4D2
100
AcDbEntity
  8
6_ALL_SURFS
100
AcDbCircle
 62
7
  6
CONTINUOUS
 10
1948.2700577664
 20
1525.2547817715
 40
10.0
  0
CIRCLE
  5
4D3
100
AcDbEntity
  8
6_ALL_SURFS
100
AcDbCircle
 62
7
  6
CONTINUOUS
 10
1948.2700577664
 20
1485.2547817715
 40
10.0
  0
CIRCLE
  5
4D4
100
AcDbEntity
  8
6_ALL_SURFS
100
AcDbCircle
 62
7
  6
CONTINUOUS
 10
1948.2700577664
 20
1445.2547817715
 40
10.0
  0
CIRCLE
  5
4D5
100
AcDbEntity
  8
6_ALL_SURFS
100
AcDbCircle
 62
7
  6
CONTINUOUS
 10
1948.2700577664
 20
1405.2547817715
 40
10.0
  0
CIRCLE
  5
4D6
100
AcDbEntity
  8
6_ALL_SURFS
100
AcDbCircle
 62
7
  6
CONTINUOUS
 10
1948.2700577664
 20
1365.2547817715
 40
10.0
  0
CIRCLE
  5
4D7
100
AcDbEntity
  8
6_ALL_SURFS
100
AcDbCircle
 62
7
  6
CONTINUOUS
 10
1948.2700577664
 20
1325.2547817715
 40
10.0
  0
ARC
  5
4D8
100
AcDbEntity
  8
6_ALL_SURFS
100
AcDbCircle
 62
7
  6
CONTINUOUS
 10
1923.2700577664
 20
1620.2547817715
 40
5.0
100
AcDbArc
 50
90.0
 51
180.0
  0
ARC
  5
4D9
100
AcDbEntity
  8
6_ALL_SURFS
100
AcDbCircle
 62
7
  6
CONTINUOUS
 10
2008.3447151452
 20
1063.725090442
 40
10.0
100
AcDbArc
 50
257.0000000131
 51
358.7054942507
  0
ARC
  5
4DA
100
AcDbEntity
  8
6_ALL_SURFS
100
AcDbCircle
 62
7
  6
CONTINUOUS
 10
1998.2700577664
 20
1030.2547817715
 40
5.0
100
AcDbArc
 50
270.0
 51
360.0
  0
ARC
  5
4DB
100
AcDbEntity
  8
6_ALL_SURFS
100
AcDbCircle
 62
7
  6
CONTINUOUS
 10
2006.2700577664
 20
1063.2547817715
 40
3.3
100
AcDbArc
 50
282.9999999869
 51
90.0
  0
ARC
  5
4DC
100
AcDbEntity
  8
6_ALL_SURFS
100
AcDbCircle
 62
7
  6
CONTINUOUS
 10
2006.7700577664
 20
1056.9044999882
 40
3.0
100
AcDbArc
 50
102.9999999869
 51
257.0000000131
  0
ARC
  5
4DD
100
AcDbEntity
  8
6_ALL_SURFS
100
AcDbCircle
 62
7
  6
CONTINUOUS
 10
1998.2700577664
 20
1582.2547817715
 40
6.5
100
AcDbArc
 50
0.0
 51
85.5882742142
  0
ARC
  5
4DE
100
AcDbEntity
  8
6_ALL_SURFS
100
AcDbCircle
 62
7
  6
CONTINUOUS
 10
1995.2700577664
 20
1363.0047817715
 40
5.0
100
AcDbArc
 50
90.0
 51
270.0
  0
ARC
  5
4DF
100
AcDbEntity
  8
6_ALL_SURFS
100
AcDbCircle
 62
7
  6
CONTINUOUS
 10
2021.2700577664
 20
1620.2547817715
 40
5.0
100
AcDbArc
 50
0.0
 51
90.0
  0
CIRCLE
  5
4E0
100
AcDbEntity
  8
6_ALL_SURFS
100
AcDbCircle
 62
7
  6
CONTINUOUS
 10
1992.5116408105
 20
1417.3552953134
 40
4.25
  0
CIRCLE
  5
4E1
100
AcDbEntity
  8
6_ALL_SURFS
100
AcDbCircle
 62
7
  6
CONTINUOUS
 10
1998.2700577664
 20
1582.2547817715
 40
3.25
  0
ARC
  5
4E2
100
AcDbEntity
  8
6_ALL_SURFS
100
AcDbCircle
 62
7
  6
CONTINUOUS
 10
510.6733849832
 20
1063.725090442
 40
10.0
100
AcDbArc
 50
181.2945057493
 51
282.9999999869
  0
CIRCLE
  5
4E3
100
AcDbEntity
  8
0
100
AcDbCircle
 62
7
  6
CONTINUOUS
 10
553.748042362
 20
1085.2547817715
 40
10.0
  0
CIRCLE
  5
4E4
100
AcDbEntity
  8
0
100
AcDbCircle
 62
7
  6
CONTINUOUS
 10
553.748042362
 20
1125.2547817715
 40
10.0
  0
CIRCLE
  5
4E5
100
AcDbEntity
  8
0
100
AcDbCircle
 62
7
  6
CONTINUOUS
 10
553.748042362
 20
1165.2547817715
 40
10.0
  0
CIRCLE
  5
4E6
100
AcDbEntity
  8
0
100
AcDbCircle
 62
7
  6
CONTINUOUS
 10
553.748042362
 20
1205.2547817715
 40
10.0
  0
CIRCLE
  5
4E7
100
AcDbEntity
  8
0
100
AcDbCircle
 62
7
  6
CONTINUOUS
 10
553.748042362
 20
1245.2547817715
 40
10.0
  0
CIRCLE
  5
4E8
100
AcDbEntity
  8
0
100
AcDbCircle
 62
7
  6
CONTINUOUS
 10
553.748042362
 20
1285.2547817715
 40
10.0
  0
CIRCLE
  5
4E9
100
AcDbEntity
  8
0
100
AcDbCircle
 62
7
  6
CONTINUOUS
 10
531.748042362
 20
1314.4947817715
 40
5.25
  0
ARC
  5
4EA
100
AcDbEntity
  8
0
100
AcDbCircle
 62
7
  6
CONTINUOUS
 10
520.748042362
 20
1030.2547817715
 40
5.0
100
AcDbArc
 50
180.0
 51
270.0
  0
ARC
  5
4EB
100
AcDbEntity
  8
6_ALL_SURFS
100
AcDbCircle
 62
7
  6
CONTINUOUS
 10
512.748042362
 20
1063.2547817715
 40
3.3
100
AcDbArc
 50
90.0
 51
257.0000000131
  0
ARC
  5
4EC
100
AcDbEntity
  8
6_ALL_SURFS
100
AcDbCircle
 62
7
  6
CONTINUOUS
 10
512.248042362
 20
1056.9044999882
 40
3.0
100
AcDbArc
 50
282.9999999869
 51
77.0000000131
  0
ARC
  5
4ED
100
AcDbEntity
  8
0
100
AcDbCircle
 62
7
  6
CONTINUOUS
 10
520.748042362
 20
1030.2547817715
 40
2.0
100
AcDbArc
 50
180.0
 51
270.0
  0
CIRCLE
  5
4EE
100
AcDbEntity
  8
0
100
AcDbCircle
 62
7
  6
CONTINUOUS
 10
553.748042362
 20
1325.2547817715
 40
10.0
  0
CIRCLE
  5
4EF
100
AcDbEntity
  8
0
100
AcDbCircle
 62
7
  6
CONTINUOUS
 10
553.748042362
 20
1365.2547817715
 40
10.0
  0
CIRCLE
  5
4F0
100
AcDbEntity
  8
0
100
AcDbCircle
 62
7
  6
CONTINUOUS
 10
553.748042362
 20
1405.2547817715
 40
10.0
  0
CIRCLE
  5
4F1
100
AcDbEntity
  8
0
100
AcDbCircle
 62
7
  6
CONTINUOUS
 10
553.748042362
 20
1445.2547817715
 40
10.0
  0
CIRCLE
  5
4F2
100
AcDbEntity
  8
0
100
AcDbCircle
 62
7
  6
CONTINUOUS
 10
553.748042362
 20
1485.2547817715
 40
10.0
  0
CIRCLE
  5
4F3
100
AcDbEntity
  8
0
100
AcDbCircle
 62
7
  6
CONTINUOUS
 10
553.748042362
 20
1525.2547817715
 40
10.0
  0
CIRCLE
  5
4F4
100
AcDbEntity
  8
0
100
AcDbCircle
 62
7
  6
CONTINUOUS
 10
553.748042362
 20
1565.2547817715
 40
10.0
  0
ARC
  5
4F5
100
AcDbEntity
  8
6_ALL_SURFS
100
AcDbCircle
 62
7
  6
CONTINUOUS
 10
520.748042362
 20
1582.2547817715
 40
6.5
100
AcDbArc
 50
108.3400826458
 51
180.0
  0
ARC
  5
4F6
100
AcDbEntity
  8
0
100
AcDbCircle
 62
7
  6
CONTINUOUS
 10
497.748042362
 20
1620.2547817715
 40
5.0
100
AcDbArc
 50
90.0
 51
180.0
  0
ARC
  5
4F7
100
AcDbEntity
  8
6_ALL_SURFS
100
AcDbCircle
 62
7
  6
CONTINUOUS
 10
520.748042362
 20
1582.2547817715
 40
3.25
100
AcDbArc
 50
128.690247063
 51
231.309752937
  0
ARC
  5
4F8
100
AcDbEntity
  8
0
100
AcDbCircle
 62
7
  6
CONTINUOUS
 10
497.748042362
 20
1620.2547817715
 40
2.0
100
AcDbArc
 50
90.0
 51
180.0
  0
ARC
  5
4F9
100
AcDbEntity
  8
6_ALL_SURFS
100
AcDbCircle
 62
7
  6
CONTINUOUS
 10
620.6453108137
 20
1066.2101516345
 40
120.0
100
AcDbArc
 50
149.9753910639
 51
181.2945057493
  0
ARC
  5
4FA
100
AcDbEntity
  8
0
100
AcDbCircle
 62
7
  6
CONTINUOUS
 10
595.748042362
 20
1030.2547817715
 40
5.0
100
AcDbArc
 50
270.0
 51
360.0
  0
ARC
  5
4FB
100
AcDbEntity
  8
0
100
AcDbCircle
 62
7
  6
CONTINUOUS
 10
595.748042362
 20
1056.2547817715
 40
5.0
100
AcDbArc
 50
0.0
 51
90.0
  0
ARC
  5
4FC
100
AcDbEntity
  8
0
100
AcDbCircle
 62
7
  6
CONTINUOUS
 10
595.748042362
 20
1620.2547817715
 40
5.0
100
AcDbArc
 50
0.0
 51
90.0
  0
ARC
  5
4FD
100
AcDbEntity
  8
0
100
AcDbCircle
 62
7
  6
CONTINUOUS
 10
595.748042362
 20
1594.2547817715
 40
5.0
100
AcDbArc
 50
270.0
 51
360.0
  0
SPLINE
  5
4FE
100
AcDbEntity
  8
0
100
AcDbSpline
 62
7
  6
CONTINUOUS
 70
0
 71
3
 72
13
 73
9
 74
0
 42
0.0000001
 43
0.0000001
 44
0.0000000001
 40
0.0
 40
0.0
 40
0.0
 40
0.0
 40
0.1317357684
 40
0.2713541552
 40
0.4178991716
 40
0.5930152361
 40
0.7698067128
 40
1.0
 40
1.0
 40
1.0
 40
1.0
 10
3067.8169546169
 20
360.1786529654
 30
0.0
 10
3066.7940826953
 20
360.1024687858
 30
0.0
 10
3064.6871337587
 20
359.9455418425
 30
0.0
 10
3061.831798341
 20
358.1762132773
 30
0.0
 10
3059.7820082557
 20
355.205829266
 30
0.0
 10
3058.4491288383
 20
351.5737034844
 30
0.0
 10
3057.6983697599
 20
347.133735851
 30
0.0
 10
3057.6292451579
 20
343.9963767523
 30
0.0
 10
3057.5934194779
 20
342.2216325251
 30
0.0
  0
SPLINE
  5
4FF
100
AcDbEntity
  8
0
100
AcDbSpline
 62
7
  6
CONTINUOUS
 70
0
 71
3
 72
13
 73
9
 74
0
 42
0.0000001
 43
0.0000001
 44
0.0000000001
 40
0.0
 40
0.0
 40
0.0
 40
0.0
 40
0.2249509061
 40
0.4029463322
 40
0.5792549365
 40
0.726797924
 40
0.8673671114
 40
1.0
 40
1.0
 40
1.0
 40
1.0
 10
3057.5965962206
 20
341.9462256474
 30
0.0
 10
3057.6317158374
 20
340.2236527828
 30
0.0
 10
3057.7070780519
 20
337.1390085223
 30
0.0
 10
3058.4491282238
 20
332.750508149
 30
0.0
 10
3059.782023603
 20
329.118788595
 30
0.0
 10
3061.8317497534
 20
326.1471439699
 30
0.0
 10
3064.6873030909
 20
324.3820448339
 30
0.0
 10
3066.7937383542
 20
324.2151589042
 30
0.0
 10
3067.8169546169
 20
324.1389491067
 30
0.0
  0
SPLINE
  5
500
100
AcDbEntity
  8
0
100
AcDbSpline
 62
7
  6
CONTINUOUS
 70
0
 71
3
 72
13
 73
9
 74
0
 42
0.0000001
 43
0.0000001
 44
0.0000000001
 40
0.0
 40
0.0
 40
0.0
 40
0.0
 40
0.1604571392
 40
0.3334692485
 40
0.4767982758
 40
0.6242014838
 40
0.7505998515
 40
1.0
 40
1.0
 40
1.0
 40
1.0
 10
3044.9473875204
 20
324.1389308334
 30
0.0
 10
3045.7955801616
 20
324.1797697954
 30
0.0
 10
3047.5583322449
 20
324.264643116
 30
0.0
 10
3049.9287344812
 20
325.293763067
 30
0.0
 10
3051.7149106689
 20
327.0236278106
 30
0.0
 10
3052.7214912012
 20
329.0068509072
 30
0.0
 10
3053.4932214803
 20
331.6673650071
 30
0.0
 10
3053.5245383197
 20
333.6583675409
 30
0.0
 10
3053.5453218563
 20
334.979704114
 30
0.0
  0
SPLINE
  5
501
100
AcDbEntity
  8
0
100
AcDbSpline
 62
7
  6
CONTINUOUS
 70
0
 71
3
 72
13
 73
9
 74
0
 42
0.0000001
 43
0.0000001
 44
0.0000000001
 40
0.0
 40
0.0
 40
0.0
 40
0.0
 40
0.2494001485
 40
0.3757985162
 40
0.5232017242
 40
0.6665307515
 40
0.8395428608
 40
1.0
 40
1.0
 40
1.0
 40
1.0
 10
3053.5453218563
 20
334.979704114
 30
0.0
 10
3053.5245383197
 20
336.3010407018
 30
0.0
 10
3053.4932214803
 20
338.292043221
 30
0.0
 10
3052.7214912012
 20
340.9525573501
 30
0.0
 10
3051.7149106689
 20
342.9357804467
 30
0.0
 10
3049.9287344812
 20
344.6656451611
 30
0.0
 10
3047.5583322449
 20
345.6947651121
 30
0.0
 10
3045.7955801616
 20
345.7796384619
 30
0.0
 10
3044.9473875204
 20
345.8204773947
 30
0.0
  0
SPLINE
  5
502
100
AcDbEntity
  8
0
100
AcDbSpline
 62
7
  6
CONTINUOUS
 70
0
 71
3
 72
13
 73
9
 74
0
 42
0.0000001
 43
0.0000001
 44
0.0000000001
 40
0.0
 40
0.0
 40
0.0
 40
0.0
 40
0.1133740464
 40
0.2392044088
 40
0.3655787964
 40
0.4912154373
 40
0.7445390876
 40
1.0
 40
1.0
 40
1.0
 40
1.0
 10
3000.3995003558
 20
360.1786529581
 30
0.0
 10
2999.8188744829
 20
360.1500544178
 30
0.0
 10
2998.5938298478
 20
360.0897152247
 30
0.0
 10
2996.7741472205
 20
359.5460484195
 30
0.0
 10
2995.1462637678
 20
358.4482158
 30
0.0
 10
2993.4833663151
 20
356.4259662577
 30
0.0
 10
2992.4369657549
 20
353.2513035307
 30
0.0
 10
2992.323483448
 20
350.6483208601
 30
0.0
 10
2992.2665039799
 20
349.3413623125
 30
0.0
  0
SPLINE
  5
503
100
AcDbEntity
  8
0
100
AcDbSpline
 62
7
  6
CONTINUOUS
 70
0
 71
3
 72
13
 73
9
 74
0
 42
0.0000001
 43
0.0000001
 44
0.0000000001
 40
0.0
 40
0.0
 40
0.0
 40
0.0
 40
0.2554609124
 40
0.5087845627
 40
0.6344212036
 40
0.7607955912
 40
0.8866259536
 40
1.0
 40
1.0
 40
1.0
 40
1.0
 10
2992.2665039799
 20
349.3413623125
 30
0.0
 10
2992.323483448
 20
348.0344037503
 30
0.0
 10
2992.4369657549
 20
345.431421065
 30
0.0
 10
2993.4833663151
 20
342.2567583526
 30
0.0
 10
2995.1462637678
 20
340.2345088103
 30
0.0
 10
2996.7741472205
 20
339.1366762055
 30
0.0
 10
2998.5938298478
 20
338.5930093857
 30
0.0
 10
2999.8188744829
 20
338.5326701925
 30
0.0
 10
3000.3995003558
 20
338.5040716669
 30
0.0
  0
SPLINE
  5
504
100
AcDbEntity
  8
0
100
AcDbSpline
 62
7
  6
CONTINUOUS
 70
0
 71
3
 72
12
 73
8
 74
0
 42
0.0000001
 43
0.0000001
 44
0.0000000001
 40
0.0
 40
0.0
 40
0.0
 40
0.0
 40
0.2415790084
 40
0.4893269843
 40
0.7378634303
 40
0.8656387112
 40
1.0
 40
1.0
 40
1.0
 40
1.0
 10
2979.4078769997
 20
324.138930848
 30
0.0
 10
2980.3994896087
 20
324.1697589589
 30
0.0
 10
2982.4080367279
 20
324.2322024424
 30
0.0
 10
2985.3473358357
 20
325.2804346701
 30
0.0
 10
2987.1324300467
 20
327.2592197227
 30
0.0
 10
2987.918883307
 20
329.236392037
 30
0.0
 10
2987.9330563461
 20
330.3194828459
 30
0.0
 10
2987.9403209103
 20
330.8746342079
 30
0.0
  0
SPLINE
  5
505
100
AcDbEntity
  8
0
100
AcDbSpline
 62
7
  6
CONTINUOUS
 70
0
 71
3
 72
12
 73
8
 74
0
 42
0.0000001
 43
0.0000001
 44
0.0000000001
 40
0.0
 40
0.0
 40
0.0
 40
0.0
 40
0.1343612888
 40
0.2621365697
 40
0.5106730157
 40
0.7584209916
 40
1.0
 40
1.0
 40
1.0
 40
1.0
 10
2987.9403209103
 20
353.4006793076
 30
0.0
 10
2987.9330563461
 20
353.9558306988
 30
0.0
 10
2987.918883307
 20
355.0389215077
 30
0.0
 10
2987.1324300467
 20
357.016093822
 30
0.0
 10
2985.3473358357
 20
358.9948788745
 30
0.0
 10
2982.4080367279
 20
360.0431110877
 30
0.0
 10
2980.3994896087
 20
360.1055545566
 30
0.0
 10
2979.4078769997
 20
360.1363826821
 30
0.0
  0
SPLINE
  5
506
100
AcDbEntity
  8
0
100
AcDbSpline
 62
7
  6
CONTINUOUS
 70
0
 71
3
 72
12
 73
8
 74
0
 42
0.0000001
 43
0.0000001
 44
0.0000000001
 40
0.0
 40
0.0
 40
0.0
 40
0.0
 40
0.1341799809
 40
0.290831959
 40
0.5815217441
 40
0.760783857
 40
1.0
 40
1.0
 40
1.0
 40
1.0
 10
2933.5219189738
 20
360.1363826821
 30
0.0
 10
2932.5210647654
 20
359.9653271908
 30
0.0
 10
2930.3517367776
 20
359.594568422
 30
0.0
 10
2926.7000212561
 20
356.8663802366
 30
0.0
 10
2924.9703834738
 20
352.2764775867
 30
0.0
 10
2923.9583878647
 20
347.0733999205
 30
0.0
 10
2923.8824205222
 20
343.9263413787
 30
0.0
 10
2923.8389950371
 20
342.1273776508
 30
0.0
  0
SPLINE
  5
507
100
AcDbEntity
  8
0
100
AcDbSpline
 62
7
  6
CONTINUOUS
 70
0
 71
3
 72
12
 73
8
 74
0
 42
0.0000001
 43
0.0000001
 44
0.0000000001
 40
0.0
 40
0.0
 40
0.0
 40
0.0
 40
0.2392679579
 40
0.4185688994
 40
0.7093216488
 40
0.8660075581
 40
1.0
 40
1.0
 40
1.0
 40
1.0
 10
2923.8389950371
 20
342.1273776508
 30
0.0
 10
2923.8824378739
 20
340.3284840318
 30
0.0
 10
2923.9584355306
 20
337.1815481513
 30
0.0
 10
2924.9702127663
 20
331.9775875405
 30
0.0
 10
2926.7009073317
 20
327.3919580208
 30
0.0
 10
2930.3488208949
 20
324.6549108648
 30
0.0
 10
2932.5207407167
 20
324.3017332428
 30
0.0
 10
2933.5219189738
 20
324.138930848
 30
0.0
  0
SPLINE
  5
508
100
AcDbEntity
  8
6_ALL_SURFS
100
AcDbSpline
 62
7
  6
CONTINUOUS
 70
0
 71
3
 72
9
 73
5
 74
0
 42
0.0000001
 43
0.0000001
 44
0.0000000001
 40
0.0
 40
0.0
 40
0.0
 40
0.0
 40
0.2208989638
 40
1.0
 40
1.0
 40
1.0
 40
1.0
 10
3090.3059873246
 20
1356.932649954
 30
0.0
 10
3090.1656582988
 20
1357.0133365311
 30
0.0
 10
3089.591474415
 20
1357.4949669531
 30
0.0
 10
3089.4247046221
 20
1358.3072772738
 30
0.0
 10
3089.4247046221
 20
1358.8781929377
 30
0.0
  0
SPLINE
  5
509
100
AcDbEntity
  8
6_ALL_SURFS
100
AcDbSpline
 62
7
  6
CONTINUOUS
 70
0
 71
3
 72
9
 73
5
 74
0
 42
0.0000001
 43
0.0000001
 44
0.0000000001
 40
0.0
 40
0.0
 40
0.0
 40
0.0
 40
0.2953792317
 40
1.0
 40
1.0
 40
1.0
 40
1.0
 10
2804.9199280828
 20
1201.7190610332
 30
0.0
 10
2804.7006103837
 20
1201.5924047413
 30
0.0
 10
2803.9399207687
 20
1201.2177697271
 30
0.0
 10
2802.9427364161
 20
1201.1692312744
 30
0.0
 10
2802.4195573249
 20
1201.4713645845
 30
0.0
  0
SPLINE
  5
50A
100
AcDbEntity
  8
6_ALL_SURFS
100
AcDbSpline
 62
7
  6
CONTINUOUS
 70
0
 71
3
 72
9
 73
5
 74
0
 42
0.0000001
 43
0.0000001
 44
0.0000000001
 40
0.0
 40
0.0
 40
0.0
 40
0.0
 40
0.2208681529
 40
1.0
 40
1.0
 40
1.0
 40
1.0
 10
3207.4061259612
 20
1420.435759661
 30
0.0
 10
3207.2989885672
 20
1420.4975549867
 30
0.0
 10
3206.8608052584
 20
1420.8662414075
 30
0.0
 10
3206.733356492
 20
1421.4867019658
 30
0.0
 10
3206.733356492
 20
1421.9229989144
 30
0.0
  0
SPLINE
  5
50B
100
AcDbEntity
  8
6_ALL_SURFS
100
AcDbSpline
 62
7
  6
CONTINUOUS
 70
0
 71
3
 72
9
 73
5
 74
0
 42
0.0000001
 43
0.0000001
 44
0.0000000001
 40
0.0
 40
0.0
 40
0.0
 40
0.0
 40
0.4492071657
 40
1.0
 40
1.0
 40
1.0
 40
1.0
 10
3192.0079042483
 20
1448.4690867769
 30
0.0
 10
3191.3343489342
 20
1448.859012117
 30
0.0
 10
3190.1708736499
 20
1450.3164330318
 30
0.0
 10
3189.9395704388
 20
1452.0897627604
 30
0.0
 10
3189.9395704388
 20
1453.0440454298
 30
0.0
  0
SPLINE
  5
50C
100
AcDbEntity
  8
6_ALL_SURFS
100
AcDbSpline
 62
7
  6
CONTINUOUS
 70
0
 71
3
 72
9
 73
5
 74
0
 42
0.0000001
 43
0.0000001
 44
0.0000000001
 40
0.0
 40
0.0
 40
0.0
 40
0.0
 40
0.2327750249
 40
1.0
 40
1.0
 40
1.0
 40
1.0
 10
3199.4310375065
 20
1466.1588698067
 30
0.0
 10
3199.5000852059
 20
1465.9743960999
 30
0.0
 10
3199.7524059127
 20
1465.1653248349
 30
0.0
 10
3199.8390653755
 20
1464.3105004443
 30
0.0
 10
3199.8390653755
 20
1463.6612806313
 30
0.0
  0
SPLINE
  5
50D
100
AcDbEntity
  8
6_ALL_SURFS
100
AcDbSpline
 62
7
  6
CONTINUOUS
 70
0
 71
3
 72
9
 73
5
 74
0
 42
0.0000001
 43
0.0000001
 44
0.0000000001
 40
0.0
 40
0.0
 40
0.0
 40
0.0
 40
0.4492071657
 40
1.0
 40
1.0
 40
1.0
 40
1.0
 10
3163.7236330009
 20
1432.1348787747
 30
0.0
 10
3163.0500776867
 20
1432.5248041148
 30
0.0
 10
3161.8866024024
 20
1433.9822250295
 30
0.0
 10
3161.6552991914
 20
1435.7555547582
 30
0.0
 10
3161.6552991914
 20
1436.7098374276
 30
0.0
  0
SPLINE
  5
50E
100
AcDbEntity
  8
6_ALL_SURFS
100
AcDbSpline
 62
7
  6
CONTINUOUS
 70
0
 71
3
 72
9
 73
5
 74
0
 42
0.0000001
 43
0.0000001
 44
0.0000000001
 40
0.0
 40
0.0
 40
0.0
 40
0.0
 40
0.2327750249
 40
1.0
 40
1.0
 40
1.0
 40
1.0
 10
3171.146766259
 20
1449.8246618044
 30
0.0
 10
3171.2158139584
 20
1449.6401880977
 30
0.0
 10
3171.4681346653
 20
1448.8311168327
 30
0.0
 10
3171.554794128
 20
1447.9762924421
 30
0.0
 10
3171.554794128
 20
1447.327072629
 30
0.0
  0
SPLINE
  5
50F
100
AcDbEntity
  8
6_ALL_SURFS
100
AcDbSpline
 62
7
  6
CONTINUOUS
 70
0
 71
3
 72
9
 73
5
 74
0
 42
0.0000001
 43
0.0000001
 44
0.0000000001
 40
0.0
 40
0.0
 40
0.0
 40
0.0
 40
0.4492071657
 40
1.0
 40
1.0
 40
1.0
 40
1.0
 10
3135.4393617534
 20
1415.8006707725
 30
0.0
 10
3134.7658064393
 20
1416.1905961126
 30
0.0
 10
3133.6023311549
 20
1417.6480170273
 30
0.0
 10
3133.3710279439
 20
1419.421346756
 30
0.0
 10
3133.3710279439
 20
1420.3756294254
 30
0.0
  0
SPLINE
  5
510
100
AcDbEntity
  8
6_ALL_SURFS
100
AcDbSpline
 62
7
  6
CONTINUOUS
 70
0
 71
3
 72
9
 73
5
 74
0
 42
0.0000001
 43
0.0000001
 44
0.0000000001
 40
0.0
 40
0.0
 40
0.0
 40
0.0
 40
0.2327750249
 40
1.0
 40
1.0
 40
1.0
 40
1.0
 10
3142.8624950116
 20
1433.4904538022
 30
0.0
 10
3142.931542711
 20
1433.3059800955
 30
0.0
 10
3143.1838634178
 20
1432.4969088304
 30
0.0
 10
3143.2705228805
 20
1431.6420844399
 30
0.0
 10
3143.2705228805
 20
1430.9928646268
 30
0.0
  0
SPLINE
  5
511
100
AcDbEntity
  8
6_ALL_SURFS
100
AcDbSpline
 62
7
  6
CONTINUOUS
 70
0
 71
3
 72
9
 73
5
 74
0
 42
0.0000001
 43
0.0000001
 44
0.0000000001
 40
0.0
 40
0.0
 40
0.0
 40
0.0
 40
0.4492071657
 40
1.0
 40
1.0
 40
1.0
 40
1.0
 10
3107.155090506
 20
1399.4664627702
 30
0.0
 10
3106.4815351918
 20
1399.8563881103
 30
0.0
 10
3105.3180599075
 20
1401.3138090251
 30
0.0
 10
3105.0867566965
 20
1403.0871387537
 30
0.0
 10
3105.0867566965
 20
1404.0414214231
 30
0.0
  0
SPLINE
  5
512
100
AcDbEntity
  8
6_ALL_SURFS
100
AcDbSpline
 62
7
  6
CONTINUOUS
 70
0
 71
3
 72
9
 73
5
 74
0
 42
0.0000001
 43
0.0000001
 44
0.0000000001
 40
0.0
 40
0.0
 40
0.0
 40
0.0
 40
0.2327750249
 40
1.0
 40
1.0
 40
1.0
 40
1.0
 10
3114.5782237641
 20
1417.1562458
 30
0.0
 10
3114.6472714635
 20
1416.9717720933
 30
0.0
 10
3114.8995921703
 20
1416.1627008282
 30
0.0
 10
3114.9862516331
 20
1415.3078764376
 30
0.0
 10
3114.9862516331
 20
1414.6586566246
 30
0.0
  0
SPLINE
  5
513
100
AcDbEntity
  8
6_ALL_SURFS
100
AcDbSpline
 62
7
  6
CONTINUOUS
 70
0
 71
3
 72
9
 73
5
 74
0
 42
0.0000001
 43
0.0000001
 44
0.0000000001
 40
0.0
 40
0.0
 40
0.0
 40
0.0
 40
0.4492071657
 40
1.0
 40
1.0
 40
1.0
 40
1.0
 10
3078.8708192585
 20
1383.132254768
 30
0.0
 10
3078.1972639444
 20
1383.5221801081
 30
0.0
 10
3077.03378866
 20
1384.9796010229
 30
0.0
 10
3076.802485449
 20
1386.7529307515
 30
0.0
 10
3076.802485449
 20
1387.7072134209
 30
0.0
  0
SPLINE
  5
514
100
AcDbEntity
  8
6_ALL_SURFS
100
AcDbSpline
 62
7
  6
CONTINUOUS
 70
0
 71
3
 72
9
 73
5
 74
0
 42
0.0000001
 43
0.0000001
 44
0.0000000001
 40
0.0
 40
0.0
 40
0.0
 40
0.0
 40
0.2327750249
 40
1.0
 40
1.0
 40
1.0
 40
1.0
 10
3086.2939525166
 20
1400.8220377978
 30
0.0
 10
3086.363000216
 20
1400.637564091
 30
0.0
 10
3086.6153209229
 20
1399.828492826
 30
0.0
 10
3086.7019803856
 20
1398.9736684354
 30
0.0
 10
3086.7019803856
 20
1398.3244486223
 30
0.0
  0
SPLINE
  5
515
100
AcDbEntity
  8
6_ALL_SURFS
100
AcDbSpline
 62
7
  6
CONTINUOUS
 70
0
 71
3
 72
9
 73
5
 74
0
 42
0.0000001
 43
0.0000001
 44
0.0000000001
 40
0.0
 40
0.0
 40
0.0
 40
0.0
 40
0.4492071657
 40
1.0
 40
1.0
 40
1.0
 40
1.0
 10
3050.586548011
 20
1366.7980467658
 30
0.0
 10
3049.9129926969
 20
1367.1879721059
 30
0.0
 10
3048.7495174125
 20
1368.6453930206
 30
0.0
 10
3048.5182142015
 20
1370.4187227493
 30
0.0
 10
3048.5182142015
 20
1371.3730054187
 30
0.0
  0
SPLINE
  5
516
100
AcDbEntity
  8
6_ALL_SURFS
100
AcDbSpline
 62
7
  6
CONTINUOUS
 70
0
 71
3
 72
9
 73
5
 74
0
 42
0.0000001
 43
0.0000001
 44
0.0000000001
 40
0.0
 40
0.0
 40
0.0
 40
0.0
 40
0.2327750249
 40
1.0
 40
1.0
 40
1.0
 40
1.0
 10
3058.0096812692
 20
1384.4878297955
 30
0.0
 10
3058.0787289686
 20
1384.3033560888
 30
0.0
 10
3058.3310496754
 20
1383.4942848237
 30
0.0
 10
3058.4177091381
 20
1382.6394604332
 30
0.0
 10
3058.4177091381
 20
1381.9902406201
 30
0.0
  0
SPLINE
  5
517
100
AcDbEntity
  8
6_ALL_SURFS
100
AcDbSpline
 62
7
  6
CONTINUOUS
 70
0
 71
3
 72
9
 73
5
 74
0
 42
0.0000001
 43
0.0000001
 44
0.0000000001
 40
0.0
 40
0.0
 40
0.0
 40
0.0
 40
0.4492071657
 40
1.0
 40
1.0
 40
1.0
 40
1.0
 10
3022.3022767636
 20
1350.4638387635
 30
0.0
 10
3021.6287214494
 20
1350.8537641036
 30
0.0
 10
3020.4652461651
 20
1352.3111850184
 30
0.0
 10
3020.2339429541
 20
1354.0845147471
 30
0.0
 10
3020.2339429541
 20
1355.0387974164
 30
0.0
  0
SPLINE
  5
518
100
AcDbEntity
  8
6_ALL_SURFS
100
AcDbSpline
 62
7
  6
CONTINUOUS
 70
0
 71
3
 72
9
 73
5
 74
0
 42
0.0000001
 43
0.0000001
 44
0.0000000001
 40
0.0
 40
0.0
 40
0.0
 40
0.0
 40
0.2327750249
 40
1.0
 40
1.0
 40
1.0
 40
1.0
 10
3029.7254100217
 20
1368.1536217933
 30
0.0
 10
3029.7944577211
 20
1367.9691480866
 30
0.0
 10
3030.0467784279
 20
1367.1600768215
 30
0.0
 10
3030.1334378907
 20
1366.3052524309
 30
0.0
 10
3030.1334378907
 20
1365.6560326179
 30
0.0
  0
SPLINE
  5
519
100
AcDbEntity
  8
6_ALL_SURFS
100
AcDbSpline
 62
7
  6
CONTINUOUS
 70
0
 71
3
 72
9
 73
5
 74
0
 42
0.0000001
 43
0.0000001
 44
0.0000000001
 40
0.0
 40
0.0
 40
0.0
 40
0.0
 40
0.4492071657
 40
1.0
 40
1.0
 40
1.0
 40
1.0
 10
2994.0180055161
 20
1334.1296307613
 30
0.0
 10
2993.344450202
 20
1334.5195561014
 30
0.0
 10
2992.1809749176
 20
1335.9769770162
 30
0.0
 10
2991.9496717066
 20
1337.7503067448
 30
0.0
 10
2991.9496717066
 20
1338.7045894142
 30
0.0
  0
SPLINE
  5
51A
100
AcDbEntity
  8
6_ALL_SURFS
100
AcDbSpline
 62
7
  6
CONTINUOUS
 70
0
 71
3
 72
9
 73
5
 74
0
 42
0.0000001
 43
0.0000001
 44
0.0000000001
 40
0.0
 40
0.0
 40
0.0
 40
0.0
 40
0.2327750249
 40
1.0
 40
1.0
 40
1.0
 40
1.0
 10
3001.4411387742
 20
1351.8194137911
 30
0.0
 10
3001.5101864737
 20
1351.6349400843
 30
0.0
 10
3001.7625071805
 20
1350.8258688193
 30
0.0
 10
3001.8491666432
 20
1349.9710444287
 30
0.0
 10
3001.8491666432
 20
1349.3218246157
 30
0.0
  0
SPLINE
  5
51B
100
AcDbEntity
  8
6_ALL_SURFS
100
AcDbSpline
 62
7
  6
CONTINUOUS
 70
0
 71
3
 72
9
 73
5
 74
0
 42
0.0000001
 43
0.0000001
 44
0.0000000001
 40
0.0
 40
0.0
 40
0.0
 40
0.0
 40
0.4492071657
 40
1.0
 40
1.0
 40
1.0
 40
1.0
 10
2965.7337342686
 20
1317.7954227591
 30
0.0
 10
2965.0601789545
 20
1318.1853480992
 30
0.0
 10
2963.8967036702
 20
1319.6427690139
 30
0.0
 10
2963.6654004591
 20
1321.4160987426
 30
0.0
 10
2963.6654004591
 20
1322.370381412
 30
0.0
  0
SPLINE
  5
51C
100
AcDbEntity
  8
6_ALL_SURFS
100
AcDbSpline
 62
7
  6
CONTINUOUS
 70
0
 71
3
 72
9
 73
5
 74
0
 42
0.0000001
 43
0.0000001
 44
0.0000000001
 40
0.0
 40
0.0
 40
0.0
 40
0.0
 40
0.2327750249
 40
1.0
 40
1.0
 40
1.0
 40
1.0
 10
2973.1568675268
 20
1335.4852057888
 30
0.0
 10
2973.2259152262
 20
1335.3007320821
 30
0.0
 10
2973.478235933
 20
1334.491660817
 30
0.0
 10
2973.5648953958
 20
1333.6368364265
 30
0.0
 10
2973.5648953958
 20
1332.9876166134
 30
0.0
  0
SPLINE
  5
51D
100
AcDbEntity
  8
6_ALL_SURFS
100
AcDbSpline
 62
7
  6
CONTINUOUS
 70
0
 71
3
 72
9
 73
5
 74
0
 42
0.0000001
 43
0.0000001
 44
0.0000000001
 40
0.0
 40
0.0
 40
0.0
 40
0.0
 40
0.4492071657
 40
1.0
 40
1.0
 40
1.0
 40
1.0
 10
2937.4494630212
 20
1301.4612147568
 30
0.0
 10
2936.775907707
 20
1301.851140097
 30
0.0
 10
2935.6124324227
 20
1303.3085610117
 30
0.0
 10
2935.3811292117
 20
1305.0818907404
 30
0.0
 10
2935.3811292117
 20
1306.0361734097
 30
0.0
  0
SPLINE
  5
51E
100
AcDbEntity
  8
6_ALL_SURFS
100
AcDbSpline
 62
7
  6
CONTINUOUS
 70
0
 71
3
 72
9
 73
5
 74
0
 42
0.0000001
 43
0.0000001
 44
0.0000000001
 40
0.0
 40
0.0
 40
0.0
 40
0.0
 40
0.2327750249
 40
1.0
 40
1.0
 40
1.0
 40
1.0
 10
2944.8725962793
 20
1319.1509977866
 30
0.0
 10
2944.9416439787
 20
1318.9665240799
 30
0.0
 10
2945.1939646856
 20
1318.1574528148
 30
0.0
 10
2945.2806241483
 20
1317.3026284243
 30
0.0
 10
2945.2806241483
 20
1316.6534086112
 30
0.0
  0
SPLINE
  5
51F
100
AcDbEntity
  8
0
100
AcDbSpline
 62
7
  6
CONTINUOUS
 70
0
 71
3
 72
9
 73
5
 74
0
 42
0.0000001
 43
0.0000001
 44
0.0000000001
 40
0.0
 40
0.0
 40
0.0
 40
0.0
 40
0.4999743453
 40
1.0
 40
1.0
 40
1.0
 40
1.0
 10
2402.9297229782
 20
1495.0966122912
 30
0.0
 10
2402.9297229782
 20
1496.3082843867
 30
0.0
 10
2403.7578402966
 20
1498.7009349313
 30
0.0
 10
2405.415879089
 20
1500.614319332
 30
0.0
 10
2406.4652568842
 20
1501.2203365431
 30
0.0
  0
SPLINE
  5
520
100
AcDbEntity
  8
6_ALL_SURFS
100
AcDbSpline
 62
7
  6
CONTINUOUS
 70
0
 71
3
 72
9
 73
5
 74
0
 42
0.0000001
 43
0.0000001
 44
0.0000000001
 40
0.0
 40
0.0
 40
0.0
 40
0.0
 40
0.4492071657
 40
1.0
 40
1.0
 40
1.0
 40
1.0
 10
2909.1651917737
 20
1285.1270067546
 30
0.0
 10
2908.4916364596
 20
1285.5169320947
 30
0.0
 10
2907.3281611752
 20
1286.9743530095
 30
0.0
 10
2907.0968579642
 20
1288.7476827381
 30
0.0
 10
2907.0968579642
 20
1289.7019654075
 30
0.0
  0
SPLINE
  5
521
100
AcDbEntity
  8
6_ALL_SURFS
100
AcDbSpline
 62
7
  6
CONTINUOUS
 70
0
 71
3
 72
9
 73
5
 74
0
 42
0.0000001
 43
0.0000001
 44
0.0000000001
 40
0.0
 40
0.0
 40
0.0
 40
0.0
 40
0.2327750249
 40
1.0
 40
1.0
 40
1.0
 40
1.0
 10
2916.5883250319
 20
1302.8167897844
 30
0.0
 10
2916.6573727313
 20
1302.6323160776
 30
0.0
 10
2916.9096934381
 20
1301.8232448126
 30
0.0
 10
2916.9963529008
 20
1300.968420422
 30
0.0
 10
2916.9963529008
 20
1300.319200609
 30
0.0
  0
SPLINE
  5
522
100
AcDbEntity
  8
6_ALL_SURFS
100
AcDbSpline
 62
7
  6
CONTINUOUS
 70
0
 71
3
 72
9
 73
5
 74
0
 42
0.0000001
 43
0.0000001
 44
0.0000000001
 40
0.0
 40
0.0
 40
0.0
 40
0.0
 40
0.4492071657
 40
1.0
 40
1.0
 40
1.0
 40
1.0
 10
2880.8809205263
 20
1268.7927987524
 30
0.0
 10
2880.2073652121
 20
1269.1827240925
 30
0.0
 10
2879.0438899278
 20
1270.6401450072
 30
0.0
 10
2878.8125867168
 20
1272.4134747359
 30
0.0
 10
2878.8125867168
 20
1273.3677574053
 30
0.0
  0
SPLINE
  5
523
100
AcDbEntity
  8
6_ALL_SURFS
100
AcDbSpline
 62
7
  6
CONTINUOUS
 70
0
 71
3
 72
9
 73
5
 74
0
 42
0.0000001
 43
0.0000001
 44
0.0000000001
 40
0.0
 40
0.0
 40
0.0
 40
0.0
 40
0.2327750249
 40
1.0
 40
1.0
 40
1.0
 40
1.0
 10
2888.3040537844
 20
1286.4825817821
 30
0.0
 10
2888.3731014838
 20
1286.2981080754
 30
0.0
 10
2888.6254221906
 20
1285.4890368104
 30
0.0
 10
2888.7120816534
 20
1284.6342124198
 30
0.0
 10
2888.7120816534
 20
1283.9849926067
 30
0.0
  0
SPLINE
  5
524
100
AcDbEntity
  8
6_ALL_SURFS
100
AcDbSpline
 62
7
  6
CONTINUOUS
 70
0
 71
3
 72
9
 73
5
 74
0
 42
0.0000001
 43
0.0000001
 44
0.0000000001
 40
0.0
 40
0.0
 40
0.0
 40
0.0
 40
0.4492071657
 40
1.0
 40
1.0
 40
1.0
 40
1.0
 10
2852.5966492788
 20
1252.4585907502
 30
0.0
 10
2851.9230939647
 20
1252.8485160903
 30
0.0
 10
2850.7596186803
 20
1254.305937005
 30
0.0
 10
2850.5283154693
 20
1256.0792667337
 30
0.0
 10
2850.5283154693
 20
1257.0335494031
 30
0.0
  0
SPLINE
  5
525
100
AcDbEntity
  8
6_ALL_SURFS
100
AcDbSpline
 62
7
  6
CONTINUOUS
 70
0
 71
3
 72
9
 73
5
 74
0
 42
0.0000001
 43
0.0000001
 44
0.0000000001
 40
0.0
 40
0.0
 40
0.0
 40
0.0
 40
0.2327750249
 40
1.0
 40
1.0
 40
1.0
 40
1.0
 10
2860.0197825369
 20
1270.1483737799
 30
0.0
 10
2860.0888302363
 20
1269.9639000732
 30
0.0
 10
2860.3411509432
 20
1269.1548288081
 30
0.0
 10
2860.4278104059
 20
1268.3000044176
 30
0.0
 10
2860.4278104059
 20
1267.6507846045
 30
0.0
  0
SPLINE
  5
526
100
AcDbEntity
  8
6_ALL_SURFS
100
AcDbSpline
 62
7
  6
CONTINUOUS
 70
0
 71
3
 72
8
 73
4
 74
0
 42
0.0000001
 43
0.0000001
 44
0.0000000001
 40
0.0
 40
0.0
 40
0.0
 40
0.0
 40
1.0
 40
1.0
 40
1.0
 40
1.0
 10
2838.5380494357
 20
1205.1028868609
 30
0.0
 10
2838.8586390136
 20
1205.411428543
 30
0.0
 10
2839.1373911364
 20
1205.7673699179
 30
0.0
 10
2839.3704056872
 20
1206.1464211891
 30
0.0
  0
SPLINE
  5
527
100
AcDbEntity
  8
6_ALL_SURFS
100
AcDbSpline
 62
7
  6
CONTINUOUS
 70
0
 71
3
 72
9
 73
5
 74
0
 42
0.0000001
 43
0.0000001
 44
0.0000000001
 40
0.0
 40
0.0
 40
0.0
 40
0.0
 40
0.2667273151
 40
1.0
 40
1.0
 40
1.0
 40
1.0
 10
2839.3704056872
 20
1206.1464211891
 30
0.0
 10
2839.4899336504
 20
1206.340860662
 30
0.0
 10
2839.8923552281
 20
1207.0943862752
 30
0.0
 10
2840.1338457859
 20
1207.9529243845
 30
0.0
 10
2840.1338457859
 20
1208.5803906434
 30
0.0
  0
SPLINE
  5
528
100
AcDbEntity
  8
6_ALL_SURFS
100
AcDbSpline
 62
7
  6
CONTINUOUS
 70
0
 71
3
 72
8
 73
4
 74
0
 42
0.0000001
 43
0.0000001
 44
0.0000000001
 40
0.0
 40
0.0
 40
0.0
 40
0.0
 40
1.0
 40
1.0
 40
1.0
 40
1.0
 10
2839.0508944968
 20
1204.3804976327
 30
0.0
 10
2839.3477224088
 20
1204.2102649739
 30
0.0
 10
2839.5442055259
 20
1203.8596880314
 30
0.0
 10
2839.6196578243
 20
1203.5259322552
 30
0.0
  0
SPLINE
  5
529
100
AcDbEntity
  8
0
100
AcDbSpline
 62
7
  6
CONTINUOUS
 70
0
 71
3
 72
9
 73
5
 74
0
 42
0.0000001
 43
0.0000001
 44
0.0000000001
 40
0.0
 40
0.0
 40
0.0
 40
0.0
 40
0.2956262168
 40
1.0
 40
1.0
 40
1.0
 40
1.0
 10
2823.6582577842
 20
1742.149904576
 30
0.0
 10
2823.8777811561
 20
1742.2766796442
 30
0.0
 10
2824.6383845573
 20
1742.6517384492
 30
0.0
 10
2825.6357055392
 20
1742.6998603192
 30
0.0
 10
2826.1587519086
 20
1742.3977980225
 30
0.0
  0
SPLINE
  5
52A
100
AcDbEntity
  8
6_ALL_SURFS
100
AcDbSpline
 62
7
  6
CONTINUOUS
 70
0
 71
3
 72
9
 73
5
 74
0
 42
0.0000001
 43
0.0000001
 44
0.0000000001
 40
0.0
 40
0.0
 40
0.0
 40
0.0
 40
0.4318203608
 40
1.0
 40
1.0
 40
1.0
 40
1.0
 10
2833.1287594253
 20
1197.0736232302
 30
0.0
 10
2832.2453818144
 20
1197.5863642692
 30
0.0
 10
2830.8612186125
 20
1199.8260495389
 30
0.0
 10
2831.0059774356
 20
1202.2658795158
 30
0.0
 10
2831.2431150558
 20
1203.588728959
 30
0.0
  0
SPLINE
  5
52B
100
AcDbEntity
  8
6_ALL_SURFS
100
AcDbSpline
 62
7
  6
CONTINUOUS
 70
0
 71
3
 72
10
 73
6
 74
0
 42
0.0000001
 43
0.0000001
 44
0.0000000001
 40
0.0
 40
0.0
 40
0.0
 40
0.0
 40
0.4226281633
 40
0.7223832279
 40
1.0
 40
1.0
 40
1.0
 40
1.0
 10
3056.4987957091
 20
1340.4972810434
 30
0.0
 10
3055.3208886151
 20
1341.1766811092
 30
0.0
 10
3052.5558995109
 20
1339.5239783046
 30
0.0
 10
3050.9933127691
 20
1336.891564583
 30
0.0
 10
3050.4627578498
 20
1335.0188950377
 30
0.0
 10
3050.4627578498
 20
1334.1256686531
 30
0.0
  0
SPLINE
  5
52C
100
AcDbEntity
  8
0
100
AcDbSpline
 62
7
  6
CONTINUOUS
 70
0
 71
3
 72
9
 73
5
 74
0
 42
0.0000001
 43
0.0000001
 44
0.0000000001
 40
0.0
 40
0.0
 40
0.0
 40
0.0
 40
0.5300317887
 40
1.0
 40
1.0
 40
1.0
 40
1.0
 10
2480.1062182244
 20
1515.9516590877
 30
0.0
 10
2479.470520756
 20
1513.9268511282
 30
0.0
 10
2477.5165091435
 20
1510.3443388933
 30
0.0
 10
2474.3742684876
 20
1507.5765195431
 30
0.0
 10
2472.6340832248
 20
1506.8604411875
 30
0.0
  0
SPLINE
  5
52D
100
AcDbEntity
  8
0
100
AcDbSpline
 62
7
  6
CONTINUOUS
 70
0
 71
3
 72
8
 73
4
 74
0
 42
0.0000001
 43
0.0000001
 44
0.0000000001
 40
0.0
 40
0.0
 40
0.0
 40
0.0
 40
1.0
 40
1.0
 40
1.0
 40
1.0
 10
2472.6340832248
 20
1506.8604411875
 30
0.0
 10
2472.1875882049
 20
1506.6767105087
 30
0.0
 10
2471.7194048556
 20
1506.5346279871
 30
0.0
 10
2471.2427681283
 20
1506.4576072406
 30
0.0
  0
SPLINE
  5
52E
100
AcDbEntity
  8
6_ALL_SURFS
100
AcDbSpline
 62
7
  6
CONTINUOUS
 70
0
 71
3
 72
9
 73
5
 74
0
 42
0.0000001
 43
0.0000001
 44
0.0000000001
 40
0.0
 40
0.0
 40
0.0
 40
0.0
 40
0.2208989638
 40
1.0
 40
1.0
 40
1.0
 40
1.0
 10
2818.7294224147
 20
1432.8857021133
 30
0.0
 10
2818.5560747946
 20
1432.9853737673
 30
0.0
 10
2817.8467888205
 20
1433.5803289945
 30
0.0
 10
2817.6407790763
 20
1434.5837711554
 30
0.0
 10
2817.6407790763
 20
1435.2890199167
 30
0.0
  0
SPLINE
  5
52F
100
AcDbEntity
  8
0
100
AcDbSpline
 62
7
  6
CONTINUOUS
 70
0
 71
3
 72
9
 73
5
 74
0
 42
0.0000001
 43
0.0000001
 44
0.0000000001
 40
0.0
 40
0.0
 40
0.0
 40
0.0
 40
0.5300317887
 40
1.0
 40
1.0
 40
1.0
 40
1.0
 10
2508.3904894718
 20
1532.2858670899
 30
0.0
 10
2507.7547920035
 20
1530.2610591304
 30
0.0
 10
2505.800780391
 20
1526.6785468955
 30
0.0
 10
2502.6585397351
 20
1523.9107275453
 30
0.0
 10
2500.9183544723
 20
1523.1946491897
 30
0.0
  0
SPLINE
  5
530
100
AcDbEntity
  8
0
100
AcDbSpline
 62
7
  6
CONTINUOUS
 70
0
 71
3
 72
8
 73
4
 74
0
 42
0.0000001
 43
0.0000001
 44
0.0000000001
 40
0.0
 40
0.0
 40
0.0
 40
0.0
 40
1.0
 40
1.0
 40
1.0
 40
1.0
 10
2500.9183544723
 20
1523.1946491897
 30
0.0
 10
2500.4718594523
 20
1523.0109185109
 30
0.0
 10
2500.0036761031
 20
1522.8688359893
 30
0.0
 10
2499.5270393758
 20
1522.7918152428
 30
0.0
  0
SPLINE
  5
531
100
AcDbEntity
  8
0
100
AcDbSpline
 62
7
  6
CONTINUOUS
 70
0
 71
3
 72
9
 73
5
 74
0
 42
0.0000001
 43
0.0000001
 44
0.0000000001
 40
0.0
 40
0.0
 40
0.0
 40
0.0
 40
0.5300317887
 40
1.0
 40
1.0
 40
1.0
 40
1.0
 10
2536.6747607193
 20
1548.6200750922
 30
0.0
 10
2536.0390632509
 20
1546.5952671326
 30
0.0
 10
2534.0850516384
 20
1543.0127548978
 30
0.0
 10
2530.9428109826
 20
1540.2449355475
 30
0.0
 10
2529.2026257197
 20
1539.528857192
 30
0.0
  0
SPLINE
  5
532
100
AcDbEntity
  8
0
100
AcDbSpline
 62
7
  6
CONTINUOUS
 70
0
 71
3
 72
8
 73
4
 74
0
 42
0.0000001
 43
0.0000001
 44
0.0000000001
 40
0.0
 40
0.0
 40
0.0
 40
0.0
 40
1.0
 40
1.0
 40
1.0
 40
1.0
 10
2529.2026257197
 20
1539.528857192
 30
0.0
 10
2528.7561306998
 20
1539.3451265131
 30
0.0
 10
2528.2879473505
 20
1539.2030439915
 30
0.0
 10
2527.8113106233
 20
1539.1260232451
 30
0.0
  0
SPLINE
  5
533
100
AcDbEntity
  8
0
100
AcDbSpline
 62
7
  6
CONTINUOUS
 70
0
 71
3
 72
9
 73
5
 74
0
 42
0.0000001
 43
0.0000001
 44
0.0000000001
 40
0.0
 40
0.0
 40
0.0
 40
0.0
 40
0.5300317887
 40
1.0
 40
1.0
 40
1.0
 40
1.0
 10
2564.9590319668
 20
1564.9542830944
 30
0.0
 10
2564.3233344984
 20
1562.9294751348
 30
0.0
 10
2562.3693228859
 20
1559.3469629
 30
0.0
 10
2559.22708223
 20
1556.5791435497
 30
0.0
 10
2557.4868969672
 20
1555.8630651942
 30
0.0
  0
SPLINE
  5
534
100
AcDbEntity
  8
0
100
AcDbSpline
 62
7
  6
CONTINUOUS
 70
0
 71
3
 72
8
 73
4
 74
0
 42
0.0000001
 43
0.0000001
 44
0.0000000001
 40
0.0
 40
0.0
 40
0.0
 40
0.0
 40
1.0
 40
1.0
 40
1.0
 40
1.0
 10
2557.4868969672
 20
1555.8630651942
 30
0.0
 10
2557.0404019473
 20
1555.6793345153
 30
0.0
 10
2556.572218598
 20
1555.5372519938
 30
0.0
 10
2556.0955818707
 20
1555.4602312473
 30
0.0
  0
SPLINE
  5
535
100
AcDbEntity
  8
0
100
AcDbSpline
 62
7
  6
CONTINUOUS
 70
0
 71
3
 72
9
 73
5
 74
0
 42
0.0000001
 43
0.0000001
 44
0.0000000001
 40
0.0
 40
0.0
 40
0.0
 40
0.0
 40
0.4492071657
 40
1.0
 40
1.0
 40
1.0
 40
1.0
 10
2784.0072915037
 20
1684.0900372091
 30
0.0
 10
2783.3337361896
 20
1684.4799625492
 30
0.0
 10
2782.1702609052
 20
1685.9373834639
 30
0.0
 10
2781.9389576942
 20
1687.7107131926
 30
0.0
 10
2781.9389576942
 20
1688.664995862
 30
0.0
  0
SPLINE
  5
536
100
AcDbEntity
  8
0
100
AcDbSpline
 62
7
  6
CONTINUOUS
 70
0
 71
3
 72
9
 73
5
 74
0
 42
0.0000001
 43
0.0000001
 44
0.0000000001
 40
0.0
 40
0.0
 40
0.0
 40
0.0
 40
0.5300317887
 40
1.0
 40
1.0
 40
1.0
 40
1.0
 10
2593.2433032142
 20
1581.2884910966
 30
0.0
 10
2592.6076057459
 20
1579.2636831371
 30
0.0
 10
2590.6535941333
 20
1575.6811709022
 30
0.0
 10
2587.5113534775
 20
1572.913351552
 30
0.0
 10
2585.7711682147
 20
1572.1972731964
 30
0.0
  0
SPLINE
  5
537
100
AcDbEntity
  8
0
100
AcDbSpline
 62
7
  6
CONTINUOUS
 70
0
 71
3
 72
8
 73
4
 74
0
 42
0.0000001
 43
0.0000001
 44
0.0000000001
 40
0.0
 40
0.0
 40
0.0
 40
0.0
 40
1.0
 40
1.0
 40
1.0
 40
1.0
 10
2585.7711682147
 20
1572.1972731964
 30
0.0
 10
2585.3246731947
 20
1572.0135425176
 30
0.0
 10
2584.8564898454
 20
1571.871459996
 30
0.0
 10
2584.3798531182
 20
1571.7944392495
 30
0.0
  0
SPLINE
  5
538
100
AcDbEntity
  8
0
100
AcDbSpline
 62
7
  6
CONTINUOUS
 70
0
 71
3
 72
9
 73
5
 74
0
 42
0.0000001
 43
0.0000001
 44
0.0000000001
 40
0.0
 40
0.0
 40
0.0
 40
0.0
 40
0.5300317887
 40
1.0
 40
1.0
 40
1.0
 40
1.0
 10
2621.5275744617
 20
1597.6226990988
 30
0.0
 10
2620.8918769933
 20
1595.5978911393
 30
0.0
 10
2618.9378653808
 20
1592.0153789044
 30
0.0
 10
2615.7956247249
 20
1589.2475595542
 30
0.0
 10
2614.0554394621
 20
1588.5314811986
 30
0.0
  0
SPLINE
  5
539
100
AcDbEntity
  8
0
100
AcDbSpline
 62
7
  6
CONTINUOUS
 70
0
 71
3
 72
8
 73
4
 74
0
 42
0.0000001
 43
0.0000001
 44
0.0000000001
 40
0.0
 40
0.0
 40
0.0
 40
0.0
 40
1.0
 40
1.0
 40
1.0
 40
1.0
 10
2614.0554394621
 20
1588.5314811986
 30
0.0
 10
2613.6089444422
 20
1588.3477505198
 30
0.0
 10
2613.1407610929
 20
1588.2056679982
 30
0.0
 10
2612.6641243656
 20
1588.1286472517
 30
0.0
  0
SPLINE
  5
53A
100
AcDbEntity
  8
0
100
AcDbSpline
 62
7
  6
CONTINUOUS
 70
0
 71
3
 72
9
 73
5
 74
0
 42
0.0000001
 43
0.0000001
 44
0.0000000001
 40
0.0
 40
0.0
 40
0.0
 40
0.0
 40
0.5300317887
 40
1.0
 40
1.0
 40
1.0
 40
1.0
 10
2649.8118457092
 20
1613.9569071011
 30
0.0
 10
2649.1761482408
 20
1611.9320991415
 30
0.0
 10
2647.2221366283
 20
1608.3495869067
 30
0.0
 10
2644.0798959724
 20
1605.5817675564
 30
0.0
 10
2642.3397107096
 20
1604.8656892009
 30
0.0
  0
SPLINE
  5
53B
100
AcDbEntity
  8
0
100
AcDbSpline
 62
7
  6
CONTINUOUS
 70
0
 71
3
 72
8
 73
4
 74
0
 42
0.0000001
 43
0.0000001
 44
0.0000000001
 40
0.0
 40
0.0
 40
0.0
 40
0.0
 40
1.0
 40
1.0
 40
1.0
 40
1.0
 10
2642.3397107096
 20
1604.8656892009
 30
0.0
 10
2641.8932156897
 20
1604.681958522
 30
0.0
 10
2641.4250323404
 20
1604.5398760005
 30
0.0
 10
2640.9483956131
 20
1604.462855254
 30
0.0
  0
SPLINE
  5
53C
100
AcDbEntity
  8
0
100
AcDbSpline
 62
7
  6
CONTINUOUS
 70
0
 71
3
 72
9
 73
5
 74
0
 42
0.0000001
 43
0.0000001
 44
0.0000000001
 40
0.0
 40
0.0
 40
0.0
 40
0.0
 40
0.4492071657
 40
1.0
 40
1.0
 40
1.0
 40
1.0
 10
2755.7230202562
 20
1667.7558292069
 30
0.0
 10
2755.0494649421
 20
1668.145754547
 30
0.0
 10
2753.8859896577
 20
1669.6031754617
 30
0.0
 10
2753.6546864467
 20
1671.3765051904
 30
0.0
 10
2753.6546864467
 20
1672.3307878598
 30
0.0
  0
SPLINE
  5
53D
100
AcDbEntity
  8
0
100
AcDbSpline
 62
7
  6
CONTINUOUS
 70
0
 71
3
 72
9
 73
5
 74
0
 42
0.0000001
 43
0.0000001
 44
0.0000000001
 40
0.0
 40
0.0
 40
0.0
 40
0.0
 40
0.5300317887
 40
1.0
 40
1.0
 40
1.0
 40
1.0
 10
2678.0961169566
 20
1630.2911151033
 30
0.0
 10
2677.4604194882
 20
1628.2663071438
 30
0.0
 10
2675.5064078757
 20
1624.6837949089
 30
0.0
 10
2672.3641672199
 20
1621.9159755587
 30
0.0
 10
2670.623981957
 20
1621.1998972031
 30
0.0
  0
SPLINE
  5
53E
100
AcDbEntity
  8
0
100
AcDbSpline
 62
7
  6
CONTINUOUS
 70
0
 71
3
 72
8
 73
4
 74
0
 42
0.0000001
 43
0.0000001
 44
0.0000000001
 40
0.0
 40
0.0
 40
0.0
 40
0.0
 40
1.0
 40
1.0
 40
1.0
 40
1.0
 10
2670.623981957
 20
1621.1998972031
 30
0.0
 10
2670.1774869371
 20
1621.0161665243
 30
0.0
 10
2669.7093035878
 20
1620.8740840027
 30
0.0
 10
2669.2326668606
 20
1620.7970632562
 30
0.0
  0
SPLINE
  5
53F
100
AcDbEntity
  8
0
100
AcDbSpline
 62
7
  6
CONTINUOUS
 70
0
 71
3
 72
9
 73
5
 74
0
 42
0.0000001
 43
0.0000001
 44
0.0000000001
 40
0.0
 40
0.0
 40
0.0
 40
0.0
 40
0.5300317887
 40
1.0
 40
1.0
 40
1.0
 40
1.0
 10
2706.3803882041
 20
1646.6253231055
 30
0.0
 10
2705.7446907357
 20
1644.600515146
 30
0.0
 10
2703.7906791232
 20
1641.0180029111
 30
0.0
 10
2700.6484384673
 20
1638.2501835609
 30
0.0
 10
2698.9082532045
 20
1637.5341052053
 30
0.0
  0
SPLINE
  5
540
100
AcDbEntity
  8
0
100
AcDbSpline
 62
7
  6
CONTINUOUS
 70
0
 71
3
 72
8
 73
4
 74
0
 42
0.0000001
 43
0.0000001
 44
0.0000000001
 40
0.0
 40
0.0
 40
0.0
 40
0.0
 40
1.0
 40
1.0
 40
1.0
 40
1.0
 10
2698.9082532045
 20
1637.5341052053
 30
0.0
 10
2698.4617581846
 20
1637.3503745265
 30
0.0
 10
2697.9935748353
 20
1637.2082920049
 30
0.0
 10
2697.516938108
 20
1637.1312712584
 30
0.0
  0
SPLINE
  5
541
100
AcDbEntity
  8
0
100
AcDbSpline
 62
7
  6
CONTINUOUS
 70
0
 71
3
 72
9
 73
5
 74
0
 42
0.0000001
 43
0.0000001
 44
0.0000000001
 40
0.0
 40
0.0
 40
0.0
 40
0.0
 40
0.5300317887
 40
1.0
 40
1.0
 40
1.0
 40
1.0
 10
2734.6646594515
 20
1662.9595311078
 30
0.0
 10
2734.0289619832
 20
1660.9347231482
 30
0.0
 10
2732.0749503707
 20
1657.3522109134
 30
0.0
 10
2728.9327097148
 20
1654.5843915631
 30
0.0
 10
2727.192524452
 20
1653.8683132076
 30
0.0
  0
SPLINE
  5
542
100
AcDbEntity
  8
0
100
AcDbSpline
 62
7
  6
CONTINUOUS
 70
0
 71
3
 72
8
 73
4
 74
0
 42
0.0000001
 43
0.0000001
 44
0.0000000001
 40
0.0
 40
0.0
 40
0.0
 40
0.0
 40
1.0
 40
1.0
 40
1.0
 40
1.0
 10
2727.192524452
 20
1653.8683132076
 30
0.0
 10
2726.746029432
 20
1653.6845825287
 30
0.0
 10
2726.2778460827
 20
1653.5425000072
 30
0.0
 10
2725.8012093555
 20
1653.4654792607
 30
0.0
  0
SPLINE
  5
543
100
AcDbEntity
  8
0
100
AcDbSpline
 62
7
  6
CONTINUOUS
 70
0
 71
3
 72
9
 73
5
 74
0
 42
0.0000001
 43
0.0000001
 44
0.0000000001
 40
0.0
 40
0.0
 40
0.0
 40
0.0
 40
0.4492071657
 40
1.0
 40
1.0
 40
1.0
 40
1.0
 10
2727.4387490088
 20
1651.4216212046
 30
0.0
 10
2726.7651936946
 20
1651.8115465447
 30
0.0
 10
2725.6017184103
 20
1653.2689674595
 30
0.0
 10
2725.3704151993
 20
1655.0422971882
 30
0.0
 10
2725.3704151993
 20
1655.9965798575
 30
0.0
  0
SPLINE
  5
544
100
AcDbEntity
  8
0
100
AcDbSpline
 62
7
  6
CONTINUOUS
 70
0
 71
3
 72
9
 73
5
 74
0
 42
0.0000001
 43
0.0000001
 44
0.0000000001
 40
0.0
 40
0.0
 40
0.0
 40
0.0
 40
0.5300317887
 40
1.0
 40
1.0
 40
1.0
 40
1.0
 10
2762.948930699
 20
1679.29373911
 30
0.0
 10
2762.3132332306
 20
1677.2689311505
 30
0.0
 10
2760.3592216181
 20
1673.6864189156
 30
0.0
 10
2757.2169809623
 20
1670.9185995654
 30
0.0
 10
2755.4767956994
 20
1670.2025212098
 30
0.0
  0
SPLINE
  5
545
100
AcDbEntity
  8
0
100
AcDbSpline
 62
7
  6
CONTINUOUS
 70
0
 71
3
 72
8
 73
4
 74
0
 42
0.0000001
 43
0.0000001
 44
0.0000000001
 40
0.0
 40
0.0
 40
0.0
 40
0.0
 40
1.0
 40
1.0
 40
1.0
 40
1.0
 10
2755.4767956994
 20
1670.2025212098
 30
0.0
 10
2755.0303006795
 20
1670.018790531
 30
0.0
 10
2754.5621173302
 20
1669.8767080094
 30
0.0
 10
2754.0854806029
 20
1669.7996872629
 30
0.0
  0
SPLINE
  5
546
100
AcDbEntity
  8
0
100
AcDbSpline
 62
7
  6
CONTINUOUS
 70
0
 71
3
 72
9
 73
5
 74
0
 42
0.0000001
 43
0.0000001
 44
0.0000000001
 40
0.0
 40
0.0
 40
0.0
 40
0.0
 40
0.5300317887
 40
1.0
 40
1.0
 40
1.0
 40
1.0
 10
2791.2332019465
 20
1695.6279471122
 30
0.0
 10
2790.5975044781
 20
1693.6031391527
 30
0.0
 10
2788.6434928656
 20
1690.0206269178
 30
0.0
 10
2785.5012522097
 20
1687.2528075676
 30
0.0
 10
2783.7610669469
 20
1686.536729212
 30
0.0
  0
SPLINE
  5
547
100
AcDbEntity
  8
0
100
AcDbSpline
 62
7
  6
CONTINUOUS
 70
0
 71
3
 72
8
 73
4
 74
0
 42
0.0000001
 43
0.0000001
 44
0.0000000001
 40
0.0
 40
0.0
 40
0.0
 40
0.0
 40
1.0
 40
1.0
 40
1.0
 40
1.0
 10
2783.7610669469
 20
1686.536729212
 30
0.0
 10
2783.314571927
 20
1686.3529985332
 30
0.0
 10
2782.8463885777
 20
1686.2109160116
 30
0.0
 10
2782.3697518504
 20
1686.1338952651
 30
0.0
  0
SPLINE
  5
548
100
AcDbEntity
  8
0
100
AcDbSpline
 62
7
  6
CONTINUOUS
 70
0
 71
3
 72
9
 73
5
 74
0
 42
0.0000001
 43
0.0000001
 44
0.0000000001
 40
0.0
 40
0.0
 40
0.0
 40
0.0
 40
0.4492071657
 40
1.0
 40
1.0
 40
1.0
 40
1.0
 10
2699.1544777613
 20
1635.0874132024
 30
0.0
 10
2698.4809224472
 20
1635.4773385425
 30
0.0
 10
2697.3174471628
 20
1636.9347594573
 30
0.0
 10
2697.0861439518
 20
1638.7080891859
 30
0.0
 10
2697.0861439518
 20
1639.6623718553
 30
0.0
  0
SPLINE
  5
549
100
AcDbEntity
  8
0
100
AcDbSpline
 62
7
  6
CONTINUOUS
 70
0
 71
3
 72
9
 73
5
 74
0
 42
0.0000001
 43
0.0000001
 44
0.0000000001
 40
0.0
 40
0.0
 40
0.0
 40
0.0
 40
0.4492071657
 40
1.0
 40
1.0
 40
1.0
 40
1.0
 10
2670.8702065139
 20
1618.7532052002
 30
0.0
 10
2670.1966511997
 20
1619.1431305403
 30
0.0
 10
2669.0331759154
 20
1620.600551455
 30
0.0
 10
2668.8018727044
 20
1622.3738811837
 30
0.0
 10
2668.8018727044
 20
1623.3281638531
 30
0.0
  0
SPLINE
  5
54A
100
AcDbEntity
  8
0
100
AcDbSpline
 62
7
  6
CONTINUOUS
 70
0
 71
3
 72
9
 73
5
 74
0
 42
0.0000001
 43
0.0000001
 44
0.0000000001
 40
0.0
 40
0.0
 40
0.0
 40
0.0
 40
0.4492071657
 40
1.0
 40
1.0
 40
1.0
 40
1.0
 10
2642.5859352664
 20
1602.4189971979
 30
0.0
 10
2641.9123799523
 20
1602.808922538
 30
0.0
 10
2640.7489046679
 20
1604.2663434528
 30
0.0
 10
2640.5176014569
 20
1606.0396731815
 30
0.0
 10
2640.5176014569
 20
1606.9939558508
 30
0.0
  0
SPLINE
  5
54B
100
AcDbEntity
  8
0
100
AcDbSpline
 62
7
  6
CONTINUOUS
 70
0
 71
3
 72
9
 73
5
 74
0
 42
0.0000001
 43
0.0000001
 44
0.0000000001
 40
0.0
 40
0.0
 40
0.0
 40
0.0
 40
0.4492071657
 40
1.0
 40
1.0
 40
1.0
 40
1.0
 10
2614.3016640189
 20
1586.0847891957
 30
0.0
 10
2613.6281087048
 20
1586.4747145358
 30
0.0
 10
2612.4646334204
 20
1587.9321354506
 30
0.0
 10
2612.2333302094
 20
1589.7054651792
 30
0.0
 10
2612.2333302094
 20
1590.6597478486
 30
0.0
  0
SPLINE
  5
54C
100
AcDbEntity
  8
0
100
AcDbSpline
 62
7
  6
CONTINUOUS
 70
0
 71
3
 72
9
 73
5
 74
0
 42
0.0000001
 43
0.0000001
 44
0.0000000001
 40
0.0
 40
0.0
 40
0.0
 40
0.0
 40
0.4492071657
 40
1.0
 40
1.0
 40
1.0
 40
1.0
 10
2586.0173927715
 20
1569.7505811935
 30
0.0
 10
2585.3438374573
 20
1570.1405065336
 30
0.0
 10
2584.180362173
 20
1571.5979274483
 30
0.0
 10
2583.949058962
 20
1573.371257177
 30
0.0
 10
2583.949058962
 20
1574.3255398464
 30
0.0
  0
SPLINE
  5
54D
100
AcDbEntity
  8
6_ALL_SURFS
100
AcDbSpline
 62
7
  6
CONTINUOUS
 70
0
 71
3
 72
9
 73
5
 74
0
 42
0.0000001
 43
0.0000001
 44
0.0000000001
 40
0.0
 40
0.0
 40
0.0
 40
0.0
 40
0.499974349
 40
1.0
 40
1.0
 40
1.0
 40
1.0
 10
3225.2949094982
 20
1430.1995689603
 30
0.0
 10
3225.2949094982
 20
1428.9879072497
 30
0.0
 10
3224.4665644119
 20
1426.5953778021
 30
0.0
 10
3222.8087443782
 20
1424.6818567167
 30
0.0
 10
3221.7593755922
 20
1424.0758447084
 30
0.0
  0
SPLINE
  5
54E
100
AcDbEntity
  8
0
100
AcDbSpline
 62
7
  6
CONTINUOUS
 70
0
 71
3
 72
9
 73
5
 74
0
 42
0.0000001
 43
0.0000001
 44
0.0000000001
 40
0.0
 40
0.0
 40
0.0
 40
0.0
 40
0.4492071657
 40
1.0
 40
1.0
 40
1.0
 40
1.0
 10
2557.733121524
 20
1553.4163731913
 30
0.0
 10
2557.0595662099
 20
1553.8062985314
 30
0.0
 10
2555.8960909255
 20
1555.2637194461
 30
0.0
 10
2555.6647877145
 20
1557.0370491748
 30
0.0
 10
2555.6647877145
 20
1557.9913318441
 30
0.0
  0
SPLINE
  5
54F
100
AcDbEntity
  8
0
100
AcDbSpline
 62
7
  6
CONTINUOUS
 70
0
 71
3
 72
9
 73
5
 74
0
 42
0.0000001
 43
0.0000001
 44
0.0000000001
 40
0.0
 40
0.0
 40
0.0
 40
0.0
 40
0.4492071657
 40
1.0
 40
1.0
 40
1.0
 40
1.0
 10
2529.4488502765
 20
1537.082165189
 30
0.0
 10
2528.7752949624
 20
1537.4720905291
 30
0.0
 10
2527.6118196781
 20
1538.9295114439
 30
0.0
 10
2527.380516467
 20
1540.7028411725
 30
0.0
 10
2527.380516467
 20
1541.6571238419
 30
0.0
  0
SPLINE
  5
550
100
AcDbEntity
  8
0
100
AcDbSpline
 62
7
  6
CONTINUOUS
 70
0
 71
3
 72
9
 73
5
 74
0
 42
0.0000001
 43
0.0000001
 44
0.0000000001
 40
0.0
 40
0.0
 40
0.0
 40
0.0
 40
0.4492071657
 40
1.0
 40
1.0
 40
1.0
 40
1.0
 10
2501.1645790291
 20
1520.7479571868
 30
0.0
 10
2500.4910237149
 20
1521.1378825269
 30
0.0
 10
2499.3275484306
 20
1522.5953034416
 30
0.0
 10
2499.0962452196
 20
1524.3686331703
 30
0.0
 10
2499.0962452196
 20
1525.3229158397
 30
0.0
  0
SPLINE
  5
551
100
AcDbEntity
  8
0
100
AcDbSpline
 62
7
  6
CONTINUOUS
 70
0
 71
3
 72
9
 73
5
 74
0
 42
0.0000001
 43
0.0000001
 44
0.0000000001
 40
0.0
 40
0.0
 40
0.0
 40
0.0
 40
0.4492071657
 40
1.0
 40
1.0
 40
1.0
 40
1.0
 10
2472.8803077816
 20
1504.4137491846
 30
0.0
 10
2472.2067524675
 20
1504.8036745247
 30
0.0
 10
2471.0432771831
 20
1506.2610954394
 30
0.0
 10
2470.8119739721
 20
1508.0344251681
 30
0.0
 10
2470.8119739721
 20
1508.9887078375
 30
0.0
  0
SPLINE
  5
552
100
AcDbEntity
  8
0
100
AcDbSpline
 62
7
  6
CONTINUOUS
 70
0
 71
3
 72
10
 73
6
 74
0
 42
0.0000001
 43
0.0000001
 44
0.0000000001
 40
0.0
 40
0.0
 40
0.0
 40
0.0
 40
0.2776167721
 40
0.5773718367
 40
1.0
 40
1.0
 40
1.0
 40
1.0
 10
2798.7327437474
 20
1657.5439493465
 30
0.0
 10
2798.7327437474
 20
1658.1245464966
 30
0.0
 10
2799.0776044449
 20
1659.341781701
 30
0.0
 10
2800.0932858271
 20
1661.0528506201
 30
0.0
 10
2801.8905287448
 20
1662.1271074431
 30
0.0
 10
2802.6561683559
 20
1661.6854974003
 30
0.0
  0
SPLINE
  5
553
100
AcDbEntity
  8
0
100
AcDbSpline
 62
7
  6
CONTINUOUS
 70
0
 71
3
 72
10
 73
6
 74
0
 42
0.0000001
 43
0.0000001
 44
0.0000000001
 40
0.0
 40
0.0
 40
0.0
 40
0.0
 40
0.2775555189
 40
0.5772963999
 40
1.0
 40
1.0
 40
1.0
 40
1.0
 10
2681.4240918775
 20
1594.4991433699
 30
0.0
 10
2681.4240918775
 20
1595.2580909946
 30
0.0
 10
2681.8746620267
 20
1596.8494067074
 30
0.0
 10
2683.2028564181
 20
1599.0867138586
 30
0.0
 10
2685.5512033902
 20
1600.4918446174
 30
0.0
 10
2686.5532168151
 20
1599.9157055541
 30
0.0
  0
SPLINE
  5
554
100
AcDbEntity
  8
0
100
AcDbSpline
 62
7
  6
CONTINUOUS
 70
0
 71
3
 72
8
 73
4
 74
0
 42
0.0000001
 43
0.0000001
 44
0.0000000001
 40
0.0
 40
0.0
 40
0.0
 40
0.0
 40
1.0
 40
1.0
 40
1.0
 40
1.0
 10
2470.8119739721
 20
1508.9887078375
 30
0.0
 10
2470.8119739721
 20
1509.5661675328
 30
0.0
 10
2470.8649673101
 20
1510.1449129846
 30
0.0
 10
2470.9568166262
 20
1510.7150212224
 30
0.0
  0
SPLINE
  5
555
100
AcDbEntity
  8
0
100
AcDbSpline
 62
7
  6
CONTINUOUS
 70
0
 71
3
 72
8
 73
4
 74
0
 42
0.0000001
 43
0.0000001
 44
0.0000000001
 40
0.0
 40
0.0
 40
0.0
 40
0.0
 40
1.0
 40
1.0
 40
1.0
 40
1.0
 10
2499.0962452196
 20
1525.3229158397
 30
0.0
 10
2499.0962452196
 20
1525.900375535
 30
0.0
 10
2499.1492385576
 20
1526.4791209868
 30
0.0
 10
2499.2410878737
 20
1527.0492292246
 30
0.0
  0
SPLINE
  5
556
100
AcDbEntity
  8
0
100
AcDbSpline
 62
7
  6
CONTINUOUS
 70
0
 71
3
 72
8
 73
4
 74
0
 42
0.0000001
 43
0.0000001
 44
0.0000000001
 40
0.0
 40
0.0
 40
0.0
 40
0.0
 40
1.0
 40
1.0
 40
1.0
 40
1.0
 10
2527.380516467
 20
1541.6571238419
 30
0.0
 10
2527.380516467
 20
1542.2345835372
 30
0.0
 10
2527.4335098051
 20
1542.813328989
 30
0.0
 10
2527.5253591212
 20
1543.3834372269
 30
0.0
  0
SPLINE
  5
557
100
AcDbEntity
  8
0
100
AcDbSpline
 62
7
  6
CONTINUOUS
 70
0
 71
3
 72
8
 73
4
 74
0
 42
0.0000001
 43
0.0000001
 44
0.0000000001
 40
0.0
 40
0.0
 40
0.0
 40
0.0
 40
1.0
 40
1.0
 40
1.0
 40
1.0
 10
2555.6647877145
 20
1557.9913318441
 30
0.0
 10
2555.6647877145
 20
1558.5687915395
 30
0.0
 10
2555.7177810525
 20
1559.1475369913
 30
0.0
 10
2555.8096303686
 20
1559.7176452291
 30
0.0
  0
SPLINE
  5
558
100
AcDbEntity
  8
0
100
AcDbSpline
 62
7
  6
CONTINUOUS
 70
0
 71
3
 72
8
 73
4
 74
0
 42
0.0000001
 43
0.0000001
 44
0.0000000001
 40
0.0
 40
0.0
 40
0.0
 40
0.0
 40
1.0
 40
1.0
 40
1.0
 40
1.0
 10
2583.949058962
 20
1574.3255398464
 30
0.0
 10
2583.949058962
 20
1574.9029995417
 30
0.0
 10
2584.0020523
 20
1575.4817449935
 30
0.0
 10
2584.0939016161
 20
1576.0518532313
 30
0.0
  0
SPLINE
  5
559
100
AcDbEntity
  8
0
100
AcDbSpline
 62
7
  6
CONTINUOUS
 70
0
 71
3
 72
8
 73
4
 74
0
 42
0.0000001
 43
0.0000001
 44
0.0000000001
 40
0.0
 40
0.0
 40
0.0
 40
0.0
 40
1.0
 40
1.0
 40
1.0
 40
1.0
 10
2612.2333302094
 20
1590.6597478486
 30
0.0
 10
2612.2333302094
 20
1591.2372075439
 30
0.0
 10
2612.2863235474
 20
1591.8159529957
 30
0.0
 10
2612.3781728636
 20
1592.3860612336
 30
0.0
  0
SPLINE
  5
55A
100
AcDbEntity
  8
0
100
AcDbSpline
 62
7
  6
CONTINUOUS
 70
0
 71
3
 72
8
 73
4
 74
0
 42
0.0000001
 43
0.0000001
 44
0.0000000001
 40
0.0
 40
0.0
 40
0.0
 40
0.0
 40
1.0
 40
1.0
 40
1.0
 40
1.0
 10
2640.5176014569
 20
1606.9939558508
 30
0.0
 10
2640.5176014569
 20
1607.5714155462
 30
0.0
 10
2640.5705947949
 20
1608.150160998
 30
0.0
 10
2640.662444111
 20
1608.7202692358
 30
0.0
  0
SPLINE
  5
55B
100
AcDbEntity
  8
0
100
AcDbSpline
 62
7
  6
CONTINUOUS
 70
0
 71
3
 72
8
 73
4
 74
0
 42
0.0000001
 43
0.0000001
 44
0.0000000001
 40
0.0
 40
0.0
 40
0.0
 40
0.0
 40
1.0
 40
1.0
 40
1.0
 40
1.0
 10
2668.8018727044
 20
1623.3281638531
 30
0.0
 10
2668.8018727044
 20
1623.9056235484
 30
0.0
 10
2668.8548660424
 20
1624.4843690002
 30
0.0
 10
2668.9467153585
 20
1625.054477238
 30
0.0
  0
SPLINE
  5
55C
100
AcDbEntity
  8
0
100
AcDbSpline
 62
7
  6
CONTINUOUS
 70
0
 71
3
 72
8
 73
4
 74
0
 42
0.0000001
 43
0.0000001
 44
0.0000000001
 40
0.0
 40
0.0
 40
0.0
 40
0.0
 40
1.0
 40
1.0
 40
1.0
 40
1.0
 10
2697.0861439518
 20
1639.6623718553
 30
0.0
 10
2697.0861439518
 20
1640.2398315506
 30
0.0
 10
2697.1391372898
 20
1640.8185770024
 30
0.0
 10
2697.2309866059
 20
1641.3886852403
 30
0.0
  0
SPLINE
  5
55D
100
AcDbEntity
  8
0
100
AcDbSpline
 62
7
  6
CONTINUOUS
 70
0
 71
3
 72
8
 73
4
 74
0
 42
0.0000001
 43
0.0000001
 44
0.0000000001
 40
0.0
 40
0.0
 40
0.0
 40
0.0
 40
1.0
 40
1.0
 40
1.0
 40
1.0
 10
2725.3704151993
 20
1655.9965798575
 30
0.0
 10
2725.3704151993
 20
1656.5740395529
 30
0.0
 10
2725.4234085373
 20
1657.1527850046
 30
0.0
 10
2725.5152578534
 20
1657.7228932425
 30
0.0
  0
SPLINE
  5
55E
100
AcDbEntity
  8
0
100
AcDbSpline
 62
7
  6
CONTINUOUS
 70
0
 71
3
 72
8
 73
4
 74
0
 42
0.0000001
 43
0.0000001
 44
0.0000000001
 40
0.0
 40
0.0
 40
0.0
 40
0.0
 40
1.0
 40
1.0
 40
1.0
 40
1.0
 10
2753.6546864467
 20
1672.3307878598
 30
0.0
 10
2753.6546864467
 20
1672.9082475551
 30
0.0
 10
2753.7076797848
 20
1673.4869930069
 30
0.0
 10
2753.7995291009
 20
1674.0571012447
 30
0.0
  0
SPLINE
  5
55F
100
AcDbEntity
  8
0
100
AcDbSpline
 62
7
  6
CONTINUOUS
 70
0
 71
3
 72
8
 73
4
 74
0
 42
0.0000001
 43
0.0000001
 44
0.0000000001
 40
0.0
 40
0.0
 40
0.0
 40
0.0
 40
1.0
 40
1.0
 40
1.0
 40
1.0
 10
2781.9389576942
 20
1688.664995862
 30
0.0
 10
2781.9389576942
 20
1689.2424555573
 30
0.0
 10
2781.9919510322
 20
1689.8212010091
 30
0.0
 10
2782.0838003483
 20
1690.3913092469
 30
0.0
  0
SPLINE
  5
560
100
AcDbEntity
  8
0
100
AcDbSpline
 62
7
  6
CONTINUOUS
 70
0
 71
3
 72
9
 73
5
 74
0
 42
0.0000001
 43
0.0000001
 44
0.0000000001
 40
0.0
 40
0.0
 40
0.0
 40
0.0
 40
0.5047594957
 40
1.0
 40
1.0
 40
1.0
 40
1.0
 10
2805.6134164812
 20
1661.109353086
 30
0.0
 10
2805.5156372613
 20
1659.5896517363
 30
0.0
 10
2804.4169271653
 20
1656.6603397222
 30
0.0
 10
2802.3247064586
 20
1654.3117803372
 30
0.0
 10
2801.0308407862
 20
1653.5645710195
 30
0.0
  0
SPLINE
  5
561
100
AcDbEntity
  8
6_ALL_SURFS
100
AcDbSpline
 62
7
  6
CONTINUOUS
 70
0
 71
3
 72
12
 73
8
 74
0
 42
0.0000001
 43
0.0000001
 44
0.0000000001
 40
0.0
 40
0.0
 40
0.0
 40
0.0
 40
0.183254858
 40
0.3014455741
 40
0.4361829271
 40
0.7289416397
 40
1.0
 40
1.0
 40
1.0
 40
1.0
 10
3003.6699201303
 20
1566.4511176438
 30
0.0
 10
3002.6246686831
 20
1567.0562201758
 30
0.0
 10
3000.3334939148
 20
1566.9396272852
 30
0.0
 10
2997.8428076921
 20
1565.5289094365
 30
0.0
 10
2995.1147252133
 20
1563.1332996618
 30
0.0
 10
2992.5814426181
 20
1559.1984266117
 30
0.0
 10
2991.596118316
 20
1555.495502464
 30
0.0
 10
2991.596118316
 20
1553.7090549898
 30
0.0
  0
SPLINE
  5
562
100
AcDbEntity
  8
6_ALL_SURFS
100
AcDbSpline
 62
7
  6
CONTINUOUS
 70
0
 71
3
 72
12
 73
8
 74
0
 42
0.0000001
 43
0.0000001
 44
0.0000000001
 40
0.0
 40
0.0
 40
0.0
 40
0.0
 40
0.183254858
 40
0.3014455741
 40
0.4361829271
 40
0.7289416397
 40
1.0
 40
1.0
 40
1.0
 40
1.0
 10
2975.3856488828
 20
1550.1169096415
 30
0.0
 10
2974.3403974356
 20
1550.7220121735
 30
0.0
 10
2972.0492226674
 20
1550.605419283
 30
0.0
 10
2969.5585364447
 20
1549.1947014343
 30
0.0
 10
2966.8304539658
 20
1546.7990916596
 30
0.0
 10
2964.2971713706
 20
1542.8642186095
 30
0.0
 10
2963.3118470686
 20
1539.1612944618
 30
0.0
 10
2963.3118470686
 20
1537.3748469875
 30
0.0
  0
SPLINE
  5
563
100
AcDbEntity
  8
6_ALL_SURFS
100
AcDbSpline
 62
7
  6
CONTINUOUS
 70
0
 71
3
 72
12
 73
8
 74
0
 42
0.0000001
 43
0.0000001
 44
0.0000000001
 40
0.0
 40
0.0
 40
0.0
 40
0.0
 40
0.183254858
 40
0.3014455741
 40
0.4361829271
 40
0.7289416397
 40
1.0
 40
1.0
 40
1.0
 40
1.0
 10
2947.1013776353
 20
1533.7827016393
 30
0.0
 10
2946.0561261882
 20
1534.3878041713
 30
0.0
 10
2943.7649514199
 20
1534.2712112808
 30
0.0
 10
2941.2742651972
 20
1532.8604934321
 30
0.0
 10
2938.5461827184
 20
1530.4648836574
 30
0.0
 10
2936.0129001231
 20
1526.5300106072
 30
0.0
 10
2935.0275758211
 20
1522.8270864596
 30
0.0
 10
2935.0275758211
 20
1521.0406389853
 30
0.0
  0
SPLINE
  5
564
100
AcDbEntity
  8
6_ALL_SURFS
100
AcDbSpline
 62
7
  6
CONTINUOUS
 70
0
 71
3
 72
12
 73
8
 74
0
 42
0.0000001
 43
0.0000001
 44
0.0000000001
 40
0.0
 40
0.0
 40
0.0
 40
0.0
 40
0.183254858
 40
0.3014455741
 40
0.4361829271
 40
0.7289416397
 40
1.0
 40
1.0
 40
1.0
 40
1.0
 10
2918.8171063879
 20
1517.4484936371
 30
0.0
 10
2917.7718549407
 20
1518.0535961691
 30
0.0
 10
2915.4806801724
 20
1517.9370032785
 30
0.0
 10
2912.9899939497
 20
1516.5262854298
 30
0.0
 10
2910.2619114709
 20
1514.1306756551
 30
0.0
 10
2907.7286288757
 20
1510.195802605
 30
0.0
 10
2906.7433045736
 20
1506.4928784573
 30
0.0
 10
2906.7433045736
 20
1504.7064309831
 30
0.0
  0
SPLINE
  5
565
100
AcDbEntity
  8
6_ALL_SURFS
100
AcDbSpline
 62
7
  6
CONTINUOUS
 70
0
 71
3
 72
12
 73
8
 74
0
 42
0.0000001
 43
0.0000001
 44
0.0000000001
 40
0.0
 40
0.0
 40
0.0
 40
0.0
 40
0.183254858
 40
0.3014455741
 40
0.4361829271
 40
0.7289416397
 40
1.0
 40
1.0
 40
1.0
 40
1.0
 10
2890.5328351404
 20
1501.1142856348
 30
0.0
 10
2889.4875836932
 20
1501.7193881669
 30
0.0
 10
2887.196408925
 20
1501.6027952763
 30
0.0
 10
2884.7057227023
 20
1500.1920774276
 30
0.0
 10
2881.9776402234
 20
1497.7964676529
 30
0.0
 10
2879.4443576282
 20
1493.8615946028
 30
0.0
 10
2878.4590333262
 20
1490.1586704551
 30
0.0
 10
2878.4590333262
 20
1488.3722229808
 30
0.0
  0
SPLINE
  5
566
100
AcDbEntity
  8
6_ALL_SURFS
100
AcDbSpline
 62
7
  6
CONTINUOUS
 70
0
 71
3
 72
12
 73
8
 74
0
 42
0.0000001
 43
0.0000001
 44
0.0000000001
 40
0.0
 40
0.0
 40
0.0
 40
0.0
 40
0.183254858
 40
0.3014455741
 40
0.4361829271
 40
0.7289416397
 40
1.0
 40
1.0
 40
1.0
 40
1.0
 10
2862.2485638929
 20
1484.7800776326
 30
0.0
 10
2861.2033124458
 20
1485.3851801646
 30
0.0
 10
2858.9121376775
 20
1485.2685872741
 30
0.0
 10
2856.4214514548
 20
1483.8578694254
 30
0.0
 10
2853.693368976
 20
1481.4622596507
 30
0.0
 10
2851.1600863808
 20
1477.5273866005
 30
0.0
 10
2850.1747620787
 20
1473.8244624529
 30
0.0
 10
2850.1747620787
 20
1472.0380149786
 30
0.0
  0
SPLINE
  5
567
100
AcDbEntity
  8
6_ALL_SURFS
100
AcDbSpline
 62
7
  6
CONTINUOUS
 70
0
 71
3
 72
12
 73
8
 74
0
 42
0.0000001
 43
0.0000001
 44
0.0000000001
 40
0.0
 40
0.0
 40
0.0
 40
0.0
 40
0.183254858
 40
0.3014455741
 40
0.4361829271
 40
0.7289416397
 40
1.0
 40
1.0
 40
1.0
 40
1.0
 10
2833.9642926455
 20
1468.4458696304
 30
0.0
 10
2832.9190411983
 20
1469.0509721624
 30
0.0
 10
2830.6278664301
 20
1468.9343792718
 30
0.0
 10
2828.1371802074
 20
1467.5236614231
 30
0.0
 10
2825.4090977285
 20
1465.1280516484
 30
0.0
 10
2822.8758151333
 20
1461.1931785983
 30
0.0
 10
2821.8904908312
 20
1457.4902544506
 30
0.0
 10
2821.8904908312
 20
1455.7038069764
 30
0.0
  0
SPLINE
  5
568
100
AcDbEntity
  8
6_ALL_SURFS
100
AcDbSpline
 62
7
  6
CONTINUOUS
 70
0
 71
3
 72
12
 73
8
 74
0
 42
0.0000001
 43
0.0000001
 44
0.0000000001
 40
0.0
 40
0.0
 40
0.0
 40
0.0
 40
0.183254858
 40
0.3014455741
 40
0.4361829271
 40
0.7289416397
 40
1.0
 40
1.0
 40
1.0
 40
1.0
 10
2805.680021398
 20
1452.1116616282
 30
0.0
 10
2804.6347699509
 20
1452.7167641602
 30
0.0
 10
2802.3435951826
 20
1452.6001712696
 30
0.0
 10
2799.8529089599
 20
1451.1894534209
 30
0.0
 10
2797.124826481
 20
1448.7938436462
 30
0.0
 10
2794.5915438858
 20
1444.8589705961
 30
0.0
 10
2793.6062195838
 20
1441.1560464484
 30
0.0
 10
2793.6062195838
 20
1439.3695989741
 30
0.0
  0
SPLINE
  5
569
100
AcDbEntity
  8
6_ALL_SURFS
100
AcDbSpline
 62
7
  6
CONTINUOUS
 70
0
 71
3
 72
12
 73
8
 74
0
 42
0.0000001
 43
0.0000001
 44
0.0000000001
 40
0.0
 40
0.0
 40
0.0
 40
0.0
 40
0.183254858
 40
0.3014455741
 40
0.4361829271
 40
0.7289416397
 40
1.0
 40
1.0
 40
1.0
 40
1.0
 10
2777.3957501506
 20
1435.7774536259
 30
0.0
 10
2776.3504987034
 20
1436.3825561579
 30
0.0
 10
2774.0593239351
 20
1436.2659632674
 30
0.0
 10
2771.5686377124
 20
1434.8552454187
 30
0.0
 10
2768.8405552336
 20
1432.459635644
 30
0.0
 10
2766.3072726384
 20
1428.5247625938
 30
0.0
 10
2765.3219483363
 20
1424.8218384462
 30
0.0
 10
2765.3219483363
 20
1423.0353909719
 30
0.0
  0
SPLINE
  5
56A
100
AcDbEntity
  8
6_ALL_SURFS
100
AcDbSpline
 62
7
  6
CONTINUOUS
 70
0
 71
3
 72
12
 73
8
 74
0
 42
0.0000001
 43
0.0000001
 44
0.0000000001
 40
0.0
 40
0.0
 40
0.0
 40
0.0
 40
0.183254858
 40
0.3014455741
 40
0.4361829271
 40
0.7289416397
 40
1.0
 40
1.0
 40
1.0
 40
1.0
 10
2749.1114789031
 20
1419.4432456237
 30
0.0
 10
2748.0662274559
 20
1420.0483481557
 30
0.0
 10
2745.7750526877
 20
1419.9317552651
 30
0.0
 10
2743.284366465
 20
1418.5210374165
 30
0.0
 10
2740.5562839861
 20
1416.1254276417
 30
0.0
 10
2738.0230013909
 20
1412.1905545916
 30
0.0
 10
2737.0376770889
 20
1408.4876304439
 30
0.0
 10
2737.0376770889
 20
1406.7011829697
 30
0.0
  0
SPLINE
  5
56B
100
AcDbEntity
  8
6_ALL_SURFS
100
AcDbSpline
 62
7
  6
CONTINUOUS
 70
0
 71
3
 72
12
 73
8
 74
0
 42
0.0000001
 43
0.0000001
 44
0.0000000001
 40
0.0
 40
0.0
 40
0.0
 40
0.0
 40
0.183254858
 40
0.3014455741
 40
0.4361829271
 40
0.7289416397
 40
1.0
 40
1.0
 40
1.0
 40
1.0
 10
2720.8272076556
 20
1403.1090376215
 30
0.0
 10
2719.7819562085
 20
1403.7141401535
 30
0.0
 10
2717.4907814402
 20
1403.5975472629
 30
0.0
 10
2715.0000952175
 20
1402.1868294142
 30
0.0
 10
2712.2720127387
 20
1399.7912196395
 30
0.0
 10
2709.7387301434
 20
1395.8563465894
 30
0.0
 10
2708.7534058414
 20
1392.1534224417
 30
0.0
 10
2708.7534058414
 20
1390.3669749675
 30
0.0
  0
SPLINE
  5
56C
100
AcDbEntity
  8
6_ALL_SURFS
100
AcDbSpline
 62
7
  6
CONTINUOUS
 70
0
 71
3
 72
12
 73
8
 74
0
 42
0.0000001
 43
0.0000001
 44
0.0000000001
 40
0.0
 40
0.0
 40
0.0
 40
0.0
 40
0.183254858
 40
0.3014455741
 40
0.4361829271
 40
0.7289416397
 40
1.0
 40
1.0
 40
1.0
 40
1.0
 10
2692.5429364082
 20
1386.7748296192
 30
0.0
 10
2691.497684961
 20
1387.3799321512
 30
0.0
 10
2689.2065101927
 20
1387.2633392607
 30
0.0
 10
2686.71582397
 20
1385.852621412
 30
0.0
 10
2683.9877414912
 20
1383.4570116373
 30
0.0
 10
2681.454458896
 20
1379.5221385871
 30
0.0
 10
2680.4691345939
 20
1375.8192144395
 30
0.0
 10
2680.4691345939
 20
1374.0327669652
 30
0.0
  0
SPLINE
  5
56D
100
AcDbEntity
  8
0
100
AcDbSpline
 62
7
  6
CONTINUOUS
 70
0
 71
3
 72
9
 73
5
 74
0
 42
0.0000001
 43
0.0000001
 44
0.0000000001
 40
0.0
 40
0.0
 40
0.0
 40
0.0
 40
0.2208989638
 40
1.0
 40
1.0
 40
1.0
 40
1.0
 10
2682.3053745799
 20
1592.5536003862
 30
0.0
 10
2682.1650455542
 20
1592.6342869633
 30
0.0
 10
2681.5908616703
 20
1593.1159173853
 30
0.0
 10
2681.4240918775
 20
1593.928227706
 30
0.0
 10
2681.4240918775
 20
1594.4991433699
 30
0.0
  0
SPLINE
  5
56E
100
AcDbEntity
  8
0
100
AcDbSpline
 62
7
  6
CONTINUOUS
 70
0
 71
3
 72
9
 73
5
 74
0
 42
0.0000001
 43
0.0000001
 44
0.0000000001
 40
0.0
 40
0.0
 40
0.0
 40
0.0
 40
0.2208681529
 40
1.0
 40
1.0
 40
1.0
 40
1.0
 10
2799.4055132166
 20
1656.0567100932
 30
0.0
 10
2799.2983758226
 20
1656.1185054189
 30
0.0
 10
2798.8601925138
 20
1656.4871918397
 30
0.0
 10
2798.7327437474
 20
1657.107652398
 30
0.0
 10
2798.7327437474
 20
1657.5439493465
 30
0.0
  0
SPLINE
  5
56F
100
AcDbEntity
  8
6_ALL_SURFS
100
AcDbSpline
 62
7
  6
CONTINUOUS
 70
0
 71
3
 72
9
 73
5
 74
0
 42
0.0000001
 43
0.0000001
 44
0.0000000001
 40
0.0
 40
0.0
 40
0.0
 40
0.0
 40
0.5047594957
 40
1.0
 40
1.0
 40
1.0
 40
1.0
 10
3213.6140292258
 20
1425.4884026538
 30
0.0
 10
3213.516250006
 20
1423.9687013042
 30
0.0
 10
3212.4175399099
 20
1421.03938929
 30
0.0
 10
3210.3253192033
 20
1418.690829905
 30
0.0
 10
3209.0314535309
 20
1417.9436205874
 30
0.0
  0
SPLINE
  5
570
100
AcDbEntity
  8
6_ALL_SURFS
100
AcDbSpline
 62
7
  6
CONTINUOUS
 70
0
 71
3
 72
9
 73
5
 74
0
 42
0.0000001
 43
0.0000001
 44
0.0000000001
 40
0.0
 40
0.0
 40
0.0
 40
0.0
 40
0.5240791683
 40
1.0
 40
1.0
 40
1.0
 40
1.0
 10
2886.5907613098
 20
1233.7746234878
 30
0.0
 10
2880.1155835993
 20
1225.7146967524
 30
0.0
 10
2866.5251128039
 20
1211.2772553637
 30
0.0
 10
2850.4374989473
 20
1199.5604615042
 30
0.0
 10
2842.2158467615
 20
1195.0269451225
 30
0.0
  0
SPLINE
  5
571
100
AcDbEntity
  8
6_ALL_SURFS
100
AcDbSpline
 62
7
  6
CONTINUOUS
 70
0
 71
3
 72
9
 73
5
 74
0
 42
0.0000001
 43
0.0000001
 44
0.0000000001
 40
0.0
 40
0.0
 40
0.0
 40
0.0
 40
0.5489473433
 40
1.0
 40
1.0
 40
1.0
 40
1.0
 10
2842.2158467615
 20
1195.0269451225
 30
0.0
 10
2841.4102844349
 20
1194.5827485155
 30
0.0
 10
2839.8003369111
 20
1193.9528682579
 30
0.0
 10
2838.025123319
 20
1194.2440498614
 30
0.0
 10
2837.3714001124
 20
1194.6234920298
 30
0.0
  0
SPLINE
  5
572
100
AcDbEntity
  8
6_ALL_SURFS
100
AcDbSpline
 62
7
  6
CONTINUOUS
 70
0
 71
3
 72
9
 73
5
 74
0
 42
0.0000001
 43
0.0000001
 44
0.0000000001
 40
0.0
 40
0.0
 40
0.0
 40
0.0
 40
0.2775947523
 40
1.0
 40
1.0
 40
1.0
 40
1.0
 10
2839.7693879503
 20
1202.8636158589
 30
0.0
 10
2839.7927632821
 20
1202.7602173918
 30
0.0
 10
2839.9021891669
 20
1202.3956458202
 30
0.0
 10
2840.1549615879
 20
1202.0616552044
 30
0.0
 10
2840.394126123
 20
1201.9241575747
 30
0.0
  0
SPLINE
  5
573
100
AcDbEntity
  8
6_ALL_SURFS
100
AcDbSpline
 62
7
  6
CONTINUOUS
 70
0
 71
3
 72
10
 73
6
 74
0
 42
0.0000001
 43
0.0000001
 44
0.0000000001
 40
0.0
 40
0.0
 40
0.0
 40
0.0
 40
0.2776167721
 40
0.5773718367
 40
1.0
 40
1.0
 40
1.0
 40
1.0
 10
3206.733356492
 20
1421.9229989144
 30
0.0
 10
3206.733356492
 20
1422.5035960644
 30
0.0
 10
3207.0782171896
 20
1423.7208312688
 30
0.0
 10
3208.0938985718
 20
1425.4319001879
 30
0.0
 10
3209.8911414895
 20
1426.5061570109
 30
0.0
 10
3210.6567811006
 20
1426.0645469681
 30
0.0
  0
SPLINE
  5
574
100
AcDbEntity
  8
6_ALL_SURFS
100
AcDbSpline
 62
7
  6
CONTINUOUS
 70
0
 71
3
 72
10
 73
6
 74
0
 42
0.0000001
 43
0.0000001
 44
0.0000000001
 40
0.0
 40
0.0
 40
0.0
 40
0.0
 40
0.2775555189
 40
0.5772963999
 40
1.0
 40
1.0
 40
1.0
 40
1.0
 10
3089.4247046221
 20
1358.8781929377
 30
0.0
 10
3089.4247046221
 20
1359.6371405624
 30
0.0
 10
3089.8752747714
 20
1361.2284562752
 30
0.0
 10
3091.2034691628
 20
1363.4657634264
 30
0.0
 10
3093.5518161349
 20
1364.8708941852
 30
0.0
 10
3094.5538295597
 20
1364.2947551219
 30
0.0
  0
SPLINE
  5
575
100
AcDbEntity
  8
6_ALL_SURFS
100
AcDbSpline
 62
7
  6
CONTINUOUS
 70
0
 71
3
 72
12
 73
8
 74
0
 42
0.0000001
 43
0.0000001
 44
0.0000000001
 40
0.0
 40
0.0
 40
0.0
 40
0.0
 40
0.2710583603
 40
0.5638170729
 40
0.6985544259
 40
0.816745142
 40
1.0
 40
1.0
 40
1.0
 40
1.0
 10
2850.5283154693
 20
1257.0335494031
 30
0.0
 10
2850.5283154693
 20
1258.8199968773
 30
0.0
 10
2851.5136397713
 20
1262.522921025
 30
0.0
 10
2854.0469223666
 20
1266.4577940751
 30
0.0
 10
2856.7750048454
 20
1268.8534038498
 30
0.0
 10
2859.2656910681
 20
1270.2641216985
 30
0.0
 10
2861.5568658364
 20
1270.3807145891
 30
0.0
 10
2862.6021172835
 20
1269.7756120571
 30
0.0
  0
SPLINE
  5
576
100
AcDbEntity
  8
6_ALL_SURFS
100
AcDbSpline
 62
7
  6
CONTINUOUS
 70
0
 71
3
 72
12
 73
8
 74
0
 42
0.0000001
 43
0.0000001
 44
0.0000000001
 40
0.0
 40
0.0
 40
0.0
 40
0.0
 40
0.2710583603
 40
0.5638170729
 40
0.6985544259
 40
0.816745142
 40
1.0
 40
1.0
 40
1.0
 40
1.0
 10
2878.8125867168
 20
1273.3677574053
 30
0.0
 10
2878.8125867168
 20
1275.1542048796
 30
0.0
 10
2879.7979110188
 20
1278.8571290272
 30
0.0
 10
2882.331193614
 20
1282.7920020773
 30
0.0
 10
2885.0592760929
 20
1285.1876118521
 30
0.0
 10
2887.5499623156
 20
1286.5983297007
 30
0.0
 10
2889.8411370838
 20
1286.7149225913
 30
0.0
 10
2890.886388531
 20
1286.1098200593
 30
0.0
  0
SPLINE
  5
577
100
AcDbEntity
  8
6_ALL_SURFS
100
AcDbSpline
 62
7
  6
CONTINUOUS
 70
0
 71
3
 72
12
 73
8
 74
0
 42
0.0000001
 43
0.0000001
 44
0.0000000001
 40
0.0
 40
0.0
 40
0.0
 40
0.0
 40
0.2710583603
 40
0.5638170729
 40
0.6985544259
 40
0.816745142
 40
1.0
 40
1.0
 40
1.0
 40
1.0
 10
2907.0968579642
 20
1289.7019654075
 30
0.0
 10
2907.0968579642
 20
1291.4884128818
 30
0.0
 10
2908.0821822663
 20
1295.1913370294
 30
0.0
 10
2910.6154648615
 20
1299.1262100796
 30
0.0
 10
2913.3435473403
 20
1301.5218198543
 30
0.0
 10
2915.834233563
 20
1302.932537703
 30
0.0
 10
2918.1254083313
 20
1303.0491305935
 30
0.0
 10
2919.1706597785
 20
1302.4440280615
 30
0.0
  0
SPLINE
  5
578
100
AcDbEntity
  8
6_ALL_SURFS
100
AcDbSpline
 62
7
  6
CONTINUOUS
 70
0
 71
3
 72
12
 73
8
 74
0
 42
0.0000001
 43
0.0000001
 44
0.0000000001
 40
0.0
 40
0.0
 40
0.0
 40
0.0
 40
0.2710583603
 40
0.5638170729
 40
0.6985544259
 40
0.816745142
 40
1.0
 40
1.0
 40
1.0
 40
1.0
 10
2935.3811292117
 20
1306.0361734097
 30
0.0
 10
2935.3811292117
 20
1307.822620884
 30
0.0
 10
2936.3664535137
 20
1311.5255450317
 30
0.0
 10
2938.8997361089
 20
1315.4604180818
 30
0.0
 10
2941.6278185878
 20
1317.8560278565
 30
0.0
 10
2944.1185048105
 20
1319.2667457052
 30
0.0
 10
2946.4096795788
 20
1319.3833385958
 30
0.0
 10
2947.4549310259
 20
1318.7782360638
 30
0.0
  0
SPLINE
  5
579
100
AcDbEntity
  8
6_ALL_SURFS
100
AcDbSpline
 62
7
  6
CONTINUOUS
 70
0
 71
3
 72
12
 73
8
 74
0
 42
0.0000001
 43
0.0000001
 44
0.0000000001
 40
0.0
 40
0.0
 40
0.0
 40
0.0
 40
0.2710583603
 40
0.5638170729
 40
0.6985544259
 40
0.816745142
 40
1.0
 40
1.0
 40
1.0
 40
1.0
 10
2963.6654004591
 20
1322.370381412
 30
0.0
 10
2963.6654004591
 20
1324.1568288862
 30
0.0
 10
2964.6507247612
 20
1327.8597530339
 30
0.0
 10
2967.1840073564
 20
1331.794626084
 30
0.0
 10
2969.9120898353
 20
1334.1902358587
 30
0.0
 10
2972.402776058
 20
1335.6009537074
 30
0.0
 10
2974.6939508262
 20
1335.717546598
 30
0.0
 10
2975.7392022734
 20
1335.112444066
 30
0.0
  0
SPLINE
  5
57A
100
AcDbEntity
  8
6_ALL_SURFS
100
AcDbSpline
 62
7
  6
CONTINUOUS
 70
0
 71
3
 72
12
 73
8
 74
0
 42
0.0000001
 43
0.0000001
 44
0.0000000001
 40
0.0
 40
0.0
 40
0.0
 40
0.0
 40
0.2710583603
 40
0.5638170729
 40
0.6985544259
 40
0.816745142
 40
1.0
 40
1.0
 40
1.0
 40
1.0
 10
2991.9496717066
 20
1338.7045894142
 30
0.0
 10
2991.9496717066
 20
1340.4910368885
 30
0.0
 10
2992.9349960087
 20
1344.1939610361
 30
0.0
 10
2995.4682786039
 20
1348.1288340863
 30
0.0
 10
2998.1963610827
 20
1350.524443861
 30
0.0
 10
3000.6870473054
 20
1351.9351617097
 30
0.0
 10
3002.9782220737
 20
1352.0517546002
 30
0.0
 10
3004.0234735209
 20
1351.4466520682
 30
0.0
  0
SPLINE
  5
57B
100
AcDbEntity
  8
6_ALL_SURFS
100
AcDbSpline
 62
7
  6
CONTINUOUS
 70
0
 71
3
 72
12
 73
8
 74
0
 42
0.0000001
 43
0.0000001
 44
0.0000000001
 40
0.0
 40
0.0
 40
0.0
 40
0.0
 40
0.2710583603
 40
0.5638170729
 40
0.6985544259
 40
0.816745142
 40
1.0
 40
1.0
 40
1.0
 40
1.0
 10
3020.2339429541
 20
1355.0387974164
 30
0.0
 10
3020.2339429541
 20
1356.8252448907
 30
0.0
 10
3021.2192672561
 20
1360.5281690384
 30
0.0
 10
3023.7525498513
 20
1364.4630420885
 30
0.0
 10
3026.4806323302
 20
1366.8586518632
 30
0.0
 10
3028.9713185529
 20
1368.2693697119
 30
0.0
 10
3031.2624933211
 20
1368.3859626025
 30
0.0
 10
3032.3077447683
 20
1367.7808600704
 30
0.0
  0
SPLINE
  5
57C
100
AcDbEntity
  8
6_ALL_SURFS
100
AcDbSpline
 62
7
  6
CONTINUOUS
 70
0
 71
3
 72
12
 73
8
 74
0
 42
0.0000001
 43
0.0000001
 44
0.0000000001
 40
0.0
 40
0.0
 40
0.0
 40
0.0
 40
0.2710583603
 40
0.5638170729
 40
0.6985544259
 40
0.816745142
 40
1.0
 40
1.0
 40
1.0
 40
1.0
 10
3048.5182142015
 20
1371.3730054187
 30
0.0
 10
3048.5182142015
 20
1373.1594528929
 30
0.0
 10
3049.5035385036
 20
1376.8623770406
 30
0.0
 10
3052.0368210988
 20
1380.7972500907
 30
0.0
 10
3054.7649035776
 20
1383.1928598654
 30
0.0
 10
3057.2555898003
 20
1384.6035777141
 30
0.0
 10
3059.5467645686
 20
1384.7201706047
 30
0.0
 10
3060.5920160158
 20
1384.1150680727
 30
0.0
  0
SPLINE
  5
57D
100
AcDbEntity
  8
6_ALL_SURFS
100
AcDbSpline
 62
7
  6
CONTINUOUS
 70
0
 71
3
 72
12
 73
8
 74
0
 42
0.0000001
 43
0.0000001
 44
0.0000000001
 40
0.0
 40
0.0
 40
0.0
 40
0.0
 40
0.2710583603
 40
0.5638170729
 40
0.6985544259
 40
0.816745142
 40
1.0
 40
1.0
 40
1.0
 40
1.0
 10
3076.802485449
 20
1387.7072134209
 30
0.0
 10
3076.802485449
 20
1389.4936608952
 30
0.0
 10
3077.787809751
 20
1393.1965850428
 30
0.0
 10
3080.3210923463
 20
1397.131458093
 30
0.0
 10
3083.0491748251
 20
1399.5270678677
 30
0.0
 10
3085.5398610478
 20
1400.9377857164
 30
0.0
 10
3087.8310358161
 20
1401.0543786069
 30
0.0
 10
3088.8762872632
 20
1400.4492760749
 30
0.0
  0
SPLINE
  5
57E
100
AcDbEntity
  8
6_ALL_SURFS
100
AcDbSpline
 62
7
  6
CONTINUOUS
 70
0
 71
3
 72
12
 73
8
 74
0
 42
0.0000001
 43
0.0000001
 44
0.0000000001
 40
0.0
 40
0.0
 40
0.0
 40
0.0
 40
0.2710583603
 40
0.5638170729
 40
0.6985544259
 40
0.816745142
 40
1.0
 40
1.0
 40
1.0
 40
1.0
 10
3105.0867566965
 20
1404.0414214231
 30
0.0
 10
3105.0867566965
 20
1405.8278688974
 30
0.0
 10
3106.0720809985
 20
1409.5307930451
 30
0.0
 10
3108.6053635937
 20
1413.4656660952
 30
0.0
 10
3111.3334460726
 20
1415.8612758699
 30
0.0
 10
3113.8241322953
 20
1417.2719937186
 30
0.0
 10
3116.1153070635
 20
1417.3885866091
 30
0.0
 10
3117.1605585107
 20
1416.7834840771
 30
0.0
  0
SPLINE
  5
57F
100
AcDbEntity
  8
6_ALL_SURFS
100
AcDbSpline
 62
7
  6
CONTINUOUS
 70
0
 71
3
 72
12
 73
8
 74
0
 42
0.0000001
 43
0.0000001
 44
0.0000000001
 40
0.0
 40
0.0
 40
0.0
 40
0.0
 40
0.2710583603
 40
0.5638170729
 40
0.6985544259
 40
0.816745142
 40
1.0
 40
1.0
 40
1.0
 40
1.0
 10
3133.3710279439
 20
1420.3756294254
 30
0.0
 10
3133.3710279439
 20
1422.1620768996
 30
0.0
 10
3134.356352246
 20
1425.8650010473
 30
0.0
 10
3136.8896348412
 20
1429.7998740974
 30
0.0
 10
3139.61771732
 20
1432.1954838721
 30
0.0
 10
3142.1084035427
 20
1433.6062017208
 30
0.0
 10
3144.399578311
 20
1433.7227946114
 30
0.0
 10
3145.4448297582
 20
1433.1176920794
 30
0.0
  0
SPLINE
  5
580
100
AcDbEntity
  8
6_ALL_SURFS
100
AcDbSpline
 62
7
  6
CONTINUOUS
 70
0
 71
3
 72
12
 73
8
 74
0
 42
0.0000001
 43
0.0000001
 44
0.0000000001
 40
0.0
 40
0.0
 40
0.0
 40
0.0
 40
0.2710583603
 40
0.5638170729
 40
0.6985544259
 40
0.816745142
 40
1.0
 40
1.0
 40
1.0
 40
1.0
 10
3161.6552991914
 20
1436.7098374276
 30
0.0
 10
3161.6552991914
 20
1438.4962849019
 30
0.0
 10
3162.6406234934
 20
1442.1992090495
 30
0.0
 10
3165.1739060886
 20
1446.1340820997
 30
0.0
 10
3167.9019885675
 20
1448.5296918744
 30
0.0
 10
3170.3926747902
 20
1449.9404097231
 30
0.0
 10
3172.6838495585
 20
1450.0570026136
 30
0.0
 10
3173.7291010056
 20
1449.4519000816
 30
0.0
  0
SPLINE
  5
581
100
AcDbEntity
  8
6_ALL_SURFS
100
AcDbSpline
 62
7
  6
CONTINUOUS
 70
0
 71
3
 72
12
 73
8
 74
0
 42
0.0000001
 43
0.0000001
 44
0.0000000001
 40
0.0
 40
0.0
 40
0.0
 40
0.0
 40
0.2710583603
 40
0.5638170729
 40
0.6985544259
 40
0.816745142
 40
1.0
 40
1.0
 40
1.0
 40
1.0
 10
3189.9395704388
 20
1453.0440454298
 30
0.0
 10
3189.9395704388
 20
1454.8304929041
 30
0.0
 10
3190.9248947409
 20
1458.5334170517
 30
0.0
 10
3193.4581773361
 20
1462.4682901019
 30
0.0
 10
3196.186259815
 20
1464.8638998766
 30
0.0
 10
3198.6769460377
 20
1466.2746177253
 30
0.0
 10
3200.9681208059
 20
1466.3912106158
 30
0.0
 10
3202.0133722531
 20
1465.7861080838
 30
0.0
  0
SPLINE
  5
582
100
AcDbEntity
  8
0
100
AcDbSpline
 62
7
  6
CONTINUOUS
 70
0
 71
3
 72
10
 73
6
 74
0
 42
0.0000001
 43
0.0000001
 44
0.0000000001
 40
0.0
 40
0.0
 40
0.0
 40
0.0
 40
0.4226281633
 40
0.7223832279
 40
1.0
 40
1.0
 40
1.0
 40
1.0
 10
2648.4981829645
 20
1576.1182314756
 30
0.0
 10
2647.3202758705
 20
1576.7976315414
 30
0.0
 10
2644.5552867663
 20
1575.1449287368
 30
0.0
 10
2642.9927000245
 20
1572.5125150152
 30
0.0
 10
2642.4621451052
 20
1570.6398454699
 30
0.0
 10
2642.4621451052
 20
1569.7466190852
 30
0.0
  0
SPLINE
  5
583
100
AcDbEntity
  8
6_ALL_SURFS
100
AcDbSpline
 62
7
  6
CONTINUOUS
 70
0
 71
3
 72
9
 73
5
 74
0
 42
0.0000001
 43
0.0000001
 44
0.0000000001
 40
0.0
 40
0.0
 40
0.0
 40
0.0
 40
0.22096389
 40
1.0
 40
1.0
 40
1.0
 40
1.0
 10
3238.4020053404
 20
1504.32671639
 30
0.0
 10
3238.5668550561
 20
1504.2315147278
 30
0.0
 10
3239.2411632549
 20
1503.6645480719
 30
0.0
 10
3239.4370451219
 20
1502.7098061056
 30
0.0
 10
3239.4370451219
 20
1502.0386506921
 30
0.0
  0
SPLINE
  5
584
100
AcDbEntity
  8
0
100
AcDbSpline
 62
7
  6
CONTINUOUS
 70
0
 71
3
 72
9
 73
5
 74
0
 42
0.0000001
 43
0.0000001
 44
0.0000000001
 40
0.0
 40
0.0
 40
0.0
 40
0.0
 40
0.2209374584
 40
1.0
 40
1.0
 40
1.0
 40
1.0
 10
2417.7534683594
 20
1423.6165934148
 30
0.0
 10
2417.5886389875
 20
1423.7117815532
 30
0.0
 10
2416.9138872699
 20
1424.2782005781
 30
0.0
 10
2416.7183052114
 20
1425.2332896036
 30
0.0
 10
2416.7183052114
 20
1425.9044621149
 30
0.0
  0
SPLINE
  5
585
100
AcDbEntity
  8
6_ALL_SURFS
100
AcDbSpline
 62
7
  6
CONTINUOUS
 70
0
 71
3
 72
9
 73
5
 74
0
 42
0.0000001
 43
0.0000001
 44
0.0000000001
 40
0.0
 40
0.0
 40
0.0
 40
0.0
 40
0.5101313341
 40
1.0
 40
1.0
 40
1.0
 40
1.0
 10
2860.4278104059
 20
1267.6507846045
 30
0.0
 10
2860.4278104059
 20
1264.9966229082
 30
0.0
 10
2858.523307553
 20
1259.8917627528
 30
0.0
 10
2854.7074094382
 20
1255.8751712907
 30
0.0
 10
2852.350424722
 20
1254.9052827531
 30
0.0
  0
SPLINE
  5
586
100
AcDbEntity
  8
6_ALL_SURFS
100
AcDbSpline
 62
7
  6
CONTINUOUS
 70
0
 71
3
 72
8
 73
4
 74
0
 42
0.0000001
 43
0.0000001
 44
0.0000000001
 40
0.0
 40
0.0
 40
0.0
 40
0.0
 40
1.0
 40
1.0
 40
1.0
 40
1.0
 10
2852.350424722
 20
1254.9052827531
 30
0.0
 10
2851.9039297021
 20
1254.7215520743
 30
0.0
 10
2851.4357463528
 20
1254.5794695527
 30
0.0
 10
2850.9591096255
 20
1254.5024488062
 30
0.0
  0
SPLINE
  5
587
100
AcDbEntity
  8
6_ALL_SURFS
100
AcDbSpline
 62
7
  6
CONTINUOUS
 70
0
 71
3
 72
9
 73
5
 74
0
 42
0.0000001
 43
0.0000001
 44
0.0000000001
 40
0.0
 40
0.0
 40
0.0
 40
0.0
 40
0.5101313341
 40
1.0
 40
1.0
 40
1.0
 40
1.0
 10
2888.7120816534
 20
1283.9849926067
 30
0.0
 10
2888.7120816534
 20
1281.3308309104
 30
0.0
 10
2886.8075788004
 20
1276.225970755
 30
0.0
 10
2882.9916806856
 20
1272.2093792929
 30
0.0
 10
2880.6346959694
 20
1271.2394907553
 30
0.0
  0
SPLINE
  5
588
100
AcDbEntity
  8
6_ALL_SURFS
100
AcDbSpline
 62
7
  6
CONTINUOUS
 70
0
 71
3
 72
8
 73
4
 74
0
 42
0.0000001
 43
0.0000001
 44
0.0000000001
 40
0.0
 40
0.0
 40
0.0
 40
0.0
 40
1.0
 40
1.0
 40
1.0
 40
1.0
 10
2880.6346959694
 20
1271.2394907553
 30
0.0
 10
2880.1882009495
 20
1271.0557600765
 30
0.0
 10
2879.7200176002
 20
1270.9136775549
 30
0.0
 10
2879.243380873
 20
1270.8366568084
 30
0.0
  0
SPLINE
  5
589
100
AcDbEntity
  8
6_ALL_SURFS
100
AcDbSpline
 62
7
  6
CONTINUOUS
 70
0
 71
3
 72
9
 73
5
 74
0
 42
0.0000001
 43
0.0000001
 44
0.0000000001
 40
0.0
 40
0.0
 40
0.0
 40
0.0
 40
0.5101313341
 40
1.0
 40
1.0
 40
1.0
 40
1.0
 10
2916.9963529008
 20
1300.319200609
 30
0.0
 10
2916.9963529008
 20
1297.6650389126
 30
0.0
 10
2915.0918500479
 20
1292.5601787573
 30
0.0
 10
2911.2759519331
 20
1288.5435872951
 30
0.0
 10
2908.9189672169
 20
1287.5736987575
 30
0.0
  0
SPLINE
  5
58A
100
AcDbEntity
  8
6_ALL_SURFS
100
AcDbSpline
 62
7
  6
CONTINUOUS
 70
0
 71
3
 72
8
 73
4
 74
0
 42
0.0000001
 43
0.0000001
 44
0.0000000001
 40
0.0
 40
0.0
 40
0.0
 40
0.0
 40
1.0
 40
1.0
 40
1.0
 40
1.0
 10
2908.9189672169
 20
1287.5736987575
 30
0.0
 10
2908.472472197
 20
1287.3899680787
 30
0.0
 10
2908.0042888477
 20
1287.2478855571
 30
0.0
 10
2907.5276521204
 20
1287.1708648107
 30
0.0
  0
SPLINE
  5
58B
100
AcDbEntity
  8
6_ALL_SURFS
100
AcDbSpline
 62
7
  6
CONTINUOUS
 70
0
 71
3
 72
9
 73
5
 74
0
 42
0.0000001
 43
0.0000001
 44
0.0000000001
 40
0.0
 40
0.0
 40
0.0
 40
0.0
 40
0.5101313341
 40
1.0
 40
1.0
 40
1.0
 40
1.0
 10
2945.2806241483
 20
1316.6534086112
 30
0.0
 10
2945.2806241483
 20
1313.9992469149
 30
0.0
 10
2943.3761212953
 20
1308.8943867595
 30
0.0
 10
2939.5602231806
 20
1304.8777952973
 30
0.0
 10
2937.2032384644
 20
1303.9079067598
 30
0.0
  0
SPLINE
  5
58C
100
AcDbEntity
  8
6_ALL_SURFS
100
AcDbSpline
 62
7
  6
CONTINUOUS
 70
0
 71
3
 72
8
 73
4
 74
0
 42
0.0000001
 43
0.0000001
 44
0.0000000001
 40
0.0
 40
0.0
 40
0.0
 40
0.0
 40
1.0
 40
1.0
 40
1.0
 40
1.0
 10
2937.2032384644
 20
1303.9079067598
 30
0.0
 10
2936.7567434444
 20
1303.7241760809
 30
0.0
 10
2936.2885600952
 20
1303.5820935594
 30
0.0
 10
2935.8119233679
 20
1303.5050728129
 30
0.0
  0
SPLINE
  5
58D
100
AcDbEntity
  8
6_ALL_SURFS
100
AcDbSpline
 62
7
  6
CONTINUOUS
 70
0
 71
3
 72
9
 73
5
 74
0
 42
0.0000001
 43
0.0000001
 44
0.0000000001
 40
0.0
 40
0.0
 40
0.0
 40
0.0
 40
0.5101313341
 40
1.0
 40
1.0
 40
1.0
 40
1.0
 10
2973.5648953958
 20
1332.9876166134
 30
0.0
 10
2973.5648953958
 20
1330.3334549171
 30
0.0
 10
2971.6603925428
 20
1325.2285947617
 30
0.0
 10
2967.844494428
 20
1321.2120032996
 30
0.0
 10
2965.4875097118
 20
1320.242114762
 30
0.0
  0
SPLINE
  5
58E
100
AcDbEntity
  8
6_ALL_SURFS
100
AcDbSpline
 62
7
  6
CONTINUOUS
 70
0
 71
3
 72
8
 73
4
 74
0
 42
0.0000001
 43
0.0000001
 44
0.0000000001
 40
0.0
 40
0.0
 40
0.0
 40
0.0
 40
1.0
 40
1.0
 40
1.0
 40
1.0
 10
2965.4875097118
 20
1320.242114762
 30
0.0
 10
2965.0410146919
 20
1320.0583840832
 30
0.0
 10
2964.5728313426
 20
1319.9163015616
 30
0.0
 10
2964.0961946154
 20
1319.8392808151
 30
0.0
  0
SPLINE
  5
58F
100
AcDbEntity
  8
6_ALL_SURFS
100
AcDbSpline
 62
7
  6
CONTINUOUS
 70
0
 71
3
 72
9
 73
5
 74
0
 42
0.0000001
 43
0.0000001
 44
0.0000000001
 40
0.0
 40
0.0
 40
0.0
 40
0.0
 40
0.5101313341
 40
1.0
 40
1.0
 40
1.0
 40
1.0
 10
3001.8491666432
 20
1349.3218246157
 30
0.0
 10
3001.8491666432
 20
1346.6676629193
 30
0.0
 10
2999.9446637903
 20
1341.562802764
 30
0.0
 10
2996.1287656755
 20
1337.5462113018
 30
0.0
 10
2993.7717809593
 20
1336.5763227642
 30
0.0
  0
SPLINE
  5
590
100
AcDbEntity
  8
6_ALL_SURFS
100
AcDbSpline
 62
7
  6
CONTINUOUS
 70
0
 71
3
 72
8
 73
4
 74
0
 42
0.0000001
 43
0.0000001
 44
0.0000000001
 40
0.0
 40
0.0
 40
0.0
 40
0.0
 40
1.0
 40
1.0
 40
1.0
 40
1.0
 10
2993.7717809593
 20
1336.5763227642
 30
0.0
 10
2993.3252859394
 20
1336.3925920854
 30
0.0
 10
2992.8571025901
 20
1336.2505095638
 30
0.0
 10
2992.3804658628
 20
1336.1734888173
 30
0.0
  0
SPLINE
  5
591
100
AcDbEntity
  8
6_ALL_SURFS
100
AcDbSpline
 62
7
  6
CONTINUOUS
 70
0
 71
3
 72
9
 73
5
 74
0
 42
0.0000001
 43
0.0000001
 44
0.0000000001
 40
0.0
 40
0.0
 40
0.0
 40
0.0
 40
0.5101313341
 40
1.0
 40
1.0
 40
1.0
 40
1.0
 10
3030.1334378907
 20
1365.6560326179
 30
0.0
 10
3030.1334378907
 20
1363.0018709216
 30
0.0
 10
3028.2289350377
 20
1357.8970107662
 30
0.0
 10
3024.413036923
 20
1353.880419304
 30
0.0
 10
3022.0560522068
 20
1352.9105307665
 30
0.0
  0
SPLINE
  5
592
100
AcDbEntity
  8
6_ALL_SURFS
100
AcDbSpline
 62
7
  6
CONTINUOUS
 70
0
 71
3
 72
8
 73
4
 74
0
 42
0.0000001
 43
0.0000001
 44
0.0000000001
 40
0.0
 40
0.0
 40
0.0
 40
0.0
 40
1.0
 40
1.0
 40
1.0
 40
1.0
 10
3022.0560522068
 20
1352.9105307665
 30
0.0
 10
3021.6095571868
 20
1352.7268000876
 30
0.0
 10
3021.1413738375
 20
1352.5847175661
 30
0.0
 10
3020.6647371103
 20
1352.5076968196
 30
0.0
  0
SPLINE
  5
593
100
AcDbEntity
  8
6_ALL_SURFS
100
AcDbSpline
 62
7
  6
CONTINUOUS
 70
0
 71
3
 72
9
 73
5
 74
0
 42
0.0000001
 43
0.0000001
 44
0.0000000001
 40
0.0
 40
0.0
 40
0.0
 40
0.0
 40
0.5101313341
 40
1.0
 40
1.0
 40
1.0
 40
1.0
 10
3058.4177091381
 20
1381.9902406201
 30
0.0
 10
3058.4177091381
 20
1379.3360789238
 30
0.0
 10
3056.5132062852
 20
1374.2312187684
 30
0.0
 10
3052.6973081704
 20
1370.2146273063
 30
0.0
 10
3050.3403234542
 20
1369.2447387687
 30
0.0
  0
SPLINE
  5
594
100
AcDbEntity
  8
6_ALL_SURFS
100
AcDbSpline
 62
7
  6
CONTINUOUS
 70
0
 71
3
 72
8
 73
4
 74
0
 42
0.0000001
 43
0.0000001
 44
0.0000000001
 40
0.0
 40
0.0
 40
0.0
 40
0.0
 40
1.0
 40
1.0
 40
1.0
 40
1.0
 10
3050.3403234542
 20
1369.2447387687
 30
0.0
 10
3049.8938284343
 20
1369.0610080899
 30
0.0
 10
3049.425645085
 20
1368.9189255683
 30
0.0
 10
3048.9490083577
 20
1368.8419048218
 30
0.0
  0
SPLINE
  5
595
100
AcDbEntity
  8
6_ALL_SURFS
100
AcDbSpline
 62
7
  6
CONTINUOUS
 70
0
 71
3
 72
9
 73
5
 74
0
 42
0.0000001
 43
0.0000001
 44
0.0000000001
 40
0.0
 40
0.0
 40
0.0
 40
0.0
 40
0.5101313341
 40
1.0
 40
1.0
 40
1.0
 40
1.0
 10
3086.7019803856
 20
1398.3244486223
 30
0.0
 10
3086.7019803856
 20
1395.670286926
 30
0.0
 10
3084.7974775327
 20
1390.5654267706
 30
0.0
 10
3080.9815794179
 20
1386.5488353085
 30
0.0
 10
3078.6245947017
 20
1385.5789467709
 30
0.0
  0
SPLINE
  5
596
100
AcDbEntity
  8
6_ALL_SURFS
100
AcDbSpline
 62
7
  6
CONTINUOUS
 70
0
 71
3
 72
8
 73
4
 74
0
 42
0.0000001
 43
0.0000001
 44
0.0000000001
 40
0.0
 40
0.0
 40
0.0
 40
0.0
 40
1.0
 40
1.0
 40
1.0
 40
1.0
 10
3078.6245947017
 20
1385.5789467709
 30
0.0
 10
3078.1780996818
 20
1385.3952160921
 30
0.0
 10
3077.7099163325
 20
1385.2531335705
 30
0.0
 10
3077.2332796052
 20
1385.176112824
 30
0.0
  0
SPLINE
  5
597
100
AcDbEntity
  8
6_ALL_SURFS
100
AcDbSpline
 62
7
  6
CONTINUOUS
 70
0
 71
3
 72
9
 73
5
 74
0
 42
0.0000001
 43
0.0000001
 44
0.0000000001
 40
0.0
 40
0.0
 40
0.0
 40
0.0
 40
0.5101313341
 40
1.0
 40
1.0
 40
1.0
 40
1.0
 10
3114.9862516331
 20
1414.6586566246
 30
0.0
 10
3114.9862516331
 20
1412.0044949282
 30
0.0
 10
3113.0817487801
 20
1406.8996347729
 30
0.0
 10
3109.2658506653
 20
1402.8830433107
 30
0.0
 10
3106.9088659491
 20
1401.9131547732
 30
0.0
  0
SPLINE
  5
598
100
AcDbEntity
  8
6_ALL_SURFS
100
AcDbSpline
 62
7
  6
CONTINUOUS
 70
0
 71
3
 72
8
 73
4
 74
0
 42
0.0000001
 43
0.0000001
 44
0.0000000001
 40
0.0
 40
0.0
 40
0.0
 40
0.0
 40
1.0
 40
1.0
 40
1.0
 40
1.0
 10
3106.9088659491
 20
1401.9131547732
 30
0.0
 10
3106.4623709292
 20
1401.7294240943
 30
0.0
 10
3105.9941875799
 20
1401.5873415727
 30
0.0
 10
3105.5175508527
 20
1401.5103208263
 30
0.0
  0
SPLINE
  5
599
100
AcDbEntity
  8
6_ALL_SURFS
100
AcDbSpline
 62
7
  6
CONTINUOUS
 70
0
 71
3
 72
9
 73
5
 74
0
 42
0.0000001
 43
0.0000001
 44
0.0000000001
 40
0.0
 40
0.0
 40
0.0
 40
0.0
 40
0.5101313341
 40
1.0
 40
1.0
 40
1.0
 40
1.0
 10
3143.2705228805
 20
1430.9928646268
 30
0.0
 10
3143.2705228805
 20
1428.3387029305
 30
0.0
 10
3141.3660200276
 20
1423.2338427751
 30
0.0
 10
3137.5501219128
 20
1419.217251313
 30
0.0
 10
3135.1931371966
 20
1418.2473627754
 30
0.0
  0
SPLINE
  5
59A
100
AcDbEntity
  8
6_ALL_SURFS
100
AcDbSpline
 62
7
  6
CONTINUOUS
 70
0
 71
3
 72
8
 73
4
 74
0
 42
0.0000001
 43
0.0000001
 44
0.0000000001
 40
0.0
 40
0.0
 40
0.0
 40
0.0
 40
1.0
 40
1.0
 40
1.0
 40
1.0
 10
3135.1931371966
 20
1418.2473627754
 30
0.0
 10
3134.7466421767
 20
1418.0636320966
 30
0.0
 10
3134.2784588274
 20
1417.921549575
 30
0.0
 10
3133.8018221001
 20
1417.8445288285
 30
0.0
  0
SPLINE
  5
59B
100
AcDbEntity
  8
6_ALL_SURFS
100
AcDbSpline
 62
7
  6
CONTINUOUS
 70
0
 71
3
 72
9
 73
5
 74
0
 42
0.0000001
 43
0.0000001
 44
0.0000000001
 40
0.0
 40
0.0
 40
0.0
 40
0.0
 40
0.5101313341
 40
1.0
 40
1.0
 40
1.0
 40
1.0
 10
3171.554794128
 20
1447.327072629
 30
0.0
 10
3171.554794128
 20
1444.6729109327
 30
0.0
 10
3169.650291275
 20
1439.5680507773
 30
0.0
 10
3165.8343931603
 20
1435.5514593152
 30
0.0
 10
3163.4774084441
 20
1434.5815707776
 30
0.0
  0
SPLINE
  5
59C
100
AcDbEntity
  8
6_ALL_SURFS
100
AcDbSpline
 62
7
  6
CONTINUOUS
 70
0
 71
3
 72
8
 73
4
 74
0
 42
0.0000001
 43
0.0000001
 44
0.0000000001
 40
0.0
 40
0.0
 40
0.0
 40
0.0
 40
1.0
 40
1.0
 40
1.0
 40
1.0
 10
3163.4774084441
 20
1434.5815707776
 30
0.0
 10
3163.0309134241
 20
1434.3978400988
 30
0.0
 10
3162.5627300748
 20
1434.2557575772
 30
0.0
 10
3162.0860933476
 20
1434.1787368307
 30
0.0
  0
SPLINE
  5
59D
100
AcDbEntity
  8
6_ALL_SURFS
100
AcDbSpline
 62
7
  6
CONTINUOUS
 70
0
 71
3
 72
9
 73
5
 74
0
 42
0.0000001
 43
0.0000001
 44
0.0000000001
 40
0.0
 40
0.0
 40
0.0
 40
0.0
 40
0.5101313341
 40
1.0
 40
1.0
 40
1.0
 40
1.0
 10
3199.8390653755
 20
1463.6612806313
 30
0.0
 10
3199.8390653755
 20
1461.0071189349
 30
0.0
 10
3197.9345625225
 20
1455.9022587796
 30
0.0
 10
3194.1186644077
 20
1451.8856673174
 30
0.0
 10
3191.7616796915
 20
1450.9157787799
 30
0.0
  0
SPLINE
  5
59E
100
AcDbEntity
  8
6_ALL_SURFS
100
AcDbSpline
 62
7
  6
CONTINUOUS
 70
0
 71
3
 72
8
 73
4
 74
0
 42
0.0000001
 43
0.0000001
 44
0.0000000001
 40
0.0
 40
0.0
 40
0.0
 40
0.0
 40
1.0
 40
1.0
 40
1.0
 40
1.0
 10
3191.7616796915
 20
1450.9157787799
 30
0.0
 10
3191.3151846716
 20
1450.732048101
 30
0.0
 10
3190.8470013223
 20
1450.5899655794
 30
0.0
 10
3190.370364595
 20
1450.512944833
 30
0.0
  0
SPLINE
  5
59F
100
AcDbEntity
  8
6_ALL_SURFS
100
AcDbSpline
 62
7
  6
CONTINUOUS
 70
0
 71
3
 72
9
 73
5
 74
0
 42
0.0000001
 43
0.0000001
 44
0.0000000001
 40
0.0
 40
0.0
 40
0.0
 40
0.0
 40
0.3027165216
 40
1.0
 40
1.0
 40
1.0
 40
1.0
 10
2831.2431150558
 20
1203.588728959
 30
0.0
 10
2831.3332969435
 20
1204.0917999597
 30
0.0
 10
2831.8375196774
 20
1205.5884155661
 30
0.0
 10
2833.7870248382
 20
1207.4163100174
 30
0.0
 10
2834.8082538097
 20
1206.830628833
 30
0.0
  0
SPLINE
  5
5A0
100
AcDbEntity
  8
6_ALL_SURFS
100
AcDbSpline
 62
7
  6
CONTINUOUS
 70
0
 71
3
 72
10
 73
6
 74
0
 42
0.0000001
 43
0.0000001
 44
0.0000000001
 40
0.0
 40
0.0
 40
0.0
 40
0.0
 40
0.2775555189
 40
0.5772963999
 40
1.0
 40
1.0
 40
1.0
 40
1.0
 10
2817.6407790763
 20
1435.2890199167
 30
0.0
 10
2817.6407790763
 20
1436.2265434531
 30
0.0
 10
2818.1973657313
 20
1438.1922863924
 30
0.0
 10
2819.8380764501
 20
1440.9560187556
 30
0.0
 10
2822.7389756509
 20
1442.6917685165
 30
0.0
 10
2823.9767569404
 20
1441.9800673206
 30
0.0
  0
SPLINE
  5
5A1
100
AcDbEntity
  8
6_ALL_SURFS
100
AcDbSpline
 62
7
  6
CONTINUOUS
 70
0
 71
3
 72
9
 73
5
 74
0
 42
0.0000001
 43
0.0000001
 44
0.0000000001
 40
0.0
 40
0.0
 40
0.0
 40
0.0
 40
0.5507928343
 40
1.0
 40
1.0
 40
1.0
 40
1.0
 10
2991.596118316
 20
1553.7090549898
 30
0.0
 10
2991.596118316
 20
1552.7547723204
 30
0.0
 10
2991.827421527
 20
1550.9814425917
 30
0.0
 10
2992.9908968114
 20
1549.524021677
 30
0.0
 10
2993.6644521255
 20
1549.1340963369
 30
0.0
  0
SPLINE
  5
5A2
100
AcDbEntity
  8
6_ALL_SURFS
100
AcDbSpline
 62
7
  6
CONTINUOUS
 70
0
 71
3
 72
9
 73
5
 74
0
 42
0.0000001
 43
0.0000001
 44
0.0000000001
 40
0.0
 40
0.0
 40
0.0
 40
0.0
 40
0.5507928343
 40
1.0
 40
1.0
 40
1.0
 40
1.0
 10
2963.3118470686
 20
1537.3748469875
 30
0.0
 10
2963.3118470686
 20
1536.4205643181
 30
0.0
 10
2963.5431502796
 20
1534.6472345895
 30
0.0
 10
2964.7066255639
 20
1533.1898136747
 30
0.0
 10
2965.380180878
 20
1532.7998883346
 30
0.0
  0
SPLINE
  5
5A3
100
AcDbEntity
  8
6_ALL_SURFS
100
AcDbSpline
 62
7
  6
CONTINUOUS
 70
0
 71
3
 72
9
 73
5
 74
0
 42
0.0000001
 43
0.0000001
 44
0.0000000001
 40
0.0
 40
0.0
 40
0.0
 40
0.0
 40
0.5507928343
 40
1.0
 40
1.0
 40
1.0
 40
1.0
 10
2935.0275758211
 20
1521.0406389853
 30
0.0
 10
2935.0275758211
 20
1520.0863563159
 30
0.0
 10
2935.2588790321
 20
1518.3130265873
 30
0.0
 10
2936.4223543165
 20
1516.8556056725
 30
0.0
 10
2937.0959096306
 20
1516.4656803324
 30
0.0
  0
SPLINE
  5
5A4
100
AcDbEntity
  8
6_ALL_SURFS
100
AcDbSpline
 62
7
  6
CONTINUOUS
 70
0
 71
3
 72
9
 73
5
 74
0
 42
0.0000001
 43
0.0000001
 44
0.0000000001
 40
0.0
 40
0.0
 40
0.0
 40
0.0
 40
0.5507928343
 40
1.0
 40
1.0
 40
1.0
 40
1.0
 10
2906.7433045736
 20
1504.7064309831
 30
0.0
 10
2906.7433045736
 20
1503.7521483137
 30
0.0
 10
2906.9746077846
 20
1501.978818585
 30
0.0
 10
2908.138083069
 20
1500.5213976703
 30
0.0
 10
2908.8116383831
 20
1500.1314723302
 30
0.0
  0
SPLINE
  5
5A5
100
AcDbEntity
  8
6_ALL_SURFS
100
AcDbSpline
 62
7
  6
CONTINUOUS
 70
0
 71
3
 72
9
 73
5
 74
0
 42
0.0000001
 43
0.0000001
 44
0.0000000001
 40
0.0
 40
0.0
 40
0.0
 40
0.0
 40
0.5507928343
 40
1.0
 40
1.0
 40
1.0
 40
1.0
 10
2878.4590333262
 20
1488.3722229808
 30
0.0
 10
2878.4590333262
 20
1487.4179403115
 30
0.0
 10
2878.6903365372
 20
1485.6446105828
 30
0.0
 10
2879.8538118215
 20
1484.187189668
 30
0.0
 10
2880.5273671357
 20
1483.7972643279
 30
0.0
  0
SPLINE
  5
5A6
100
AcDbEntity
  8
6_ALL_SURFS
100
AcDbSpline
 62
7
  6
CONTINUOUS
 70
0
 71
3
 72
9
 73
5
 74
0
 42
0.0000001
 43
0.0000001
 44
0.0000000001
 40
0.0
 40
0.0
 40
0.0
 40
0.0
 40
0.5507928343
 40
1.0
 40
1.0
 40
1.0
 40
1.0
 10
2850.1747620787
 20
1472.0380149786
 30
0.0
 10
2850.1747620787
 20
1471.0837323092
 30
0.0
 10
2850.4060652897
 20
1469.3104025806
 30
0.0
 10
2851.5695405741
 20
1467.8529816658
 30
0.0
 10
2852.2430958882
 20
1467.4630563257
 30
0.0
  0
SPLINE
  5
5A7
100
AcDbEntity
  8
6_ALL_SURFS
100
AcDbSpline
 62
7
  6
CONTINUOUS
 70
0
 71
3
 72
9
 73
5
 74
0
 42
0.0000001
 43
0.0000001
 44
0.0000000001
 40
0.0
 40
0.0
 40
0.0
 40
0.0
 40
0.5507928343
 40
1.0
 40
1.0
 40
1.0
 40
1.0
 10
2680.4691345939
 20
1374.0327669652
 30
0.0
 10
2680.4691345939
 20
1373.0784842958
 30
0.0
 10
2680.7004378049
 20
1371.3051545672
 30
0.0
 10
2681.8639130893
 20
1369.8477336524
 30
0.0
 10
2682.5374684034
 20
1369.4578083123
 30
0.0
  0
SPLINE
  5
5A8
100
AcDbEntity
  8
6_ALL_SURFS
100
AcDbSpline
 62
7
  6
CONTINUOUS
 70
0
 71
3
 72
9
 73
5
 74
0
 42
0.0000001
 43
0.0000001
 44
0.0000000001
 40
0.0
 40
0.0
 40
0.0
 40
0.0
 40
0.5507928343
 40
1.0
 40
1.0
 40
1.0
 40
1.0
 10
2708.7534058414
 20
1390.3669749675
 30
0.0
 10
2708.7534058414
 20
1389.4126922981
 30
0.0
 10
2708.9847090524
 20
1387.6393625694
 30
0.0
 10
2710.1481843368
 20
1386.1819416547
 30
0.0
 10
2710.8217396509
 20
1385.7920163146
 30
0.0
  0
SPLINE
  5
5A9
100
AcDbEntity
  8
6_ALL_SURFS
100
AcDbSpline
 62
7
  6
CONTINUOUS
 70
0
 71
3
 72
9
 73
5
 74
0
 42
0.0000001
 43
0.0000001
 44
0.0000000001
 40
0.0
 40
0.0
 40
0.0
 40
0.0
 40
0.5507928343
 40
1.0
 40
1.0
 40
1.0
 40
1.0
 10
2737.0376770889
 20
1406.7011829697
 30
0.0
 10
2737.0376770889
 20
1405.7469003003
 30
0.0
 10
2737.2689802999
 20
1403.9735705716
 30
0.0
 10
2738.4324555842
 20
1402.5161496569
 30
0.0
 10
2739.1060108984
 20
1402.1262243168
 30
0.0
  0
SPLINE
  5
5AA
100
AcDbEntity
  8
6_ALL_SURFS
100
AcDbSpline
 62
7
  6
CONTINUOUS
 70
0
 71
3
 72
9
 73
5
 74
0
 42
0.0000001
 43
0.0000001
 44
0.0000000001
 40
0.0
 40
0.0
 40
0.0
 40
0.0
 40
0.5507928343
 40
1.0
 40
1.0
 40
1.0
 40
1.0
 10
2765.3219483363
 20
1423.0353909719
 30
0.0
 10
2765.3219483363
 20
1422.0811083025
 30
0.0
 10
2765.5532515473
 20
1420.3077785739
 30
0.0
 10
2766.7167268317
 20
1418.8503576591
 30
0.0
 10
2767.3902821458
 20
1418.460432319
 30
0.0
  0
SPLINE
  5
5AB
100
AcDbEntity
  8
6_ALL_SURFS
100
AcDbSpline
 62
7
  6
CONTINUOUS
 70
0
 71
3
 72
9
 73
5
 74
0
 42
0.0000001
 43
0.0000001
 44
0.0000000001
 40
0.0
 40
0.0
 40
0.0
 40
0.0
 40
0.5507928343
 40
1.0
 40
1.0
 40
1.0
 40
1.0
 10
2793.6062195838
 20
1439.3695989741
 30
0.0
 10
2793.6062195838
 20
1438.4153163048
 30
0.0
 10
2793.8375227948
 20
1436.6419865761
 30
0.0
 10
2795.0009980791
 20
1435.1845656614
 30
0.0
 10
2795.6745533933
 20
1434.7946403212
 30
0.0
  0
SPLINE
  5
5AC
100
AcDbEntity
  8
6_ALL_SURFS
100
AcDbSpline
 62
7
  6
CONTINUOUS
 70
0
 71
3
 72
9
 73
5
 74
0
 42
0.0000001
 43
0.0000001
 44
0.0000000001
 40
0.0
 40
0.0
 40
0.0
 40
0.0
 40
0.5507928343
 40
1.0
 40
1.0
 40
1.0
 40
1.0
 10
2821.8904908312
 20
1455.7038069764
 30
0.0
 10
2821.8904908312
 20
1454.749524307
 30
0.0
 10
2822.1217940423
 20
1452.9761945783
 30
0.0
 10
2823.2852693266
 20
1451.5187736636
 30
0.0
 10
2823.9588246407
 20
1451.1288483235
 30
0.0
  0
SPLINE
  5
5AD
100
AcDbEntity
  8
6_ALL_SURFS
100
AcDbSpline
 62
7
  6
CONTINUOUS
 70
0
 71
3
 72
11
 73
7
 74
0
 42
0.0000001
 43
0.0000001
 44
0.0000000001
 40
0.0
 40
0.0
 40
0.0
 40
0.0
 40
0.1839227624
 40
0.3677632182
 40
0.5827750044
 40
1.0
 40
1.0
 40
1.0
 40
1.0
 10
2840.394126123
 20
1201.9241575747
 30
0.0
 10
2840.7396207725
 20
1201.7255299005
 30
0.0
 10
2841.6510405211
 20
1201.7761938744
 30
0.0
 10
2842.6996817043
 20
1202.5013458597
 30
0.0
 10
2843.8517272805
 20
1203.8528321145
 30
0.0
 10
2844.376486473
 20
1205.2262212932
 30
0.0
 10
2844.376486473
 20
1206.1302594431
 30
0.0
  0
SPLINE
  5
5AE
100
AcDbEntity
  8
6_ALL_SURFS
100
AcDbSpline
 62
7
  6
CONTINUOUS
 70
0
 71
3
 72
9
 73
5
 74
0
 42
0.0000001
 43
0.0000001
 44
0.0000000001
 40
0.0
 40
0.0
 40
0.0
 40
0.0
 40
0.4492071657
 40
1.0
 40
1.0
 40
1.0
 40
1.0
 10
3202.0133722531
 20
1465.7861080838
 30
0.0
 10
3202.6869275672
 20
1465.3961827437
 30
0.0
 10
3203.8504028516
 20
1463.938761829
 30
0.0
 10
3204.0817060626
 20
1462.1654321003
 30
0.0
 10
3204.0817060626
 20
1461.2111494309
 30
0.0
  0
SPLINE
  5
5AF
100
AcDbEntity
  8
0
100
AcDbSpline
 62
7
  6
CONTINUOUS
 70
0
 71
3
 72
8
 73
4
 74
0
 42
0.0000001
 43
0.0000001
 44
0.0000000001
 40
0.0
 40
0.0
 40
0.0
 40
0.0
 40
1.0
 40
1.0
 40
1.0
 40
1.0
 10
2513.0935381892
 20
1535.0490395367
 30
0.0
 10
2513.1948799368
 20
1534.5370618399
 30
0.0
 10
2513.2383808433
 20
1534.0119310515
 30
0.0
 10
2513.2383808433
 20
1533.4900198408
 30
0.0
  0
SPLINE
  5
5B0
100
AcDbEntity
  8
6_ALL_SURFS
100
AcDbSpline
 62
7
  6
CONTINUOUS
 70
0
 71
3
 72
12
 73
8
 74
0
 42
0.0000001
 43
0.0000001
 44
0.0000000001
 40
0.0
 40
0.0
 40
0.0
 40
0.0
 40
0.183254858
 40
0.3014455741
 40
0.4361829271
 40
0.7289416397
 40
1.0
 40
1.0
 40
1.0
 40
1.0
 10
2767.3902821458
 20
1418.460432319
 30
0.0
 10
2768.435533593
 20
1417.855329787
 30
0.0
 10
2770.7267083612
 20
1417.9719226776
 30
0.0
 10
2773.2173945839
 20
1419.3826405263
 30
0.0
 10
2775.9454770628
 20
1421.778250301
 30
0.0
 10
2778.478759658
 20
1425.7131233511
 30
0.0
 10
2779.4640839601
 20
1429.4160474988
 30
0.0
 10
2779.4640839601
 20
1431.202494973
 30
0.0
  0
SPLINE
  5
5B1
100
AcDbEntity
  8
6_ALL_SURFS
100
AcDbSpline
 62
7
  6
CONTINUOUS
 70
0
 71
3
 72
9
 73
5
 74
0
 42
0.0000001
 43
0.0000001
 44
0.0000000001
 40
0.0
 40
0.0
 40
0.0
 40
0.0
 40
0.4492071657
 40
1.0
 40
1.0
 40
1.0
 40
1.0
 10
3088.8762872632
 20
1400.4492760749
 30
0.0
 10
3089.5498425774
 20
1400.0593507348
 30
0.0
 10
3090.7133178617
 20
1398.6019298201
 30
0.0
 10
3090.9446210727
 20
1396.8286000914
 30
0.0
 10
3090.9446210727
 20
1395.874317422
 30
0.0
  0
SPLINE
  5
5B2
100
AcDbEntity
  8
0
100
AcDbSpline
 62
7
  6
CONTINUOUS
 70
0
 71
3
 72
8
 73
4
 74
0
 42
0.0000001
 43
0.0000001
 44
0.0000000001
 40
0.0
 40
0.0
 40
0.0
 40
0.0
 40
1.0
 40
1.0
 40
1.0
 40
1.0
 10
2739.3677081689
 20
1665.7227035545
 30
0.0
 10
2739.4690499165
 20
1665.2107258577
 30
0.0
 10
2739.512550823
 20
1664.6855950693
 30
0.0
 10
2739.512550823
 20
1664.1636838586
 30
0.0
  0
SPLINE
  5
5B3
100
AcDbEntity
  8
0
100
AcDbSpline
 62
7
  6
CONTINUOUS
 70
0
 71
3
 72
8
 73
4
 74
0
 42
0.0000001
 43
0.0000001
 44
0.0000000001
 40
0.0
 40
0.0
 40
0.0
 40
0.0
 40
1.0
 40
1.0
 40
1.0
 40
1.0
 10
2484.8092669417
 20
1518.7148315344
 30
0.0
 10
2484.9106086893
 20
1518.2028538376
 30
0.0
 10
2484.9541095959
 20
1517.6777230493
 30
0.0
 10
2484.9541095959
 20
1517.1558118386
 30
0.0
  0
SPLINE
  5
5B4
100
AcDbEntity
  8
6_ALL_SURFS
100
AcDbSpline
 62
7
  6
CONTINUOUS
 70
0
 71
3
 72
12
 73
8
 74
0
 42
0.0000001
 43
0.0000001
 44
0.0000000001
 40
0.0
 40
0.0
 40
0.0
 40
0.0
 40
0.183254858
 40
0.3014455741
 40
0.4361829271
 40
0.7289416397
 40
1.0
 40
1.0
 40
1.0
 40
1.0
 10
2739.1060108984
 20
1402.1262243168
 30
0.0
 10
2740.1512623455
 20
1401.5211217848
 30
0.0
 10
2742.4424371138
 20
1401.6377146753
 30
0.0
 10
2744.9331233365
 20
1403.048432524
 30
0.0
 10
2747.6612058153
 20
1405.4440422987
 30
0.0
 10
2750.1944884105
 20
1409.3789153489
 30
0.0
 10
2751.1798127126
 20
1413.0818394965
 30
0.0
 10
2751.1798127126
 20
1414.8682869708
 30
0.0
  0
SPLINE
  5
5B5
100
AcDbEntity
  8
6_ALL_SURFS
100
AcDbSpline
 62
7
  6
CONTINUOUS
 70
0
 71
3
 72
9
 73
5
 74
0
 42
0.0000001
 43
0.0000001
 44
0.0000000001
 40
0.0
 40
0.0
 40
0.0
 40
0.0
 40
0.4492071657
 40
1.0
 40
1.0
 40
1.0
 40
1.0
 10
2975.7392022734
 20
1335.112444066
 30
0.0
 10
2976.4127575875
 20
1334.7225187259
 30
0.0
 10
2977.5762328719
 20
1333.2650978111
 30
0.0
 10
2977.8075360829
 20
1331.4917680825
 30
0.0
 10
2977.8075360829
 20
1330.5374854131
 30
0.0
  0
SPLINE
  5
5B6
100
AcDbEntity
  8
6_ALL_SURFS
100
AcDbSpline
 62
7
  6
CONTINUOUS
 70
0
 71
3
 72
12
 73
8
 74
0
 42
0.0000001
 43
0.0000001
 44
0.0000000001
 40
0.0
 40
0.0
 40
0.0
 40
0.0
 40
0.183254858
 40
0.3014455741
 40
0.4361829271
 40
0.7289416397
 40
1.0
 40
1.0
 40
1.0
 40
1.0
 10
2710.8217396509
 20
1385.7920163146
 30
0.0
 10
2711.8669910981
 20
1385.1869137825
 30
0.0
 10
2714.1581658663
 20
1385.3035066731
 30
0.0
 10
2716.648852089
 20
1386.7142245218
 30
0.0
 10
2719.3769345679
 20
1389.1098342965
 30
0.0
 10
2721.9102171631
 20
1393.0447073466
 30
0.0
 10
2722.8955414651
 20
1396.7476314943
 30
0.0
 10
2722.8955414651
 20
1398.5340789686
 30
0.0
  0
SPLINE
  5
5B7
100
AcDbEntity
  8
0
100
AcDbSpline
 62
7
  6
CONTINUOUS
 70
0
 71
3
 72
10
 73
6
 74
0
 42
0.0000001
 43
0.0000001
 44
0.0000000001
 40
0.0
 40
0.0
 40
0.0
 40
0.0
 40
0.2776167721
 40
0.5773718367
 40
1.0
 40
1.0
 40
1.0
 40
1.0
 10
2803.3289378251
 20
1660.1982581469
 30
0.0
 10
2803.3289378251
 20
1659.6176609969
 30
0.0
 10
2802.9840771276
 20
1658.4004257924
 30
0.0
 10
2801.9683957454
 20
1656.6893568734
 30
0.0
 10
2800.1711528277
 20
1655.6151000504
 30
0.0
 10
2799.4055132166
 20
1656.0567100932
 30
0.0
  0
SPLINE
  5
5B8
100
AcDbEntity
  8
6_ALL_SURFS
100
AcDbSpline
 62
7
  6
CONTINUOUS
 70
0
 71
3
 72
12
 73
8
 74
0
 42
0.0000001
 43
0.0000001
 44
0.0000000001
 40
0.0
 40
0.0
 40
0.0
 40
0.0
 40
0.183254858
 40
0.3014455741
 40
0.4361829271
 40
0.7289416397
 40
1.0
 40
1.0
 40
1.0
 40
1.0
 10
2682.5374684034
 20
1369.4578083123
 30
0.0
 10
2683.5827198506
 20
1368.8527057803
 30
0.0
 10
2685.8738946189
 20
1368.9692986709
 30
0.0
 10
2688.3645808416
 20
1370.3800165196
 30
0.0
 10
2691.0926633204
 20
1372.7756262943
 30
0.0
 10
2693.6259459156
 20
1376.7104993444
 30
0.0
 10
2694.6112702177
 20
1380.4134234921
 30
0.0
 10
2694.6112702177
 20
1382.1998709663
 30
0.0
  0
SPLINE
  5
5B9
100
AcDbEntity
  8
0
100
AcDbSpline
 62
7
  6
CONTINUOUS
 70
0
 71
3
 72
10
 73
6
 74
0
 42
0.0000001
 43
0.0000001
 44
0.0000000001
 40
0.0
 40
0.0
 40
0.0
 40
0.0
 40
0.2775555189
 40
0.5772963999
 40
1.0
 40
1.0
 40
1.0
 40
1.0
 10
2687.4344995175
 20
1597.9701625704
 30
0.0
 10
2687.4344995175
 20
1597.2112149457
 30
0.0
 10
2686.9839293683
 20
1595.6198992329
 30
0.0
 10
2685.6557349769
 20
1593.3825920817
 30
0.0
 10
2683.3073880048
 20
1591.9774613229
 30
0.0
 10
2682.3053745799
 20
1592.5536003862
 30
0.0
  0
SPLINE
  5
5BA
100
AcDbEntity
  8
0
100
AcDbSpline
 62
7
  6
CONTINUOUS
 70
0
 71
3
 72
9
 73
5
 74
0
 42
0.0000001
 43
0.0000001
 44
0.0000000001
 40
0.0
 40
0.0
 40
0.0
 40
0.0
 40
0.2956262168
 40
1.0
 40
1.0
 40
1.0
 40
1.0
 10
2437.5779552564
 20
1504.4871781436
 30
0.0
 10
2437.7974786282
 20
1504.6139532118
 30
0.0
 10
2438.5580820294
 20
1504.9890120167
 30
0.0
 10
2439.5554030113
 20
1505.0371338868
 30
0.0
 10
2440.0784493807
 20
1504.73507159
 30
0.0
  0
SPLINE
  5
5BB
100
AcDbEntity
  8
0
100
AcDbSpline
 62
7
  6
CONTINUOUS
 70
0
 71
3
 72
9
 73
5
 74
0
 42
0.0000001
 43
0.0000001
 44
0.0000000001
 40
0.0
 40
0.0
 40
0.0
 40
0.0
 40
0.2314734624
 40
1.0
 40
1.0
 40
1.0
 40
1.0
 10
2456.6698383484
 20
1500.8216038363
 30
0.0
 10
2456.6698383484
 20
1500.422945732
 30
0.0
 10
2456.5597789164
 20
1498.7010354392
 30
0.0
 10
2456.0731302095
 20
1497.0155923331
 30
0.0
 10
2455.5620402855
 20
1495.7946434617
 30
0.0
  0
SPLINE
  5
5BC
100
AcDbEntity
  8
6_ALL_SURFS
100
AcDbSpline
 62
7
  6
CONTINUOUS
 70
0
 71
3
 72
9
 73
5
 74
0
 42
0.0000001
 43
0.0000001
 44
0.0000000001
 40
0.0
 40
0.0
 40
0.0
 40
0.0
 40
0.4318203608
 40
1.0
 40
1.0
 40
1.0
 40
1.0
 10
2837.3714001124
 20
1194.6234920298
 30
0.0
 10
2836.4880225015
 20
1195.1362330689
 30
0.0
 10
2835.1038592996
 20
1197.3759183385
 30
0.0
 10
2835.2486181227
 20
1199.8157483155
 30
0.0
 10
2835.4857557429
 20
1201.1385977587
 30
0.0
  0
SPLINE
  5
5BD
100
AcDbEntity
  8
0
100
AcDbSpline
 62
7
  6
CONTINUOUS
 70
0
 71
3
 72
12
 73
8
 74
0
 42
0.0000001
 43
0.0000001
 44
0.0000000001
 40
0.0
 40
0.0
 40
0.0
 40
0.0
 40
0.2710583603
 40
0.5638170729
 40
0.6985544259
 40
0.816745142
 40
1.0
 40
1.0
 40
1.0
 40
1.0
 10
2484.9541095959
 20
1517.1558118386
 30
0.0
 10
2484.9541095959
 20
1515.3693643643
 30
0.0
 10
2483.9687852938
 20
1511.6664402166
 30
0.0
 10
2481.4355026986
 20
1507.7315671665
 30
0.0
 10
2478.7074202198
 20
1505.3359573918
 30
0.0
 10
2476.216733997
 20
1503.9252395431
 30
0.0
 10
2473.9255592288
 20
1503.8086466525
 30
0.0
 10
2472.8803077816
 20
1504.4137491846
 30
0.0
  0
SPLINE
  5
5BE
100
AcDbEntity
  8
0
100
AcDbSpline
 62
7
  6
CONTINUOUS
 70
0
 71
3
 72
9
 73
5
 74
0
 42
0.0000001
 43
0.0000001
 44
0.0000000001
 40
0.0
 40
0.0
 40
0.0
 40
0.0
 40
0.2208989638
 40
1.0
 40
1.0
 40
1.0
 40
1.0
 10
2686.5532168151
 20
1599.9157055541
 30
0.0
 10
2686.6935458408
 20
1599.835018977
 30
0.0
 10
2687.2677297247
 20
1599.353388555
 30
0.0
 10
2687.4344995175
 20
1598.5410782343
 30
0.0
 10
2687.4344995175
 20
1597.9701625704
 30
0.0
  0
SPLINE
  5
5BF
100
AcDbEntity
  8
0
100
AcDbSpline
 62
7
  6
CONTINUOUS
 70
0
 71
3
 72
12
 73
8
 74
0
 42
0.0000001
 43
0.0000001
 44
0.0000000001
 40
0.0
 40
0.0
 40
0.0
 40
0.0
 40
0.2710583603
 40
0.5638170729
 40
0.6985544259
 40
0.816745142
 40
1.0
 40
1.0
 40
1.0
 40
1.0
 10
2513.2383808433
 20
1533.4900198408
 30
0.0
 10
2513.2383808433
 20
1531.7035723665
 30
0.0
 10
2512.2530565413
 20
1528.0006482189
 30
0.0
 10
2509.7197739461
 20
1524.0657751687
 30
0.0
 10
2506.9916914672
 20
1521.670165394
 30
0.0
 10
2504.5010052445
 20
1520.2594475453
 30
0.0
 10
2502.2098304762
 20
1520.1428546548
 30
0.0
 10
2501.1645790291
 20
1520.7479571868
 30
0.0
  0
SPLINE
  5
5C0
100
AcDbEntity
  8
0
100
AcDbSpline
 62
7
  6
CONTINUOUS
 70
0
 71
3
 72
9
 73
5
 74
0
 42
0.0000001
 43
0.0000001
 44
0.0000000001
 40
0.0
 40
0.0
 40
0.0
 40
0.0
 40
0.2208681529
 40
1.0
 40
1.0
 40
1.0
 40
1.0
 10
2802.6561683559
 20
1661.6854974003
 30
0.0
 10
2802.7633057499
 20
1661.6237020746
 30
0.0
 10
2803.2014890587
 20
1661.2550156538
 30
0.0
 10
2803.3289378251
 20
1660.6345550954
 30
0.0
 10
2803.3289378251
 20
1660.1982581469
 30
0.0
  0
SPLINE
  5
5C1
100
AcDbEntity
  8
0
100
AcDbSpline
 62
7
  6
CONTINUOUS
 70
0
 71
3
 72
12
 73
8
 74
0
 42
0.0000001
 43
0.0000001
 44
0.0000000001
 40
0.0
 40
0.0
 40
0.0
 40
0.0
 40
0.2710583603
 40
0.5638170729
 40
0.6985544259
 40
0.816745142
 40
1.0
 40
1.0
 40
1.0
 40
1.0
 10
2541.5226520908
 20
1549.824227843
 30
0.0
 10
2541.5226520908
 20
1548.0377803688
 30
0.0
 10
2540.5373277887
 20
1544.3348562211
 30
0.0
 10
2538.0040451935
 20
1540.399983171
 30
0.0
 10
2535.2759627147
 20
1538.0043733963
 30
0.0
 10
2532.785276492
 20
1536.5936555476
 30
0.0
 10
2530.4941017237
 20
1536.477062657
 30
0.0
 10
2529.4488502765
 20
1537.082165189
 30
0.0
  0
SPLINE
  5
5C2
100
AcDbEntity
  8
6_ALL_SURFS
100
AcDbSpline
 62
7
  6
CONTINUOUS
 70
0
 71
3
 72
9
 73
5
 74
0
 42
0.0000001
 43
0.0000001
 44
0.0000000001
 40
0.0
 40
0.0
 40
0.0
 40
0.0
 40
0.2956262168
 40
1.0
 40
1.0
 40
1.0
 40
1.0
 10
3235.901511216
 20
1504.0788229435
 30
0.0
 10
3236.1210345878
 20
1504.2055980117
 30
0.0
 10
3236.881637989
 20
1504.5806568167
 30
0.0
 10
3237.8789589709
 20
1504.6287786867
 30
0.0
 10
3238.4020053404
 20
1504.32671639
 30
0.0
  0
SPLINE
  5
5C3
100
AcDbEntity
  8
0
100
AcDbSpline
 62
7
  6
CONTINUOUS
 70
0
 71
3
 72
12
 73
8
 74
0
 42
0.0000001
 43
0.0000001
 44
0.0000000001
 40
0.0
 40
0.0
 40
0.0
 40
0.0
 40
0.2710583603
 40
0.5638170729
 40
0.6985544259
 40
0.816745142
 40
1.0
 40
1.0
 40
1.0
 40
1.0
 10
2569.8069233382
 20
1566.1584358453
 30
0.0
 10
2569.8069233382
 20
1564.371988371
 30
0.0
 10
2568.8215990362
 20
1560.6690642233
 30
0.0
 10
2566.288316441
 20
1556.7341911732
 30
0.0
 10
2563.5602339621
 20
1554.3385813985
 30
0.0
 10
2561.0695477394
 20
1552.9278635498
 30
0.0
 10
2558.7783729712
 20
1552.8112706592
 30
0.0
 10
2557.733121524
 20
1553.4163731913
 30
0.0
  0
SPLINE
  5
5C4
100
AcDbEntity
  8
0
100
AcDbSpline
 62
7
  6
CONTINUOUS
 70
0
 71
3
 72
8
 73
4
 74
0
 42
0.0000001
 43
0.0000001
 44
0.0000000001
 40
0.0
 40
0.0
 40
0.0
 40
0.0
 40
1.0
 40
1.0
 40
1.0
 40
1.0
 10
2711.0834369214
 20
1649.3884955523
 30
0.0
 10
2711.184778669
 20
1648.8765178555
 30
0.0
 10
2711.2282795756
 20
1648.3513870671
 30
0.0
 10
2711.2282795756
 20
1647.8294758564
 30
0.0
  0
SPLINE
  5
5C5
100
AcDbEntity
  8
0
100
AcDbSpline
 62
7
  6
CONTINUOUS
 70
0
 71
3
 72
12
 73
8
 74
0
 42
0.0000001
 43
0.0000001
 44
0.0000000001
 40
0.0
 40
0.0
 40
0.0
 40
0.0
 40
0.2710583603
 40
0.5638170729
 40
0.6985544259
 40
0.816745142
 40
1.0
 40
1.0
 40
1.0
 40
1.0
 10
2598.0911945857
 20
1582.4926438475
 30
0.0
 10
2598.0911945857
 20
1580.7061963732
 30
0.0
 10
2597.1058702837
 20
1577.0032722256
 30
0.0
 10
2594.5725876884
 20
1573.0683991754
 30
0.0
 10
2591.8445052096
 20
1570.6727894007
 30
0.0
 10
2589.3538189869
 20
1569.262071552
 30
0.0
 10
2587.0626442186
 20
1569.1454786615
 30
0.0
 10
2586.0173927715
 20
1569.7505811935
 30
0.0
  0
SPLINE
  5
5C6
100
AcDbEntity
  8
6_ALL_SURFS
100
AcDbSpline
 62
7
  6
CONTINUOUS
 70
0
 71
3
 72
9
 73
5
 74
0
 42
0.0000001
 43
0.0000001
 44
0.0000000001
 40
0.0
 40
0.0
 40
0.0
 40
0.0
 40
0.4492071657
 40
1.0
 40
1.0
 40
1.0
 40
1.0
 10
2947.4549310259
 20
1318.7782360638
 30
0.0
 10
2948.1284863401
 20
1318.3883107236
 30
0.0
 10
2949.2919616244
 20
1316.9308898089
 30
0.0
 10
2949.5232648354
 20
1315.1575600802
 30
0.0
 10
2949.5232648354
 20
1314.2032774109
 30
0.0
  0
SPLINE
  5
5C7
100
AcDbEntity
  8
6_ALL_SURFS
100
AcDbSpline
 62
7
  6
CONTINUOUS
 70
0
 71
3
 72
9
 73
5
 74
0
 42
0.0000001
 43
0.0000001
 44
0.0000000001
 40
0.0
 40
0.0
 40
0.0
 40
0.0
 40
0.2949607766
 40
1.0
 40
1.0
 40
1.0
 40
1.0
 10
3057.5338256617
 20
1338.2092206536
 30
0.0
 10
3057.5338256617
 20
1338.4619625753
 30
0.0
 10
3057.4770776776
 20
1339.3073257168
 30
0.0
 10
3057.0221105534
 20
1340.195440481
 30
0.0
 10
3056.4987957091
 20
1340.4972810434
 30
0.0
  0
SPLINE
  5
5C8
100
AcDbEntity
  8
0
100
AcDbSpline
 62
7
  6
CONTINUOUS
 70
0
 71
3
 72
12
 73
8
 74
0
 42
0.0000001
 43
0.0000001
 44
0.0000000001
 40
0.0
 40
0.0
 40
0.0
 40
0.0
 40
0.2710583603
 40
0.5638170729
 40
0.6985544259
 40
0.816745142
 40
1.0
 40
1.0
 40
1.0
 40
1.0
 10
2626.3754658332
 20
1598.8268518497
 30
0.0
 10
2626.3754658332
 20
1597.0404043755
 30
0.0
 10
2625.3901415311
 20
1593.3374802278
 30
0.0
 10
2622.8568589359
 20
1589.4026071777
 30
0.0
 10
2620.1287764571
 20
1587.006997403
 30
0.0
 10
2617.6380902344
 20
1585.5962795543
 30
0.0
 10
2615.3469154661
 20
1585.4796866637
 30
0.0
 10
2614.3016640189
 20
1586.0847891957
 30
0.0
  0
SPLINE
  5
5C9
100
AcDbEntity
  8
0
100
AcDbSpline
 62
7
  6
CONTINUOUS
 70
0
 71
3
 72
12
 73
8
 74
0
 42
0.0000001
 43
0.0000001
 44
0.0000000001
 40
0.0
 40
0.0
 40
0.0
 40
0.0
 40
0.2710583603
 40
0.5638170729
 40
0.6985544259
 40
0.816745142
 40
1.0
 40
1.0
 40
1.0
 40
1.0
 10
2654.6597370806
 20
1615.161059852
 30
0.0
 10
2654.6597370806
 20
1613.3746123777
 30
0.0
 10
2653.6744127786
 20
1609.67168823
 30
0.0
 10
2651.1411301834
 20
1605.7368151799
 30
0.0
 10
2648.4130477045
 20
1603.3412054052
 30
0.0
 10
2645.9223614818
 20
1601.9304875565
 30
0.0
 10
2643.6311867136
 20
1601.8138946659
 30
0.0
 10
2642.5859352664
 20
1602.4189971979
 30
0.0
  0
SPLINE
  5
5CA
100
AcDbEntity
  8
0
100
AcDbSpline
 62
7
  6
CONTINUOUS
 70
0
 71
3
 72
12
 73
8
 74
0
 42
0.0000001
 43
0.0000001
 44
0.0000000001
 40
0.0
 40
0.0
 40
0.0
 40
0.0
 40
0.2710583603
 40
0.5638170729
 40
0.6985544259
 40
0.816745142
 40
1.0
 40
1.0
 40
1.0
 40
1.0
 10
2682.9440083281
 20
1631.4952678542
 30
0.0
 10
2682.9440083281
 20
1629.7088203799
 30
0.0
 10
2681.958684026
 20
1626.0058962323
 30
0.0
 10
2679.4254014308
 20
1622.0710231821
 30
0.0
 10
2676.697318952
 20
1619.6754134074
 30
0.0
 10
2674.2066327293
 20
1618.2646955587
 30
0.0
 10
2671.915457961
 20
1618.1481026682
 30
0.0
 10
2670.8702065139
 20
1618.7532052002
 30
0.0
  0
SPLINE
  5
5CB
100
AcDbEntity
  8
6_ALL_SURFS
100
AcDbSpline
 62
7
  6
CONTINUOUS
 70
0
 71
3
 72
9
 73
5
 74
0
 42
0.0000001
 43
0.0000001
 44
0.0000000001
 40
0.0
 40
0.0
 40
0.0
 40
0.0
 40
0.3027165216
 40
1.0
 40
1.0
 40
1.0
 40
1.0
 10
2835.4857557429
 20
1201.1385977587
 30
0.0
 10
2835.5759376306
 20
1201.6416687594
 30
0.0
 10
2836.0801603645
 20
1203.1382843658
 30
0.0
 10
2838.0296655253
 20
1204.9661788171
 30
0.0
 10
2839.0508944968
 20
1204.3804976327
 30
0.0
  0
SPLINE
  5
5CC
100
AcDbEntity
  8
0
100
AcDbSpline
 62
7
  6
CONTINUOUS
 70
0
 71
3
 72
12
 73
8
 74
0
 42
0.0000001
 43
0.0000001
 44
0.0000000001
 40
0.0
 40
0.0
 40
0.0
 40
0.0
 40
0.2710583603
 40
0.5638170729
 40
0.6985544259
 40
0.816745142
 40
1.0
 40
1.0
 40
1.0
 40
1.0
 10
2711.2282795756
 20
1647.8294758564
 30
0.0
 10
2711.2282795756
 20
1646.0430283821
 30
0.0
 10
2710.2429552735
 20
1642.3401042345
 30
0.0
 10
2707.7096726783
 20
1638.4052311843
 30
0.0
 10
2704.9815901994
 20
1636.0096214096
 30
0.0
 10
2702.4909039767
 20
1634.5989035609
 30
0.0
 10
2700.1997292085
 20
1634.4823106704
 30
0.0
 10
2699.1544777613
 20
1635.0874132024
 30
0.0
  0
SPLINE
  5
5CD
100
AcDbEntity
  8
6_ALL_SURFS
100
AcDbSpline
 62
7
  6
CONTINUOUS
 70
0
 71
3
 72
9
 73
5
 74
0
 42
0.0000001
 43
0.0000001
 44
0.0000000001
 40
0.0
 40
0.0
 40
0.0
 40
0.0
 40
0.4492071657
 40
1.0
 40
1.0
 40
1.0
 40
1.0
 10
3060.5920160158
 20
1384.1150680727
 30
0.0
 10
3061.2655713299
 20
1383.7251427326
 30
0.0
 10
3062.4290466143
 20
1382.2677218178
 30
0.0
 10
3062.6603498253
 20
1380.4943920892
 30
0.0
 10
3062.6603498253
 20
1379.5401094198
 30
0.0
  0
SPLINE
  5
5CE
100
AcDbEntity
  8
0
100
AcDbSpline
 62
7
  6
CONTINUOUS
 70
0
 71
3
 72
12
 73
8
 74
0
 42
0.0000001
 43
0.0000001
 44
0.0000000001
 40
0.0
 40
0.0
 40
0.0
 40
0.0
 40
0.2710583603
 40
0.5638170729
 40
0.6985544259
 40
0.816745142
 40
1.0
 40
1.0
 40
1.0
 40
1.0
 10
2739.512550823
 20
1664.1636838586
 30
0.0
 10
2739.512550823
 20
1662.3772363844
 30
0.0
 10
2738.527226521
 20
1658.6743122367
 30
0.0
 10
2735.9939439258
 20
1654.7394391866
 30
0.0
 10
2733.2658614469
 20
1652.3438294119
 30
0.0
 10
2730.7751752242
 20
1650.9331115632
 30
0.0
 10
2728.4840004559
 20
1650.8165186726
 30
0.0
 10
2727.4387490088
 20
1651.4216212046
 30
0.0
  0
SPLINE
  5
5CF
100
AcDbEntity
  8
6_ALL_SURFS
100
AcDbSpline
 62
7
  6
CONTINUOUS
 70
0
 71
3
 72
9
 73
5
 74
0
 42
0.0000001
 43
0.0000001
 44
0.0000000001
 40
0.0
 40
0.0
 40
0.0
 40
0.0
 40
0.4999743453
 40
1.0
 40
1.0
 40
1.0
 40
1.0
 10
2815.17297641
 20
1257.0255306587
 30
0.0
 10
2815.17297641
 20
1258.2372027542
 30
0.0
 10
2816.0010937283
 20
1260.6298532988
 30
0.0
 10
2817.6591325208
 20
1262.5432376995
 30
0.0
 10
2818.7085103159
 20
1263.1492549106
 30
0.0
  0
SPLINE
  5
5D0
100
AcDbEntity
  8
6_ALL_SURFS
100
AcDbSpline
 62
7
  6
CONTINUOUS
 70
0
 71
3
 72
10
 73
6
 74
0
 42
0.0000001
 43
0.0000001
 44
0.0000000001
 40
0.0
 40
0.0
 40
0.0
 40
0.0
 40
0.2776167721
 40
0.5773718367
 40
1.0
 40
1.0
 40
1.0
 40
1.0
 10
3211.3295505697
 20
1424.5773077147
 30
0.0
 10
3211.3295505697
 20
1423.9967105647
 30
0.0
 10
3210.9846898722
 20
1422.7794753603
 30
0.0
 10
3209.96900849
 20
1421.0684064412
 30
0.0
 10
3208.1717655723
 20
1419.9941496182
 30
0.0
 10
3207.4061259612
 20
1420.435759661
 30
0.0
  0
SPLINE
  5
5D1
100
AcDbEntity
  8
0
100
AcDbSpline
 62
7
  6
CONTINUOUS
 70
0
 71
3
 72
12
 73
8
 74
0
 42
0.0000001
 43
0.0000001
 44
0.0000000001
 40
0.0
 40
0.0
 40
0.0
 40
0.0
 40
0.2710583603
 40
0.5638170729
 40
0.6985544259
 40
0.816745142
 40
1.0
 40
1.0
 40
1.0
 40
1.0
 10
2767.7968220705
 20
1680.4978918609
 30
0.0
 10
2767.7968220705
 20
1678.7114443866
 30
0.0
 10
2766.8114977684
 20
1675.0085202389
 30
0.0
 10
2764.2782151732
 20
1671.0736471888
 30
0.0
 10
2761.5501326944
 20
1668.6780374141
 30
0.0
 10
2759.0594464717
 20
1667.2673195654
 30
0.0
 10
2756.7682717034
 20
1667.1507266749
 30
0.0
 10
2755.7230202562
 20
1667.7558292069
 30
0.0
  0
SPLINE
  5
5D2
100
AcDbEntity
  8
6_ALL_SURFS
100
AcDbSpline
 62
7
  6
CONTINUOUS
 70
0
 71
3
 72
10
 73
6
 74
0
 42
0.0000001
 43
0.0000001
 44
0.0000000001
 40
0.0
 40
0.0
 40
0.0
 40
0.0
 40
0.2775555189
 40
0.5772963999
 40
1.0
 40
1.0
 40
1.0
 40
1.0
 10
3095.4351122622
 20
1362.3492121382
 30
0.0
 10
3095.4351122622
 20
1361.5902645135
 30
0.0
 10
3094.9845421129
 20
1359.9989488007
 30
0.0
 10
3093.6563477215
 20
1357.7616416495
 30
0.0
 10
3091.3080007494
 20
1356.3565108907
 30
0.0
 10
3090.3059873246
 20
1356.932649954
 30
0.0
  0
SPLINE
  5
5D3
100
AcDbEntity
  8
6_ALL_SURFS
100
AcDbSpline
 62
7
  6
CONTINUOUS
 70
0
 71
3
 72
12
 73
8
 74
0
 42
0.0000001
 43
0.0000001
 44
0.0000000001
 40
0.0
 40
0.0
 40
0.0
 40
0.0
 40
0.2710583603
 40
0.5638170729
 40
0.6985544259
 40
0.816745142
 40
1.0
 40
1.0
 40
1.0
 40
1.0
 10
2864.670451093
 20
1265.2006534042
 30
0.0
 10
2864.670451093
 20
1263.4142059299
 30
0.0
 10
2863.685126791
 20
1259.7112817822
 30
0.0
 10
2861.1518441958
 20
1255.7764087321
 30
0.0
 10
2858.4237617169
 20
1253.3807989574
 30
0.0
 10
2855.9330754942
 20
1251.9700811087
 30
0.0
 10
2853.641900726
 20
1251.8534882181
 30
0.0
 10
2852.5966492788
 20
1252.4585907502
 30
0.0
  0
SPLINE
  5
5D4
100
AcDbEntity
  8
0
100
AcDbSpline
 62
7
  6
CONTINUOUS
 70
0
 71
3
 72
12
 73
8
 74
0
 42
0.0000001
 43
0.0000001
 44
0.0000000001
 40
0.0
 40
0.0
 40
0.0
 40
0.0
 40
0.2710583603
 40
0.5638170729
 40
0.6985544259
 40
0.816745142
 40
1.0
 40
1.0
 40
1.0
 40
1.0
 10
2796.0810933179
 20
1696.8320998631
 30
0.0
 10
2796.0810933179
 20
1695.0456523888
 30
0.0
 10
2795.0957690159
 20
1691.3427282412
 30
0.0
 10
2792.5624864207
 20
1687.407855191
 30
0.0
 10
2789.8344039418
 20
1685.0122454163
 30
0.0
 10
2787.3437177191
 20
1683.6015275676
 30
0.0
 10
2785.0525429509
 20
1683.4849346771
 30
0.0
 10
2784.0072915037
 20
1684.0900372091
 30
0.0
  0
SPLINE
  5
5D5
100
AcDbEntity
  8
6_ALL_SURFS
100
AcDbSpline
 62
7
  6
CONTINUOUS
 70
0
 71
3
 72
12
 73
8
 74
0
 42
0.0000001
 43
0.0000001
 44
0.0000000001
 40
0.0
 40
0.0
 40
0.0
 40
0.0
 40
0.2710583603
 40
0.5638170729
 40
0.6985544259
 40
0.816745142
 40
1.0
 40
1.0
 40
1.0
 40
1.0
 10
2892.9547223405
 20
1281.5348614064
 30
0.0
 10
2892.9547223405
 20
1279.7484139321
 30
0.0
 10
2891.9693980384
 20
1276.0454897845
 30
0.0
 10
2889.4361154432
 20
1272.1106167343
 30
0.0
 10
2886.7080329644
 20
1269.7150069596
 30
0.0
 10
2884.2173467417
 20
1268.3042891109
 30
0.0
 10
2881.9261719734
 20
1268.1876962204
 30
0.0
 10
2880.8809205263
 20
1268.7927987524
 30
0.0
  0
SPLINE
  5
5D6
100
AcDbEntity
  8
0
100
AcDbSpline
 62
7
  6
CONTINUOUS
 70
0
 71
3
 72
8
 73
4
 74
0
 42
0.0000001
 43
0.0000001
 44
0.0000000001
 40
0.0
 40
0.0
 40
0.0
 40
0.0
 40
1.0
 40
1.0
 40
1.0
 40
1.0
 10
2682.799165674
 20
1633.0542875501
 30
0.0
 10
2682.9005074215
 20
1632.5423098532
 30
0.0
 10
2682.9440083281
 20
1632.0171790649
 30
0.0
 10
2682.9440083281
 20
1631.4952678542
 30
0.0
  0
SPLINE
  5
5D7
100
AcDbEntity
  8
6_ALL_SURFS
100
AcDbSpline
 62
7
  6
CONTINUOUS
 70
0
 71
3
 72
12
 73
8
 74
0
 42
0.0000001
 43
0.0000001
 44
0.0000000001
 40
0.0
 40
0.0
 40
0.0
 40
0.0
 40
0.2710583603
 40
0.5638170729
 40
0.6985544259
 40
0.816745142
 40
1.0
 40
1.0
 40
1.0
 40
1.0
 10
2921.238993588
 20
1297.8690694086
 30
0.0
 10
2921.238993588
 20
1296.0826219344
 30
0.0
 10
2920.2536692859
 20
1292.3796977867
 30
0.0
 10
2917.7203866907
 20
1288.4448247366
 30
0.0
 10
2914.9923042119
 20
1286.0492149619
 30
0.0
 10
2912.5016179891
 20
1284.6384971132
 30
0.0
 10
2910.2104432209
 20
1284.5219042226
 30
0.0
 10
2909.1651917737
 20
1285.1270067546
 30
0.0
  0
SPLINE
  5
5D8
100
AcDbEntity
  8
6_ALL_SURFS
100
AcDbSpline
 62
7
  6
CONTINUOUS
 70
0
 71
3
 72
12
 73
8
 74
0
 42
0.0000001
 43
0.0000001
 44
0.0000000001
 40
0.0
 40
0.0
 40
0.0
 40
0.0
 40
0.2710583603
 40
0.5638170729
 40
0.6985544259
 40
0.816745142
 40
1.0
 40
1.0
 40
1.0
 40
1.0
 10
2949.5232648354
 20
1314.2032774109
 30
0.0
 10
2949.5232648354
 20
1312.4168299366
 30
0.0
 10
2948.5379405334
 20
1308.7139057889
 30
0.0
 10
2946.0046579382
 20
1304.7790327388
 30
0.0
 10
2943.2765754593
 20
1302.3834229641
 30
0.0
 10
2940.7858892366
 20
1300.9727051154
 30
0.0
 10
2938.4947144683
 20
1300.8561122248
 30
0.0
 10
2937.4494630212
 20
1301.4612147568
 30
0.0
  0
SPLINE
  5
5D9
100
AcDbEntity
  8
6_ALL_SURFS
100
AcDbSpline
 62
7
  6
CONTINUOUS
 70
0
 71
3
 72
12
 73
8
 74
0
 42
0.0000001
 43
0.0000001
 44
0.0000000001
 40
0.0
 40
0.0
 40
0.0
 40
0.0
 40
0.2710583603
 40
0.5638170729
 40
0.6985544259
 40
0.816745142
 40
1.0
 40
1.0
 40
1.0
 40
1.0
 10
2977.8075360829
 20
1330.5374854131
 30
0.0
 10
2977.8075360829
 20
1328.7510379388
 30
0.0
 10
2976.8222117808
 20
1325.0481137912
 30
0.0
 10
2974.2889291856
 20
1321.113240741
 30
0.0
 10
2971.5608467068
 20
1318.7176309663
 30
0.0
 10
2969.0701604841
 20
1317.3069131176
 30
0.0
 10
2966.7789857158
 20
1317.1903202271
 30
0.0
 10
2965.7337342686
 20
1317.7954227591
 30
0.0
  0
SPLINE
  5
5DA
100
AcDbEntity
  8
6_ALL_SURFS
100
AcDbSpline
 62
7
  6
CONTINUOUS
 70
0
 71
3
 72
12
 73
8
 74
0
 42
0.0000001
 43
0.0000001
 44
0.0000000001
 40
0.0
 40
0.0
 40
0.0
 40
0.0
 40
0.2710583603
 40
0.5638170729
 40
0.6985544259
 40
0.816745142
 40
1.0
 40
1.0
 40
1.0
 40
1.0
 10
3006.0918073303
 20
1346.8716934153
 30
0.0
 10
3006.0918073303
 20
1345.0852459411
 30
0.0
 10
3005.1064830283
 20
1341.3823217934
 30
0.0
 10
3002.5732004331
 20
1337.4474487433
 30
0.0
 10
2999.8451179542
 20
1335.0518389685
 30
0.0
 10
2997.3544317315
 20
1333.6411211199
 30
0.0
 10
2995.0632569633
 20
1333.5245282293
 30
0.0
 10
2994.0180055161
 20
1334.1296307613
 30
0.0
  0
SPLINE
  5
5DB
100
AcDbEntity
  8
6_ALL_SURFS
100
AcDbSpline
 62
7
  6
CONTINUOUS
 70
0
 71
3
 72
12
 73
8
 74
0
 42
0.0000001
 43
0.0000001
 44
0.0000000001
 40
0.0
 40
0.0
 40
0.0
 40
0.0
 40
0.2710583603
 40
0.5638170729
 40
0.6985544259
 40
0.816745142
 40
1.0
 40
1.0
 40
1.0
 40
1.0
 10
3034.3760785778
 20
1363.2059014175
 30
0.0
 10
3034.3760785778
 20
1361.4194539433
 30
0.0
 10
3033.3907542758
 20
1357.7165297956
 30
0.0
 10
3030.8574716805
 20
1353.7816567455
 30
0.0
 10
3028.1293892017
 20
1351.3860469708
 30
0.0
 10
3025.638702979
 20
1349.9753291221
 30
0.0
 10
3023.3475282107
 20
1349.8587362315
 30
0.0
 10
3022.3022767636
 20
1350.4638387635
 30
0.0
  0
SPLINE
  5
5DC
100
AcDbEntity
  8
6_ALL_SURFS
100
AcDbSpline
 62
7
  6
CONTINUOUS
 70
0
 71
3
 72
12
 73
8
 74
0
 42
0.0000001
 43
0.0000001
 44
0.0000000001
 40
0.0
 40
0.0
 40
0.0
 40
0.0
 40
0.2710583603
 40
0.5638170729
 40
0.6985544259
 40
0.816745142
 40
1.0
 40
1.0
 40
1.0
 40
1.0
 10
3062.6603498253
 20
1379.5401094198
 30
0.0
 10
3062.6603498253
 20
1377.7536619455
 30
0.0
 10
3061.6750255232
 20
1374.0507377979
 30
0.0
 10
3059.141742928
 20
1370.1158647477
 30
0.0
 10
3056.4136604492
 20
1367.720254973
 30
0.0
 10
3053.9229742265
 20
1366.3095371243
 30
0.0
 10
3051.6317994582
 20
1366.1929442338
 30
0.0
 10
3050.586548011
 20
1366.7980467658
 30
0.0
  0
SPLINE
  5
5DD
100
AcDbEntity
  8
6_ALL_SURFS
100
AcDbSpline
 62
7
  6
CONTINUOUS
 70
0
 71
3
 72
12
 73
8
 74
0
 42
0.0000001
 43
0.0000001
 44
0.0000000001
 40
0.0
 40
0.0
 40
0.0
 40
0.0
 40
0.2710583603
 40
0.5638170729
 40
0.6985544259
 40
0.816745142
 40
1.0
 40
1.0
 40
1.0
 40
1.0
 10
3090.9446210727
 20
1395.874317422
 30
0.0
 10
3090.9446210727
 20
1394.0878699477
 30
0.0
 10
3089.9592967707
 20
1390.3849458001
 30
0.0
 10
3087.4260141755
 20
1386.4500727499
 30
0.0
 10
3084.6979316966
 20
1384.0544629752
 30
0.0
 10
3082.2072454739
 20
1382.6437451265
 30
0.0
 10
3079.9160707057
 20
1382.527152236
 30
0.0
 10
3078.8708192585
 20
1383.132254768
 30
0.0
  0
SPLINE
  5
5DE
100
AcDbEntity
  8
0
100
AcDbSpline
 62
7
  6
CONTINUOUS
 70
0
 71
3
 72
9
 73
5
 74
0
 42
0.0000001
 43
0.0000001
 44
0.0000000001
 40
0.0
 40
0.0
 40
0.0
 40
0.0
 40
0.2949607766
 40
1.0
 40
1.0
 40
1.0
 40
1.0
 10
2649.533212917
 20
1573.8301710858
 30
0.0
 10
2649.533212917
 20
1574.0829130075
 30
0.0
 10
2649.476464933
 20
1574.928276149
 30
0.0
 10
2649.0214978088
 20
1575.8163909131
 30
0.0
 10
2648.4981829645
 20
1576.1182314756
 30
0.0
  0
SPLINE
  5
5DF
100
AcDbEntity
  8
6_ALL_SURFS
100
AcDbSpline
 62
7
  6
CONTINUOUS
 70
0
 71
3
 72
12
 73
8
 74
0
 42
0.0000001
 43
0.0000001
 44
0.0000000001
 40
0.0
 40
0.0
 40
0.0
 40
0.0
 40
0.2710583603
 40
0.5638170729
 40
0.6985544259
 40
0.816745142
 40
1.0
 40
1.0
 40
1.0
 40
1.0
 10
3119.2288923202
 20
1412.2085254242
 30
0.0
 10
3119.2288923202
 20
1410.42207795
 30
0.0
 10
3118.2435680181
 20
1406.7191538023
 30
0.0
 10
3115.7102854229
 20
1402.7842807522
 30
0.0
 10
3112.9822029441
 20
1400.3886709775
 30
0.0
 10
3110.4915167214
 20
1398.9779531288
 30
0.0
 10
3108.2003419531
 20
1398.8613602382
 30
0.0
 10
3107.155090506
 20
1399.4664627702
 30
0.0
  0
SPLINE
  5
5E0
100
AcDbEntity
  8
6_ALL_SURFS
100
AcDbSpline
 62
7
  6
CONTINUOUS
 70
0
 71
3
 72
12
 73
8
 74
0
 42
0.0000001
 43
0.0000001
 44
0.0000000001
 40
0.0
 40
0.0
 40
0.0
 40
0.0
 40
0.2710583603
 40
0.5638170729
 40
0.6985544259
 40
0.816745142
 40
1.0
 40
1.0
 40
1.0
 40
1.0
 10
3147.5131635677
 20
1428.5427334265
 30
0.0
 10
3147.5131635677
 20
1426.7562859522
 30
0.0
 10
3146.5278392656
 20
1423.0533618045
 30
0.0
 10
3143.9945566704
 20
1419.1184887544
 30
0.0
 10
3141.2664741915
 20
1416.7228789797
 30
0.0
 10
3138.7757879688
 20
1415.312161131
 30
0.0
 10
3136.4846132006
 20
1415.1955682404
 30
0.0
 10
3135.4393617534
 20
1415.8006707725
 30
0.0
  0
SPLINE
  5
5E1
100
AcDbEntity
  8
0
100
AcDbSpline
 62
7
  6
CONTINUOUS
 70
0
 71
3
 72
9
 73
5
 74
0
 42
0.0000001
 43
0.0000001
 44
0.0000000001
 40
0.0
 40
0.0
 40
0.0
 40
0.0
 40
0.5000256547
 40
1.0
 40
1.0
 40
1.0
 40
1.0
 10
2818.0014035347
 20
1724.1822757736
 30
0.0
 10
2816.9520257396
 20
1723.5762585625
 30
0.0
 10
2815.2939869471
 20
1721.6628741618
 30
0.0
 10
2814.4658696288
 20
1719.2702236172
 30
0.0
 10
2814.4658696288
 20
1718.0585515216
 30
0.0
  0
SPLINE
  5
5E2
100
AcDbEntity
  8
6_ALL_SURFS
100
AcDbSpline
 62
7
  6
CONTINUOUS
 70
0
 71
3
 72
12
 73
8
 74
0
 42
0.0000001
 43
0.0000001
 44
0.0000000001
 40
0.0
 40
0.0
 40
0.0
 40
0.0
 40
0.2710583603
 40
0.5638170729
 40
0.6985544259
 40
0.816745142
 40
1.0
 40
1.0
 40
1.0
 40
1.0
 10
3175.7974348151
 20
1444.8769414287
 30
0.0
 10
3175.7974348151
 20
1443.0904939544
 30
0.0
 10
3174.8121105131
 20
1439.3875698068
 30
0.0
 10
3172.2788279179
 20
1435.4526967566
 30
0.0
 10
3169.550745439
 20
1433.0570869819
 30
0.0
 10
3167.0600592163
 20
1431.6463691332
 30
0.0
 10
3164.768884448
 20
1431.5297762427
 30
0.0
 10
3163.7236330009
 20
1432.1348787747
 30
0.0
  0
SPLINE
  5
5E3
100
AcDbEntity
  8
6_ALL_SURFS
100
AcDbSpline
 62
7
  6
CONTINUOUS
 70
0
 71
3
 72
12
 73
8
 74
0
 42
0.0000001
 43
0.0000001
 44
0.0000000001
 40
0.0
 40
0.0
 40
0.0
 40
0.0
 40
0.2710583603
 40
0.5638170729
 40
0.6985544259
 40
0.816745142
 40
1.0
 40
1.0
 40
1.0
 40
1.0
 10
3204.0817060626
 20
1461.2111494309
 30
0.0
 10
3204.0817060626
 20
1459.4247019567
 30
0.0
 10
3203.0963817605
 20
1455.721777809
 30
0.0
 10
3200.5630991653
 20
1451.7869047589
 30
0.0
 10
3197.8350166865
 20
1449.3912949842
 30
0.0
 10
3195.3443304638
 20
1447.9805771355
 30
0.0
 10
3193.0531556955
 20
1447.8639842449
 30
0.0
 10
3192.0079042483
 20
1448.4690867769
 30
0.0
  0
SPLINE
  5
5E4
100
AcDbEntity
  8
0
100
AcDbSpline
 62
7
  6
CONTINUOUS
 70
0
 71
3
 72
8
 73
4
 74
0
 42
0.0000001
 43
0.0000001
 44
0.0000000001
 40
0.0
 40
0.0
 40
0.0
 40
0.0
 40
1.0
 40
1.0
 40
1.0
 40
1.0
 10
2654.5148944265
 20
1616.7200795478
 30
0.0
 10
2654.6162361741
 20
1616.208101851
 30
0.0
 10
2654.6597370806
 20
1615.6829710626
 30
0.0
 10
2654.6597370806
 20
1615.161059852
 30
0.0
  0
SPLINE
  5
5E5
100
AcDbEntity
  8
6_ALL_SURFS
100
AcDbSpline
 62
7
  6
CONTINUOUS
 70
0
 71
3
 72
9
 73
5
 74
0
 42
0.0000001
 43
0.0000001
 44
0.0000000001
 40
0.0
 40
0.0
 40
0.0
 40
0.0
 40
0.2209374584
 40
1.0
 40
1.0
 40
1.0
 40
1.0
 10
2802.4195573249
 20
1201.4713645845
 30
0.0
 10
2802.254727953
 20
1201.5665527229
 30
0.0
 10
2801.5799762354
 20
1202.1329717478
 30
0.0
 10
2801.3843941768
 20
1203.0880607733
 30
0.0
 10
2801.3843941768
 20
1203.7592332846
 30
0.0
  0
SPLINE
  5
5E6
100
AcDbEntity
  8
6_ALL_SURFS
100
AcDbSpline
 62
7
  6
CONTINUOUS
 70
0
 71
3
 72
9
 73
5
 74
0
 42
0.0000001
 43
0.0000001
 44
0.0000000001
 40
0.0
 40
0.0
 40
0.0
 40
0.0
 40
0.4492071657
 40
1.0
 40
1.0
 40
1.0
 40
1.0
 10
2919.1706597785
 20
1302.4440280615
 30
0.0
 10
2919.8442150926
 20
1302.0541027214
 30
0.0
 10
2921.007690377
 20
1300.5966818067
 30
0.0
 10
2921.238993588
 20
1298.823352078
 30
0.0
 10
2921.238993588
 20
1297.8690694086
 30
0.0
  0
SPLINE
  5
5E7
100
AcDbEntity
  8
6_ALL_SURFS
100
AcDbSpline
 62
7
  6
CONTINUOUS
 70
0
 71
3
 72
9
 73
5
 74
0
 42
0.0000001
 43
0.0000001
 44
0.0000000001
 40
0.0
 40
0.0
 40
0.0
 40
0.0
 40
0.2208989638
 40
1.0
 40
1.0
 40
1.0
 40
1.0
 10
2823.9767569404
 20
1441.9800673206
 30
0.0
 10
2824.1501045605
 20
1441.8803956666
 30
0.0
 10
2824.8593905346
 20
1441.2854404394
 30
0.0
 10
2825.0654002788
 20
1440.2819982785
 30
0.0
 10
2825.0654002788
 20
1439.5767495172
 30
0.0
  0
SPLINE
  5
5E8
100
AcDbEntity
  8
0
100
AcDbSpline
 62
7
  6
CONTINUOUS
 70
0
 71
3
 72
8
 73
4
 74
0
 42
0.0000001
 43
0.0000001
 44
0.0000000001
 40
0.0
 40
0.0
 40
0.0
 40
0.0
 40
1.0
 40
1.0
 40
1.0
 40
1.0
 10
2456.5249956943
 20
1502.3806235322
 30
0.0
 10
2456.6263374418
 20
1501.8686458354
 30
0.0
 10
2456.6698383484
 20
1501.343515047
 30
0.0
 10
2456.6698383484
 20
1500.8216038363
 30
0.0
  0
SPLINE
  5
5E9
100
AcDbEntity
  8
6_ALL_SURFS
100
AcDbSpline
 62
7
  6
CONTINUOUS
 70
0
 71
3
 72
12
 73
8
 74
0
 42
0.0000001
 43
0.0000001
 44
0.0000000001
 40
0.0
 40
0.0
 40
0.0
 40
0.0
 40
0.183254858
 40
0.3014455741
 40
0.4361829271
 40
0.7289416397
 40
1.0
 40
1.0
 40
1.0
 40
1.0
 10
2993.6644521255
 20
1549.1340963369
 30
0.0
 10
2994.7097035727
 20
1548.5289938048
 30
0.0
 10
2997.0008783409
 20
1548.6455866954
 30
0.0
 10
2999.4915645636
 20
1550.0563045441
 30
0.0
 10
3002.2196470425
 20
1552.4519143188
 30
0.0
 10
3004.7529296377
 20
1556.3867873689
 30
0.0
 10
3005.7382539397
 20
1560.0897115166
 30
0.0
 10
3005.7382539397
 20
1561.8761589909
 30
0.0
  0
SPLINE
  5
5EA
100
AcDbEntity
  8
6_ALL_SURFS
100
AcDbSpline
 62
7
  6
CONTINUOUS
 70
0
 71
3
 72
9
 73
5
 74
0
 42
0.0000001
 43
0.0000001
 44
0.0000000001
 40
0.0
 40
0.0
 40
0.0
 40
0.0
 40
0.4492071657
 40
1.0
 40
1.0
 40
1.0
 40
1.0
 10
3173.7291010056
 20
1449.4519000816
 30
0.0
 10
3174.4026563198
 20
1449.0619747415
 30
0.0
 10
3175.5661316041
 20
1447.6045538267
 30
0.0
 10
3175.7974348151
 20
1445.8312240981
 30
0.0
 10
3175.7974348151
 20
1444.8769414287
 30
0.0
  0
SPLINE
  5
5EB
100
AcDbEntity
  8
0
100
AcDbSpline
 62
7
  6
CONTINUOUS
 70
0
 71
3
 72
8
 73
4
 74
0
 42
0.0000001
 43
0.0000001
 44
0.0000000001
 40
0.0
 40
0.0
 40
0.0
 40
0.0
 40
1.0
 40
1.0
 40
1.0
 40
1.0
 10
2626.230623179
 20
1600.3858715456
 30
0.0
 10
2626.3319649266
 20
1599.8738938488
 30
0.0
 10
2626.3754658332
 20
1599.3487630604
 30
0.0
 10
2626.3754658332
 20
1598.8268518497
 30
0.0
  0
SPLINE
  5
5EC
100
AcDbEntity
  8
6_ALL_SURFS
100
AcDbSpline
 62
7
  6
CONTINUOUS
 70
0
 71
3
 72
9
 73
5
 74
0
 42
0.0000001
 43
0.0000001
 44
0.0000000001
 40
0.0
 40
0.0
 40
0.0
 40
0.0
 40
0.4492071657
 40
1.0
 40
1.0
 40
1.0
 40
1.0
 10
3032.3077447683
 20
1367.7808600704
 30
0.0
 10
3032.9813000824
 20
1367.3909347303
 30
0.0
 10
3034.1447753668
 20
1365.9335138156
 30
0.0
 10
3034.3760785778
 20
1364.1601840869
 30
0.0
 10
3034.3760785778
 20
1363.2059014175
 30
0.0
  0
SPLINE
  5
5ED
100
AcDbEntity
  8
6_ALL_SURFS
100
AcDbSpline
 62
7
  6
CONTINUOUS
 70
0
 71
3
 72
12
 73
8
 74
0
 42
0.0000001
 43
0.0000001
 44
0.0000000001
 40
0.0
 40
0.0
 40
0.0
 40
0.0
 40
0.183254858
 40
0.3014455741
 40
0.4361829271
 40
0.7289416397
 40
1.0
 40
1.0
 40
1.0
 40
1.0
 10
2965.380180878
 20
1532.7998883346
 30
0.0
 10
2966.4254323252
 20
1532.1947858026
 30
0.0
 10
2968.7166070935
 20
1532.3113786932
 30
0.0
 10
2971.2072933162
 20
1533.7220965419
 30
0.0
 10
2973.935375795
 20
1536.1177063166
 30
0.0
 10
2976.4686583902
 20
1540.0525793667
 30
0.0
 10
2977.4539826923
 20
1543.7555035144
 30
0.0
 10
2977.4539826923
 20
1545.5419509886
 30
0.0
  0
SPLINE
  5
5EE
100
AcDbEntity
  8
6_ALL_SURFS
100
AcDbSpline
 62
7
  6
CONTINUOUS
 70
0
 71
3
 72
9
 73
5
 74
0
 42
0.0000001
 43
0.0000001
 44
0.0000000001
 40
0.0
 40
0.0
 40
0.0
 40
0.0
 40
0.2208989638
 40
1.0
 40
1.0
 40
1.0
 40
1.0
 10
3094.5538295597
 20
1364.2947551219
 30
0.0
 10
3094.6941585855
 20
1364.2140685448
 30
0.0
 10
3095.2683424693
 20
1363.7324381228
 30
0.0
 10
3095.4351122622
 20
1362.9201278021
 30
0.0
 10
3095.4351122622
 20
1362.3492121382
 30
0.0
  0
SPLINE
  5
5EF
100
AcDbEntity
  8
6_ALL_SURFS
100
AcDbSpline
 62
7
  6
CONTINUOUS
 70
0
 71
3
 72
9
 73
5
 74
0
 42
0.0000001
 43
0.0000001
 44
0.0000000001
 40
0.0
 40
0.0
 40
0.0
 40
0.0
 40
0.4492071657
 40
1.0
 40
1.0
 40
1.0
 40
1.0
 10
2890.886388531
 20
1286.1098200593
 30
0.0
 10
2891.5599438451
 20
1285.7198947192
 30
0.0
 10
2892.7234191295
 20
1284.2624738044
 30
0.0
 10
2892.9547223405
 20
1282.4891440758
 30
0.0
 10
2892.9547223405
 20
1281.5348614064
 30
0.0
  0
SPLINE
  5
5F0
100
AcDbEntity
  8
0
100
AcDbSpline
 62
7
  6
CONTINUOUS
 70
0
 71
3
 72
8
 73
4
 74
0
 42
0.0000001
 43
0.0000001
 44
0.0000000001
 40
0.0
 40
0.0
 40
0.0
 40
0.0
 40
1.0
 40
1.0
 40
1.0
 40
1.0
 10
2597.9463519316
 20
1584.0516635434
 30
0.0
 10
2598.0476936792
 20
1583.5396858465
 30
0.0
 10
2598.0911945857
 20
1583.0145550582
 30
0.0
 10
2598.0911945857
 20
1582.4926438475
 30
0.0
  0
SPLINE
  5
5F1
100
AcDbEntity
  8
6_ALL_SURFS
100
AcDbSpline
 62
7
  6
CONTINUOUS
 70
0
 71
3
 72
12
 73
8
 74
0
 42
0.0000001
 43
0.0000001
 44
0.0000000001
 40
0.0
 40
0.0
 40
0.0
 40
0.0
 40
0.183254858
 40
0.3014455741
 40
0.4361829271
 40
0.7289416397
 40
1.0
 40
1.0
 40
1.0
 40
1.0
 10
2937.0959096306
 20
1516.4656803324
 30
0.0
 10
2938.1411610778
 20
1515.8605778004
 30
0.0
 10
2940.432335846
 20
1515.9771706909
 30
0.0
 10
2942.9230220687
 20
1517.3878885396
 30
0.0
 10
2945.6511045476
 20
1519.7834983143
 30
0.0
 10
2948.1843871428
 20
1523.7183713645
 30
0.0
 10
2949.1697114448
 20
1527.4212955121
 30
0.0
 10
2949.1697114448
 20
1529.2077429864
 30
0.0
  0
SPLINE
  5
5F2
100
AcDbEntity
  8
6_ALL_SURFS
100
AcDbSpline
 62
7
  6
CONTINUOUS
 70
0
 71
3
 72
9
 73
5
 74
0
 42
0.0000001
 43
0.0000001
 44
0.0000000001
 40
0.0
 40
0.0
 40
0.0
 40
0.0
 40
0.2208681529
 40
1.0
 40
1.0
 40
1.0
 40
1.0
 10
3210.6567811006
 20
1426.0645469681
 30
0.0
 10
3210.7639184945
 20
1426.0027516424
 30
0.0
 10
3211.2021018033
 20
1425.6340652216
 30
0.0
 10
3211.3295505697
 20
1425.0136046633
 30
0.0
 10
3211.3295505697
 20
1424.5773077147
 30
0.0
  0
SPLINE
  5
5F3
100
AcDbEntity
  8
0
100
AcDbSpline
 62
7
  6
CONTINUOUS
 70
0
 71
3
 72
8
 73
4
 74
0
 42
0.0000001
 43
0.0000001
 44
0.0000000001
 40
0.0
 40
0.0
 40
0.0
 40
0.0
 40
1.0
 40
1.0
 40
1.0
 40
1.0
 10
2795.9362506638
 20
1698.391119559
 30
0.0
 10
2796.0375924114
 20
1697.8791418622
 30
0.0
 10
2796.0810933179
 20
1697.3540110738
 30
0.0
 10
2796.0810933179
 20
1696.8320998631
 30
0.0
  0
SPLINE
  5
5F4
100
AcDbEntity
  8
6_ALL_SURFS
100
AcDbSpline
 62
7
  6
CONTINUOUS
 70
0
 71
3
 72
12
 73
8
 74
0
 42
0.0000001
 43
0.0000001
 44
0.0000000001
 40
0.0
 40
0.0
 40
0.0
 40
0.0
 40
0.183254858
 40
0.3014455741
 40
0.4361829271
 40
0.7289416397
 40
1.0
 40
1.0
 40
1.0
 40
1.0
 10
2908.8116383831
 20
1500.1314723302
 30
0.0
 10
2909.8568898303
 20
1499.5263697982
 30
0.0
 10
2912.1480645986
 20
1499.6429626887
 30
0.0
 10
2914.6387508213
 20
1501.0536805374
 30
0.0
 10
2917.3668333001
 20
1503.4492903121
 30
0.0
 10
2919.9001158953
 20
1507.3841633623
 30
0.0
 10
2920.8854401974
 20
1511.0870875099
 30
0.0
 10
2920.8854401974
 20
1512.8735349842
 30
0.0
  0
SPLINE
  5
5F5
100
AcDbEntity
  8
6_ALL_SURFS
100
AcDbSpline
 62
7
  6
CONTINUOUS
 70
0
 71
3
 72
9
 73
5
 74
0
 42
0.0000001
 43
0.0000001
 44
0.0000000001
 40
0.0
 40
0.0
 40
0.0
 40
0.0
 40
0.4492071657
 40
1.0
 40
1.0
 40
1.0
 40
1.0
 10
3145.4448297582
 20
1433.1176920794
 30
0.0
 10
3146.1183850723
 20
1432.7277667393
 30
0.0
 10
3147.2818603566
 20
1431.2703458245
 30
0.0
 10
3147.5131635677
 20
1429.4970160958
 30
0.0
 10
3147.5131635677
 20
1428.5427334265
 30
0.0
  0
SPLINE
  5
5F6
100
AcDbEntity
  8
6_ALL_SURFS
100
AcDbSpline
 62
7
  6
CONTINUOUS
 70
0
 71
3
 72
9
 73
5
 74
0
 42
0.0000001
 43
0.0000001
 44
0.0000000001
 40
0.0
 40
0.0
 40
0.0
 40
0.0
 40
0.4492071657
 40
1.0
 40
1.0
 40
1.0
 40
1.0
 10
3004.0234735209
 20
1351.4466520682
 30
0.0
 10
3004.697028835
 20
1351.0567267281
 30
0.0
 10
3005.8605041193
 20
1349.5993058134
 30
0.0
 10
3006.0918073303
 20
1347.8259760847
 30
0.0
 10
3006.0918073303
 20
1346.8716934153
 30
0.0
  0
SPLINE
  5
5F7
100
AcDbEntity
  8
6_ALL_SURFS
100
AcDbSpline
 62
7
  6
CONTINUOUS
 70
0
 71
3
 72
10
 73
6
 74
0
 42
0.0000001
 43
0.0000001
 44
0.0000000001
 40
0.0
 40
0.0
 40
0.0
 40
0.0
 40
0.2775555189
 40
0.5772963999
 40
1.0
 40
1.0
 40
1.0
 40
1.0
 10
2825.0654002788
 20
1439.5767495172
 30
0.0
 10
2825.0654002788
 20
1438.6392259808
 30
0.0
 10
2824.5088136238
 20
1436.6734830415
 30
0.0
 10
2822.868102905
 20
1433.9097506783
 30
0.0
 10
2819.9672037042
 20
1432.1740009174
 30
0.0
 10
2818.7294224147
 20
1432.8857021133
 30
0.0
  0
SPLINE
  5
5F8
100
AcDbEntity
  8
6_ALL_SURFS
100
AcDbSpline
 62
7
  6
CONTINUOUS
 70
0
 71
3
 72
12
 73
8
 74
0
 42
0.0000001
 43
0.0000001
 44
0.0000000001
 40
0.0
 40
0.0
 40
0.0
 40
0.0
 40
0.183254858
 40
0.3014455741
 40
0.4361829271
 40
0.7289416397
 40
1.0
 40
1.0
 40
1.0
 40
1.0
 10
2880.5273671357
 20
1483.7972643279
 30
0.0
 10
2881.5726185828
 20
1483.1921617959
 30
0.0
 10
2883.8637933511
 20
1483.3087546865
 30
0.0
 10
2886.3544795738
 20
1484.7194725352
 30
0.0
 10
2889.0825620526
 20
1487.1150823099
 30
0.0
 10
2891.6158446479
 20
1491.04995536
 30
0.0
 10
2892.6011689499
 20
1494.7528795077
 30
0.0
 10
2892.6011689499
 20
1496.5393269819
 30
0.0
  0
SPLINE
  5
5F9
100
AcDbEntity
  8
0
100
AcDbSpline
 62
7
  6
CONTINUOUS
 70
0
 71
3
 72
8
 73
4
 74
0
 42
0.0000001
 43
0.0000001
 44
0.0000000001
 40
0.0
 40
0.0
 40
0.0
 40
0.0
 40
1.0
 40
1.0
 40
1.0
 40
1.0
 10
2569.6620806841
 20
1567.7174555411
 30
0.0
 10
2569.7634224317
 20
1567.2054778443
 30
0.0
 10
2569.8069233382
 20
1566.6803470559
 30
0.0
 10
2569.8069233382
 20
1566.1584358453
 30
0.0
  0
SPLINE
  5
5FA
100
AcDbEntity
  8
6_ALL_SURFS
100
AcDbSpline
 62
7
  6
CONTINUOUS
 70
0
 71
3
 72
9
 73
5
 74
0
 42
0.0000001
 43
0.0000001
 44
0.0000000001
 40
0.0
 40
0.0
 40
0.0
 40
0.0
 40
0.5507928343
 40
1.0
 40
1.0
 40
1.0
 40
1.0
 10
3005.7382539397
 20
1561.8761589909
 30
0.0
 10
3005.7382539397
 20
1562.8304416602
 30
0.0
 10
3005.5069507287
 20
1564.6037713889
 30
0.0
 10
3004.3434754444
 20
1566.0611923037
 30
0.0
 10
3003.6699201303
 20
1566.4511176438
 30
0.0
  0
SPLINE
  5
5FB
100
AcDbEntity
  8
6_ALL_SURFS
100
AcDbSpline
 62
7
  6
CONTINUOUS
 70
0
 71
3
 72
9
 73
5
 74
0
 42
0.0000001
 43
0.0000001
 44
0.0000000001
 40
0.0
 40
0.0
 40
0.0
 40
0.0
 40
0.4492071657
 40
1.0
 40
1.0
 40
1.0
 40
1.0
 10
2862.6021172835
 20
1269.7756120571
 30
0.0
 10
2863.2756725977
 20
1269.385686717
 30
0.0
 10
2864.439147882
 20
1267.9282658022
 30
0.0
 10
2864.670451093
 20
1266.1549360735
 30
0.0
 10
2864.670451093
 20
1265.2006534042
 30
0.0
  0
SPLINE
  5
5FC
100
AcDbEntity
  8
6_ALL_SURFS
100
AcDbSpline
 62
7
  6
CONTINUOUS
 70
0
 71
3
 72
9
 73
5
 74
0
 42
0.0000001
 43
0.0000001
 44
0.0000000001
 40
0.0
 40
0.0
 40
0.0
 40
0.0
 40
0.5507928343
 40
1.0
 40
1.0
 40
1.0
 40
1.0
 10
2977.4539826923
 20
1545.5419509886
 30
0.0
 10
2977.4539826923
 20
1546.496233658
 30
0.0
 10
2977.2226794813
 20
1548.2695633867
 30
0.0
 10
2976.0592041969
 20
1549.7269843014
 30
0.0
 10
2975.3856488828
 20
1550.1169096415
 30
0.0
  0
SPLINE
  5
5FD
100
AcDbEntity
  8
6_ALL_SURFS
100
AcDbSpline
 62
7
  6
CONTINUOUS
 70
0
 71
3
 72
12
 73
8
 74
0
 42
0.0000001
 43
0.0000001
 44
0.0000000001
 40
0.0
 40
0.0
 40
0.0
 40
0.0
 40
0.183254858
 40
0.3014455741
 40
0.4361829271
 40
0.7289416397
 40
1.0
 40
1.0
 40
1.0
 40
1.0
 10
2852.2430958882
 20
1467.4630563257
 30
0.0
 10
2853.2883473354
 20
1466.8579537937
 30
0.0
 10
2855.5795221036
 20
1466.9745466843
 30
0.0
 10
2858.0702083263
 20
1468.3852645329
 30
0.0
 10
2860.7982908052
 20
1470.7808743077
 30
0.0
 10
2863.3315734004
 20
1474.7157473578
 30
0.0
 10
2864.3168977024
 20
1478.4186715054
 30
0.0
 10
2864.3168977024
 20
1480.2051189797
 30
0.0
  0
SPLINE
  5
5FE
100
AcDbEntity
  8
6_ALL_SURFS
100
AcDbSpline
 62
7
  6
CONTINUOUS
 70
0
 71
3
 72
9
 73
5
 74
0
 42
0.0000001
 43
0.0000001
 44
0.0000000001
 40
0.0
 40
0.0
 40
0.0
 40
0.0
 40
0.5507928343
 40
1.0
 40
1.0
 40
1.0
 40
1.0
 10
2949.1697114448
 20
1529.2077429864
 30
0.0
 10
2949.1697114448
 20
1530.1620256558
 30
0.0
 10
2948.9384082338
 20
1531.9353553844
 30
0.0
 10
2947.7749329495
 20
1533.3927762992
 30
0.0
 10
2947.1013776353
 20
1533.7827016393
 30
0.0
  0
SPLINE
  5
5FF
100
AcDbEntity
  8
6_ALL_SURFS
100
AcDbSpline
 62
7
  6
CONTINUOUS
 70
0
 71
3
 72
9
 73
5
 74
0
 42
0.0000001
 43
0.0000001
 44
0.0000000001
 40
0.0
 40
0.0
 40
0.0
 40
0.0
 40
0.5507928343
 40
1.0
 40
1.0
 40
1.0
 40
1.0
 10
2920.8854401974
 20
1512.8735349842
 30
0.0
 10
2920.8854401974
 20
1513.8278176536
 30
0.0
 10
2920.6541369864
 20
1515.6011473822
 30
0.0
 10
2919.490661702
 20
1517.058568297
 30
0.0
 10
2918.8171063879
 20
1517.4484936371
 30
0.0
  0
SPLINE
  5
600
100
AcDbEntity
  8
6_ALL_SURFS
100
AcDbSpline
 62
7
  6
CONTINUOUS
 70
0
 71
3
 72
9
 73
5
 74
0
 42
0.0000001
 43
0.0000001
 44
0.0000000001
 40
0.0
 40
0.0
 40
0.0
 40
0.0
 40
0.5507928343
 40
1.0
 40
1.0
 40
1.0
 40
1.0
 10
2892.6011689499
 20
1496.5393269819
 30
0.0
 10
2892.6011689499
 20
1497.4936096513
 30
0.0
 10
2892.3698657389
 20
1499.26693938
 30
0.0
 10
2891.2063904545
 20
1500.7243602947
 30
0.0
 10
2890.5328351404
 20
1501.1142856348
 30
0.0
  0
SPLINE
  5
601
100
AcDbEntity
  8
0
100
AcDbSpline
 62
7
  6
CONTINUOUS
 70
0
 71
3
 72
8
 73
4
 74
0
 42
0.0000001
 43
0.0000001
 44
0.0000000001
 40
0.0
 40
0.0
 40
0.0
 40
0.0
 40
1.0
 40
1.0
 40
1.0
 40
1.0
 10
2767.6519794164
 20
1682.0569115567
 30
0.0
 10
2767.7533211639
 20
1681.5449338599
 30
0.0
 10
2767.7968220705
 20
1681.0198030716
 30
0.0
 10
2767.7968220705
 20
1680.4978918609
 30
0.0
  0
SPLINE
  5
602
100
AcDbEntity
  8
6_ALL_SURFS
100
AcDbSpline
 62
7
  6
CONTINUOUS
 70
0
 71
3
 72
12
 73
8
 74
0
 42
0.0000001
 43
0.0000001
 44
0.0000000001
 40
0.0
 40
0.0
 40
0.0
 40
0.0
 40
0.183254858
 40
0.3014455741
 40
0.4361829271
 40
0.7289416397
 40
1.0
 40
1.0
 40
1.0
 40
1.0
 10
2823.9588246407
 20
1451.1288483235
 30
0.0
 10
2825.0040760879
 20
1450.5237457915
 30
0.0
 10
2827.2952508562
 20
1450.640338682
 30
0.0
 10
2829.7859370789
 20
1452.0510565307
 30
0.0
 10
2832.5140195577
 20
1454.4466663054
 30
0.0
 10
2835.0473021529
 20
1458.3815393556
 30
0.0
 10
2836.032626455
 20
1462.0844635032
 30
0.0
 10
2836.032626455
 20
1463.8709109775
 30
0.0
  0
SPLINE
  5
603
100
AcDbEntity
  8
6_ALL_SURFS
100
AcDbSpline
 62
7
  6
CONTINUOUS
 70
0
 71
3
 72
9
 73
5
 74
0
 42
0.0000001
 43
0.0000001
 44
0.0000000001
 40
0.0
 40
0.0
 40
0.0
 40
0.0
 40
0.5507928343
 40
1.0
 40
1.0
 40
1.0
 40
1.0
 10
2864.3168977024
 20
1480.2051189797
 30
0.0
 10
2864.3168977024
 20
1481.1594016491
 30
0.0
 10
2864.0855944914
 20
1482.9327313778
 30
0.0
 10
2862.9221192071
 20
1484.3901522925
 30
0.0
 10
2862.2485638929
 20
1484.7800776326
 30
0.0
  0
SPLINE
  5
604
100
AcDbEntity
  8
6_ALL_SURFS
100
AcDbSpline
 62
7
  6
CONTINUOUS
 70
0
 71
3
 72
9
 73
5
 74
0
 42
0.0000001
 43
0.0000001
 44
0.0000000001
 40
0.0
 40
0.0
 40
0.0
 40
0.0
 40
0.5507928343
 40
1.0
 40
1.0
 40
1.0
 40
1.0
 10
2694.6112702177
 20
1382.1998709663
 30
0.0
 10
2694.6112702177
 20
1383.1541536357
 30
0.0
 10
2694.3799670067
 20
1384.9274833644
 30
0.0
 10
2693.2164917223
 20
1386.3849042791
 30
0.0
 10
2692.5429364082
 20
1386.7748296192
 30
0.0
  0
SPLINE
  5
605
100
AcDbEntity
  8
6_ALL_SURFS
100
AcDbSpline
 62
7
  6
CONTINUOUS
 70
0
 71
3
 72
9
 73
5
 74
0
 42
0.0000001
 43
0.0000001
 44
0.0000000001
 40
0.0
 40
0.0
 40
0.0
 40
0.0
 40
0.5507928343
 40
1.0
 40
1.0
 40
1.0
 40
1.0
 10
2722.8955414651
 20
1398.5340789686
 30
0.0
 10
2722.8955414651
 20
1399.4883616379
 30
0.0
 10
2722.6642382541
 20
1401.2616913666
 30
0.0
 10
2721.5007629698
 20
1402.7191122814
 30
0.0
 10
2720.8272076556
 20
1403.1090376215
 30
0.0
  0
SPLINE
  5
606
100
AcDbEntity
  8
6_ALL_SURFS
100
AcDbSpline
 62
7
  6
CONTINUOUS
 70
0
 71
3
 72
9
 73
5
 74
0
 42
0.0000001
 43
0.0000001
 44
0.0000000001
 40
0.0
 40
0.0
 40
0.0
 40
0.0
 40
0.4492071657
 40
1.0
 40
1.0
 40
1.0
 40
1.0
 10
3117.1605585107
 20
1416.7834840771
 30
0.0
 10
3117.8341138248
 20
1416.393558737
 30
0.0
 10
3118.9975891092
 20
1414.9361378223
 30
0.0
 10
3119.2288923202
 20
1413.1628080936
 30
0.0
 10
3119.2288923202
 20
1412.2085254242
 30
0.0
  0
SPLINE
  5
607
100
AcDbEntity
  8
6_ALL_SURFS
100
AcDbSpline
 62
7
  6
CONTINUOUS
 70
0
 71
3
 72
9
 73
5
 74
0
 42
0.0000001
 43
0.0000001
 44
0.0000000001
 40
0.0
 40
0.0
 40
0.0
 40
0.0
 40
0.5507928343
 40
1.0
 40
1.0
 40
1.0
 40
1.0
 10
2751.1798127126
 20
1414.8682869708
 30
0.0
 10
2751.1798127126
 20
1415.8225696402
 30
0.0
 10
2750.9485095016
 20
1417.5958993688
 30
0.0
 10
2749.7850342172
 20
1419.0533202836
 30
0.0
 10
2749.1114789031
 20
1419.4432456237
 30
0.0
  0
SPLINE
  5
608
100
AcDbEntity
  8
6_ALL_SURFS
100
AcDbSpline
 62
7
  6
CONTINUOUS
 70
0
 71
3
 72
9
 73
5
 74
0
 42
0.0000001
 43
0.0000001
 44
0.0000000001
 40
0.0
 40
0.0
 40
0.0
 40
0.0
 40
0.5507928343
 40
1.0
 40
1.0
 40
1.0
 40
1.0
 10
2779.4640839601
 20
1431.202494973
 30
0.0
 10
2779.4640839601
 20
1432.1567776424
 30
0.0
 10
2779.232780749
 20
1433.9301073711
 30
0.0
 10
2778.0693054647
 20
1435.3875282858
 30
0.0
 10
2777.3957501506
 20
1435.7774536259
 30
0.0
  0
SPLINE
  5
609
100
AcDbEntity
  8
0
100
AcDbSpline
 62
7
  6
CONTINUOUS
 70
0
 71
3
 72
8
 73
4
 74
0
 42
0.0000001
 43
0.0000001
 44
0.0000000001
 40
0.0
 40
0.0
 40
0.0
 40
0.0
 40
1.0
 40
1.0
 40
1.0
 40
1.0
 10
2841.3359273139
 20
1649.4863113903
 30
0.0
 10
2841.3359273139
 20
1648.5435023608
 30
0.0
 10
2840.7381568654
 20
1647.5083187816
 30
0.0
 10
2839.9217137515
 20
1647.0368216895
 30
0.0
  0
SPLINE
  5
60A
100
AcDbEntity
  8
6_ALL_SURFS
100
AcDbSpline
 62
7
  6
CONTINUOUS
 70
0
 71
3
 72
9
 73
5
 74
0
 42
0.0000001
 43
0.0000001
 44
0.0000000001
 40
0.0
 40
0.0
 40
0.0
 40
0.0
 40
0.5507928343
 40
1.0
 40
1.0
 40
1.0
 40
1.0
 10
2807.7483552075
 20
1447.5367029753
 30
0.0
 10
2807.7483552075
 20
1448.4909856446
 30
0.0
 10
2807.5170519965
 20
1450.2643153733
 30
0.0
 10
2806.3535767122
 20
1451.721736288
 30
0.0
 10
2805.680021398
 20
1452.1116616282
 30
0.0
  0
SPLINE
  5
60B
100
AcDbEntity
  8
6_ALL_SURFS
100
AcDbSpline
 62
7
  6
CONTINUOUS
 70
0
 71
3
 72
12
 73
8
 74
0
 42
0.0000001
 43
0.0000001
 44
0.0000000001
 40
0.0
 40
0.0
 40
0.0
 40
0.0
 40
0.183254858
 40
0.3014455741
 40
0.4361829271
 40
0.7289416397
 40
1.0
 40
1.0
 40
1.0
 40
1.0
 10
2795.6745533933
 20
1434.7946403212
 30
0.0
 10
2796.7198048404
 20
1434.1895377892
 30
0.0
 10
2799.0109796087
 20
1434.3061306798
 30
0.0
 10
2801.5016658314
 20
1435.7168485285
 30
0.0
 10
2804.2297483103
 20
1438.1124583032
 30
0.0
 10
2806.7630309055
 20
1442.0473313533
 30
0.0
 10
2807.7483552075
 20
1445.750255501
 30
0.0
 10
2807.7483552075
 20
1447.5367029753
 30
0.0
  0
SPLINE
  5
60C
100
AcDbEntity
  8
6_ALL_SURFS
100
AcDbSpline
 62
7
  6
CONTINUOUS
 70
0
 71
3
 72
9
 73
5
 74
0
 42
0.0000001
 43
0.0000001
 44
0.0000000001
 40
0.0
 40
0.0
 40
0.0
 40
0.0
 40
0.5507928343
 40
1.0
 40
1.0
 40
1.0
 40
1.0
 10
2836.032626455
 20
1463.8709109775
 30
0.0
 10
2836.032626455
 20
1464.8251936469
 30
0.0
 10
2835.801323244
 20
1466.5985233755
 30
0.0
 10
2834.6378479596
 20
1468.0559442903
 30
0.0
 10
2833.9642926455
 20
1468.4458696304
 30
0.0
  0
SPLINE
  5
60D
100
AcDbEntity
  8
0
100
AcDbSpline
 62
7
  6
CONTINUOUS
 70
0
 71
3
 72
8
 73
4
 74
0
 42
0.0000001
 43
0.0000001
 44
0.0000000001
 40
0.0
 40
0.0
 40
0.0
 40
0.0
 40
1.0
 40
1.0
 40
1.0
 40
1.0
 10
2541.3778094367
 20
1551.3832475389
 30
0.0
 10
2541.4791511842
 20
1550.8712698421
 30
0.0
 10
2541.5226520908
 20
1550.3461390537
 30
0.0
 10
2541.5226520908
 20
1549.824227843
 30
0.0
  0
ENDSEC
  0
SECTION
  2
OBJECTS
  0
DICTIONARY
  5
C
100
AcDbDictionary
280
0
281
1
  3
ACAD_GROUP
350
D
  3
ACAD_MLINESTYLE
350
17
  3
ACAD_LAYOUT
350
1A
  3
ACAD_PLOTSETTINGS
350
19
  3
ACAD_PLOTSTYLENAME
350
E
  0
DICTIONARY
  5
D
102
{ACAD_REACTORS
330
C
102
}
100
AcDbDictionary
280
0
281
1
  0
ACDBDICTIONARYWDFLT
  5
E
102
{ACAD_REACTORS
330
C
102
}
100
AcDbDictionary
281
1
  3
Normal
350
F
100
AcDbDictionaryWithDefault
340
F
  0
DICTIONARY
  5
17
102
{ACAD_REACTORS
330
C
102
}
100
AcDbDictionary
280
0
281
1
  3
Standard
350
18
  0
DICTIONARY
  5
19
102
{ACAD_REACTORS
330
C
102
}
100
AcDbDictionary
281
1
  0
DICTIONARY
  5
1A
102
{ACAD_REACTORS
330
C
102
}
100
AcDbDictionary
281
1
  3
Model
350
60E
  3
Layout1
350
60F
  0
ACDBPLACEHOLDER
  5
F
102
{ACAD_REACTORS
330
E
102
}
  0
MLINESTYLE
  5
18
102
{ACAD_REACTORS
330
17
102
}
100
AcDbMlineStyle
  2
STANDARD
 70
0
  3

 62
256
 51
90.0
 52
90.0
 71
2
 49
0.5
 62
256
  6
BYLAYER
 49
-0.5
 62
256
  6
BYLAYER
  0
LAYOUT
  5
60E
102
{ACAD_REACTORS
330
1A
102
}
100
AcDbPlotSettings
  1

  2
none_device
  4

  6

 40
0.0
 41
0.0
 42
0.0
 43
0.0
 44
431.8
 45
279.4
 46
0.0
 47
0.0
 48
0.0
 49
0.0
140
0.0
141
0.0
142
1.0
143
1.0
 70
1024
 72
1
 73
0
 74
0
  7

 75
0
147
1.0
148
0.0
149
0.0
100
AcDbLayout
  1
Model
 70
0
 71
0
 10
0.0
 20
0.0
 11
431.8
 21
279.4
 12
0.0
 22
0.0
 32
0.0
 14
0.0
 24
0.0
 34
0.0
 15
0.0
 25
0.0
 35
0.0
146
0.0
 13
0.0
 23
0.0
 33
0.0
 16
1.0
 26
0.0
 36
0.0
 17
0.0
 27
1.0
 37
0.0
 76
0
330
212
345
0
346
0
  0
LAYOUT
  5
60F
102
{ACAD_REACTORS
330
1A
102
}
100
AcDbPlotSettings
  1

  2
none_device
  4

  6

 40
0.0
 41
0.0
 42
0.0
 43
0.0
 44
431.8
 45
279.4
 46
0.0
 47
0.0
 48
0.0
 49
0.0
140
0.0
141
0.0
142
1.0
143
1.0
 70
0
 72
1
 73
0
 74
0
  7

 75
0
147
1.0
148
0.0
149
0.0
100
AcDbLayout
  1
Layout1
 70
0
 71
1
 10
0.0
 20
0.0
 11
431.8
 21
279.4
 12
0.0
 22
0.0
 32
0.0
 14
0.0
 24
0.0
 34
0.0
 15
0.0
 25
0.0
 35
0.0
146
0.0
 13
0.0
 23
0.0
 33
0.0
 16
1.0
 26
0.0
 36
0.0
 17
0.0
 27
1.0
 37
0.0
 76
0
330
213
345
0
346
0
  0
ENDSEC
  0
EOF
