999
DXF file: C:\Users\suzanne.stasiak\OneDrive - qsc.com\Documents\L024 MARKETING FILES\fg-901338-2d-A.dxf
999
Pro/ENGINEER 2022014 by Parametric Technology Corporation
  0
SECTION
  2
HEADER
  9
$ACADVER
  1
AC1015
  9
$DWGCODEPAGE
  3
ANSI_1252
  9
$EXTMAX
 10
3022.6
 20
1955.8
 30
0.0
  9
$EXTMIN
 10
0.0
 20
0.0
 30
0.0
  9
$LIMMIN
 10
0.0
 20
0.0
  9
$LIMMAX
 10
3022.6
 20
1955.8
  9
$VIEWCTR
 10
1511.3
 20
977.9
  9
$VIEWSIZE
 40
1955.8
  9
$CLAYER
  8
0
  9
$LTSCALE
 40
166.243
  9
$CELTYPE
  6
BYLAYER
  9
$DIMSCALE
 40
1.0
  9
$DIMASZ
 40
14.0
  9
$DIMEXO
 40
1.5875
  9
$DIMDLI
 40
114.8588
  9
$DIMEXE
 40
3.175
  9
$DIMCEN
 40
27.2034
  9
$DIMLFAC
 40
1.0
  9
$DIMBLK
  1
_FILLED
  9
$DIMALT
 70
1
  9
$DIMALTD
 70
1
  9
$DIMALTTD
 70
2
  9
$DIMALTF
 40
0.0393700787
  9
$DIMTXT
 40
16.002
  9
$DIMTOL
 70
1
  9
$DIMLIM
 70
0
  9
$DIMTFAC
 40
1.0
  9
$DIMTP
 40
0.02
  9
$DIMTM
 40
0.02
  9
$DIMGAP
 40
0.625
  9
$DIMDSEP
 70
46
  9
$AUNITS
 70
0
  9
$PDMODE
 70
3
  9
$PDSIZE
 40
7.9375
  9
$HANDSEED
  5
600
  9
$TILEMODE
 70
1
  9
$MEASUREMENT
 70
1
  9
$INSUNITS
 70
4
  0
ENDSEC
  0
SECTION
  2
CLASSES
  0
CLASS
  1
ACDBDICTIONARYWDFLT
  2
AcDbDictionaryWithDefault
  3
AutoCAD 2000
 90
0
280
0
281
0
  0
CLASS
  1
ACDBPLACEHOLDER
  2
AcDbPlaceHolder
  3
AutoCAD 2000
 90
0
280
0
281
0
  0
CLASS
  1
LAYOUT
  2
AcDbLayout
  3
AutoCAD 2000
 90
0
280
0
281
0
  0
ENDSEC
  0
SECTION
  2
TABLES
  0
TABLE
  2
VPORT
  5
8
100
AcDbSymbolTable
 70
2
  0
VPORT
  5
1F4
100
AcDbSymbolTableRecord
100
AcDbViewportTableRecord
  2
*ACTIVE
 70
0
 10
0.0
 20
0.0
 11
1.0
 21
1.0
 12
1511.3
 22
977.9
 13
0.0
 23
0.0
 14
1.0
 24
1.0
 15
0.0
 25
0.0
 16
0.0
 26
0.0
 36
1.0
 17
0.0
 27
0.0
 37
0.0
 40
1955.8
 41
1.5454545455
 42
50.0
 43
0.0
 44
0.0
 50
0.0
 51
0.0
 71
0
 72
100
 73
1
 74
1
 75
0
 76
0
 77
0
 78
0
  0
ENDTAB
  0
TABLE
  2
LTYPE
  5
5
100
AcDbSymbolTable
 70
6
  0
LTYPE
  5
14
100
AcDbSymbolTableRecord
100
AcDbLinetypeTableRecord
  2
BYBLOCK
 70
0
  3

 72
65
 73
0
 40
0.0
  0
LTYPE
  5
15
100
AcDbSymbolTableRecord
100
AcDbLinetypeTableRecord
  2
BYLAYER
 70
0
  3

 72
65
 73
0
 40
0.0
  0
LTYPE
  5
16
100
AcDbSymbolTableRecord
100
AcDbLinetypeTableRecord
  2
CONTINUOUS
 70
64
  3
Solid line
 72
65
 73
0
 40
0.0
  0
LTYPE
  5
1F5
100
AcDbSymbolTableRecord
100
AcDbLinetypeTableRecord
  2
CENTER
 70
64
  3
____ _ ____ _ ____ _ ____ _ ____ _ ____ _ ____
 72
65
 73
4
 40
0.6
 49
0.375
 74
0
 49
-0.075
 74
0
 49
0.075
 74
0
 49
-0.075
 74
0
  0
LTYPE
  5
1F6
100
AcDbSymbolTableRecord
100
AcDbLinetypeTableRecord
  2
HIDDEN
 70
64
  3
- - - - - - - - - - - - - - - - - - - -
 72
65
 73
2
 40
0.2
 49
0.1
 74
0
 49
-0.1
 74
0
  0
LTYPE
  5
1F7
100
AcDbSymbolTableRecord
100
AcDbLinetypeTableRecord
  2
PHANTOM
 70
64
  3
_____ _ _ _____ _ _ _____ _ _ _____
 72
65
 73
6
 40
0.8
 49
0.45
 74
0
 49
-0.05
 74
0
 49
0.1
 74
0
 49
-0.05
 74
0
 49
0.1
 74
0
 49
-0.05
 74
0
  0
LTYPE
  5
1F8
100
AcDbSymbolTableRecord
100
AcDbLinetypeTableRecord
  2
DOT
 70
64
  3
. . . . . . . . . . . . . . . . . . . .
 72
65
 73
2
 40
0.2
 49
0.1
 74
0
 49
-0.1
 74
0
  0
LTYPE
  5
1F9
100
AcDbSymbolTableRecord
100
AcDbLinetypeTableRecord
  2
DASHED
 70
64
  3
- - - - - - - - - - - - - - - - - - - -
 72
65
 73
2
 40
0.2
 49
0.1
 74
0
 49
-0.1
 74
0
  0
ENDTAB
  0
TABLE
  2
LAYER
  5
2
100
AcDbSymbolTable
 70
36
  0
LAYER
  5
10
100
AcDbSymbolTableRecord
100
AcDbLayerTableRecord
  2
0
 70
0
 62
7
  6
CONTINUOUS
370
-3
390
F
  0
LAYER
  5
1FA
100
AcDbSymbolTableRecord
100
AcDbLayerTableRecord
  2
DEFAULT_1
 70
0
 62
7
  6
CENTER
370
-3
390
F
  0
LAYER
  5
1FB
100
AcDbSymbolTableRecord
100
AcDbLayerTableRecord
  2
DEFAULT_2
 70
0
 62
8
  6
HIDDEN
370
-3
390
F
  0
LAYER
  5
1FC
100
AcDbSymbolTableRecord
100
AcDbLayerTableRecord
  2
DEFAULT_3
 70
0
 62
7
  6
PHANTOM
370
-3
390
F
  0
LAYER
  5
1FD
100
AcDbSymbolTableRecord
100
AcDbLayerTableRecord
  2
1_ALL_PLANES
 70
0
 62
7
  6
CONTINUOUS
370
-3
390
F
  0
LAYER
  5
1FE
100
AcDbSymbolTableRecord
100
AcDbLayerTableRecord
  2
1_DEF_PLANES
 70
0
 62
7
  6
CONTINUOUS
370
-3
390
F
  0
LAYER
  5
1FF
100
AcDbSymbolTableRecord
100
AcDbLayerTableRecord
  2
2_ALL_CSYS
 70
0
 62
7
  6
CONTINUOUS
370
-3
390
F
  0
LAYER
  5
200
100
AcDbSymbolTableRecord
100
AcDbLayerTableRecord
  2
2_DEF_CSYS
 70
0
 62
7
  6
CONTINUOUS
370
-3
390
F
  0
LAYER
  5
201
100
AcDbSymbolTableRecord
100
AcDbLayerTableRecord
  2
3_ALL_AXES
 70
0
 62
7
  6
CONTINUOUS
370
-3
390
F
  0
LAYER
  5
202
100
AcDbSymbolTableRecord
100
AcDbLayerTableRecord
  2
3_AXES_OTHER
 70
0
 62
7
  6
CONTINUOUS
370
-3
390
F
  0
LAYER
  5
203
100
AcDbSymbolTableRecord
100
AcDbLayerTableRecord
  2
3_HOLES
 70
0
 62
7
  6
CONTINUOUS
370
-3
390
F
  0
LAYER
  5
204
100
AcDbSymbolTableRecord
100
AcDbLayerTableRecord
  2
4_ALL_POINTS
 70
0
 62
7
  6
CONTINUOUS
370
-3
390
F
  0
LAYER
  5
205
100
AcDbSymbolTableRecord
100
AcDbLayerTableRecord
  2
5_ALL_CURVES
 70
0
 62
7
  6
CONTINUOUS
370
-3
390
F
  0
LAYER
  5
206
100
AcDbSymbolTableRecord
100
AcDbLayerTableRecord
  2
6_ALL_SURFS
 70
0
 62
7
  6
CONTINUOUS
370
-3
390
F
  0
LAYER
  5
207
100
AcDbSymbolTableRecord
100
AcDbLayerTableRecord
  2
6_COPYGEOM
 70
0
 62
7
  6
CONTINUOUS
370
-3
390
F
  0
LAYER
  5
208
100
AcDbSymbolTableRecord
100
AcDbLayerTableRecord
  2
7_ALL_ROUNDS
 70
0
 62
7
  6
CONTINUOUS
370
-3
390
F
  0
LAYER
  5
209
100
AcDbSymbolTableRecord
100
AcDbLayerTableRecord
  2
7_MERGES
 70
0
 62
7
  6
CONTINUOUS
370
-3
390
F
  0
LAYER
  5
20A
100
AcDbSymbolTableRecord
100
AcDbLayerTableRecord
  2
8_GDT
 70
0
 62
7
  6
CONTINUOUS
370
-3
390
F
  0
LAYER
  5
20B
100
AcDbSymbolTableRecord
100
AcDbLayerTableRecord
  2
8_SET_DATUMS
 70
0
 62
7
  6
CONTINUOUS
370
-3
390
F
  0
LAYER
  5
20C
100
AcDbSymbolTableRecord
100
AcDbLayerTableRecord
  2
9_COSMETICS
 70
0
 62
7
  6
CONTINUOUS
370
-3
390
F
  0
LAYER
  5
20D
100
AcDbSymbolTableRecord
100
AcDbLayerTableRecord
  2
9_THREADS
 70
0
 62
7
  6
CONTINUOUS
370
-3
390
F
  0
ENDTAB
  0
TABLE
  2
STYLE
  5
3
100
AcDbSymbolTable
 70
1
  0
STYLE
  5
11
100
AcDbSymbolTableRecord
100
AcDbTextStyleTableRecord
  2
STANDARD
 70
0
 40
0.0
 41
1.0
 50
0.0
 71
0
 42
0.2
  3
gothic.ttf
  4

1001
ACAD
1000
Century Gothic
1071
34
  0
STYLE
  5
20E
100
AcDbSymbolTableRecord
100
AcDbTextStyleTableRecord
  2
TEXTSTYLE_1
 70
0
 40
0.0
 41
0.8
 50
0.0
 71
0
 42
0.2
  3
gdt
  4

  0
STYLE
  5
20F
100
AcDbSymbolTableRecord
100
AcDbTextStyleTableRecord
  2
TEXTSTYLE_2
 70
0
 40
0.0
 41
1.0
 50
0.0
 71
0
 42
0.2
  3
gothic.ttf
  4

1001
ACAD
1000
Century Gothic
1071
34
  0
STYLE
  5
210
100
AcDbSymbolTableRecord
100
AcDbTextStyleTableRecord
  2
TEXTSTYLE_3
 70
0
 40
0.0
 41
1.0
 50
0.0
 71
0
 42
0.2
  3
gdt
  4

  0
ENDTAB
  0
TABLE
  2
VIEW
  5
6
100
AcDbSymbolTable
 70
0
  0
ENDTAB
  0
TABLE
  2
UCS
  5
7
100
AcDbSymbolTable
 70
0
  0
ENDTAB
  0
TABLE
  2
APPID
  5
9
100
AcDbSymbolTable
 70
1
  0
APPID
  5
211
100
AcDbSymbolTableRecord
100
AcDbRegAppTableRecord
  2
ACAD
 70
0
  0
ENDTAB
  0
TABLE
  2
BLOCK_RECORD
  5
1
100
AcDbSymbolTable
 70
0
  0
BLOCK_RECORD
  5
212
100
AcDbSymbolTableRecord
100
AcDbBlockTableRecord
  2
*Model_Space
  0
BLOCK_RECORD
  5
213
100
AcDbSymbolTableRecord
100
AcDbBlockTableRecord
  2
*Paper_Space
  0
BLOCK_RECORD
  5
214
100
AcDbSymbolTableRecord
100
AcDbBlockTableRecord
  2
_FILLED
  0
BLOCK_RECORD
  5
215
100
AcDbSymbolTableRecord
100
AcDbBlockTableRecord
  2
XSEC_FILLED
  0
BLOCK_RECORD
  5
216
100
AcDbSymbolTableRecord
100
AcDbBlockTableRecord
  2
*D0
  0
BLOCK_RECORD
  5
217
100
AcDbSymbolTableRecord
100
AcDbBlockTableRecord
  2
*D1
  0
BLOCK_RECORD
  5
218
100
AcDbSymbolTableRecord
100
AcDbBlockTableRecord
  2
*D2
  0
BLOCK_RECORD
  5
219
100
AcDbSymbolTableRecord
100
AcDbBlockTableRecord
  2
*D3
  0
BLOCK_RECORD
  5
21A
100
AcDbSymbolTableRecord
100
AcDbBlockTableRecord
  2
*D4
  0
BLOCK_RECORD
  5
21B
100
AcDbSymbolTableRecord
100
AcDbBlockTableRecord
  2
*D5
  0
BLOCK_RECORD
  5
21C
100
AcDbSymbolTableRecord
100
AcDbBlockTableRecord
  2
*D6
  0
BLOCK_RECORD
  5
21D
100
AcDbSymbolTableRecord
100
AcDbBlockTableRecord
  2
*D7
  0
BLOCK_RECORD
  5
21E
100
AcDbSymbolTableRecord
100
AcDbBlockTableRecord
  2
*D8
  0
BLOCK_RECORD
  5
21F
100
AcDbSymbolTableRecord
100
AcDbBlockTableRecord
  2
*D9
  0
BLOCK_RECORD
  5
220
100
AcDbSymbolTableRecord
100
AcDbBlockTableRecord
  2
*D10
  0
BLOCK_RECORD
  5
221
100
AcDbSymbolTableRecord
100
AcDbBlockTableRecord
  2
*D11
  0
BLOCK_RECORD
  5
222
100
AcDbSymbolTableRecord
100
AcDbBlockTableRecord
  2
*D12
  0
BLOCK_RECORD
  5
223
100
AcDbSymbolTableRecord
100
AcDbBlockTableRecord
  2
*D13
  0
BLOCK_RECORD
  5
224
100
AcDbSymbolTableRecord
100
AcDbBlockTableRecord
  2
CG_3D_BL2
  0
BLOCK_RECORD
  5
225
100
AcDbSymbolTableRecord
100
AcDbBlockTableRecord
  2
CG_3D_BL1
  0
BLOCK_RECORD
  5
226
100
AcDbSymbolTableRecord
100
AcDbBlockTableRecord
  2
CG_3D_BL0
  0
ENDTAB
  0
TABLE
  2
DIMSTYLE
  5
A
100
AcDbSymbolTable
 70
1
100
AcDbDimStyleTable
 71
0
  0
DIMSTYLE
105
227
100
AcDbSymbolTableRecord
100
AcDbDimStyleTableRecord
  2
STANDARD
 70
0
  3

  4

 40
1.0
 41
14.0
 42
1.5875
 43
0.38
 44
3.175
 45
0.0
 46
0.0
 47
0.02
 48
0.02
140
16.002
141
0.09
142
0.0
143
0.0393700787
144
1.0
145
0.0
146
1.0
147
0.625
 71
1
 72
0
 73
1
 74
1
 75
0
 76
0
 77
0
 78
4
 79
1
170
1
171
1
172
0
173
0
174
0
175
0
176
0
177
0
178
0
270
2
179
2
271
2
272
2
273
2
274
2
275
0
280
0
281
0
282
0
283
1
284
4
285
0
286
0
287
3
288
0
340
11
278
46
341
214
342
214
343
214
344
214
  0
DIMSTYLE
105
228
100
AcDbSymbolTableRecord
100
AcDbDimStyleTableRecord
  2
DIMSTYLE_1
 70
0
  3

  4

 40
1.0
 41
14.0
 42
1.5875
 43
0.38
 44
3.175
 45
0.0
 46
0.0
 47
0.02
 48
0.02
140
16.002
141
0.09
142
0.0
143
0.0393700787
144
1.0
145
0.0
146
1.0
147
1.143
 71
0
 72
0
 73
1
 74
1
 75
0
 76
0
 77
0
 78
4
 79
1
170
1
171
1
172
0
173
0
174
0
175
0
176
0
177
0
178
0
270
2
179
2
271
0
272
0
273
2
274
1
275
0
280
0
281
0
282
0
283
1
284
4
285
0
286
0
287
3
288
0
340
11
278
46
341
214
342
214
343
214
344
214
  0
DIMSTYLE
105
229
100
AcDbSymbolTableRecord
100
AcDbDimStyleTableRecord
  2
DIMSTYLE_2
 70
0
  3

  4

 40
1.0
 41
14.0
 42
1.5875
 43
0.38
 44
3.175
 45
0.0
 46
0.0
 47
0.02
 48
0.02
140
16.002
141
0.09
142
0.0
143
0.0393700787
144
1.0
145
0.0
146
1.0
147
1.143
 71
0
 72
0
 73
1
 74
1
 75
0
 76
0
 77
0
 78
4
 79
1
170
1
171
2
172
0
173
0
174
0
175
0
176
0
177
0
178
0
270
2
179
2
271
1
272
1
273
2
274
2
275
0
280
0
281
0
282
0
283
1
284
4
285
0
286
0
287
3
288
0
340
11
278
46
341
214
342
214
343
214
344
214
  0
DIMSTYLE
105
22A
100
AcDbSymbolTableRecord
100
AcDbDimStyleTableRecord
  2
DIMSTYLE_3
 70
0
  3
<>
  4

 40
1.0
 41
14.0
 42
1.5875
 43
0.38
 44
3.175
 45
0.0
 46
0.0
 47
0.02
 48
0.02
140
16.002
141
0.09
142
0.0
143
0.0393700787
144
1.0
145
0.0
146
1.0
147
0.625
 71
0
 72
0
 73
1
 74
1
 75
0
 76
0
 77
0
 78
4
 79
1
170
1
171
1
172
0
173
0
174
0
175
0
176
0
177
0
178
0
270
2
179
2
271
0
272
0
273
2
274
1
275
0
280
0
281
0
282
0
283
1
284
4
285
0
286
0
287
3
288
1
340
11
278
46
289
1
341
214
342
214
343
214
344
214
  0
ENDTAB
  0
ENDSEC
  0
SECTION
  2
BLOCKS
  0
BLOCK
  5
20
100
AcDbEntity
  8
0
100
AcDbBlockBegin
  2
*Model_Space
 70
0
 10
0.0
 20
0.0
 30
0.0
  3
*Model_Space
  1

  0
ENDBLK
  5
21
100
AcDbEntity
  8
0
100
AcDbBlockEnd
  0
BLOCK
  5
1C
100
AcDbEntity
  8
0
100
AcDbBlockBegin
  2
*Paper_Space
 70
0
 10
0.0
 20
0.0
 30
0.0
  3
*Paper_Space
  1

  0
ENDBLK
  5
1D
100
AcDbEntity
  8
0
100
AcDbBlockEnd
  0
BLOCK
  5
22B
100
AcDbEntity
  8
0
100
AcDbBlockBegin
 62
2
  6
CONTINUOUS
  2
CG_3D_BL2
 70
64
 10
430.2545994739
 20
1094.7524917798
  3
CG_3D_BL2
  1

  0
ARC
  5
22C
100
AcDbEntity
  8
0
100
AcDbCircle
 62
7
  6
CONTINUOUS
 10
430.2545994739
 20
1094.7524917798
 40
14.0
100
AcDbArc
 50
90.0
 51
180.0
  0
ARC
  5
22D
100
AcDbEntity
  8
0
100
AcDbCircle
 62
7
  6
CONTINUOUS
 10
430.2545994739
 20
1094.7524917798
 40
14.0
100
AcDbArc
 50
180.0
 51
270.0
  0
ARC
  5
22E
100
AcDbEntity
  8
0
100
AcDbCircle
 62
7
  6
CONTINUOUS
 10
430.2545994739
 20
1094.7524917798
 40
14.0
100
AcDbArc
 50
270.0
 51
360.0
  0
ARC
  5
22F
100
AcDbEntity
  8
0
100
AcDbCircle
 62
7
  6
CONTINUOUS
 10
430.2545994739
 20
1094.7524917798
 40
14.0
100
AcDbArc
 50
0.0
 51
90.0
  0
LINE
  5
230
100
AcDbEntity
  8
0
100
AcDbLine
 62
7
  6
CONTINUOUS
 10
430.2545994739
 20
1094.7524917798
 11
444.2545994739
 21
1094.7524917798
  0
LINE
  5
231
100
AcDbEntity
  8
0
100
AcDbLine
 62
7
  6
CONTINUOUS
 10
430.2545994739
 20
1094.7524917798
 11
430.2545994739
 21
1080.7524917798
  0
LINE
  5
232
100
AcDbEntity
  8
0
100
AcDbLine
 62
7
  6
CONTINUOUS
 10
416.2545994739
 20
1094.7524917798
 11
430.2545994739
 21
1094.7524917798
  0
LINE
  5
233
100
AcDbEntity
  8
0
100
AcDbLine
 62
7
  6
CONTINUOUS
 10
430.2545994739
 20
1108.7524917798
 11
430.2545994739
 21
1094.7524917798
  0
LINE
  5
234
100
AcDbEntity
  8
0
100
AcDbLine
 62
2
  6
CONTINUOUS
 10
430.2545994739
 20
1094.6602225487
 11
430.346868705
 21
1094.7524917798
  0
LWPOLYLINE
  5
235
100
AcDbEntity
  8
0
100
AcDbPolyline
 62
7
  6
CONTINUOUS
 90
8
 70
0
 10
430.2545994739
 20
1094.7524917798
 10
430.2545994739
 20
1080.7524917798
 10
434.5808373951
 20
1081.4377005516
 10
438.483593006
 20
1083.4262538585
 10
441.5808373951
 20
1086.5234982477
 10
443.569390702
 20
1090.4262538585
 10
444.2545994739
 20
1094.7524917798
 10
430.2545994739
 20
1094.7524917798
  0
HATCH
  5
236
100
AcDbEntity
  8
0
100
AcDbHatch
 62
7
  6
CONTINUOUS
 10
0.0
 20
0.0
 30
0.0
210
0.0
220
0.0
230
1.0
  2
SOLID
 70
1
 71
1
 91
1
 92
1
 93
7
 72
1
 10
430.2545994739
 20
1094.7524917798
 11
430.2545994739
 21
1080.7524917798
 72
1
 10
430.2545994739
 20
1080.7524917798
 11
434.5808373951
 21
1081.4377005516
 72
1
 10
434.5808373951
 20
1081.4377005516
 11
438.483593006
 21
1083.4262538585
 72
1
 10
438.483593006
 20
1083.4262538585
 11
441.5808373951
 21
1086.5234982477
 72
1
 10
441.5808373951
 20
1086.5234982477
 11
443.569390702
 21
1090.4262538585
 72
1
 10
443.569390702
 20
1090.4262538585
 11
444.2545994739
 21
1094.7524917798
 72
1
 10
444.2545994739
 20
1094.7524917798
 11
430.2545994739
 21
1094.7524917798
 97
1
330
235
 75
0
 76
1
 98
1
 10
0.0
 20
0.0
  0
LWPOLYLINE
  5
237
100
AcDbEntity
  8
0
100
AcDbPolyline
 62
7
  6
CONTINUOUS
 90
8
 70
0
 10
430.2545994739
 20
1094.7524917798
 10
416.2545994739
 20
1094.7524917798
 10
416.9398082458
 20
1099.078729701
 10
418.9283615526
 20
1102.9814853119
 10
422.0256059418
 20
1106.078729701
 10
425.9283615526
 20
1108.0672830079
 10
430.2545994739
 20
1108.7524917798
 10
430.2545994739
 20
1094.7524917798
  0
HATCH
  5
238
100
AcDbEntity
  8
0
100
AcDbHatch
 62
7
  6
CONTINUOUS
 10
0.0
 20
0.0
 30
0.0
210
0.0
220
0.0
230
1.0
  2
SOLID
 70
1
 71
1
 91
1
 92
1
 93
7
 72
1
 10
430.2545994739
 20
1094.7524917798
 11
416.2545994739
 21
1094.7524917798
 72
1
 10
416.2545994739
 20
1094.7524917798
 11
416.9398082458
 21
1099.078729701
 72
1
 10
416.9398082458
 20
1099.078729701
 11
418.9283615526
 21
1102.9814853119
 72
1
 10
418.9283615526
 20
1102.9814853119
 11
422.0256059418
 21
1106.078729701
 72
1
 10
422.0256059418
 20
1106.078729701
 11
425.9283615526
 21
1108.0672830079
 72
1
 10
425.9283615526
 20
1108.0672830079
 11
430.2545994739
 21
1108.7524917798
 72
1
 10
430.2545994739
 20
1108.7524917798
 11
430.2545994739
 21
1094.7524917798
 97
1
330
237
 75
0
 76
1
 98
1
 10
0.0
 20
0.0
  0
ENDBLK
  5
239
100
AcDbEntity
  8
0
  6
BYBLOCK
 62
0
100
AcDbBlockEnd
  0
BLOCK
  5
23A
100
AcDbEntity
  8
0
100
AcDbBlockBegin
 62
2
  6
CONTINUOUS
  2
CG_3D_BL1
 70
64
 10
1119.1069365887
 20
1094.7136625529
  3
CG_3D_BL1
  1

  0
ARC
  5
23B
100
AcDbEntity
  8
0
100
AcDbCircle
 62
7
  6
CONTINUOUS
 10
1119.1069365887
 20
1094.7136625529
 40
14.0
100
AcDbArc
 50
90.0
 51
180.0
  0
ARC
  5
23C
100
AcDbEntity
  8
0
100
AcDbCircle
 62
7
  6
CONTINUOUS
 10
1119.1069365887
 20
1094.7136625529
 40
14.0
100
AcDbArc
 50
180.0
 51
270.0
  0
ARC
  5
23D
100
AcDbEntity
  8
0
100
AcDbCircle
 62
7
  6
CONTINUOUS
 10
1119.1069365887
 20
1094.7136625529
 40
14.0
100
AcDbArc
 50
270.0
 51
360.0
  0
ARC
  5
23E
100
AcDbEntity
  8
0
100
AcDbCircle
 62
7
  6
CONTINUOUS
 10
1119.1069365887
 20
1094.7136625529
 40
14.0
100
AcDbArc
 50
0.0
 51
90.0
  0
LINE
  5
23F
100
AcDbEntity
  8
0
100
AcDbLine
 62
7
  6
CONTINUOUS
 10
1119.1069365887
 20
1094.7136625529
 11
1133.1069365887
 21
1094.7136625529
  0
LINE
  5
240
100
AcDbEntity
  8
0
100
AcDbLine
 62
7
  6
CONTINUOUS
 10
1119.1069365887
 20
1094.7136625529
 11
1119.1069365887
 21
1080.7136625529
  0
LINE
  5
241
100
AcDbEntity
  8
0
100
AcDbLine
 62
7
  6
CONTINUOUS
 10
1105.1069365887
 20
1094.7136625529
 11
1119.1069365887
 21
1094.7136625529
  0
LINE
  5
242
100
AcDbEntity
  8
0
100
AcDbLine
 62
7
  6
CONTINUOUS
 10
1119.1069365887
 20
1108.7136625529
 11
1119.1069365887
 21
1094.7136625529
  0
LINE
  5
243
100
AcDbEntity
  8
0
100
AcDbLine
 62
2
  6
CONTINUOUS
 10
1119.1069365887
 20
1094.6213933218
 11
1119.1992058198
 21
1094.7136625529
  0
LWPOLYLINE
  5
244
100
AcDbEntity
  8
0
100
AcDbPolyline
 62
7
  6
CONTINUOUS
 90
8
 70
0
 10
1119.1069365887
 20
1094.7136625529
 10
1119.1069365887
 20
1080.7136625529
 10
1123.43317451
 20
1081.3988713247
 10
1127.3359301208
 20
1083.3874246316
 10
1130.43317451
 20
1086.4846690208
 10
1132.4217278169
 20
1090.3874246316
 10
1133.1069365887
 20
1094.7136625529
 10
1119.1069365887
 20
1094.7136625529
  0
HATCH
  5
245
100
AcDbEntity
  8
0
100
AcDbHatch
 62
7
  6
CONTINUOUS
 10
0.0
 20
0.0
 30
0.0
210
0.0
220
0.0
230
1.0
  2
SOLID
 70
1
 71
1
 91
1
 92
1
 93
7
 72
1
 10
1119.1069365887
 20
1094.7136625529
 11
1119.1069365887
 21
1080.7136625529
 72
1
 10
1119.1069365887
 20
1080.7136625529
 11
1123.43317451
 21
1081.3988713247
 72
1
 10
1123.43317451
 20
1081.3988713247
 11
1127.3359301208
 21
1083.3874246316
 72
1
 10
1127.3359301208
 20
1083.3874246316
 11
1130.43317451
 21
1086.4846690208
 72
1
 10
1130.43317451
 20
1086.4846690208
 11
1132.4217278169
 21
1090.3874246316
 72
1
 10
1132.4217278169
 20
1090.3874246316
 11
1133.1069365887
 21
1094.7136625529
 72
1
 10
1133.1069365887
 20
1094.7136625529
 11
1119.1069365887
 21
1094.7136625529
 97
1
330
244
 75
0
 76
1
 98
1
 10
0.0
 20
0.0
  0
LWPOLYLINE
  5
246
100
AcDbEntity
  8
0
100
AcDbPolyline
 62
7
  6
CONTINUOUS
 90
8
 70
0
 10
1119.1069365887
 20
1094.7136625529
 10
1105.1069365887
 20
1094.7136625529
 10
1105.7921453606
 20
1099.0399004741
 10
1107.7806986675
 20
1102.942656085
 10
1110.8779430566
 20
1106.0399004741
 10
1114.7806986675
 20
1108.028453781
 10
1119.1069365887
 20
1108.7136625529
 10
1119.1069365887
 20
1094.7136625529
  0
HATCH
  5
247
100
AcDbEntity
  8
0
100
AcDbHatch
 62
7
  6
CONTINUOUS
 10
0.0
 20
0.0
 30
0.0
210
0.0
220
0.0
230
1.0
  2
SOLID
 70
1
 71
1
 91
1
 92
1
 93
7
 72
1
 10
1119.1069365887
 20
1094.7136625529
 11
1105.1069365887
 21
1094.7136625529
 72
1
 10
1105.1069365887
 20
1094.7136625529
 11
1105.7921453606
 21
1099.0399004741
 72
1
 10
1105.7921453606
 20
1099.0399004741
 11
1107.7806986675
 21
1102.942656085
 72
1
 10
1107.7806986675
 20
1102.942656085
 11
1110.8779430566
 21
1106.0399004741
 72
1
 10
1110.8779430566
 20
1106.0399004741
 11
1114.7806986675
 21
1108.028453781
 72
1
 10
1114.7806986675
 20
1108.028453781
 11
1119.1069365887
 21
1108.7136625529
 72
1
 10
1119.1069365887
 20
1108.7136625529
 11
1119.1069365887
 21
1094.7136625529
 97
1
330
246
 75
0
 76
1
 98
1
 10
0.0
 20
0.0
  0
ENDBLK
  5
248
100
AcDbEntity
  8
0
  6
BYBLOCK
 62
0
100
AcDbBlockEnd
  0
BLOCK
  5
249
100
AcDbEntity
  8
0
100
AcDbBlockBegin
 62
2
  6
CONTINUOUS
  2
CG_3D_BL0
 70
64
 10
239.1131812269
 20
1622.9147227379
  3
CG_3D_BL0
  1

  0
ARC
  5
24A
100
AcDbEntity
  8
0
100
AcDbCircle
 62
7
  6
CONTINUOUS
 10
239.1131812269
 20
1622.9147227379
 40
10.5
100
AcDbArc
 50
90.0
 51
180.0
  0
ARC
  5
24B
100
AcDbEntity
  8
0
100
AcDbCircle
 62
7
  6
CONTINUOUS
 10
239.1131812269
 20
1622.9147227379
 40
10.5
100
AcDbArc
 50
180.0
 51
270.0
  0
ARC
  5
24C
100
AcDbEntity
  8
0
100
AcDbCircle
 62
7
  6
CONTINUOUS
 10
239.1131812269
 20
1622.9147227379
 40
10.5
100
AcDbArc
 50
270.0
 51
360.0
  0
ARC
  5
24D
100
AcDbEntity
  8
0
100
AcDbCircle
 62
7
  6
CONTINUOUS
 10
239.1131812269
 20
1622.9147227379
 40
10.5
100
AcDbArc
 50
0.0
 51
90.0
  0
LINE
  5
24E
100
AcDbEntity
  8
0
100
AcDbLine
 62
7
  6
CONTINUOUS
 10
239.1131812269
 20
1622.9147227379
 11
249.6131812269
 21
1622.9147227379
  0
LINE
  5
24F
100
AcDbEntity
  8
0
100
AcDbLine
 62
7
  6
CONTINUOUS
 10
239.1131812269
 20
1622.9147227379
 11
239.1131812269
 21
1612.4147227379
  0
LINE
  5
250
100
AcDbEntity
  8
0
100
AcDbLine
 62
7
  6
CONTINUOUS
 10
228.6131812269
 20
1622.9147227379
 11
239.1131812269
 21
1622.9147227379
  0
LINE
  5
251
100
AcDbEntity
  8
0
100
AcDbLine
 62
7
  6
CONTINUOUS
 10
239.1131812269
 20
1633.4147227379
 11
239.1131812269
 21
1622.9147227379
  0
LINE
  5
252
100
AcDbEntity
  8
0
100
AcDbLine
 62
2
  6
CONTINUOUS
 10
239.1131812269
 20
1622.8455208146
 11
239.1823831503
 21
1622.9147227379
  0
LWPOLYLINE
  5
253
100
AcDbEntity
  8
0
100
AcDbPolyline
 62
7
  6
CONTINUOUS
 90
8
 70
0
 10
239.1131812269
 20
1622.9147227379
 10
239.1131812269
 20
1612.4147227379
 10
242.3578596679
 20
1612.9286293168
 10
245.284926376
 20
1614.420044297
 10
247.6078596679
 20
1616.7429775889
 10
249.099274648
 20
1619.670044297
 10
249.6131812269
 20
1622.9147227379
 10
239.1131812269
 20
1622.9147227379
  0
HATCH
  5
254
100
AcDbEntity
  8
0
100
AcDbHatch
 62
7
  6
CONTINUOUS
 10
0.0
 20
0.0
 30
0.0
210
0.0
220
0.0
230
1.0
  2
SOLID
 70
1
 71
1
 91
1
 92
1
 93
7
 72
1
 10
239.1131812269
 20
1622.9147227379
 11
239.1131812269
 21
1612.4147227379
 72
1
 10
239.1131812269
 20
1612.4147227379
 11
242.3578596679
 21
1612.9286293168
 72
1
 10
242.3578596679
 20
1612.9286293168
 11
245.284926376
 21
1614.420044297
 72
1
 10
245.284926376
 20
1614.420044297
 11
247.6078596679
 21
1616.7429775889
 72
1
 10
247.6078596679
 20
1616.7429775889
 11
249.099274648
 21
1619.670044297
 72
1
 10
249.099274648
 20
1619.670044297
 11
249.6131812269
 21
1622.9147227379
 72
1
 10
249.6131812269
 20
1622.9147227379
 11
239.1131812269
 21
1622.9147227379
 97
1
330
253
 75
0
 76
1
 98
1
 10
0.0
 20
0.0
  0
LWPOLYLINE
  5
255
100
AcDbEntity
  8
0
100
AcDbPolyline
 62
7
  6
CONTINUOUS
 90
8
 70
0
 10
239.1131812269
 20
1622.9147227379
 10
228.6131812269
 20
1622.9147227379
 10
229.1270878058
 20
1626.1594011789
 10
230.618502786
 20
1629.086467887
 10
232.9414360779
 20
1631.4094011789
 10
235.868502786
 20
1632.900816159
 10
239.1131812269
 20
1633.4147227379
 10
239.1131812269
 20
1622.9147227379
  0
HATCH
  5
256
100
AcDbEntity
  8
0
100
AcDbHatch
 62
7
  6
CONTINUOUS
 10
0.0
 20
0.0
 30
0.0
210
0.0
220
0.0
230
1.0
  2
SOLID
 70
1
 71
1
 91
1
 92
1
 93
7
 72
1
 10
239.1131812269
 20
1622.9147227379
 11
228.6131812269
 21
1622.9147227379
 72
1
 10
228.6131812269
 20
1622.9147227379
 11
229.1270878058
 21
1626.1594011789
 72
1
 10
229.1270878058
 20
1626.1594011789
 11
230.618502786
 21
1629.086467887
 72
1
 10
230.618502786
 20
1629.086467887
 11
232.9414360779
 21
1631.4094011789
 72
1
 10
232.9414360779
 20
1631.4094011789
 11
235.868502786
 21
1632.900816159
 72
1
 10
235.868502786
 20
1632.900816159
 11
239.1131812269
 21
1633.4147227379
 72
1
 10
239.1131812269
 20
1633.4147227379
 11
239.1131812269
 21
1622.9147227379
 97
1
330
255
 75
0
 76
1
 98
1
 10
0.0
 20
0.0
  0
ENDBLK
  5
257
100
AcDbEntity
  8
0
  6
BYBLOCK
 62
0
100
AcDbBlockEnd
  0
BLOCK
  5
258
100
AcDbEntity
  8
0
100
AcDbBlockBegin
  2
_FILLED
 70
64
 10
0.0
 20
0.0
  3
_FILLED
  1

  0
SOLID
  5
259
100
AcDbEntity
  8
0
  6
BYBLOCK
 62
0
100
AcDbTrace
 10
0.0
 20
0.0
 11
-1.0
 21
0.1275
 12
-1.0
 22
-0.1275
 13
-1.0
 23
-0.1275
  0
ENDBLK
  5
25A
100
AcDbEntity
  8
0
  6
BYBLOCK
 62
0
100
AcDbBlockEnd
  0
BLOCK
  5
25B
100
AcDbEntity
  8
0
100
AcDbBlockBegin
  2
XSEC_FILLED
 70
64
 10
0.0
 20
0.0
  3
XSEC_FILLED
  1

  0
SOLID
  5
25C
100
AcDbEntity
  8
0
  6
BYBLOCK
 62
0
100
AcDbTrace
 10
0.0
 20
0.0
 11
-1.0
 21
0.166
 12
-1.0
 22
-0.166
 13
-1.0
 23
-0.166
  0
ENDBLK
  5
25D
100
AcDbEntity
  8
0
  6
BYBLOCK
 62
0
100
AcDbBlockEnd
  0
BLOCK
  5
25E
100
AcDbEntity
  8
0
100
AcDbBlockBegin
 62
2
  6
CONTINUOUS
  2
*D0
 70
65
 10
0.0
 20
0.0
  3
*D0
  1

  0
MTEXT
  5
25F
100
AcDbEntity
  8
0
100
AcDbMText
 62
2
  6
CONTINUOUS
  7
STANDARD
 71
2
 72
1
 10
1108.1220559203
 20
555.3588896294
 30
0.0
 11
1.0
 21
0.0
 31
0.0
 73
2
 44
0.9
  1
475\P[18.7]
 40
16.002
 41
59.0110929368
  0
LINE
  5
260
100
AcDbEntity
  8
0
100
AcDbLine
 62
2
  6
CONTINUOUS
 10
1356.5676618682
 20
461.3372507683
 11
1356.5676618682
 21
569.5828896294
  0
LINE
  5
261
100
AcDbEntity
  8
0
100
AcDbLine
 62
2
  6
CONTINUOUS
 10
881.5676618682
 20
461.3372507683
 11
881.5676618682
 21
569.5828896294
  0
LINE
  5
262
100
AcDbEntity
  8
0
100
AcDbLine
 62
2
  6
CONTINUOUS
 10
1356.5676618682
 20
547.3578896294
 11
1156.5742083366
 21
547.3578896294
  0
LINE
  5
263
100
AcDbEntity
  8
0
100
AcDbLine
 62
2
  6
CONTINUOUS
 10
881.5676618682
 20
547.3578896294
 11
1081.5611153998
 21
547.3578896294
  0
INSERT
  5
264
100
AcDbEntity
  8
0
100
AcDbBlockReference
 62
2
  6
CONTINUOUS
  2
_FILLED
 10
1356.5676618682
 20
547.3578896294
 41
14.0
 42
14.0
 43
14.0
  0
INSERT
  5
265
100
AcDbEntity
  8
0
100
AcDbBlockReference
 62
2
  6
CONTINUOUS
  2
_FILLED
 10
881.5676618682
 20
547.3578896294
 41
14.0
 42
14.0
 43
14.0
 50
180.0
  0
ENDBLK
  5
266
100
AcDbEntity
  8
0
  6
BYBLOCK
 62
0
100
AcDbBlockEnd
  0
BLOCK
  5
267
100
AcDbEntity
  8
0
100
AcDbBlockBegin
 62
2
  6
CONTINUOUS
  2
*D1
 70
65
 10
0.0
 20
0.0
  3
*D1
  1

  0
MTEXT
  5
268
100
AcDbEntity
  8
0
100
AcDbMText
 62
2
  6
CONTINUOUS
  7
STANDARD
 71
3
 72
1
 10
1652.5122624617
 20
1466.0113043837
 30
0.0
 11
1.0
 21
0.0
 31
0.0
 73
2
 44
0.9
  1
86,5\P[3.41]
 40
16.002
 41
59.0110929368
  0
LINE
  5
269
100
AcDbEntity
  8
0
100
AcDbLine
 62
2
  6
CONTINUOUS
 10
1782.5191231174
 20
1402.1450699699
 11
1782.5191231174
 21
1480.2353043837
  0
LINE
  5
26A
100
AcDbEntity
  8
0
100
AcDbLine
 62
2
  6
CONTINUOUS
 10
1696.0191231174
 20
1397.1450699699
 11
1696.0191231174
 21
1480.2353043837
  0
LINE
  5
26B
100
AcDbEntity
  8
0
100
AcDbLine
 62
2
  6
CONTINUOUS
 10
1782.5191231174
 20
1458.0103043837
 11
1739.2691231174
 21
1458.0103043837
  0
LINE
  5
26C
100
AcDbEntity
  8
0
100
AcDbLine
 62
2
  6
CONTINUOUS
 10
1696.0191231174
 20
1458.0103043837
 11
1739.2691231174
 21
1458.0103043837
  0
LINE
  5
26D
100
AcDbEntity
  8
0
100
AcDbLine
 62
2
  6
CONTINUOUS
 10
1739.2691231174
 20
1458.0103043837
 11
1676.2178275175
 21
1458.0103043837
  0
INSERT
  5
26E
100
AcDbEntity
  8
0
100
AcDbBlockReference
 62
2
  6
CONTINUOUS
  2
_FILLED
 10
1782.5191231174
 20
1458.0103043837
 41
14.0
 42
14.0
 43
14.0
  0
INSERT
  5
26F
100
AcDbEntity
  8
0
100
AcDbBlockReference
 62
2
  6
CONTINUOUS
  2
_FILLED
 10
1696.0191231174
 20
1458.0103043837
 41
14.0
 42
14.0
 43
14.0
 50
180.0
  0
ENDBLK
  5
270
100
AcDbEntity
  8
0
  6
BYBLOCK
 62
0
100
AcDbBlockEnd
  0
BLOCK
  5
271
100
AcDbEntity
  8
0
100
AcDbBlockBegin
 62
2
  6
CONTINUOUS
  2
*D2
 70
65
 10
0.0
 20
0.0
  3
*D2
  1

  0
MTEXT
  5
272
100
AcDbEntity
  8
0
100
AcDbMText
 62
2
  6
CONTINUOUS
  7
STANDARD
 71
1
 72
1
 10
1843.1643663514
 20
1513.4156362724
 30
0.0
 11
1.0
 21
0.0
 31
0.0
 73
2
 44
0.9
  1
108\P[4.3]
 40
16.002
 41
46.6377992565
  0
LINE
  5
273
100
AcDbEntity
  8
0
100
AcDbLine
 62
2
  6
CONTINUOUS
 10
1696.0191231174
 20
1397.1450699699
 11
1696.0191231174
 21
1527.6396362724
  0
LINE
  5
274
100
AcDbEntity
  8
0
100
AcDbLine
 62
2
  6
CONTINUOUS
 10
1804.0191231174
 20
1397.1450699699
 11
1804.0191231174
 21
1527.6396362724
  0
LINE
  5
275
100
AcDbEntity
  8
0
100
AcDbLine
 62
2
  6
CONTINUOUS
 10
1696.0191231174
 20
1505.4146362724
 11
1750.0191231174
 21
1505.4146362724
  0
LINE
  5
276
100
AcDbEntity
  8
0
100
AcDbLine
 62
2
  6
CONTINUOUS
 10
1804.0191231174
 20
1505.4146362724
 11
1750.0191231174
 21
1505.4146362724
  0
LINE
  5
277
100
AcDbEntity
  8
0
100
AcDbLine
 62
2
  6
CONTINUOUS
 10
1750.0191231174
 20
1505.4146362724
 11
1835.1633663514
 21
1505.4146362724
  0
INSERT
  5
278
100
AcDbEntity
  8
0
100
AcDbBlockReference
 62
2
  6
CONTINUOUS
  2
_FILLED
 10
1696.0191231174
 20
1505.4146362724
 41
14.0
 42
14.0
 43
14.0
 50
180.0
  0
INSERT
  5
279
100
AcDbEntity
  8
0
100
AcDbBlockReference
 62
2
  6
CONTINUOUS
  2
_FILLED
 10
1804.0191231174
 20
1505.4146362724
 41
14.0
 42
14.0
 43
14.0
  0
ENDBLK
  5
27A
100
AcDbEntity
  8
0
  6
BYBLOCK
 62
0
100
AcDbBlockEnd
  0
BLOCK
  5
27B
100
AcDbEntity
  8
0
100
AcDbBlockBegin
 62
2
  6
CONTINUOUS
  2
*D3
 70
65
 10
0.0
 20
0.0
  3
*D3
  1

  0
MTEXT
  5
27C
100
AcDbEntity
  8
0
100
AcDbMText
 62
2
  6
CONTINUOUS
  7
STANDARD
 71
1
 72
1
 10
1763.0205016536
 20
759.8415454707
 30
0.0
 11
1.0
 21
0.0
 31
0.0
 73
2
 44
0.9
  1
30\P[1.2]
 40
16.002
 41
46.6377992565
  0
LINE
  5
27D
100
AcDbEntity
  8
0
100
AcDbLine
 62
2
  6
CONTINUOUS
 10
1696.0191231174
 20
784.9200699699
 11
1696.0191231174
 21
729.6155454707
  0
LINE
  5
27E
100
AcDbEntity
  8
0
100
AcDbLine
 62
2
  6
CONTINUOUS
 10
1726.0191231174
 20
827.565043441
 11
1726.0191231174
 21
729.6155454707
  0
LINE
  5
27F
100
AcDbEntity
  8
0
100
AcDbLine
 62
2
  6
CONTINUOUS
 10
1696.0191231174
 20
751.8405454707
 11
1668.0191231174
 21
751.8405454707
  0
LINE
  5
280
100
AcDbEntity
  8
0
100
AcDbLine
 62
2
  6
CONTINUOUS
 10
1726.0191231174
 20
751.8405454707
 11
1755.0195016536
 21
751.8405454707
  0
INSERT
  5
281
100
AcDbEntity
  8
0
100
AcDbBlockReference
 62
2
  6
CONTINUOUS
  2
_FILLED
 10
1696.0191231174
 20
751.8405454707
 41
14.0
 42
14.0
 43
14.0
  0
INSERT
  5
282
100
AcDbEntity
  8
0
100
AcDbBlockReference
 62
2
  6
CONTINUOUS
  2
_FILLED
 10
1726.0191231174
 20
751.8405454707
 41
14.0
 42
14.0
 43
14.0
 50
180.0
  0
ENDBLK
  5
283
100
AcDbEntity
  8
0
  6
BYBLOCK
 62
0
100
AcDbBlockEnd
  0
BLOCK
  5
284
100
AcDbEntity
  8
0
100
AcDbBlockBegin
 62
2
  6
CONTINUOUS
  2
*D4
 70
65
 10
0.0
 20
0.0
  3
*D4
  1

  0
MTEXT
  5
285
100
AcDbEntity
  8
0
100
AcDbMText
 62
2
  6
CONTINUOUS
  7
STANDARD
 71
2
 72
1
 10
1589.872923142
 20
769.7865714223
 30
0.0
 11
1.0
 21
0.0
 31
0.0
 73
2
 44
0.9
  1
60\P[2.4]
 40
16.002
 41
46.6377992565
  0
LINE
  5
286
100
AcDbEntity
  8
0
100
AcDbLine
 62
2
  6
CONTINUOUS
 10
1689.9066231174
 20
791.0325699699
 11
1578.59352909
 21
791.0325699699
  0
LINE
  5
287
100
AcDbEntity
  8
0
100
AcDbLine
 62
2
  6
CONTINUOUS
 10
1702.5515965885
 20
851.0325699699
 11
1578.59352909
 21
851.0325699699
  0
LINE
  5
288
100
AcDbEntity
  8
0
100
AcDbLine
 62
2
  6
CONTINUOUS
 10
1600.81852909
 20
791.0325699699
 11
1600.81852909
 21
821.0325699699
  0
LINE
  5
289
100
AcDbEntity
  8
0
100
AcDbLine
 62
2
  6
CONTINUOUS
 10
1600.81852909
 20
821.0325699699
 11
1600.81852909
 21
777.7875714223
  0
LINE
  5
28A
100
AcDbEntity
  8
0
100
AcDbLine
 62
2
  6
CONTINUOUS
 10
1600.81852909
 20
851.0325699699
 11
1600.81852909
 21
821.0325699699
  0
INSERT
  5
28B
100
AcDbEntity
  8
0
100
AcDbBlockReference
 62
2
  6
CONTINUOUS
  2
_FILLED
 10
1600.81852909
 20
791.0325699699
 41
14.0
 42
14.0
 43
14.0
 50
270.0
  0
INSERT
  5
28C
100
AcDbEntity
  8
0
100
AcDbBlockReference
 62
2
  6
CONTINUOUS
  2
_FILLED
 10
1600.81852909
 20
851.0325699699
 41
14.0
 42
14.0
 43
14.0
 50
90.0
  0
ENDBLK
  5
28D
100
AcDbEntity
  8
0
  6
BYBLOCK
 62
0
100
AcDbBlockEnd
  0
BLOCK
  5
28E
100
AcDbEntity
  8
0
100
AcDbBlockBegin
 62
2
  6
CONTINUOUS
  2
*D5
 70
65
 10
0.0
 20
0.0
  3
*D5
  1

  0
MTEXT
  5
28F
100
AcDbEntity
  8
0
100
AcDbMText
 62
2
  6
CONTINUOUS
  7
STANDARD
 71
2
 72
1
 10
1600.81852909
 20
963.3644005094
 30
0.0
 11
1.0
 21
0.0
 31
0.0
 73
2
 44
0.9
  1
40{\ftxt;\W0.0001;\H0.0001;\~}{\ftxt;\W1.3680297398;\H16.002; }TYP\P[1.6]
 40
16.002
 41
82.5679405204
  0
LINE
  5
290
100
AcDbEntity
  8
0
100
AcDbLine
 62
2
  6
CONTINUOUS
 10
1702.5515965885
 20
851.0325699699
 11
1578.59352909
 21
851.0325699699
  0
LINE
  5
291
100
AcDbEntity
  8
0
100
AcDbLine
 62
2
  6
CONTINUOUS
 10
1702.9818940494
 20
891.0325699699
 11
1578.59352909
 21
891.0325699699
  0
LINE
  5
292
100
AcDbEntity
  8
0
100
AcDbLine
 62
2
  6
CONTINUOUS
 10
1600.81852909
 20
851.0325699699
 11
1600.81852909
 21
871.0325699699
  0
LINE
  5
293
100
AcDbEntity
  8
0
100
AcDbLine
 62
2
  6
CONTINUOUS
 10
1600.81852909
 20
891.0325699699
 11
1600.81852909
 21
871.0325699699
  0
LINE
  5
294
100
AcDbEntity
  8
0
100
AcDbLine
 62
2
  6
CONTINUOUS
 10
1600.81852909
 20
871.0325699699
 11
1600.81852909
 21
911.0158592773
  0
INSERT
  5
295
100
AcDbEntity
  8
0
100
AcDbBlockReference
 62
2
  6
CONTINUOUS
  2
_FILLED
 10
1600.81852909
 20
851.0325699699
 41
14.0
 42
14.0
 43
14.0
 50
270.0
  0
INSERT
  5
296
100
AcDbEntity
  8
0
100
AcDbBlockReference
 62
2
  6
CONTINUOUS
  2
_FILLED
 10
1600.81852909
 20
891.0325699699
 41
14.0
 42
14.0
 43
14.0
 50
90.0
  0
ENDBLK
  5
297
100
AcDbEntity
  8
0
  6
BYBLOCK
 62
0
100
AcDbBlockEnd
  0
BLOCK
  5
298
100
AcDbEntity
  8
0
100
AcDbBlockBegin
 62
2
  6
CONTINUOUS
  2
*D6
 70
65
 10
0.0
 20
0.0
  3
*D6
  1

  0
MTEXT
  5
299
100
AcDbEntity
  8
0
100
AcDbMText
 62
2
  6
CONTINUOUS
  7
TEXTSTYLE_3
 71
1
 72
1
 10
1846.1268246406
 20
900.6410025533
 30
0.0
 11
1.0
 21
0.0
 31
0.0
 73
2
 44
0.9
  1
{\fgdt;n}\fCentury Gothic;{\W0.8;20}{\W0.8;{\ftxt;\W0.0001;\H0.0001;\~}{\ftxt;\W0.594795539;\H16.002; }TYP}\P{\W0.8;[}{\W0.8;.8}{\W0.8;]}
 40
16.002
 41
91.5306468401
  0
LINE
  5
29A
100
AcDbEntity
  8
0
100
AcDbLine
 62
2
  6
CONTINUOUS
 10
1734.7814926465
 20
855.8513748253
 11
1801.6768246406
 21
892.6400025533
  0
LINE
  5
29B
100
AcDbEntity
  8
0
100
AcDbLine
 62
2
  6
CONTINUOUS
 10
1801.6768246406
 20
892.6400025533
 11
1838.1258246406
 21
892.6400025533
  0
INSERT
  5
29C
100
AcDbEntity
  8
0
100
AcDbBlockReference
 62
2
  6
CONTINUOUS
  2
_FILLED
 10
1734.7814926465
 20
855.8513748253
 41
14.0
 42
14.0
 43
14.0
 50
208.8082916744
  0
ENDBLK
  5
29D
100
AcDbEntity
  8
0
  6
BYBLOCK
 62
0
100
AcDbBlockEnd
  0
BLOCK
  5
29E
100
AcDbEntity
  8
0
100
AcDbBlockBegin
 62
2
  6
CONTINUOUS
  2
*D7
 70
65
 10
0.0
 20
0.0
  3
*D7
  1

  0
MTEXT
  5
29F
100
AcDbEntity
  8
0
100
AcDbMText
 62
2
  6
CONTINUOUS
  7
STANDARD
 71
2
 72
1
 10
792.6214057175
 20
1099.0335699699
 30
0.0
 11
1.0
 21
0.0
 31
0.0
 73
2
 44
0.9
  1
600\P[23.6]
 40
16.002
 41
59.0110929368
  0
LINE
  5
2A0
100
AcDbEntity
  8
0
100
AcDbLine
 62
2
  6
CONTINUOUS
 10
870.4551618682
 20
791.0325699699
 11
781.3420116654
 21
791.0325699699
  0
LINE
  5
2A1
100
AcDbEntity
  8
0
100
AcDbLine
 62
2
  6
CONTINUOUS
 10
870.4551618682
 20
1391.0325699699
 11
781.3420116654
 21
1391.0325699699
  0
LINE
  5
2A2
100
AcDbEntity
  8
0
100
AcDbLine
 62
2
  6
CONTINUOUS
 10
803.5670116654
 20
791.0325699699
 11
803.5670116654
 21
1046.6850130676
  0
LINE
  5
2A3
100
AcDbEntity
  8
0
100
AcDbLine
 62
2
  6
CONTINUOUS
 10
803.5670116654
 20
1391.0325699699
 11
803.5670116654
 21
1107.0345699699
  0
INSERT
  5
2A4
100
AcDbEntity
  8
0
100
AcDbBlockReference
 62
2
  6
CONTINUOUS
  2
_FILLED
 10
803.5670116654
 20
791.0325699699
 41
14.0
 42
14.0
 43
14.0
 50
270.0
  0
INSERT
  5
2A5
100
AcDbEntity
  8
0
100
AcDbBlockReference
 62
2
  6
CONTINUOUS
  2
_FILLED
 10
803.5670116654
 20
1391.0325699699
 41
14.0
 42
14.0
 43
14.0
 50
90.0
  0
ENDBLK
  5
2A6
100
AcDbEntity
  8
0
  6
BYBLOCK
 62
0
100
AcDbBlockEnd
  0
BLOCK
  5
2A7
100
AcDbEntity
  8
0
100
AcDbBlockBegin
 62
2
  6
CONTINUOUS
  2
*D8
 70
65
 10
0.0
 20
0.0
  3
*D8
  1

  0
MTEXT
  5
2A8
100
AcDbEntity
  8
0
100
AcDbMText
 62
2
  6
CONTINUOUS
  7
STANDARD
 71
2
 72
1
 10
1422.2543607483
 20
1250.8835699699
 30
0.0
 11
1.0
 21
0.0
 31
0.0
 73
2
 44
0.9
  1
296,3\P[11.67]
 40
16.002
 41
71.3843866171
  0
LINE
  5
2A9
100
AcDbEntity
  8
0
100
AcDbLine
 62
2
  6
CONTINUOUS
 10
1367.6801618682
 20
1391.0325699699
 11
1452.3316432762
 21
1391.0325699699
  0
LINE
  5
2AA
100
AcDbEntity
  8
0
100
AcDbLine
 62
2
  6
CONTINUOUS
 10
1368.2449524873
 20
1094.7325699699
 11
1452.3316432762
 21
1094.7325699699
  0
LINE
  5
2AB
100
AcDbEntity
  8
0
100
AcDbLine
 62
2
  6
CONTINUOUS
 10
1430.1066432762
 20
1391.0325699699
 11
1430.1066432762
 21
1258.8845699699
  0
LINE
  5
2AC
100
AcDbEntity
  8
0
100
AcDbLine
 62
2
  6
CONTINUOUS
 10
1430.1066432762
 20
1094.7325699699
 11
1430.1066432762
 21
1198.535057489
  0
INSERT
  5
2AD
100
AcDbEntity
  8
0
100
AcDbBlockReference
 62
2
  6
CONTINUOUS
  2
_FILLED
 10
1430.1066432762
 20
1391.0325699699
 41
14.0
 42
14.0
 43
14.0
 50
90.0
  0
INSERT
  5
2AE
100
AcDbEntity
  8
0
100
AcDbBlockReference
 62
2
  6
CONTINUOUS
  2
_FILLED
 10
1430.1066432762
 20
1094.7325699699
 41
14.0
 42
14.0
 43
14.0
 50
270.0
  0
ENDBLK
  5
2AF
100
AcDbEntity
  8
0
  6
BYBLOCK
 62
0
100
AcDbBlockEnd
  0
BLOCK
  5
2B0
100
AcDbEntity
  8
0
100
AcDbBlockBegin
 62
2
  6
CONTINUOUS
  2
*D9
 70
65
 10
0.0
 20
0.0
  3
*D9
  1

  0
MTEXT
  5
2B1
100
AcDbEntity
  8
0
100
AcDbMText
 62
2
  6
CONTINUOUS
  7
STANDARD
 71
1
 72
1
 10
506.1693214293
 20
1458.4170907014
 30
0.0
 11
1.0
 21
0.0
 31
0.0
 73
2
 44
0.9
  1
45,2\P[1.78]
 40
16.002
 41
59.0110929368
  0
LINE
  5
2B2
100
AcDbEntity
  8
0
100
AcDbLine
 62
2
  6
CONTINUOUS
 10
475.4866235963
 20
1397.1450699699
 11
475.4866235963
 21
1472.6410907014
  0
LINE
  5
2B3
100
AcDbEntity
  8
0
100
AcDbLine
 62
2
  6
CONTINUOUS
 10
430.2866235963
 20
1105.8450699699
 11
430.2866235963
 21
1472.6410907014
  0
LINE
  5
2B4
100
AcDbEntity
  8
0
100
AcDbLine
 62
2
  6
CONTINUOUS
 10
475.4866235963
 20
1450.4160907014
 11
452.8866235963
 21
1450.4160907014
  0
LINE
  5
2B5
100
AcDbEntity
  8
0
100
AcDbLine
 62
2
  6
CONTINUOUS
 10
452.8866235963
 20
1450.4160907014
 11
498.1683214293
 21
1450.4160907014
  0
LINE
  5
2B6
100
AcDbEntity
  8
0
100
AcDbLine
 62
2
  6
CONTINUOUS
 10
430.2866235963
 20
1450.4160907014
 11
452.8866235963
 21
1450.4160907014
  0
INSERT
  5
2B7
100
AcDbEntity
  8
0
100
AcDbBlockReference
 62
2
  6
CONTINUOUS
  2
_FILLED
 10
475.4866235963
 20
1450.4160907014
 41
14.0
 42
14.0
 43
14.0
  0
INSERT
  5
2B8
100
AcDbEntity
  8
0
100
AcDbBlockReference
 62
2
  6
CONTINUOUS
  2
_FILLED
 10
430.2866235963
 20
1450.4160907014
 41
14.0
 42
14.0
 43
14.0
 50
180.0
  0
ENDBLK
  5
2B9
100
AcDbEntity
  8
0
  6
BYBLOCK
 62
0
100
AcDbBlockEnd
  0
BLOCK
  5
2BA
100
AcDbEntity
  8
0
100
AcDbBlockBegin
 62
2
  6
CONTINUOUS
  2
*D10
 70
65
 10
0.0
 20
0.0
  3
*D10
  1

  0
MTEXT
  5
2BB
100
AcDbEntity
  8
0
100
AcDbMText
 62
2
  6
CONTINUOUS
  7
STANDARD
 71
1
 72
1
 10
502.2908771156
 20
754.9962503288
 30
0.0
 11
1.0
 21
0.0
 31
0.0
 73
2
 44
0.9
  1
47\P[1.9]
 40
16.002
 41
46.6377992565
  0
LINE
  5
2BC
100
AcDbEntity
  8
0
100
AcDbLine
 62
2
  6
CONTINUOUS
 10
475.4866235963
 20
784.9200699699
 11
475.4866235963
 21
724.7702503288
  0
LINE
  5
2BD
100
AcDbEntity
  8
0
100
AcDbLine
 62
2
  6
CONTINUOUS
 10
428.4866235963
 20
828.4952542811
 11
428.4866235963
 21
724.7702503288
  0
LINE
  5
2BE
100
AcDbEntity
  8
0
100
AcDbLine
 62
2
  6
CONTINUOUS
 10
475.4866235963
 20
746.9952503288
 11
451.9866235963
 21
746.9952503288
  0
LINE
  5
2BF
100
AcDbEntity
  8
0
100
AcDbLine
 62
2
  6
CONTINUOUS
 10
451.9866235963
 20
746.9952503288
 11
494.2898771156
 21
746.9952503288
  0
LINE
  5
2C0
100
AcDbEntity
  8
0
100
AcDbLine
 62
2
  6
CONTINUOUS
 10
428.4866235963
 20
746.9952503288
 11
451.9866235963
 21
746.9952503288
  0
INSERT
  5
2C1
100
AcDbEntity
  8
0
100
AcDbBlockReference
 62
2
  6
CONTINUOUS
  2
_FILLED
 10
475.4866235963
 20
746.9952503288
 41
14.0
 42
14.0
 43
14.0
  0
INSERT
  5
2C2
100
AcDbEntity
  8
0
100
AcDbBlockReference
 62
2
  6
CONTINUOUS
  2
_FILLED
 10
428.4866235963
 20
746.9952503288
 41
14.0
 42
14.0
 43
14.0
 50
180.0
  0
ENDBLK
  5
2C3
100
AcDbEntity
  8
0
  6
BYBLOCK
 62
0
100
AcDbBlockEnd
  0
BLOCK
  5
2C4
100
AcDbEntity
  8
0
100
AcDbBlockBegin
 62
2
  6
CONTINUOUS
  2
*D11
 70
65
 10
0.0
 20
0.0
  3
*D11
  1

  0
MTEXT
  5
2C5
100
AcDbEntity
  8
0
100
AcDbMText
 62
2
  6
CONTINUOUS
  7
STANDARD
 71
2
 72
1
 10
551.6475313264
 20
843.9938673578
 30
0.0
 11
1.0
 21
0.0
 31
0.0
 73
2
 44
0.9
  1
60\P[2.4]
 40
16.002
 41
46.6377992565
  0
LINE
  5
2C6
100
AcDbEntity
  8
0
100
AcDbLine
 62
2
  6
CONTINUOUS
 10
481.5991235963
 20
791.0325699699
 11
584.8181372743
 21
791.0325699699
  0
LINE
  5
2C7
100
AcDbEntity
  8
0
100
AcDbLine
 62
2
  6
CONTINUOUS
 10
451.0239392851
 20
851.0325699699
 11
584.8181372743
 21
851.0325699699
  0
LINE
  5
2C8
100
AcDbEntity
  8
0
100
AcDbLine
 62
2
  6
CONTINUOUS
 10
562.5931372743
 20
791.0325699699
 11
562.5931372743
 21
763.0325699699
  0
LINE
  5
2C9
100
AcDbEntity
  8
0
100
AcDbLine
 62
2
  6
CONTINUOUS
 10
562.5931372743
 20
851.0325699699
 11
562.5931372743
 21
879.0325699699
  0
INSERT
  5
2CA
100
AcDbEntity
  8
0
100
AcDbBlockReference
 62
2
  6
CONTINUOUS
  2
_FILLED
 10
562.5931372743
 20
791.0325699699
 41
14.0
 42
14.0
 43
14.0
 50
90.0
  0
INSERT
  5
2CB
100
AcDbEntity
  8
0
100
AcDbBlockReference
 62
2
  6
CONTINUOUS
  2
_FILLED
 10
562.5931372743
 20
851.0325699699
 41
14.0
 42
14.0
 43
14.0
 50
270.0
  0
ENDBLK
  5
2CC
100
AcDbEntity
  8
0
  6
BYBLOCK
 62
0
100
AcDbBlockEnd
  0
BLOCK
  5
2CD
100
AcDbEntity
  8
0
100
AcDbBlockBegin
 62
2
  6
CONTINUOUS
  2
*D12
 70
65
 10
0.0
 20
0.0
  3
*D12
  1

  0
MTEXT
  5
2CE
100
AcDbEntity
  8
0
100
AcDbMText
 62
2
  6
CONTINUOUS
  7
STANDARD
 71
2
 72
1
 10
328.3244903799
 20
960.6022206187
 30
0.0
 11
1.0
 21
0.0
 31
0.0
 73
2
 44
0.9
  1
40{\ftxt;\W0.0001;\H0.0001;\~}{\ftxt;\W1.3680297398;\H16.002; }TYP\P[1.6]
 40
16.002
 41
82.5679405204
  0
LINE
  5
2CF
100
AcDbEntity
  8
0
100
AcDbLine
 62
2
  6
CONTINUOUS
 10
405.3067303659
 20
891.0325699699
 11
306.0994903799
 21
891.0325699699
  0
LINE
  5
2D0
100
AcDbEntity
  8
0
100
AcDbLine
 62
2
  6
CONTINUOUS
 10
405.9493079075
 20
851.0325699699
 11
306.0994903799
 21
851.0325699699
  0
LINE
  5
2D1
100
AcDbEntity
  8
0
100
AcDbLine
 62
2
  6
CONTINUOUS
 10
328.3244903799
 20
891.0325699699
 11
328.3244903799
 21
871.0325699699
  0
LINE
  5
2D2
100
AcDbEntity
  8
0
100
AcDbLine
 62
2
  6
CONTINUOUS
 10
328.3244903799
 20
871.0325699699
 11
328.3244903799
 21
908.2536596619
  0
LINE
  5
2D3
100
AcDbEntity
  8
0
100
AcDbLine
 62
2
  6
CONTINUOUS
 10
328.3244903799
 20
851.0325699699
 11
328.3244903799
 21
871.0325699699
  0
INSERT
  5
2D4
100
AcDbEntity
  8
0
100
AcDbBlockReference
 62
2
  6
CONTINUOUS
  2
_FILLED
 10
328.3244903799
 20
891.0325699699
 41
14.0
 42
14.0
 43
14.0
 50
90.0
  0
INSERT
  5
2D5
100
AcDbEntity
  8
0
100
AcDbBlockReference
 62
2
  6
CONTINUOUS
  2
_FILLED
 10
328.3244903799
 20
851.0325699699
 41
14.0
 42
14.0
 43
14.0
 50
270.0
  0
ENDBLK
  5
2D6
100
AcDbEntity
  8
0
  6
BYBLOCK
 62
0
100
AcDbBlockEnd
  0
BLOCK
  5
2D7
100
AcDbEntity
  8
0
100
AcDbBlockBegin
 62
2
  6
CONTINUOUS
  2
*D13
 70
65
 10
0.0
 20
0.0
  3
*D13
  1

  0
MTEXT
  5
2D8
100
AcDbEntity
  8
0
100
AcDbMText
 62
2
  6
CONTINUOUS
  7
TEXTSTYLE_3
 71
1
 72
1
 10
543.625492136
 20
957.3380651419
 30
0.0
 11
1.0
 21
0.0
 31
0.0
 73
2
 44
0.9
  1
{\fgdt;n}\fCentury Gothic;{\W0.8;20}{\W0.8;{\ftxt;\W0.0001;\H0.0001;\~}{\ftxt;\W0.594795539;\H16.002; }TYP}\P{\W0.8;[}{\W0.8;.8}{\W0.8;]}
 40
16.002
 41
91.5306468401
  0
LINE
  5
2D9
100
AcDbEntity
  8
0
100
AcDbLine
 62
2
  6
CONTINUOUS
 10
436.201096769
 20
897.3955019723
 11
499.175492136
 21
949.3370651419
  0
LINE
  5
2DA
100
AcDbEntity
  8
0
100
AcDbLine
 62
2
  6
CONTINUOUS
 10
499.175492136
 20
949.3370651419
 11
535.624492136
 21
949.3370651419
  0
INSERT
  5
2DB
100
AcDbEntity
  8
0
100
AcDbBlockReference
 62
2
  6
CONTINUOUS
  2
_FILLED
 10
436.201096769
 20
897.3955019723
 41
14.0
 42
14.0
 43
14.0
 50
219.515964836
  0
ENDBLK
  5
2DC
100
AcDbEntity
  8
0
  6
BYBLOCK
 62
0
100
AcDbBlockEnd
  0
ENDSEC
  0
SECTION
  2
ENTITIES
  0
MTEXT
  5
2DD
100
AcDbEntity
  8
0
100
AcDbMText
 62
2
  6
CONTINUOUS
  7
TEXTSTYLE_2
 71
1
 72
1
 10
40.3745034536
 20
303.6566917541
 30
0.0
 11
1.0
 21
0.0
 31
0.0
 73
2
 44
1.0
  1
A
 40
16.66875
 41
17.1644749071
  0
MTEXT
  5
2DE
100
AcDbEntity
  8
0
100
AcDbMText
 62
2
  6
CONTINUOUS
  7
TEXTSTYLE_2
 71
1
 72
1
 10
40.3086513253
 20
761.2617005423
 30
0.0
 11
1.0
 21
0.0
 31
0.0
 73
2
 44
1.0
  1
B
 40
16.66875
 41
13.3226068773
  0
MTEXT
  5
2DF
100
AcDbEntity
  8
0
100
AcDbMText
 62
2
  6
CONTINUOUS
  7
TEXTSTYLE_2
 71
1
 72
1
 10
40.3118413982
 20
1218.9509852817
 30
0.0
 11
1.0
 21
0.0
 31
0.0
 73
2
 44
1.0
  1
C
 40
16.66875
 41
18.8995120818
  0
MTEXT
  5
2E0
100
AcDbEntity
  8
0
100
AcDbMText
 62
2
  6
CONTINUOUS
  7
TEXTSTYLE_2
 71
1
 72
1
 10
40.2774932928
 20
1676.8160673386
 30
0.0
 11
1.0
 21
0.0
 31
0.0
 73
2
 44
1.0
  1
D
 40
16.66875
 41
17.2884061338
  0
MTEXT
  5
2E1
100
AcDbEntity
  8
0
100
AcDbMText
 62
2
  6
CONTINUOUS
  7
TEXTSTYLE_2
 71
1
 72
1
 10
2552.9578536462
 20
82.716558623
 30
0.0
 11
1.0
 21
0.0
 31
0.0
 73
2
 44
1.0000002
  1
SCALE:  
 40
9.260419
 41
50.0888834387
  0
MTEXT
  5
2E2
100
AcDbEntity
  8
0
100
AcDbMText
 62
2
  6
CONTINUOUS
  7
TEXTSTYLE_2
 71
1
 72
1
 10
2553.7240926807
 20
129.9825611504
 30
0.0
 11
1.0
 21
0.0
 31
0.0
 73
2
 44
1.0000002
  1
SIZE
 40
9.260419
 41
22.4797531859
  0
MTEXT
  5
2E3
100
AcDbEntity
  8
0
100
AcDbMText
 62
2
  6
CONTINUOUS
  7
TEXTSTYLE_2
 71
1
 72
1
 10
2635.6296868426
 20
82.0535029151
 30
0.0
 11
1.0
 21
0.0
 31
0.0
 73
2
 44
1.0000002
  1
CAD FILE:                   
 40
9.324
 41
127.763063197
  0
MTEXT
  5
2E4
100
AcDbEntity
  8
0
100
AcDbMText
 62
2
  6
CONTINUOUS
  7
TEXTSTYLE_2
 71
1
 72
1
 10
2670.2782506169
 20
129.6593713842
 30
0.0
 11
1.0
 21
0.0
 31
0.0
 73
2
 44
1.0000002
  1
DWG. NO.
 40
9.260419
 41
64.7540823011
  0
MTEXT
  5
2E5
100
AcDbEntity
  8
0
100
AcDbMText
 62
2
  6
CONTINUOUS
  7
TEXTSTYLE_2
 71
1
 72
1
 10
2559.3238130919
 20
109.5754573962
 30
0.0
 11
1.0
 21
0.0
 31
0.0
 73
2
 44
1.0000002
  1
B
 40
12.964581
 41
10.3620257063
  0
MTEXT
  5
2E6
100
AcDbEntity
  8
0
100
AcDbMText
 62
2
  6
CONTINUOUS
  7
TEXTSTYLE_2
 71
1
 72
1
 10
2842.8041489133
 20
82.3967088268
 30
0.0
 11
1.0
 21
0.0
 31
0.0
 73
2
 44
1.0000002
  1
SHEET:
 40
9.260419
 41
38.1777125316
  0
MTEXT
  5
2E7
100
AcDbEntity
  8
0
100
AcDbMText
 62
2
  6
CONTINUOUS
  7
TEXTSTYLE_2
 71
1
 72
1
 10
2312.4016776869
 20
248.1633916863
 30
0.0
 11
1.0
 21
0.0
 31
0.0
 73
2
 44
1.0000002
  1
DRAWN BY
 40
9.260419
 41
67.5425356059
  0
MTEXT
  5
2E8
100
AcDbEntity
  8
0
100
AcDbMText
 62
2
  6
CONTINUOUS
  7
TEXTSTYLE_2
 71
1
 72
1
 10
2313.3410314312
 20
201.1960021189
 30
0.0
 11
1.0
 21
0.0
 31
0.0
 73
2
 44
1.0000002
  1
MECH ENGINEER
 40
9.260419
 41
103.5514511227
  0
MTEXT
  5
2E9
100
AcDbEntity
  8
0
100
AcDbMText
 62
2
  6
CONTINUOUS
  7
TEXTSTYLE_2
 71
1
 72
1
 10
2313.3410314312
 20
154.1946164499
 30
0.0
 11
1.0
 21
0.0
 31
0.0
 73
2
 44
1.0000002
  1
TECH DIRECTOR
 40
9.260419
 41
97.6991417175
  0
MTEXT
  5
2EA
100
AcDbEntity
  8
0
100
AcDbMText
 62
2
  6
CONTINUOUS
  7
TEXTSTYLE_2
 71
1
 72
1
 10
2313.3410314312
 20
106.4374584489
 30
0.0
 11
1.0
 21
0.0
 31
0.0
 73
2
 44
1.0000002
  1
MFG ENGINEER
 40
9.260419
 41
94.8418377138
  0
MTEXT
  5
2EB
100
AcDbEntity
  8
0
100
AcDbMText
 62
2
  6
CONTINUOUS
  7
TEXTSTYLE_2
 71
1
 72
1
 10
2098.9511706866
 20
261.3748716741
 30
0.0
 11
1.0
 21
0.0
 31
0.0
 73
2
 44
1.0000002
  1
DECIMALS                    ANGLES
 40
9.260419
 41
185.0018279033
  0
MTEXT
  5
2EC
100
AcDbEntity
  8
0
100
AcDbMText
 62
2
  6
CONTINUOUS
  7
TEXTSTYLE_2
 71
1
 72
1
 10
2075.4214568299
 20
189.5514654903
 30
0.0
 11
1.0
 21
0.0
 31
0.0
 73
2
 44
1.0000002
  1
MATERIAL
 40
9.260419
 41
60.1066601264
  0
MTEXT
  5
2ED
100
AcDbEntity
  8
0
100
AcDbMText
 62
2
  6
CONTINUOUS
  7
TEXTSTYLE_2
 71
1
 72
1
 10
2076.0567114954
 20
157.150378227
 30
0.0
 11
1.0
 21
0.0
 31
0.0
 73
2
 44
1.0000002
  1
FINISH
 40
9.260419
 41
36.9039746022
  0
MTEXT
  5
2EE
100
AcDbEntity
  8
0
100
AcDbMText
 62
2
  6
CONTINUOUS
  7
TEXTSTYLE_2
 71
1
 72
1
 10
2088.1563778011
 20
120.3232029451
 30
0.0
 11
1.0
 21
0.0
 31
0.0
 73
2
 44
1.0000002
  1
DO  NOT  SCALE  DRAWING
 40
11.1125
 41
205.2301115242
  0
MTEXT
  5
2EF
100
AcDbEntity
  8
0
100
AcDbMText
 62
2
  6
CONTINUOUS
  7
TEXTSTYLE_2
 71
1
 72
1
 10
2773.5041618127
 20
61.3970248755
 30
0.0
 11
1.0
 21
0.0
 31
0.0
 73
2
 44
1.0
  1
1
 40
16.66875
 41
12.8888475836
  0
MTEXT
  5
2F0
100
AcDbEntity
  8
0
100
AcDbMText
 62
2
  6
CONTINUOUS
  7
TEXTSTYLE_2
 71
1
 72
1
 10
2411.1556789646
 20
61.9760188505
 30
0.0
 11
1.0
 21
0.0
 31
0.0
 73
2
 44
1.0
  1
2
 40
16.66875
 41
12.8888475836
  0
MTEXT
  5
2F1
100
AcDbEntity
  8
0
100
AcDbMText
 62
2
  6
CONTINUOUS
  7
TEXTSTYLE_2
 71
1
 72
1
 10
2048.5675259291
 20
61.606870704
 30
0.0
 11
1.0
 21
0.0
 31
0.0
 73
2
 44
1.0
  1
3
 40
16.66875
 41
12.8888475836
  0
MTEXT
  5
2F2
100
AcDbEntity
  8
0
100
AcDbMText
 62
2
  6
CONTINUOUS
  7
TEXTSTYLE_2
 71
1
 72
1
 10
1686.5604001012
 20
61.8229317618
 30
0.0
 11
1.0
 21
0.0
 31
0.0
 73
2
 44
1.0
  1
4
 40
16.66875
 41
12.8888475836
  0
MTEXT
  5
2F3
100
AcDbEntity
  8
0
100
AcDbMText
 62
2
  6
CONTINUOUS
  7
TEXTSTYLE_2
 71
1
 72
1
 10
1324.5897038392
 20
61.6390648037
 30
0.0
 11
1.0
 21
0.0
 31
0.0
 73
2
 44
1.0
  1
5
 40
16.66875
 41
12.8888475836
  0
MTEXT
  5
2F4
100
AcDbEntity
  8
0
100
AcDbMText
 62
2
  6
CONTINUOUS
  7
TEXTSTYLE_2
 71
1
 72
1
 10
962.2785002436
 20
62.1337250551
 30
0.0
 11
1.0
 21
0.0
 31
0.0
 73
2
 44
1.0
  1
6
 40
16.66875
 41
12.8888475836
  0
MTEXT
  5
2F5
100
AcDbEntity
  8
0
100
AcDbMText
 62
2
  6
CONTINUOUS
  7
TEXTSTYLE_2
 71
1
 72
1
 10
599.8896070745
 20
61.8487268269
 30
0.0
 11
1.0
 21
0.0
 31
0.0
 73
2
 44
1.0
  1
7
 40
16.66875
 41
12.8888475836
  0
MTEXT
  5
2F6
100
AcDbEntity
  8
0
100
AcDbMText
 62
2
  6
CONTINUOUS
  7
TEXTSTYLE_2
 71
1
 72
1
 10
237.3502877589
 20
61.5957348296
 30
0.0
 11
1.0
 21
0.0
 31
0.0
 73
2
 44
1.0
  1
8
 40
16.66875
 41
12.8888475836
  0
MTEXT
  5
2F7
100
AcDbEntity
  8
0
100
AcDbMText
 62
2
  6
CONTINUOUS
  7
TEXTSTYLE_2
 71
1
 72
1
 10
242.3835877543
 20
1915.3294828186
 30
0.0
 11
1.0
 21
0.0
 31
0.0
 73
2
 44
1.0000002
  1
8
 40
16.66875
 41
12.8888475836
  0
MTEXT
  5
2F8
100
AcDbEntity
  8
0
100
AcDbMText
 62
2
  6
CONTINUOUS
  7
TEXTSTYLE_2
 71
1
 72
1
 10
2074.8878890239
 20
86.8591506294
 30
0.0
 11
1.0
 21
0.0
 31
0.0
 73
2
 44
1.0000002
  1
PROJECTION SYMBOL
 40
10.99
 41
158.6400371747
  0
MTEXT
  5
2F9
100
AcDbEntity
  8
0
100
AcDbMText
 62
2
  6
CONTINUOUS
  7
TEXTSTYLE_2
 71
1
 72
1
 10
2388.0889038718
 20
267.6958490779
 30
0.0
 11
1.0
 21
0.0
 31
0.0
 73
2
 44
1.0000002
  1
APPROVALS
 40
9.260419
 41
74.8751350372
  0
MTEXT
  5
2FA
100
AcDbEntity
  8
0
100
AcDbMText
 62
2
  6
CONTINUOUS
  7
TEXTSTYLE_2
 71
1
 72
1
 10
600.4708980764
 20
1915.4859688681
 30
0.0
 11
1.0
 21
0.0
 31
0.0
 73
2
 44
1.0000002
  1
7
 40
16.66875
 41
12.8888475836
  0
MTEXT
  5
2FB
100
AcDbEntity
  8
0
100
AcDbMText
 62
2
  6
CONTINUOUS
  7
TEXTSTYLE_2
 71
1
 72
1
 10
1324.6263141787
 20
1914.7865611199
 30
0.0
 11
1.0
 21
0.0
 31
0.0
 73
2
 44
1.0
  1
5
 40
16.66875
 41
12.8888475836
  0
MTEXT
  5
2FC
100
AcDbEntity
  8
0
100
AcDbMText
 62
2
  6
CONTINUOUS
  7
TEXTSTYLE_2
 71
1
 72
1
 10
1686.8341264814
 20
1914.8461199507
 30
0.0
 11
1.0
 21
0.0
 31
0.0
 73
2
 44
1.0
  1
4
 40
16.66875
 41
12.8888475836
  0
MTEXT
  5
2FD
100
AcDbEntity
  8
0
100
AcDbMText
 62
2
  6
CONTINUOUS
  7
TEXTSTYLE_2
 71
1
 72
1
 10
2048.8975115564
 20
1914.8030973452
 30
0.0
 11
1.0
 21
0.0
 31
0.0
 73
2
 44
1.0
  1
3
 40
16.66875
 41
12.8888475836
  0
MTEXT
  5
2FE
100
AcDbEntity
  8
0
100
AcDbMText
 62
2
  6
CONTINUOUS
  7
TEXTSTYLE_2
 71
1
 72
1
 10
2411.2658158523
 20
1915.1724403416
 30
0.0
 11
1.0
 21
0.0
 31
0.0
 73
2
 44
1.0
  1
2
 40
16.66875
 41
12.8888475836
  0
MTEXT
  5
2FF
100
AcDbEntity
  8
0
100
AcDbMText
 62
2
  6
CONTINUOUS
  7
TEXTSTYLE_2
 71
1
 72
1
 10
2774.1742989566
 20
1915.3174240161
 30
0.0
 11
1.0
 21
0.0
 31
0.0
 73
2
 44
1.0
  1
1
 40
16.66875
 41
12.8888475836
  0
MTEXT
  5
300
100
AcDbEntity
  8
0
100
AcDbMText
 62
2
  6
CONTINUOUS
  7
TEXTSTYLE_2
 71
1
 72
1
 10
2966.8758878287
 20
1676.3235167248
 30
0.0
 11
1.0
 21
0.0
 31
0.0
 73
2
 44
1.0
  1
D
 40
16.66875
 41
17.2884061338
  0
MTEXT
  5
301
100
AcDbEntity
  8
0
100
AcDbMText
 62
2
  6
CONTINUOUS
  7
TEXTSTYLE_2
 71
1
 72
1
 10
2965.0314962727
 20
1218.8422923134
 30
0.0
 11
1.0
 21
0.0
 31
0.0
 73
2
 44
1.0
  1
C
 40
16.66875
 41
18.8995120818
  0
MTEXT
  5
302
100
AcDbEntity
  8
0
100
AcDbMText
 62
2
  6
CONTINUOUS
  7
TEXTSTYLE_2
 71
1
 72
1
 10
2970.1192902532
 20
760.587534946
 30
0.0
 11
1.0
 21
0.0
 31
0.0
 73
2
 44
1.0
  1
B
 40
16.66875
 41
13.3226068773
  0
MTEXT
  5
303
100
AcDbEntity
  8
0
100
AcDbMText
 62
2
  6
CONTINUOUS
  7
TEXTSTYLE_2
 71
1
 72
1
 10
2966.459182518
 20
303.0332684956
 30
0.0
 11
1.0
 21
0.0
 31
0.0
 73
2
 44
1.0
  1
A
 40
16.66875
 41
17.1644749071
  0
MTEXT
  5
304
100
AcDbEntity
  8
0
100
AcDbMText
 62
2
  6
CONTINUOUS
  7
TEXTSTYLE_2
 71
1
 72
1
 10
2076.5829641847
 20
325.4916888856
 30
0.0
 11
1.0
 21
0.0
 31
0.0
 73
2
 44
1.2
  1
UNLESS  OTHERWISE  SPECIFIED\PDIMENSIONS ARE IN MM [IN]\PTOLERANCES ARE:
 40
11.1125
 41
224.6460037175
  0
MTEXT
  5
305
100
AcDbEntity
  8
0
100
AcDbMText
 62
2
  6
CONTINUOUS
  7
TEXTSTYLE_2
 71
1
 72
1
 10
2318.3083531729
 20
320.2319976169
 30
0.0
 11
1.0
 21
0.0
 31
0.0
 73
2
 44
1.0000002
  1
CAD GENERATED DRAWING\PDO NOT MANUALLY UPDATE
 40
11.1125
 41
208.8241171004
  0
MTEXT
  5
306
100
AcDbEntity
  8
0
100
AcDbMText
 62
2
  6
CONTINUOUS
  7
TEXTSTYLE_2
 71
1
 72
1
 10
2912.8856343219
 20
129.9754163027
 30
0.0
 11
1.0
 21
0.0
 31
0.0
 73
2
 44
1.0000002
  1
REV
 40
9.260419
 41
23.8223418141
  0
MTEXT
  5
307
100
AcDbEntity
  8
0
100
AcDbMText
 62
2
  6
CONTINUOUS
  7
TEXTSTYLE_2
 71
1
 72
1
 10
962.2993549432
 20
1915.0461316682
 30
0.0
 11
1.0
 21
0.0
 31
0.0
 73
2
 44
1.0
  1
6
 40
16.66875
 41
12.8888475836
  0
MTEXT
  5
308
100
AcDbEntity
  8
0
100
AcDbMText
 62
2
  6
CONTINUOUS
  7
TEXTSTYLE_2
 71
1
 72
1
 10
2583.1446925312
 20
129.2028845159
 30
0.0
 11
1.0
 21
0.0
 31
0.0
 73
2
 44
1.0000002
  1
CAGE CODE
 40
9.260419
 41
80.0389374535
  0
MTEXT
  5
309
100
AcDbEntity
  8
0
100
AcDbMText
 62
2
  6
CONTINUOUS
  7
TEXTSTYLE_2
 71
1
 72
1
 10
2594.8838130919
 20
109.5754573962
 30
0.0
 11
1.0
 21
0.0
 31
0.0
 73
2
 44
1.0000002
  1
00PW4
 40
12.964581
 41
58.1237348922
  0
MTEXT
  5
30A
100
AcDbEntity
  8
0
100
AcDbMText
 62
2
  6
CONTINUOUS
  7
TEXTSTYLE_2
 71
1
 72
1
 10
2735.9021554078
 20
300.3993099355
 30
0.0
 11
1.0
 21
0.0
 31
0.0
 73
2
 44
1.0000002
  1
1675 MACARTHUR BOULEVARD\PCOSTA MESA, CA 92626 USA
 40
10.668
 41
220.8950185874
  0
MTEXT
  5
30B
100
AcDbEntity
  8
0
100
AcDbMText
 62
2
  6
CONTINUOUS
  7
TEXTSTYLE_2
 71
1
 72
1
 10
2737.4072578954
 20
325.5492332445
 30
0.0
 11
1.0
 21
0.0
 31
0.0
 73
2
 44
1.0000002
  1
QSC, LLC
 40
17.78
 41
110.9101858736
  0
MTEXT
  5
30C
100
AcDbEntity
  8
0
100
AcDbMText
 62
2
  6
CONTINUOUS
  7
TEXTSTYLE_2
 71
3
 72
1
 10
2958.6528719899
 20
51.9033396059
 30
0.0
 11
1.0
 21
0.0
 31
0.0
 73
2
 44
1.0000002
  1
Form: QMS100206 Rev C
 40
7.0
 41
114.5241635688
  0
MTEXT
  5
30D
100
AcDbEntity
  8
0
100
AcDbMText
 62
2
  6
CONTINUOUS
  7
TEXTSTYLE_2
 71
1
 72
1
 10
67.2474094416
 20
1889.9354049248
 30
0.0
 11
1.0
 21
0.0
 31
0.0
 73
2
 44
1.0000002
  3
THIS DOCUMENT CONTAINS CONFIDENTIAL OR PROPRIETARY INFORMATION \PWHICH IS THE PROPERTY OF QSC, LLC, THAT MAY NOT BE DISCLOSED, \PREPRODUCED OR USED WITHOUT EXPRESS WRITTEN CONSENT FROM QSC, \PLLC. NO PORTION OF THIS DOCUMENT MAY BE REPRODUCED,\PREDIS
  1
TRUBUTED, OR OTHERWISE DISCLOSED TO ANY THIRD PARTY WITHOUT \PQSC'S WRITTEN PERMISSION.
 40
9.260419
 41
468.081476368
  0
HATCH
  5
30E
100
AcDbEntity
  8
0
100
AcDbHatch
 62
2
  6
CONTINUOUS
 10
0.0
 20
0.0
 30
0.0
210
0.0
220
0.0
230
1.0
  2
A
 70
0
 71
0
 91
2
 92
1
 93
12
 72
1
 10
459.4866235963
 20
1355.0325699699
 11
470.4866235963
 21
1355.0325699699
 72
1
 10
459.4866235963
 20
1388.0325699699
 11
459.4866235963
 21
1355.0325699699
 72
1
 10
372.4866235963
 20
1388.0325699699
 11
459.4866235963
 21
1388.0325699699
 72
2
 10
372.4866235963
 20
1386.0325699699
 40
2.0
 50
90.0
 51
180.0
 73
1
 72
1
 10
370.4866235963
 20
1358.0325699699
 11
370.4866235963
 21
1386.0325699699
 72
1
 10
367.4866235963
 20
1358.0325699699
 11
370.4866235963
 21
1358.0325699699
 72
1
 10
367.4866235963
 20
1386.0325699699
 11
367.4866235963
 21
1358.0325699699
 72
2
 10
372.4866235963
 20
1386.0325699699
 40
5.0
 50
90.0
 51
180.0
 73
1
 72
1
 10
470.4866235963
 20
1391.0325699699
 11
372.4866235963
 21
1391.0325699699
 72
2
 10
470.4866235963
 20
1386.0325699699
 40
5.0
 50
0.0
 51
90.0
 73
1
 72
1
 10
475.4866235963
 20
1360.0325699699
 11
475.4866235963
 21
1386.0325699699
 72
2
 10
470.4866235963
 20
1360.0325699699
 40
5.0
 50
-90.0
 51
0.0
 73
1
 97
0
 92
1
 93
12
 72
1
 10
475.4866235963
 20
796.0325699699
 11
475.4866235963
 21
822.0325699699
 72
2
 10
470.4866235963
 20
796.0325699699
 40
5.0
 50
-90.0
 51
0.0
 73
1
 72
1
 10
395.4866235963
 20
791.0325699699
 11
470.4866235963
 21
791.0325699699
 72
2
 10
395.4866235963
 20
796.0325699699
 40
5.0
 50
180.0
 51
270.0
 73
1
 72
1
 10
390.4866235963
 20
844.0325699699
 11
390.4866235963
 21
796.0325699699
 72
1
 10
393.4866235963
 20
844.0325699699
 11
390.4866235963
 21
844.0325699699
 72
1
 10
393.4866235963
 20
796.0325699699
 11
393.4866235963
 21
844.0325699699
 72
2
 10
395.4866235963
 20
796.0325699699
 40
2.0
 50
180.0
 51
270.0
 73
1
 72
1
 10
459.4866235963
 20
794.0325699699
 11
395.4866235963
 21
794.0325699699
 72
1
 10
459.4866235963
 20
827.0325699699
 11
459.4866235963
 21
794.0325699699
 72
1
 10
470.4866235963
 20
827.0325699699
 11
459.4866235963
 21
827.0325699699
 72
2
 10
470.4866235963
 20
822.0325699699
 40
5.0
 50
0.0
 51
90.0
 73
1
 97
0
 75
0
 76
0
 52
45.0
 41
36.9430769882
 77
0
 78
1
 53
45.0
 43
0.0
 44
0.0
 45
-26.1227002563
 46
26.1227002563
 79
0
 98
1
 10
0.0
 20
0.0
  0
MTEXT
  5
30F
100
AcDbEntity
  8
0
100
AcDbMText
 62
7
  6
CONTINUOUS
  7
STANDARD
 71
1
 72
1
 10
1154.6269831377
 20
1466.2457727674
 30
0.0
 11
1.0
 21
0.0
 31
0.0
 73
2
 44
0.9
  1
A
 40
28.0
 41
28.8327137546
  0
LEADER
  5
310
100
AcDbEntity
  8
0
100
AcDbLeader
 62
7
  6
CONTINUOUS
  3
STANDARD
 71
1
 72
0
 73
3
 75
0
 76
2
 10
1149.2143437325
 20
1452.2457727674
 30
0.0
 10
1061.5676618682
 20
1452.2457727674
 30
0.0
1001
ACAD
1000
DSTYLE
1002
{
1070
77
1070
0
1070
341
1005
215
1070
41
1040
44.45
1002
}
  0
MTEXT
  5
311
100
AcDbEntity
  8
0
100
AcDbMText
 62
7
  6
CONTINUOUS
  7
STANDARD
 71
1
 72
1
 10
1145.4048969557
 20
714.2688100039
 30
0.0
 11
1.0
 21
0.0
 31
0.0
 73
2
 44
0.9
  1
A
 40
28.0
 41
28.8327137546
  0
LEADER
  5
312
100
AcDbEntity
  8
0
100
AcDbLeader
 62
7
  6
CONTINUOUS
  3
STANDARD
 71
1
 72
0
 73
3
 75
0
 76
2
 10
1139.9922575505
 20
700.2688100039
 30
0.0
 10
1061.5676618682
 20
700.2688100039
 30
0.0
1001
ACAD
1000
DSTYLE
1002
{
1070
77
1070
0
1070
341
1005
215
1070
41
1040
44.45
1002
}
  0
DIMENSION
  5
313
100
AcDbEntity
  8
0
100
AcDbDimension
 62
2
  6
CONTINUOUS
  2
*D0
 10
881.5676618682
 20
547.3578896294
 11
1119.0676618682
 21
535.3563896294
 70
160
 71
2
 72
2
 41
0.9
 42
475.0
  1
<>\P[]
  3
DIMSTYLE_1
100
AcDbAlignedDimension
 13
1356.5676618682
 23
459.7497507683
 14
881.5676618682
 24
459.7497507683
 50
180.0
100
AcDbRotatedDimension
  0
DIMENSION
  5
314
100
AcDbEntity
  8
0
100
AcDbDimension
 62
2
  6
CONTINUOUS
  2
*D1
 10
1696.0191231174
 20
1458.0103043837
 11
1638.7112810491
 21
1446.0088043837
 70
160
 71
3
 72
2
 41
0.9
 42
86.5
  1
<>\P[]
  3
DIMSTYLE_2
100
AcDbAlignedDimension
 13
1782.5191231174
 23
1400.5575699699
 14
1696.0191231174
 24
1395.5575699699
 50
180.0
100
AcDbRotatedDimension
  0
DIMENSION
  5
315
100
AcDbEntity
  8
0
100
AcDbDimension
 62
2
  6
CONTINUOUS
  2
*D2
 10
1804.0191231174
 20
1505.4146362724
 11
1866.4832659796
 21
1493.4131362724
 70
160
 71
1
 72
2
 41
0.9
 42
108.0
  1
<>\P[]
  3
DIMSTYLE_1
100
AcDbAlignedDimension
 13
1696.0191231174
 23
1395.5575699699
 14
1804.0191231174
 24
1395.5575699699
100
AcDbRotatedDimension
  0
DIMENSION
  5
316
100
AcDbEntity
  8
0
100
AcDbDimension
 62
2
  6
CONTINUOUS
  2
*D3
 10
1726.0191231174
 20
751.8405454707
 11
1786.3394012818
 21
739.8390454707
 70
160
 71
1
 72
2
 41
0.9
 42
30.0
  1
<>\P[]
  3
DIMSTYLE_1
100
AcDbAlignedDimension
 13
1696.0191231174
 23
786.5075699699
 14
1726.0191231174
 24
829.152543441
100
AcDbRotatedDimension
  0
DIMENSION
  5
317
100
AcDbEntity
  8
0
100
AcDbDimension
 62
2
  6
CONTINUOUS
  2
*D4
 10
1600.81852909
 20
851.0325699699
 11
1600.81852909
 21
749.7840714223
 70
160
 71
2
 72
2
 41
0.9
 42
60.0
  1
<>\P[]
  3
DIMSTYLE_1
100
AcDbAlignedDimension
 13
1691.4941231174
 23
791.0325699699
 14
1704.1390965885
 24
851.0325699699
 50
90.0
100
AcDbRotatedDimension
  0
DIMENSION
  5
318
100
AcDbEntity
  8
0
100
AcDbDimension
 62
2
  6
CONTINUOUS
  2
*D5
 10
1600.81852909
 20
891.0325699699
 11
1600.81852909
 21
943.3619005094
 70
160
 71
2
 72
2
 41
0.9
 42
40.0
  1
<>TYP\P[]
  3
DIMSTYLE_1
100
AcDbAlignedDimension
 13
1704.1390965885
 23
851.0325699699
 14
1704.5693940494
 24
891.0325699699
 50
90.0
100
AcDbRotatedDimension
  0
DIMENSION
  5
319
100
AcDbEntity
  8
0
100
AcDbDimension
 62
2
  6
CONTINUOUS
  2
*D6
 10
1734.7814926465
 20
855.8513748253
 11
1891.8921480607
 21
880.6385025533
 70
163
 71
1
 72
2
 41
0.9
 42
20.0
  1
%%c<>TYP\P[]
  3
DIMSTYLE_3
100
AcDbDiametricDimension
 15
1717.2567535883
 25
846.2137651144
  0
DIMENSION
  5
31A
100
AcDbEntity
  8
0
100
AcDbDimension
 62
2
  6
CONTINUOUS
  2
*D7
 10
803.5670116654
 20
1391.0325699699
 11
803.5670116654
 21
1079.0310699699
 70
160
 71
2
 72
2
 41
0.9
 42
600.0
  1
<>\P[]
  3
DIMSTYLE_1
100
AcDbAlignedDimension
 13
872.0426618682
 23
791.0325699699
 14
872.0426618682
 24
1391.0325699699
 50
90.0
100
AcDbRotatedDimension
  0
DIMENSION
  5
31B
100
AcDbEntity
  8
0
100
AcDbDimension
 62
2
  6
CONTINUOUS
  2
*D8
 10
1430.1066432762
 20
1094.7325699699
 11
1430.1066432762
 21
1230.8810699699
 70
160
 71
2
 72
2
 41
0.9
 42
296.3
  1
<>\P[]
  3
DIMSTYLE_2
100
AcDbAlignedDimension
 13
1366.0926618682
 23
1391.0325699699
 14
1366.6574524873
 24
1094.7325699699
 50
270.0
100
AcDbRotatedDimension
  0
DIMENSION
  5
31C
100
AcDbEntity
  8
0
100
AcDbDimension
 62
2
  6
CONTINUOUS
  2
*D9
 10
430.2866235963
 20
1450.4160907014
 11
535.6748678977
 21
1438.4145907014
 70
160
 71
1
 72
2
 41
0.9
 42
45.2
  1
<>\P[]
  3
DIMSTYLE_2
100
AcDbAlignedDimension
 13
475.4866235963
 23
1395.5575699699
 14
430.2866235963
 24
1104.2575699699
 50
180.0
100
AcDbRotatedDimension
  0
DIMENSION
  5
31D
100
AcDbEntity
  8
0
100
AcDbDimension
 62
2
  6
CONTINUOUS
  2
*D10
 10
428.4866235963
 20
746.9952503288
 11
525.6097767439
 21
734.9937503288
 70
160
 71
1
 72
2
 41
0.9
 42
47.0
  1
<>\P[]
  3
DIMSTYLE_1
100
AcDbAlignedDimension
 13
475.4866235963
 23
786.5075699699
 14
428.4866235963
 24
830.0827542811
 50
180.0
100
AcDbRotatedDimension
  0
DIMENSION
  5
31E
100
AcDbEntity
  8
0
100
AcDbDimension
 62
2
  6
CONTINUOUS
  2
*D11
 10
562.5931372743
 20
851.0325699699
 11
562.5931372743
 21
823.9913673578
 70
160
 71
2
 72
2
 41
0.9
 42
60.0
  1
<>\P[]
  3
DIMSTYLE_1
100
AcDbAlignedDimension
 13
480.0116235963
 23
791.0325699699
 14
449.4364392851
 24
851.0325699699
 50
90.0
100
AcDbRotatedDimension
  0
DIMENSION
  5
31F
100
AcDbEntity
  8
0
100
AcDbDimension
 62
2
  6
CONTINUOUS
  2
*D12
 10
328.3244903799
 20
851.0325699699
 11
328.3244903799
 21
940.5997206187
 70
160
 71
2
 72
2
 41
0.9
 42
40.0
  1
<>TYP\P[]
  3
DIMSTYLE_1
100
AcDbAlignedDimension
 13
406.8942303659
 23
891.0325699699
 14
407.5368079075
 24
851.0325699699
 50
270.0
100
AcDbRotatedDimension
  0
DIMENSION
  5
320
100
AcDbEntity
  8
0
100
AcDbDimension
 62
2
  6
CONTINUOUS
  2
*D13
 10
436.201096769
 20
897.3955019723
 11
589.3908155561
 21
937.3355651419
 70
163
 71
1
 72
2
 41
0.9
 42
20.0
  1
%%c<>TYP\P[]
  3
DIMSTYLE_3
100
AcDbDiametricDimension
 15
420.7721504237
 25
884.6696379674
  0
LINE
  5
321
100
AcDbEntity
  8
0
100
AcDbLine
 62
2
  6
CONTINUOUS
 10
2548.8440276606
 20
266.1061426319
 11
2961.1440276606
 21
266.1061426319
  0
LINE
  5
322
100
AcDbEntity
  8
0
100
AcDbLine
 62
2
  6
CONTINUOUS
 10
2548.8440276606
 20
266.1061426319
 11
2548.8440276606
 21
132.3405176319
  0
LINE
  5
323
100
AcDbEntity
  8
0
100
AcDbLine
 62
2
  6
CONTINUOUS
 10
2548.8440276606
 20
132.3405176319
 11
2961.1440276606
 21
132.3405176319
  0
LINE
  5
324
100
AcDbEntity
  8
0
100
AcDbLine
 62
2
  6
CONTINUOUS
 10
2961.1440276606
 20
266.1061426319
 11
2961.1440276606
 21
132.3405176319
  0
MTEXT
  5
325
100
AcDbEntity
  8
0
100
AcDbMText
 62
2
  6
CONTINUOUS
  7
TEXTSTYLE_2
 71
2
 72
1
 10
2754.9940276606
 20
227.0045801319
 30
0.0
 11
1.0
 21
0.0
 31
0.0
 73
2
 44
0.9
  1
ACCESSORY,\PLA108-AF,2D
 40
22.225
 41
193.4979553903
  0
LINE
  5
326
100
AcDbEntity
  8
0
100
AcDbLine
 62
2
  6
CONTINUOUS
 10
2887.6123592903
 20
132.2826493284
 11
2960.8498592903
 21
132.2826493284
  0
LINE
  5
327
100
AcDbEntity
  8
0
100
AcDbLine
 62
2
  6
CONTINUOUS
 10
2887.6123592903
 20
132.2826493284
 11
2887.6123592903
 21
88.5326493284
  0
LINE
  5
328
100
AcDbEntity
  8
0
100
AcDbLine
 62
2
  6
CONTINUOUS
 10
2887.6123592903
 20
88.5326493284
 11
2960.8498592903
 21
88.5326493284
  0
LINE
  5
329
100
AcDbEntity
  8
0
100
AcDbLine
 62
2
  6
CONTINUOUS
 10
2960.8498592903
 20
132.2826493284
 11
2960.8498592903
 21
88.5326493284
  0
MTEXT
  5
32A
100
AcDbEntity
  8
0
100
AcDbMText
 62
2
  6
CONTINUOUS
  7
TEXTSTYLE_2
 71
2
 72
1
 10
2924.2311092903
 20
115.3295243284
 30
0.0
 11
1.0
 21
0.0
 31
0.0
 73
2
 44
0.9
  1
A
 40
22.225
 41
22.8859665428
  0
LINE
  5
32B
100
AcDbEntity
  8
0
100
AcDbLine
 62
2
  6
CONTINUOUS
 10
2665.9715172302
 20
132.1463269582
 11
2886.4715172302
 21
132.1463269582
  0
LINE
  5
32C
100
AcDbEntity
  8
0
100
AcDbLine
 62
2
  6
CONTINUOUS
 10
2665.9715172302
 20
132.1463269582
 11
2665.9715172302
 21
88.5057019582
  0
LINE
  5
32D
100
AcDbEntity
  8
0
100
AcDbLine
 62
2
  6
CONTINUOUS
 10
2665.9715172302
 20
88.5057019582
 11
2886.4715172302
 21
88.5057019582
  0
LINE
  5
32E
100
AcDbEntity
  8
0
100
AcDbLine
 62
2
  6
CONTINUOUS
 10
2886.4715172302
 20
132.1463269582
 11
2886.4715172302
 21
88.5057019582
  0
MTEXT
  5
32F
100
AcDbEntity
  8
0
100
AcDbMText
 62
2
  6
CONTINUOUS
  7
TEXTSTYLE_2
 71
2
 72
1
 10
2776.2215172302
 20
117.0525769582
 30
0.0
 11
1.0
 21
0.0
 31
0.0
 73
2
 44
0.9
  1
FG-901338-2D
 40
22.225
 41
206.0563197026
  0
LINE
  5
330
100
AcDbEntity
  8
0
100
AcDbLine
 62
2
  6
CONTINUOUS
 10
2071.7841410003
 20
193.4899492855
 11
2306.2841410004
 21
193.4899492855
  0
LINE
  5
331
100
AcDbEntity
  8
0
100
AcDbLine
 62
2
  6
CONTINUOUS
 10
2071.7841410003
 20
193.4899492855
 11
2071.7841410003
 21
161.2790117855
  0
LINE
  5
332
100
AcDbEntity
  8
0
100
AcDbLine
 62
2
  6
CONTINUOUS
 10
2071.7841410003
 20
161.2790117855
 11
2306.2841410004
 21
161.2790117855
  0
LINE
  5
333
100
AcDbEntity
  8
0
100
AcDbLine
 62
2
  6
CONTINUOUS
 10
2306.2841410004
 20
193.4899492855
 11
2306.2841410004
 21
161.2790117855
  0
MTEXT
  5
334
100
AcDbEntity
  8
0
100
AcDbMText
 62
2
  6
CONTINUOUS
  7
TEXTSTYLE_2
 71
2
 72
1
 10
2212.4841410004
 20
185.3854805355
 30
0.0
 11
1.0
 21
0.0
 31
0.0
 73
2
 44
0.9
  1
SEE NOTES
 40
16.002
 41
109.6940074349
  0
LINE
  5
335
100
AcDbEntity
  8
0
100
AcDbLine
 62
2
  6
CONTINUOUS
 10
2071.9306656682
 20
160.9069868391
 11
2306.4306656682
 21
160.9069868391
  0
LINE
  5
336
100
AcDbEntity
  8
0
100
AcDbLine
 62
2
  6
CONTINUOUS
 10
2071.9306656682
 20
160.9069868391
 11
2071.9306656682
 21
128.6960493391
  0
LINE
  5
337
100
AcDbEntity
  8
0
100
AcDbLine
 62
2
  6
CONTINUOUS
 10
2071.9306656682
 20
128.6960493391
 11
2306.4306656682
 21
128.6960493391
  0
LINE
  5
338
100
AcDbEntity
  8
0
100
AcDbLine
 62
2
  6
CONTINUOUS
 10
2306.4306656682
 20
160.9069868391
 11
2306.4306656682
 21
128.6960493391
  0
MTEXT
  5
339
100
AcDbEntity
  8
0
100
AcDbMText
 62
2
  6
CONTINUOUS
  7
TEXTSTYLE_2
 71
2
 72
1
 10
2212.6306656682
 20
152.8025180891
 30
0.0
 11
1.0
 21
0.0
 31
0.0
 73
2
 44
0.9
  1
SEE NOTES
 40
16.002
 41
109.6940074349
  0
LINE
  5
33A
100
AcDbEntity
  8
0
100
AcDbLine
 62
2
  6
CONTINUOUS
 10
2306.6452870009
 20
252.5145250208
 11
2548.1452870009
 21
252.5145250208
  0
LINE
  5
33B
100
AcDbEntity
  8
0
100
AcDbLine
 62
2
  6
CONTINUOUS
 10
2306.6452870009
 20
252.5145250208
 11
2306.6452870009
 21
207.4520250208
  0
LINE
  5
33C
100
AcDbEntity
  8
0
100
AcDbLine
 62
2
  6
CONTINUOUS
 10
2306.6452870009
 20
207.4520250208
 11
2548.1452870009
 21
207.4520250208
  0
LINE
  5
33D
100
AcDbEntity
  8
0
100
AcDbLine
 62
2
  6
CONTINUOUS
 10
2548.1452870009
 20
252.5145250208
 11
2548.1452870009
 21
207.4520250208
  0
MTEXT
  5
33E
100
AcDbEntity
  8
0
100
AcDbMText
 62
2
  6
CONTINUOUS
  7
TEXTSTYLE_2
 71
1
 72
1
 10
2307.0827870009
 20
229.9067125208
 30
0.0
 11
1.0
 21
0.0
 31
0.0
 73
2
 44
0.9
  1
 M. DAVILA
 40
11.1125
 41
83.075232342
  0
LINE
  5
33F
100
AcDbEntity
  8
0
100
AcDbLine
 62
2
  6
CONTINUOUS
 10
2306.7120358677
 20
207.6835744951
 11
2548.2120358677
 21
207.6835744951
  0
LINE
  5
340
100
AcDbEntity
  8
0
100
AcDbLine
 62
2
  6
CONTINUOUS
 10
2306.7120358677
 20
207.6835744951
 11
2306.7120358677
 21
159.9960744951
  0
LINE
  5
341
100
AcDbEntity
  8
0
100
AcDbLine
 62
2
  6
CONTINUOUS
 10
2306.7120358677
 20
159.9960744951
 11
2548.2120358677
 21
159.9960744951
  0
LINE
  5
342
100
AcDbEntity
  8
0
100
AcDbLine
 62
2
  6
CONTINUOUS
 10
2548.2120358677
 20
207.6835744951
 11
2548.2120358677
 21
159.9960744951
  0
MTEXT
  5
343
100
AcDbEntity
  8
0
100
AcDbMText
 62
2
  6
CONTINUOUS
  7
TEXTSTYLE_2
 71
1
 72
1
 10
2307.1495358677
 20
183.4351369951
 30
0.0
 11
1.0
 21
0.0
 31
0.0
 73
2
 44
0.9
  1
 T. AMUNDSON
 40
11.1125
 41
110.9597583643
  0
LINE
  5
344
100
AcDbEntity
  8
0
100
AcDbLine
 62
2
  6
CONTINUOUS
 10
2306.7615529423
 20
159.9026435807
 11
2548.2615529423
 21
159.9026435807
  0
LINE
  5
345
100
AcDbEntity
  8
0
100
AcDbLine
 62
2
  6
CONTINUOUS
 10
2306.7615529423
 20
159.9026435807
 11
2306.7615529423
 21
112.2151435807
  0
LINE
  5
346
100
AcDbEntity
  8
0
100
AcDbLine
 62
2
  6
CONTINUOUS
 10
2306.7615529423
 20
112.2151435807
 11
2548.2615529423
 21
112.2151435807
  0
LINE
  5
347
100
AcDbEntity
  8
0
100
AcDbLine
 62
2
  6
CONTINUOUS
 10
2548.2615529423
 20
159.9026435807
 11
2548.2615529423
 21
112.2151435807
  0
MTEXT
  5
348
100
AcDbEntity
  8
0
100
AcDbMText
 62
2
  6
CONTINUOUS
  7
TEXTSTYLE_2
 71
1
 72
1
 10
2307.1990529423
 20
135.6542060807
 30
0.0
 11
1.0
 21
0.0
 31
0.0
 73
2
 44
0.9
  1
 R. VAUCHER
 40
11.1125
 41
95.6749070632
  0
LINE
  5
349
100
AcDbEntity
  8
0
100
AcDbLine
 62
2
  6
CONTINUOUS
 10
2306.7288414101
 20
112.8290732699
 11
2548.2288414101
 21
112.8290732699
  0
LINE
  5
34A
100
AcDbEntity
  8
0
100
AcDbLine
 62
2
  6
CONTINUOUS
 10
2306.7288414101
 20
112.8290732699
 11
2306.7288414101
 21
65.1415732699
  0
LINE
  5
34B
100
AcDbEntity
  8
0
100
AcDbLine
 62
2
  6
CONTINUOUS
 10
2306.7288414101
 20
65.1415732699
 11
2548.2288414101
 21
65.1415732699
  0
LINE
  5
34C
100
AcDbEntity
  8
0
100
AcDbLine
 62
2
  6
CONTINUOUS
 10
2548.2288414101
 20
112.8290732699
 11
2548.2288414101
 21
65.1415732699
  0
MTEXT
  5
34D
100
AcDbEntity
  8
0
100
AcDbMText
 62
2
  6
CONTINUOUS
  7
TEXTSTYLE_2
 71
1
 72
1
 10
2307.1663414101
 20
88.5806357699
 30
0.0
 11
1.0
 21
0.0
 31
0.0
 73
2
 44
0.9
  1
 C. YOMOGIDA
 40
11.1125
 41
115.8343866171
  0
LINE
  5
34E
100
AcDbEntity
  8
0
100
AcDbLine
 62
2
  6
CONTINUOUS
 10
2548.772144645
 20
87.1613432522
 11
2631.372144645
 21
87.1613432522
  0
LINE
  5
34F
100
AcDbEntity
  8
0
100
AcDbLine
 62
2
  6
CONTINUOUS
 10
2548.772144645
 20
87.1613432522
 11
2548.772144645
 21
65.4504057522
  0
LINE
  5
350
100
AcDbEntity
  8
0
100
AcDbLine
 62
2
  6
CONTINUOUS
 10
2548.772144645
 20
65.4504057522
 11
2631.372144645
 21
65.4504057522
  0
LINE
  5
351
100
AcDbEntity
  8
0
100
AcDbLine
 62
2
  6
CONTINUOUS
 10
2631.372144645
 20
87.1613432522
 11
2631.372144645
 21
65.4504057522
  0
MTEXT
  5
352
100
AcDbEntity
  8
0
100
AcDbMText
 62
2
  6
CONTINUOUS
  7
TEXTSTYLE_2
 71
2
 72
1
 10
2610.722144645
 20
82.5288745022
 30
0.0
 11
1.0
 21
0.0
 31
0.0
 73
2
 44
0.9
  1
1:8
 40
12.446
 41
24.0591821561
  0
LINE
  5
353
100
AcDbEntity
  8
0
100
AcDbLine
 62
2
  6
CONTINUOUS
 10
2840.5505219909
 20
87.3257561572
 11
2961.3005219909
 21
87.3257561572
  0
LINE
  5
354
100
AcDbEntity
  8
0
100
AcDbLine
 62
2
  6
CONTINUOUS
 10
2840.5505219909
 20
87.3257561572
 11
2840.5505219909
 21
66.2710686572
  0
LINE
  5
355
100
AcDbEntity
  8
0
100
AcDbLine
 62
2
  6
CONTINUOUS
 10
2840.5505219909
 20
66.2710686572
 11
2961.3005219909
 21
66.2710686572
  0
LINE
  5
356
100
AcDbEntity
  8
0
100
AcDbLine
 62
2
  6
CONTINUOUS
 10
2961.3005219909
 20
87.3257561572
 11
2961.3005219909
 21
66.2710686572
  0
MTEXT
  5
357
100
AcDbEntity
  8
0
100
AcDbMText
 62
2
  6
CONTINUOUS
  7
TEXTSTYLE_2
 71
2
 72
1
 10
2925.0755219909
 20
83.2807029072
 30
0.0
 11
1.0
 21
0.0
 31
0.0
 73
2
 44
0.9
  1
1 OF 1
 40
12.964581
 41
54.5572702305
  0
LINE
  5
358
100
AcDbEntity
  8
0
100
AcDbLine
 62
2
  6
CONTINUOUS
 10
2631.3211609082
 20
87.2771727386
 11
2839.9211609082
 21
87.2771727386
  0
LINE
  5
359
100
AcDbEntity
  8
0
100
AcDbLine
 62
2
  6
CONTINUOUS
 10
2631.3211609082
 20
87.2771727386
 11
2631.3211609082
 21
66.2224852386
  0
LINE
  5
35A
100
AcDbEntity
  8
0
100
AcDbLine
 62
2
  6
CONTINUOUS
 10
2631.3211609082
 20
66.2224852386
 11
2839.9211609082
 21
66.2224852386
  0
LINE
  5
35B
100
AcDbEntity
  8
0
100
AcDbLine
 62
2
  6
CONTINUOUS
 10
2839.9211609082
 20
87.2771727386
 11
2839.9211609082
 21
66.2224852386
  0
MTEXT
  5
35C
100
AcDbEntity
  8
0
100
AcDbMText
 62
2
  6
CONTINUOUS
  7
TEXTSTYLE_2
 71
2
 72
1
 10
2761.6961609082
 20
81.1948289886
 30
0.0
 11
1.0
 21
0.0
 31
0.0
 73
2
 44
0.9
  1
FG-901338-2D.A.8 
 40
8.89
 41
108.7620446097
  0
LINE
  5
35D
100
AcDbEntity
  8
0
100
AcDbLine
 62
2
  6
CONTINUOUS
 10
2072.4074242891
 20
331.6597808675
 11
2306.0324242891
 21
331.6597808675
  0
LINE
  5
35E
100
AcDbEntity
  8
0
100
AcDbLine
 62
2
  6
CONTINUOUS
 10
2072.4074242891
 20
331.6597808675
 11
2072.4074242891
 21
194.7222808675
  0
LINE
  5
35F
100
AcDbEntity
  8
0
100
AcDbLine
 62
2
  6
CONTINUOUS
 10
2072.4074242891
 20
194.7222808675
 11
2306.0324242891
 21
194.7222808675
  0
LINE
  5
360
100
AcDbEntity
  8
0
100
AcDbLine
 62
2
  6
CONTINUOUS
 10
2306.0324242891
 20
331.6597808675
 11
2306.0324242891
 21
194.7222808675
  0
MTEXT
  5
361
100
AcDbEntity
  8
0
100
AcDbMText
 62
2
  6
CONTINUOUS
  7
TEXTSTYLE_2
 71
1
 72
1
 10
2096.2074242891
 20
242.8472808675
 30
0.0
 11
1.0
 21
0.0
 31
0.0
 73
2
 44
0.9
  1
.X \fgdt;{\W1.0;{\fgdt;`}}\fCentury Gothic; 3.0 [.12]               \fgdt;{\W1.0;{\fgdt;`}}\fCentury Gothic;1\fgdt;{\W1.0;{\fgdt;~}}\P\fCentury Gothic;.XX \fgdt;{\W1.0;{\fgdt;`}}
 40
11.1125
 41
186.8469795539
  0
LINE
  5
362
100
AcDbEntity
  8
0
100
AcDbLine
 62
2
  6
CONTINUOUS
 10
1966.9953031085
 20
1896.1862874017
 11
2960.4003031085
 21
1896.1862874017
  0
LINE
  5
363
100
AcDbEntity
  8
0
100
AcDbLine
 62
2
  6
CONTINUOUS
 10
1966.9953031085
 20
1896.1862874017
 11
1966.9953031085
 21
1800.1742874017
  0
LINE
  5
364
100
AcDbEntity
  8
0
100
AcDbLine
 62
2
  6
CONTINUOUS
 10
1966.9953031085
 20
1864.1822874017
 11
2960.4003031085
 21
1864.1822874017
  0
LINE
  5
365
100
AcDbEntity
  8
0
100
AcDbLine
 62
2
  6
CONTINUOUS
 10
1966.9953031085
 20
1832.1782874017
 11
2960.4003031085
 21
1832.1782874017
  0
LINE
  5
366
100
AcDbEntity
  8
0
100
AcDbLine
 62
2
  6
CONTINUOUS
 10
1966.9953031085
 20
1800.1742874017
 11
2960.4003031085
 21
1800.1742874017
  0
LINE
  5
367
100
AcDbEntity
  8
0
100
AcDbLine
 62
2
  6
CONTINUOUS
 10
2036.1273031085
 20
1864.1822874017
 11
2036.1273031085
 21
1800.1742874017
  0
LINE
  5
368
100
AcDbEntity
  8
0
100
AcDbLine
 62
2
  6
CONTINUOUS
 10
2760.6973031085
 20
1864.1822874017
 11
2760.6973031085
 21
1800.1742874017
  0
LINE
  5
369
100
AcDbEntity
  8
0
100
AcDbLine
 62
2
  6
CONTINUOUS
 10
2824.7053031085
 20
1864.1822874017
 11
2824.7053031085
 21
1800.1742874017
  0
LINE
  5
36A
100
AcDbEntity
  8
0
100
AcDbLine
 62
2
  6
CONTINUOUS
 10
2960.4003031085
 20
1896.1862874017
 11
2960.4003031085
 21
1800.1742874017
  0
MTEXT
  5
36B
100
AcDbEntity
  8
0
100
AcDbMText
 62
2
  6
CONTINUOUS
  7
TEXTSTYLE_2
 71
2
 72
1
 10
2463.6978031085
 20
1888.1852874017
 30
0.0
 11
1.0
 21
0.0
 31
0.0
 73
2
 44
0.9
  1
REVISION
 40
16.002
 41
98.2725055762
  0
MTEXT
  5
36C
100
AcDbEntity
  8
0
100
AcDbMText
 62
2
  6
CONTINUOUS
  7
TEXTSTYLE_2
 71
2
 72
1
 10
2001.5613031085
 20
1856.1812874017
 30
0.0
 11
1.0
 21
0.0
 31
0.0
 73
2
 44
0.9
  1
REV
 40
16.002
 41
41.1649962825
  0
MTEXT
  5
36D
100
AcDbEntity
  8
0
100
AcDbMText
 62
2
  6
CONTINUOUS
  7
TEXTSTYLE_2
 71
1
 72
1
 10
2042.5281031085
 20
1856.1812874017
 30
0.0
 11
1.0
 21
0.0
 31
0.0
 73
2
 44
0.9
  1
                                                  DESCRIPTION
 40
16.002
 41
449.4242007435
  0
MTEXT
  5
36E
100
AcDbEntity
  8
0
100
AcDbMText
 62
2
  6
CONTINUOUS
  7
TEXTSTYLE_2
 71
2
 72
1
 10
2792.7013031085
 20
1856.1812874017
 30
0.0
 11
1.0
 21
0.0
 31
0.0
 73
2
 44
0.9
  1
BY
 40
16.002
 41
25.9958141264
  0
MTEXT
  5
36F
100
AcDbEntity
  8
0
100
AcDbMText
 62
2
  6
CONTINUOUS
  7
TEXTSTYLE_2
 71
2
 72
1
 10
2892.5528031085
 20
1856.1812874017
 30
0.0
 11
1.0
 21
0.0
 31
0.0
 73
2
 44
0.9
  1
DATE
 40
16.002
 41
54.5495687732
  0
MTEXT
  5
370
100
AcDbEntity
  8
0
100
AcDbMText
 62
2
  6
CONTINUOUS
  7
STANDARD
 71
2
 72
1
 10
2001.5613031085
 20
1824.1772874017
 30
0.0
 11
1.0
 21
0.0
 31
0.0
 73
2
 44
0.9
  1
A
 40
16.002
 41
16.4778959108
  0
MTEXT
  5
371
100
AcDbEntity
  8
0
100
AcDbMText
 62
2
  6
CONTINUOUS
  7
STANDARD
 71
1
 72
1
 10
2042.5281031085
 20
1824.1772874017
 30
0.0
 11
1.0
 21
0.0
 31
0.0
 73
2
 44
0.9
  1
INITIAL RELEASE
 40
16.002
 41
161.4476877323
  0
MTEXT
  5
372
100
AcDbEntity
  8
0
100
AcDbMText
 62
2
  6
CONTINUOUS
  7
STANDARD
 71
2
 72
1
 10
2792.7013031085
 20
1824.1772874017
 30
0.0
 11
1.0
 21
0.0
 31
0.0
 73
2
 44
0.9
  1
MD
 40
16.002
 41
37.1198810409
  0
MTEXT
  5
373
100
AcDbEntity
  8
0
100
AcDbMText
 62
2
  6
CONTINUOUS
  7
STANDARD
 71
2
 72
1
 10
2892.5528031085
 20
1824.1772874017
 30
0.0
 11
1.0
 21
0.0
 31
0.0
 73
2
 44
0.9
  1
30-SEP-22
 40
16.002
 41
100.6519851301
  0
MTEXT
  5
374
100
AcDbEntity
  8
0
100
AcDbMText
 62
2
  6
CONTINUOUS
  7
STANDARD
 71
1
 72
1
 10
89.442361896
 20
1773.9857678601
 30
0.0
 11
1.0
 21
0.0
 31
0.0
 73
2
 44
0.9
  1
NOTES: UNLESS OTHERWISE SPECIFIED\P \P1.    NET WEIGHT APPROX. 11.1 KG [24.4 LBS]. \P \P2.    PARTS ARE SYMMETRICAL ABOUT CENTER LINES UNLESS OTHERWISE NOTED. \P \P3.    SYMBOL      INDICATES CENTER OF GRAVITY. 
 40
16.002
 41
839.5398736059
  0
MTEXT
  5
375
100
AcDbEntity
  8
0
100
AcDbMText
 62
2
  6
CONTINUOUS
  7
TEXTSTYLE_3
 71
1
 72
1
 10
1108.4219475673
 20
315.7390976772
 30
0.0
 11
1.0
 21
0.0
 31
0.0
 73
2
 44
0.9
  1
{\fgdt;q}
 40
16.002
 41
25.3365
  0
MTEXT
  5
376
100
AcDbEntity
  8
0
100
AcDbMText
 62
2
  6
CONTINUOUS
  7
TEXTSTYLE_3
 71
1
 72
1
 10
1107.0166171077
 20
765.2050028663
 30
0.0
 11
1.0
 21
0.0
 31
0.0
 73
2
 44
0.9
  1
{\fgdt;q}
 40
16.002
 41
25.3365
  0
MTEXT
  5
377
100
AcDbEntity
  8
0
100
AcDbMText
 62
2
  6
CONTINUOUS
  7
STANDARD
 71
3
 72
1
 10
580.8445025807
 20
675.0883274238
 30
0.0
 11
1.0
 21
0.0
 31
0.0
 73
2
 44
0.9
  1
SECTION\H16.002; \H28.0;A-A
 40
28.0
 41
237.2647137546
  0
INSERT
  5
378
100
AcDbEntity
  8
0
100
AcDbBlockReference
 62
2
  6
CONTINUOUS
  2
CG_3D_BL0
 10
239.1131812269
 20
1622.9147227379
  0
INSERT
  5
379
100
AcDbEntity
  8
0
100
AcDbBlockReference
 62
2
  6
CONTINUOUS
  2
CG_3D_BL1
 10
1119.1069365887
 20
1094.7136625529
  0
INSERT
  5
37A
100
AcDbEntity
  8
0
100
AcDbBlockReference
 62
2
  6
CONTINUOUS
  2
CG_3D_BL2
 10
430.2545994739
 20
1094.7524917798
  0
LWPOLYLINE
  5
37B
100
AcDbEntity
  8
0
100
AcDbPolyline
 62
7
  6
CONTINUOUS
 90
2
 70
0
 43
1.7499999922
 10
51.7429183071
 20
987.7217973563
 10
51.7429183071
 20
974.8901876234
  0
LWPOLYLINE
  5
37C
100
AcDbEntity
  8
0
100
AcDbPolyline
 62
7
  6
CONTINUOUS
 90
2
 70
0
 43
1.7499999922
 10
62.8554183071
 20
1896.9759924902
 10
62.8554183071
 20
65.6359924902
  0
LWPOLYLINE
  5
37D
100
AcDbEntity
  8
0
100
AcDbPolyline
 62
7
  6
CONTINUOUS
 90
2
 70
0
 43
1.7499999922
 10
425.1229183071
 20
65.6359924902
 10
425.1229183071
 20
43.4109924902
  0
LWPOLYLINE
  5
37E
100
AcDbEntity
  8
0
100
AcDbPolyline
 62
7
  6
CONTINUOUS
 90
2
 70
0
 43
1.7499999922
 10
425.1229183071
 20
1896.9759924902
 10
425.1229183071
 20
1919.2009924902
  0
LWPOLYLINE
  5
37F
100
AcDbEntity
  8
0
100
AcDbPolyline
 62
7
  6
CONTINUOUS
 90
2
 70
0
 43
1.7499999922
 10
534.9032725535
 20
1798.1630691207
 10
534.9032725535
 20
1896.1205611548
  0
LWPOLYLINE
  5
380
100
AcDbEntity
  8
0
100
AcDbPolyline
 62
7
  6
CONTINUOUS
 90
2
 70
0
 43
1.7499999922
 10
2271.89073746
 20
86.6875193313
 10
2298.5607374606
 20
91.1325193313
  0
LWPOLYLINE
  5
381
100
AcDbEntity
  8
0
100
AcDbPolyline
 62
7
  6
CONTINUOUS
 90
2
 70
0
 43
1.7499999922
 10
1518.3412231732
 20
54.5234924902
 10
1505.509613441
 20
54.5234924902
  0
LWPOLYLINE
  5
382
100
AcDbEntity
  8
0
100
AcDbPolyline
 62
7
  6
CONTINUOUS
 90
2
 70
0
 43
1.7499999922
 10
2960.9954183071
 20
65.6359924902
 10
62.8554183071
 20
65.6359924902
  0
LWPOLYLINE
  5
383
100
AcDbEntity
  8
0
100
AcDbPolyline
 62
7
  6
CONTINUOUS
 90
2
 70
0
 43
0.6999999788
 10
2242.58929746
 20
82.2425193313
 10
2265.6321774607
 20
82.2425193313
  0
LWPOLYLINE
  5
384
100
AcDbEntity
  8
0
100
AcDbPolyline
 62
7
  6
CONTINUOUS
 90
2
 70
0
 43
0.6999999788
 10
2268.5805320173
 20
82.2425193313
 10
2301.2811370132
 20
82.2425193313
  0
LWPOLYLINE
  5
385
100
AcDbEntity
  8
0
100
AcDbPolyline
 62
7
  6
CONTINUOUS
 90
2
 70
0
 43
1.7499999922
 10
2548.7926102607
 20
87.8609924902
 10
2960.9954183071
 20
87.8609924902
  0
LWPOLYLINE
  5
386
100
AcDbEntity
  8
0
100
AcDbPolyline
 62
7
  6
CONTINUOUS
 90
2
 70
0
 43
1.7499999922
 10
2071.9954183071
 20
97.6399924902
 10
2306.1560035804
 20
97.6399924902
  0
LWPOLYLINE
  5
387
100
AcDbEntity
  8
0
100
AcDbPolyline
 62
7
  6
CONTINUOUS
 90
2
 70
0
 43
1.7499999922
 10
2305.9030919711
 20
112.8859924902
 10
2548.5396986514
 20
112.8859924902
  0
LWPOLYLINE
  5
388
100
AcDbEntity
  8
0
100
AcDbPolyline
 62
7
  6
CONTINUOUS
 90
2
 70
0
 43
1.7499999922
 10
2071.9954183071
 20
129.6439924902
 10
2306.1560035804
 20
129.6439924902
  0
LWPOLYLINE
  5
389
100
AcDbEntity
  8
0
100
AcDbPolyline
 62
7
  6
CONTINUOUS
 90
2
 70
0
 43
1.7499999922
 10
2548.7926102607
 20
133.0109924902
 10
2960.9954183071
 20
133.0109924902
  0
LWPOLYLINE
  5
38A
100
AcDbEntity
  8
0
100
AcDbPolyline
 62
7
  6
CONTINUOUS
 90
2
 70
0
 43
1.7499999922
 10
51.7429183071
 20
974.8901876234
 10
62.8554183071
 20
981.3059924902
  0
LWPOLYLINE
  5
38B
100
AcDbEntity
  8
0
100
AcDbPolyline
 62
7
  6
CONTINUOUS
 90
2
 70
0
 43
1.7499999922
 10
2306.1560035804
 20
160.1359924902
 10
2548.7926102607
 20
160.1359924902
  0
LWPOLYLINE
  5
38C
100
AcDbEntity
  8
0
100
AcDbPolyline
 62
7
  6
CONTINUOUS
 90
2
 70
0
 43
1.7499999922
 10
2071.9954183071
 20
161.6479924902
 10
2306.1560035804
 20
161.6479924902
  0
LWPOLYLINE
  5
38D
100
AcDbEntity
  8
0
100
AcDbPolyline
 62
7
  6
CONTINUOUS
 90
2
 70
0
 43
1.7499999922
 10
2306.1560035804
 20
194.1218132206
 10
2071.9954183071
 20
194.1218132206
  0
LWPOLYLINE
  5
38E
100
AcDbEntity
  8
0
100
AcDbPolyline
 62
7
  6
CONTINUOUS
 90
2
 70
0
 43
1.7499999922
 10
2306.1560035804
 20
207.3859924902
 10
2548.7926102607
 20
207.3859924902
  0
LWPOLYLINE
  5
38F
100
AcDbEntity
  8
0
100
AcDbPolyline
 62
7
  6
CONTINUOUS
 90
2
 70
0
 43
1.7499999922
 10
2306.1560035804
 20
252.7095728951
 10
2548.7926102607
 20
252.7095728951
  0
LWPOLYLINE
  5
390
100
AcDbEntity
  8
0
100
AcDbPolyline
 62
7
  6
CONTINUOUS
 90
2
 70
0
 43
1.7499999922
 10
2271.89073746
 20
77.7975193313
 10
2298.5607374606
 20
73.3525193313
  0
LWPOLYLINE
  5
391
100
AcDbEntity
  8
0
100
AcDbPolyline
 62
7
  6
CONTINUOUS
 90
2
 70
0
 43
1.7499999922
 10
787.3904183071
 20
65.6359924902
 10
787.3904183071
 20
43.4109924902
  0
LWPOLYLINE
  5
392
100
AcDbEntity
  8
0
100
AcDbPolyline
 62
7
  6
CONTINUOUS
 90
2
 70
0
 43
1.7499999922
 10
787.3904183071
 20
1896.9759924902
 10
787.3904183071
 20
1919.2009924902
  0
LWPOLYLINE
  5
393
100
AcDbEntity
  8
0
100
AcDbPolyline
 62
7
  6
CONTINUOUS
 90
2
 70
0
 43
1.7499999922
 10
2548.7926102607
 20
265.6609924902
 10
2960.9954183071
 20
265.6609924902
  0
LWPOLYLINE
  5
394
100
AcDbEntity
  8
0
100
AcDbPolyline
 62
7
  6
CONTINUOUS
 90
2
 70
0
 43
1.7499999922
 10
2306.1560035804
 20
271.3785728951
 10
2548.7926102607
 20
271.3785728951
  0
LINE
  5
395
100
AcDbEntity
  8
0
100
AcDbLine
 62
7
  6
CONTINUOUS
 10
2592.0490095878
 20
279.9519213447
 11
2601.5338649347
 21
279.9519213447
  0
LINE
  5
396
100
AcDbEntity
  8
0
100
AcDbLine
 62
7
  6
CONTINUOUS
 10
2566.831679102
 20
283.6215644923
 11
2591.439874345
 21
283.6215644923
  0
LINE
  5
397
100
AcDbEntity
  8
0
100
AcDbLine
 62
7
  6
CONTINUOUS
 10
2602.1430001775
 20
283.6215644923
 11
2606.9818923744
 21
283.6215644923
  0
LINE
  5
398
100
AcDbEntity
  8
0
100
AcDbLine
 62
7
  6
CONTINUOUS
 10
2620.3098025969
 20
283.6215644794
 11
2664.3289640803
 21
283.6215644794
  0
LINE
  5
399
100
AcDbEntity
  8
0
100
AcDbLine
 62
7
  6
CONTINUOUS
 10
2655.7676921863
 20
289.7897021586
 11
2620.3098025969
 21
289.7897021586
  0
LINE
  5
39A
100
AcDbEntity
  8
0
100
AcDbLine
 62
7
  6
CONTINUOUS
 10
2726.9171033028
 20
289.926900249
 11
2690.4225653259
 21
289.926900249
  0
LINE
  5
39B
100
AcDbEntity
  8
0
100
AcDbLine
 62
7
  6
CONTINUOUS
 10
2573.110916248
 20
290.1471514163
 11
2591.3013360827
 21
290.1471514163
  0
LINE
  5
39C
100
AcDbEntity
  8
0
100
AcDbLine
 62
7
  6
CONTINUOUS
 10
2601.9561249234
 20
290.1471514483
 11
2604.7537093298
 21
290.1471514483
  0
LINE
  5
39D
100
AcDbEntity
  8
0
100
AcDbLine
 62
7
  6
CONTINUOUS
 10
2591.9104713323
 20
293.8073117719
 11
2601.3469897063
 21
293.8073117719
  0
LINE
  5
39E
100
AcDbEntity
  8
0
100
AcDbLine
 62
7
  6
CONTINUOUS
 10
2625.3495628111
 20
296.1910627085
 11
2655.7676921924
 21
296.1910627085
  0
LINE
  5
39F
100
AcDbEntity
  8
0
100
AcDbLine
 62
7
  6
CONTINUOUS
 10
2664.3289640803
 20
302.5929177205
 11
2634.3162882414
 21
302.5929177205
  0
LINE
  5
3A0
100
AcDbEntity
  8
0
100
AcDbLine
 62
7
  6
CONTINUOUS
 10
2634.3162882352
 20
308.757037995
 11
2669.8223067071
 21
308.757037995
  0
LINE
  5
3A1
100
AcDbEntity
  8
0
100
AcDbLine
 62
7
  6
CONTINUOUS
 10
2690.4225653326
 20
308.8202263107
 11
2726.9171032961
 21
308.8202263107
  0
LINE
  5
3A2
100
AcDbEntity
  8
0
100
AcDbLine
 62
7
  6
CONTINUOUS
 10
2573.1109162542
 20
309.1070923066
 11
2604.7537093169
 21
309.1070923066
  0
LINE
  5
3A3
100
AcDbEntity
  8
0
100
AcDbLine
 62
7
  6
CONTINUOUS
 10
2606.9818923744
 20
315.1193348467
 11
2566.831679102
 21
315.1193348467
  0
LINE
  5
3A4
100
AcDbEntity
  8
0
100
AcDbLine
 62
7
  6
CONTINUOUS
 10
2726.9171033045
 20
315.1563213447
 11
2684.3398352895
 21
315.1563213447
  0
LINE
  5
3A5
100
AcDbEntity
  8
0
100
AcDbLine
 62
7
  6
CONTINUOUS
 10
2669.8223067071
 20
315.1563213386
 11
2625.3495628111
 21
315.1563213386
  0
LWPOLYLINE
  5
3A6
100
AcDbEntity
  8
0
100
AcDbPolyline
 62
7
  6
CONTINUOUS
 90
2
 70
0
 43
1.7499999922
 10
2071.9954183071
 20
332.3359924902
 10
2960.9954183071
 20
332.3359924902
  0
LINE
  5
3A7
100
AcDbEntity
  8
0
100
AcDbLine
 62
7
  6
CONTINUOUS
 10
2684.3398352895
 20
283.6215804685
 11
2726.920559993
 21
283.5687230933
  0
LWPOLYLINE
  5
3A8
100
AcDbEntity
  8
0
100
AcDbPolyline
 62
7
  6
CONTINUOUS
 90
2
 70
0
 43
1.7499999922
 10
62.8554183071
 20
981.3059924902
 10
51.7429183071
 20
987.7217973563
  0
LWPOLYLINE
  5
3A9
100
AcDbEntity
  8
0
100
AcDbPolyline
 62
7
  6
CONTINUOUS
 90
2
 70
0
 43
1.7499999922
 10
1511.9254183071
 20
1896.9759924902
 10
1518.3412231732
 20
1908.0884924902
  0
LWPOLYLINE
  5
3AA
100
AcDbEntity
  8
0
100
AcDbPolyline
 62
7
  6
CONTINUOUS
 90
2
 70
0
 43
1.7499999922
 10
62.8554183071
 20
523.4709924902
 10
40.6304183071
 20
523.4709924902
  0
LWPOLYLINE
  5
3AB
100
AcDbEntity
  8
0
100
AcDbPolyline
 62
7
  6
CONTINUOUS
 90
2
 70
0
 43
1.7499999922
 10
2960.9954183071
 20
523.4709924902
 10
2983.2204183071
 20
523.4709924902
  0
LWPOLYLINE
  5
3AC
100
AcDbEntity
  8
0
100
AcDbPolyline
 62
7
  6
CONTINUOUS
 90
2
 70
0
 43
1.7499999922
 10
1511.9254183071
 20
65.6359924902
 10
1518.3412231732
 20
54.5234924902
  0
LINE
  5
3AD
100
AcDbEntity
  8
DEFAULT_1
100
AcDbLine
 62
7
  6
CENTER
 10
1119.0676618682
 20
1391.0325699699
 11
1119.0676618682
 21
779.4868494004
  0
LINE
  5
3AE
100
AcDbEntity
  8
DEFAULT_1
100
AcDbLine
 62
7
  6
CENTER
 10
1119.0676618682
 20
450.2247507683
 11
1119.0676618682
 21
328.2657369945
  0
LWPOLYLINE
  5
3AF
100
AcDbEntity
  8
0
100
AcDbPolyline
 62
7
  6
CONTINUOUS
 90
2
 70
0
 43
1.7499999922
 10
1149.6579183071
 20
65.6359924902
 10
1149.6579183071
 20
43.4109924902
  0
LWPOLYLINE
  5
3B0
100
AcDbEntity
  8
0
100
AcDbPolyline
 62
7
  6
CONTINUOUS
 90
2
 70
0
 43
1.7499999922
 10
1149.6579183071
 20
1896.9759924902
 10
1149.6579183071
 20
1919.2009924902
  0
LWPOLYLINE
  5
3B1
100
AcDbEntity
  8
0
100
AcDbPolyline
 62
7
  6
CONTINUOUS
 90
2
 70
0
 43
1.7499999922
 10
1511.9254183071
 20
65.6359924902
 10
1511.9254183071
 20
43.4109924902
  0
LWPOLYLINE
  5
3B2
100
AcDbEntity
  8
0
100
AcDbPolyline
 62
7
  6
CONTINUOUS
 90
2
 70
0
 43
1.7499999922
 10
1511.9254183071
 20
1896.9759924902
 10
1511.9254183071
 20
1919.2009924902
  0
LWPOLYLINE
  5
3B3
100
AcDbEntity
  8
0
100
AcDbPolyline
 62
7
  6
CONTINUOUS
 90
2
 70
0
 43
1.7499999922
 10
62.8554183071
 20
981.3059924902
 10
40.6304183071
 20
981.3059924902
  0
LWPOLYLINE
  5
3B4
100
AcDbEntity
  8
0
100
AcDbPolyline
 62
7
  6
CONTINUOUS
 90
2
 70
0
 43
1.7499999922
 10
2960.9954183071
 20
981.3059924902
 10
2983.2204183071
 20
981.3059924902
  0
LWPOLYLINE
  5
3B5
100
AcDbEntity
  8
0
100
AcDbPolyline
 62
7
  6
CONTINUOUS
 90
2
 70
0
 43
1.7499999922
 10
1874.1929183071
 20
65.6359924902
 10
1874.1929183071
 20
43.4109924902
  0
LWPOLYLINE
  5
3B6
100
AcDbEntity
  8
0
100
AcDbPolyline
 62
7
  6
CONTINUOUS
 90
2
 70
0
 43
1.7499999922
 10
1874.1929183071
 20
1896.9759924902
 10
1874.1929183071
 20
1919.2009924902
  0
LWPOLYLINE
  5
3B7
100
AcDbEntity
  8
0
100
AcDbPolyline
 62
7
  6
CONTINUOUS
 90
2
 70
0
 43
1.7499999922
 10
1511.9254183071
 20
65.6359924902
 10
1505.509613441
 20
54.5234924902
  0
LWPOLYLINE
  5
3B8
100
AcDbEntity
  8
0
100
AcDbPolyline
 62
7
  6
CONTINUOUS
 90
2
 70
0
 43
1.7499999922
 10
62.8554183071
 20
1439.1409924902
 10
40.6304183071
 20
1439.1409924902
  0
LWPOLYLINE
  5
3B9
100
AcDbEntity
  8
0
100
AcDbPolyline
 62
7
  6
CONTINUOUS
 90
2
 70
0
 43
1.7499999922
 10
2960.9954183071
 20
1439.1409924902
 10
2983.2204183071
 20
1439.1409924902
  0
LWPOLYLINE
  5
3BA
100
AcDbEntity
  8
0
100
AcDbPolyline
 62
7
  6
CONTINUOUS
 90
2
 70
0
 43
1.7499999922
 10
1511.9254183071
 20
1896.9759924902
 10
1505.509613441
 20
1908.0884924902
  0
LWPOLYLINE
  5
3BB
100
AcDbEntity
  8
0
100
AcDbPolyline
 62
7
  6
CONTINUOUS
 90
2
 70
0
 43
1.7499999922
 10
2071.9954183071
 20
65.6359924902
 10
2071.9954183071
 20
332.3359924902
  0
LWPOLYLINE
  5
3BC
100
AcDbEntity
  8
0
100
AcDbPolyline
 62
7
  6
CONTINUOUS
 90
2
 70
0
 43
1.7499999922
 10
2236.4604183071
 20
43.4109924902
 10
2236.4604183071
 20
97.6399924902
  0
LWPOLYLINE
  5
3BD
100
AcDbEntity
  8
0
100
AcDbPolyline
 62
7
  6
CONTINUOUS
 90
2
 70
0
 43
1.7499999922
 10
2236.4604183071
 20
1896.9759924902
 10
2236.4604183071
 20
1919.2009924902
  0
LWPOLYLINE
  5
3BE
100
AcDbEntity
  8
0
100
AcDbPolyline
 62
7
  6
CONTINUOUS
 90
2
 70
0
 43
0.6999999788
 10
2254.11073746
 20
70.7210793313
 10
2254.11073746
 20
93.7639593313
  0
LWPOLYLINE
  5
3BF
100
AcDbEntity
  8
0
100
AcDbPolyline
 62
7
  6
CONTINUOUS
 90
2
 70
0
 43
1.7499999922
 10
2960.9954183071
 20
981.3059924902
 10
2972.1079183071
 20
987.7217973563
  0
LWPOLYLINE
  5
3C0
100
AcDbEntity
  8
0
100
AcDbPolyline
 62
7
  6
CONTINUOUS
 90
2
 70
0
 43
1.7499999922
 10
2972.1079183071
 20
974.8901876234
 10
2960.9954183071
 20
981.3059924902
  0
LWPOLYLINE
  5
3C1
100
AcDbEntity
  8
0
100
AcDbPolyline
 62
7
  6
CONTINUOUS
 90
2
 70
0
 43
1.7499999922
 10
2271.89073746
 20
86.6875193313
 10
2271.89073746
 20
77.7975193313
  0
LWPOLYLINE
  5
3C2
100
AcDbEntity
  8
0
100
AcDbPolyline
 62
7
  6
CONTINUOUS
 90
2
 70
0
 43
1.7499999922
 10
2298.5607374606
 20
91.1325193313
 10
2298.5607374606
 20
73.3525193313
  0
LWPOLYLINE
  5
3C3
100
AcDbEntity
  8
0
100
AcDbPolyline
 62
7
  6
CONTINUOUS
 90
2
 70
0
 43
1.7499999922
 10
2306.1560035804
 20
332.3359924902
 10
2306.1560035804
 20
65.6359924902
  0
LWPOLYLINE
  5
3C4
100
AcDbEntity
  8
0
100
AcDbPolyline
 62
7
  6
CONTINUOUS
 90
2
 70
0
 43
1.7499999922
 10
62.8549078673
 20
1798.8946571627
 10
535.8079049199
 20
1798.8946571627
  0
LWPOLYLINE
  5
3C5
100
AcDbEntity
  8
0
100
AcDbPolyline
 62
7
  6
CONTINUOUS
 90
2
 70
0
 43
1.7499999922
 10
62.8554183071
 20
1896.2759924902
 10
2960.9954183071
 20
1896.2759924902
  0
LWPOLYLINE
  5
3C6
100
AcDbEntity
  8
0
100
AcDbPolyline
 62
7
  6
CONTINUOUS
 90
2
 70
0
 43
1.7499999922
 10
1518.3412231732
 20
1908.0884924902
 10
1505.509613441
 20
1908.0884924902
  0
LWPOLYLINE
  5
3C7
100
AcDbEntity
  8
0
100
AcDbPolyline
 62
7
  6
CONTINUOUS
 90
2
 70
0
 43
1.7499999922
 10
2548.7926102607
 20
332.3359924902
 10
2548.7926102607
 20
65.6359924902
  0
LINE
  5
3C8
100
AcDbEntity
  8
0
100
AcDbLine
 62
7
  6
CONTINUOUS
 10
2571.5271646011
 20
291.7309030633
 11
2571.5271646011
 21
307.5233406535
  0
LINE
  5
3C9
100
AcDbEntity
  8
0
100
AcDbLine
 62
7
  6
CONTINUOUS
 10
2675.3942420433
 20
299.4439284595
 11
2675.3970216929
 21
299.2029474417
  0
LWPOLYLINE
  5
3CA
100
AcDbEntity
  8
0
100
AcDbPolyline
 62
7
  6
CONTINUOUS
 90
2
 70
0
 43
1.7499999922
 10
2580.9226493536
 20
132.3109924902
 10
2580.9226493536
 20
87.8609924902
  0
LINE
  5
3CB
100
AcDbEntity
  8
0
100
AcDbLine
 62
7
  6
CONTINUOUS
 10
2591.3013360827
 20
290.1471514163
 11
2591.3013360827
 21
293.198176523
  0
LINE
  5
3CC
100
AcDbEntity
  8
0
100
AcDbLine
 62
7
  6
CONTINUOUS
 10
2591.439874345
 20
283.6215644923
 11
2591.439874345
 21
280.5610565875
  0
LWPOLYLINE
  5
3CD
100
AcDbEntity
  8
0
100
AcDbPolyline
 62
7
  6
CONTINUOUS
 90
2
 70
0
 43
1.7499999922
 10
2598.7279183071
 20
65.6359924902
 10
2598.7279183071
 20
43.4109924902
  0
LWPOLYLINE
  5
3CE
100
AcDbEntity
  8
0
100
AcDbPolyline
 62
7
  6
CONTINUOUS
 90
2
 70
0
 43
1.7499999922
 10
2598.7279183071
 20
1896.9759924902
 10
2598.7279183071
 20
1919.2009924902
  0
LINE
  5
3CF
100
AcDbEntity
  8
0
100
AcDbLine
 62
7
  6
CONTINUOUS
 10
2601.9561249234
 20
290.1471514483
 11
2601.9561249234
 21
293.198176542
  0
LINE
  5
3D0
100
AcDbEntity
  8
0
100
AcDbLine
 62
7
  6
CONTINUOUS
 10
2602.1430001775
 20
280.5610565875
 11
2602.1430001775
 21
283.6215644923
  0
LINE
  5
3D1
100
AcDbEntity
  8
0
100
AcDbLine
 62
7
  6
CONTINUOUS
 10
2606.33746097
 20
291.7309030885
 11
2606.33746097
 21
307.5233406792
  0
LINE
  5
3D2
100
AcDbEntity
  8
0
100
AcDbLine
 62
7
  6
CONTINUOUS
 10
2614.4477807966
 20
289.5153049317
 11
2614.4477807966
 21
309.2255943943
  0
LINE
  5
3D3
100
AcDbEntity
  8
0
100
AcDbLine
 62
7
  6
CONTINUOUS
 10
2618.7260509505
 20
288.2059505116
 11
2618.7260509505
 21
285.2053161258
  0
LWPOLYLINE
  5
3D4
100
AcDbEntity
  8
0
100
AcDbPolyline
 62
7
  6
CONTINUOUS
 90
2
 70
0
 43
1.7499999922
 10
2631.6984750248
 20
87.8609924902
 10
2631.6984750248
 20
65.6359924902
  0
LINE
  5
3D5
100
AcDbEntity
  8
0
100
AcDbLine
 62
7
  6
CONTINUOUS
 10
2632.732536595
 20
304.1766693669
 11
2632.732536595
 21
307.1732863547
  0
LINE
  5
3D6
100
AcDbEntity
  8
0
100
AcDbLine
 62
7
  6
CONTINUOUS
 10
2657.3514438265
 20
294.6073110621
 11
2657.3514438265
 21
291.3734537988
  0
LWPOLYLINE
  5
3D7
100
AcDbEntity
  8
0
100
AcDbPolyline
 62
7
  6
CONTINUOUS
 90
2
 70
0
 43
1.7499999922
 10
2665.3776493536
 20
132.3109924902
 10
2665.3776493536
 20
87.8609924902
  0
LINE
  5
3D8
100
AcDbEntity
  8
0
100
AcDbLine
 62
7
  6
CONTINUOUS
 10
2671.4060583535
 20
310.3407896419
 11
2671.4060583535
 21
313.5725696787
  0
LINE
  5
3D9
100
AcDbEntity
  8
0
100
AcDbLine
 62
7
  6
CONTINUOUS
 10
2688.8388136795
 20
291.5106518954
 11
2688.8388136795
 21
307.2364746575
  0
LINE
  5
3DA
100
AcDbEntity
  8
0
100
AcDbLine
 62
7
  6
CONTINUOUS
 10
2728.5008549431
 20
285.1524709591
 11
2728.5008549431
 21
288.3431486087
  0
LINE
  5
3DB
100
AcDbEntity
  8
0
100
AcDbLine
 62
7
  6
CONTINUOUS
 10
2728.5008549431
 20
310.4039779576
 11
2728.5008549431
 21
313.5725697196
  0
LWPOLYLINE
  5
3DC
100
AcDbEntity
  8
0
100
AcDbPolyline
 62
7
  6
CONTINUOUS
 90
2
 70
0
 43
1.7499999922
 10
2839.8511759453
 20
87.8609924902
 10
2839.8511759453
 20
65.6359924902
  0
LWPOLYLINE
  5
3DD
100
AcDbEntity
  8
0
100
AcDbPolyline
 62
7
  6
CONTINUOUS
 90
2
 70
0
 43
1.7499999922
 10
2887.161218453
 20
132.3109924902
 10
2887.161218453
 20
87.8609924902
  0
LWPOLYLINE
  5
3DE
100
AcDbEntity
  8
0
100
AcDbPolyline
 62
7
  6
CONTINUOUS
 90
2
 70
0
 43
1.7499999922
 10
2960.9954183071
 20
65.6359924902
 10
2960.9954183071
 20
1896.9759924902
  0
LWPOLYLINE
  5
3DF
100
AcDbEntity
  8
0
100
AcDbPolyline
 62
7
  6
CONTINUOUS
 90
2
 70
0
 43
1.7499999922
 10
2972.1079183071
 20
987.7217973563
 10
2972.1079183071
 20
974.8901876234
  0
LINE
  5
3E0
100
AcDbEntity
  8
0
100
AcDbLine
 62
7
  6
CONTINUOUS
 10
2146.9767314845
 20
1286.4811528771
 11
2146.9767314845
 21
1340.3628697992
  0
LINE
  5
3E1
100
AcDbEntity
  8
0
100
AcDbLine
 62
7
  6
CONTINUOUS
 10
2160.7653137177
 20
1271.170719623
 11
2160.7653137177
 21
1278.518226476
  0
LINE
  5
3E2
100
AcDbEntity
  8
0
100
AcDbLine
 62
7
  6
CONTINUOUS
 10
2470.0989132555
 20
1090.8397848762
 11
2161.8003566581
 21
1268.8826521005
  0
LINE
  5
3E3
100
AcDbEntity
  8
6_ALL_SURFS
100
AcDbLine
 62
7
  6
CONTINUOUS
 10
2512.0559626111
 20
1100.1760781859
 11
2503.3585492025
 21
1104.3547336522
  0
LINE
  5
3E4
100
AcDbEntity
  8
6_ALL_SURFS
100
AcDbLine
 62
7
  6
CONTINUOUS
 10
2469.063870315
 20
1093.1278523987
 11
2160.7653137177
 21
1271.170719623
  0
LINE
  5
3E5
100
AcDbEntity
  8
6_ALL_SURFS
100
AcDbLine
 62
7
  6
CONTINUOUS
 10
2482.8524525481
 20
1092.5124328506
 11
2469.063870315
 21
1100.4753592517
  0
LINE
  5
3E6
100
AcDbEntity
  8
0
100
AcDbLine
 62
7
  6
CONTINUOUS
 10
2146.9767314845
 20
1286.4811528771
 11
2160.7653137177
 21
1278.518226476
  0
LINE
  5
3E7
100
AcDbEntity
  8
6_ALL_SURFS
100
AcDbLine
 62
7
  6
CONTINUOUS
 10
2505.0540867523
 20
1083.9899435297
 11
2500.8114460652
 21
1086.44007473
  0
LINE
  5
3E8
100
AcDbEntity
  8
6_ALL_SURFS
100
AcDbLine
 62
7
  6
CONTINUOUS
 10
2503.1652318811
 20
1090.5072168731
 11
2498.9225911939
 21
1092.9573480734
  0
LINE
  5
3E9
100
AcDbEntity
  8
6_ALL_SURFS
100
AcDbLine
 62
7
  6
CONTINUOUS
 10
2506.732477501
 20
1093.7478470974
 11
2502.4898368138
 21
1096.1979782978
  0
LINE
  5
3EA
100
AcDbEntity
  8
6_ALL_SURFS
100
AcDbLine
 62
7
  6
CONTINUOUS
 10
2512.0559626111
 20
1095.4988785572
 11
2507.813321924
 21
1097.9490097575
  0
LINE
  5
3EB
100
AcDbEntity
  8
6_ALL_SURFS
100
AcDbLine
 62
7
  6
CONTINUOUS
 10
2150.5122653904
 20
1346.4865940512
 11
2567.7052662905
 21
1587.4161620841
  0
LINE
  5
3EC
100
AcDbEntity
  8
0
100
AcDbLine
 62
7
  6
CONTINUOUS
 10
2181.6249637627
 20
1349.7534356516
 11
2562.048412041
 21
1569.4485332816
  0
LINE
  5
3ED
100
AcDbEntity
  8
6_ALL_SURFS
100
AcDbLine
 62
7
  6
CONTINUOUS
 10
2482.8524525481
 20
1146.3941497727
 11
2146.9767314845
 21
1340.3628697992
  0
LINE
  5
3EE
100
AcDbEntity
  8
6_ALL_SURFS
100
AcDbLine
 62
7
  6
CONTINUOUS
 10
2150.5122653904
 20
1346.4865940512
 11
2486.3879864541
 21
1152.5178740247
  0
LINE
  5
3EF
100
AcDbEntity
  8
0
100
AcDbLine
 62
7
  6
CONTINUOUS
 10
2350.1285097194
 20
1387.0656140212
 11
2350.1285097194
 21
1388.3699129631
  0
LINE
  5
3F0
100
AcDbEntity
  8
0
100
AcDbLine
 62
7
  6
CONTINUOUS
 10
2354.3711504065
 20
1384.6154828209
 11
2354.3711504065
 21
1390.8200441634
  0
LINE
  5
3F1
100
AcDbEntity
  8
0
100
AcDbLine
 62
7
  6
CONTINUOUS
 10
2368.937550099
 20
1403.2324705712
 11
2368.937550099
 21
1393.027599942
  0
LINE
  5
3F2
100
AcDbEntity
  8
0
100
AcDbLine
 62
7
  6
CONTINUOUS
 10
2371.7659772237
 20
1403.6432313946
 11
2371.7659772237
 21
1408.7854496251
  0
LINE
  5
3F3
100
AcDbEntity
  8
0
100
AcDbLine
 62
7
  6
CONTINUOUS
 10
2376.0086179108
 20
1401.1931001943
 11
2376.0086179108
 21
1407.3160225718
  0
LINE
  5
3F4
100
AcDbEntity
  8
0
100
AcDbLine
 62
7
  6
CONTINUOUS
 10
2194.3991018656
 20
1344.0682846788
 11
2558.5128781351
 21
1554.344522876
  0
LINE
  5
3F5
100
AcDbEntity
  8
6_ALL_SURFS
100
AcDbLine
 62
7
  6
CONTINUOUS
 10
2492.0448407035
 20
1170.4855028271
 11
2181.6249637627
 21
1349.7534356516
  0
LINE
  5
3F6
100
AcDbEntity
  8
0
100
AcDbLine
 62
7
  6
CONTINUOUS
 10
2493.5097135832
 20
1171.3314690571
 11
2184.1254547281
 21
1350.0013309227
  0
LINE
  5
3F7
100
AcDbEntity
  8
0
100
AcDbLine
 62
7
  6
CONTINUOUS
 10
2573.36212054
 20
1522.920738208
 11
2552.1489171044
 21
1510.6700822063
  0
LINE
  5
3F8
100
AcDbEntity
  8
0
100
AcDbLine
 62
7
  6
CONTINUOUS
 10
2552.5023316426
 20
1508.0168158428
 11
2549.6604249875
 21
1506.375610594
  0
LINE
  5
3F9
100
AcDbEntity
  8
0
100
AcDbLine
 62
7
  6
CONTINUOUS
 10
2354.3711504065
 20
1390.8200441634
 11
2233.9075147827
 21
1321.2521184506
  0
LINE
  5
3FA
100
AcDbEntity
  8
0
100
AcDbLine
 62
7
  6
CONTINUOUS
 10
2545.0778492925
 20
1498.8308285276
 11
2376.0086179108
 21
1401.1931001943
  0
LINE
  5
3FB
100
AcDbEntity
  8
0
100
AcDbLine
 62
7
  6
CONTINUOUS
 10
2368.937550099
 20
1393.027599942
 11
2354.3711504065
 21
1384.6154828209
  0
LINE
  5
3FC
100
AcDbEntity
  8
0
100
AcDbLine
 62
7
  6
CONTINUOUS
 10
2564.1697323846
 20
1503.7280438054
 11
2585.3829358202
 21
1515.9786998071
  0
LINE
  5
3FD
100
AcDbEntity
  8
0
100
AcDbLine
 62
7
  6
CONTINUOUS
 10
2564.1697323846
 20
1480.869133596
 11
2583.9687222578
 21
1492.3030791976
  0
LINE
  5
3FE
100
AcDbEntity
  8
6_ALL_SURFS
100
AcDbLine
 62
7
  6
CONTINUOUS
 10
2469.063870315
 20
1093.1278523987
 11
2469.063870315
 21
1100.4753592517
  0
LINE
  5
3FF
100
AcDbEntity
  8
6_ALL_SURFS
100
AcDbLine
 62
7
  6
CONTINUOUS
 10
2507.2991339623
 20
1092.8945513696
 11
2507.4488640885
 21
1092.2322349726
  0
LINE
  5
400
100
AcDbEntity
  8
6_ALL_SURFS
100
AcDbLine
 62
7
  6
CONTINUOUS
 10
2482.8524525481
 20
1092.5124328506
 11
2482.8524525481
 21
1146.3941497727
  0
LINE
  5
401
100
AcDbEntity
  8
6_ALL_SURFS
100
AcDbLine
 62
7
  6
CONTINUOUS
 10
2686.004230783
 20
1193.0968939947
 11
2681.7615900959
 21
1195.5470251951
  0
LINE
  5
402
100
AcDbEntity
  8
0
100
AcDbLine
 62
7
  6
CONTINUOUS
 10
2350.1285097194
 20
1387.0656140212
 11
2354.3711504065
 21
1384.6154828209
  0
LINE
  5
403
100
AcDbEntity
  8
6_ALL_SURFS
100
AcDbLine
 62
7
  6
CONTINUOUS
 10
2507.813321924
 20
1097.9490097575
 11
2507.813321924
 21
1102.214446706
  0
LINE
  5
404
100
AcDbEntity
  8
6_ALL_SURFS
100
AcDbLine
 62
7
  6
CONTINUOUS
 10
2512.0559626111
 20
1095.4988785572
 11
2512.0559626111
 21
1100.1760781859
  0
LINE
  5
405
100
AcDbEntity
  8
0
100
AcDbLine
 62
7
  6
CONTINUOUS
 10
2341.830865743
 20
1258.9262254672
 11
2705.9446420125
 21
1469.2024636643
  0
LINE
  5
406
100
AcDbEntity
  8
6_ALL_SURFS
100
AcDbLine
 62
7
  6
CONTINUOUS
 10
2357.3872149291
 20
1249.942411066
 11
2721.5009911986
 21
1460.2186492631
  0
LINE
  5
407
100
AcDbEntity
  8
6_ALL_SURFS
100
AcDbLine
 62
7
  6
CONTINUOUS
 10
2707.6416982873
 20
1209.6745113681
 11
2703.3990576002
 21
1212.1246425685
  0
LINE
  5
408
100
AcDbEntity
  8
0
100
AcDbLine
 62
7
  6
CONTINUOUS
 10
2371.7659772237
 20
1403.6432313946
 11
2376.0086179108
 21
1401.1931001943
  0
LINE
  5
409
100
AcDbEntity
  8
6_ALL_SURFS
100
AcDbLine
 62
7
  6
CONTINUOUS
 10
2707.6416982873
 20
1215.7974337456
 11
2704.1078975105
 21
1217.8382088613
  0
LINE
  5
40A
100
AcDbEntity
  8
0
100
AcDbLine
 62
7
  6
CONTINUOUS
 10
2372.474817134
 20
1409.3567976875
 11
2376.0086179108
 21
1407.3160225718
  0
LINE
  5
40B
100
AcDbEntity
  8
0
100
AcDbLine
 62
7
  6
CONTINUOUS
 10
2552.1489171044
 20
1510.6700822063
 11
2552.1489171044
 21
1508.2209132553
  0
LINE
  5
40C
100
AcDbEntity
  8
0
100
AcDbLine
 62
7
  6
CONTINUOUS
 10
2558.5128781351
 20
1554.344522876
 11
2558.5128781351
 21
1563.3248090297
  0
LINE
  5
40D
100
AcDbEntity
  8
0
100
AcDbLine
 62
7
  6
CONTINUOUS
 10
2562.048412041
 20
1502.5039404546
 11
2562.048412041
 21
1479.6450302452
  0
LINE
  5
40E
100
AcDbEntity
  8
0
100
AcDbLine
 62
7
  6
CONTINUOUS
 10
2564.1697323846
 20
1480.869133596
 11
2564.1697323846
 21
1503.7280438054
  0
LINE
  5
40F
100
AcDbEntity
  8
0
100
AcDbLine
 62
7
  6
CONTINUOUS
 10
2573.36212054
 20
1545.7690636748
 11
2573.36212054
 21
1522.920738208
  0
LINE
  5
410
100
AcDbEntity
  8
0
100
AcDbLine
 62
7
  6
CONTINUOUS
 10
2585.3829358202
 20
1494.7525688983
 11
2585.3829358202
 21
1515.9786998071
  0
LINE
  5
411
100
AcDbEntity
  8
6_ALL_SURFS
100
AcDbLine
 62
7
  6
CONTINUOUS
 10
2404.0379339752
 20
1223.0015526049
 11
2744.8355149777
 21
1419.8126539428
  0
LINE
  5
412
100
AcDbEntity
  8
6_ALL_SURFS
100
AcDbLine
 62
7
  6
CONTINUOUS
 10
2492.0448407035
 20
1170.4855028271
 11
2872.4682889819
 21
1390.1806004571
  0
LINE
  5
413
100
AcDbEntity
  8
6_ALL_SURFS
100
AcDbLine
 62
7
  6
CONTINUOUS
 10
2681.7615900959
 20
1195.5470251951
 11
2681.7615900959
 21
1196.8513241369
  0
LINE
  5
414
100
AcDbEntity
  8
6_ALL_SURFS
100
AcDbLine
 62
7
  6
CONTINUOUS
 10
2903.5809873541
 20
1393.4474420576
 11
2486.3879864541
 21
1152.5178740247
  0
LINE
  5
415
100
AcDbEntity
  8
6_ALL_SURFS
100
AcDbLine
 62
7
  6
CONTINUOUS
 10
2869.6398618572
 20
1302.0105182209
 11
2868.5851723371
 21
1302.6196029609
  0
LINE
  5
416
100
AcDbEntity
  8
6_ALL_SURFS
100
AcDbLine
 62
7
  6
CONTINUOUS
 10
2831.4030345864
 20
1324.0923418791
 11
2829.4499294464
 21
1325.2202629532
  0
LINE
  5
417
100
AcDbEntity
  8
6_ALL_SURFS
100
AcDbLine
 62
7
  6
CONTINUOUS
 10
2794.7165351623
 20
1345.2788489389
 11
2705.2447555543
 21
1396.9489324868
  0
LINE
  5
418
100
AcDbEntity
  8
6_ALL_SURFS
100
AcDbLine
 62
7
  6
CONTINUOUS
 10
2643.0376873221
 20
1432.8736053491
 11
2562.048412041
 21
1479.6450302452
  0
LINE
  5
419
100
AcDbEntity
  8
6_ALL_SURFS
100
AcDbLine
 62
7
  6
CONTINUOUS
 10
2833.4431951859
 20
1325.3633151007
 11
2829.5152287251
 21
1327.6317214753
  0
LINE
  5
41A
100
AcDbEntity
  8
6_ALL_SURFS
100
AcDbLine
 62
7
  6
CONTINUOUS
 10
2796.8370223917
 20
1346.5034334144
 11
2707.3652427837
 21
1398.1735169623
  0
LINE
  5
41B
100
AcDbEntity
  8
6_ALL_SURFS
100
AcDbLine
 62
7
  6
CONTINUOUS
 10
2645.1581745515
 20
1434.0981898246
 11
2564.1697323846
 21
1480.869133596
  0
LINE
  5
41C
100
AcDbEntity
  8
6_ALL_SURFS
100
AcDbLine
 62
7
  6
CONTINUOUS
 10
2686.004230783
 20
1193.0968939947
 11
2686.004230783
 21
1199.3014553373
  0
LINE
  5
41D
100
AcDbEntity
  8
6_ALL_SURFS
100
AcDbLine
 62
7
  6
CONTINUOUS
 10
2700.5706304755
 20
1211.7138817451
 11
2700.5706304755
 21
1201.5090111159
  0
LINE
  5
41E
100
AcDbEntity
  8
6_ALL_SURFS
100
AcDbLine
 62
7
  6
CONTINUOUS
 10
2703.3990576002
 20
1212.1246425685
 11
2703.3990576002
 21
1217.2668607989
  0
LINE
  5
41F
100
AcDbEntity
  8
6_ALL_SURFS
100
AcDbLine
 62
7
  6
CONTINUOUS
 10
2707.6416982873
 20
1209.6745113681
 11
2707.6416982873
 21
1215.7974337456
  0
LINE
  5
420
100
AcDbEntity
  8
6_ALL_SURFS
100
AcDbLine
 62
7
  6
CONTINUOUS
 10
2478.9594773854
 20
1094.7606316993
 11
2472.5994042209
 21
1091.0876801473
  0
LINE
  5
421
100
AcDbEntity
  8
0
100
AcDbLine
 62
7
  6
CONTINUOUS
 10
2552.1489171044
 20
1508.2209132553
 11
2562.048412041
 21
1502.5039404546
  0
LINE
  5
422
100
AcDbEntity
  8
0
100
AcDbLine
 62
7
  6
CONTINUOUS
 10
2564.1697323846
 20
1503.7280438054
 11
2552.1489171044
 21
1510.6700822063
  0
LINE
  5
423
100
AcDbEntity
  8
6_ALL_SURFS
100
AcDbLine
 62
7
  6
CONTINUOUS
 10
2816.6360122649
 20
1357.937379016
 11
2727.1642326569
 21
1409.6074625638
  0
LINE
  5
424
100
AcDbEntity
  8
6_ALL_SURFS
100
AcDbLine
 62
7
  6
CONTINUOUS
 10
2664.9571644247
 20
1445.5321354261
 11
2583.9687222578
 21
1492.3030791976
  0
LINE
  5
425
100
AcDbEntity
  8
6_ALL_SURFS
100
AcDbLine
 62
7
  6
CONTINUOUS
 10
2819.4638839802
 20
1359.5704790664
 11
2729.9921043722
 21
1411.2405626143
  0
LINE
  5
426
100
AcDbEntity
  8
6_ALL_SURFS
100
AcDbLine
 62
7
  6
CONTINUOUS
 10
2667.78503614
 20
1447.1652354766
 11
2585.3829358202
 21
1494.7525688983
  0
LINE
  5
427
100
AcDbEntity
  8
6_ALL_SURFS
100
AcDbLine
 62
7
  6
CONTINUOUS
 10
2901.4596670106
 20
1321.6046717034
 11
2897.2170263234
 21
1324.0548029037
  0
LINE
  5
428
100
AcDbEntity
  8
0
100
AcDbLine
 62
7
  6
CONTINUOUS
 10
2573.36212054
 20
1522.920738208
 11
2585.3829358202
 21
1515.9786998071
  0
LINE
  5
429
100
AcDbEntity
  8
6_ALL_SURFS
100
AcDbLine
 62
7
  6
CONTINUOUS
 10
2482.8524525481
 20
1092.5124328506
 11
2503.3585492025
 21
1104.3547336522
  0
LINE
  5
42A
100
AcDbEntity
  8
6_ALL_SURFS
100
AcDbLine
 62
7
  6
CONTINUOUS
 10
2901.4596670106
 20
1326.5030096054
 11
2881.293505364
 21
1314.8570217679
  0
LINE
  5
42B
100
AcDbEntity
  8
6_ALL_SURFS
100
AcDbLine
 62
7
  6
CONTINUOUS
 10
2686.004230783
 20
1199.3014553373
 11
2554.270237448
 21
1123.2248815669
  0
LINE
  5
42C
100
AcDbEntity
  8
6_ALL_SURFS
100
AcDbLine
 62
7
  6
CONTINUOUS
 10
2907.1165212601
 20
1324.8715133038
 11
2901.4596670106
 21
1321.6046717034
  0
LINE
  5
42D
100
AcDbEntity
  8
6_ALL_SURFS
100
AcDbLine
 62
7
  6
CONTINUOUS
 10
2876.710929669
 20
1307.3122397014
 11
2707.6416982873
 21
1209.6745113681
  0
LINE
  5
42E
100
AcDbEntity
  8
6_ALL_SURFS
100
AcDbLine
 62
7
  6
CONTINUOUS
 10
2889.4388517304
 20
1313.4444638225
 11
2869.6398618572
 21
1302.0105182209
  0
LINE
  5
42F
100
AcDbEntity
  8
6_ALL_SURFS
100
AcDbLine
 62
7
  6
CONTINUOUS
 10
2700.5706304755
 20
1201.5090111159
 11
2686.004230783
 21
1193.0968939947
  0
LINE
  5
430
100
AcDbEntity
  8
0
100
AcDbLine
 62
7
  6
CONTINUOUS
 10
2705.9446420125
 20
1469.2024636643
 11
2558.5128781351
 21
1554.344522876
  0
LINE
  5
431
100
AcDbEntity
  8
6_ALL_SURFS
100
AcDbLine
 62
7
  6
CONTINUOUS
 10
2705.9446420125
 20
1469.2024636643
 11
2857.6234898527
 21
1381.6077072542
  0
LINE
  5
432
100
AcDbEntity
  8
6_ALL_SURFS
100
AcDbLine
 62
7
  6
CONTINUOUS
 10
2865.3986096937
 20
1386.097850331
 11
2558.5128781351
 21
1563.3248090297
  0
LINE
  5
433
100
AcDbEntity
  8
6_ALL_SURFS
100
AcDbLine
 62
7
  6
CONTINUOUS
 10
2744.8355149777
 20
1419.8126539428
 11
2744.8355149777
 21
1446.7429276613
  0
LINE
  5
434
100
AcDbEntity
  8
6_ALL_SURFS
100
AcDbLine
 62
7
  6
CONTINUOUS
 10
2872.4682889819
 20
1390.1806004571
 11
2562.048412041
 21
1569.4485332816
  0
LINE
  5
435
100
AcDbEntity
  8
6_ALL_SURFS
100
AcDbLine
 62
7
  6
CONTINUOUS
 10
2903.5809873541
 20
1393.4474420576
 11
2567.7052662905
 21
1587.4161620841
  0
LINE
  5
436
100
AcDbEntity
  8
0
100
AcDbLine
 62
7
  6
CONTINUOUS
 10
2906.0814783196
 20
1393.6953373287
 11
2570.2057572559
 21
1587.6640573552
  0
LINE
  5
437
100
AcDbEntity
  8
6_ALL_SURFS
100
AcDbLine
 62
7
  6
CONTINUOUS
 10
2869.6398618572
 20
1303.2286877009
 11
2869.6398618572
 21
1302.0105182209
  0
LINE
  5
438
100
AcDbEntity
  8
6_ALL_SURFS
100
AcDbLine
 62
7
  6
CONTINUOUS
 10
2892.9743856363
 20
1319.5681880744
 11
2892.9743856363
 21
1321.6027472047
  0
LINE
  5
439
100
AcDbEntity
  8
6_ALL_SURFS
100
AcDbLine
 62
7
  6
CONTINUOUS
 10
2901.4596670106
 20
1321.6046717034
 11
2901.4596670106
 21
1326.5030096054
  0
LINE
  5
43A
100
AcDbEntity
  8
6_ALL_SURFS
100
AcDbLine
 62
7
  6
CONTINUOUS
 10
2907.1165212601
 20
1391.4072698062
 11
2907.1165212601
 21
1324.8715133038
  0
LINE
  5
43B
100
AcDbEntity
  8
0
100
AcDbLine
 62
7
  6
CONTINUOUS
 10
881.5676618682
 20
350.0878259109
 11
881.5676618682
 21
450.2247507683
  0
LINE
  5
43C
100
AcDbEntity
  8
0
100
AcDbLine
 62
7
  6
CONTINUOUS
 10
887.5676618682
 20
350.0878259109
 11
887.5676618682
 21
379.2247507683
  0
LINE
  5
43D
100
AcDbEntity
  8
0
100
AcDbLine
 62
7
  6
CONTINUOUS
 10
901.0676618682
 20
365.2247507683
 11
901.0676618682
 21
379.2247507683
  0
LINE
  5
43E
100
AcDbEntity
  8
0
100
AcDbLine
 62
7
  6
CONTINUOUS
 10
901.5676618682
 20
365.2247507683
 11
901.5676618682
 21
342.2247507683
  0
LINE
  5
43F
100
AcDbEntity
  8
0
100
AcDbLine
 62
7
  6
CONTINUOUS
 10
904.5676618682
 20
345.2247507683
 11
904.5676618682
 21
365.2247507683
  0
LINE
  5
440
100
AcDbEntity
  8
6_ALL_SURFS
100
AcDbLine
 62
7
  6
CONTINUOUS
 10
1336.5676618682
 20
342.2247507683
 11
901.5676618682
 21
342.2247507683
  0
LINE
  5
441
100
AcDbEntity
  8
6_ALL_SURFS
100
AcDbLine
 62
7
  6
CONTINUOUS
 10
1333.5676618682
 20
345.2247507683
 11
904.5676618682
 21
345.2247507683
  0
LINE
  5
442
100
AcDbEntity
  8
6_ALL_SURFS
100
AcDbLine
 62
7
  6
CONTINUOUS
 10
1333.5676618682
 20
347.2247507683
 11
904.5676618682
 21
347.2247507683
  0
LINE
  5
443
100
AcDbEntity
  8
6_ALL_SURFS
100
AcDbLine
 62
7
  6
CONTINUOUS
 10
1356.5676618682
 20
350.0878204999
 11
1350.5676618682
 21
350.0878204999
  0
LINE
  5
444
100
AcDbEntity
  8
0
100
AcDbLine
 62
7
  6
CONTINUOUS
 10
887.5676618682
 20
350.0878204999
 11
881.5676618682
 21
350.0878204999
  0
LINE
  5
445
100
AcDbEntity
  8
6_ALL_SURFS
100
AcDbLine
 62
7
  6
CONTINUOUS
 10
1356.5676618682
 20
350.1560241399
 11
1350.5676618682
 21
350.1560241399
  0
LINE
  5
446
100
AcDbEntity
  8
0
100
AcDbLine
 62
7
  6
CONTINUOUS
 10
881.5676618682
 20
350.1560241399
 11
887.5676618682
 21
350.1560241399
  0
LINE
  5
447
100
AcDbEntity
  8
6_ALL_SURFS
100
AcDbLine
 62
7
  6
CONTINUOUS
 10
1356.5676618682
 20
362.3996039311
 11
1350.5676618682
 21
362.3996039311
  0
LINE
  5
448
100
AcDbEntity
  8
0
100
AcDbLine
 62
7
  6
CONTINUOUS
 10
881.5676618682
 20
362.3996039311
 11
887.5676618682
 21
362.3996039311
  0
LINE
  5
449
100
AcDbEntity
  8
6_ALL_SURFS
100
AcDbLine
 62
7
  6
CONTINUOUS
 10
1356.5676618682
 20
364.7247507683
 11
1350.5676618682
 21
364.7247507683
  0
LINE
  5
44A
100
AcDbEntity
  8
0
100
AcDbLine
 62
7
  6
CONTINUOUS
 10
887.5676618682
 20
364.7247507683
 11
881.5676618682
 21
364.7247507683
  0
LINE
  5
44B
100
AcDbEntity
  8
6_ALL_SURFS
100
AcDbLine
 62
7
  6
CONTINUOUS
 10
1337.0676618682
 20
365.2247507683
 11
901.0676618682
 21
365.2247507683
  0
LINE
  5
44C
100
AcDbEntity
  8
6_ALL_SURFS
100
AcDbLine
 62
7
  6
CONTINUOUS
 10
1356.5676618682
 20
367.9538773279
 11
1350.5676618682
 21
367.9538773279
  0
LINE
  5
44D
100
AcDbEntity
  8
0
100
AcDbLine
 62
7
  6
CONTINUOUS
 10
881.5676618682
 20
367.9538773279
 11
887.5676618682
 21
367.9538773279
  0
LINE
  5
44E
100
AcDbEntity
  8
6_ALL_SURFS
100
AcDbLine
 62
7
  6
CONTINUOUS
 10
1350.5676618682
 20
370.2247507683
 11
901.0676618682
 21
370.2247507683
  0
LINE
  5
44F
100
AcDbEntity
  8
0
100
AcDbLine
 62
7
  6
CONTINUOUS
 10
887.5676618682
 20
370.2247507683
 11
901.0676618682
 21
370.2247507683
  0
LINE
  5
450
100
AcDbEntity
  8
0
100
AcDbLine
 62
7
  6
CONTINUOUS
 10
901.0676618682
 20
373.2247507683
 11
887.5676618682
 21
373.2247507683
  0
LINE
  5
451
100
AcDbEntity
  8
6_ALL_SURFS
100
AcDbLine
 62
7
  6
CONTINUOUS
 10
1337.0676618682
 20
373.2247507683
 11
1350.5676618682
 21
373.2247507683
  0
LINE
  5
452
100
AcDbEntity
  8
6_ALL_SURFS
100
AcDbLine
 62
7
  6
CONTINUOUS
 10
1356.5676618682
 20
379.2247507683
 11
1337.0676618682
 21
379.2247507683
  0
LINE
  5
453
100
AcDbEntity
  8
0
100
AcDbLine
 62
7
  6
CONTINUOUS
 10
881.5676618682
 20
379.2247507683
 11
901.0676618682
 21
379.2247507683
  0
LINE
  5
454
100
AcDbEntity
  8
6_ALL_SURFS
100
AcDbLine
 62
7
  6
CONTINUOUS
 10
1356.5676618682
 20
445.2247507683
 11
881.5676618682
 21
445.2247507683
  0
LINE
  5
455
100
AcDbEntity
  8
6_ALL_SURFS
100
AcDbLine
 62
7
  6
CONTINUOUS
 10
881.5676618682
 20
450.2247507683
 11
1356.5676618682
 21
450.2247507683
  0
LINE
  5
456
100
AcDbEntity
  8
6_ALL_SURFS
100
AcDbLine
 62
7
  6
CONTINUOUS
 10
1333.5676618682
 20
345.2247507683
 11
1333.5676618682
 21
365.2247507683
  0
LINE
  5
457
100
AcDbEntity
  8
6_ALL_SURFS
100
AcDbLine
 62
7
  6
CONTINUOUS
 10
1336.5676618682
 20
365.2247507683
 11
1336.5676618682
 21
342.2247507683
  0
LINE
  5
458
100
AcDbEntity
  8
6_ALL_SURFS
100
AcDbLine
 62
7
  6
CONTINUOUS
 10
1337.0676618682
 20
365.2247507683
 11
1337.0676618682
 21
379.2247507683
  0
LINE
  5
459
100
AcDbEntity
  8
6_ALL_SURFS
100
AcDbLine
 62
7
  6
CONTINUOUS
 10
1350.5676618682
 20
350.0878259109
 11
1350.5676618682
 21
379.2247507683
  0
LINE
  5
45A
100
AcDbEntity
  8
6_ALL_SURFS
100
AcDbLine
 62
7
  6
CONTINUOUS
 10
1356.5676618682
 20
350.0878259109
 11
1356.5676618682
 21
450.2247507683
  0
LINE
  5
45B
100
AcDbEntity
  8
6_ALL_SURFS
100
AcDbLine
 62
7
  6
CONTINUOUS
 10
1356.5676618682
 20
791.0325699699
 11
881.5676618682
 21
791.0325699699
  0
LINE
  5
45C
100
AcDbEntity
  8
6_ALL_SURFS
100
AcDbLine
 62
7
  6
CONTINUOUS
 10
881.5676618682
 20
796.0325699699
 11
1356.5676618682
 21
796.0325699699
  0
LINE
  5
45D
100
AcDbEntity
  8
6_ALL_SURFS
100
AcDbLine
 62
7
  6
CONTINUOUS
 10
1338.5676618682
 20
822.0325699699
 11
899.5676618682
 21
822.0325699699
  0
LINE
  5
45E
100
AcDbEntity
  8
6_ALL_SURFS
100
AcDbLine
 62
7
  6
CONTINUOUS
 10
1338.5676618682
 20
827.0325699699
 11
899.5676618682
 21
827.0325699699
  0
LINE
  5
45F
100
AcDbEntity
  8
0
100
AcDbLine
 62
7
  6
CONTINUOUS
 10
881.5676618682
 20
791.0325699699
 11
881.5676618682
 21
796.0325699699
  0
LINE
  5
460
100
AcDbEntity
  8
6_ALL_SURFS
100
AcDbLine
 62
7
  6
CONTINUOUS
 10
881.5676618682
 20
796.0325699699
 11
881.5676618682
 21
1386.0325699699
  0
LINE
  5
461
100
AcDbEntity
  8
0
100
AcDbLine
 62
7
  6
CONTINUOUS
 10
881.5676618682
 20
1386.0325699699
 11
881.5676618682
 21
1391.0325699699
  0
LINE
  5
462
100
AcDbEntity
  8
0
100
AcDbLine
 62
7
  6
CONTINUOUS
 10
899.5676618682
 20
844.0325699699
 11
1108.0676618682
 21
844.0325699699
  0
LINE
  5
463
100
AcDbEntity
  8
6_ALL_SURFS
100
AcDbLine
 62
7
  6
CONTINUOUS
 10
1130.0676618682
 20
844.0325699699
 11
1338.5676618682
 21
844.0325699699
  0
LINE
  5
464
100
AcDbEntity
  8
0
100
AcDbLine
 62
7
  6
CONTINUOUS
 10
899.5676618682
 20
822.0325699699
 11
899.5676618682
 21
1360.0325699699
  0
LINE
  5
465
100
AcDbEntity
  8
0
100
AcDbLine
 62
7
  6
CONTINUOUS
 10
904.0676618682
 20
844.0325699699
 11
904.0676618682
 21
827.0325699699
  0
LINE
  5
466
100
AcDbEntity
  8
DEFAULT_3
100
AcDbLine
 62
7
  6
PHANTOM
 10
1061.5676618682
 20
1452.2457727674
 11
1061.5676618682
 21
700.2688100039
  0
LINE
  5
467
100
AcDbEntity
  8
0
100
AcDbLine
 62
7
  6
CONTINUOUS
 10
1108.0676618682
 20
827.0325699699
 11
1108.0676618682
 21
1355.0325699699
  0
LINE
  5
468
100
AcDbEntity
  8
3_ALL_AXES
100
AcDbLine
 62
7
  6
CENTER
 10
1119.0676618682
 20
1094.7325699699
 11
1119.0676618682
 21
1076.9524699699
  0
LINE
  5
469
100
AcDbEntity
  8
3_ALL_AXES
100
AcDbLine
 62
7
  6
CENTER
 10
1119.0676618682
 20
1094.7325699699
 11
1119.0676618682
 21
1112.5126699699
  0
LINE
  5
46A
100
AcDbEntity
  8
6_ALL_SURFS
100
AcDbLine
 62
7
  6
CONTINUOUS
 10
1130.0676618682
 20
827.0325699699
 11
1130.0676618682
 21
1355.0325699699
  0
LINE
  5
46B
100
AcDbEntity
  8
3_ALL_AXES
100
AcDbLine
 62
7
  6
CENTER
 10
1119.0676618682
 20
1094.7325699699
 11
873.6847845734
 21
1094.7325699699
  0
LINE
  5
46C
100
AcDbEntity
  8
3_ALL_AXES
100
AcDbLine
 62
7
  6
CENTER
 10
1119.0676618682
 20
1094.7325699699
 11
1375.7378754178
 21
1094.7325699699
  0
LINE
  5
46D
100
AcDbEntity
  8
6_ALL_SURFS
100
AcDbLine
 62
7
  6
CONTINUOUS
 10
1334.0676618682
 20
844.0325699699
 11
1334.0676618682
 21
827.0325699699
  0
LINE
  5
46E
100
AcDbEntity
  8
6_ALL_SURFS
100
AcDbLine
 62
7
  6
CONTINUOUS
 10
1338.5676618682
 20
822.0325699699
 11
1338.5676618682
 21
1360.0325699699
  0
LINE
  5
46F
100
AcDbEntity
  8
6_ALL_SURFS
100
AcDbLine
 62
7
  6
CONTINUOUS
 10
1356.5676618682
 20
791.0325699699
 11
1356.5676618682
 21
1391.0325699699
  0
LINE
  5
470
100
AcDbEntity
  8
6_ALL_SURFS
100
AcDbLine
 62
7
  6
CONTINUOUS
 10
1338.5676618682
 20
1355.0325699699
 11
899.5676618682
 21
1355.0325699699
  0
LINE
  5
471
100
AcDbEntity
  8
6_ALL_SURFS
100
AcDbLine
 62
7
  6
CONTINUOUS
 10
1338.5676618682
 20
1360.0325699699
 11
899.5676618682
 21
1360.0325699699
  0
LINE
  5
472
100
AcDbEntity
  8
6_ALL_SURFS
100
AcDbLine
 62
7
  6
CONTINUOUS
 10
1356.5676618682
 20
1386.0325699699
 11
881.5676618682
 21
1386.0325699699
  0
LINE
  5
473
100
AcDbEntity
  8
6_ALL_SURFS
100
AcDbLine
 62
7
  6
CONTINUOUS
 10
1356.5676618682
 20
1391.0325699699
 11
881.5676618682
 21
1391.0325699699
  0
LINE
  5
474
100
AcDbEntity
  8
0
100
AcDbLine
 62
7
  6
CONTINUOUS
 10
395.4866235963
 20
791.0325699699
 11
470.4866235963
 21
791.0325699699
  0
LINE
  5
475
100
AcDbEntity
  8
0
100
AcDbLine
 62
7
  6
CONTINUOUS
 10
459.4866235963
 20
794.0325699699
 11
395.4866235963
 21
794.0325699699
  0
LINE
  5
476
100
AcDbEntity
  8
0
100
AcDbLine
 62
7
  6
CONTINUOUS
 10
470.4866235963
 20
827.0325699699
 11
459.4866235963
 21
827.0325699699
  0
LINE
  5
477
100
AcDbEntity
  8
6_ALL_SURFS
100
AcDbLine
 62
7
  6
CONTINUOUS
 10
387.6614767591
 20
825.6053983808
 11
386.7442851173
 21
825.817148756
  0
LINE
  5
478
100
AcDbEntity
  8
6_ALL_SURFS
100
AcDbLine
 62
7
  6
CONTINUOUS
 10
387.4866235963
 20
832.3325699699
 11
390.4866235963
 21
832.3325699699
  0
LINE
  5
479
100
AcDbEntity
  8
0
100
AcDbLine
 62
7
  6
CONTINUOUS
 10
393.4866235963
 20
844.0325699699
 11
390.4866235963
 21
844.0325699699
  0
LINE
  5
47A
100
AcDbEntity
  8
3_AXES_OTHER
100
AcDbLine
 62
7
  6
CENTER
 10
428.4866235963
 20
851.0325699699
 11
417.0618079075
 21
851.0325699699
  0
LINE
  5
47B
100
AcDbEntity
  8
3_AXES_OTHER
100
AcDbLine
 62
7
  6
CENTER
 10
428.4866235963
 20
851.0325699699
 11
439.9114392851
 21
851.0325699699
  0
LINE
  5
47C
100
AcDbEntity
  8
3_AXES_OTHER
100
AcDbLine
 62
7
  6
CENTER
 10
428.4866235963
 20
891.0325699699
 11
416.4192303659
 21
891.0325699699
  0
LINE
  5
47D
100
AcDbEntity
  8
3_AXES_OTHER
100
AcDbLine
 62
7
  6
CENTER
 10
428.4866235963
 20
891.0325699699
 11
440.5540168267
 21
891.0325699699
  0
LINE
  5
47E
100
AcDbEntity
  8
0
100
AcDbLine
 62
7
  6
CONTINUOUS
 10
367.4866235963
 20
1386.0325699699
 11
367.4866235963
 21
1358.0325699699
  0
LINE
  5
47F
100
AcDbEntity
  8
0
100
AcDbLine
 62
7
  6
CONTINUOUS
 10
370.4866235963
 20
1358.0325699699
 11
370.4866235963
 21
1386.0325699699
  0
LINE
  5
480
100
AcDbEntity
  8
6_ALL_SURFS
100
AcDbLine
 62
7
  6
CONTINUOUS
 10
383.9866235963
 20
1098.9325699699
 11
383.9866235963
 21
1078.3325699699
  0
LINE
  5
481
100
AcDbEntity
  8
6_ALL_SURFS
100
AcDbLine
 62
7
  6
CONTINUOUS
 10
388.9866235963
 20
1348.0325699699
 11
388.9866235963
 21
1108.9325699699
  0
LINE
  5
482
100
AcDbEntity
  8
0
100
AcDbLine
 62
7
  6
CONTINUOUS
 10
390.4866235963
 20
844.0325699699
 11
390.4866235963
 21
796.0325699699
  0
LINE
  5
483
100
AcDbEntity
  8
6_ALL_SURFS
100
AcDbLine
 62
7
  6
CONTINUOUS
 10
391.5866235963
 20
1078.3325699699
 11
391.5866235963
 21
892.0325699699
  0
LINE
  5
484
100
AcDbEntity
  8
0
100
AcDbLine
 62
7
  6
CONTINUOUS
 10
393.4866235963
 20
796.0325699699
 11
393.4866235963
 21
1388.0325699699
  0
LINE
  5
485
100
AcDbEntity
  8
6_ALL_SURFS
100
AcDbLine
 62
7
  6
CONTINUOUS
 10
383.9866235963
 20
1078.3325699699
 11
391.5866235963
 21
1078.3325699699
  0
LINE
  5
486
100
AcDbEntity
  8
3_AXES_OTHER
100
AcDbLine
 62
7
  6
CENTER
 10
428.4866235963
 20
891.0325699699
 11
428.4866235963
 21
878.9651767394
  0
LINE
  5
487
100
AcDbEntity
  8
3_AXES_OTHER
100
AcDbLine
 62
7
  6
CENTER
 10
428.4866235963
 20
851.0325699699
 11
428.4866235963
 21
839.6077542811
  0
LINE
  5
488
100
AcDbEntity
  8
3_AXES_OTHER
100
AcDbLine
 62
7
  6
CENTER
 10
428.4866235963
 20
851.0325699699
 11
428.4866235963
 21
862.4573856587
  0
LINE
  5
489
100
AcDbEntity
  8
3_AXES_OTHER
100
AcDbLine
 62
7
  6
CENTER
 10
428.4866235963
 20
891.0325699699
 11
428.4866235963
 21
903.0999632003
  0
LINE
  5
48A
100
AcDbEntity
  8
6_ALL_SURFS
100
AcDbLine
 62
7
  6
CONTINUOUS
 10
393.4866235963
 20
1098.9325699699
 11
383.9866235963
 21
1098.9325699699
  0
LINE
  5
48B
100
AcDbEntity
  8
6_ALL_SURFS
100
AcDbLine
 62
7
  6
CONTINUOUS
 10
388.9866235963
 20
1108.9325699699
 11
393.4866235963
 21
1108.9325699699
  0
LINE
  5
48C
100
AcDbEntity
  8
0
100
AcDbLine
 62
7
  6
CONTINUOUS
 10
459.4866235963
 20
794.0325699699
 11
459.4866235963
 21
1388.0325699699
  0
LINE
  5
48D
100
AcDbEntity
  8
0
100
AcDbLine
 62
7
  6
CONTINUOUS
 10
475.4866235963
 20
796.0325699699
 11
475.4866235963
 21
822.0325699699
  0
LINE
  5
48E
100
AcDbEntity
  8
6_ALL_SURFS
100
AcDbLine
 62
7
  6
CONTINUOUS
 10
475.4866235963
 20
822.0325699699
 11
475.4866235963
 21
1360.0325699699
  0
LINE
  5
48F
100
AcDbEntity
  8
0
100
AcDbLine
 62
7
  6
CONTINUOUS
 10
475.4866235963
 20
1360.0325699699
 11
475.4866235963
 21
1386.0325699699
  0
LINE
  5
490
100
AcDbEntity
  8
0
100
AcDbLine
 62
7
  6
CONTINUOUS
 10
459.4866235963
 20
1355.0325699699
 11
470.4866235963
 21
1355.0325699699
  0
LINE
  5
491
100
AcDbEntity
  8
0
100
AcDbLine
 62
7
  6
CONTINUOUS
 10
367.4866235963
 20
1358.0325699699
 11
370.4866235963
 21
1358.0325699699
  0
LINE
  5
492
100
AcDbEntity
  8
6_ALL_SURFS
100
AcDbLine
 62
7
  6
CONTINUOUS
 10
370.4866235963
 20
1358.0325699699
 11
393.4866235963
 21
1358.0325699699
  0
LINE
  5
493
100
AcDbEntity
  8
0
100
AcDbLine
 62
7
  6
CONTINUOUS
 10
372.4866235963
 20
1388.0325699699
 11
459.4866235963
 21
1388.0325699699
  0
LINE
  5
494
100
AcDbEntity
  8
0
100
AcDbLine
 62
7
  6
CONTINUOUS
 10
470.4866235963
 20
1391.0325699699
 11
372.4866235963
 21
1391.0325699699
  0
LINE
  5
495
100
AcDbEntity
  8
6_ALL_SURFS
100
AcDbLine
 62
7
  6
CONTINUOUS
 10
1776.0191231174
 20
791.0325699699
 11
1701.0191231174
 21
791.0325699699
  0
LINE
  5
496
100
AcDbEntity
  8
6_ALL_SURFS
100
AcDbLine
 62
7
  6
CONTINUOUS
 10
1783.8442699546
 20
825.6053983808
 11
1784.7614615964
 21
825.817148756
  0
LINE
  5
497
100
AcDbEntity
  8
6_ALL_SURFS
100
AcDbLine
 62
7
  6
CONTINUOUS
 10
1784.0191231174
 20
832.3325699699
 11
1778.2899965578
 21
832.3325699699
  0
LINE
  5
498
100
AcDbEntity
  8
3_AXES_OTHER
100
AcDbLine
 62
7
  6
CENTER
 10
1726.0191231174
 20
851.0325699699
 11
1713.6640965885
 21
851.0325699699
  0
LINE
  5
499
100
AcDbEntity
  8
3_AXES_OTHER
100
AcDbLine
 62
7
  6
CENTER
 10
1726.0191231174
 20
851.0325699699
 11
1738.3741496463
 21
851.0325699699
  0
LINE
  5
49A
100
AcDbEntity
  8
3_AXES_OTHER
100
AcDbLine
 62
7
  6
CENTER
 10
1726.0191231174
 20
891.0325699699
 11
1714.0943940494
 21
891.0325699699
  0
LINE
  5
49B
100
AcDbEntity
  8
3_AXES_OTHER
100
AcDbLine
 62
7
  6
CENTER
 10
1726.0191231174
 20
891.0325699699
 11
1737.9438521854
 21
891.0325699699
  0
LINE
  5
49C
100
AcDbEntity
  8
6_ALL_SURFS
100
AcDbLine
 62
7
  6
CONTINUOUS
 10
1696.0191231174
 20
1386.0325699699
 11
1696.0191231174
 21
796.0325699699
  0
LINE
  5
49D
100
AcDbEntity
  8
3_AXES_OTHER
100
AcDbLine
 62
7
  6
CENTER
 10
1726.0191231174
 20
891.0325699699
 11
1726.0191231174
 21
879.1078409019
  0
LINE
  5
49E
100
AcDbEntity
  8
3_AXES_OTHER
100
AcDbLine
 62
7
  6
CENTER
 10
1726.0191231174
 20
851.0325699699
 11
1726.0191231174
 21
838.677543441
  0
LINE
  5
49F
100
AcDbEntity
  8
3_AXES_OTHER
100
AcDbLine
 62
7
  6
CENTER
 10
1726.0191231174
 20
851.0325699699
 11
1726.0191231174
 21
863.3875964987
  0
LINE
  5
4A0
100
AcDbEntity
  8
3_AXES_OTHER
100
AcDbLine
 62
7
  6
CENTER
 10
1726.0191231174
 20
891.0325699699
 11
1726.0191231174
 21
902.9572990378
  0
LINE
  5
4A1
100
AcDbEntity
  8
6_ALL_SURFS
100
AcDbLine
 62
7
  6
CONTINUOUS
 10
1787.5191231174
 20
1078.3325699699
 11
1779.9191231174
 21
1078.3325699699
  0
LINE
  5
4A2
100
AcDbEntity
  8
6_ALL_SURFS
100
AcDbLine
 62
7
  6
CONTINUOUS
 10
1767.0191231174
 20
791.0325699699
 11
1767.0191231174
 21
820.0325699699
  0
LINE
  5
4A3
100
AcDbEntity
  8
6_ALL_SURFS
100
AcDbLine
 62
7
  6
CONTINUOUS
 10
1775.0191231174
 20
1098.9325699699
 11
1787.5191231174
 21
1098.9325699699
  0
LINE
  5
4A4
100
AcDbEntity
  8
6_ALL_SURFS
100
AcDbLine
 62
7
  6
CONTINUOUS
 10
1782.5191231174
 20
1108.9325699699
 11
1775.0191231174
 21
1108.9325699699
  0
LINE
  5
4A5
100
AcDbEntity
  8
6_ALL_SURFS
100
AcDbLine
 62
7
  6
CONTINUOUS
 10
1776.5191231174
 20
1383.0325699699
 11
1776.5191231174
 21
1354.5133106683
  0
LINE
  5
4A6
100
AcDbEntity
  8
6_ALL_SURFS
100
AcDbLine
 62
7
  6
CONTINUOUS
 10
1778.0191231174
 20
1098.9325699699
 11
1778.0191231174
 21
1108.9325699699
  0
LINE
  5
4A7
100
AcDbEntity
  8
6_ALL_SURFS
100
AcDbLine
 62
7
  6
CONTINUOUS
 10
1778.0191231174
 20
1345.5352908576
 11
1778.0191231174
 21
1350.5298490821
  0
LINE
  5
4A8
100
AcDbEntity
  8
6_ALL_SURFS
100
AcDbLine
 62
7
  6
CONTINUOUS
 10
1778.0191231174
 20
1354.1082914293
 11
1778.0191231174
 21
1358.0325699699
  0
LINE
  5
4A9
100
AcDbEntity
  8
6_ALL_SURFS
100
AcDbLine
 62
7
  6
CONTINUOUS
 10
1779.9191231174
 20
1078.3325699699
 11
1779.9191231174
 21
892.0325699699
  0
LINE
  5
4AA
100
AcDbEntity
  8
6_ALL_SURFS
100
AcDbLine
 62
7
  6
CONTINUOUS
 10
1781.0191231174
 20
832.3325699699
 11
1781.0191231174
 21
796.0325699699
  0
LINE
  5
4AB
100
AcDbEntity
  8
6_ALL_SURFS
100
AcDbLine
 62
7
  6
CONTINUOUS
 10
1782.5191231174
 20
1391.0325699699
 11
1782.5191231174
 21
1383.0325699699
  0
LINE
  5
4AC
100
AcDbEntity
  8
6_ALL_SURFS
100
AcDbLine
 62
7
  6
CONTINUOUS
 10
1782.5191231174
 20
1348.0325699699
 11
1782.5191231174
 21
1108.9325699699
  0
LINE
  5
4AD
100
AcDbEntity
  8
6_ALL_SURFS
100
AcDbLine
 62
7
  6
CONTINUOUS
 10
1787.5191231174
 20
1098.9325699699
 11
1787.5191231174
 21
1078.3325699699
  0
LINE
  5
4AE
100
AcDbEntity
  8
6_ALL_SURFS
100
AcDbLine
 62
7
  6
CONTINUOUS
 10
1804.0191231174
 20
1386.0325699699
 11
1804.0191231174
 21
1358.0325699699
  0
LINE
  5
4AF
100
AcDbEntity
  8
6_ALL_SURFS
100
AcDbLine
 62
7
  6
CONTINUOUS
 10
1778.2899965578
 20
832.3325699699
 11
1767.0191231174
 21
820.0325699699
  0
LINE
  5
4B0
100
AcDbEntity
  8
6_ALL_SURFS
100
AcDbLine
 62
7
  6
CONTINUOUS
 10
1776.5191231174
 20
1358.0325699699
 11
1804.0191231174
 21
1358.0325699699
  0
LINE
  5
4B1
100
AcDbEntity
  8
6_ALL_SURFS
100
AcDbLine
 62
7
  6
CONTINUOUS
 10
1782.5191231174
 20
1383.0325699699
 11
1776.5191231174
 21
1383.0325699699
  0
LINE
  5
4B2
100
AcDbEntity
  8
6_ALL_SURFS
100
AcDbLine
 62
7
  6
CONTINUOUS
 10
1701.0191231174
 20
1391.0325699699
 11
1799.0191231174
 21
1391.0325699699
  0
LWPOLYLINE
  5
4B3
100
AcDbEntity
  8
0
100
AcDbPolyline
 62
7
  6
CONTINUOUS
 90
2
 70
1
 43
1.75
 10
2245.22073746
 20
82.2425193313
 42
1.0
 10
2263.0007374599
 20
82.2425193313
 42
1.0
  0
LWPOLYLINE
  5
4B4
100
AcDbEntity
  8
0
100
AcDbPolyline
 62
7
  6
CONTINUOUS
 90
2
 70
1
 43
1.75
 10
2249.66573746
 20
82.2425193313
 42
1.0
 10
2258.5557374599
 20
82.2425193313
 42
1.0
  0
ARC
  5
4B5
100
AcDbEntity
  8
0
100
AcDbCircle
 62
7
  6
CONTINUOUS
 10
2690.4225653326
 20
307.2364746575
 40
1.583751653
100
AcDbArc
 50
90.0
 51
180.0
  0
ARC
  5
4B6
100
AcDbEntity
  8
0
100
AcDbCircle
 62
7
  6
CONTINUOUS
 10
2573.1109162542
 20
307.5233406535
 40
1.583751653
100
AcDbArc
 50
90.0
 51
180.0
  0
ARC
  5
4B7
100
AcDbEntity
  8
0
100
AcDbCircle
 62
7
  6
CONTINUOUS
 10
2726.9171032961
 20
310.4039779576
 40
1.5837516466
100
AcDbArc
 50
270.0
 51
360.0
  0
ARC
  5
4B8
100
AcDbEntity
  8
0
100
AcDbCircle
 62
7
  6
CONTINUOUS
 10
2655.7676921801
 20
294.6073110621
 40
1.5837516466
100
AcDbArc
 50
0.0
 51
89.9999995368
  0
ARC
  5
4B9
100
AcDbEntity
  8
0
100
AcDbCircle
 62
7
  6
CONTINUOUS
 10
2620.3098025969
 20
288.2059505116
 40
1.5837516466
100
AcDbArc
 50
90.0
 51
180.0
  0
ARC
  5
4BA
100
AcDbEntity
  8
0
100
AcDbCircle
 62
7
  6
CONTINUOUS
 10
2620.3098025969
 20
285.2053161258
 40
1.5837516466
100
AcDbArc
 50
180.0
 51
270.0
  0
ARC
  5
4BB
100
AcDbEntity
  8
0
100
AcDbCircle
 62
7
  6
CONTINUOUS
 10
2669.8223067071
 20
310.3407896419
 40
1.5837516466
100
AcDbArc
 50
270.0
 51
360.0
  0
ARC
  5
4BC
100
AcDbEntity
  8
0
100
AcDbCircle
 62
7
  6
CONTINUOUS
 10
2669.8223067071
 20
313.5725696916
 40
1.5837516466
100
AcDbArc
 50
359.9999995369
 51
90.0
  0
ARC
  5
4BD
100
AcDbEntity
  8
0
100
AcDbCircle
 62
7
  6
CONTINUOUS
 10
2573.110916248
 20
291.7309030633
 40
1.5837516466
100
AcDbArc
 50
180.0
 51
270.0
  0
ARC
  5
4BE
100
AcDbEntity
  8
0
100
AcDbCircle
 62
7
  6
CONTINUOUS
 10
2634.3162882414
 20
304.1766693669
 40
1.5837516466
100
AcDbArc
 50
180.0
 51
270.0
  0
ARC
  5
4BF
100
AcDbEntity
  8
0
100
AcDbCircle
 62
7
  6
CONTINUOUS
 10
2690.4225653259
 20
291.5106518954
 40
1.5837516466
100
AcDbArc
 50
180.0
 51
270.0
  0
ARC
  5
4C0
100
AcDbEntity
  8
0
100
AcDbCircle
 62
7
  6
CONTINUOUS
 10
2726.9171033028
 20
313.5725697045
 40
1.5837516402
100
AcDbArc
 50
0.000000539
 51
89.9999999245
  0
ARC
  5
4C1
100
AcDbEntity
  8
0
100
AcDbCircle
 62
7
  6
CONTINUOUS
 10
2726.9171033045
 20
285.1524709591
 40
1.5837516381
100
AcDbArc
 50
270.1250535673
 51
360.0
  0
ARC
  5
4C2
100
AcDbEntity
  8
0
100
AcDbCircle
 62
7
  6
CONTINUOUS
 10
2726.9171033028
 20
288.3431486087
 40
1.5837516402
100
AcDbArc
 50
0.0
 51
90.0
  0
ARC
  5
4C3
100
AcDbEntity
  8
0
100
AcDbCircle
 62
7
  6
CONTINUOUS
 10
2634.3162882352
 20
307.1732863547
 40
1.5837516402
100
AcDbArc
 50
90.0
 51
180.0
  0
ARC
  5
4C4
100
AcDbEntity
  8
0
100
AcDbCircle
 62
7
  6
CONTINUOUS
 10
2604.7537093298
 20
291.7309030885
 40
1.5837516402
100
AcDbArc
 50
270.0
 51
360.0
  0
ARC
  5
4C5
100
AcDbEntity
  8
0
100
AcDbCircle
 62
7
  6
CONTINUOUS
 10
2604.7537093298
 20
307.5233406663
 40
1.5837516402
100
AcDbArc
 50
0.0000004631
 51
90.0000004631
  0
ARC
  5
4C6
100
AcDbEntity
  8
0
100
AcDbCircle
 62
7
  6
CONTINUOUS
 10
2655.7676921863
 20
291.3734537988
 40
1.5837516402
100
AcDbArc
 50
270.0
 51
360.0
  0
ARC
  5
4C7
100
AcDbEntity
  8
0
100
AcDbCircle
 62
7
  6
CONTINUOUS
 10
2591.9104713323
 20
293.198176523
 40
0.6091352492
100
AcDbArc
 50
90.0000000001
 51
180.0
  0
ARC
  5
4C8
100
AcDbEntity
  8
0
100
AcDbCircle
 62
7
  6
CONTINUOUS
 10
2592.0490095878
 20
280.5610565875
 40
0.6091352428
100
AcDbArc
 50
180.0
 51
270.0
  0
ARC
  5
4C9
100
AcDbEntity
  8
0
100
AcDbCircle
 62
7
  6
CONTINUOUS
 10
2601.5338649347
 20
280.5610565875
 40
0.6091352428
100
AcDbArc
 50
270.0
 51
360.0
  0
ARC
  5
4CA
100
AcDbEntity
  8
0
100
AcDbCircle
 62
7
  6
CONTINUOUS
 10
2601.3469896935
 20
293.198176542
 40
0.60913523
100
AcDbArc
 50
0.0
 51
89.9999987958
  0
ARC
  5
4CB
100
AcDbEntity
  8
0
100
AcDbCircle
 62
7
  6
CONTINUOUS
 10
2180.7368761941
 20
1349.6453475719
 40
15.8635755545
100
AcDbArc
 50
337.2511872987
 51
342.5326801068
  0
ARC
  5
4CC
100
AcDbEntity
  8
6_ALL_SURFS
100
AcDbCircle
 62
7
  6
CONTINUOUS
 10
2503.2511508838
 20
1097.5470663853
 40
4.2729908307
100
AcDbArc
 50
308.2109115133
 51
313.9647025371
  0
ARC
  5
4CD
100
AcDbEntity
  8
6_ALL_SURFS
100
AcDbCircle
 62
7
  6
CONTINUOUS
 10
385.4119662166
 20
829.5028786401
 40
10.0
100
AcDbArc
 50
181.9733946798
 51
282.9999999947
  0
CIRCLE
  5
4CE
100
AcDbEntity
  8
0
100
AcDbCircle
 62
7
  6
CONTINUOUS
 10
428.4866235963
 20
851.0325699699
 40
10.0
  0
CIRCLE
  5
4CF
100
AcDbEntity
  8
0
100
AcDbCircle
 62
7
  6
CONTINUOUS
 10
428.4866235963
 20
891.0325699699
 40
10.0
  0
CIRCLE
  5
4D0
100
AcDbEntity
  8
0
100
AcDbCircle
 62
7
  6
CONTINUOUS
 10
428.4866235963
 20
931.0325699699
 40
10.0
  0
CIRCLE
  5
4D1
100
AcDbEntity
  8
0
100
AcDbCircle
 62
7
  6
CONTINUOUS
 10
428.4866235963
 20
971.0325699699
 40
10.0
  0
CIRCLE
  5
4D2
100
AcDbEntity
  8
0
100
AcDbCircle
 62
7
  6
CONTINUOUS
 10
428.4866235963
 20
1011.0325699699
 40
10.0
  0
CIRCLE
  5
4D3
100
AcDbEntity
  8
0
100
AcDbCircle
 62
7
  6
CONTINUOUS
 10
428.4866235963
 20
1051.0325699699
 40
10.0
  0
CIRCLE
  5
4D4
100
AcDbEntity
  8
0
100
AcDbCircle
 62
7
  6
CONTINUOUS
 10
406.4866235963
 20
1080.2725699699
 40
5.25
  0
ARC
  5
4D5
100
AcDbEntity
  8
0
100
AcDbCircle
 62
7
  6
CONTINUOUS
 10
395.4866235963
 20
796.0325699699
 40
5.0
100
AcDbArc
 50
180.0
 51
270.0
  0
ARC
  5
4D6
100
AcDbEntity
  8
6_ALL_SURFS
100
AcDbCircle
 62
7
  6
CONTINUOUS
 10
387.4866235963
 20
829.0325699699
 40
3.3
100
AcDbArc
 50
90.0
 51
257.0000000053
  0
ARC
  5
4D7
100
AcDbEntity
  8
6_ALL_SURFS
100
AcDbCircle
 62
7
  6
CONTINUOUS
 10
386.9866235963
 20
822.6822881864
 40
3.0
100
AcDbArc
 50
282.9999999947
 51
77.0000000053
  0
ARC
  5
4D8
100
AcDbEntity
  8
0
100
AcDbCircle
 62
7
  6
CONTINUOUS
 10
395.4866235963
 20
796.0325699699
 40
2.0
100
AcDbArc
 50
180.0
 51
270.0
  0
CIRCLE
  5
4D9
100
AcDbEntity
  8
0
100
AcDbCircle
 62
7
  6
CONTINUOUS
 10
428.4866235963
 20
1091.0325699699
 40
10.0
  0
CIRCLE
  5
4DA
100
AcDbEntity
  8
0
100
AcDbCircle
 62
7
  6
CONTINUOUS
 10
428.4866235963
 20
1131.0325699699
 40
10.0
  0
CIRCLE
  5
4DB
100
AcDbEntity
  8
0
100
AcDbCircle
 62
7
  6
CONTINUOUS
 10
428.4866235963
 20
1171.0325699699
 40
10.0
  0
CIRCLE
  5
4DC
100
AcDbEntity
  8
0
100
AcDbCircle
 62
7
  6
CONTINUOUS
 10
428.4866235963
 20
1211.0325699699
 40
10.0
  0
CIRCLE
  5
4DD
100
AcDbEntity
  8
0
100
AcDbCircle
 62
7
  6
CONTINUOUS
 10
428.4866235963
 20
1251.0325699699
 40
10.0
  0
CIRCLE
  5
4DE
100
AcDbEntity
  8
0
100
AcDbCircle
 62
7
  6
CONTINUOUS
 10
428.4866235963
 20
1291.0325699699
 40
10.0
  0
CIRCLE
  5
4DF
100
AcDbEntity
  8
0
100
AcDbCircle
 62
7
  6
CONTINUOUS
 10
428.4866235963
 20
1331.0325699699
 40
10.0
  0
ARC
  5
4E0
100
AcDbEntity
  8
6_ALL_SURFS
100
AcDbCircle
 62
7
  6
CONTINUOUS
 10
395.4866235963
 20
1348.0325699699
 40
6.5
100
AcDbArc
 50
108.3400826458
 51
180.0
  0
CIRCLE
  5
4E1
100
AcDbEntity
  8
0
100
AcDbCircle
 62
7
  6
CONTINUOUS
 10
406.4866235963
 20
1169.1325699699
 40
5.25
  0
ARC
  5
4E2
100
AcDbEntity
  8
0
100
AcDbCircle
 62
7
  6
CONTINUOUS
 10
372.4866235963
 20
1386.0325699699
 40
5.0
100
AcDbArc
 50
90.0
 51
180.0
  0
ARC
  5
4E3
100
AcDbEntity
  8
6_ALL_SURFS
100
AcDbCircle
 62
7
  6
CONTINUOUS
 10
395.4866235963
 20
1348.0325699699
 40
3.25
100
AcDbArc
 50
128.690247063
 51
231.309752937
  0
ARC
  5
4E4
100
AcDbEntity
  8
0
100
AcDbCircle
 62
7
  6
CONTINUOUS
 10
372.4866235963
 20
1386.0325699699
 40
2.0
100
AcDbArc
 50
90.0
 51
180.0
  0
ARC
  5
4E5
100
AcDbEntity
  8
6_ALL_SURFS
100
AcDbCircle
 62
7
  6
CONTINUOUS
 10
490.3496933279
 20
833.1185983061
 40
115.0
100
AcDbArc
 50
149.1831531178
 51
181.9733946798
  0
ARC
  5
4E6
100
AcDbEntity
  8
0
100
AcDbCircle
 62
7
  6
CONTINUOUS
 10
470.4866235963
 20
796.0325699699
 40
5.0
100
AcDbArc
 50
270.0
 51
360.0
  0
ARC
  5
4E7
100
AcDbEntity
  8
0
100
AcDbCircle
 62
7
  6
CONTINUOUS
 10
470.4866235963
 20
822.0325699699
 40
5.0
100
AcDbArc
 50
0.0
 51
90.0
  0
ARC
  5
4E8
100
AcDbEntity
  8
0
100
AcDbCircle
 62
7
  6
CONTINUOUS
 10
470.4866235963
 20
1386.0325699699
 40
5.0
100
AcDbArc
 50
0.0
 51
90.0
  0
ARC
  5
4E9
100
AcDbEntity
  8
0
100
AcDbCircle
 62
7
  6
CONTINUOUS
 10
470.4866235963
 20
1360.0325699699
 40
5.0
100
AcDbArc
 50
270.0
 51
360.0
  0
ARC
  5
4EA
100
AcDbEntity
  8
6_ALL_SURFS
100
AcDbCircle
 62
7
  6
CONTINUOUS
 10
1681.1560533858
 20
833.1185983061
 40
115.0
100
AcDbArc
 50
358.0266053202
 51
30.8168468822
  0
CIRCLE
  5
4EB
100
AcDbEntity
  8
6_ALL_SURFS
100
AcDbCircle
 62
7
  6
CONTINUOUS
 10
1726.0191231174
 20
1051.0325699699
 40
10.0
  0
CIRCLE
  5
4EC
100
AcDbEntity
  8
6_ALL_SURFS
100
AcDbCircle
 62
7
  6
CONTINUOUS
 10
1726.0191231174
 20
1011.0325699699
 40
10.0
  0
CIRCLE
  5
4ED
100
AcDbEntity
  8
6_ALL_SURFS
100
AcDbCircle
 62
7
  6
CONTINUOUS
 10
1726.0191231174
 20
971.0325699699
 40
10.0
  0
CIRCLE
  5
4EE
100
AcDbEntity
  8
6_ALL_SURFS
100
AcDbCircle
 62
7
  6
CONTINUOUS
 10
1726.0191231174
 20
931.0325699699
 40
10.0
  0
CIRCLE
  5
4EF
100
AcDbEntity
  8
6_ALL_SURFS
100
AcDbCircle
 62
7
  6
CONTINUOUS
 10
1726.0191231174
 20
891.0325699699
 40
10.0
  0
CIRCLE
  5
4F0
100
AcDbEntity
  8
6_ALL_SURFS
100
AcDbCircle
 62
7
  6
CONTINUOUS
 10
1726.0191231174
 20
851.0325699699
 40
10.0
  0
ARC
  5
4F1
100
AcDbEntity
  8
6_ALL_SURFS
100
AcDbCircle
 62
7
  6
CONTINUOUS
 10
1701.0191231174
 20
796.0325699699
 40
5.0
100
AcDbArc
 50
180.0
 51
270.0
  0
CIRCLE
  5
4F2
100
AcDbEntity
  8
6_ALL_SURFS
100
AcDbCircle
 62
7
  6
CONTINUOUS
 10
1726.0191231174
 20
1331.0325699699
 40
10.0
  0
CIRCLE
  5
4F3
100
AcDbEntity
  8
6_ALL_SURFS
100
AcDbCircle
 62
7
  6
CONTINUOUS
 10
1726.0191231174
 20
1291.0325699699
 40
10.0
  0
CIRCLE
  5
4F4
100
AcDbEntity
  8
6_ALL_SURFS
100
AcDbCircle
 62
7
  6
CONTINUOUS
 10
1726.0191231174
 20
1251.0325699699
 40
10.0
  0
CIRCLE
  5
4F5
100
AcDbEntity
  8
6_ALL_SURFS
100
AcDbCircle
 62
7
  6
CONTINUOUS
 10
1726.0191231174
 20
1211.0325699699
 40
10.0
  0
CIRCLE
  5
4F6
100
AcDbEntity
  8
6_ALL_SURFS
100
AcDbCircle
 62
7
  6
CONTINUOUS
 10
1726.0191231174
 20
1171.0325699699
 40
10.0
  0
CIRCLE
  5
4F7
100
AcDbEntity
  8
6_ALL_SURFS
100
AcDbCircle
 62
7
  6
CONTINUOUS
 10
1726.0191231174
 20
1131.0325699699
 40
10.0
  0
CIRCLE
  5
4F8
100
AcDbEntity
  8
6_ALL_SURFS
100
AcDbCircle
 62
7
  6
CONTINUOUS
 10
1726.0191231174
 20
1091.0325699699
 40
10.0
  0
ARC
  5
4F9
100
AcDbEntity
  8
6_ALL_SURFS
100
AcDbCircle
 62
7
  6
CONTINUOUS
 10
1701.0191231174
 20
1386.0325699699
 40
5.0
100
AcDbArc
 50
90.0
 51
180.0
  0
ARC
  5
4FA
100
AcDbEntity
  8
6_ALL_SURFS
100
AcDbCircle
 62
7
  6
CONTINUOUS
 10
1786.0937804972
 20
829.5028786401
 40
10.0
100
AcDbArc
 50
257.0000000053
 51
358.0266053202
  0
ARC
  5
4FB
100
AcDbEntity
  8
6_ALL_SURFS
100
AcDbCircle
 62
7
  6
CONTINUOUS
 10
1776.0191231174
 20
796.0325699699
 40
5.0
100
AcDbArc
 50
270.0
 51
360.0
  0
ARC
  5
4FC
100
AcDbEntity
  8
6_ALL_SURFS
100
AcDbCircle
 62
7
  6
CONTINUOUS
 10
1784.0191231174
 20
829.0325699699
 40
3.3
100
AcDbArc
 50
282.9999999947
 51
90.0
  0
ARC
  5
4FD
100
AcDbEntity
  8
6_ALL_SURFS
100
AcDbCircle
 62
7
  6
CONTINUOUS
 10
1784.5191231174
 20
822.6822881864
 40
3.0
100
AcDbArc
 50
102.9999999947
 51
257.0000000053
  0
ARC
  5
4FE
100
AcDbEntity
  8
6_ALL_SURFS
100
AcDbCircle
 62
7
  6
CONTINUOUS
 10
1776.0191231174
 20
1348.0325699699
 40
6.5
100
AcDbArc
 50
0.0
 51
85.5882742142
  0
ARC
  5
4FF
100
AcDbEntity
  8
6_ALL_SURFS
100
AcDbCircle
 62
7
  6
CONTINUOUS
 10
1775.0191231174
 20
1103.9325699699
 40
5.0
100
AcDbArc
 50
90.0
 51
270.0
  0
ARC
  5
500
100
AcDbEntity
  8
6_ALL_SURFS
100
AcDbCircle
 62
7
  6
CONTINUOUS
 10
1799.0191231174
 20
1386.0325699699
 40
5.0
100
AcDbArc
 50
0.0
 51
90.0
  0
CIRCLE
  5
501
100
AcDbEntity
  8
6_ALL_SURFS
100
AcDbCircle
 62
7
  6
CONTINUOUS
 10
1770.2607061615
 20
1183.1330835117
 40
4.25
  0
CIRCLE
  5
502
100
AcDbEntity
  8
6_ALL_SURFS
100
AcDbCircle
 62
7
  6
CONTINUOUS
 10
1776.0191231174
 20
1348.0325699699
 40
3.25
  0
SPLINE
  5
503
100
AcDbEntity
  8
0
100
AcDbSpline
 62
7
  6
CONTINUOUS
 70
0
 71
3
 72
13
 73
9
 74
0
 42
0.0000001
 43
0.0000001
 44
0.0000000001
 40
0.0
 40
0.0
 40
0.0
 40
0.0
 40
0.1317357684
 40
0.2713541552
 40
0.4178991716
 40
0.5930152361
 40
0.7698067128
 40
1.0
 40
1.0
 40
1.0
 40
1.0
 10
2684.3398352898
 20
315.1563213447
 30
0.0
 10
2683.4448223584
 20
315.0896601875
 30
0.0
 10
2681.6012420388
 20
314.9523491122
 30
0.0
 10
2679.1028235483
 20
313.4041866177
 30
0.0
 10
2677.3092572238
 20
310.8051006077
 30
0.0
 10
2676.1429877335
 20
307.6269905488
 30
0.0
 10
2675.4860735399
 20
303.7420188697
 30
0.0
 10
2675.4255895131
 20
300.9968296583
 30
0.0
 10
2675.3942420432
 20
299.4439284595
 30
0.0
  0
SPLINE
  5
504
100
AcDbEntity
  8
0
100
AcDbSpline
 62
7
  6
CONTINUOUS
 70
0
 71
3
 72
13
 73
9
 74
0
 42
0.0000001
 43
0.0000001
 44
0.0000000001
 40
0.0
 40
0.0
 40
0.0
 40
0.0
 40
0.2249509061
 40
0.4029463322
 40
0.5792549365
 40
0.726797924
 40
0.8673671114
 40
1.0
 40
1.0
 40
1.0
 40
1.0
 10
2675.397021693
 20
299.2029474414
 30
0.0
 10
2675.4277513577
 20
297.695696185
 30
0.0
 10
2675.4936932954
 20
294.996632457
 30
0.0
 10
2676.1429871958
 20
291.1566946303
 30
0.0
 10
2677.3092706527
 20
287.9789400207
 30
0.0
 10
2679.1027810342
 20
285.3787509737
 30
0.0
 10
2681.6013902045
 20
283.8342892297
 30
0.0
 10
2683.4445210599
 20
283.6882640412
 30
0.0
 10
2684.3398352898
 20
283.6215804684
 30
0.0
  0
SPLINE
  5
505
100
AcDbEntity
  8
0
100
AcDbSpline
 62
7
  6
CONTINUOUS
 70
0
 71
3
 72
13
 73
9
 74
0
 42
0.0000001
 43
0.0000001
 44
0.0000000001
 40
0.0
 40
0.0
 40
0.0
 40
0.0
 40
0.1604571392
 40
0.3334692485
 40
0.4767982758
 40
0.6242014838
 40
0.7505998515
 40
1.0
 40
1.0
 40
1.0
 40
1.0
 10
2664.3289640803
 20
283.6215644792
 30
0.0
 10
2665.0711326414
 20
283.657298571
 30
0.0
 10
2666.6135407143
 20
283.7315627265
 30
0.0
 10
2668.6876426711
 20
284.6320426836
 30
0.0
 10
2670.2505468353
 20
286.1456743343
 30
0.0
 10
2671.131304801
 20
287.8809945438
 30
0.0
 10
2671.8065687953
 20
290.2089443812
 30
0.0
 10
2671.8339710297
 20
291.9510715983
 30
0.0
 10
2671.8521566243
 20
293.1072410998
 30
0.0
  0
SPLINE
  5
506
100
AcDbEntity
  8
0
100
AcDbSpline
 62
7
  6
CONTINUOUS
 70
0
 71
3
 72
13
 73
9
 74
0
 42
0.0000001
 43
0.0000001
 44
0.0000000001
 40
0.0
 40
0.0
 40
0.0
 40
0.0
 40
0.2494001485
 40
0.3757985162
 40
0.5232017242
 40
0.6665307515
 40
0.8395428608
 40
1.0
 40
1.0
 40
1.0
 40
1.0
 10
2671.8521566243
 20
293.1072410998
 30
0.0
 10
2671.8339710297
 20
294.2634106141
 30
0.0
 10
2671.8065687953
 20
296.0055378184
 30
0.0
 10
2671.131304801
 20
298.3334876814
 30
0.0
 10
2670.2505468353
 20
300.0688078909
 30
0.0
 10
2668.6876426711
 20
301.582439516
 30
0.0
 10
2666.6135407143
 20
302.4829194731
 30
0.0
 10
2665.0711326414
 20
302.5571836542
 30
0.0
 10
2664.3289640803
 20
302.5929177204
 30
0.0
  0
SPLINE
  5
507
100
AcDbEntity
  8
0
100
AcDbSpline
 62
7
  6
CONTINUOUS
 70
0
 71
3
 72
13
 73
9
 74
0
 42
0.0000001
 43
0.0000001
 44
0.0000000001
 40
0.0
 40
0.0
 40
0.0
 40
0.0
 40
0.1133740464
 40
0.2392044088
 40
0.3655787964
 40
0.4912154373
 40
0.7445390876
 40
1.0
 40
1.0
 40
1.0
 40
1.0
 10
2625.3495628113
 20
315.1563213383
 30
0.0
 10
2624.8415151725
 20
315.1312976156
 30
0.0
 10
2623.7696011168
 20
315.0785008216
 30
0.0
 10
2622.1773788179
 20
314.6027923671
 30
0.0
 10
2620.7529807968
 20
313.642188825
 30
0.0
 10
2619.2979455257
 20
311.8727204755
 30
0.0
 10
2618.3823450356
 20
309.0948905894
 30
0.0
 10
2618.283048017
 20
306.8172807525
 30
0.0
 10
2618.2331909824
 20
305.6736920234
 30
0.0
  0
SPLINE
  5
508
100
AcDbEntity
  8
0
100
AcDbSpline
 62
7
  6
CONTINUOUS
 70
0
 71
3
 72
13
 73
9
 74
0
 42
0.0000001
 43
0.0000001
 44
0.0000000001
 40
0.0
 40
0.0
 40
0.0
 40
0.0
 40
0.2554609124
 40
0.5087845627
 40
0.6344212036
 40
0.7607955912
 40
0.8866259536
 40
1.0
 40
1.0
 40
1.0
 40
1.0
 10
2618.2331909824
 20
305.6736920234
 30
0.0
 10
2618.283048017
 20
304.5301032815
 30
0.0
 10
2618.3823450356
 20
302.2524934318
 30
0.0
 10
2619.2979455257
 20
299.4746635585
 30
0.0
 10
2620.7529807968
 20
297.705195209
 30
0.0
 10
2622.1773788179
 20
296.7445916798
 30
0.0
 10
2623.7696011168
 20
296.2688832125
 30
0.0
 10
2624.8415151725
 20
296.2160864185
 30
0.0
 10
2625.3495628113
 20
296.1910627085
 30
0.0
  0
SPLINE
  5
509
100
AcDbEntity
  8
0
100
AcDbSpline
 62
7
  6
CONTINUOUS
 70
0
 71
3
 72
12
 73
8
 74
0
 42
0.0000001
 43
0.0000001
 44
0.0000000001
 40
0.0
 40
0.0
 40
0.0
 40
0.0
 40
0.2415790084
 40
0.4893269843
 40
0.7378634303
 40
0.8656387112
 40
1.0
 40
1.0
 40
1.0
 40
1.0
 10
2606.9818923747
 20
283.621564492
 30
0.0
 10
2607.8495534076
 20
283.648539089
 30
0.0
 10
2609.607032137
 20
283.7031771371
 30
0.0
 10
2612.1789188562
 20
284.6203803364
 30
0.0
 10
2613.7408762909
 20
286.3518172573
 30
0.0
 10
2614.4290228937
 20
288.0818430323
 30
0.0
 10
2614.4414243028
 20
289.0295474902
 30
0.0
 10
2614.4477807965
 20
289.5153049319
 30
0.0
  0
SPLINE
  5
50A
100
AcDbEntity
  8
0
100
AcDbSpline
 62
7
  6
CONTINUOUS
 70
0
 71
3
 72
12
 73
8
 74
0
 42
0.0000001
 43
0.0000001
 44
0.0000000001
 40
0.0
 40
0.0
 40
0.0
 40
0.0
 40
0.1343612888
 40
0.2621365697
 40
0.5106730157
 40
0.7584209916
 40
1.0
 40
1.0
 40
1.0
 40
1.0
 10
2614.4477807965
 20
309.2255943941
 30
0.0
 10
2614.4414243028
 20
309.7113518614
 30
0.0
 10
2614.4290228937
 20
310.6590563193
 30
0.0
 10
2613.7408762909
 20
312.3890820943
 30
0.0
 10
2612.1789188562
 20
314.1205190152
 30
0.0
 10
2609.607032137
 20
315.0377222017
 30
0.0
 10
2607.8495534076
 20
315.092360237
 30
0.0
 10
2606.9818923747
 20
315.1193348468
 30
0.0
  0
SPLINE
  5
50B
100
AcDbEntity
  8
0
100
AcDbSpline
 62
7
  6
CONTINUOUS
 70
0
 71
3
 72
12
 73
8
 74
0
 42
0.0000001
 43
0.0000001
 44
0.0000000001
 40
0.0
 40
0.0
 40
0.0
 40
0.0
 40
0.1341799809
 40
0.290831959
 40
0.5815217441
 40
0.760783857
 40
1.0
 40
1.0
 40
1.0
 40
1.0
 10
2566.8316791021
 20
315.1193348468
 30
0.0
 10
2565.9559316698
 20
314.9696612919
 30
0.0
 10
2564.0577696804
 20
314.6452473693
 30
0.0
 10
2560.8625185991
 20
312.258082707
 30
0.0
 10
2559.3490855396
 20
308.2419178883
 30
0.0
 10
2558.4635893816
 20
303.6892249304
 30
0.0
 10
2558.3971179569
 20
300.9355487063
 30
0.0
 10
2558.3591206575
 20
299.3614554445
 30
0.0
  0
SPLINE
  5
50C
100
AcDbEntity
  8
0
100
AcDbSpline
 62
7
  6
CONTINUOUS
 70
0
 71
3
 72
12
 73
8
 74
0
 42
0.0000001
 43
0.0000001
 44
0.0000000001
 40
0.0
 40
0.0
 40
0.0
 40
0.0
 40
0.2392679579
 40
0.4185688994
 40
0.7093216488
 40
0.8660075581
 40
1.0
 40
1.0
 40
1.0
 40
1.0
 10
2558.3591206575
 20
299.3614554445
 30
0.0
 10
2558.3971331396
 20
297.7874235279
 30
0.0
 10
2558.4636310892
 20
295.0338546324
 30
0.0
 10
2559.3489361705
 20
290.4803890979
 30
0.0
 10
2560.8632939152
 20
286.4679632682
 30
0.0
 10
2564.0552182831
 20
284.0730470067
 30
0.0
 10
2565.9556481271
 20
283.7640165875
 30
0.0
 10
2566.8316791021
 20
283.621564492
 30
0.0
  0
SPLINE
  5
50D
100
AcDbEntity
  8
6_ALL_SURFS
100
AcDbSpline
 62
7
  6
CONTINUOUS
 70
0
 71
3
 72
9
 73
5
 74
0
 42
0.0000001
 43
0.0000001
 44
0.0000000001
 40
0.0
 40
0.0
 40
0.0
 40
0.0
 40
0.2953792317
 40
1.0
 40
1.0
 40
1.0
 40
1.0
 10
2472.5994042209
 20
1091.0876801473
 30
0.0
 10
2472.3800865218
 20
1090.9610238553
 30
0.0
 10
2471.6193969069
 20
1090.5863888412
 30
0.0
 10
2470.6222125542
 20
1090.5378503885
 30
0.0
 10
2470.099033463
 20
1090.8399836986
 30
0.0
  0
SPLINE
  5
50E
100
AcDbEntity
  8
6_ALL_SURFS
100
AcDbSpline
 62
7
  6
CONTINUOUS
 70
0
 71
3
 72
9
 73
5
 74
0
 42
0.0000001
 43
0.0000001
 44
0.0000000001
 40
0.0
 40
0.0
 40
0.0
 40
0.0
 40
0.2208989638
 40
1.0
 40
1.0
 40
1.0
 40
1.0
 10
2757.9854634627
 20
1246.3012690681
 30
0.0
 10
2757.845134437
 20
1246.3819556452
 30
0.0
 10
2757.2709505531
 20
1246.8635860672
 30
0.0
 10
2757.1041807602
 20
1247.6758963879
 30
0.0
 10
2757.1041807602
 20
1248.2468120518
 30
0.0
  0
SPLINE
  5
50F
100
AcDbEntity
  8
6_ALL_SURFS
100
AcDbSpline
 62
7
  6
CONTINUOUS
 70
0
 71
3
 72
9
 73
5
 74
0
 42
0.0000001
 43
0.0000001
 44
0.0000000001
 40
0.0
 40
0.0
 40
0.0
 40
0.0
 40
0.2208681529
 40
1.0
 40
1.0
 40
1.0
 40
1.0
 10
2875.0856020993
 20
1309.8043787751
 30
0.0
 10
2874.9784647054
 20
1309.8661741008
 30
0.0
 10
2874.5402813966
 20
1310.2348605216
 30
0.0
 10
2874.4128326302
 20
1310.8553210799
 30
0.0
 10
2874.4128326302
 20
1311.2916180284
 30
0.0
  0
SPLINE
  5
510
100
AcDbEntity
  8
6_ALL_SURFS
100
AcDbSpline
 62
7
  6
CONTINUOUS
 70
0
 71
3
 72
9
 73
5
 74
0
 42
0.0000001
 43
0.0000001
 44
0.0000000001
 40
0.0
 40
0.0
 40
0.0
 40
0.0
 40
0.4492071657
 40
1.0
 40
1.0
 40
1.0
 40
1.0
 10
2859.6873803865
 20
1337.837705891
 30
0.0
 10
2859.0138250724
 20
1338.2276312311
 30
0.0
 10
2857.850349788
 20
1339.6850521459
 30
0.0
 10
2857.619046577
 20
1341.4583818745
 30
0.0
 10
2857.619046577
 20
1342.4126645439
 30
0.0
  0
SPLINE
  5
511
100
AcDbEntity
  8
6_ALL_SURFS
100
AcDbSpline
 62
7
  6
CONTINUOUS
 70
0
 71
3
 72
9
 73
5
 74
0
 42
0.0000001
 43
0.0000001
 44
0.0000000001
 40
0.0
 40
0.0
 40
0.0
 40
0.0
 40
0.2327750249
 40
1.0
 40
1.0
 40
1.0
 40
1.0
 10
2867.1105136446
 20
1355.5274889208
 30
0.0
 10
2867.179561344
 20
1355.343015214
 30
0.0
 10
2867.4318820509
 20
1354.533943949
 30
0.0
 10
2867.5185415136
 20
1353.6791195584
 30
0.0
 10
2867.5185415136
 20
1353.0298997453
 30
0.0
  0
SPLINE
  5
512
100
AcDbEntity
  8
6_ALL_SURFS
100
AcDbSpline
 62
7
  6
CONTINUOUS
 70
0
 71
3
 72
9
 73
5
 74
0
 42
0.0000001
 43
0.0000001
 44
0.0000000001
 40
0.0
 40
0.0
 40
0.0
 40
0.0
 40
0.4492071657
 40
1.0
 40
1.0
 40
1.0
 40
1.0
 10
2831.403109139
 20
1321.5034978888
 30
0.0
 10
2830.7295538249
 20
1321.8934232289
 30
0.0
 10
2829.5660785405
 20
1323.3508441436
 30
0.0
 10
2829.3347753295
 20
1325.1241738723
 30
0.0
 10
2829.3347753295
 20
1326.0784565417
 30
0.0
  0
SPLINE
  5
513
100
AcDbEntity
  8
6_ALL_SURFS
100
AcDbSpline
 62
7
  6
CONTINUOUS
 70
0
 71
3
 72
9
 73
5
 74
0
 42
0.0000001
 43
0.0000001
 44
0.0000000001
 40
0.0
 40
0.0
 40
0.0
 40
0.0
 40
0.2327750249
 40
1.0
 40
1.0
 40
1.0
 40
1.0
 10
2838.8262423972
 20
1339.1932809185
 30
0.0
 10
2838.8952900966
 20
1339.0088072118
 30
0.0
 10
2839.1476108034
 20
1338.1997359467
 30
0.0
 10
2839.2342702661
 20
1337.3449115562
 30
0.0
 10
2839.2342702661
 20
1336.6956917431
 30
0.0
  0
SPLINE
  5
514
100
AcDbEntity
  8
6_ALL_SURFS
100
AcDbSpline
 62
7
  6
CONTINUOUS
 70
0
 71
3
 72
9
 73
5
 74
0
 42
0.0000001
 43
0.0000001
 44
0.0000000001
 40
0.0
 40
0.0
 40
0.0
 40
0.0
 40
0.4492071657
 40
1.0
 40
1.0
 40
1.0
 40
1.0
 10
2803.1188378916
 20
1305.1692898865
 30
0.0
 10
2802.4452825774
 20
1305.5592152266
 30
0.0
 10
2801.2818072931
 20
1307.0166361414
 30
0.0
 10
2801.0505040821
 20
1308.7899658701
 30
0.0
 10
2801.0505040821
 20
1309.7442485394
 30
0.0
  0
SPLINE
  5
515
100
AcDbEntity
  8
6_ALL_SURFS
100
AcDbSpline
 62
7
  6
CONTINUOUS
 70
0
 71
3
 72
9
 73
5
 74
0
 42
0.0000001
 43
0.0000001
 44
0.0000000001
 40
0.0
 40
0.0
 40
0.0
 40
0.0
 40
0.2327750249
 40
1.0
 40
1.0
 40
1.0
 40
1.0
 10
2810.5419711497
 20
1322.8590729163
 30
0.0
 10
2810.6110188491
 20
1322.6745992096
 30
0.0
 10
2810.8633395559
 20
1321.8655279445
 30
0.0
 10
2810.9499990187
 20
1321.0107035539
 30
0.0
 10
2810.9499990187
 20
1320.3614837409
 30
0.0
  0
SPLINE
  5
516
100
AcDbEntity
  8
6_ALL_SURFS
100
AcDbSpline
 62
7
  6
CONTINUOUS
 70
0
 71
3
 72
9
 73
5
 74
0
 42
0.0000001
 43
0.0000001
 44
0.0000000001
 40
0.0
 40
0.0
 40
0.0
 40
0.0
 40
0.4492071657
 40
1.0
 40
1.0
 40
1.0
 40
1.0
 10
2774.8345666441
 20
1288.8350818843
 30
0.0
 10
2774.16101133
 20
1289.2250072244
 30
0.0
 10
2772.9975360456
 20
1290.6824281392
 30
0.0
 10
2772.7662328346
 20
1292.4557578678
 30
0.0
 10
2772.7662328346
 20
1293.4100405372
 30
0.0
  0
SPLINE
  5
517
100
AcDbEntity
  8
6_ALL_SURFS
100
AcDbSpline
 62
7
  6
CONTINUOUS
 70
0
 71
3
 72
9
 73
5
 74
0
 42
0.0000001
 43
0.0000001
 44
0.0000000001
 40
0.0
 40
0.0
 40
0.0
 40
0.0
 40
0.2327750249
 40
1.0
 40
1.0
 40
1.0
 40
1.0
 10
2782.2576999022
 20
1306.5248649141
 30
0.0
 10
2782.3267476016
 20
1306.3403912073
 30
0.0
 10
2782.5790683085
 20
1305.5313199423
 30
0.0
 10
2782.6657277712
 20
1304.6764955517
 30
0.0
 10
2782.6657277712
 20
1304.0272757387
 30
0.0
  0
SPLINE
  5
518
100
AcDbEntity
  8
6_ALL_SURFS
100
AcDbSpline
 62
7
  6
CONTINUOUS
 70
0
 71
3
 72
9
 73
5
 74
0
 42
0.0000001
 43
0.0000001
 44
0.0000000001
 40
0.0
 40
0.0
 40
0.0
 40
0.0
 40
0.4492071657
 40
1.0
 40
1.0
 40
1.0
 40
1.0
 10
2746.5502953966
 20
1272.5008738821
 30
0.0
 10
2745.8767400825
 20
1272.8907992222
 30
0.0
 10
2744.7132647982
 20
1274.3482201369
 30
0.0
 10
2744.4819615871
 20
1276.1215498656
 30
0.0
 10
2744.4819615871
 20
1277.075832535
 30
0.0
  0
SPLINE
  5
519
100
AcDbEntity
  8
6_ALL_SURFS
100
AcDbSpline
 62
7
  6
CONTINUOUS
 70
0
 71
3
 72
9
 73
5
 74
0
 42
0.0000001
 43
0.0000001
 44
0.0000000001
 40
0.0
 40
0.0
 40
0.0
 40
0.0
 40
0.2327750249
 40
1.0
 40
1.0
 40
1.0
 40
1.0
 10
2753.9734286548
 20
1290.1906569118
 30
0.0
 10
2754.0424763542
 20
1290.0061832051
 30
0.0
 10
2754.294797061
 20
1289.19711194
 30
0.0
 10
2754.3814565238
 20
1288.3422875495
 30
0.0
 10
2754.3814565238
 20
1287.6930677364
 30
0.0
  0
SPLINE
  5
51A
100
AcDbEntity
  8
6_ALL_SURFS
100
AcDbSpline
 62
7
  6
CONTINUOUS
 70
0
 71
3
 72
9
 73
5
 74
0
 42
0.0000001
 43
0.0000001
 44
0.0000000001
 40
0.0
 40
0.0
 40
0.0
 40
0.0
 40
0.4492071657
 40
1.0
 40
1.0
 40
1.0
 40
1.0
 10
2718.2660241492
 20
1256.1666658798
 30
0.0
 10
2717.592468835
 20
1256.55659122
 30
0.0
 10
2716.4289935507
 20
1258.0140121347
 30
0.0
 10
2716.1976903397
 20
1259.7873418634
 30
0.0
 10
2716.1976903397
 20
1260.7416245327
 30
0.0
  0
SPLINE
  5
51B
100
AcDbEntity
  8
6_ALL_SURFS
100
AcDbSpline
 62
7
  6
CONTINUOUS
 70
0
 71
3
 72
9
 73
5
 74
0
 42
0.0000001
 43
0.0000001
 44
0.0000000001
 40
0.0
 40
0.0
 40
0.0
 40
0.0
 40
0.2327750249
 40
1.0
 40
1.0
 40
1.0
 40
1.0
 10
2725.6891574073
 20
1273.8564489096
 30
0.0
 10
2725.7582051067
 20
1273.6719752029
 30
0.0
 10
2726.0105258136
 20
1272.8629039378
 30
0.0
 10
2726.0971852763
 20
1272.0080795473
 30
0.0
 10
2726.0971852763
 20
1271.3588597342
 30
0.0
  0
SPLINE
  5
51C
100
AcDbEntity
  8
6_ALL_SURFS
100
AcDbSpline
 62
7
  6
CONTINUOUS
 70
0
 71
3
 72
9
 73
5
 74
0
 42
0.0000001
 43
0.0000001
 44
0.0000000001
 40
0.0
 40
0.0
 40
0.0
 40
0.0
 40
0.4492071657
 40
1.0
 40
1.0
 40
1.0
 40
1.0
 10
2689.9817529017
 20
1239.8324578776
 30
0.0
 10
2689.3081975876
 20
1240.2223832177
 30
0.0
 10
2688.1447223032
 20
1241.6798041325
 30
0.0
 10
2687.9134190922
 20
1243.4531338611
 30
0.0
 10
2687.9134190922
 20
1244.4074165305
 30
0.0
  0
SPLINE
  5
51D
100
AcDbEntity
  8
6_ALL_SURFS
100
AcDbSpline
 62
7
  6
CONTINUOUS
 70
0
 71
3
 72
9
 73
5
 74
0
 42
0.0000001
 43
0.0000001
 44
0.0000000001
 40
0.0
 40
0.0
 40
0.0
 40
0.0
 40
0.2327750249
 40
1.0
 40
1.0
 40
1.0
 40
1.0
 10
2697.4048861599
 20
1257.5222409074
 30
0.0
 10
2697.4739338593
 20
1257.3377672006
 30
0.0
 10
2697.7262545661
 20
1256.5286959356
 30
0.0
 10
2697.8129140288
 20
1255.673871545
 30
0.0
 10
2697.8129140288
 20
1255.024651732
 30
0.0
  0
SPLINE
  5
51E
100
AcDbEntity
  8
6_ALL_SURFS
100
AcDbSpline
 62
7
  6
CONTINUOUS
 70
0
 71
3
 72
9
 73
5
 74
0
 42
0.0000001
 43
0.0000001
 44
0.0000000001
 40
0.0
 40
0.0
 40
0.0
 40
0.0
 40
0.4492071657
 40
1.0
 40
1.0
 40
1.0
 40
1.0
 10
2661.6974816543
 20
1223.4982498754
 30
0.0
 10
2661.0239263401
 20
1223.8881752155
 30
0.0
 10
2659.8604510558
 20
1225.3455961302
 30
0.0
 10
2659.6291478448
 20
1227.1189258589
 30
0.0
 10
2659.6291478448
 20
1228.0732085283
 30
0.0
  0
SPLINE
  5
51F
100
AcDbEntity
  8
6_ALL_SURFS
100
AcDbSpline
 62
7
  6
CONTINUOUS
 70
0
 71
3
 72
9
 73
5
 74
0
 42
0.0000001
 43
0.0000001
 44
0.0000000001
 40
0.0
 40
0.0
 40
0.0
 40
0.0
 40
0.2327750249
 40
1.0
 40
1.0
 40
1.0
 40
1.0
 10
2669.1206149124
 20
1241.1880329051
 30
0.0
 10
2669.1896626118
 20
1241.0035591984
 30
0.0
 10
2669.4419833186
 20
1240.1944879334
 30
0.0
 10
2669.5286427814
 20
1239.3396635428
 30
0.0
 10
2669.5286427814
 20
1238.6904437297
 30
0.0
  0
SPLINE
  5
520
100
AcDbEntity
  8
6_ALL_SURFS
100
AcDbSpline
 62
7
  6
CONTINUOUS
 70
0
 71
3
 72
9
 73
5
 74
0
 42
0.0000001
 43
0.0000001
 44
0.0000000001
 40
0.0
 40
0.0
 40
0.0
 40
0.0
 40
0.4492071657
 40
1.0
 40
1.0
 40
1.0
 40
1.0
 10
2633.4132104068
 20
1207.1640418732
 30
0.0
 10
2632.7396550927
 20
1207.5539672133
 30
0.0
 10
2631.5761798083
 20
1209.011388128
 30
0.0
 10
2631.3448765973
 20
1210.7847178567
 30
0.0
 10
2631.3448765973
 20
1211.7390005261
 30
0.0
  0
SPLINE
  5
521
100
AcDbEntity
  8
6_ALL_SURFS
100
AcDbSpline
 62
7
  6
CONTINUOUS
 70
0
 71
3
 72
9
 73
5
 74
0
 42
0.0000001
 43
0.0000001
 44
0.0000000001
 40
0.0
 40
0.0
 40
0.0
 40
0.0
 40
0.2327750249
 40
1.0
 40
1.0
 40
1.0
 40
1.0
 10
2640.8363436649
 20
1224.8538249029
 30
0.0
 10
2640.9053913643
 20
1224.6693511962
 30
0.0
 10
2641.1577120712
 20
1223.8602799311
 30
0.0
 10
2641.2443715339
 20
1223.0054555406
 30
0.0
 10
2641.2443715339
 20
1222.3562357275
 30
0.0
  0
SPLINE
  5
522
100
AcDbEntity
  8
6_ALL_SURFS
100
AcDbSpline
 62
7
  6
CONTINUOUS
 70
0
 71
3
 72
9
 73
5
 74
0
 42
0.0000001
 43
0.0000001
 44
0.0000000001
 40
0.0
 40
0.0
 40
0.0
 40
0.0
 40
0.4492071657
 40
1.0
 40
1.0
 40
1.0
 40
1.0
 10
2605.1289391593
 20
1190.8298338709
 30
0.0
 10
2604.4553838452
 20
1191.219759211
 30
0.0
 10
2603.2919085608
 20
1192.6771801258
 30
0.0
 10
2603.0606053498
 20
1194.4505098544
 30
0.0
 10
2603.0606053498
 20
1195.4047925238
 30
0.0
  0
SPLINE
  5
523
100
AcDbEntity
  8
6_ALL_SURFS
100
AcDbSpline
 62
7
  6
CONTINUOUS
 70
0
 71
3
 72
9
 73
5
 74
0
 42
0.0000001
 43
0.0000001
 44
0.0000000001
 40
0.0
 40
0.0
 40
0.0
 40
0.0
 40
0.2327750249
 40
1.0
 40
1.0
 40
1.0
 40
1.0
 10
2612.5520724175
 20
1208.5196169007
 30
0.0
 10
2612.6211201169
 20
1208.335143194
 30
0.0
 10
2612.8734408237
 20
1207.5260719289
 30
0.0
 10
2612.9601002864
 20
1206.6712475383
 30
0.0
 10
2612.9601002864
 20
1206.0220277253
 30
0.0
  0
SPLINE
  5
524
100
AcDbEntity
  8
0
100
AcDbSpline
 62
7
  6
CONTINUOUS
 70
0
 71
3
 72
9
 73
5
 74
0
 42
0.0000001
 43
0.0000001
 44
0.0000000001
 40
0.0
 40
0.0
 40
0.0
 40
0.0
 40
0.4999743453
 40
1.0
 40
1.0
 40
1.0
 40
1.0
 10
2146.9767314845
 20
1340.3628697992
 30
0.0
 10
2146.9767314845
 20
1341.5745418948
 30
0.0
 10
2147.8048488028
 20
1343.9671924394
 30
0.0
 10
2149.4628875953
 20
1345.8805768401
 30
0.0
 10
2150.5122653904
 20
1346.4865940512
 30
0.0
  0
SPLINE
  5
525
100
AcDbEntity
  8
6_ALL_SURFS
100
AcDbSpline
 62
7
  6
CONTINUOUS
 70
0
 71
3
 72
9
 73
5
 74
0
 42
0.0000001
 43
0.0000001
 44
0.0000000001
 40
0.0
 40
0.0
 40
0.0
 40
0.0
 40
0.4492071657
 40
1.0
 40
1.0
 40
1.0
 40
1.0
 10
2576.8446679119
 20
1174.4956258687
 30
0.0
 10
2576.1711125977
 20
1174.8855512088
 30
0.0
 10
2575.0076373134
 20
1176.3429721236
 30
0.0
 10
2574.7763341024
 20
1178.1163018522
 30
0.0
 10
2574.7763341024
 20
1179.0705845216
 30
0.0
  0
SPLINE
  5
526
100
AcDbEntity
  8
6_ALL_SURFS
100
AcDbSpline
 62
7
  6
CONTINUOUS
 70
0
 71
3
 72
9
 73
5
 74
0
 42
0.0000001
 43
0.0000001
 44
0.0000000001
 40
0.0
 40
0.0
 40
0.0
 40
0.0
 40
0.2327750249
 40
1.0
 40
1.0
 40
1.0
 40
1.0
 10
2584.26780117
 20
1192.1854088984
 30
0.0
 10
2584.3368488694
 20
1192.0009351917
 30
0.0
 10
2584.5891695762
 20
1191.1918639267
 30
0.0
 10
2584.675829039
 20
1190.3370395361
 30
0.0
 10
2584.675829039
 20
1189.687819723
 30
0.0
  0
SPLINE
  5
527
100
AcDbEntity
  8
6_ALL_SURFS
100
AcDbSpline
 62
7
  6
CONTINUOUS
 70
0
 71
3
 72
9
 73
5
 74
0
 42
0.0000001
 43
0.0000001
 44
0.0000000001
 40
0.0
 40
0.0
 40
0.0
 40
0.0
 40
0.4492071657
 40
1.0
 40
1.0
 40
1.0
 40
1.0
 10
2548.5603966644
 20
1158.1614178665
 30
0.0
 10
2547.8868413503
 20
1158.5513432066
 30
0.0
 10
2546.7233660659
 20
1160.0087641213
 30
0.0
 10
2546.4920628549
 20
1161.78209385
 30
0.0
 10
2546.4920628549
 20
1162.7363765194
 30
0.0
  0
SPLINE
  5
528
100
AcDbEntity
  8
6_ALL_SURFS
100
AcDbSpline
 62
7
  6
CONTINUOUS
 70
0
 71
3
 72
9
 73
5
 74
0
 42
0.0000001
 43
0.0000001
 44
0.0000000001
 40
0.0
 40
0.0
 40
0.0
 40
0.0
 40
0.2327750249
 40
1.0
 40
1.0
 40
1.0
 40
1.0
 10
2555.9835299225
 20
1175.8512008962
 30
0.0
 10
2556.052577622
 20
1175.6667271895
 30
0.0
 10
2556.3048983288
 20
1174.8576559244
 30
0.0
 10
2556.3915577915
 20
1174.0028315339
 30
0.0
 10
2556.3915577915
 20
1173.3536117208
 30
0.0
  0
SPLINE
  5
529
100
AcDbEntity
  8
6_ALL_SURFS
100
AcDbSpline
 62
7
  6
CONTINUOUS
 70
0
 71
3
 72
9
 73
5
 74
0
 42
0.0000001
 43
0.0000001
 44
0.0000000001
 40
0.0
 40
0.0
 40
0.0
 40
0.0
 40
0.4492071657
 40
1.0
 40
1.0
 40
1.0
 40
1.0
 10
2520.2761254169
 20
1141.8272098642
 30
0.0
 10
2519.6025701028
 20
1142.2171352043
 30
0.0
 10
2518.4390948185
 20
1143.6745561191
 30
0.0
 10
2518.2077916074
 20
1145.4478858478
 30
0.0
 10
2518.2077916074
 20
1146.4021685171
 30
0.0
  0
SPLINE
  5
52A
100
AcDbEntity
  8
6_ALL_SURFS
100
AcDbSpline
 62
7
  6
CONTINUOUS
 70
0
 71
3
 72
9
 73
5
 74
0
 42
0.0000001
 43
0.0000001
 44
0.0000000001
 40
0.0
 40
0.0
 40
0.0
 40
0.0
 40
0.2327750249
 40
1.0
 40
1.0
 40
1.0
 40
1.0
 10
2527.6992586751
 20
1159.516992894
 30
0.0
 10
2527.7683063745
 20
1159.3325191873
 30
0.0
 10
2528.0206270813
 20
1158.5234479222
 30
0.0
 10
2528.1072865441
 20
1157.6686235316
 30
0.0
 10
2528.1072865441
 20
1157.0194037186
 30
0.0
  0
SPLINE
  5
52B
100
AcDbEntity
  8
6_ALL_SURFS
100
AcDbSpline
 62
7
  6
CONTINUOUS
 70
0
 71
3
 72
8
 73
4
 74
0
 42
0.0000001
 43
0.0000001
 44
0.0000000001
 40
0.0
 40
0.0
 40
0.0
 40
0.0
 40
1.0
 40
1.0
 40
1.0
 40
1.0
 10
2506.2175255739
 20
1094.4715059751
 30
0.0
 10
2506.5381151518
 20
1094.7800476572
 30
0.0
 10
2506.8168672747
 20
1095.1359890321
 30
0.0
 10
2507.0498818254
 20
1095.5150403033
 30
0.0
  0
SPLINE
  5
52C
100
AcDbEntity
  8
6_ALL_SURFS
100
AcDbSpline
 62
7
  6
CONTINUOUS
 70
0
 71
3
 72
9
 73
5
 74
0
 42
0.0000001
 43
0.0000001
 44
0.0000000001
 40
0.0
 40
0.0
 40
0.0
 40
0.0
 40
0.2667273151
 40
1.0
 40
1.0
 40
1.0
 40
1.0
 10
2507.0498818254
 20
1095.5150403033
 30
0.0
 10
2507.1694097886
 20
1095.7094797762
 30
0.0
 10
2507.5718313662
 20
1096.4630053893
 30
0.0
 10
2507.813321924
 20
1097.3215434986
 30
0.0
 10
2507.813321924
 20
1097.9490097575
 30
0.0
  0
SPLINE
  5
52D
100
AcDbEntity
  8
6_ALL_SURFS
100
AcDbSpline
 62
7
  6
CONTINUOUS
 70
0
 71
3
 72
9
 73
5
 74
0
 42
0.0000001
 43
0.0000001
 44
0.0000000001
 40
0.0
 40
0.0
 40
0.0
 40
0.0
 40
0.7226334051
 40
1.0
 40
1.0
 40
1.0
 40
1.0
 10
2506.7303706348
 20
1093.7491167467
 30
0.0
 10
2506.9481787612
 20
1093.6242024278
 30
0.0
 10
2507.1781329743
 20
1093.3201880579
 30
0.0
 10
2507.2778830325
 20
1092.9885527548
 30
0.0
 10
2507.2991339623
 20
1092.8945513696
 30
0.0
  0
SPLINE
  5
52E
100
AcDbEntity
  8
0
100
AcDbSpline
 62
7
  6
CONTINUOUS
 70
0
 71
3
 72
9
 73
5
 74
0
 42
0.0000001
 43
0.0000001
 44
0.0000000001
 40
0.0
 40
0.0
 40
0.0
 40
0.0
 40
0.2956262168
 40
1.0
 40
1.0
 40
1.0
 40
1.0
 10
2567.7052662905
 20
1587.4161620841
 30
0.0
 10
2567.9247896624
 20
1587.5429371523
 30
0.0
 10
2568.6853930636
 20
1587.9179959572
 30
0.0
 10
2569.6827140455
 20
1587.9661178273
 30
0.0
 10
2570.2057604149
 20
1587.6640555305
 30
0.0
  0
SPLINE
  5
52F
100
AcDbEntity
  8
6_ALL_SURFS
100
AcDbSpline
 62
7
  6
CONTINUOUS
 70
0
 71
3
 72
9
 73
5
 74
0
 42
0.0000001
 43
0.0000001
 44
0.0000000001
 40
0.0
 40
0.0
 40
0.0
 40
0.0
 40
0.4318204617
 40
1.0
 40
1.0
 40
1.0
 40
1.0
 10
2500.8084737923
 20
1086.4420507114
 30
0.0
 10
2499.924994207
 20
1086.9547018318
 30
0.0
 10
2498.5407138724
 20
1089.194533179
 30
0.0
 10
2498.6854436731
 20
1091.6344434014
 30
0.0
 10
2498.9225911939
 20
1092.9573480734
 30
0.0
  0
SPLINE
  5
530
100
AcDbEntity
  8
6_ALL_SURFS
100
AcDbSpline
 62
7
  6
CONTINUOUS
 70
0
 71
3
 72
12
 73
8
 74
0
 42
0.0000001
 43
0.0000001
 44
0.0000000001
 40
0.0
 40
0.0
 40
0.0
 40
0.0
 40
0.1833975247
 40
0.4347614336
 40
0.580370625
 40
0.7287379596
 40
1.0
 40
1.0
 40
1.0
 40
1.0
 10
2706.6066683348
 20
1218.0854941354
 30
0.0
 10
2706.083546619
 20
1218.387223304
 30
0.0
 10
2704.4529247395
 20
1218.2922121319
 30
0.0
 10
2702.9404884125
 20
1217.0427971521
 30
0.0
 10
2701.8229430576
 20
1215.6315259212
 30
0.0
 10
2700.9382739341
 20
1213.9900692425
 30
0.0
 10
2700.5706304755
 20
1212.6071081297
 30
0.0
 10
2700.5706304755
 20
1211.7138817451
 30
0.0
  0
SPLINE
  5
531
100
AcDbEntity
  8
0
100
AcDbSpline
 62
7
  6
CONTINUOUS
 70
0
 71
3
 72
9
 73
5
 74
0
 42
0.0000001
 43
0.0000001
 44
0.0000000001
 40
0.0
 40
0.0
 40
0.0
 40
0.0
 40
0.5469355773
 40
1.0
 40
1.0
 40
1.0
 40
1.0
 10
2224.1532267307
 20
1361.2179165957
 30
0.0
 10
2223.4218487596
 20
1358.8883494495
 30
0.0
 10
2221.1638706813
 20
1354.9456451583
 30
0.0
 10
2217.2864865948
 20
1352.0465173745
 30
0.0
 10
2215.2897766346
 20
1351.7238647487
 30
0.0
  0
SPLINE
  5
532
100
AcDbEntity
  8
6_ALL_SURFS
100
AcDbSpline
 62
7
  6
CONTINUOUS
 70
0
 71
3
 72
9
 73
5
 74
0
 42
0.0000001
 43
0.0000001
 44
0.0000000001
 40
0.0
 40
0.0
 40
0.0
 40
0.0
 40
0.2208989638
 40
1.0
 40
1.0
 40
1.0
 40
1.0
 10
2587.4261733131
 20
1336.4895835013
 30
0.0
 10
2587.2528256931
 20
1336.5892551553
 30
0.0
 10
2586.5435397189
 20
1337.1842103825
 30
0.0
 10
2586.3375299748
 20
1338.1876525434
 30
0.0
 10
2586.3375299748
 20
1338.8929013047
 30
0.0
  0
SPLINE
  5
533
100
AcDbEntity
  8
0
100
AcDbSpline
 62
7
  6
CONTINUOUS
 70
0
 71
3
 72
9
 73
5
 74
0
 42
0.0000001
 43
0.0000001
 44
0.0000000001
 40
0.0
 40
0.0
 40
0.0
 40
0.0
 40
0.5469355773
 40
1.0
 40
1.0
 40
1.0
 40
1.0
 10
2252.4374979781
 20
1377.552124598
 30
0.0
 10
2251.7061200071
 20
1375.2225574518
 30
0.0
 10
2249.4481419287
 20
1371.2798531605
 30
0.0
 10
2245.5707578422
 20
1368.3807253768
 30
0.0
 10
2243.5740478821
 20
1368.0580727509
 30
0.0
  0
SPLINE
  5
534
100
AcDbEntity
  8
0
100
AcDbSpline
 62
7
  6
CONTINUOUS
 70
0
 71
3
 72
9
 73
5
 74
0
 42
0.0000001
 43
0.0000001
 44
0.0000000001
 40
0.0
 40
0.0
 40
0.0
 40
0.0
 40
0.5469355773
 40
1.0
 40
1.0
 40
1.0
 40
1.0
 10
2280.7217692256
 20
1393.8863326002
 30
0.0
 10
2279.9903912545
 20
1391.556765454
 30
0.0
 10
2277.7324131762
 20
1387.6140611627
 30
0.0
 10
2273.8550290897
 20
1384.714933379
 30
0.0
 10
2271.8583191295
 20
1384.3922807531
 30
0.0
  0
SPLINE
  5
535
100
AcDbEntity
  8
0
100
AcDbSpline
 62
7
  6
CONTINUOUS
 70
0
 71
3
 72
9
 73
5
 74
0
 42
0.0000001
 43
0.0000001
 44
0.0000000001
 40
0.0
 40
0.0
 40
0.0
 40
0.0
 40
0.5469355773
 40
1.0
 40
1.0
 40
1.0
 40
1.0
 10
2309.0060404731
 20
1410.2205406024
 30
0.0
 10
2308.274662502
 20
1407.8909734562
 30
0.0
 10
2306.0166844237
 20
1403.948269165
 30
0.0
 10
2302.1393003372
 20
1401.0491413812
 30
0.0
 10
2300.142590377
 20
1400.7264887553
 30
0.0
  0
SPLINE
  5
536
100
AcDbEntity
  8
6_ALL_SURFS
100
AcDbSpline
 62
7
  6
CONTINUOUS
 70
0
 71
3
 72
9
 73
5
 74
0
 42
0.0000001
 43
0.0000001
 44
0.0000000001
 40
0.0
 40
0.0
 40
0.0
 40
0.0
 40
0.2208989638
 40
1.0
 40
1.0
 40
1.0
 40
1.0
 10
2524.5926647369
 20
1300.2031404243
 30
0.0
 10
2524.4193171168
 20
1300.3028120784
 30
0.0
 10
2523.7100311427
 20
1300.8977673055
 30
0.0
 10
2523.5040213985
 20
1301.9012094665
 30
0.0
 10
2523.5040213985
 20
1302.6064582277
 30
0.0
  0
SPLINE
  5
537
100
AcDbEntity
  8
0
100
AcDbSpline
 62
7
  6
CONTINUOUS
 70
0
 71
3
 72
9
 73
5
 74
0
 42
0.0000001
 43
0.0000001
 44
0.0000000001
 40
0.0
 40
0.0
 40
0.0
 40
0.0
 40
0.5469355773
 40
1.0
 40
1.0
 40
1.0
 40
1.0
 10
2337.2903117205
 20
1426.5547486047
 30
0.0
 10
2336.5589337495
 20
1424.2251814585
 30
0.0
 10
2334.3009556711
 20
1420.2824771672
 30
0.0
 10
2330.4235715846
 20
1417.3833493835
 30
0.0
 10
2328.4268616245
 20
1417.0606967576
 30
0.0
  0
SPLINE
  5
538
100
AcDbEntity
  8
0
100
AcDbSpline
 62
7
  6
CONTINUOUS
 70
0
 71
3
 72
9
 73
5
 74
0
 42
0.0000001
 43
0.0000001
 44
0.0000000001
 40
0.0
 40
0.0
 40
0.0
 40
0.0
 40
0.5469355773
 40
1.0
 40
1.0
 40
1.0
 40
1.0
 10
2365.574582968
 20
1442.8889566069
 30
0.0
 10
2364.8432049969
 20
1440.5593894607
 30
0.0
 10
2362.5852269186
 20
1436.6166851694
 30
0.0
 10
2358.7078428321
 20
1433.7175573857
 30
0.0
 10
2356.7111328719
 20
1433.3949047598
 30
0.0
  0
SPLINE
  5
539
100
AcDbEntity
  8
0
100
AcDbSpline
 62
7
  6
CONTINUOUS
 70
0
 71
3
 72
9
 73
5
 74
0
 42
0.0000001
 43
0.0000001
 44
0.0000000001
 40
0.0
 40
0.0
 40
0.0
 40
0.0
 40
0.5469355773
 40
1.0
 40
1.0
 40
1.0
 40
1.0
 10
2393.8588542155
 20
1459.2231646091
 30
0.0
 10
2393.1274762444
 20
1456.8935974629
 30
0.0
 10
2390.8694981661
 20
1452.9508931716
 30
0.0
 10
2386.9921140795
 20
1450.0517653879
 30
0.0
 10
2384.9954041194
 20
1449.729112762
 30
0.0
  0
SPLINE
  5
53A
100
AcDbEntity
  8
0
100
AcDbSpline
 62
7
  6
CONTINUOUS
 70
0
 71
3
 72
9
 73
5
 74
0
 42
0.0000001
 43
0.0000001
 44
0.0000000001
 40
0.0
 40
0.0
 40
0.0
 40
0.0
 40
0.4492071657
 40
1.0
 40
1.0
 40
1.0
 40
1.0
 10
2528.05430001
 20
1529.3562947172
 30
0.0
 10
2527.3807446959
 20
1529.7462200573
 30
0.0
 10
2526.2172694115
 20
1531.203640972
 30
0.0
 10
2525.9859662005
 20
1532.9769707007
 30
0.0
 10
2525.9859662005
 20
1533.93125337
 30
0.0
  0
SPLINE
  5
53B
100
AcDbEntity
  8
0
100
AcDbSpline
 62
7
  6
CONTINUOUS
 70
0
 71
3
 72
9
 73
5
 74
0
 42
0.0000001
 43
0.0000001
 44
0.0000000001
 40
0.0
 40
0.0
 40
0.0
 40
0.0
 40
0.5469355773
 40
1.0
 40
1.0
 40
1.0
 40
1.0
 10
2422.1431254629
 20
1475.5573726114
 30
0.0
 10
2421.4117474918
 20
1473.2278054651
 30
0.0
 10
2419.1537694135
 20
1469.2851011739
 30
0.0
 10
2415.276385327
 20
1466.3859733901
 30
0.0
 10
2413.2796753669
 20
1466.0633207643
 30
0.0
  0
SPLINE
  5
53C
100
AcDbEntity
  8
0
100
AcDbSpline
 62
7
  6
CONTINUOUS
 70
0
 71
3
 72
9
 73
5
 74
0
 42
0.0000001
 43
0.0000001
 44
0.0000000001
 40
0.0
 40
0.0
 40
0.0
 40
0.0
 40
0.5469355773
 40
1.0
 40
1.0
 40
1.0
 40
1.0
 10
2450.4273967104
 20
1491.8915806136
 30
0.0
 10
2449.6960187393
 20
1489.5620134674
 30
0.0
 10
2447.438040661
 20
1485.6193091761
 30
0.0
 10
2443.5606565745
 20
1482.7201813924
 30
0.0
 10
2441.5639466143
 20
1482.3975287665
 30
0.0
  0
SPLINE
  5
53D
100
AcDbEntity
  8
0
100
AcDbSpline
 62
7
  6
CONTINUOUS
 70
0
 71
3
 72
9
 73
5
 74
0
 42
0.0000001
 43
0.0000001
 44
0.0000000001
 40
0.0
 40
0.0
 40
0.0
 40
0.0
 40
0.5469355773
 40
1.0
 40
1.0
 40
1.0
 40
1.0
 10
2478.7116679578
 20
1508.2257886158
 30
0.0
 10
2477.9802899868
 20
1505.8962214696
 30
0.0
 10
2475.7223119084
 20
1501.9535171783
 30
0.0
 10
2471.8449278219
 20
1499.0543893946
 30
0.0
 10
2469.8482178618
 20
1498.7317367687
 30
0.0
  0
SPLINE
  5
53E
100
AcDbEntity
  8
0
100
AcDbSpline
 62
7
  6
CONTINUOUS
 70
0
 71
3
 72
9
 73
5
 74
0
 42
0.0000001
 43
0.0000001
 44
0.0000000001
 40
0.0
 40
0.0
 40
0.0
 40
0.0
 40
0.4492071657
 40
1.0
 40
1.0
 40
1.0
 40
1.0
 10
2499.7700287625
 20
1513.0220867149
 30
0.0
 10
2499.0964734484
 20
1513.412012055
 30
0.0
 10
2497.932998164
 20
1514.8694329698
 30
0.0
 10
2497.701694953
 20
1516.6427626984
 30
0.0
 10
2497.701694953
 20
1517.5970453678
 30
0.0
  0
SPLINE
  5
53F
100
AcDbEntity
  8
0
100
AcDbSpline
 62
7
  6
CONTINUOUS
 70
0
 71
3
 72
9
 73
5
 74
0
 42
0.0000001
 43
0.0000001
 44
0.0000000001
 40
0.0
 40
0.0
 40
0.0
 40
0.0
 40
0.5469355773
 40
1.0
 40
1.0
 40
1.0
 40
1.0
 10
2506.9959392053
 20
1524.5599966181
 30
0.0
 10
2506.2645612342
 20
1522.2304294718
 30
0.0
 10
2504.0065831559
 20
1518.2877251806
 30
0.0
 10
2500.1291990694
 20
1515.3885973968
 30
0.0
 10
2498.1324891092
 20
1515.065944771
 30
0.0
  0
SPLINE
  5
540
100
AcDbEntity
  8
0
100
AcDbSpline
 62
7
  6
CONTINUOUS
 70
0
 71
3
 72
9
 73
5
 74
0
 42
0.0000001
 43
0.0000001
 44
0.0000000001
 40
0.0
 40
0.0
 40
0.0
 40
0.0
 40
0.5469355773
 40
1.0
 40
1.0
 40
1.0
 40
1.0
 10
2535.2802104528
 20
1540.8942046203
 30
0.0
 10
2534.5488324817
 20
1538.5646374741
 30
0.0
 10
2532.2908544034
 20
1534.6219331828
 30
0.0
 10
2528.4134703169
 20
1531.7228053991
 30
0.0
 10
2526.4167603567
 20
1531.4001527732
 30
0.0
  0
SPLINE
  5
541
100
AcDbEntity
  8
0
100
AcDbSpline
 62
7
  6
CONTINUOUS
 70
0
 71
3
 72
9
 73
5
 74
0
 42
0.0000001
 43
0.0000001
 44
0.0000000001
 40
0.0
 40
0.0
 40
0.0
 40
0.0
 40
0.4492071657
 40
1.0
 40
1.0
 40
1.0
 40
1.0
 10
2471.4857575151
 20
1496.6878787127
 30
0.0
 10
2470.8122022009
 20
1497.0778040528
 30
0.0
 10
2469.6487269166
 20
1498.5352249675
 30
0.0
 10
2469.4174237056
 20
1500.3085546962
 30
0.0
 10
2469.4174237056
 20
1501.2628373656
 30
0.0
  0
SPLINE
  5
542
100
AcDbEntity
  8
0
100
AcDbSpline
 62
7
  6
CONTINUOUS
 70
0
 71
3
 72
9
 73
5
 74
0
 42
0.0000001
 43
0.0000001
 44
0.0000000001
 40
0.0
 40
0.0
 40
0.0
 40
0.0
 40
0.4492071657
 40
1.0
 40
1.0
 40
1.0
 40
1.0
 10
2443.2014862676
 20
1480.3536707105
 30
0.0
 10
2442.5279309535
 20
1480.7435960506
 30
0.0
 10
2441.3644556691
 20
1482.2010169653
 30
0.0
 10
2441.1331524581
 20
1483.974346694
 30
0.0
 10
2441.1331524581
 20
1484.9286293634
 30
0.0
  0
SPLINE
  5
543
100
AcDbEntity
  8
0
100
AcDbSpline
 62
7
  6
CONTINUOUS
 70
0
 71
3
 72
9
 73
5
 74
0
 42
0.0000001
 43
0.0000001
 44
0.0000000001
 40
0.0
 40
0.0
 40
0.0
 40
0.0
 40
0.4492071657
 40
1.0
 40
1.0
 40
1.0
 40
1.0
 10
2414.9172150201
 20
1464.0194627082
 30
0.0
 10
2414.243659706
 20
1464.4093880483
 30
0.0
 10
2413.0801844217
 20
1465.8668089631
 30
0.0
 10
2412.8488812107
 20
1467.6401386917
 30
0.0
 10
2412.8488812107
 20
1468.5944213611
 30
0.0
  0
SPLINE
  5
544
100
AcDbEntity
  8
0
100
AcDbSpline
 62
7
  6
CONTINUOUS
 70
0
 71
3
 72
9
 73
5
 74
0
 42
0.0000001
 43
0.0000001
 44
0.0000000001
 40
0.0
 40
0.0
 40
0.0
 40
0.0
 40
0.4492071657
 40
1.0
 40
1.0
 40
1.0
 40
1.0
 10
2386.6329437727
 20
1447.685254706
 30
0.0
 10
2385.9593884586
 20
1448.0751800461
 30
0.0
 10
2384.7959131742
 20
1449.5326009609
 30
0.0
 10
2384.5646099632
 20
1451.3059306895
 30
0.0
 10
2384.5646099632
 20
1452.2602133589
 30
0.0
  0
SPLINE
  5
545
100
AcDbEntity
  8
0
100
AcDbSpline
 62
7
  6
CONTINUOUS
 70
0
 71
3
 72
9
 73
5
 74
0
 42
0.0000001
 43
0.0000001
 44
0.0000000001
 40
0.0
 40
0.0
 40
0.0
 40
0.0
 40
0.4492071657
 40
1.0
 40
1.0
 40
1.0
 40
1.0
 10
2358.3486725252
 20
1431.3510467038
 30
0.0
 10
2357.6751172111
 20
1431.7409720439
 30
0.0
 10
2356.5116419267
 20
1433.1983929586
 30
0.0
 10
2356.2803387157
 20
1434.9717226873
 30
0.0
 10
2356.2803387157
 20
1435.9260053567
 30
0.0
  0
SPLINE
  5
546
100
AcDbEntity
  8
6_ALL_SURFS
100
AcDbSpline
 62
7
  6
CONTINUOUS
 70
0
 71
3
 72
9
 73
5
 74
0
 42
0.0000001
 43
0.0000001
 44
0.0000000001
 40
0.0
 40
0.0
 40
0.0
 40
0.0
 40
0.499974349
 40
1.0
 40
1.0
 40
1.0
 40
1.0
 10
2892.9743856363
 20
1319.5681880744
 30
0.0
 10
2892.9743856363
 20
1318.3565263638
 30
0.0
 10
2892.14604055
 20
1315.9639969162
 30
0.0
 10
2890.4882205164
 20
1314.0504758307
 30
0.0
 10
2889.4388517304
 20
1313.4444638225
 30
0.0
  0
SPLINE
  5
547
100
AcDbEntity
  8
0
100
AcDbSpline
 62
7
  6
CONTINUOUS
 70
0
 71
3
 72
9
 73
5
 74
0
 42
0.0000001
 43
0.0000001
 44
0.0000000001
 40
0.0
 40
0.0
 40
0.0
 40
0.0
 40
0.4492071657
 40
1.0
 40
1.0
 40
1.0
 40
1.0
 10
2330.0644012778
 20
1415.0168387015
 30
0.0
 10
2329.3908459636
 20
1415.4067640416
 30
0.0
 10
2328.2273706793
 20
1416.8641849564
 30
0.0
 10
2327.9960674683
 20
1418.6375146851
 30
0.0
 10
2327.9960674683
 20
1419.5917973544
 30
0.0
  0
SPLINE
  5
548
100
AcDbEntity
  8
0
100
AcDbSpline
 62
7
  6
CONTINUOUS
 70
0
 71
3
 72
9
 73
5
 74
0
 42
0.0000001
 43
0.0000001
 44
0.0000000001
 40
0.0
 40
0.0
 40
0.0
 40
0.0
 40
0.4492071657
 40
1.0
 40
1.0
 40
1.0
 40
1.0
 10
2301.7801300303
 20
1398.6826306993
 30
0.0
 10
2301.1065747162
 20
1399.0725560394
 30
0.0
 10
2299.9430994318
 20
1400.5299769542
 30
0.0
 10
2299.7117962208
 20
1402.3033066828
 30
0.0
 10
2299.7117962208
 20
1403.2575893522
 30
0.0
  0
SPLINE
  5
549
100
AcDbEntity
  8
0
100
AcDbSpline
 62
7
  6
CONTINUOUS
 70
0
 71
3
 72
9
 73
5
 74
0
 42
0.0000001
 43
0.0000001
 44
0.0000000001
 40
0.0
 40
0.0
 40
0.0
 40
0.0
 40
0.4492071657
 40
1.0
 40
1.0
 40
1.0
 40
1.0
 10
2273.4958587828
 20
1382.3484226971
 30
0.0
 10
2272.8223034687
 20
1382.7383480372
 30
0.0
 10
2271.6588281844
 20
1384.1957689519
 30
0.0
 10
2271.4275249733
 20
1385.9690986806
 30
0.0
 10
2271.4275249733
 20
1386.92338135
 30
0.0
  0
SPLINE
  5
54A
100
AcDbEntity
  8
0
100
AcDbSpline
 62
7
  6
CONTINUOUS
 70
0
 71
3
 72
9
 73
5
 74
0
 42
0.0000001
 43
0.0000001
 44
0.0000000001
 40
0.0
 40
0.0
 40
0.0
 40
0.0
 40
0.4492071657
 40
1.0
 40
1.0
 40
1.0
 40
1.0
 10
2245.2115875354
 20
1366.0142146948
 30
0.0
 10
2244.5380322212
 20
1366.404140035
 30
0.0
 10
2243.3745569369
 20
1367.8615609497
 30
0.0
 10
2243.1432537259
 20
1369.6348906784
 30
0.0
 10
2243.1432537259
 20
1370.5891733477
 30
0.0
  0
SPLINE
  5
54B
100
AcDbEntity
  8
0
100
AcDbSpline
 62
7
  6
CONTINUOUS
 70
0
 71
3
 72
9
 73
5
 74
0
 42
0.0000001
 43
0.0000001
 44
0.0000000001
 40
0.0
 40
0.0
 40
0.0
 40
0.0
 40
0.4492071657
 40
1.0
 40
1.0
 40
1.0
 40
1.0
 10
2216.9273162879
 20
1349.6800066926
 30
0.0
 10
2216.2537609738
 20
1350.0699320327
 30
0.0
 10
2215.0902856894
 20
1351.5273529475
 30
0.0
 10
2214.8589824784
 20
1353.3006826761
 30
0.0
 10
2214.8589824784
 20
1354.2549653455
 30
0.0
  0
SPLINE
  5
54C
100
AcDbEntity
  8
0
100
AcDbSpline
 62
7
  6
CONTINUOUS
 70
0
 71
3
 72
10
 73
6
 74
0
 42
0.0000001
 43
0.0000001
 44
0.0000000001
 40
0.0
 40
0.0
 40
0.0
 40
0.0
 40
0.2776167721
 40
0.5773718367
 40
1.0
 40
1.0
 40
1.0
 40
1.0
 10
2542.7797522537
 20
1502.8102068546
 30
0.0
 10
2542.7797522537
 20
1503.3908040046
 30
0.0
 10
2543.1246129512
 20
1504.6080392091
 30
0.0
 10
2544.1402943334
 20
1506.3191081281
 30
0.0
 10
2545.9375372511
 20
1507.3933649511
 30
0.0
 10
2546.7031768622
 20
1506.9517549083
 30
0.0
  0
SPLINE
  5
54D
100
AcDbEntity
  8
0
100
AcDbSpline
 62
7
  6
CONTINUOUS
 70
0
 71
3
 72
10
 73
6
 74
0
 42
0.0000001
 43
0.0000001
 44
0.0000000001
 40
0.0
 40
0.0
 40
0.0
 40
0.0
 40
0.2775555189
 40
0.5772963999
 40
1.0
 40
1.0
 40
1.0
 40
1.0
 10
2425.4711003838
 20
1439.765400878
 30
0.0
 10
2425.4711003838
 20
1440.5243485027
 30
0.0
 10
2425.921670533
 20
1442.1156642154
 30
0.0
 10
2427.2498649244
 20
1444.3529713667
 30
0.0
 10
2429.5982118965
 20
1445.7581021255
 30
0.0
 10
2430.6002253214
 20
1445.1819630621
 30
0.0
  0
SPLINE
  5
54E
100
AcDbEntity
  8
0
100
AcDbSpline
 62
7
  6
CONTINUOUS
 70
0
 71
3
 72
8
 73
4
 74
0
 42
0.0000001
 43
0.0000001
 44
0.0000000001
 40
0.0
 40
0.0
 40
0.0
 40
0.0
 40
1.0
 40
1.0
 40
1.0
 40
1.0
 10
2214.8589824784
 20
1354.2549653455
 30
0.0
 10
2214.8589824784
 20
1354.8324250408
 30
0.0
 10
2214.9119758164
 20
1355.4111704926
 30
0.0
 10
2215.0038251325
 20
1355.9812787305
 30
0.0
  0
SPLINE
  5
54F
100
AcDbEntity
  8
0
100
AcDbSpline
 62
7
  6
CONTINUOUS
 70
0
 71
3
 72
8
 73
4
 74
0
 42
0.0000001
 43
0.0000001
 44
0.0000000001
 40
0.0
 40
0.0
 40
0.0
 40
0.0
 40
1.0
 40
1.0
 40
1.0
 40
1.0
 10
2243.1432537259
 20
1370.5891733477
 30
0.0
 10
2243.1432537259
 20
1371.1666330431
 30
0.0
 10
2243.1962470639
 20
1371.7453784949
 30
0.0
 10
2243.28809638
 20
1372.3154867327
 30
0.0
  0
SPLINE
  5
550
100
AcDbEntity
  8
0
100
AcDbSpline
 62
7
  6
CONTINUOUS
 70
0
 71
3
 72
8
 73
4
 74
0
 42
0.0000001
 43
0.0000001
 44
0.0000000001
 40
0.0
 40
0.0
 40
0.0
 40
0.0
 40
1.0
 40
1.0
 40
1.0
 40
1.0
 10
2271.4275249733
 20
1386.92338135
 30
0.0
 10
2271.4275249733
 20
1387.5008410453
 30
0.0
 10
2271.4805183114
 20
1388.0795864971
 30
0.0
 10
2271.5723676275
 20
1388.6496947349
 30
0.0
  0
SPLINE
  5
551
100
AcDbEntity
  8
0
100
AcDbSpline
 62
7
  6
CONTINUOUS
 70
0
 71
3
 72
8
 73
4
 74
0
 42
0.0000001
 43
0.0000001
 44
0.0000000001
 40
0.0
 40
0.0
 40
0.0
 40
0.0
 40
1.0
 40
1.0
 40
1.0
 40
1.0
 10
2299.7117962208
 20
1403.2575893522
 30
0.0
 10
2299.7117962208
 20
1403.8350490475
 30
0.0
 10
2299.7647895588
 20
1404.4137944993
 30
0.0
 10
2299.8566388749
 20
1404.9839027372
 30
0.0
  0
SPLINE
  5
552
100
AcDbEntity
  8
0
100
AcDbSpline
 62
7
  6
CONTINUOUS
 70
0
 71
3
 72
8
 73
4
 74
0
 42
0.0000001
 43
0.0000001
 44
0.0000000001
 40
0.0
 40
0.0
 40
0.0
 40
0.0
 40
1.0
 40
1.0
 40
1.0
 40
1.0
 10
2327.9960674683
 20
1419.5917973544
 30
0.0
 10
2327.9960674683
 20
1420.1692570498
 30
0.0
 10
2328.0490608063
 20
1420.7480025015
 30
0.0
 10
2328.1409101224
 20
1421.3181107394
 30
0.0
  0
SPLINE
  5
553
100
AcDbEntity
  8
0
100
AcDbSpline
 62
7
  6
CONTINUOUS
 70
0
 71
3
 72
8
 73
4
 74
0
 42
0.0000001
 43
0.0000001
 44
0.0000000001
 40
0.0
 40
0.0
 40
0.0
 40
0.0
 40
1.0
 40
1.0
 40
1.0
 40
1.0
 10
2356.2803387157
 20
1435.9260053567
 30
0.0
 10
2356.2803387157
 20
1436.503465052
 30
0.0
 10
2356.3333320537
 20
1437.0822105038
 30
0.0
 10
2356.4251813699
 20
1437.6523187416
 30
0.0
  0
SPLINE
  5
554
100
AcDbEntity
  8
0
100
AcDbSpline
 62
7
  6
CONTINUOUS
 70
0
 71
3
 72
8
 73
4
 74
0
 42
0.0000001
 43
0.0000001
 44
0.0000000001
 40
0.0
 40
0.0
 40
0.0
 40
0.0
 40
1.0
 40
1.0
 40
1.0
 40
1.0
 10
2384.5646099632
 20
1452.2602133589
 30
0.0
 10
2384.5646099632
 20
1452.8376730542
 30
0.0
 10
2384.6176033012
 20
1453.416418506
 30
0.0
 10
2384.7094526173
 20
1453.9865267439
 30
0.0
  0
SPLINE
  5
555
100
AcDbEntity
  8
0
100
AcDbSpline
 62
7
  6
CONTINUOUS
 70
0
 71
3
 72
8
 73
4
 74
0
 42
0.0000001
 43
0.0000001
 44
0.0000000001
 40
0.0
 40
0.0
 40
0.0
 40
0.0
 40
1.0
 40
1.0
 40
1.0
 40
1.0
 10
2412.8488812107
 20
1468.5944213611
 30
0.0
 10
2412.8488812107
 20
1469.1718810565
 30
0.0
 10
2412.9018745487
 20
1469.7506265082
 30
0.0
 10
2412.9937238648
 20
1470.3207347461
 30
0.0
  0
SPLINE
  5
556
100
AcDbEntity
  8
0
100
AcDbSpline
 62
7
  6
CONTINUOUS
 70
0
 71
3
 72
8
 73
4
 74
0
 42
0.0000001
 43
0.0000001
 44
0.0000000001
 40
0.0
 40
0.0
 40
0.0
 40
0.0
 40
1.0
 40
1.0
 40
1.0
 40
1.0
 10
2441.1331524581
 20
1484.9286293634
 30
0.0
 10
2441.1331524581
 20
1485.5060890587
 30
0.0
 10
2441.1861457961
 20
1486.0848345105
 30
0.0
 10
2441.2779951122
 20
1486.6549427483
 30
0.0
  0
SPLINE
  5
557
100
AcDbEntity
  8
0
100
AcDbSpline
 62
7
  6
CONTINUOUS
 70
0
 71
3
 72
8
 73
4
 74
0
 42
0.0000001
 43
0.0000001
 44
0.0000000001
 40
0.0
 40
0.0
 40
0.0
 40
0.0
 40
1.0
 40
1.0
 40
1.0
 40
1.0
 10
2469.4174237056
 20
1501.2628373656
 30
0.0
 10
2469.4174237056
 20
1501.8402970609
 30
0.0
 10
2469.4704170436
 20
1502.4190425127
 30
0.0
 10
2469.5622663597
 20
1502.9891507505
 30
0.0
  0
SPLINE
  5
558
100
AcDbEntity
  8
0
100
AcDbSpline
 62
7
  6
CONTINUOUS
 70
0
 71
3
 72
8
 73
4
 74
0
 42
0.0000001
 43
0.0000001
 44
0.0000000001
 40
0.0
 40
0.0
 40
0.0
 40
0.0
 40
1.0
 40
1.0
 40
1.0
 40
1.0
 10
2497.701694953
 20
1517.5970453678
 30
0.0
 10
2497.701694953
 20
1518.1745050631
 30
0.0
 10
2497.754688291
 20
1518.7532505149
 30
0.0
 10
2497.8465376072
 20
1519.3233587528
 30
0.0
  0
SPLINE
  5
559
100
AcDbEntity
  8
0
100
AcDbSpline
 62
7
  6
CONTINUOUS
 70
0
 71
3
 72
8
 73
4
 74
0
 42
0.0000001
 43
0.0000001
 44
0.0000000001
 40
0.0
 40
0.0
 40
0.0
 40
0.0
 40
1.0
 40
1.0
 40
1.0
 40
1.0
 10
2525.9859662005
 20
1533.93125337
 30
0.0
 10
2525.9859662005
 20
1534.5087130654
 30
0.0
 10
2526.0389595385
 20
1535.0874585172
 30
0.0
 10
2526.1308088546
 20
1535.657566755
 30
0.0
  0
SPLINE
  5
55A
100
AcDbEntity
  8
0
100
AcDbSpline
 62
7
  6
CONTINUOUS
 70
0
 71
3
 72
9
 73
5
 74
0
 42
0.0000001
 43
0.0000001
 44
0.0000000001
 40
0.0
 40
0.0
 40
0.0
 40
0.0
 40
0.5047594957
 40
1.0
 40
1.0
 40
1.0
 40
1.0
 10
2549.6604249875
 20
1506.375610594
 30
0.0
 10
2549.5626457676
 20
1504.8559092444
 30
0.0
 10
2548.4639356716
 20
1501.9265972302
 30
0.0
 10
2546.3717149649
 20
1499.5780378453
 30
0.0
 10
2545.0778492925
 20
1498.8308285276
 30
0.0
  0
SPLINE
  5
55B
100
AcDbEntity
  8
6_ALL_SURFS
100
AcDbSpline
 62
7
  6
CONTINUOUS
 70
0
 71
3
 72
13
 73
9
 74
0
 42
0.0000001
 43
0.0000001
 44
0.0000000001
 40
0.0
 40
0.0
 40
0.0
 40
0.0
 40
0.0871356718
 40
0.1868359544
 40
0.3045084521
 40
0.4386550364
 40
0.7301301208
 40
1.0
 40
1.0
 40
1.0
 40
1.0
 10
2709.5331624525
 20
1433.7685559548
 30
0.0
 10
2709.0339681073
 20
1434.0575426508
 30
0.0
 10
2707.7789354695
 20
1434.3806561613
 30
0.0
 10
2705.7587959793
 20
1433.9767582924
 30
0.0
 10
2703.6941811624
 20
1432.8500679352
 30
0.0
 10
2700.9858823251
 20
1430.4482571515
 30
0.0
 10
2698.4419700257
 20
1426.5167158889
 30
0.0
 10
2697.4593606382
 20
1422.8129407751
 30
0.0
 10
2697.4593606382
 20
1421.0264933008
 30
0.0
  0
SPLINE
  5
55C
100
AcDbEntity
  8
6_ALL_SURFS
100
AcDbSpline
 62
7
  6
CONTINUOUS
 70
0
 71
3
 72
13
 73
9
 74
0
 42
0.0000001
 43
0.0000001
 44
0.0000000001
 40
0.0
 40
0.0
 40
0.0
 40
0.0
 40
0.0871356718
 40
0.1868359544
 40
0.3045084521
 40
0.4386550364
 40
0.7301301208
 40
1.0
 40
1.0
 40
1.0
 40
1.0
 10
2681.248891205
 20
1417.4343479526
 30
0.0
 10
2680.7496968599
 20
1417.7233346486
 30
0.0
 10
2679.494664222
 20
1418.0464481591
 30
0.0
 10
2677.4745247319
 20
1417.6425502902
 30
0.0
 10
2675.4099099149
 20
1416.5158599329
 30
0.0
 10
2672.7016110776
 20
1414.1140491493
 30
0.0
 10
2670.1576987783
 20
1410.1825078867
 30
0.0
 10
2669.1750893908
 20
1406.4787327729
 30
0.0
 10
2669.1750893908
 20
1404.6922852986
 30
0.0
  0
SPLINE
  5
55D
100
AcDbEntity
  8
6_ALL_SURFS
100
AcDbSpline
 62
7
  6
CONTINUOUS
 70
0
 71
3
 72
13
 73
9
 74
0
 42
0.0000001
 43
0.0000001
 44
0.0000000001
 40
0.0
 40
0.0
 40
0.0
 40
0.0
 40
0.0871356718
 40
0.1868359544
 40
0.3045084521
 40
0.4386550364
 40
0.7301301208
 40
1.0
 40
1.0
 40
1.0
 40
1.0
 10
2652.9646199576
 20
1401.1001399504
 30
0.0
 10
2652.4654256124
 20
1401.3891266464
 30
0.0
 10
2651.2103929746
 20
1401.7122401569
 30
0.0
 10
2649.1902534844
 20
1401.3083422879
 30
0.0
 10
2647.1256386675
 20
1400.1816519307
 30
0.0
 10
2644.4173398301
 20
1397.779841147
 30
0.0
 10
2641.8734275308
 20
1393.8482998844
 30
0.0
 10
2640.8908181433
 20
1390.1445247706
 30
0.0
 10
2640.8908181433
 20
1388.3580772964
 30
0.0
  0
SPLINE
  5
55E
100
AcDbEntity
  8
6_ALL_SURFS
100
AcDbSpline
 62
7
  6
CONTINUOUS
 70
0
 71
3
 72
13
 73
9
 74
0
 42
0.0000001
 43
0.0000001
 44
0.0000000001
 40
0.0
 40
0.0
 40
0.0
 40
0.0
 40
0.0871356718
 40
0.1868359544
 40
0.3045084521
 40
0.4386550364
 40
0.7301301208
 40
1.0
 40
1.0
 40
1.0
 40
1.0
 10
2624.6803487101
 20
1384.7659319481
 30
0.0
 10
2624.181154365
 20
1385.0549186441
 30
0.0
 10
2622.9261217271
 20
1385.3780321547
 30
0.0
 10
2620.9059822369
 20
1384.9741342857
 30
0.0
 10
2618.84136742
 20
1383.8474439285
 30
0.0
 10
2616.1330685827
 20
1381.4456331448
 30
0.0
 10
2613.5891562834
 20
1377.5140918822
 30
0.0
 10
2612.6065468959
 20
1373.8103167684
 30
0.0
 10
2612.6065468959
 20
1372.0238692941
 30
0.0
  0
SPLINE
  5
55F
100
AcDbEntity
  8
6_ALL_SURFS
100
AcDbSpline
 62
7
  6
CONTINUOUS
 70
0
 71
3
 72
13
 73
9
 74
0
 42
0.0000001
 43
0.0000001
 44
0.0000000001
 40
0.0
 40
0.0
 40
0.0
 40
0.0
 40
0.0871356718
 40
0.1868359544
 40
0.3045084521
 40
0.4386550364
 40
0.7301301208
 40
1.0
 40
1.0
 40
1.0
 40
1.0
 10
2596.3960774626
 20
1368.4317239459
 30
0.0
 10
2595.8968831175
 20
1368.7207106419
 30
0.0
 10
2594.6418504797
 20
1369.0438241524
 30
0.0
 10
2592.6217109895
 20
1368.6399262835
 30
0.0
 10
2590.5570961725
 20
1367.5132359263
 30
0.0
 10
2587.8487973352
 20
1365.1114251426
 30
0.0
 10
2585.3048850359
 20
1361.17988388
 30
0.0
 10
2584.3222756484
 20
1357.4761087662
 30
0.0
 10
2584.3222756484
 20
1355.6896612919
 30
0.0
  0
SPLINE
  5
560
100
AcDbEntity
  8
6_ALL_SURFS
100
AcDbSpline
 62
7
  6
CONTINUOUS
 70
0
 71
3
 72
13
 73
9
 74
0
 42
0.0000001
 43
0.0000001
 44
0.0000000001
 40
0.0
 40
0.0
 40
0.0
 40
0.0
 40
0.0871356718
 40
0.1868359544
 40
0.3045084521
 40
0.4386550364
 40
0.7301301208
 40
1.0
 40
1.0
 40
1.0
 40
1.0
 10
2568.1118062152
 20
1352.0975159437
 30
0.0
 10
2567.61261187
 20
1352.3865026397
 30
0.0
 10
2566.3575792322
 20
1352.7096161502
 30
0.0
 10
2564.337439742
 20
1352.3057182812
 30
0.0
 10
2562.2728249251
 20
1351.179027924
 30
0.0
 10
2559.5645260878
 20
1348.7772171403
 30
0.0
 10
2557.0206137884
 20
1344.8456758778
 30
0.0
 10
2556.0380044009
 20
1341.1419007639
 30
0.0
 10
2556.0380044009
 20
1339.3554532897
 30
0.0
  0
SPLINE
  5
561
100
AcDbEntity
  8
6_ALL_SURFS
100
AcDbSpline
 62
7
  6
CONTINUOUS
 70
0
 71
3
 72
13
 73
9
 74
0
 42
0.0000001
 43
0.0000001
 44
0.0000000001
 40
0.0
 40
0.0
 40
0.0
 40
0.0
 40
0.0871356718
 40
0.1868359544
 40
0.3045084521
 40
0.4386550364
 40
0.7301301208
 40
1.0
 40
1.0
 40
1.0
 40
1.0
 10
2539.8275349677
 20
1335.7633079415
 30
0.0
 10
2539.3283406226
 20
1336.0522946375
 30
0.0
 10
2538.0733079847
 20
1336.375408148
 30
0.0
 10
2536.0531684945
 20
1335.971510279
 30
0.0
 10
2533.9885536776
 20
1334.8448199218
 30
0.0
 10
2531.2802548403
 20
1332.4430091381
 30
0.0
 10
2528.736342541
 20
1328.5114678755
 30
0.0
 10
2527.7537331535
 20
1324.8076927617
 30
0.0
 10
2527.7537331535
 20
1323.0212452874
 30
0.0
  0
SPLINE
  5
562
100
AcDbEntity
  8
6_ALL_SURFS
100
AcDbSpline
 62
7
  6
CONTINUOUS
 70
0
 71
3
 72
13
 73
9
 74
0
 42
0.0000001
 43
0.0000001
 44
0.0000000001
 40
0.0
 40
0.0
 40
0.0
 40
0.0
 40
0.0871356718
 40
0.1868359544
 40
0.3045084521
 40
0.4386550364
 40
0.7301301208
 40
1.0
 40
1.0
 40
1.0
 40
1.0
 10
2511.5432637202
 20
1319.4290999392
 30
0.0
 10
2511.0440693751
 20
1319.7180866352
 30
0.0
 10
2509.7890367373
 20
1320.0412001457
 30
0.0
 10
2507.7688972471
 20
1319.6373022768
 30
0.0
 10
2505.7042824302
 20
1318.5106119196
 30
0.0
 10
2502.9959835928
 20
1316.1088011359
 30
0.0
 10
2500.4520712935
 20
1312.1772598733
 30
0.0
 10
2499.469461906
 20
1308.4734847595
 30
0.0
 10
2499.469461906
 20
1306.6870372852
 30
0.0
  0
SPLINE
  5
563
100
AcDbEntity
  8
6_ALL_SURFS
100
AcDbSpline
 62
7
  6
CONTINUOUS
 70
0
 71
3
 72
13
 73
9
 74
0
 42
0.0000001
 43
0.0000001
 44
0.0000000001
 40
0.0
 40
0.0
 40
0.0
 40
0.0
 40
0.0871356718
 40
0.1868359544
 40
0.3045084521
 40
0.4386550364
 40
0.7301301208
 40
1.0
 40
1.0
 40
1.0
 40
1.0
 10
2483.2589924728
 20
1303.094891937
 30
0.0
 10
2482.7597981276
 20
1303.383878633
 30
0.0
 10
2481.5047654898
 20
1303.7069921435
 30
0.0
 10
2479.4846259996
 20
1303.3030942745
 30
0.0
 10
2477.4200111827
 20
1302.1764039173
 30
0.0
 10
2474.7117123454
 20
1299.7745931336
 30
0.0
 10
2472.1678000461
 20
1295.8430518711
 30
0.0
 10
2471.1851906585
 20
1292.1392767572
 30
0.0
 10
2471.1851906585
 20
1290.352829283
 30
0.0
  0
SPLINE
  5
564
100
AcDbEntity
  8
6_ALL_SURFS
100
AcDbSpline
 62
7
  6
CONTINUOUS
 70
0
 71
3
 72
13
 73
9
 74
0
 42
0.0000001
 43
0.0000001
 44
0.0000000001
 40
0.0
 40
0.0
 40
0.0
 40
0.0
 40
0.0871356718
 40
0.1868359544
 40
0.3045084521
 40
0.4386550364
 40
0.7301301208
 40
1.0
 40
1.0
 40
1.0
 40
1.0
 10
2454.9747212253
 20
1286.7606839348
 30
0.0
 10
2454.4755268802
 20
1287.0496706308
 30
0.0
 10
2453.2204942424
 20
1287.3727841413
 30
0.0
 10
2451.2003547522
 20
1286.9688862723
 30
0.0
 10
2449.1357399352
 20
1285.8421959151
 30
0.0
 10
2446.4274410979
 20
1283.4403851314
 30
0.0
 10
2443.8835287986
 20
1279.5088438688
 30
0.0
 10
2442.9009194111
 20
1275.805068755
 30
0.0
 10
2442.9009194111
 20
1274.0186212807
 30
0.0
  0
SPLINE
  5
565
100
AcDbEntity
  8
6_ALL_SURFS
100
AcDbSpline
 62
7
  6
CONTINUOUS
 70
0
 71
3
 72
13
 73
9
 74
0
 42
0.0000001
 43
0.0000001
 44
0.0000000001
 40
0.0
 40
0.0
 40
0.0
 40
0.0
 40
0.0871356718
 40
0.1868359544
 40
0.3045084521
 40
0.4386550364
 40
0.7301301208
 40
1.0
 40
1.0
 40
1.0
 40
1.0
 10
2426.6904499779
 20
1270.4264759325
 30
0.0
 10
2426.1912556327
 20
1270.7154626285
 30
0.0
 10
2424.9362229949
 20
1271.038576139
 30
0.0
 10
2422.9160835047
 20
1270.6346782701
 30
0.0
 10
2420.8514686878
 20
1269.5079879129
 30
0.0
 10
2418.1431698504
 20
1267.1061771292
 30
0.0
 10
2415.5992575511
 20
1263.1746358666
 30
0.0
 10
2414.6166481636
 20
1259.4708607528
 30
0.0
 10
2414.6166481636
 20
1257.6844132785
 30
0.0
  0
SPLINE
  5
566
100
AcDbEntity
  8
6_ALL_SURFS
100
AcDbSpline
 62
7
  6
CONTINUOUS
 70
0
 71
3
 72
13
 73
9
 74
0
 42
0.0000001
 43
0.0000001
 44
0.0000000001
 40
0.0
 40
0.0
 40
0.0
 40
0.0
 40
0.0871356718
 40
0.1868359544
 40
0.3045084521
 40
0.4386550364
 40
0.7301301208
 40
1.0
 40
1.0
 40
1.0
 40
1.0
 10
2398.4061787304
 20
1254.0922679303
 30
0.0
 10
2397.9069843853
 20
1254.3812546263
 30
0.0
 10
2396.6519517474
 20
1254.7043681368
 30
0.0
 10
2394.6318122572
 20
1254.3004702678
 30
0.0
 10
2392.5671974403
 20
1253.1737799106
 30
0.0
 10
2389.858898603
 20
1250.771969127
 30
0.0
 10
2387.3149863037
 20
1246.8404278644
 30
0.0
 10
2386.3323769162
 20
1243.1366527506
 30
0.0
 10
2386.3323769162
 20
1241.3502052763
 30
0.0
  0
SPLINE
  5
567
100
AcDbEntity
  8
0
100
AcDbSpline
 62
7
  6
CONTINUOUS
 70
0
 71
3
 72
9
 73
5
 74
0
 42
0.0000001
 43
0.0000001
 44
0.0000000001
 40
0.0
 40
0.0
 40
0.0
 40
0.0
 40
0.2208989638
 40
1.0
 40
1.0
 40
1.0
 40
1.0
 10
2426.3523830862
 20
1437.8198578943
 30
0.0
 10
2426.2120540605
 20
1437.9005444713
 30
0.0
 10
2425.6378701766
 20
1438.3821748933
 30
0.0
 10
2425.4711003838
 20
1439.1944852141
 30
0.0
 10
2425.4711003838
 20
1439.765400878
 30
0.0
  0
SPLINE
  5
568
100
AcDbEntity
  8
0
100
AcDbSpline
 62
7
  6
CONTINUOUS
 70
0
 71
3
 72
9
 73
5
 74
0
 42
0.0000001
 43
0.0000001
 44
0.0000000001
 40
0.0
 40
0.0
 40
0.0
 40
0.0
 40
0.2208681529
 40
1.0
 40
1.0
 40
1.0
 40
1.0
 10
2543.4525217229
 20
1501.3229676012
 30
0.0
 10
2543.3453843289
 20
1501.3847629269
 30
0.0
 10
2542.9072010201
 20
1501.7534493477
 30
0.0
 10
2542.7797522537
 20
1502.3739099061
 30
0.0
 10
2542.7797522537
 20
1502.8102068546
 30
0.0
  0
SPLINE
  5
569
100
AcDbEntity
  8
6_ALL_SURFS
100
AcDbSpline
 62
7
  6
CONTINUOUS
 70
0
 71
3
 72
9
 73
5
 74
0
 42
0.0000001
 43
0.0000001
 44
0.0000000001
 40
0.0
 40
0.0
 40
0.0
 40
0.0
 40
0.5047594957
 40
1.0
 40
1.0
 40
1.0
 40
1.0
 10
2881.293505364
 20
1314.8570217679
 30
0.0
 10
2881.1957261441
 20
1313.3373204182
 30
0.0
 10
2880.0970160481
 20
1310.4080084041
 30
0.0
 10
2878.0047953414
 20
1308.0594490191
 30
0.0
 10
2876.710929669
 20
1307.3122397014
 30
0.0
  0
SPLINE
  5
56A
100
AcDbEntity
  8
6_ALL_SURFS
100
AcDbSpline
 62
7
  6
CONTINUOUS
 70
0
 71
3
 72
9
 73
5
 74
0
 42
0.0000001
 43
0.0000001
 44
0.0000000001
 40
0.0
 40
0.0
 40
0.0
 40
0.0
 40
0.5251584464
 40
1.0
 40
1.0
 40
1.0
 40
1.0
 10
2554.270237448
 20
1123.2248815669
 30
0.0
 10
2547.8304241837
 20
1115.0707180286
 30
0.0
 10
2534.2706807848
 20
1100.5142555883
 30
0.0
 10
2518.0860851663
 20
1088.7993313706
 30
0.0
 10
2509.8115734551
 20
1084.3499570256
 30
0.0
  0
SPLINE
  5
56B
100
AcDbEntity
  8
6_ALL_SURFS
100
AcDbSpline
 62
7
  6
CONTINUOUS
 70
0
 71
3
 72
9
 73
5
 74
0
 42
0.0000001
 43
0.0000001
 44
0.0000000001
 40
0.0
 40
0.0
 40
0.0
 40
0.0
 40
0.5479273796
 40
1.0
 40
1.0
 40
1.0
 40
1.0
 10
2509.8115734551
 20
1084.3499570256
 30
0.0
 10
2509.0179068679
 20
1083.9231862536
 30
0.0
 10
2507.4315267891
 20
1083.3227984092
 30
0.0
 10
2505.6941810874
 20
1083.6187713109
 30
0.0
 10
2505.0511144794
 20
1083.991919511
 30
0.0
  0
SPLINE
  5
56C
100
AcDbEntity
  8
6_ALL_SURFS
100
AcDbSpline
 62
7
  6
CONTINUOUS
 70
0
 71
3
 72
9
 73
5
 74
0
 42
0.0000001
 43
0.0000001
 44
0.0000000001
 40
0.0
 40
0.0
 40
0.0
 40
0.0
 40
0.2775947523
 40
1.0
 40
1.0
 40
1.0
 40
1.0
 10
2507.4488640885
 20
1092.2322349726
 30
0.0
 10
2507.4722394203
 20
1092.1288365056
 30
0.0
 10
2507.5816653051
 20
1091.7642649341
 30
0.0
 10
2507.8344377261
 20
1091.4302743184
 30
0.0
 10
2508.0736022612
 20
1091.2927766888
 30
0.0
  0
SPLINE
  5
56D
100
AcDbEntity
  8
6_ALL_SURFS
100
AcDbSpline
 62
7
  6
CONTINUOUS
 70
0
 71
3
 72
10
 73
6
 74
0
 42
0.0000001
 43
0.0000001
 44
0.0000000001
 40
0.0
 40
0.0
 40
0.0
 40
0.0
 40
0.2776167721
 40
0.5773718367
 40
1.0
 40
1.0
 40
1.0
 40
1.0
 10
2874.4128326302
 20
1311.2916180284
 30
0.0
 10
2874.4128326302
 20
1311.8722151785
 30
0.0
 10
2874.7576933277
 20
1313.0894503829
 30
0.0
 10
2875.7733747099
 20
1314.800519302
 30
0.0
 10
2877.5706176276
 20
1315.874776125
 30
0.0
 10
2878.3362572387
 20
1315.4331660822
 30
0.0
  0
SPLINE
  5
56E
100
AcDbEntity
  8
6_ALL_SURFS
100
AcDbSpline
 62
7
  6
CONTINUOUS
 70
0
 71
3
 72
10
 73
6
 74
0
 42
0.0000001
 43
0.0000001
 44
0.0000000001
 40
0.0
 40
0.0
 40
0.0
 40
0.0
 40
0.2775555189
 40
0.5772963999
 40
1.0
 40
1.0
 40
1.0
 40
1.0
 10
2757.1041807602
 20
1248.2468120518
 30
0.0
 10
2757.1041807602
 20
1249.0057596765
 30
0.0
 10
2757.5547509095
 20
1250.5970753893
 30
0.0
 10
2758.8829453009
 20
1252.8343825405
 30
0.0
 10
2761.231292273
 20
1254.2395132993
 30
0.0
 10
2762.2333056979
 20
1253.663374236
 30
0.0
  0
SPLINE
  5
56F
100
AcDbEntity
  8
6_ALL_SURFS
100
AcDbSpline
 62
7
  6
CONTINUOUS
 70
0
 71
3
 72
13
 73
9
 74
0
 42
0.0000001
 43
0.0000001
 44
0.0000000001
 40
0.0
 40
0.0
 40
0.0
 40
0.0
 40
0.2698698792
 40
0.5613449636
 40
0.6954915479
 40
0.8131640456
 40
0.9128643282
 40
1.0
 40
1.0
 40
1.0
 40
1.0
 10
2518.2077916074
 20
1146.4021685171
 30
0.0
 10
2518.2077916074
 20
1148.1886159914
 30
0.0
 10
2519.190400995
 20
1151.8923911052
 30
0.0
 10
2521.7343132943
 20
1155.8239323678
 30
0.0
 10
2524.4426121316
 20
1158.2257431515
 30
0.0
 10
2526.5072269485
 20
1159.3524335087
 30
0.0
 10
2528.5273664387
 20
1159.7563313777
 30
0.0
 10
2529.7823990766
 20
1159.4332178671
 30
0.0
 10
2530.2815934217
 20
1159.1442311711
 30
0.0
  0
SPLINE
  5
570
100
AcDbEntity
  8
6_ALL_SURFS
100
AcDbSpline
 62
7
  6
CONTINUOUS
 70
0
 71
3
 72
13
 73
9
 74
0
 42
0.0000001
 43
0.0000001
 44
0.0000000001
 40
0.0
 40
0.0
 40
0.0
 40
0.0
 40
0.2698698792
 40
0.5613449636
 40
0.6954915479
 40
0.8131640456
 40
0.9128643282
 40
1.0
 40
1.0
 40
1.0
 40
1.0
 10
2546.4920628549
 20
1162.7363765194
 30
0.0
 10
2546.4920628549
 20
1164.5228239936
 30
0.0
 10
2547.4746722424
 20
1168.2265991074
 30
0.0
 10
2550.0185845417
 20
1172.15814037
 30
0.0
 10
2552.7268833791
 20
1174.5599511537
 30
0.0
 10
2554.791498196
 20
1175.6866415109
 30
0.0
 10
2556.8116376862
 20
1176.0905393799
 30
0.0
 10
2558.066670324
 20
1175.7674258694
 30
0.0
 10
2558.5658646692
 20
1175.4784391734
 30
0.0
  0
SPLINE
  5
571
100
AcDbEntity
  8
6_ALL_SURFS
100
AcDbSpline
 62
7
  6
CONTINUOUS
 70
0
 71
3
 72
13
 73
9
 74
0
 42
0.0000001
 43
0.0000001
 44
0.0000000001
 40
0.0
 40
0.0
 40
0.0
 40
0.0
 40
0.2698698792
 40
0.5613449636
 40
0.6954915479
 40
0.8131640456
 40
0.9128643282
 40
1.0
 40
1.0
 40
1.0
 40
1.0
 10
2574.7763341024
 20
1179.0705845216
 30
0.0
 10
2574.7763341024
 20
1180.8570319959
 30
0.0
 10
2575.7589434899
 20
1184.5608071097
 30
0.0
 10
2578.3028557892
 20
1188.4923483723
 30
0.0
 10
2581.0111546265
 20
1190.8941591559
 30
0.0
 10
2583.0757694434
 20
1192.0208495132
 30
0.0
 10
2585.0959089336
 20
1192.4247473821
 30
0.0
 10
2586.3509415715
 20
1192.1016338716
 30
0.0
 10
2586.8501359166
 20
1191.8126471756
 30
0.0
  0
SPLINE
  5
572
100
AcDbEntity
  8
6_ALL_SURFS
100
AcDbSpline
 62
7
  6
CONTINUOUS
 70
0
 71
3
 72
13
 73
9
 74
0
 42
0.0000001
 43
0.0000001
 44
0.0000000001
 40
0.0
 40
0.0
 40
0.0
 40
0.0
 40
0.2698698792
 40
0.5613449636
 40
0.6954915479
 40
0.8131640456
 40
0.9128643282
 40
1.0
 40
1.0
 40
1.0
 40
1.0
 10
2603.0606053498
 20
1195.4047925238
 30
0.0
 10
2603.0606053498
 20
1197.1912399981
 30
0.0
 10
2604.0432147373
 20
1200.8950151119
 30
0.0
 10
2606.5871270367
 20
1204.8265563745
 30
0.0
 10
2609.295425874
 20
1207.2283671582
 30
0.0
 10
2611.3600406909
 20
1208.3550575154
 30
0.0
 10
2613.3801801811
 20
1208.7589553843
 30
0.0
 10
2614.6352128189
 20
1208.4358418738
 30
0.0
 10
2615.1344071641
 20
1208.1468551778
 30
0.0
  0
SPLINE
  5
573
100
AcDbEntity
  8
6_ALL_SURFS
100
AcDbSpline
 62
7
  6
CONTINUOUS
 70
0
 71
3
 72
13
 73
9
 74
0
 42
0.0000001
 43
0.0000001
 44
0.0000000001
 40
0.0
 40
0.0
 40
0.0
 40
0.0
 40
0.2698698792
 40
0.5613449636
 40
0.6954915479
 40
0.8131640456
 40
0.9128643282
 40
1.0
 40
1.0
 40
1.0
 40
1.0
 10
2631.3448765973
 20
1211.7390005261
 30
0.0
 10
2631.3448765973
 20
1213.5254480003
 30
0.0
 10
2632.3274859848
 20
1217.2292231141
 30
0.0
 10
2634.8713982841
 20
1221.1607643767
 30
0.0
 10
2637.5796971214
 20
1223.5625751604
 30
0.0
 10
2639.6443119384
 20
1224.6892655176
 30
0.0
 10
2641.6644514286
 20
1225.0931633866
 30
0.0
 10
2642.9194840664
 20
1224.7700498761
 30
0.0
 10
2643.4186784115
 20
1224.4810631801
 30
0.0
  0
SPLINE
  5
574
100
AcDbEntity
  8
6_ALL_SURFS
100
AcDbSpline
 62
7
  6
CONTINUOUS
 70
0
 71
3
 72
13
 73
9
 74
0
 42
0.0000001
 43
0.0000001
 44
0.0000000001
 40
0.0
 40
0.0
 40
0.0
 40
0.0
 40
0.2698698792
 40
0.5613449636
 40
0.6954915479
 40
0.8131640456
 40
0.9128643282
 40
1.0
 40
1.0
 40
1.0
 40
1.0
 10
2659.6291478448
 20
1228.0732085283
 30
0.0
 10
2659.6291478448
 20
1229.8596560026
 30
0.0
 10
2660.6117572323
 20
1233.5634311164
 30
0.0
 10
2663.1556695316
 20
1237.494972379
 30
0.0
 10
2665.8639683689
 20
1239.8967831626
 30
0.0
 10
2667.9285831858
 20
1241.0234735198
 30
0.0
 10
2669.948722676
 20
1241.4273713888
 30
0.0
 10
2671.2037553139
 20
1241.1042578783
 30
0.0
 10
2671.702949659
 20
1240.8152711823
 30
0.0
  0
SPLINE
  5
575
100
AcDbEntity
  8
6_ALL_SURFS
100
AcDbSpline
 62
7
  6
CONTINUOUS
 70
0
 71
3
 72
13
 73
9
 74
0
 42
0.0000001
 43
0.0000001
 44
0.0000000001
 40
0.0
 40
0.0
 40
0.0
 40
0.0
 40
0.2698698792
 40
0.5613449636
 40
0.6954915479
 40
0.8131640456
 40
0.9128643282
 40
1.0
 40
1.0
 40
1.0
 40
1.0
 10
2687.9134190922
 20
1244.4074165305
 30
0.0
 10
2687.9134190922
 20
1246.1938640048
 30
0.0
 10
2688.8960284797
 20
1249.8976391186
 30
0.0
 10
2691.439940779
 20
1253.8291803812
 30
0.0
 10
2694.1482396164
 20
1256.2309911649
 30
0.0
 10
2696.2128544333
 20
1257.3576815221
 30
0.0
 10
2698.2329939235
 20
1257.761579391
 30
0.0
 10
2699.4880265613
 20
1257.4384658805
 30
0.0
 10
2699.9872209065
 20
1257.1494791845
 30
0.0
  0
SPLINE
  5
576
100
AcDbEntity
  8
6_ALL_SURFS
100
AcDbSpline
 62
7
  6
CONTINUOUS
 70
0
 71
3
 72
13
 73
9
 74
0
 42
0.0000001
 43
0.0000001
 44
0.0000000001
 40
0.0
 40
0.0
 40
0.0
 40
0.0
 40
0.2698698792
 40
0.5613449636
 40
0.6954915479
 40
0.8131640456
 40
0.9128643282
 40
1.0
 40
1.0
 40
1.0
 40
1.0
 10
2716.1976903397
 20
1260.7416245327
 30
0.0
 10
2716.1976903397
 20
1262.528072007
 30
0.0
 10
2717.1802997272
 20
1266.2318471208
 30
0.0
 10
2719.7242120265
 20
1270.1633883834
 30
0.0
 10
2722.4325108638
 20
1272.5651991671
 30
0.0
 10
2724.4971256808
 20
1273.6918895243
 30
0.0
 10
2726.517265171
 20
1274.0957873933
 30
0.0
 10
2727.7722978088
 20
1273.7726738828
 30
0.0
 10
2728.2714921539
 20
1273.4836871868
 30
0.0
  0
SPLINE
  5
577
100
AcDbEntity
  8
6_ALL_SURFS
100
AcDbSpline
 62
7
  6
CONTINUOUS
 70
0
 71
3
 72
13
 73
9
 74
0
 42
0.0000001
 43
0.0000001
 44
0.0000000001
 40
0.0
 40
0.0
 40
0.0
 40
0.0
 40
0.2698698792
 40
0.5613449636
 40
0.6954915479
 40
0.8131640456
 40
0.9128643282
 40
1.0
 40
1.0
 40
1.0
 40
1.0
 10
2744.4819615871
 20
1277.075832535
 30
0.0
 10
2744.4819615871
 20
1278.8622800092
 30
0.0
 10
2745.4645709747
 20
1282.5660551231
 30
0.0
 10
2748.008483274
 20
1286.4975963856
 30
0.0
 10
2750.7167821113
 20
1288.8994071693
 30
0.0
 10
2752.7813969282
 20
1290.0260975265
 30
0.0
 10
2754.8015364184
 20
1290.4299953955
 30
0.0
 10
2756.0565690562
 20
1290.106881885
 30
0.0
 10
2756.5557634014
 20
1289.817895189
 30
0.0
  0
SPLINE
  5
578
100
AcDbEntity
  8
6_ALL_SURFS
100
AcDbSpline
 62
7
  6
CONTINUOUS
 70
0
 71
3
 72
13
 73
9
 74
0
 42
0.0000001
 43
0.0000001
 44
0.0000000001
 40
0.0
 40
0.0
 40
0.0
 40
0.0
 40
0.2698698792
 40
0.5613449636
 40
0.6954915479
 40
0.8131640456
 40
0.9128643282
 40
1.0
 40
1.0
 40
1.0
 40
1.0
 10
2772.7662328346
 20
1293.4100405372
 30
0.0
 10
2772.7662328346
 20
1295.1964880115
 30
0.0
 10
2773.7488422221
 20
1298.9002631253
 30
0.0
 10
2776.2927545214
 20
1302.8318043879
 30
0.0
 10
2779.0010533588
 20
1305.2336151716
 30
0.0
 10
2781.0656681757
 20
1306.3603055288
 30
0.0
 10
2783.0858076659
 20
1306.7642033977
 30
0.0
 10
2784.3408403037
 20
1306.4410898872
 30
0.0
 10
2784.8400346488
 20
1306.1521031912
 30
0.0
  0
SPLINE
  5
579
100
AcDbEntity
  8
6_ALL_SURFS
100
AcDbSpline
 62
7
  6
CONTINUOUS
 70
0
 71
3
 72
13
 73
9
 74
0
 42
0.0000001
 43
0.0000001
 44
0.0000000001
 40
0.0
 40
0.0
 40
0.0
 40
0.0
 40
0.2698698792
 40
0.5613449636
 40
0.6954915479
 40
0.8131640456
 40
0.9128643282
 40
1.0
 40
1.0
 40
1.0
 40
1.0
 10
2801.0505040821
 20
1309.7442485394
 30
0.0
 10
2801.0505040821
 20
1311.5306960137
 30
0.0
 10
2802.0331134696
 20
1315.2344711275
 30
0.0
 10
2804.5770257689
 20
1319.1660123901
 30
0.0
 10
2807.2853246062
 20
1321.5678231738
 30
0.0
 10
2809.3499394231
 20
1322.694513531
 30
0.0
 10
2811.3700789133
 20
1323.0984114
 30
0.0
 10
2812.6251115512
 20
1322.7752978894
 30
0.0
 10
2813.1243058963
 20
1322.4863111934
 30
0.0
  0
SPLINE
  5
57A
100
AcDbEntity
  8
6_ALL_SURFS
100
AcDbSpline
 62
7
  6
CONTINUOUS
 70
0
 71
3
 72
13
 73
9
 74
0
 42
0.0000001
 43
0.0000001
 44
0.0000000001
 40
0.0
 40
0.0
 40
0.0
 40
0.0
 40
0.2698698792
 40
0.5613449636
 40
0.6954915479
 40
0.8131640456
 40
0.9128643282
 40
1.0
 40
1.0
 40
1.0
 40
1.0
 10
2829.3347753295
 20
1326.0784565417
 30
0.0
 10
2829.3347753295
 20
1327.8649040159
 30
0.0
 10
2830.317384717
 20
1331.5686791298
 30
0.0
 10
2832.8612970164
 20
1335.5002203923
 30
0.0
 10
2835.5695958537
 20
1337.902031176
 30
0.0
 10
2837.6342106706
 20
1339.0287215332
 30
0.0
 10
2839.6543501608
 20
1339.4326194022
 30
0.0
 10
2840.9093827986
 20
1339.1095058917
 30
0.0
 10
2841.4085771438
 20
1338.8205191957
 30
0.0
  0
SPLINE
  5
57B
100
AcDbEntity
  8
6_ALL_SURFS
100
AcDbSpline
 62
7
  6
CONTINUOUS
 70
0
 71
3
 72
13
 73
9
 74
0
 42
0.0000001
 43
0.0000001
 44
0.0000000001
 40
0.0
 40
0.0
 40
0.0
 40
0.0
 40
0.2698698792
 40
0.5613449636
 40
0.6954915479
 40
0.8131640456
 40
0.9128643282
 40
1.0
 40
1.0
 40
1.0
 40
1.0
 10
2857.619046577
 20
1342.4126645439
 30
0.0
 10
2857.619046577
 20
1344.1991120182
 30
0.0
 10
2858.6016559645
 20
1347.902887132
 30
0.0
 10
2861.1455682638
 20
1351.8344283946
 30
0.0
 10
2863.8538671011
 20
1354.2362391783
 30
0.0
 10
2865.9184819181
 20
1355.3629295355
 30
0.0
 10
2867.9386214083
 20
1355.7668274044
 30
0.0
 10
2869.1936540461
 20
1355.4437138939
 30
0.0
 10
2869.6928483912
 20
1355.1547271979
 30
0.0
  0
SPLINE
  5
57C
100
AcDbEntity
  8
0
100
AcDbSpline
 62
7
  6
CONTINUOUS
 70
0
 71
3
 72
12
 73
8
 74
0
 42
0.0000001
 43
0.0000001
 44
0.0000000001
 40
0.0
 40
0.0
 40
0.0
 40
0.0
 40
0.1833975247
 40
0.4347614336
 40
0.580370625
 40
0.7287379596
 40
1.0
 40
1.0
 40
1.0
 40
1.0
 10
2374.9735879583
 20
1409.6040829616
 30
0.0
 10
2374.4504662425
 20
1409.9058121301
 30
0.0
 10
2372.819844363
 20
1409.8108009581
 30
0.0
 10
2371.307408036
 20
1408.5613859782
 30
0.0
 10
2370.1898626812
 20
1407.1501147473
 30
0.0
 10
2369.3051935576
 20
1405.5086580686
 30
0.0
 10
2368.937550099
 20
1404.1256969559
 30
0.0
 10
2368.937550099
 20
1403.2324705712
 30
0.0
  0
SPLINE
  5
57D
100
AcDbEntity
  8
6_ALL_SURFS
100
AcDbSpline
 62
7
  6
CONTINUOUS
 70
0
 71
3
 72
9
 73
5
 74
0
 42
0.0000001
 43
0.0000001
 44
0.0000000001
 40
0.0
 40
0.0
 40
0.0
 40
0.0
 40
0.22096389
 40
1.0
 40
1.0
 40
1.0
 40
1.0
 10
2906.0814814785
 20
1393.695335504
 30
0.0
 10
2906.2463311942
 20
1393.6001338419
 30
0.0
 10
2906.9206393931
 20
1393.0331671859
 30
0.0
 10
2907.1165212601
 20
1392.0784252197
 30
0.0
 10
2907.1165212601
 20
1391.4072698062
 30
0.0
  0
SPLINE
  5
57E
100
AcDbEntity
  8
0
100
AcDbSpline
 62
7
  6
CONTINUOUS
 70
0
 71
3
 72
9
 73
5
 74
0
 42
0.0000001
 43
0.0000001
 44
0.0000000001
 40
0.0
 40
0.0
 40
0.0
 40
0.0
 40
0.2209374584
 40
1.0
 40
1.0
 40
1.0
 40
1.0
 10
2161.8004768657
 20
1268.8828509229
 30
0.0
 10
2161.6356474938
 20
1268.9780390612
 30
0.0
 10
2160.9608957762
 20
1269.5444580862
 30
0.0
 10
2160.7653137177
 20
1270.4995471117
 30
0.0
 10
2160.7653137177
 20
1271.170719623
 30
0.0
  0
SPLINE
  5
57F
100
AcDbEntity
  8
6_ALL_SURFS
100
AcDbSpline
 62
7
  6
CONTINUOUS
 70
0
 71
3
 72
11
 73
7
 74
0
 42
0.0000001
 43
0.0000001
 44
0.0000000001
 40
0.0
 40
0.0
 40
0.0
 40
0.0
 40
0.2501031739
 40
0.5258173521
 40
0.7867524215
 40
1.0
 40
1.0
 40
1.0
 40
1.0
 10
2528.1072865441
 20
1157.0194037186
 30
0.0
 10
2528.1072865441
 20
1155.5865354215
 30
0.0
 10
2527.455378607
 20
1152.5750691595
 30
0.0
 10
2525.3137544522
 20
1148.5551752131
 30
0.0
 10
2522.3592248461
 20
1145.3776816603
 30
0.0
 10
2519.8446593099
 20
1144.0659599198
 30
0.0
 10
2518.6385857637
 20
1143.8710679203
 30
0.0
  0
SPLINE
  5
580
100
AcDbEntity
  8
6_ALL_SURFS
100
AcDbSpline
 62
7
  6
CONTINUOUS
 70
0
 71
3
 72
11
 73
7
 74
0
 42
0.0000001
 43
0.0000001
 44
0.0000000001
 40
0.0
 40
0.0
 40
0.0
 40
0.0
 40
0.2501031739
 40
0.5258173521
 40
0.7867524215
 40
1.0
 40
1.0
 40
1.0
 40
1.0
 10
2556.3915577915
 20
1173.3536117208
 30
0.0
 10
2556.3915577915
 20
1171.9207434237
 30
0.0
 10
2555.7396498544
 20
1168.9092771617
 30
0.0
 10
2553.5980256996
 20
1164.8893832153
 30
0.0
 10
2550.6434960935
 20
1161.7118896626
 30
0.0
 10
2548.1289305573
 20
1160.4001679221
 30
0.0
 10
2546.9228570111
 20
1160.2052759225
 30
0.0
  0
SPLINE
  5
581
100
AcDbEntity
  8
6_ALL_SURFS
100
AcDbSpline
 62
7
  6
CONTINUOUS
 70
0
 71
3
 72
11
 73
7
 74
0
 42
0.0000001
 43
0.0000001
 44
0.0000000001
 40
0.0
 40
0.0
 40
0.0
 40
0.0
 40
0.2501031739
 40
0.5258173521
 40
0.7867524215
 40
1.0
 40
1.0
 40
1.0
 40
1.0
 10
2584.675829039
 20
1189.687819723
 30
0.0
 10
2584.675829039
 20
1188.2549514259
 30
0.0
 10
2584.0239211019
 20
1185.2434851639
 30
0.0
 10
2581.8822969471
 20
1181.2235912176
 30
0.0
 10
2578.927767341
 20
1178.0460976648
 30
0.0
 10
2576.4132018048
 20
1176.7343759243
 30
0.0
 10
2575.2071282586
 20
1176.5394839247
 30
0.0
  0
SPLINE
  5
582
100
AcDbEntity
  8
6_ALL_SURFS
100
AcDbSpline
 62
7
  6
CONTINUOUS
 70
0
 71
3
 72
11
 73
7
 74
0
 42
0.0000001
 43
0.0000001
 44
0.0000000001
 40
0.0
 40
0.0
 40
0.0
 40
0.0
 40
0.2501031739
 40
0.5258173521
 40
0.7867524215
 40
1.0
 40
1.0
 40
1.0
 40
1.0
 10
2612.9601002864
 20
1206.0220277253
 30
0.0
 10
2612.9601002864
 20
1204.5891594282
 30
0.0
 10
2612.3081923493
 20
1201.5776931662
 30
0.0
 10
2610.1665681946
 20
1197.5577992198
 30
0.0
 10
2607.2120385884
 20
1194.380305667
 30
0.0
 10
2604.6974730522
 20
1193.0685839265
 30
0.0
 10
2603.491399506
 20
1192.873691927
 30
0.0
  0
SPLINE
  5
583
100
AcDbEntity
  8
6_ALL_SURFS
100
AcDbSpline
 62
7
  6
CONTINUOUS
 70
0
 71
3
 72
11
 73
7
 74
0
 42
0.0000001
 43
0.0000001
 44
0.0000000001
 40
0.0
 40
0.0
 40
0.0
 40
0.0
 40
0.2501031739
 40
0.5258173521
 40
0.7867524215
 40
1.0
 40
1.0
 40
1.0
 40
1.0
 10
2641.2443715339
 20
1222.3562357275
 30
0.0
 10
2641.2443715339
 20
1220.9233674304
 30
0.0
 10
2640.5924635968
 20
1217.9119011684
 30
0.0
 10
2638.450839442
 20
1213.892007222
 30
0.0
 10
2635.4963098359
 20
1210.7145136692
 30
0.0
 10
2632.9817442997
 20
1209.4027919288
 30
0.0
 10
2631.7756707535
 20
1209.2078999292
 30
0.0
  0
SPLINE
  5
584
100
AcDbEntity
  8
6_ALL_SURFS
100
AcDbSpline
 62
7
  6
CONTINUOUS
 70
0
 71
3
 72
11
 73
7
 74
0
 42
0.0000001
 43
0.0000001
 44
0.0000000001
 40
0.0
 40
0.0
 40
0.0
 40
0.0
 40
0.2501031739
 40
0.5258173521
 40
0.7867524215
 40
1.0
 40
1.0
 40
1.0
 40
1.0
 10
2669.5286427814
 20
1238.6904437297
 30
0.0
 10
2669.5286427814
 20
1237.2575754326
 30
0.0
 10
2668.8767348443
 20
1234.2461091706
 30
0.0
 10
2666.7351106895
 20
1230.2262152243
 30
0.0
 10
2663.7805810834
 20
1227.0487216715
 30
0.0
 10
2661.2660155472
 20
1225.736999931
 30
0.0
 10
2660.059942001
 20
1225.5421079314
 30
0.0
  0
SPLINE
  5
585
100
AcDbEntity
  8
6_ALL_SURFS
100
AcDbSpline
 62
7
  6
CONTINUOUS
 70
0
 71
3
 72
11
 73
7
 74
0
 42
0.0000001
 43
0.0000001
 44
0.0000000001
 40
0.0
 40
0.0
 40
0.0
 40
0.0
 40
0.2501031739
 40
0.5258173521
 40
0.7867524215
 40
1.0
 40
1.0
 40
1.0
 40
1.0
 10
2697.8129140288
 20
1255.024651732
 30
0.0
 10
2697.8129140288
 20
1253.5917834349
 30
0.0
 10
2697.1610060917
 20
1250.5803171728
 30
0.0
 10
2695.019381937
 20
1246.5604232265
 30
0.0
 10
2692.0648523308
 20
1243.3829296737
 30
0.0
 10
2689.5502867946
 20
1242.0712079332
 30
0.0
 10
2688.3442132484
 20
1241.8763159337
 30
0.0
  0
SPLINE
  5
586
100
AcDbEntity
  8
6_ALL_SURFS
100
AcDbSpline
 62
7
  6
CONTINUOUS
 70
0
 71
3
 72
11
 73
7
 74
0
 42
0.0000001
 43
0.0000001
 44
0.0000000001
 40
0.0
 40
0.0
 40
0.0
 40
0.0
 40
0.2501031739
 40
0.5258173521
 40
0.7867524215
 40
1.0
 40
1.0
 40
1.0
 40
1.0
 10
2726.0971852763
 20
1271.3588597342
 30
0.0
 10
2726.0971852763
 20
1269.9259914371
 30
0.0
 10
2725.4452773392
 20
1266.9145251751
 30
0.0
 10
2723.3036531844
 20
1262.8946312287
 30
0.0
 10
2720.3491235783
 20
1259.7171376759
 30
0.0
 10
2717.8345580421
 20
1258.4054159354
 30
0.0
 10
2716.6284844959
 20
1258.2105239359
 30
0.0
  0
SPLINE
  5
587
100
AcDbEntity
  8
6_ALL_SURFS
100
AcDbSpline
 62
7
  6
CONTINUOUS
 70
0
 71
3
 72
11
 73
7
 74
0
 42
0.0000001
 43
0.0000001
 44
0.0000000001
 40
0.0
 40
0.0
 40
0.0
 40
0.0
 40
0.2501031739
 40
0.5258173521
 40
0.7867524215
 40
1.0
 40
1.0
 40
1.0
 40
1.0
 10
2754.3814565238
 20
1287.6930677364
 30
0.0
 10
2754.3814565238
 20
1286.2601994393
 30
0.0
 10
2753.7295485866
 20
1283.2487331773
 30
0.0
 10
2751.5879244319
 20
1279.228839231
 30
0.0
 10
2748.6333948257
 20
1276.0513456782
 30
0.0
 10
2746.1188292896
 20
1274.7396239377
 30
0.0
 10
2744.9127557434
 20
1274.5447319381
 30
0.0
  0
SPLINE
  5
588
100
AcDbEntity
  8
6_ALL_SURFS
100
AcDbSpline
 62
7
  6
CONTINUOUS
 70
0
 71
3
 72
11
 73
7
 74
0
 42
0.0000001
 43
0.0000001
 44
0.0000000001
 40
0.0
 40
0.0
 40
0.0
 40
0.0
 40
0.2501031739
 40
0.5258173521
 40
0.7867524215
 40
1.0
 40
1.0
 40
1.0
 40
1.0
 10
2782.6657277712
 20
1304.0272757387
 30
0.0
 10
2782.6657277712
 20
1302.5944074415
 30
0.0
 10
2782.0138198341
 20
1299.5829411795
 30
0.0
 10
2779.8721956793
 20
1295.5630472332
 30
0.0
 10
2776.9176660732
 20
1292.3855536804
 30
0.0
 10
2774.403100537
 20
1291.0738319399
 30
0.0
 10
2773.1970269908
 20
1290.8789399403
 30
0.0
  0
SPLINE
  5
589
100
AcDbEntity
  8
6_ALL_SURFS
100
AcDbSpline
 62
7
  6
CONTINUOUS
 70
0
 71
3
 72
11
 73
7
 74
0
 42
0.0000001
 43
0.0000001
 44
0.0000000001
 40
0.0
 40
0.0
 40
0.0
 40
0.0
 40
0.2501031739
 40
0.5258173521
 40
0.7867524215
 40
1.0
 40
1.0
 40
1.0
 40
1.0
 10
2810.9499990187
 20
1320.3614837409
 30
0.0
 10
2810.9499990187
 20
1318.9286154438
 30
0.0
 10
2810.2980910816
 20
1315.9171491818
 30
0.0
 10
2808.1564669268
 20
1311.8972552354
 30
0.0
 10
2805.2019373207
 20
1308.7197616826
 30
0.0
 10
2802.6873717845
 20
1307.4080399421
 30
0.0
 10
2801.4812982383
 20
1307.2131479426
 30
0.0
  0
SPLINE
  5
58A
100
AcDbEntity
  8
6_ALL_SURFS
100
AcDbSpline
 62
7
  6
CONTINUOUS
 70
0
 71
3
 72
11
 73
7
 74
0
 42
0.0000001
 43
0.0000001
 44
0.0000000001
 40
0.0
 40
0.0
 40
0.0
 40
0.0
 40
0.2501031739
 40
0.5258173521
 40
0.7867524215
 40
1.0
 40
1.0
 40
1.0
 40
1.0
 10
2839.2342702661
 20
1336.6956917431
 30
0.0
 10
2839.2342702661
 20
1335.262823446
 30
0.0
 10
2838.582362329
 20
1332.251357184
 30
0.0
 10
2836.4407381743
 20
1328.2314632376
 30
0.0
 10
2833.4862085681
 20
1325.0539696849
 30
0.0
 10
2830.9716430319
 20
1323.7422479444
 30
0.0
 10
2829.7655694857
 20
1323.5473559448
 30
0.0
  0
SPLINE
  5
58B
100
AcDbEntity
  8
6_ALL_SURFS
100
AcDbSpline
 62
7
  6
CONTINUOUS
 70
0
 71
3
 72
11
 73
7
 74
0
 42
0.0000001
 43
0.0000001
 44
0.0000000001
 40
0.0
 40
0.0
 40
0.0
 40
0.0
 40
0.2501031739
 40
0.5258173521
 40
0.7867524215
 40
1.0
 40
1.0
 40
1.0
 40
1.0
 10
2867.5185415136
 20
1353.0298997453
 30
0.0
 10
2867.5185415136
 20
1351.5970314482
 30
0.0
 10
2866.8666335765
 20
1348.5855651862
 30
0.0
 10
2864.7250094217
 20
1344.5656712399
 30
0.0
 10
2861.7704798156
 20
1341.3881776871
 30
0.0
 10
2859.2559142794
 20
1340.0764559466
 30
0.0
 10
2858.0498407332
 20
1339.881563947
 30
0.0
  0
SPLINE
  5
58C
100
AcDbEntity
  8
6_ALL_SURFS
100
AcDbSpline
 62
7
  6
CONTINUOUS
 70
0
 71
3
 72
9
 73
5
 74
0
 42
0.0000001
 43
0.0000001
 44
0.0000000001
 40
0.0
 40
0.0
 40
0.0
 40
0.0
 40
0.3027165216
 40
1.0
 40
1.0
 40
1.0
 40
1.0
 10
2498.9225911939
 20
1092.9573480734
 30
0.0
 10
2499.0127730817
 20
1093.4604190741
 30
0.0
 10
2499.5169958156
 20
1094.9570346804
 30
0.0
 10
2501.4665009763
 20
1096.7849291314
 30
0.0
 10
2502.4877299477
 20
1096.199247947
 30
0.0
  0
SPLINE
  5
58D
100
AcDbEntity
  8
6_ALL_SURFS
100
AcDbSpline
 62
7
  6
CONTINUOUS
 70
0
 71
3
 72
11
 73
7
 74
0
 42
0.0000001
 43
0.0000001
 44
0.0000000001
 40
0.0
 40
0.0
 40
0.0
 40
0.0
 40
0.2714990013
 40
0.5646992596
 40
0.816377025
 40
1.0
 40
1.0
 40
1.0
 40
1.0
 10
2586.3375299748
 20
1338.8929013047
 30
0.0
 10
2586.3375299748
 20
1339.8304248411
 30
0.0
 10
2586.8500360605
 20
1341.7805299607
 30
0.0
 10
2588.4207216813
 20
1344.1585453888
 30
0.0
 10
2590.4124055394
 20
1345.7987953192
 30
0.0
 10
2592.123819382
 20
1345.900009337
 30
0.0
 10
2592.6735078389
 20
1345.5839487087
 30
0.0
  0
SPLINE
  5
58E
100
AcDbEntity
  8
6_ALL_SURFS
100
AcDbSpline
 62
7
  6
CONTINUOUS
 70
0
 71
3
 72
11
 73
7
 74
0
 42
0.0000001
 43
0.0000001
 44
0.0000000001
 40
0.0
 40
0.0
 40
0.0
 40
0.0
 40
0.2714990013
 40
0.5646992596
 40
0.816377025
 40
1.0
 40
1.0
 40
1.0
 40
1.0
 10
2523.5040213985
 20
1302.6064582277
 30
0.0
 10
2523.5040213985
 20
1303.5439817641
 30
0.0
 10
2524.0165274843
 20
1305.4940868837
 30
0.0
 10
2525.5872131051
 20
1307.8721023118
 30
0.0
 10
2527.5788969632
 20
1309.5123522423
 30
0.0
 10
2529.2903108058
 20
1309.61356626
 30
0.0
 10
2529.8399992627
 20
1309.2975056317
 30
0.0
  0
SPLINE
  5
58F
100
AcDbEntity
  8
6_ALL_SURFS
100
AcDbSpline
 62
7
  6
CONTINUOUS
 70
0
 71
3
 72
9
 73
5
 74
0
 42
0.0000001
 43
0.0000001
 44
0.0000000001
 40
0.0
 40
0.0
 40
0.0
 40
0.0
 40
0.5507928343
 40
1.0
 40
1.0
 40
1.0
 40
1.0
 10
2697.4593606382
 20
1421.0264933008
 30
0.0
 10
2697.4593606382
 20
1420.0722106314
 30
0.0
 10
2697.6906638492
 20
1418.2988809028
 30
0.0
 10
2698.8541391336
 20
1416.841459988
 30
0.0
 10
2699.5276944477
 20
1416.4515346479
 30
0.0
  0
SPLINE
  5
590
100
AcDbEntity
  8
6_ALL_SURFS
100
AcDbSpline
 62
7
  6
CONTINUOUS
 70
0
 71
3
 72
9
 73
5
 74
0
 42
0.0000001
 43
0.0000001
 44
0.0000000001
 40
0.0
 40
0.0
 40
0.0
 40
0.0
 40
0.5507928343
 40
1.0
 40
1.0
 40
1.0
 40
1.0
 10
2669.1750893908
 20
1404.6922852986
 30
0.0
 10
2669.1750893908
 20
1403.7380026292
 30
0.0
 10
2669.4063926018
 20
1401.9646729006
 30
0.0
 10
2670.5698678861
 20
1400.5072519858
 30
0.0
 10
2671.2434232003
 20
1400.1173266457
 30
0.0
  0
SPLINE
  5
591
100
AcDbEntity
  8
6_ALL_SURFS
100
AcDbSpline
 62
7
  6
CONTINUOUS
 70
0
 71
3
 72
9
 73
5
 74
0
 42
0.0000001
 43
0.0000001
 44
0.0000000001
 40
0.0
 40
0.0
 40
0.0
 40
0.0
 40
0.5507928343
 40
1.0
 40
1.0
 40
1.0
 40
1.0
 10
2640.8908181433
 20
1388.3580772964
 30
0.0
 10
2640.8908181433
 20
1387.403794627
 30
0.0
 10
2641.1221213543
 20
1385.6304648983
 30
0.0
 10
2642.2855966387
 20
1384.1730439836
 30
0.0
 10
2642.9591519528
 20
1383.7831186435
 30
0.0
  0
SPLINE
  5
592
100
AcDbEntity
  8
6_ALL_SURFS
100
AcDbSpline
 62
7
  6
CONTINUOUS
 70
0
 71
3
 72
9
 73
5
 74
0
 42
0.0000001
 43
0.0000001
 44
0.0000000001
 40
0.0
 40
0.0
 40
0.0
 40
0.0
 40
0.5507928343
 40
1.0
 40
1.0
 40
1.0
 40
1.0
 10
2612.6065468959
 20
1372.0238692941
 30
0.0
 10
2612.6065468959
 20
1371.0695866248
 30
0.0
 10
2612.8378501069
 20
1369.2962568961
 30
0.0
 10
2614.0013253912
 20
1367.8388359813
 30
0.0
 10
2614.6748807053
 20
1367.4489106412
 30
0.0
  0
SPLINE
  5
593
100
AcDbEntity
  8
6_ALL_SURFS
100
AcDbSpline
 62
7
  6
CONTINUOUS
 70
0
 71
3
 72
9
 73
5
 74
0
 42
0.0000001
 43
0.0000001
 44
0.0000000001
 40
0.0
 40
0.0
 40
0.0
 40
0.0
 40
0.5507928343
 40
1.0
 40
1.0
 40
1.0
 40
1.0
 10
2386.3323769162
 20
1241.3502052763
 30
0.0
 10
2386.3323769162
 20
1240.3959226069
 30
0.0
 10
2386.5636801272
 20
1238.6225928782
 30
0.0
 10
2387.7271554115
 20
1237.1651719635
 30
0.0
 10
2388.4007107257
 20
1236.7752466234
 30
0.0
  0
SPLINE
  5
594
100
AcDbEntity
  8
6_ALL_SURFS
100
AcDbSpline
 62
7
  6
CONTINUOUS
 70
0
 71
3
 72
9
 73
5
 74
0
 42
0.0000001
 43
0.0000001
 44
0.0000000001
 40
0.0
 40
0.0
 40
0.0
 40
0.0
 40
0.5507928343
 40
1.0
 40
1.0
 40
1.0
 40
1.0
 10
2414.6166481636
 20
1257.6844132785
 30
0.0
 10
2414.6166481636
 20
1256.7301306091
 30
0.0
 10
2414.8479513746
 20
1254.9568008805
 30
0.0
 10
2416.011426659
 20
1253.4993799657
 30
0.0
 10
2416.6849819731
 20
1253.1094546256
 30
0.0
  0
SPLINE
  5
595
100
AcDbEntity
  8
6_ALL_SURFS
100
AcDbSpline
 62
7
  6
CONTINUOUS
 70
0
 71
3
 72
9
 73
5
 74
0
 42
0.0000001
 43
0.0000001
 44
0.0000000001
 40
0.0
 40
0.0
 40
0.0
 40
0.0
 40
0.5507928343
 40
1.0
 40
1.0
 40
1.0
 40
1.0
 10
2442.9009194111
 20
1274.0186212807
 30
0.0
 10
2442.9009194111
 20
1273.0643386114
 30
0.0
 10
2443.1322226221
 20
1271.2910088827
 30
0.0
 10
2444.2956979064
 20
1269.833587968
 30
0.0
 10
2444.9692532206
 20
1269.4436626279
 30
0.0
  0
SPLINE
  5
596
100
AcDbEntity
  8
6_ALL_SURFS
100
AcDbSpline
 62
7
  6
CONTINUOUS
 70
0
 71
3
 72
9
 73
5
 74
0
 42
0.0000001
 43
0.0000001
 44
0.0000000001
 40
0.0
 40
0.0
 40
0.0
 40
0.0
 40
0.5507928343
 40
1.0
 40
1.0
 40
1.0
 40
1.0
 10
2471.1851906585
 20
1290.352829283
 30
0.0
 10
2471.1851906585
 20
1289.3985466136
 30
0.0
 10
2471.4164938695
 20
1287.6252168849
 30
0.0
 10
2472.5799691539
 20
1286.1677959702
 30
0.0
 10
2473.253524468
 20
1285.7778706301
 30
0.0
  0
SPLINE
  5
597
100
AcDbEntity
  8
6_ALL_SURFS
100
AcDbSpline
 62
7
  6
CONTINUOUS
 70
0
 71
3
 72
9
 73
5
 74
0
 42
0.0000001
 43
0.0000001
 44
0.0000000001
 40
0.0
 40
0.0
 40
0.0
 40
0.0
 40
0.5507928343
 40
1.0
 40
1.0
 40
1.0
 40
1.0
 10
2499.469461906
 20
1306.6870372852
 30
0.0
 10
2499.469461906
 20
1305.7327546158
 30
0.0
 10
2499.700765117
 20
1303.9594248872
 30
0.0
 10
2500.8642404014
 20
1302.5020039724
 30
0.0
 10
2501.5377957155
 20
1302.1120786323
 30
0.0
  0
SPLINE
  5
598
100
AcDbEntity
  8
6_ALL_SURFS
100
AcDbSpline
 62
7
  6
CONTINUOUS
 70
0
 71
3
 72
9
 73
5
 74
0
 42
0.0000001
 43
0.0000001
 44
0.0000000001
 40
0.0
 40
0.0
 40
0.0
 40
0.0
 40
0.5507928343
 40
1.0
 40
1.0
 40
1.0
 40
1.0
 10
2527.7537331535
 20
1323.0212452874
 30
0.0
 10
2527.7537331535
 20
1322.0669626181
 30
0.0
 10
2527.9850363645
 20
1320.2936328894
 30
0.0
 10
2529.1485116488
 20
1318.8362119747
 30
0.0
 10
2529.822066963
 20
1318.4462866345
 30
0.0
  0
SPLINE
  5
599
100
AcDbEntity
  8
6_ALL_SURFS
100
AcDbSpline
 62
7
  6
CONTINUOUS
 70
0
 71
3
 72
9
 73
5
 74
0
 42
0.0000001
 43
0.0000001
 44
0.0000000001
 40
0.0
 40
0.0
 40
0.0
 40
0.0
 40
0.5507928343
 40
1.0
 40
1.0
 40
1.0
 40
1.0
 10
2556.0380044009
 20
1339.3554532897
 30
0.0
 10
2556.0380044009
 20
1338.4011706203
 30
0.0
 10
2556.2693076119
 20
1336.6278408916
 30
0.0
 10
2557.4327828963
 20
1335.1704199769
 30
0.0
 10
2558.1063382104
 20
1334.7804946368
 30
0.0
  0
SPLINE
  5
59A
100
AcDbEntity
  8
6_ALL_SURFS
100
AcDbSpline
 62
7
  6
CONTINUOUS
 70
0
 71
3
 72
9
 73
5
 74
0
 42
0.0000001
 43
0.0000001
 44
0.0000000001
 40
0.0
 40
0.0
 40
0.0
 40
0.0
 40
0.5507928343
 40
1.0
 40
1.0
 40
1.0
 40
1.0
 10
2584.3222756484
 20
1355.6896612919
 30
0.0
 10
2584.3222756484
 20
1354.7353786225
 30
0.0
 10
2584.5535788594
 20
1352.9620488939
 30
0.0
 10
2585.7170541437
 20
1351.5046279791
 30
0.0
 10
2586.3906094579
 20
1351.114702639
 30
0.0
  0
SPLINE
  5
59B
100
AcDbEntity
  8
6_ALL_SURFS
100
AcDbSpline
 62
7
  6
CONTINUOUS
 70
0
 71
3
 72
13
 73
9
 74
0
 42
0.0000001
 43
0.0000001
 44
0.0000000001
 40
0.0
 40
0.0
 40
0.0
 40
0.0
 40
0.0871356718
 40
0.1868359544
 40
0.3045084521
 40
0.4386550364
 40
0.7301301208
 40
1.0
 40
1.0
 40
1.0
 40
1.0
 10
2501.5377957155
 20
1302.1120786323
 30
0.0
 10
2502.0369900606
 20
1301.8230919363
 30
0.0
 10
2503.2920226985
 20
1301.4999784258
 30
0.0
 10
2505.3121621887
 20
1301.9038762948
 30
0.0
 10
2507.3767770056
 20
1303.030566652
 30
0.0
 10
2510.0850758429
 20
1305.4323774357
 30
0.0
 10
2512.6289881422
 20
1309.3639186982
 30
0.0
 10
2513.6115975297
 20
1313.0676938121
 30
0.0
 10
2513.6115975297
 20
1314.8541412863
 30
0.0
  0
SPLINE
  5
59C
100
AcDbEntity
  8
6_ALL_SURFS
100
AcDbSpline
 62
7
  6
CONTINUOUS
 70
0
 71
3
 72
9
 73
5
 74
0
 42
0.0000001
 43
0.0000001
 44
0.0000000001
 40
0.0
 40
0.0
 40
0.0
 40
0.0
 40
0.4492071657
 40
1.0
 40
1.0
 40
1.0
 40
1.0
 10
2756.5557634014
 20
1289.817895189
 30
0.0
 10
2757.2293187155
 20
1289.4279698489
 30
0.0
 10
2758.3927939999
 20
1287.9705489341
 30
0.0
 10
2758.6240972109
 20
1286.1972192055
 30
0.0
 10
2758.6240972109
 20
1285.2429365361
 30
0.0
  0
SPLINE
  5
59D
100
AcDbEntity
  8
0
100
AcDbSpline
 62
7
  6
CONTINUOUS
 70
0
 71
3
 72
8
 73
4
 74
0
 42
0.0000001
 43
0.0000001
 44
0.0000000001
 40
0.0
 40
0.0
 40
0.0
 40
0.0
 40
1.0
 40
1.0
 40
1.0
 40
1.0
 10
2511.6989879226
 20
1527.3231690648
 30
0.0
 10
2511.8003296702
 20
1526.811191368
 30
0.0
 10
2511.8438305768
 20
1526.2860605796
 30
0.0
 10
2511.8438305768
 20
1525.7641493689
 30
0.0
  0
SPLINE
  5
59E
100
AcDbEntity
  8
0
100
AcDbSpline
 62
7
  6
CONTINUOUS
 70
0
 71
3
 72
8
 73
4
 74
0
 42
0.0000001
 43
0.0000001
 44
0.0000000001
 40
0.0
 40
0.0
 40
0.0
 40
0.0
 40
1.0
 40
1.0
 40
1.0
 40
1.0
 10
2257.1405466955
 20
1380.3152970447
 30
0.0
 10
2257.2418884431
 20
1379.8033193479
 30
0.0
 10
2257.2853893496
 20
1379.2781885595
 30
0.0
 10
2257.2853893496
 20
1378.7562773489
 30
0.0
  0
SPLINE
  5
59F
100
AcDbEntity
  8
6_ALL_SURFS
100
AcDbSpline
 62
7
  6
CONTINUOUS
 70
0
 71
3
 72
13
 73
9
 74
0
 42
0.0000001
 43
0.0000001
 44
0.0000000001
 40
0.0
 40
0.0
 40
0.0
 40
0.0
 40
0.0871356718
 40
0.1868359544
 40
0.3045084521
 40
0.4386550364
 40
0.7301301208
 40
1.0
 40
1.0
 40
1.0
 40
1.0
 10
2473.253524468
 20
1285.7778706301
 30
0.0
 10
2473.7527188132
 20
1285.4888839341
 30
0.0
 10
2475.007751451
 20
1285.1657704236
 30
0.0
 10
2477.0278909412
 20
1285.5696682925
 30
0.0
 10
2479.0925057581
 20
1286.6963586497
 30
0.0
 10
2481.8008045954
 20
1289.0981694334
 30
0.0
 10
2484.3447168948
 20
1293.029710696
 30
0.0
 10
2485.3273262823
 20
1296.7334858098
 30
0.0
 10
2485.3273262823
 20
1298.5199332841
 30
0.0
  0
SPLINE
  5
5A0
100
AcDbEntity
  8
6_ALL_SURFS
100
AcDbSpline
 62
7
  6
CONTINUOUS
 70
0
 71
3
 72
9
 73
5
 74
0
 42
0.0000001
 43
0.0000001
 44
0.0000000001
 40
0.0
 40
0.0
 40
0.0
 40
0.0
 40
0.4492071657
 40
1.0
 40
1.0
 40
1.0
 40
1.0
 10
2643.4186784115
 20
1224.4810631801
 30
0.0
 10
2644.0922337257
 20
1224.09113784
 30
0.0
 10
2645.25570901
 20
1222.6337169252
 30
0.0
 10
2645.487012221
 20
1220.8603871965
 30
0.0
 10
2645.487012221
 20
1219.9061045272
 30
0.0
  0
SPLINE
  5
5A1
100
AcDbEntity
  8
0
100
AcDbSpline
 62
7
  6
CONTINUOUS
 70
0
 71
3
 72
10
 73
6
 74
0
 42
0.0000001
 43
0.0000001
 44
0.0000000001
 40
0.0
 40
0.0
 40
0.0
 40
0.0
 40
0.2776167721
 40
0.5773718367
 40
1.0
 40
1.0
 40
1.0
 40
1.0
 10
2547.3759463314
 20
1505.464515655
 30
0.0
 10
2547.3759463314
 20
1504.8839185049
 30
0.0
 10
2547.0310856338
 20
1503.6666833005
 30
0.0
 10
2546.0154042516
 20
1501.9556143814
 30
0.0
 10
2544.218161334
 20
1500.8813575584
 30
0.0
 10
2543.4525217229
 20
1501.3229676012
 30
0.0
  0
SPLINE
  5
5A2
100
AcDbEntity
  8
6_ALL_SURFS
100
AcDbSpline
 62
7
  6
CONTINUOUS
 70
0
 71
3
 72
13
 73
9
 74
0
 42
0.0000001
 43
0.0000001
 44
0.0000000001
 40
0.0
 40
0.0
 40
0.0
 40
0.0
 40
0.0871356718
 40
0.1868359544
 40
0.3045084521
 40
0.4386550364
 40
0.7301301208
 40
1.0
 40
1.0
 40
1.0
 40
1.0
 10
2444.9692532206
 20
1269.4436626279
 30
0.0
 10
2445.4684475657
 20
1269.1546759319
 30
0.0
 10
2446.7234802035
 20
1268.8315624213
 30
0.0
 10
2448.7436196937
 20
1269.2354602903
 30
0.0
 10
2450.8082345107
 20
1270.3621506475
 30
0.0
 10
2453.516533348
 20
1272.7639614312
 30
0.0
 10
2456.0604456473
 20
1276.6955026938
 30
0.0
 10
2457.0430550348
 20
1280.3992778076
 30
0.0
 10
2457.0430550348
 20
1282.1857252819
 30
0.0
  0
SPLINE
  5
5A3
100
AcDbEntity
  8
0
100
AcDbSpline
 62
7
  6
CONTINUOUS
 70
0
 71
3
 72
10
 73
6
 74
0
 42
0.0000001
 43
0.0000001
 44
0.0000000001
 40
0.0
 40
0.0
 40
0.0
 40
0.0
 40
0.2775555189
 40
0.5772963999
 40
1.0
 40
1.0
 40
1.0
 40
1.0
 10
2431.4815080238
 20
1443.2364200784
 30
0.0
 10
2431.4815080238
 20
1442.4774724537
 30
0.0
 10
2431.0309378746
 20
1440.8861567409
 30
0.0
 10
2429.7027434832
 20
1438.6488495897
 30
0.0
 10
2427.3543965111
 20
1437.2437188309
 30
0.0
 10
2426.3523830862
 20
1437.8198578943
 30
0.0
  0
SPLINE
  5
5A4
100
AcDbEntity
  8
6_ALL_SURFS
100
AcDbSpline
 62
7
  6
CONTINUOUS
 70
0
 71
3
 72
13
 73
9
 74
0
 42
0.0000001
 43
0.0000001
 44
0.0000000001
 40
0.0
 40
0.0
 40
0.0
 40
0.0
 40
0.0871356718
 40
0.1868359544
 40
0.3045084521
 40
0.4386550364
 40
0.7301301208
 40
1.0
 40
1.0
 40
1.0
 40
1.0
 10
2416.6849819731
 20
1253.1094546256
 30
0.0
 10
2417.1841763182
 20
1252.8204679296
 30
0.0
 10
2418.4392089561
 20
1252.4973544191
 30
0.0
 10
2420.4593484463
 20
1252.9012522881
 30
0.0
 10
2422.5239632632
 20
1254.0279426453
 30
0.0
 10
2425.2322621005
 20
1256.429753429
 30
0.0
 10
2427.7761743998
 20
1260.3612946915
 30
0.0
 10
2428.7587837874
 20
1264.0650698054
 30
0.0
 10
2428.7587837874
 20
1265.8515172796
 30
0.0
  0
SPLINE
  5
5A5
100
AcDbEntity
  8
0
100
AcDbSpline
 62
7
  6
CONTINUOUS
 70
0
 71
3
 72
9
 73
5
 74
0
 42
0.0000001
 43
0.0000001
 44
0.0000000001
 40
0.0
 40
0.0
 40
0.0
 40
0.0
 40
0.2956262168
 40
1.0
 40
1.0
 40
1.0
 40
1.0
 10
2181.6249637627
 20
1349.7534356516
 30
0.0
 10
2181.8444871345
 20
1349.8802107198
 30
0.0
 10
2182.6050905357
 20
1350.2552695248
 30
0.0
 10
2183.6024115176
 20
1350.3033913948
 30
0.0
 10
2184.125457887
 20
1350.0013290981
 30
0.0
  0
SPLINE
  5
5A6
100
AcDbEntity
  8
6_ALL_SURFS
100
AcDbSpline
 62
7
  6
CONTINUOUS
 70
0
 71
3
 72
13
 73
9
 74
0
 42
0.0000001
 43
0.0000001
 44
0.0000000001
 40
0.0
 40
0.0
 40
0.0
 40
0.0
 40
0.0871356718
 40
0.1868359544
 40
0.3045084521
 40
0.4386550364
 40
0.7301301208
 40
1.0
 40
1.0
 40
1.0
 40
1.0
 10
2388.4007107257
 20
1236.7752466234
 30
0.0
 10
2388.8999050708
 20
1236.4862599274
 30
0.0
 10
2390.1549377086
 20
1236.1631464169
 30
0.0
 10
2392.1750771988
 20
1236.5670442858
 30
0.0
 10
2394.2396920157
 20
1237.693734643
 30
0.0
 10
2396.9479908531
 20
1240.0955454267
 30
0.0
 10
2399.4919031524
 20
1244.0270866893
 30
0.0
 10
2400.4745125399
 20
1247.7308618031
 30
0.0
 10
2400.4745125399
 20
1249.5173092774
 30
0.0
  0
SPLINE
  5
5A7
100
AcDbEntity
  8
0
100
AcDbSpline
 62
7
  6
CONTINUOUS
 70
0
 71
3
 72
9
 73
5
 74
0
 42
0.0000001
 43
0.0000001
 44
0.0000000001
 40
0.0
 40
0.0
 40
0.0
 40
0.0
 40
0.2314734624
 40
1.0
 40
1.0
 40
1.0
 40
1.0
 10
2200.7168468547
 20
1346.0878613444
 30
0.0
 10
2200.7168468547
 20
1345.6892032401
 30
0.0
 10
2200.6067874227
 20
1343.9672929473
 30
0.0
 10
2200.1201387158
 20
1342.2818498412
 30
0.0
 10
2199.6090487918
 20
1341.0609009697
 30
0.0
  0
SPLINE
  5
5A8
100
AcDbEntity
  8
6_ALL_SURFS
100
AcDbSpline
 62
7
  6
CONTINUOUS
 70
0
 71
3
 72
9
 73
5
 74
0
 42
0.0000001
 43
0.0000001
 44
0.0000000001
 40
0.0
 40
0.0
 40
0.0
 40
0.0
 40
0.4492071657
 40
1.0
 40
1.0
 40
1.0
 40
1.0
 10
2615.1344071641
 20
1208.1468551778
 30
0.0
 10
2615.8079624782
 20
1207.7569298377
 30
0.0
 10
2616.9714377626
 20
1206.299508923
 30
0.0
 10
2617.2027409736
 20
1204.5261791943
 30
0.0
 10
2617.2027409736
 20
1203.5718965249
 30
0.0
  0
SPLINE
  5
5A9
100
AcDbEntity
  8
0
100
AcDbSpline
 62
7
  6
CONTINUOUS
 70
0
 71
3
 72
13
 73
9
 74
0
 42
0.0000001
 43
0.0000001
 44
0.0000000001
 40
0.0
 40
0.0
 40
0.0
 40
0.0
 40
0.2698698792
 40
0.5613449636
 40
0.6954915479
 40
0.8131640456
 40
0.9128643282
 40
1.0
 40
1.0
 40
1.0
 40
1.0
 10
2229.0011181022
 20
1362.4220693466
 30
0.0
 10
2229.0011181022
 20
1360.6356218724
 30
0.0
 10
2228.0185087146
 20
1356.9318467585
 30
0.0
 10
2225.4745964153
 20
1353.000305496
 30
0.0
 10
2222.766297578
 20
1350.5984947123
 30
0.0
 10
2220.7016827611
 20
1349.4718043551
 30
0.0
 10
2218.6815432709
 20
1349.0679064861
 30
0.0
 10
2217.426510633
 20
1349.3910199966
 30
0.0
 10
2216.9273162879
 20
1349.6800066926
 30
0.0
  0
SPLINE
  5
5AA
100
AcDbEntity
  8
0
100
AcDbSpline
 62
7
  6
CONTINUOUS
 70
0
 71
3
 72
13
 73
9
 74
0
 42
0.0000001
 43
0.0000001
 44
0.0000000001
 40
0.0
 40
0.0
 40
0.0
 40
0.0
 40
0.2698698792
 40
0.5613449636
 40
0.6954915479
 40
0.8131640456
 40
0.9128643282
 40
1.0
 40
1.0
 40
1.0
 40
1.0
 10
2257.2853893496
 20
1378.7562773489
 30
0.0
 10
2257.2853893496
 20
1376.9698298746
 30
0.0
 10
2256.3027799621
 20
1373.2660547608
 30
0.0
 10
2253.7588676628
 20
1369.3345134982
 30
0.0
 10
2251.0505688255
 20
1366.9327027145
 30
0.0
 10
2248.9859540085
 20
1365.8060123573
 30
0.0
 10
2246.9658145183
 20
1365.4021144883
 30
0.0
 10
2245.7107818805
 20
1365.7252279988
 30
0.0
 10
2245.2115875354
 20
1366.0142146948
 30
0.0
  0
SPLINE
  5
5AB
100
AcDbEntity
  8
0
100
AcDbSpline
 62
7
  6
CONTINUOUS
 70
0
 71
3
 72
9
 73
5
 74
0
 42
0.0000001
 43
0.0000001
 44
0.0000000001
 40
0.0
 40
0.0
 40
0.0
 40
0.0
 40
0.2208989638
 40
1.0
 40
1.0
 40
1.0
 40
1.0
 10
2430.6002253214
 20
1445.1819630621
 30
0.0
 10
2430.7405543471
 20
1445.101276485
 30
0.0
 10
2431.314738231
 20
1444.6196460631
 30
0.0
 10
2431.4815080238
 20
1443.8073357423
 30
0.0
 10
2431.4815080238
 20
1443.2364200784
 30
0.0
  0
SPLINE
  5
5AC
100
AcDbEntity
  8
0
100
AcDbSpline
 62
7
  6
CONTINUOUS
 70
0
 71
3
 72
13
 73
9
 74
0
 42
0.0000001
 43
0.0000001
 44
0.0000000001
 40
0.0
 40
0.0
 40
0.0
 40
0.0
 40
0.2698698792
 40
0.5613449636
 40
0.6954915479
 40
0.8131640456
 40
0.9128643282
 40
1.0
 40
1.0
 40
1.0
 40
1.0
 10
2285.5696605971
 20
1395.0904853511
 30
0.0
 10
2285.5696605971
 20
1393.3040378768
 30
0.0
 10
2284.5870512096
 20
1389.600262763
 30
0.0
 10
2282.0431389102
 20
1385.6687215004
 30
0.0
 10
2279.3348400729
 20
1383.2669107167
 30
0.0
 10
2277.270225256
 20
1382.1402203595
 30
0.0
 10
2275.2500857658
 20
1381.7363224906
 30
0.0
 10
2273.995053128
 20
1382.0594360011
 30
0.0
 10
2273.4958587828
 20
1382.3484226971
 30
0.0
  0
SPLINE
  5
5AD
100
AcDbEntity
  8
0
100
AcDbSpline
 62
7
  6
CONTINUOUS
 70
0
 71
3
 72
9
 73
5
 74
0
 42
0.0000001
 43
0.0000001
 44
0.0000000001
 40
0.0
 40
0.0
 40
0.0
 40
0.0
 40
0.2208681529
 40
1.0
 40
1.0
 40
1.0
 40
1.0
 10
2546.7031768622
 20
1506.9517549083
 30
0.0
 10
2546.8103142562
 20
1506.8899595826
 30
0.0
 10
2547.248497565
 20
1506.5212731618
 30
0.0
 10
2547.3759463314
 20
1505.9008126035
 30
0.0
 10
2547.3759463314
 20
1505.464515655
 30
0.0
  0
SPLINE
  5
5AE
100
AcDbEntity
  8
0
100
AcDbSpline
 62
7
  6
CONTINUOUS
 70
0
 71
3
 72
13
 73
9
 74
0
 42
0.0000001
 43
0.0000001
 44
0.0000000001
 40
0.0
 40
0.0
 40
0.0
 40
0.0
 40
0.2698698792
 40
0.5613449636
 40
0.6954915479
 40
0.8131640456
 40
0.9128643282
 40
1.0
 40
1.0
 40
1.0
 40
1.0
 10
2313.8539318445
 20
1411.4246933533
 30
0.0
 10
2313.8539318445
 20
1409.6382458791
 30
0.0
 10
2312.871322457
 20
1405.9344707652
 30
0.0
 10
2310.3274101577
 20
1402.0029295026
 30
0.0
 10
2307.6191113204
 20
1399.601118719
 30
0.0
 10
2305.5544965035
 20
1398.4744283618
 30
0.0
 10
2303.5343570133
 20
1398.0705304928
 30
0.0
 10
2302.2793243754
 20
1398.3936440033
 30
0.0
 10
2301.7801300303
 20
1398.6826306993
 30
0.0
  0
SPLINE
  5
5AF
100
AcDbEntity
  8
0
100
AcDbSpline
 62
7
  6
CONTINUOUS
 70
0
 71
3
 72
8
 73
4
 74
0
 42
0.0000001
 43
0.0000001
 44
0.0000000001
 40
0.0
 40
0.0
 40
0.0
 40
0.0
 40
1.0
 40
1.0
 40
1.0
 40
1.0
 10
2483.4147166752
 20
1510.9889610626
 30
0.0
 10
2483.5160584228
 20
1510.4769833658
 30
0.0
 10
2483.5595593293
 20
1509.9518525774
 30
0.0
 10
2483.5595593293
 20
1509.4299413667
 30
0.0
  0
SPLINE
  5
5B0
100
AcDbEntity
  8
6_ALL_SURFS
100
AcDbSpline
 62
7
  6
CONTINUOUS
 70
0
 71
3
 72
9
 73
5
 74
0
 42
0.0000001
 43
0.0000001
 44
0.0000000001
 40
0.0
 40
0.0
 40
0.0
 40
0.0
 40
0.2956262168
 40
1.0
 40
1.0
 40
1.0
 40
1.0
 10
2903.5809873541
 20
1393.4474420576
 30
0.0
 10
2903.800510726
 20
1393.5742171258
 30
0.0
 10
2904.5611141272
 20
1393.9492759307
 30
0.0
 10
2905.5584351091
 20
1393.9973978008
 30
0.0
 10
2906.0814814785
 20
1393.695335504
 30
0.0
  0
SPLINE
  5
5B1
100
AcDbEntity
  8
0
100
AcDbSpline
 62
7
  6
CONTINUOUS
 70
0
 71
3
 72
13
 73
9
 74
0
 42
0.0000001
 43
0.0000001
 44
0.0000000001
 40
0.0
 40
0.0
 40
0.0
 40
0.0
 40
0.2698698792
 40
0.5613449636
 40
0.6954915479
 40
0.8131640456
 40
0.9128643282
 40
1.0
 40
1.0
 40
1.0
 40
1.0
 10
2342.138203092
 20
1427.7589013555
 30
0.0
 10
2342.138203092
 20
1425.9724538813
 30
0.0
 10
2341.1555937045
 20
1422.2686787675
 30
0.0
 10
2338.6116814052
 20
1418.3371375049
 30
0.0
 10
2335.9033825679
 20
1415.9353267212
 30
0.0
 10
2333.8387677509
 20
1414.808636364
 30
0.0
 10
2331.8186282607
 20
1414.404738495
 30
0.0
 10
2330.5635956229
 20
1414.7278520055
 30
0.0
 10
2330.0644012778
 20
1415.0168387015
 30
0.0
  0
SPLINE
  5
5B2
100
AcDbEntity
  8
6_ALL_SURFS
100
AcDbSpline
 62
7
  6
CONTINUOUS
 70
0
 71
3
 72
9
 73
5
 74
0
 42
0.0000001
 43
0.0000001
 44
0.0000000001
 40
0.0
 40
0.0
 40
0.0
 40
0.0
 40
0.4318204617
 40
1.0
 40
1.0
 40
1.0
 40
1.0
 10
2505.0511144794
 20
1083.991919511
 30
0.0
 10
2504.1676348941
 20
1084.5045706315
 30
0.0
 10
2502.7833545595
 20
1086.7444019787
 30
0.0
 10
2502.9280843602
 20
1089.184312201
 30
0.0
 10
2503.1652318811
 20
1090.5072168731
 30
0.0
  0
SPLINE
  5
5B3
100
AcDbEntity
  8
0
100
AcDbSpline
 62
7
  6
CONTINUOUS
 70
0
 71
3
 72
13
 73
9
 74
0
 42
0.0000001
 43
0.0000001
 44
0.0000000001
 40
0.0
 40
0.0
 40
0.0
 40
0.0
 40
0.2698698792
 40
0.5613449636
 40
0.6954915479
 40
0.8131640456
 40
0.9128643282
 40
1.0
 40
1.0
 40
1.0
 40
1.0
 10
2370.4224743395
 20
1444.0931093578
 30
0.0
 10
2370.4224743395
 20
1442.3066618835
 30
0.0
 10
2369.439864952
 20
1438.6028867697
 30
0.0
 10
2366.8959526526
 20
1434.6713455071
 30
0.0
 10
2364.1876538153
 20
1432.2695347234
 30
0.0
 10
2362.1230389984
 20
1431.1428443662
 30
0.0
 10
2360.1028995082
 20
1430.7389464973
 30
0.0
 10
2358.8478668704
 20
1431.0620600078
 30
0.0
 10
2358.3486725252
 20
1431.3510467038
 30
0.0
  0
SPLINE
  5
5B4
100
AcDbEntity
  8
6_ALL_SURFS
100
AcDbSpline
 62
7
  6
CONTINUOUS
 70
0
 71
3
 72
9
 73
5
 74
0
 42
0.0000001
 43
0.0000001
 44
0.0000000001
 40
0.0
 40
0.0
 40
0.0
 40
0.0
 40
0.2949607766
 40
1.0
 40
1.0
 40
1.0
 40
1.0
 10
2707.6416982873
 20
1215.7974337456
 30
0.0
 10
2707.6416982873
 20
1216.0501756674
 30
0.0
 10
2707.5849503033
 20
1216.8955388089
 30
0.0
 10
2707.1299831791
 20
1217.783653573
 30
0.0
 10
2706.6066683348
 20
1218.0854941354
 30
0.0
  0
SPLINE
  5
5B5
100
AcDbEntity
  8
0
100
AcDbSpline
 62
7
  6
CONTINUOUS
 70
0
 71
3
 72
13
 73
9
 74
0
 42
0.0000001
 43
0.0000001
 44
0.0000000001
 40
0.0
 40
0.0
 40
0.0
 40
0.0
 40
0.2698698792
 40
0.5613449636
 40
0.6954915479
 40
0.8131640456
 40
0.9128643282
 40
1.0
 40
1.0
 40
1.0
 40
1.0
 10
2398.7067455869
 20
1460.42731736
 30
0.0
 10
2398.7067455869
 20
1458.6408698857
 30
0.0
 10
2397.7241361994
 20
1454.9370947719
 30
0.0
 10
2395.1802239001
 20
1451.0055535093
 30
0.0
 10
2392.4719250628
 20
1448.6037427257
 30
0.0
 10
2390.4073102458
 20
1447.4770523685
 30
0.0
 10
2388.3871707557
 20
1447.0731544995
 30
0.0
 10
2387.1321381178
 20
1447.39626801
 30
0.0
 10
2386.6329437727
 20
1447.685254706
 30
0.0
  0
SPLINE
  5
5B6
100
AcDbEntity
  8
0
100
AcDbSpline
 62
7
  6
CONTINUOUS
 70
0
 71
3
 72
13
 73
9
 74
0
 42
0.0000001
 43
0.0000001
 44
0.0000000001
 40
0.0
 40
0.0
 40
0.0
 40
0.0
 40
0.2698698792
 40
0.5613449636
 40
0.6954915479
 40
0.8131640456
 40
0.9128643282
 40
1.0
 40
1.0
 40
1.0
 40
1.0
 10
2426.9910168344
 20
1476.7615253622
 30
0.0
 10
2426.9910168344
 20
1474.975077888
 30
0.0
 10
2426.0084074469
 20
1471.2713027742
 30
0.0
 10
2423.4644951476
 20
1467.3397615116
 30
0.0
 10
2420.7561963102
 20
1464.9379507279
 30
0.0
 10
2418.6915814933
 20
1463.8112603707
 30
0.0
 10
2416.6714420031
 20
1463.4073625017
 30
0.0
 10
2415.4164093653
 20
1463.7304760122
 30
0.0
 10
2414.9172150201
 20
1464.0194627082
 30
0.0
  0
SPLINE
  5
5B7
100
AcDbEntity
  8
0
100
AcDbSpline
 62
7
  6
CONTINUOUS
 70
0
 71
3
 72
13
 73
9
 74
0
 42
0.0000001
 43
0.0000001
 44
0.0000000001
 40
0.0
 40
0.0
 40
0.0
 40
0.0
 40
0.2698698792
 40
0.5613449636
 40
0.6954915479
 40
0.8131640456
 40
0.9128643282
 40
1.0
 40
1.0
 40
1.0
 40
1.0
 10
2455.2752880818
 20
1493.0957333645
 30
0.0
 10
2455.2752880818
 20
1491.3092858902
 30
0.0
 10
2454.2926786943
 20
1487.6055107764
 30
0.0
 10
2451.748766395
 20
1483.6739695138
 30
0.0
 10
2449.0404675577
 20
1481.2721587301
 30
0.0
 10
2446.9758527408
 20
1480.1454683729
 30
0.0
 10
2444.9557132506
 20
1479.7415705039
 30
0.0
 10
2443.7006806127
 20
1480.0646840145
 30
0.0
 10
2443.2014862676
 20
1480.3536707105
 30
0.0
  0
SPLINE
  5
5B8
100
AcDbEntity
  8
6_ALL_SURFS
100
AcDbSpline
 62
7
  6
CONTINUOUS
 70
0
 71
3
 72
9
 73
5
 74
0
 42
0.0000001
 43
0.0000001
 44
0.0000000001
 40
0.0
 40
0.0
 40
0.0
 40
0.0
 40
0.3027165216
 40
1.0
 40
1.0
 40
1.0
 40
1.0
 10
2503.1652318811
 20
1090.5072168731
 30
0.0
 10
2503.2554137688
 20
1091.0102878737
 30
0.0
 10
2503.7596365027
 20
1092.50690348
 30
0.0
 10
2505.7091416635
 20
1094.334797931
 30
0.0
 10
2506.7303706348
 20
1093.7491167467
 30
0.0
  0
SPLINE
  5
5B9
100
AcDbEntity
  8
6_ALL_SURFS
100
AcDbSpline
 62
7
  6
CONTINUOUS
 70
0
 71
3
 72
9
 73
5
 74
0
 42
0.0000001
 43
0.0000001
 44
0.0000000001
 40
0.0
 40
0.0
 40
0.0
 40
0.0
 40
0.4492071657
 40
1.0
 40
1.0
 40
1.0
 40
1.0
 10
2728.2714921539
 20
1273.4836871868
 30
0.0
 10
2728.9450474681
 20
1273.0937618466
 30
0.0
 10
2730.1085227524
 20
1271.6363409319
 30
0.0
 10
2730.3398259634
 20
1269.8630112032
 30
0.0
 10
2730.3398259634
 20
1268.9087285339
 30
0.0
  0
SPLINE
  5
5BA
100
AcDbEntity
  8
0
100
AcDbSpline
 62
7
  6
CONTINUOUS
 70
0
 71
3
 72
13
 73
9
 74
0
 42
0.0000001
 43
0.0000001
 44
0.0000000001
 40
0.0
 40
0.0
 40
0.0
 40
0.0
 40
0.2698698792
 40
0.5613449636
 40
0.6954915479
 40
0.8131640456
 40
0.9128643282
 40
1.0
 40
1.0
 40
1.0
 40
1.0
 10
2483.5595593293
 20
1509.4299413667
 30
0.0
 10
2483.5595593293
 20
1507.6434938924
 30
0.0
 10
2482.5769499418
 20
1503.9397187786
 30
0.0
 10
2480.0330376425
 20
1500.008177516
 30
0.0
 10
2477.3247388052
 20
1497.6063667323
 30
0.0
 10
2475.2601239882
 20
1496.4796763751
 30
0.0
 10
2473.239984498
 20
1496.0757785062
 30
0.0
 10
2471.9849518602
 20
1496.3988920167
 30
0.0
 10
2471.4857575151
 20
1496.6878787127
 30
0.0
  0
SPLINE
  5
5BB
100
AcDbEntity
  8
0
100
AcDbSpline
 62
7
  6
CONTINUOUS
 70
0
 71
3
 72
13
 73
9
 74
0
 42
0.0000001
 43
0.0000001
 44
0.0000000001
 40
0.0
 40
0.0
 40
0.0
 40
0.0
 40
0.2698698792
 40
0.5613449636
 40
0.6954915479
 40
0.8131640456
 40
0.9128643282
 40
1.0
 40
1.0
 40
1.0
 40
1.0
 10
2511.8438305768
 20
1525.7641493689
 30
0.0
 10
2511.8438305768
 20
1523.9777018947
 30
0.0
 10
2510.8612211893
 20
1520.2739267808
 30
0.0
 10
2508.3173088899
 20
1516.3423855183
 30
0.0
 10
2505.6090100526
 20
1513.9405747346
 30
0.0
 10
2503.5443952357
 20
1512.8138843774
 30
0.0
 10
2501.5242557455
 20
1512.4099865084
 30
0.0
 10
2500.2692231077
 20
1512.7331000189
 30
0.0
 10
2499.7700287625
 20
1513.0220867149
 30
0.0
  0
SPLINE
  5
5BC
100
AcDbEntity
  8
6_ALL_SURFS
100
AcDbSpline
 62
7
  6
CONTINUOUS
 70
0
 71
3
 72
9
 73
5
 74
0
 42
0.0000001
 43
0.0000001
 44
0.0000000001
 40
0.0
 40
0.0
 40
0.0
 40
0.0
 40
0.4999743453
 40
1.0
 40
1.0
 40
1.0
 40
1.0
 10
2482.8524525481
 20
1146.3941497727
 30
0.0
 10
2482.8524525481
 20
1147.6058218683
 30
0.0
 10
2483.6805698665
 20
1149.9984724129
 30
0.0
 10
2485.3386086589
 20
1151.9118568136
 30
0.0
 10
2486.3879864541
 20
1152.5178740247
 30
0.0
  0
SPLINE
  5
5BD
100
AcDbEntity
  8
6_ALL_SURFS
100
AcDbSpline
 62
7
  6
CONTINUOUS
 70
0
 71
3
 72
10
 73
6
 74
0
 42
0.0000001
 43
0.0000001
 44
0.0000000001
 40
0.0
 40
0.0
 40
0.0
 40
0.0
 40
0.2776167721
 40
0.5773718367
 40
1.0
 40
1.0
 40
1.0
 40
1.0
 10
2879.0090267079
 20
1313.9459268288
 30
0.0
 10
2879.0090267079
 20
1313.3653296788
 30
0.0
 10
2878.6641660103
 20
1312.1480944743
 30
0.0
 10
2877.6484846281
 20
1310.4370255553
 30
0.0
 10
2875.8512417104
 20
1309.3627687323
 30
0.0
 10
2875.0856020993
 20
1309.8043787751
 30
0.0
  0
SPLINE
  5
5BE
100
AcDbEntity
  8
6_ALL_SURFS
100
AcDbSpline
 62
7
  6
CONTINUOUS
 70
0
 71
3
 72
10
 73
6
 74
0
 42
0.0000001
 43
0.0000001
 44
0.0000000001
 40
0.0
 40
0.0
 40
0.0
 40
0.0
 40
0.2775555189
 40
0.5772963999
 40
1.0
 40
1.0
 40
1.0
 40
1.0
 10
2763.1145884003
 20
1251.7178312523
 30
0.0
 10
2763.1145884003
 20
1250.9588836276
 30
0.0
 10
2762.6640182511
 20
1249.3675679148
 30
0.0
 10
2761.3358238597
 20
1247.1302607636
 30
0.0
 10
2758.9874768876
 20
1245.7251300048
 30
0.0
 10
2757.9854634627
 20
1246.3012690681
 30
0.0
  0
SPLINE
  5
5BF
100
AcDbEntity
  8
0
100
AcDbSpline
 62
7
  6
CONTINUOUS
 70
0
 71
3
 72
13
 73
9
 74
0
 42
0.0000001
 43
0.0000001
 44
0.0000000001
 40
0.0
 40
0.0
 40
0.0
 40
0.0
 40
0.2698698792
 40
0.5613449636
 40
0.6954915479
 40
0.8131640456
 40
0.9128643282
 40
1.0
 40
1.0
 40
1.0
 40
1.0
 10
2540.1281018242
 20
1542.0983573712
 30
0.0
 10
2540.1281018242
 20
1540.3119098969
 30
0.0
 10
2539.1454924367
 20
1536.6081347831
 30
0.0
 10
2536.6015801374
 20
1532.6765935205
 30
0.0
 10
2533.8932813001
 20
1530.2747827368
 30
0.0
 10
2531.8286664832
 20
1529.1480923796
 30
0.0
 10
2529.808526993
 20
1528.7441945106
 30
0.0
 10
2528.5534943551
 20
1529.0673080211
 30
0.0
 10
2528.05430001
 20
1529.3562947172
 30
0.0
  0
SPLINE
  5
5C0
100
AcDbEntity
  8
0
100
AcDbSpline
 62
7
  6
CONTINUOUS
 70
0
 71
3
 72
8
 73
4
 74
0
 42
0.0000001
 43
0.0000001
 44
0.0000000001
 40
0.0
 40
0.0
 40
0.0
 40
0.0
 40
1.0
 40
1.0
 40
1.0
 40
1.0
 10
2455.1304454277
 20
1494.6547530603
 30
0.0
 10
2455.2317871753
 20
1494.1427753635
 30
0.0
 10
2455.2752880818
 20
1493.6176445752
 30
0.0
 10
2455.2752880818
 20
1493.0957333645
 30
0.0
  0
SPLINE
  5
5C1
100
AcDbEntity
  8
6_ALL_SURFS
100
AcDbSpline
 62
7
  6
CONTINUOUS
 70
0
 71
3
 72
13
 73
9
 74
0
 42
0.0000001
 43
0.0000001
 44
0.0000000001
 40
0.0
 40
0.0
 40
0.0
 40
0.0
 40
0.2698698792
 40
0.5613449636
 40
0.6954915479
 40
0.8131640456
 40
0.9128643282
 40
1.0
 40
1.0
 40
1.0
 40
1.0
 10
2532.3499272312
 20
1154.5692725182
 30
0.0
 10
2532.3499272312
 20
1152.782825044
 30
0.0
 10
2531.3673178437
 20
1149.0790499302
 30
0.0
 10
2528.8234055444
 20
1145.1475086676
 30
0.0
 10
2526.115106707
 20
1142.7456978839
 30
0.0
 10
2524.0504918901
 20
1141.6190075267
 30
0.0
 10
2522.0303523999
 20
1141.2151096577
 30
0.0
 10
2520.7753197621
 20
1141.5382231682
 30
0.0
 10
2520.2761254169
 20
1141.8272098642
 30
0.0
  0
SPLINE
  5
5C2
100
AcDbEntity
  8
6_ALL_SURFS
100
AcDbSpline
 62
7
  6
CONTINUOUS
 70
0
 71
3
 72
13
 73
9
 74
0
 42
0.0000001
 43
0.0000001
 44
0.0000000001
 40
0.0
 40
0.0
 40
0.0
 40
0.0
 40
0.2698698792
 40
0.5613449636
 40
0.6954915479
 40
0.8131640456
 40
0.9128643282
 40
1.0
 40
1.0
 40
1.0
 40
1.0
 10
2560.6341984786
 20
1170.9034805205
 30
0.0
 10
2560.6341984786
 20
1169.1170330462
 30
0.0
 10
2559.6515890911
 20
1165.4132579324
 30
0.0
 10
2557.1076767918
 20
1161.4817166698
 30
0.0
 10
2554.3993779545
 20
1159.0799058861
 30
0.0
 10
2552.3347631376
 20
1157.9532155289
 30
0.0
 10
2550.3146236474
 20
1157.54931766
 30
0.0
 10
2549.0595910095
 20
1157.8724311705
 30
0.0
 10
2548.5603966644
 20
1158.1614178665
 30
0.0
  0
SPLINE
  5
5C3
100
AcDbEntity
  8
6_ALL_SURFS
100
AcDbSpline
 62
7
  6
CONTINUOUS
 70
0
 71
3
 72
13
 73
9
 74
0
 42
0.0000001
 43
0.0000001
 44
0.0000000001
 40
0.0
 40
0.0
 40
0.0
 40
0.0
 40
0.2698698792
 40
0.5613449636
 40
0.6954915479
 40
0.8131640456
 40
0.9128643282
 40
1.0
 40
1.0
 40
1.0
 40
1.0
 10
2588.9184697261
 20
1187.2376885227
 30
0.0
 10
2588.9184697261
 20
1185.4512410484
 30
0.0
 10
2587.9358603386
 20
1181.7474659346
 30
0.0
 10
2585.3919480393
 20
1177.815924672
 30
0.0
 10
2582.683649202
 20
1175.4141138884
 30
0.0
 10
2580.619034385
 20
1174.2874235311
 30
0.0
 10
2578.5988948948
 20
1173.8835256622
 30
0.0
 10
2577.343862257
 20
1174.2066391727
 30
0.0
 10
2576.8446679119
 20
1174.4956258687
 30
0.0
  0
SPLINE
  5
5C4
100
AcDbEntity
  8
6_ALL_SURFS
100
AcDbSpline
 62
7
  6
CONTINUOUS
 70
0
 71
3
 72
13
 73
9
 74
0
 42
0.0000001
 43
0.0000001
 44
0.0000000001
 40
0.0
 40
0.0
 40
0.0
 40
0.0
 40
0.2698698792
 40
0.5613449636
 40
0.6954915479
 40
0.8131640456
 40
0.9128643282
 40
1.0
 40
1.0
 40
1.0
 40
1.0
 10
2617.2027409736
 20
1203.5718965249
 30
0.0
 10
2617.2027409736
 20
1201.7854490507
 30
0.0
 10
2616.2201315861
 20
1198.0816739369
 30
0.0
 10
2613.6762192867
 20
1194.1501326743
 30
0.0
 10
2610.9679204494
 20
1191.7483218906
 30
0.0
 10
2608.9033056325
 20
1190.6216315334
 30
0.0
 10
2606.8831661423
 20
1190.2177336644
 30
0.0
 10
2605.6281335045
 20
1190.5408471749
 30
0.0
 10
2605.1289391593
 20
1190.8298338709
 30
0.0
  0
SPLINE
  5
5C5
100
AcDbEntity
  8
6_ALL_SURFS
100
AcDbSpline
 62
7
  6
CONTINUOUS
 70
0
 71
3
 72
13
 73
9
 74
0
 42
0.0000001
 43
0.0000001
 44
0.0000000001
 40
0.0
 40
0.0
 40
0.0
 40
0.0
 40
0.2698698792
 40
0.5613449636
 40
0.6954915479
 40
0.8131640456
 40
0.9128643282
 40
1.0
 40
1.0
 40
1.0
 40
1.0
 10
2645.487012221
 20
1219.9061045272
 30
0.0
 10
2645.487012221
 20
1218.1196570529
 30
0.0
 10
2644.5044028335
 20
1214.4158819391
 30
0.0
 10
2641.9604905342
 20
1210.4843406765
 30
0.0
 10
2639.2521916969
 20
1208.0825298928
 30
0.0
 10
2637.18757688
 20
1206.9558395356
 30
0.0
 10
2635.1674373898
 20
1206.5519416666
 30
0.0
 10
2633.9124047519
 20
1206.8750551772
 30
0.0
 10
2633.4132104068
 20
1207.1640418732
 30
0.0
  0
SPLINE
  5
5C6
100
AcDbEntity
  8
6_ALL_SURFS
100
AcDbSpline
 62
7
  6
CONTINUOUS
 70
0
 71
3
 72
13
 73
9
 74
0
 42
0.0000001
 43
0.0000001
 44
0.0000000001
 40
0.0
 40
0.0
 40
0.0
 40
0.0
 40
0.2698698792
 40
0.5613449636
 40
0.6954915479
 40
0.8131640456
 40
0.9128643282
 40
1.0
 40
1.0
 40
1.0
 40
1.0
 10
2673.7712834685
 20
1236.2403125294
 30
0.0
 10
2673.7712834685
 20
1234.4538650551
 30
0.0
 10
2672.788674081
 20
1230.7500899413
 30
0.0
 10
2670.2447617817
 20
1226.8185486787
 30
0.0
 10
2667.5364629443
 20
1224.416737895
 30
0.0
 10
2665.4718481274
 20
1223.2900475378
 30
0.0
 10
2663.4517086372
 20
1222.8861496689
 30
0.0
 10
2662.1966759994
 20
1223.2092631794
 30
0.0
 10
2661.6974816543
 20
1223.4982498754
 30
0.0
  0
SPLINE
  5
5C7
100
AcDbEntity
  8
6_ALL_SURFS
100
AcDbSpline
 62
7
  6
CONTINUOUS
 70
0
 71
3
 72
13
 73
9
 74
0
 42
0.0000001
 43
0.0000001
 44
0.0000000001
 40
0.0
 40
0.0
 40
0.0
 40
0.0
 40
0.2698698792
 40
0.5613449636
 40
0.6954915479
 40
0.8131640456
 40
0.9128643282
 40
1.0
 40
1.0
 40
1.0
 40
1.0
 10
2702.055554716
 20
1252.5745205316
 30
0.0
 10
2702.055554716
 20
1250.7880730574
 30
0.0
 10
2701.0729453284
 20
1247.0842979435
 30
0.0
 10
2698.5290330291
 20
1243.152756681
 30
0.0
 10
2695.8207341918
 20
1240.7509458973
 30
0.0
 10
2693.7561193749
 20
1239.6242555401
 30
0.0
 10
2691.7359798847
 20
1239.2203576711
 30
0.0
 10
2690.4809472469
 20
1239.5434711816
 30
0.0
 10
2689.9817529017
 20
1239.8324578776
 30
0.0
  0
SPLINE
  5
5C8
100
AcDbEntity
  8
0
100
AcDbSpline
 62
7
  6
CONTINUOUS
 70
0
 71
3
 72
9
 73
5
 74
0
 42
0.0000001
 43
0.0000001
 44
0.0000000001
 40
0.0
 40
0.0
 40
0.0
 40
0.0
 40
0.2949607766
 40
1.0
 40
1.0
 40
1.0
 40
1.0
 10
2376.0086179108
 20
1407.3160225718
 30
0.0
 10
2376.0086179108
 20
1407.5687644935
 30
0.0
 10
2375.9518699268
 20
1408.414127635
 30
0.0
 10
2375.4969028026
 20
1409.3022423992
 30
0.0
 10
2374.9735879583
 20
1409.6040829616
 30
0.0
  0
SPLINE
  5
5C9
100
AcDbEntity
  8
6_ALL_SURFS
100
AcDbSpline
 62
7
  6
CONTINUOUS
 70
0
 71
3
 72
13
 73
9
 74
0
 42
0.0000001
 43
0.0000001
 44
0.0000000001
 40
0.0
 40
0.0
 40
0.0
 40
0.0
 40
0.2698698792
 40
0.5613449636
 40
0.6954915479
 40
0.8131640456
 40
0.9128643282
 40
1.0
 40
1.0
 40
1.0
 40
1.0
 10
2730.3398259634
 20
1268.9087285339
 30
0.0
 10
2730.3398259634
 20
1267.1222810596
 30
0.0
 10
2729.3572165759
 20
1263.4185059458
 30
0.0
 10
2726.8133042766
 20
1259.4869646832
 30
0.0
 10
2724.1050054393
 20
1257.0851538995
 30
0.0
 10
2722.0403906223
 20
1255.9584635423
 30
0.0
 10
2720.0202511321
 20
1255.5545656733
 30
0.0
 10
2718.7652184943
 20
1255.8776791838
 30
0.0
 10
2718.2660241492
 20
1256.1666658798
 30
0.0
  0
SPLINE
  5
5CA
100
AcDbEntity
  8
6_ALL_SURFS
100
AcDbSpline
 62
7
  6
CONTINUOUS
 70
0
 71
3
 72
13
 73
9
 74
0
 42
0.0000001
 43
0.0000001
 44
0.0000000001
 40
0.0
 40
0.0
 40
0.0
 40
0.0
 40
0.2698698792
 40
0.5613449636
 40
0.6954915479
 40
0.8131640456
 40
0.9128643282
 40
1.0
 40
1.0
 40
1.0
 40
1.0
 10
2758.6240972109
 20
1285.2429365361
 30
0.0
 10
2758.6240972109
 20
1283.4564890618
 30
0.0
 10
2757.6414878234
 20
1279.752713948
 30
0.0
 10
2755.097575524
 20
1275.8211726854
 30
0.0
 10
2752.3892766867
 20
1273.4193619017
 30
0.0
 10
2750.3246618698
 20
1272.2926715445
 30
0.0
 10
2748.3045223796
 20
1271.8887736756
 30
0.0
 10
2747.0494897418
 20
1272.2118871861
 30
0.0
 10
2746.5502953966
 20
1272.5008738821
 30
0.0
  0
SPLINE
  5
5CB
100
AcDbEntity
  8
0
100
AcDbSpline
 62
7
  6
CONTINUOUS
 70
0
 71
3
 72
9
 73
5
 74
0
 42
0.0000001
 43
0.0000001
 44
0.0000000001
 40
0.0
 40
0.0
 40
0.0
 40
0.0
 40
0.5000256547
 40
1.0
 40
1.0
 40
1.0
 40
1.0
 10
2562.048412041
 20
1569.4485332816
 30
0.0
 10
2560.9990342459
 20
1568.8425160705
 30
0.0
 10
2559.3409954534
 20
1566.9291316698
 30
0.0
 10
2558.5128781351
 20
1564.5364811252
 30
0.0
 10
2558.5128781351
 20
1563.3248090297
 30
0.0
  0
SPLINE
  5
5CC
100
AcDbEntity
  8
6_ALL_SURFS
100
AcDbSpline
 62
7
  6
CONTINUOUS
 70
0
 71
3
 72
13
 73
9
 74
0
 42
0.0000001
 43
0.0000001
 44
0.0000000001
 40
0.0
 40
0.0
 40
0.0
 40
0.0
 40
0.2698698792
 40
0.5613449636
 40
0.6954915479
 40
0.8131640456
 40
0.9128643282
 40
1.0
 40
1.0
 40
1.0
 40
1.0
 10
2786.9083684583
 20
1301.5771445383
 30
0.0
 10
2786.9083684583
 20
1299.7906970641
 30
0.0
 10
2785.9257590708
 20
1296.0869219502
 30
0.0
 10
2783.3818467715
 20
1292.1553806877
 30
0.0
 10
2780.6735479342
 20
1289.753569904
 30
0.0
 10
2778.6089331173
 20
1288.6268795468
 30
0.0
 10
2776.5887936271
 20
1288.2229816778
 30
0.0
 10
2775.3337609892
 20
1288.5460951883
 30
0.0
 10
2774.8345666441
 20
1288.8350818843
 30
0.0
  0
SPLINE
  5
5CD
100
AcDbEntity
  8
6_ALL_SURFS
100
AcDbSpline
 62
7
  6
CONTINUOUS
 70
0
 71
3
 72
13
 73
9
 74
0
 42
0.0000001
 43
0.0000001
 44
0.0000000001
 40
0.0
 40
0.0
 40
0.0
 40
0.0
 40
0.2698698792
 40
0.5613449636
 40
0.6954915479
 40
0.8131640456
 40
0.9128643282
 40
1.0
 40
1.0
 40
1.0
 40
1.0
 10
2815.1926397058
 20
1317.9113525406
 30
0.0
 10
2815.1926397058
 20
1316.1249050663
 30
0.0
 10
2814.2100303183
 20
1312.4211299525
 30
0.0
 10
2811.666118019
 20
1308.4895886899
 30
0.0
 10
2808.9578191817
 20
1306.0877779062
 30
0.0
 10
2806.8932043647
 20
1304.961087549
 30
0.0
 10
2804.8730648745
 20
1304.55718968
 30
0.0
 10
2803.6180322367
 20
1304.8803031905
 30
0.0
 10
2803.1188378916
 20
1305.1692898865
 30
0.0
  0
SPLINE
  5
5CE
100
AcDbEntity
  8
6_ALL_SURFS
100
AcDbSpline
 62
7
  6
CONTINUOUS
 70
0
 71
3
 72
13
 73
9
 74
0
 42
0.0000001
 43
0.0000001
 44
0.0000000001
 40
0.0
 40
0.0
 40
0.0
 40
0.0
 40
0.2698698792
 40
0.5613449636
 40
0.6954915479
 40
0.8131640456
 40
0.9128643282
 40
1.0
 40
1.0
 40
1.0
 40
1.0
 10
2843.4769109533
 20
1334.2455605428
 30
0.0
 10
2843.4769109533
 20
1332.4591130685
 30
0.0
 10
2842.4943015658
 20
1328.7553379547
 30
0.0
 10
2839.9503892664
 20
1324.8237966921
 30
0.0
 10
2837.2420904291
 20
1322.4219859084
 30
0.0
 10
2835.1774756122
 20
1321.2952955512
 30
0.0
 10
2833.157336122
 20
1320.8913976823
 30
0.0
 10
2831.9023034842
 20
1321.2145111928
 30
0.0
 10
2831.403109139
 20
1321.5034978888
 30
0.0
  0
SPLINE
  5
5CF
100
AcDbEntity
  8
6_ALL_SURFS
100
AcDbSpline
 62
7
  6
CONTINUOUS
 70
0
 71
3
 72
13
 73
9
 74
0
 42
0.0000001
 43
0.0000001
 44
0.0000000001
 40
0.0
 40
0.0
 40
0.0
 40
0.0
 40
0.2698698792
 40
0.5613449636
 40
0.6954915479
 40
0.8131640456
 40
0.9128643282
 40
1.0
 40
1.0
 40
1.0
 40
1.0
 10
2871.7611822007
 20
1350.579768545
 30
0.0
 10
2871.7611822007
 20
1348.7933210707
 30
0.0
 10
2870.7785728132
 20
1345.0895459569
 30
0.0
 10
2868.2346605139
 20
1341.1580046943
 30
0.0
 10
2865.5263616766
 20
1338.7561939107
 30
0.0
 10
2863.4617468596
 20
1337.6295035535
 30
0.0
 10
2861.4416073695
 20
1337.2256056845
 30
0.0
 10
2860.1865747316
 20
1337.548719195
 30
0.0
 10
2859.6873803865
 20
1337.837705891
 30
0.0
  0
SPLINE
  5
5D0
100
AcDbEntity
  8
0
100
AcDbSpline
 62
7
  6
CONTINUOUS
 70
0
 71
3
 72
8
 73
4
 74
0
 42
0.0000001
 43
0.0000001
 44
0.0000000001
 40
0.0
 40
0.0
 40
0.0
 40
0.0
 40
1.0
 40
1.0
 40
1.0
 40
1.0
 10
2426.8461741803
 20
1478.3205450581
 30
0.0
 10
2426.9475159278
 20
1477.8085673613
 30
0.0
 10
2426.9910168344
 20
1477.2834365729
 30
0.0
 10
2426.9910168344
 20
1476.7615253622
 30
0.0
  0
SPLINE
  5
5D1
100
AcDbEntity
  8
6_ALL_SURFS
100
AcDbSpline
 62
7
  6
CONTINUOUS
 70
0
 71
3
 72
9
 73
5
 74
0
 42
0.0000001
 43
0.0000001
 44
0.0000000001
 40
0.0
 40
0.0
 40
0.0
 40
0.0
 40
0.4492071657
 40
1.0
 40
1.0
 40
1.0
 40
1.0
 10
2586.8501359166
 20
1191.8126471756
 30
0.0
 10
2587.5236912307
 20
1191.4227218355
 30
0.0
 10
2588.6871665151
 20
1189.9653009207
 30
0.0
 10
2588.9184697261
 20
1188.1919711921
 30
0.0
 10
2588.9184697261
 20
1187.2376885227
 30
0.0
  0
SPLINE
  5
5D2
100
AcDbEntity
  8
6_ALL_SURFS
100
AcDbSpline
 62
7
  6
CONTINUOUS
 70
0
 71
3
 72
9
 73
5
 74
0
 42
0.0000001
 43
0.0000001
 44
0.0000000001
 40
0.0
 40
0.0
 40
0.0
 40
0.0
 40
0.2208989638
 40
1.0
 40
1.0
 40
1.0
 40
1.0
 10
2592.6735078389
 20
1345.5839487087
 30
0.0
 10
2592.8468554589
 20
1345.4842770546
 30
0.0
 10
2593.5561414331
 20
1344.8893218274
 30
0.0
 10
2593.7621511772
 20
1343.8858796665
 30
0.0
 10
2593.7621511772
 20
1343.1806309053
 30
0.0
  0
SPLINE
  5
5D3
100
AcDbEntity
  8
0
100
AcDbSpline
 62
7
  6
CONTINUOUS
 70
0
 71
3
 72
8
 73
4
 74
0
 42
0.0000001
 43
0.0000001
 44
0.0000000001
 40
0.0
 40
0.0
 40
0.0
 40
0.0
 40
1.0
 40
1.0
 40
1.0
 40
1.0
 10
2228.856275448
 20
1363.9810890425
 30
0.0
 10
2228.9576171956
 20
1363.4691113457
 30
0.0
 10
2229.0011181022
 20
1362.9439805573
 30
0.0
 10
2229.0011181022
 20
1362.4220693466
 30
0.0
  0
SPLINE
  5
5D4
100
AcDbEntity
  8
6_ALL_SURFS
100
AcDbSpline
 62
7
  6
CONTINUOUS
 70
0
 71
3
 72
9
 73
5
 74
0
 42
0.0000001
 43
0.0000001
 44
0.0000000001
 40
0.0
 40
0.0
 40
0.0
 40
0.0
 40
0.2209374584
 40
1.0
 40
1.0
 40
1.0
 40
1.0
 10
2470.099033463
 20
1090.8399836986
 30
0.0
 10
2469.9342040911
 20
1090.9351718369
 30
0.0
 10
2469.2594523735
 20
1091.5015908619
 30
0.0
 10
2469.063870315
 20
1092.4566798873
 30
0.0
 10
2469.063870315
 20
1093.1278523987
 30
0.0
  0
SPLINE
  5
5D5
100
AcDbEntity
  8
6_ALL_SURFS
100
AcDbSpline
 62
7
  6
CONTINUOUS
 70
0
 71
3
 72
9
 73
5
 74
0
 42
0.0000001
 43
0.0000001
 44
0.0000000001
 40
0.0
 40
0.0
 40
0.0
 40
0.0
 40
0.4492071657
 40
1.0
 40
1.0
 40
1.0
 40
1.0
 10
2841.4085771438
 20
1338.8205191957
 30
0.0
 10
2842.0821324579
 20
1338.4305938556
 30
0.0
 10
2843.2456077423
 20
1336.9731729408
 30
0.0
 10
2843.4769109533
 20
1335.1998432122
 30
0.0
 10
2843.4769109533
 20
1334.2455605428
 30
0.0
  0
SPLINE
  5
5D6
100
AcDbEntity
  8
0
100
AcDbSpline
 62
7
  6
CONTINUOUS
 70
0
 71
3
 72
8
 73
4
 74
0
 42
0.0000001
 43
0.0000001
 44
0.0000000001
 40
0.0
 40
0.0
 40
0.0
 40
0.0
 40
1.0
 40
1.0
 40
1.0
 40
1.0
 10
2398.5619029328
 20
1461.9863370559
 30
0.0
 10
2398.6632446804
 20
1461.4743593591
 30
0.0
 10
2398.7067455869
 20
1460.9492285707
 30
0.0
 10
2398.7067455869
 20
1460.42731736
 30
0.0
  0
SPLINE
  5
5D7
100
AcDbEntity
  8
6_ALL_SURFS
100
AcDbSpline
 62
7
  6
CONTINUOUS
 70
0
 71
3
 72
9
 73
5
 74
0
 42
0.0000001
 43
0.0000001
 44
0.0000000001
 40
0.0
 40
0.0
 40
0.0
 40
0.0
 40
0.4492071657
 40
1.0
 40
1.0
 40
1.0
 40
1.0
 10
2699.9872209065
 20
1257.1494791845
 30
0.0
 10
2700.6607762206
 20
1256.7595538444
 30
0.0
 10
2701.8242515049
 20
1255.3021329297
 30
0.0
 10
2702.055554716
 20
1253.528803201
 30
0.0
 10
2702.055554716
 20
1252.5745205316
 30
0.0
  0
SPLINE
  5
5D8
100
AcDbEntity
  8
0
100
AcDbSpline
 62
7
  6
CONTINUOUS
 70
0
 71
3
 72
8
 73
4
 74
0
 42
0.0000001
 43
0.0000001
 44
0.0000000001
 40
0.0
 40
0.0
 40
0.0
 40
0.0
 40
1.0
 40
1.0
 40
1.0
 40
1.0
 10
2200.5720042006
 20
1347.6468810403
 30
0.0
 10
2200.6733459481
 20
1347.1349033435
 30
0.0
 10
2200.7168468547
 20
1346.6097725551
 30
0.0
 10
2200.7168468547
 20
1346.0878613444
 30
0.0
  0
SPLINE
  5
5D9
100
AcDbEntity
  8
6_ALL_SURFS
100
AcDbSpline
 62
7
  6
CONTINUOUS
 70
0
 71
3
 72
13
 73
9
 74
0
 42
0.0000001
 43
0.0000001
 44
0.0000000001
 40
0.0
 40
0.0
 40
0.0
 40
0.0
 40
0.0871356718
 40
0.1868359544
 40
0.3045084521
 40
0.4386550364
 40
0.7301301208
 40
1.0
 40
1.0
 40
1.0
 40
1.0
 10
2699.5276944477
 20
1416.4515346479
 30
0.0
 10
2700.0268887929
 20
1416.1625479519
 30
0.0
 10
2701.2819214307
 20
1415.8394344414
 30
0.0
 10
2703.3020609209
 20
1416.2433323104
 30
0.0
 10
2705.3666757378
 20
1417.3700226676
 30
0.0
 10
2708.0749745751
 20
1419.7718334513
 30
0.0
 10
2710.6188868745
 20
1423.7033747139
 30
0.0
 10
2711.601496262
 20
1427.4071498277
 30
0.0
 10
2711.601496262
 20
1429.1935973019
 30
0.0
  0
SPLINE
  5
5DA
100
AcDbEntity
  8
6_ALL_SURFS
100
AcDbSpline
 62
7
  6
CONTINUOUS
 70
0
 71
3
 72
9
 73
5
 74
0
 42
0.0000001
 43
0.0000001
 44
0.0000000001
 40
0.0
 40
0.0
 40
0.0
 40
0.0
 40
0.2208681529
 40
1.0
 40
1.0
 40
1.0
 40
1.0
 10
2878.3362572387
 20
1315.4331660822
 30
0.0
 10
2878.4433946327
 20
1315.3713707565
 30
0.0
 10
2878.8815779415
 20
1315.0026843357
 30
0.0
 10
2879.0090267079
 20
1314.3822237773
 30
0.0
 10
2879.0090267079
 20
1313.9459268288
 30
0.0
  0
SPLINE
  5
5DB
100
AcDbEntity
  8
6_ALL_SURFS
100
AcDbSpline
 62
7
  6
CONTINUOUS
 70
0
 71
3
 72
9
 73
5
 74
0
 42
0.0000001
 43
0.0000001
 44
0.0000000001
 40
0.0
 40
0.0
 40
0.0
 40
0.0
 40
0.4492071657
 40
1.0
 40
1.0
 40
1.0
 40
1.0
 10
2558.5658646692
 20
1175.4784391734
 30
0.0
 10
2559.2394199833
 20
1175.0885138333
 30
0.0
 10
2560.4028952676
 20
1173.6310929185
 30
0.0
 10
2560.6341984786
 20
1171.8577631899
 30
0.0
 10
2560.6341984786
 20
1170.9034805205
 30
0.0
  0
SPLINE
  5
5DC
100
AcDbEntity
  8
0
100
AcDbSpline
 62
7
  6
CONTINUOUS
 70
0
 71
3
 72
8
 73
4
 74
0
 42
0.0000001
 43
0.0000001
 44
0.0000000001
 40
0.0
 40
0.0
 40
0.0
 40
0.0
 40
1.0
 40
1.0
 40
1.0
 40
1.0
 10
2370.2776316853
 20
1445.6521290537
 30
0.0
 10
2370.3789734329
 20
1445.1401513568
 30
0.0
 10
2370.4224743395
 20
1444.6150205685
 30
0.0
 10
2370.4224743395
 20
1444.0931093578
 30
0.0
  0
SPLINE
  5
5DD
100
AcDbEntity
  8
6_ALL_SURFS
100
AcDbSpline
 62
7
  6
CONTINUOUS
 70
0
 71
3
 72
13
 73
9
 74
0
 42
0.0000001
 43
0.0000001
 44
0.0000000001
 40
0.0
 40
0.0
 40
0.0
 40
0.0
 40
0.0871356718
 40
0.1868359544
 40
0.3045084521
 40
0.4386550364
 40
0.7301301208
 40
1.0
 40
1.0
 40
1.0
 40
1.0
 10
2671.2434232003
 20
1400.1173266457
 30
0.0
 10
2671.7426175454
 20
1399.8283399497
 30
0.0
 10
2672.9976501832
 20
1399.5052264392
 30
0.0
 10
2675.0177896734
 20
1399.9091243082
 30
0.0
 10
2677.0824044904
 20
1401.0358146654
 30
0.0
 10
2679.7907033277
 20
1403.437625449
 30
0.0
 10
2682.334615627
 20
1407.3691667116
 30
0.0
 10
2683.3172250145
 20
1411.0729418254
 30
0.0
 10
2683.3172250145
 20
1412.8593892997
 30
0.0
  0
SPLINE
  5
5DE
100
AcDbEntity
  8
6_ALL_SURFS
100
AcDbSpline
 62
7
  6
CONTINUOUS
 70
0
 71
3
 72
9
 73
5
 74
0
 42
0.0000001
 43
0.0000001
 44
0.0000000001
 40
0.0
 40
0.0
 40
0.0
 40
0.0
 40
0.2208989638
 40
1.0
 40
1.0
 40
1.0
 40
1.0
 10
2762.2333056979
 20
1253.663374236
 30
0.0
 10
2762.3736347236
 20
1253.5826876589
 30
0.0
 10
2762.9478186074
 20
1253.1010572369
 30
0.0
 10
2763.1145884003
 20
1252.2887469162
 30
0.0
 10
2763.1145884003
 20
1251.7178312523
 30
0.0
  0
SPLINE
  5
5DF
100
AcDbEntity
  8
6_ALL_SURFS
100
AcDbSpline
 62
7
  6
CONTINUOUS
 70
0
 71
3
 72
9
 73
5
 74
0
 42
0.0000001
 43
0.0000001
 44
0.0000000001
 40
0.0
 40
0.0
 40
0.0
 40
0.0
 40
0.2208989638
 40
1.0
 40
1.0
 40
1.0
 40
1.0
 10
2529.8399992627
 20
1309.2975056317
 30
0.0
 10
2530.0133468827
 20
1309.1978339777
 30
0.0
 10
2530.7226328568
 20
1308.6028787505
 30
0.0
 10
2530.928642601
 20
1307.5994365896
 30
0.0
 10
2530.928642601
 20
1306.8941878283
 30
0.0
  0
SPLINE
  5
5E0
100
AcDbEntity
  8
6_ALL_SURFS
100
AcDbSpline
 62
7
  6
CONTINUOUS
 70
0
 71
3
 72
13
 73
9
 74
0
 42
0.0000001
 43
0.0000001
 44
0.0000000001
 40
0.0
 40
0.0
 40
0.0
 40
0.0
 40
0.0871356718
 40
0.1868359544
 40
0.3045084521
 40
0.4386550364
 40
0.7301301208
 40
1.0
 40
1.0
 40
1.0
 40
1.0
 10
2642.9591519528
 20
1383.7831186435
 30
0.0
 10
2643.4583462979
 20
1383.4941319475
 30
0.0
 10
2644.7133789358
 20
1383.171018437
 30
0.0
 10
2646.733518426
 20
1383.5749163059
 30
0.0
 10
2648.7981332429
 20
1384.7016066631
 30
0.0
 10
2651.5064320802
 20
1387.1034174468
 30
0.0
 10
2654.0503443795
 20
1391.0349587094
 30
0.0
 10
2655.032953767
 20
1394.7387338232
 30
0.0
 10
2655.032953767
 20
1396.5251812975
 30
0.0
  0
SPLINE
  5
5E1
100
AcDbEntity
  8
6_ALL_SURFS
100
AcDbSpline
 62
7
  6
CONTINUOUS
 70
0
 71
3
 72
9
 73
5
 74
0
 42
0.0000001
 43
0.0000001
 44
0.0000000001
 40
0.0
 40
0.0
 40
0.0
 40
0.0
 40
0.4492071657
 40
1.0
 40
1.0
 40
1.0
 40
1.0
 10
2813.1243058963
 20
1322.4863111934
 30
0.0
 10
2813.7978612104
 20
1322.0963858533
 30
0.0
 10
2814.9613364948
 20
1320.6389649386
 30
0.0
 10
2815.1926397058
 20
1318.8656352099
 30
0.0
 10
2815.1926397058
 20
1317.9113525406
 30
0.0
  0
SPLINE
  5
5E2
100
AcDbEntity
  8
6_ALL_SURFS
100
AcDbSpline
 62
7
  6
CONTINUOUS
 70
0
 71
3
 72
9
 73
5
 74
0
 42
0.0000001
 43
0.0000001
 44
0.0000000001
 40
0.0
 40
0.0
 40
0.0
 40
0.0
 40
0.4492071657
 40
1.0
 40
1.0
 40
1.0
 40
1.0
 10
2671.702949659
 20
1240.8152711823
 30
0.0
 10
2672.3765049731
 20
1240.4253458422
 30
0.0
 10
2673.5399802575
 20
1238.9679249274
 30
0.0
 10
2673.7712834685
 20
1237.1945951988
 30
0.0
 10
2673.7712834685
 20
1236.2403125294
 30
0.0
  0
SPLINE
  5
5E3
100
AcDbEntity
  8
6_ALL_SURFS
100
AcDbSpline
 62
7
  6
CONTINUOUS
 70
0
 71
3
 72
13
 73
9
 74
0
 42
0.0000001
 43
0.0000001
 44
0.0000000001
 40
0.0
 40
0.0
 40
0.0
 40
0.0
 40
0.0871356718
 40
0.1868359544
 40
0.3045084521
 40
0.4386550364
 40
0.7301301208
 40
1.0
 40
1.0
 40
1.0
 40
1.0
 10
2614.6748807053
 20
1367.4489106412
 30
0.0
 10
2615.1740750505
 20
1367.1599239452
 30
0.0
 10
2616.4291076883
 20
1366.8368104347
 30
0.0
 10
2618.4492471785
 20
1367.2407083037
 30
0.0
 10
2620.5138619954
 20
1368.3673986609
 30
0.0
 10
2623.2221608328
 20
1370.7692094446
 30
0.0
 10
2625.7660731321
 20
1374.7007507072
 30
0.0
 10
2626.7486825196
 20
1378.404525821
 30
0.0
 10
2626.7486825196
 20
1380.1909732952
 30
0.0
  0
SPLINE
  5
5E4
100
AcDbEntity
  8
0
100
AcDbSpline
 62
7
  6
CONTINUOUS
 70
0
 71
3
 72
8
 73
4
 74
0
 42
0.0000001
 43
0.0000001
 44
0.0000000001
 40
0.0
 40
0.0
 40
0.0
 40
0.0
 40
1.0
 40
1.0
 40
1.0
 40
1.0
 10
2341.9933604379
 20
1429.3179210514
 30
0.0
 10
2342.0947021855
 20
1428.8059433546
 30
0.0
 10
2342.138203092
 20
1428.2808125662
 30
0.0
 10
2342.138203092
 20
1427.7589013555
 30
0.0
  0
SPLINE
  5
5E5
100
AcDbEntity
  8
6_ALL_SURFS
100
AcDbSpline
 62
7
  6
CONTINUOUS
 70
0
 71
3
 72
11
 73
7
 74
0
 42
0.0000001
 43
0.0000001
 44
0.0000000001
 40
0.0
 40
0.0
 40
0.0
 40
0.0
 40
0.2714990013
 40
0.5646992596
 40
0.816377025
 40
1.0
 40
1.0
 40
1.0
 40
1.0
 10
2593.7621511772
 20
1343.1806309053
 30
0.0
 10
2593.7621511772
 20
1342.2431073689
 30
0.0
 10
2593.2496450915
 20
1340.2930022492
 30
0.0
 10
2591.6789594707
 20
1337.9149868212
 30
0.0
 10
2589.6872756126
 20
1336.2747368907
 30
0.0
 10
2587.97586177
 20
1336.1735228729
 30
0.0
 10
2587.4261733131
 20
1336.4895835013
 30
0.0
  0
SPLINE
  5
5E6
100
AcDbEntity
  8
6_ALL_SURFS
100
AcDbSpline
 62
7
  6
CONTINUOUS
 70
0
 71
3
 72
9
 73
5
 74
0
 42
0.0000001
 43
0.0000001
 44
0.0000000001
 40
0.0
 40
0.0
 40
0.0
 40
0.0
 40
0.4492071657
 40
1.0
 40
1.0
 40
1.0
 40
1.0
 10
2530.2815934217
 20
1159.1442311711
 30
0.0
 10
2530.9551487358
 20
1158.754305831
 30
0.0
 10
2532.1186240202
 20
1157.2968849163
 30
0.0
 10
2532.3499272312
 20
1155.5235551876
 30
0.0
 10
2532.3499272312
 20
1154.5692725182
 30
0.0
  0
SPLINE
  5
5E7
100
AcDbEntity
  8
6_ALL_SURFS
100
AcDbSpline
 62
7
  6
CONTINUOUS
 70
0
 71
3
 72
11
 73
7
 74
0
 42
0.0000001
 43
0.0000001
 44
0.0000000001
 40
0.0
 40
0.0
 40
0.0
 40
0.0
 40
0.2714990013
 40
0.5646992596
 40
0.816377025
 40
1.0
 40
1.0
 40
1.0
 40
1.0
 10
2530.928642601
 20
1306.8941878283
 30
0.0
 10
2530.928642601
 20
1305.9566642919
 30
0.0
 10
2530.4161365152
 20
1304.0065591723
 30
0.0
 10
2528.8454508944
 20
1301.6285437442
 30
0.0
 10
2526.8537670364
 20
1299.9882938138
 30
0.0
 10
2525.1423531937
 20
1299.887079796
 30
0.0
 10
2524.5926647369
 20
1300.2031404243
 30
0.0
  0
SPLINE
  5
5E8
100
AcDbEntity
  8
6_ALL_SURFS
100
AcDbSpline
 62
7
  6
CONTINUOUS
 70
0
 71
3
 72
13
 73
9
 74
0
 42
0.0000001
 43
0.0000001
 44
0.0000000001
 40
0.0
 40
0.0
 40
0.0
 40
0.0
 40
0.0871356718
 40
0.1868359544
 40
0.3045084521
 40
0.4386550364
 40
0.7301301208
 40
1.0
 40
1.0
 40
1.0
 40
1.0
 10
2586.3906094579
 20
1351.114702639
 30
0.0
 10
2586.889803803
 20
1350.825715943
 30
0.0
 10
2588.1448364409
 20
1350.5026024325
 30
0.0
 10
2590.164975931
 20
1350.9065003015
 30
0.0
 10
2592.229590748
 20
1352.0331906587
 30
0.0
 10
2594.9378895853
 20
1354.4350014423
 30
0.0
 10
2597.4818018846
 20
1358.3665427049
 30
0.0
 10
2598.4644112721
 20
1362.0703178187
 30
0.0
 10
2598.4644112721
 20
1363.856765293
 30
0.0
  0
SPLINE
  5
5E9
100
AcDbEntity
  8
6_ALL_SURFS
100
AcDbSpline
 62
7
  6
CONTINUOUS
 70
0
 71
3
 72
9
 73
5
 74
0
 42
0.0000001
 43
0.0000001
 44
0.0000000001
 40
0.0
 40
0.0
 40
0.0
 40
0.0
 40
0.5507928343
 40
1.0
 40
1.0
 40
1.0
 40
1.0
 10
2711.601496262
 20
1429.1935973019
 30
0.0
 10
2711.601496262
 20
1430.1478799713
 30
0.0
 10
2711.370193051
 20
1431.9212097
 30
0.0
 10
2710.2067177666
 20
1433.3786306147
 30
0.0
 10
2709.5331624525
 20
1433.7685559548
 30
0.0
  0
SPLINE
  5
5EA
100
AcDbEntity
  8
6_ALL_SURFS
100
AcDbSpline
 62
7
  6
CONTINUOUS
 70
0
 71
3
 72
9
 73
5
 74
0
 42
0.0000001
 43
0.0000001
 44
0.0000000001
 40
0.0
 40
0.0
 40
0.0
 40
0.0
 40
0.5507928343
 40
1.0
 40
1.0
 40
1.0
 40
1.0
 10
2683.3172250145
 20
1412.8593892997
 30
0.0
 10
2683.3172250145
 20
1413.8136719691
 30
0.0
 10
2683.0859218035
 20
1415.5870016977
 30
0.0
 10
2681.9224465192
 20
1417.0444226125
 30
0.0
 10
2681.248891205
 20
1417.4343479526
 30
0.0
  0
SPLINE
  5
5EB
100
AcDbEntity
  8
0
100
AcDbSpline
 62
7
  6
CONTINUOUS
 70
0
 71
3
 72
8
 73
4
 74
0
 42
0.0000001
 43
0.0000001
 44
0.0000000001
 40
0.0
 40
0.0
 40
0.0
 40
0.0
 40
1.0
 40
1.0
 40
1.0
 40
1.0
 10
2539.9832591701
 20
1543.657377067
 30
0.0
 10
2540.0846009177
 20
1543.1453993702
 30
0.0
 10
2540.1281018242
 20
1542.6202685818
 30
0.0
 10
2540.1281018242
 20
1542.0983573712
 30
0.0
  0
SPLINE
  5
5EC
100
AcDbEntity
  8
6_ALL_SURFS
100
AcDbSpline
 62
7
  6
CONTINUOUS
 70
0
 71
3
 72
9
 73
5
 74
0
 42
0.0000001
 43
0.0000001
 44
0.0000000001
 40
0.0
 40
0.0
 40
0.0
 40
0.0
 40
0.5507928343
 40
1.0
 40
1.0
 40
1.0
 40
1.0
 10
2655.032953767
 20
1396.5251812975
 30
0.0
 10
2655.032953767
 20
1397.4794639669
 30
0.0
 10
2654.801650556
 20
1399.2527936955
 30
0.0
 10
2653.6381752717
 20
1400.7102146103
 30
0.0
 10
2652.9646199576
 20
1401.1001399504
 30
0.0
  0
SPLINE
  5
5ED
100
AcDbEntity
  8
6_ALL_SURFS
100
AcDbSpline
 62
7
  6
CONTINUOUS
 70
0
 71
3
 72
13
 73
9
 74
0
 42
0.0000001
 43
0.0000001
 44
0.0000000001
 40
0.0
 40
0.0
 40
0.0
 40
0.0
 40
0.0871356718
 40
0.1868359544
 40
0.3045084521
 40
0.4386550364
 40
0.7301301208
 40
1.0
 40
1.0
 40
1.0
 40
1.0
 10
2558.1063382104
 20
1334.7804946368
 30
0.0
 10
2558.6055325556
 20
1334.4915079408
 30
0.0
 10
2559.8605651934
 20
1334.1683944303
 30
0.0
 10
2561.8807046836
 20
1334.5722922992
 30
0.0
 10
2563.9453195005
 20
1335.6989826564
 30
0.0
 10
2566.6536183378
 20
1338.1007934401
 30
0.0
 10
2569.1975306372
 20
1342.0323347027
 30
0.0
 10
2570.1801400247
 20
1345.7361098165
 30
0.0
 10
2570.1801400247
 20
1347.5225572908
 30
0.0
  0
SPLINE
  5
5EE
100
AcDbEntity
  8
6_ALL_SURFS
100
AcDbSpline
 62
7
  6
CONTINUOUS
 70
0
 71
3
 72
9
 73
5
 74
0
 42
0.0000001
 43
0.0000001
 44
0.0000000001
 40
0.0
 40
0.0
 40
0.0
 40
0.0
 40
0.5507928343
 40
1.0
 40
1.0
 40
1.0
 40
1.0
 10
2626.7486825196
 20
1380.1909732952
 30
0.0
 10
2626.7486825196
 20
1381.1452559646
 30
0.0
 10
2626.5173793086
 20
1382.9185856933
 30
0.0
 10
2625.3539040242
 20
1384.376006608
 30
0.0
 10
2624.6803487101
 20
1384.7659319481
 30
0.0
  0
SPLINE
  5
5EF
100
AcDbEntity
  8
6_ALL_SURFS
100
AcDbSpline
 62
7
  6
CONTINUOUS
 70
0
 71
3
 72
9
 73
5
 74
0
 42
0.0000001
 43
0.0000001
 44
0.0000000001
 40
0.0
 40
0.0
 40
0.0
 40
0.0
 40
0.4492071657
 40
1.0
 40
1.0
 40
1.0
 40
1.0
 10
2784.8400346488
 20
1306.1521031912
 30
0.0
 10
2785.513589963
 20
1305.7621778511
 30
0.0
 10
2786.6770652473
 20
1304.3047569364
 30
0.0
 10
2786.9083684583
 20
1302.5314272077
 30
0.0
 10
2786.9083684583
 20
1301.5771445383
 30
0.0
  0
SPLINE
  5
5F0
100
AcDbEntity
  8
6_ALL_SURFS
100
AcDbSpline
 62
7
  6
CONTINUOUS
 70
0
 71
3
 72
9
 73
5
 74
0
 42
0.0000001
 43
0.0000001
 44
0.0000000001
 40
0.0
 40
0.0
 40
0.0
 40
0.0
 40
0.5507928343
 40
1.0
 40
1.0
 40
1.0
 40
1.0
 10
2400.4745125399
 20
1249.5173092774
 30
0.0
 10
2400.4745125399
 20
1250.4715919468
 30
0.0
 10
2400.2432093289
 20
1252.2449216754
 30
0.0
 10
2399.0797340445
 20
1253.7023425902
 30
0.0
 10
2398.4061787304
 20
1254.0922679303
 30
0.0
  0
SPLINE
  5
5F1
100
AcDbEntity
  8
6_ALL_SURFS
100
AcDbSpline
 62
7
  6
CONTINUOUS
 70
0
 71
3
 72
9
 73
5
 74
0
 42
0.0000001
 43
0.0000001
 44
0.0000000001
 40
0.0
 40
0.0
 40
0.0
 40
0.0
 40
0.5507928343
 40
1.0
 40
1.0
 40
1.0
 40
1.0
 10
2428.7587837874
 20
1265.8515172796
 30
0.0
 10
2428.7587837874
 20
1266.805799949
 30
0.0
 10
2428.5274805763
 20
1268.5791296777
 30
0.0
 10
2427.364005292
 20
1270.0365505924
 30
0.0
 10
2426.6904499779
 20
1270.4264759325
 30
0.0
  0
SPLINE
  5
5F2
100
AcDbEntity
  8
0
100
AcDbSpline
 62
7
  6
CONTINUOUS
 70
0
 71
3
 72
9
 73
5
 74
0
 42
0.0000001
 43
0.0000001
 44
0.0000000001
 40
0.0
 40
0.0
 40
0.0
 40
0.0
 40
0.240673333
 40
1.0
 40
1.0
 40
1.0
 40
1.0
 10
2585.3829358202
 20
1494.7525688983
 30
0.0
 10
2585.3829358202
 20
1494.5207725686
 30
0.0
 10
2585.2121633557
 20
1493.5688222137
 30
0.0
 10
2584.6020221764
 20
1492.6688108265
 30
0.0
 10
2583.9687222578
 20
1492.3030791976
 30
0.0
  0
SPLINE
  5
5F3
100
AcDbEntity
  8
6_ALL_SURFS
100
AcDbSpline
 62
7
  6
CONTINUOUS
 70
0
 71
3
 72
9
 73
5
 74
0
 42
0.0000001
 43
0.0000001
 44
0.0000000001
 40
0.0
 40
0.0
 40
0.0
 40
0.0
 40
0.5507928343
 40
1.0
 40
1.0
 40
1.0
 40
1.0
 10
2457.0430550348
 20
1282.1857252819
 30
0.0
 10
2457.0430550348
 20
1283.1400079512
 30
0.0
 10
2456.8117518238
 20
1284.9133376799
 30
0.0
 10
2455.6482765395
 20
1286.3707585947
 30
0.0
 10
2454.9747212253
 20
1286.7606839348
 30
0.0
  0
SPLINE
  5
5F4
100
AcDbEntity
  8
6_ALL_SURFS
100
AcDbSpline
 62
7
  6
CONTINUOUS
 70
0
 71
3
 72
13
 73
9
 74
0
 42
0.0000001
 43
0.0000001
 44
0.0000000001
 40
0.0
 40
0.0
 40
0.0
 40
0.0
 40
0.0871356718
 40
0.1868359544
 40
0.3045084521
 40
0.4386550364
 40
0.7301301208
 40
1.0
 40
1.0
 40
1.0
 40
1.0
 10
2529.822066963
 20
1318.4462866345
 30
0.0
 10
2530.3212613081
 20
1318.1572999385
 30
0.0
 10
2531.5762939459
 20
1317.834186428
 30
0.0
 10
2533.5964334361
 20
1318.238084297
 30
0.0
 10
2535.6610482531
 20
1319.3647746542
 30
0.0
 10
2538.3693470904
 20
1321.7665854379
 30
0.0
 10
2540.9132593897
 20
1325.6981267005
 30
0.0
 10
2541.8958687772
 20
1329.4019018143
 30
0.0
 10
2541.8958687772
 20
1331.1883492886
 30
0.0
  0
SPLINE
  5
5F5
100
AcDbEntity
  8
6_ALL_SURFS
100
AcDbSpline
 62
7
  6
CONTINUOUS
 70
0
 71
3
 72
9
 73
5
 74
0
 42
0.0000001
 43
0.0000001
 44
0.0000000001
 40
0.0
 40
0.0
 40
0.0
 40
0.0
 40
0.5507928343
 40
1.0
 40
1.0
 40
1.0
 40
1.0
 10
2485.3273262823
 20
1298.5199332841
 30
0.0
 10
2485.3273262823
 20
1299.4742159535
 30
0.0
 10
2485.0960230713
 20
1301.2475456821
 30
0.0
 10
2483.9325477869
 20
1302.7049665969
 30
0.0
 10
2483.2589924728
 20
1303.094891937
 30
0.0
  0
SPLINE
  5
5F6
100
AcDbEntity
  8
0
100
AcDbSpline
 62
7
  6
CONTINUOUS
 70
0
 71
3
 72
8
 73
4
 74
0
 42
0.0000001
 43
0.0000001
 44
0.0000000001
 40
0.0
 40
0.0
 40
0.0
 40
0.0
 40
1.0
 40
1.0
 40
1.0
 40
1.0
 10
2313.7090891904
 20
1412.9837130492
 30
0.0
 10
2313.810430938
 20
1412.4717353524
 30
0.0
 10
2313.8539318445
 20
1411.946604564
 30
0.0
 10
2313.8539318445
 20
1411.4246933533
 30
0.0
  0
SPLINE
  5
5F7
100
AcDbEntity
  8
6_ALL_SURFS
100
AcDbSpline
 62
7
  6
CONTINUOUS
 70
0
 71
3
 72
9
 73
5
 74
0
 42
0.0000001
 43
0.0000001
 44
0.0000000001
 40
0.0
 40
0.0
 40
0.0
 40
0.0
 40
0.5507928343
 40
1.0
 40
1.0
 40
1.0
 40
1.0
 10
2513.6115975297
 20
1314.8541412863
 30
0.0
 10
2513.6115975297
 20
1315.8084239557
 30
0.0
 10
2513.3802943187
 20
1317.5817536844
 30
0.0
 10
2512.2168190344
 20
1319.0391745991
 30
0.0
 10
2511.5432637202
 20
1319.4290999392
 30
0.0
  0
SPLINE
  5
5F8
100
AcDbEntity
  8
6_ALL_SURFS
100
AcDbSpline
 62
7
  6
CONTINUOUS
 70
0
 71
3
 72
10
 73
6
 74
0
 42
0.0000001
 43
0.0000001
 44
0.0000000001
 40
0.0
 40
0.0
 40
0.0
 40
0.0
 40
0.4227055693
 40
0.7224160716
 40
1.0
 40
1.0
 40
1.0
 40
1.0
 10
2508.0736022612
 20
1091.2927766888
 30
0.0
 10
2508.8516443808
 20
1090.8454739681
 30
0.0
 10
2510.674738937
 20
1091.9369320131
 30
0.0
 10
2511.7061064529
 20
1093.6739306055
 30
0.0
 10
2512.0559626111
 20
1094.9095329508
 30
0.0
 10
2512.0559626111
 20
1095.4988785572
 30
0.0
  0
SPLINE
  5
5F9
100
AcDbEntity
  8
6_ALL_SURFS
100
AcDbSpline
 62
7
  6
CONTINUOUS
 70
0
 71
3
 72
9
 73
5
 74
0
 42
0.0000001
 43
0.0000001
 44
0.0000000001
 40
0.0
 40
0.0
 40
0.0
 40
0.0
 40
0.5507928343
 40
1.0
 40
1.0
 40
1.0
 40
1.0
 10
2541.8958687772
 20
1331.1883492886
 30
0.0
 10
2541.8958687772
 20
1332.1426319579
 30
0.0
 10
2541.6645655662
 20
1333.9159616866
 30
0.0
 10
2540.5010902818
 20
1335.3733826013
 30
0.0
 10
2539.8275349677
 20
1335.7633079415
 30
0.0
  0
SPLINE
  5
5FA
100
AcDbEntity
  8
6_ALL_SURFS
100
AcDbSpline
 62
7
  6
CONTINUOUS
 70
0
 71
3
 72
9
 73
5
 74
0
 42
0.0000001
 43
0.0000001
 44
0.0000000001
 40
0.0
 40
0.0
 40
0.0
 40
0.0
 40
0.4492071657
 40
1.0
 40
1.0
 40
1.0
 40
1.0
 10
2869.6928483912
 20
1355.1547271979
 30
0.0
 10
2870.3664037054
 20
1354.7648018578
 30
0.0
 10
2871.5298789897
 20
1353.3073809431
 30
0.0
 10
2871.7611822007
 20
1351.5340512144
 30
0.0
 10
2871.7611822007
 20
1350.579768545
 30
0.0
  0
SPLINE
  5
5FB
100
AcDbEntity
  8
6_ALL_SURFS
100
AcDbSpline
 62
7
  6
CONTINUOUS
 70
0
 71
3
 72
9
 73
5
 74
0
 42
0.0000001
 43
0.0000001
 44
0.0000000001
 40
0.0
 40
0.0
 40
0.0
 40
0.0
 40
0.5507928343
 40
1.0
 40
1.0
 40
1.0
 40
1.0
 10
2570.1801400247
 20
1347.5225572908
 30
0.0
 10
2570.1801400247
 20
1348.4768399602
 30
0.0
 10
2569.9488368137
 20
1350.2501696888
 30
0.0
 10
2568.7853615293
 20
1351.7075906036
 30
0.0
 10
2568.1118062152
 20
1352.0975159437
 30
0.0
  0
SPLINE
  5
5FC
100
AcDbEntity
  8
0
100
AcDbSpline
 62
7
  6
CONTINUOUS
 70
0
 71
3
 72
8
 73
4
 74
0
 42
0.0000001
 43
0.0000001
 44
0.0000000001
 40
0.0
 40
0.0
 40
0.0
 40
0.0
 40
1.0
 40
1.0
 40
1.0
 40
1.0
 10
2285.424817943
 20
1396.649505047
 30
0.0
 10
2285.5261596905
 20
1396.1375273501
 30
0.0
 10
2285.5696605971
 20
1395.6123965618
 30
0.0
 10
2285.5696605971
 20
1395.0904853511
 30
0.0
  0
SPLINE
  5
5FD
100
AcDbEntity
  8
6_ALL_SURFS
100
AcDbSpline
 62
7
  6
CONTINUOUS
 70
0
 71
3
 72
9
 73
5
 74
0
 42
0.0000001
 43
0.0000001
 44
0.0000000001
 40
0.0
 40
0.0
 40
0.0
 40
0.0
 40
0.5507928343
 40
1.0
 40
1.0
 40
1.0
 40
1.0
 10
2598.4644112721
 20
1363.856765293
 30
0.0
 10
2598.4644112721
 20
1364.8110479624
 30
0.0
 10
2598.2331080611
 20
1366.5843776911
 30
0.0
 10
2597.0696327768
 20
1368.0417986058
 30
0.0
 10
2596.3960774626
 20
1368.4317239459
 30
0.0
  0
ENDSEC
  0
SECTION
  2
OBJECTS
  0
DICTIONARY
  5
C
100
AcDbDictionary
280
0
281
1
  3
ACAD_GROUP
350
D
  3
ACAD_MLINESTYLE
350
17
  3
ACAD_LAYOUT
350
1A
  3
ACAD_PLOTSETTINGS
350
19
  3
ACAD_PLOTSTYLENAME
350
E
  0
DICTIONARY
  5
D
102
{ACAD_REACTORS
330
C
102
}
100
AcDbDictionary
280
0
281
1
  0
ACDBDICTIONARYWDFLT
  5
E
102
{ACAD_REACTORS
330
C
102
}
100
AcDbDictionary
281
1
  3
Normal
350
F
100
AcDbDictionaryWithDefault
340
F
  0
DICTIONARY
  5
17
102
{ACAD_REACTORS
330
C
102
}
100
AcDbDictionary
280
0
281
1
  3
Standard
350
18
  0
DICTIONARY
  5
19
102
{ACAD_REACTORS
330
C
102
}
100
AcDbDictionary
281
1
  0
DICTIONARY
  5
1A
102
{ACAD_REACTORS
330
C
102
}
100
AcDbDictionary
281
1
  3
Model
350
5FE
  3
Layout1
350
5FF
  0
ACDBPLACEHOLDER
  5
F
102
{ACAD_REACTORS
330
E
102
}
  0
MLINESTYLE
  5
18
102
{ACAD_REACTORS
330
17
102
}
100
AcDbMlineStyle
  2
STANDARD
 70
0
  3

 62
256
 51
90.0
 52
90.0
 71
2
 49
0.5
 62
256
  6
BYLAYER
 49
-0.5
 62
256
  6
BYLAYER
  0
LAYOUT
  5
5FE
102
{ACAD_REACTORS
330
1A
102
}
100
AcDbPlotSettings
  1

  2
none_device
  4

  6

 40
0.0
 41
0.0
 42
0.0
 43
0.0
 44
431.8
 45
279.4
 46
0.0
 47
0.0
 48
0.0
 49
0.0
140
0.0
141
0.0
142
1.0
143
1.0
 70
1024
 72
1
 73
0
 74
0
  7

 75
0
147
1.0
148
0.0
149
0.0
100
AcDbLayout
  1
Model
 70
0
 71
0
 10
0.0
 20
0.0
 11
431.8
 21
279.4
 12
0.0
 22
0.0
 32
0.0
 14
0.0
 24
0.0
 34
0.0
 15
0.0
 25
0.0
 35
0.0
146
0.0
 13
0.0
 23
0.0
 33
0.0
 16
1.0
 26
0.0
 36
0.0
 17
0.0
 27
1.0
 37
0.0
 76
0
330
212
345
0
346
0
  0
LAYOUT
  5
5FF
102
{ACAD_REACTORS
330
1A
102
}
100
AcDbPlotSettings
  1

  2
none_device
  4

  6

 40
0.0
 41
0.0
 42
0.0
 43
0.0
 44
431.8
 45
279.4
 46
0.0
 47
0.0
 48
0.0
 49
0.0
140
0.0
141
0.0
142
1.0
143
1.0
 70
0
 72
1
 73
0
 74
0
  7

 75
0
147
1.0
148
0.0
149
0.0
100
AcDbLayout
  1
Layout1
 70
0
 71
1
 10
0.0
 20
0.0
 11
431.8
 21
279.4
 12
0.0
 22
0.0
 32
0.0
 14
0.0
 24
0.0
 34
0.0
 15
0.0
 25
0.0
 35
0.0
146
0.0
 13
0.0
 23
0.0
 33
0.0
 16
1.0
 26
0.0
 36
0.0
 17
0.0
 27
1.0
 37
0.0
 76
0
330
213
345
0
346
0
  0
ENDSEC
  0
EOF
