999
DXF file: Z:\L&T Project Work\active E110\FOR RELEASE\fg-901181-2d-A.dxf
999
Pro/ENGINEER 2016130 by Parametric Technology Corporation
  0
SECTION
  2
HEADER
  9
$ACADVER
  1
AC1015
  9
$DWGCODEPAGE
  3
ANSI_1252
  9
$EXTMAX
 10
68.0
 20
44.0
 30
0.0
  9
$EXTMIN
 10
0.0
 20
0.0
 30
0.0
  9
$LIMMIN
 10
0.0
 20
0.0
  9
$LIMMAX
 10
68.0
 20
44.0
  9
$VIEWCTR
 10
34.0
 20
22.0
  9
$VIEWSIZE
 40
44.0
  9
$CLAYER
  8
0
  9
$LTSCALE
 40
3.74
  9
$CELTYPE
  6
BYLAYER
  9
$DIMSCALE
 40
1.0
  9
$DIMASZ
 40
0.375
  9
$DIMEXO
 40
0.0625
  9
$DIMDLI
 40
2.584
  9
$DIMEXE
 40
0.125
  9
$DIMCEN
 40
0.612
  9
$DIMLFAC
 40
1.0
  9
$DIMBLK
  1
_FILLED
  9
$DIMALT
 70
0
  9
$DIMALTF
 40
25.4
  9
$DIMTXT
 40
0.3125
  9
$DIMTOL
 70
1
  9
$DIMLIM
 70
0
  9
$DIMTFAC
 40
1.0
  9
$DIMTP
 40
0.02
  9
$DIMTM
 40
0.02
  9
$DIMGAP
 40
0.09
  9
$DIMDSEP
 70
46
  9
$AUNITS
 70
0
  9
$PDMODE
 70
3
  9
$PDSIZE
 40
0.3125
  9
$HANDSEED
  5
4F4
  9
$TILEMODE
 70
1
  9
$MEASUREMENT
 70
0
  9
$INSUNITS
 70
1
  0
ENDSEC
  0
SECTION
  2
CLASSES
  0
CLASS
  1
ACDBDICTIONARYWDFLT
  2
AcDbDictionaryWithDefault
  3
AutoCAD 2000
 90
0
280
0
281
0
  0
CLASS
  1
ACDBPLACEHOLDER
  2
AcDbPlaceHolder
  3
AutoCAD 2000
 90
0
280
0
281
0
  0
CLASS
  1
LAYOUT
  2
AcDbLayout
  3
AutoCAD 2000
 90
0
280
0
281
0
  0
ENDSEC
  0
SECTION
  2
TABLES
  0
TABLE
  2
VPORT
  5
8
100
AcDbSymbolTable
 70
2
  0
VPORT
  5
1F4
100
AcDbSymbolTableRecord
100
AcDbViewportTableRecord
  2
*ACTIVE
 70
0
 10
0.0
 20
0.0
 11
1.0
 21
1.0
 12
34.0
 22
22.0
 13
0.0
 23
0.0
 14
1.0
 24
1.0
 15
0.0
 25
0.0
 16
0.0
 26
0.0
 36
1.0
 17
0.0
 27
0.0
 37
0.0
 40
44.0
 41
1.5454545455
 42
50.0
 43
0.0
 44
0.0
 50
0.0
 51
0.0
 71
0
 72
100
 73
1
 74
1
 75
0
 76
0
 77
0
 78
0
  0
ENDTAB
  0
TABLE
  2
LTYPE
  5
5
100
AcDbSymbolTable
 70
6
  0
LTYPE
  5
14
100
AcDbSymbolTableRecord
100
AcDbLinetypeTableRecord
  2
BYBLOCK
 70
0
  3

 72
65
 73
0
 40
0.0
  0
LTYPE
  5
15
100
AcDbSymbolTableRecord
100
AcDbLinetypeTableRecord
  2
BYLAYER
 70
0
  3

 72
65
 73
0
 40
0.0
  0
LTYPE
  5
16
100
AcDbSymbolTableRecord
100
AcDbLinetypeTableRecord
  2
CONTINUOUS
 70
64
  3
Solid line
 72
65
 73
0
 40
0.0
  0
LTYPE
  5
1F5
100
AcDbSymbolTableRecord
100
AcDbLinetypeTableRecord
  2
CENTER
 70
64
  3
____ _ ____ _ ____ _ ____ _ ____ _ ____ _ ____
 72
65
 73
4
 40
0.6
 49
0.375
 74
0
 49
-0.075
 74
0
 49
0.075
 74
0
 49
-0.075
 74
0
  0
LTYPE
  5
1F6
100
AcDbSymbolTableRecord
100
AcDbLinetypeTableRecord
  2
HIDDEN
 70
64
  3
- - - - - - - - - - - - - - - - - - - -
 72
65
 73
2
 40
0.2
 49
0.1
 74
0
 49
-0.1
 74
0
  0
LTYPE
  5
1F7
100
AcDbSymbolTableRecord
100
AcDbLinetypeTableRecord
  2
PHANTOM
 70
64
  3
_____ _ _ _____ _ _ _____ _ _ _____
 72
65
 73
6
 40
0.8
 49
0.45
 74
0
 49
-0.05
 74
0
 49
0.1
 74
0
 49
-0.05
 74
0
 49
0.1
 74
0
 49
-0.05
 74
0
  0
LTYPE
  5
1F8
100
AcDbSymbolTableRecord
100
AcDbLinetypeTableRecord
  2
DOT
 70
64
  3
. . . . . . . . . . . . . . . . . . . .
 72
65
 73
2
 40
0.2
 49
0.1
 74
0
 49
-0.1
 74
0
  0
LTYPE
  5
1F9
100
AcDbSymbolTableRecord
100
AcDbLinetypeTableRecord
  2
DASHED
 70
64
  3
- - - - - - - - - - - - - - - - - - - -
 72
65
 73
2
 40
0.2
 49
0.1
 74
0
 49
-0.1
 74
0
  0
ENDTAB
  0
TABLE
  2
LAYER
  5
2
100
AcDbSymbolTable
 70
36
  0
LAYER
  5
10
100
AcDbSymbolTableRecord
100
AcDbLayerTableRecord
  2
0
 70
0
 62
7
  6
CONTINUOUS
370
-3
390
F
  0
LAYER
  5
1FA
100
AcDbSymbolTableRecord
100
AcDbLayerTableRecord
  2
DEFAULT_1
 70
0
 62
7
  6
CENTER
370
-3
390
F
  0
LAYER
  5
1FB
100
AcDbSymbolTableRecord
100
AcDbLayerTableRecord
  2
DEFAULT_2
 70
0
 62
8
  6
HIDDEN
370
-3
390
F
  0
LAYER
  5
1FC
100
AcDbSymbolTableRecord
100
AcDbLayerTableRecord
  2
DEFAULT_3
 70
0
 62
7
  6
PHANTOM
370
-3
390
F
  0
LAYER
  5
1FD
100
AcDbSymbolTableRecord
100
AcDbLayerTableRecord
  2
1_ALL_PLANES
 70
0
 62
7
  6
CONTINUOUS
370
-3
390
F
  0
LAYER
  5
1FE
100
AcDbSymbolTableRecord
100
AcDbLayerTableRecord
  2
1__DEF_PLANES
 70
0
 62
7
  6
CONTINUOUS
370
-3
390
F
  0
LAYER
  5
1FF
100
AcDbSymbolTableRecord
100
AcDbLayerTableRecord
  2
2_ALL_CSYS
 70
0
 62
7
  6
CONTINUOUS
370
-3
390
F
  0
LAYER
  5
200
100
AcDbSymbolTableRecord
100
AcDbLayerTableRecord
  2
2__DEF_CSYS
 70
0
 62
7
  6
CONTINUOUS
370
-3
390
F
  0
LAYER
  5
201
100
AcDbSymbolTableRecord
100
AcDbLayerTableRecord
  2
3_ALL_AXES
 70
0
 62
7
  6
CONTINUOUS
370
-3
390
F
  0
LAYER
  5
202
100
AcDbSymbolTableRecord
100
AcDbLayerTableRecord
  2
3_AXES_OTHER
 70
0
 62
7
  6
CONTINUOUS
370
-3
390
F
  0
LAYER
  5
203
100
AcDbSymbolTableRecord
100
AcDbLayerTableRecord
  2
3_HOLES
 70
0
 62
7
  6
CONTINUOUS
370
-3
390
F
  0
LAYER
  5
204
100
AcDbSymbolTableRecord
100
AcDbLayerTableRecord
  2
4_ALL_POINTS
 70
0
 62
7
  6
CONTINUOUS
370
-3
390
F
  0
LAYER
  5
205
100
AcDbSymbolTableRecord
100
AcDbLayerTableRecord
  2
5_ALL_CURVES
 70
0
 62
7
  6
CONTINUOUS
370
-3
390
F
  0
LAYER
  5
206
100
AcDbSymbolTableRecord
100
AcDbLayerTableRecord
  2
6_ALL_SURFS
 70
0
 62
7
  6
CONTINUOUS
370
-3
390
F
  0
LAYER
  5
207
100
AcDbSymbolTableRecord
100
AcDbLayerTableRecord
  2
6_COPYGEOM
 70
0
 62
7
  6
CONTINUOUS
370
-3
390
F
  0
LAYER
  5
208
100
AcDbSymbolTableRecord
100
AcDbLayerTableRecord
  2
7_ALL_ROUNDS
 70
0
 62
7
  6
CONTINUOUS
370
-3
390
F
  0
LAYER
  5
209
100
AcDbSymbolTableRecord
100
AcDbLayerTableRecord
  2
7_MERGES
 70
0
 62
7
  6
CONTINUOUS
370
-3
390
F
  0
LAYER
  5
20A
100
AcDbSymbolTableRecord
100
AcDbLayerTableRecord
  2
8_GDT
 70
0
 62
7
  6
CONTINUOUS
370
-3
390
F
  0
LAYER
  5
20B
100
AcDbSymbolTableRecord
100
AcDbLayerTableRecord
  2
8_SET_DATUMS
 70
0
 62
7
  6
CONTINUOUS
370
-3
390
F
  0
LAYER
  5
20C
100
AcDbSymbolTableRecord
100
AcDbLayerTableRecord
  2
9_COSMETICS
 70
0
 62
7
  6
CONTINUOUS
370
-3
390
F
  0
LAYER
  5
20D
100
AcDbSymbolTableRecord
100
AcDbLayerTableRecord
  2
9_THREADS
 70
0
 62
7
  6
CONTINUOUS
370
-3
390
F
  0
ENDTAB
  0
TABLE
  2
STYLE
  5
3
100
AcDbSymbolTable
 70
1
  0
STYLE
  5
11
100
AcDbSymbolTableRecord
100
AcDbTextStyleTableRecord
  2
STANDARD
 70
0
 40
0.0
 41
0.8
 50
0.0
 71
0
 42
0.2
  3
txt
  4

  0
STYLE
  5
20E
100
AcDbSymbolTableRecord
100
AcDbTextStyleTableRecord
  2
TEXTSTYLE_1
 70
0
 40
0.0
 41
0.8
 50
0.0
 71
0
 42
0.2
  3
gdt
  4

  0
STYLE
  5
20F
100
AcDbSymbolTableRecord
100
AcDbTextStyleTableRecord
  2
TEXTSTYLE_2
 70
0
 40
0.0
 41
0.8
 50
0.0
 71
0
 42
0.2
  3
txt
  4

  0
ENDTAB
  0
TABLE
  2
VIEW
  5
6
100
AcDbSymbolTable
 70
0
  0
ENDTAB
  0
TABLE
  2
UCS
  5
7
100
AcDbSymbolTable
 70
0
  0
ENDTAB
  0
TABLE
  2
APPID
  5
9
100
AcDbSymbolTable
 70
1
  0
APPID
  5
210
100
AcDbSymbolTableRecord
100
AcDbRegAppTableRecord
  2
ACAD
 70
0
  0
ENDTAB
  0
TABLE
  2
BLOCK_RECORD
  5
1
100
AcDbSymbolTable
 70
0
  0
BLOCK_RECORD
  5
211
100
AcDbSymbolTableRecord
100
AcDbBlockTableRecord
  2
*Model_Space
  0
BLOCK_RECORD
  5
212
100
AcDbSymbolTableRecord
100
AcDbBlockTableRecord
  2
*Paper_Space
  0
BLOCK_RECORD
  5
213
100
AcDbSymbolTableRecord
100
AcDbBlockTableRecord
  2
_FILLED
  0
BLOCK_RECORD
  5
214
100
AcDbSymbolTableRecord
100
AcDbBlockTableRecord
  2
*D0
  0
BLOCK_RECORD
  5
215
100
AcDbSymbolTableRecord
100
AcDbBlockTableRecord
  2
*D1
  0
BLOCK_RECORD
  5
216
100
AcDbSymbolTableRecord
100
AcDbBlockTableRecord
  2
*D2
  0
BLOCK_RECORD
  5
217
100
AcDbSymbolTableRecord
100
AcDbBlockTableRecord
  2
*D3
  0
BLOCK_RECORD
  5
218
100
AcDbSymbolTableRecord
100
AcDbBlockTableRecord
  2
*D4
  0
BLOCK_RECORD
  5
219
100
AcDbSymbolTableRecord
100
AcDbBlockTableRecord
  2
*D5
  0
BLOCK_RECORD
  5
21A
100
AcDbSymbolTableRecord
100
AcDbBlockTableRecord
  2
*D6
  0
BLOCK_RECORD
  5
21B
100
AcDbSymbolTableRecord
100
AcDbBlockTableRecord
  2
*D7
  0
BLOCK_RECORD
  5
21C
100
AcDbSymbolTableRecord
100
AcDbBlockTableRecord
  2
*D8
  0
BLOCK_RECORD
  5
21D
100
AcDbSymbolTableRecord
100
AcDbBlockTableRecord
  2
*D9
  0
BLOCK_RECORD
  5
21E
100
AcDbSymbolTableRecord
100
AcDbBlockTableRecord
  2
*D10
  0
BLOCK_RECORD
  5
21F
100
AcDbSymbolTableRecord
100
AcDbBlockTableRecord
  2
*D11
  0
BLOCK_RECORD
  5
220
100
AcDbSymbolTableRecord
100
AcDbBlockTableRecord
  2
*D12
  0
BLOCK_RECORD
  5
221
100
AcDbSymbolTableRecord
100
AcDbBlockTableRecord
  2
RD010411_BL0
  0
ENDTAB
  0
TABLE
  2
DIMSTYLE
  5
A
100
AcDbSymbolTable
 70
1
100
AcDbDimStyleTable
 71
0
  0
DIMSTYLE
105
222
100
AcDbSymbolTableRecord
100
AcDbDimStyleTableRecord
  2
STANDARD
 70
0
  3

  4

 40
1.0
 41
0.375
 42
0.0625
 43
0.38
 44
0.125
 45
0.0
 46
0.0
 47
0.02
 48
0.02
140
0.3125
141
0.09
142
0.0
143
25.4
144
1.0
145
0.0
146
1.0
147
0.09
 71
1.0
 72
0.0
 73
1
 74
1
 75
0
 76
0
 77
0
 78
0
170
0
171
2
172
0
173
0
174
0
175
0
176
0
177
0
178
0
270
2
271
2
272
2
273
2
274
2
275
0
280
0
281
0
282
0
283
1
284
0
285
0
286
0
287
3
288
0
340
11
278
46
341
213
342
213
343
213
344
213
  0
DIMSTYLE
105
223
100
AcDbSymbolTableRecord
100
AcDbDimStyleTableRecord
  2
DIMSTYLE_1
 70
0
  3

  4

 40
1.0
 41
0.375
 42
0.0625
 43
0.38
 44
0.125
 45
0.0
 46
0.0
 47
0.01
 48
0.01
140
0.3125
141
0.09
142
0.0
143
25.4
144
1.0
145
0.0
146
1.0
147
0.078125
 71
0.0
 72
0.0
 73
1
 74
1
 75
0
 76
0
 77
0
 78
0
170
0
171
2
172
0
173
0
174
0
175
0
176
0
177
0
178
0
270
2
271
1
272
1
273
2
274
2
275
0
280
0
281
0
282
0
283
1
284
0
285
0
286
0
287
3
288
0
340
11
278
46
341
213
342
213
343
213
344
213
  0
DIMSTYLE
105
224
100
AcDbSymbolTableRecord
100
AcDbDimStyleTableRecord
  2
DIMSTYLE_2
 70
0
  3

  4

 40
1.0
 41
0.375
 42
0.0625
 43
0.38
 44
0.125
 45
0.0
 46
0.0
 47
0.1
 48
0.1
140
0.3125
141
0.09
142
0.0
143
25.4
144
1.0
145
0.0
146
1.0
147
0.078125
 71
0.0
 72
0.0
 73
1
 74
1
 75
0
 76
0
 77
0
 78
0
170
0
171
2
172
0
173
0
174
0
175
0
176
0
177
0
178
0
270
2
271
1
272
1
273
2
274
2
275
0
280
0
281
0
282
0
283
1
284
0
285
0
286
0
287
3
288
0
340
11
278
46
341
213
342
213
343
213
344
213
  0
DIMSTYLE
105
225
100
AcDbSymbolTableRecord
100
AcDbDimStyleTableRecord
  2
DIMSTYLE_3
 70
0
  3
<>
  4

 40
1.0
 41
0.375
 42
0.0625
 43
0.38
 44
0.125
 45
0.0
 46
0.0
 47
0.1
 48
0.1
140
0.3125
141
0.09
142
0.0
143
25.4
144
1.0
145
0.0
146
1.0
147
0.09
 71
0.0
 72
0.0
 73
1
 74
1
 75
0
 76
0
 77
0
 78
0
170
0
171
2
172
0
173
0
174
0
175
0
176
0
177
0
178
0
270
2
271
1
272
1
273
2
274
2
275
0
280
0
281
0
282
0
283
1
284
0
285
0
286
0
287
3
288
1
340
11
278
46
289
2
341
213
342
213
343
213
344
213
  0
DIMSTYLE
105
226
100
AcDbSymbolTableRecord
100
AcDbDimStyleTableRecord
  2
DIMSTYLE_4
 70
0
  3

  4

 40
1.0
 41
0.375
 42
0.0625
 43
0.38
 44
0.125
 45
0.0
 46
0.0
 47
0.001
 48
0.001
140
0.3125
141
0.09
142
0.0
143
25.4
144
1.0
145
0.0
146
1.0
147
0.078125
 71
0.0
 72
0.0
 73
1
 74
1
 75
0
 76
0
 77
0
 78
0
170
0
171
2
172
0
173
0
174
0
175
0
176
0
177
0
178
0
270
2
271
1
272
1
273
2
274
2
275
0
280
0
281
0
282
0
283
1
284
0
285
0
286
0
287
3
288
0
340
11
278
46
341
213
342
213
343
213
344
213
  0
DIMSTYLE
105
227
100
AcDbSymbolTableRecord
100
AcDbDimStyleTableRecord
  2
DIMSTYLE_5
 70
0
  3
<>
  4

 40
1.0
 41
0.375
 42
0.0625
 43
0.38
 44
0.125
 45
0.0
 46
0.0
 47
0.001
 48
0.001
140
0.3125
141
0.09
142
0.0
143
25.4
144
1.0
145
0.0
146
1.0
147
0.09
 71
0.0
 72
0.0
 73
1
 74
1
 75
0
 76
0
 77
0
 78
0
170
0
171
2
172
0
173
0
174
0
175
0
176
0
177
0
178
0
270
2
271
1
272
1
273
2
274
2
275
0
280
0
281
0
282
0
283
1
284
0
285
0
286
0
287
3
288
1
340
11
278
46
289
2
341
213
342
213
343
213
344
213
  0
ENDTAB
  0
ENDSEC
  0
SECTION
  2
BLOCKS
  0
BLOCK
  5
20
100
AcDbEntity
  8
0
100
AcDbBlockBegin
  2
*Model_Space
 70
0
 10
0.0
 20
0.0
 30
0.0
  3
*Model_Space
  1

  0
ENDBLK
  5
21
100
AcDbEntity
  8
0
100
AcDbBlockEnd
  0
BLOCK
  5
1C
100
AcDbEntity
  8
0
100
AcDbBlockBegin
  2
*Paper_Space
 70
0
 10
0.0
 20
0.0
 30
0.0
  3
*Paper_Space
  1

  0
ENDBLK
  5
1D
100
AcDbEntity
  8
0
100
AcDbBlockEnd
  0
BLOCK
  5
228
100
AcDbEntity
  8
0
100
AcDbBlockBegin
 62
7
  6
CONTINUOUS
  2
RD010411_BL0
 70
64
 10
57.7776405976
 20
5.4022213303
  3
RD010411_BL0
  1

  0
ARC
  5
229
100
AcDbEntity
  8
0
100
AcDbCircle
 62
7
  6
CONTINUOUS
 10
59.0819637369
 20
5.6029752454
 40
0.0247430265
100
AcDbArc
 50
270.0
 51
360.0
  0
LINE
  5
22A
100
AcDbEntity
  8
0
100
AcDbLine
 62
7
  6
CONTINUOUS
 10
59.1067067634
 20
5.6029752454
 11
59.1067067634
 21
5.6524783038
  0
ARC
  5
22B
100
AcDbEntity
  8
0
100
AcDbCircle
 62
7
  6
CONTINUOUS
 10
59.0819637369
 20
5.6524783038
 40
0.0247430265
100
AcDbArc
 50
0.0
 51
90.0
  0
LINE
  5
22C
100
AcDbEntity
  8
0
100
AcDbLine
 62
7
  6
CONTINUOUS
 10
59.0819637369
 20
5.6772213303
 11
58.4167770725
 21
5.6772213303
  0
SPLINE
  5
22D
100
AcDbEntity
  8
0
100
AcDbSpline
 62
7
  6
CONTINUOUS
 70
0
 71
3
 72
13
 73
9
 74
0
 42
0.0000001
 43
0.0000001
 44
0.0000000001
 40
0.0
 40
0.0
 40
0.0
 40
0.0
 40
0.1310616762
 40
0.2699656353
 40
0.4157607805
 40
0.5899807757
 40
0.76586761
 40
0.9948829976
 40
0.9948829976
 40
0.9948829976
 40
0.9948829976
 10
58.4167770725
 20
5.6772213303
 30
0.0
 10
58.4027942434
 20
5.67617988
 30
0.0
 10
58.3739919011
 20
5.6740346626
 30
0.0
 10
58.3349589914
 20
5.6498476469
 30
0.0
 10
58.3069380201
 20
5.6092420039
 30
0.0
 10
58.2887173369
 20
5.5595902407
 30
0.0
 10
58.2784543356
 20
5.4988951451
 30
0.0
 10
58.2775093907
 20
5.4560069247
 30
0.0
 10
58.2770196478
 20
5.431745876
 30
0.0
  0
LINE
  5
22E
100
AcDbEntity
  8
0
100
AcDbLine
 62
7
  6
CONTINUOUS
 10
58.2770196478
 20
5.431745876
 11
58.2770630744
 21
5.4279810182
  0
SPLINE
  5
22F
100
AcDbEntity
  8
0
100
AcDbSpline
 62
7
  6
CONTINUOUS
 70
0
 71
3
 72
13
 73
9
 74
0
 42
0.0000001
 43
0.0000001
 44
0.0000000001
 40
0.0
 40
0.0
 40
0.0
 40
0.0
 40
0.2222860645
 40
0.3981728988
 40
0.572392894
 40
0.7181880393
 40
0.8570919984
 40
0.9881536746
 40
0.9881536746
 40
0.9881536746
 40
0.9881536746
 10
58.2770630744
 20
5.4279810182
 30
0.0
 10
58.2775431653
 20
5.4044331609
 30
0.0
 10
58.2785733793
 20
5.362265561
 30
0.0
 10
58.2887173285
 20
5.3022740315
 30
0.0
 10
58.3069382299
 20
5.2526278213
 30
0.0
 10
58.3349583272
 20
5.2120049453
 30
0.0
 10
58.3739942159
 20
5.1878757469
 30
0.0
 10
58.4027895362
 20
5.1855943884
 30
0.0
 10
58.4167770725
 20
5.1845525879
 30
0.0
  0
LINE
  5
230
100
AcDbEntity
  8
0
100
AcDbLine
 62
7
  6
CONTINUOUS
 10
58.4167770725
 20
5.1845525879
 11
59.082017741
 21
5.1860045433
  0
ARC
  5
231
100
AcDbEntity
  8
0
100
AcDbCircle
 62
7
  6
CONTINUOUS
 10
59.0819637369
 20
5.2107475108
 40
0.0247430265
100
AcDbArc
 50
270.125053868
 51
360.0
  0
LINE
  5
232
100
AcDbEntity
  8
0
100
AcDbLine
 62
7
  6
CONTINUOUS
 10
59.1067067634
 20
5.2107475108
 11
59.1067067634
 21
5.2583178693
  0
ARC
  5
233
100
AcDbEntity
  8
0
100
AcDbCircle
 62
7
  6
CONTINUOUS
 10
59.0819637369
 20
5.2583178693
 40
0.0247430265
100
AcDbArc
 50
0.0
 51
90.0
  0
LINE
  5
234
100
AcDbEntity
  8
0
100
AcDbLine
 62
7
  6
CONTINUOUS
 10
59.0819637369
 20
5.2830608959
 11
58.5118078505
 21
5.2830608959
  0
LINE
  5
235
100
AcDbEntity
  8
0
100
AcDbLine
 62
7
  6
CONTINUOUS
 10
58.487064824
 20
5.3078039224
 11
58.487064824
 21
5.5534891923
  0
ARC
  5
236
100
AcDbEntity
  8
0
100
AcDbCircle
 62
7
  6
CONTINUOUS
 10
58.5118078507
 20
5.5534891923
 40
0.0247430265
100
AcDbArc
 50
90.0
 51
180.0
  0
LINE
  5
237
100
AcDbEntity
  8
0
100
AcDbLine
 62
7
  6
CONTINUOUS
 10
58.5118078505
 20
5.5782322189
 11
59.0819637369
 21
5.5782322189
  0
LINE
  5
238
100
AcDbEntity
  8
0
100
AcDbLine
 62
7
  6
CONTINUOUS
 10
57.495169266
 20
5.3809262012
 11
57.9703931345
 21
5.3809262012
  0
ARC
  5
239
100
AcDbEntity
  8
0
100
AcDbCircle
 62
7
  6
CONTINUOUS
 10
57.9703931344
 20
5.3561831747
 40
0.0247430265
100
AcDbArc
 50
0.0
 51
90.0
  0
LINE
  5
23A
100
AcDbEntity
  8
0
100
AcDbLine
 62
7
  6
CONTINUOUS
 10
57.995136161
 20
5.3561831746
 11
57.995136161
 21
5.3056604702
  0
LINE
  5
23B
100
AcDbEntity
  8
0
100
AcDbLine
 62
7
  6
CONTINUOUS
 10
57.9703931345
 20
5.2809174437
 11
57.4164328547
 21
5.2809174437
  0
ARC
  5
23C
100
AcDbEntity
  8
0
100
AcDbCircle
 62
7
  6
CONTINUOUS
 10
57.4164328547
 20
5.2561744171
 40
0.0247430265
100
AcDbArc
 50
90.0
 51
180.0
  0
LINE
  5
23D
100
AcDbEntity
  8
0
100
AcDbLine
 62
7
  6
CONTINUOUS
 10
57.3916898282
 20
5.2561744171
 11
57.3916898282
 21
5.2092953647
  0
ARC
  5
23E
100
AcDbEntity
  8
0
100
AcDbCircle
 62
7
  6
CONTINUOUS
 10
57.4164328547
 20
5.2092953647
 40
0.0247430265
100
AcDbArc
 50
180.0
 51
270.0
  0
LINE
  5
23F
100
AcDbEntity
  8
0
100
AcDbLine
 62
7
  6
CONTINUOUS
 10
57.4164328547
 20
5.1845523381
 11
58.1041462888
 21
5.1845523381
  0
SPLINE
  5
240
100
AcDbEntity
  8
0
100
AcDbSpline
 62
7
  6
CONTINUOUS
 70
0
 71
3
 72
13
 73
9
 74
0
 42
0.0000001
 43
0.0000001
 44
0.0000000001
 40
0.0
 40
0.0
 40
0.0
 40
0.0
 40
0.1604571392
 40
0.3334692485
 40
0.4767982758
 40
0.6242014838
 40
0.7505998515
 40
1.0
 40
1.0
 40
1.0
 40
1.0
 10
58.1041462888
 20
5.1845523381
 30
0.0
 10
58.1157412232
 20
5.1851106135
 30
0.0
 10
58.1398383372
 20
5.186270846
 30
0.0
 10
58.1722421298
 20
5.2003390868
 30
0.0
 10
58.1966594551
 20
5.2239866254
 30
0.0
 10
58.2104195783
 20
5.2510976148
 30
0.0
 10
58.2209692595
 20
5.2874672848
 30
0.0
 10
58.221397366
 20
5.3146846205
 30
0.0
 10
58.2216814802
 20
5.332747511
 30
0.0
  0
SPLINE
  5
241
100
AcDbEntity
  8
0
100
AcDbSpline
 62
7
  6
CONTINUOUS
 70
0
 71
3
 72
13
 73
9
 74
0
 42
0.0000001
 43
0.0000001
 44
0.0000000001
 40
0.0
 40
0.0
 40
0.0
 40
0.0
 40
0.2494001485
 40
0.3757985162
 40
0.5232017242
 40
0.6665307515
 40
0.8395428608
 40
1.0
 40
1.0
 40
1.0
 40
1.0
 10
58.2216814802
 20
5.332747511
 30
0.0
 10
58.221397366
 20
5.3508104019
 30
0.0
 10
58.2209692595
 20
5.3780277372
 30
0.0
 10
58.2104195783
 20
5.4143974076
 30
0.0
 10
58.1966594551
 20
5.441508397
 30
0.0
 10
58.1722421298
 20
5.4651559351
 30
0.0
 10
58.1398383372
 20
5.4792241759
 30
0.0
 10
58.1157412232
 20
5.4803844088
 30
0.0
 10
58.1041462888
 20
5.4809426838
 30
0.0
  0
LINE
  5
242
100
AcDbEntity
  8
0
100
AcDbLine
 62
7
  6
CONTINUOUS
 10
58.1041462888
 20
5.4809426838
 11
57.63525684
 21
5.4809426838
  0
LINE
  5
243
100
AcDbEntity
  8
0
100
AcDbLine
 62
7
  6
CONTINUOUS
 10
57.6105138134
 20
5.5056857104
 11
57.6105138134
 21
5.5525019989
  0
ARC
  5
244
100
AcDbEntity
  8
0
100
AcDbCircle
 62
7
  6
CONTINUOUS
 10
57.6352568398
 20
5.5525019989
 40
0.0247430265
100
AcDbArc
 50
90.0
 51
180.0
  0
LINE
  5
245
100
AcDbEntity
  8
0
100
AcDbLine
 62
7
  6
CONTINUOUS
 10
57.63525684
 20
5.5772450254
 11
58.1899690394
 21
5.5772450254
  0
ARC
  5
246
100
AcDbEntity
  8
0
100
AcDbCircle
 62
7
  6
CONTINUOUS
 10
58.1899690394
 20
5.601988052
 40
0.0247430265
100
AcDbArc
 50
270.0
 51
360.0
  0
LINE
  5
247
100
AcDbEntity
  8
0
100
AcDbLine
 62
7
  6
CONTINUOUS
 10
58.2147120659
 20
5.601988052
 11
58.2147120659
 21
5.6524783038
  0
ARC
  5
248
100
AcDbEntity
  8
0
100
AcDbCircle
 62
7
  6
CONTINUOUS
 10
58.1899690394
 20
5.6524783038
 40
0.0247430265
100
AcDbArc
 50
0.0
 51
90.0
  0
LINE
  5
249
100
AcDbEntity
  8
0
100
AcDbLine
 62
7
  6
CONTINUOUS
 10
58.1899690394
 20
5.6772213303
 11
57.495169266
 21
5.6772213303
  0
SPLINE
  5
24A
100
AcDbEntity
  8
0
100
AcDbSpline
 62
7
  6
CONTINUOUS
 70
0
 71
3
 72
13
 73
9
 74
0
 42
0.0000001
 43
0.0000001
 44
0.0000000001
 40
0.0
 40
0.0
 40
0.0
 40
0.0
 40
0.1133740464
 40
0.2392044088
 40
0.3655787964
 40
0.4912154373
 40
0.7445390876
 40
1.0
 40
1.0
 40
1.0
 40
1.0
 10
57.495169266
 20
5.6772213303
 30
0.0
 10
57.4872320137
 20
5.6768303837
 30
0.0
 10
57.4704854499
 20
5.6760055368
 30
0.0
 10
57.4456100859
 20
5.6685735211
 30
0.0
 10
57.4233566486
 20
5.6535659669
 30
0.0
 10
57.400624564
 20
5.6259214794
 30
0.0
 10
57.3863200943
 20
5.5825233121
 30
0.0
 10
57.3847687724
 20
5.5469401064
 30
0.0
 10
57.3839898535
 20
5.5290737658
 30
0.0
  0
SPLINE
  5
24B
100
AcDbEntity
  8
0
100
AcDbSpline
 62
7
  6
CONTINUOUS
 70
0
 71
3
 72
13
 73
9
 74
0
 42
0.0000001
 43
0.0000001
 44
0.0000000001
 40
0.0
 40
0.0
 40
0.0
 40
0.0
 40
0.2554609124
 40
0.5087845627
 40
0.6344212036
 40
0.7607955912
 40
0.8866259536
 40
1.0
 40
1.0
 40
1.0
 40
1.0
 10
57.3839898535
 20
5.5290737658
 30
0.0
 10
57.3847687724
 20
5.5112074251
 30
0.0
 10
57.3863200943
 20
5.475624219
 30
0.0
 10
57.400624564
 20
5.4322260521
 30
0.0
 10
57.4233566486
 20
5.4045815646
 30
0.0
 10
57.4456100859
 20
5.3895740104
 30
0.0
 10
57.4704854499
 20
5.3821419947
 30
0.0
 10
57.4872320137
 20
5.3813171478
 30
0.0
 10
57.495169266
 20
5.3809262012
 30
0.0
  0
LINE
  5
24C
100
AcDbEntity
  8
0
100
AcDbLine
 62
7
  6
CONTINUOUS
 10
56.5809416116
 20
5.1845523381
 11
56.9653966053
 21
5.1845523381
  0
LINE
  5
24D
100
AcDbEntity
  8
0
100
AcDbLine
 62
7
  6
CONTINUOUS
 10
56.9653966053
 20
5.1845523381
 11
56.9653966053
 21
5.136737879
  0
ARC
  5
24E
100
AcDbEntity
  8
0
100
AcDbCircle
 62
7
  6
CONTINUOUS
 10
56.974913154
 20
5.136737879
 40
0.0095165487
100
AcDbArc
 50
180.0
 51
270.0
  0
LINE
  5
24F
100
AcDbEntity
  8
0
100
AcDbLine
 62
7
  6
CONTINUOUS
 10
56.974913154
 20
5.1272213303
 11
57.1230954959
 21
5.1272213303
  0
ARC
  5
250
100
AcDbEntity
  8
0
100
AcDbCircle
 62
7
  6
CONTINUOUS
 10
57.1230954959
 20
5.136737879
 40
0.0095165487
100
AcDbArc
 50
270.0
 51
360.0
  0
LINE
  5
251
100
AcDbEntity
  8
0
100
AcDbLine
 62
7
  6
CONTINUOUS
 10
57.1326120445
 20
5.136737879
 11
57.1326120445
 21
5.1845523381
  0
LINE
  5
252
100
AcDbEntity
  8
0
100
AcDbLine
 62
7
  6
CONTINUOUS
 10
57.1326120445
 20
5.1845523381
 11
57.2082102852
 21
5.1845523381
  0
SPLINE
  5
253
100
AcDbEntity
  8
0
100
AcDbSpline
 62
7
  6
CONTINUOUS
 70
0
 71
3
 72
12
 73
8
 74
0
 42
0.0000001
 43
0.0000001
 44
0.0000000001
 40
0.0
 40
0.0
 40
0.0
 40
0.0
 40
0.2415790084
 40
0.4893269843
 40
0.7378634303
 40
0.8656387112
 40
1.0
 40
1.0
 40
1.0
 40
1.0
 10
57.2082102852
 20
5.1845523381
 30
0.0
 10
57.2217657946
 20
5.1849737637
 30
0.0
 10
57.2492229675
 20
5.1858273764
 30
0.0
 10
57.2894036749
 20
5.2001568853
 30
0.0
 10
57.3138062096
 20
5.2272072059
 30
0.0
 10
57.3245571563
 20
5.2542354801
 30
0.0
 10
57.3247509041
 20
5.2690415115
 30
0.0
 10
57.3248502119
 20
5.2766305228
 30
0.0
  0
LINE
  5
254
100
AcDbEntity
  8
0
100
AcDbLine
 62
7
  6
CONTINUOUS
 10
57.3248502119
 20
5.2766305228
 11
57.3248502119
 21
5.5845653039
  0
SPLINE
  5
255
100
AcDbEntity
  8
0
100
AcDbSpline
 62
7
  6
CONTINUOUS
 70
0
 71
3
 72
12
 73
8
 74
0
 42
0.0000001
 43
0.0000001
 44
0.0000000001
 40
0.0
 40
0.0
 40
0.0
 40
0.0
 40
0.1343612888
 40
0.2621365697
 40
0.5106730157
 40
0.7584209916
 40
1.0
 40
1.0
 40
1.0
 40
1.0
 10
57.3248502119
 20
5.5845653039
 30
0.0
 10
57.3247509041
 20
5.5921543156
 30
0.0
 10
57.3245571563
 20
5.606960347
 30
0.0
 10
57.3138062096
 20
5.6339886212
 30
0.0
 10
57.2894036749
 20
5.6610389418
 30
0.0
 10
57.2492229675
 20
5.6753684503
 30
0.0
 10
57.2217657946
 20
5.676222063
 30
0.0
 10
57.2082102852
 20
5.6766434886
 30
0.0
  0
LINE
  5
256
100
AcDbEntity
  8
0
100
AcDbLine
 62
7
  6
CONTINUOUS
 10
57.2082102852
 20
5.6766434886
 11
56.5809416116
 21
5.6766434886
  0
SPLINE
  5
257
100
AcDbEntity
  8
0
100
AcDbSpline
 62
7
  6
CONTINUOUS
 70
0
 71
3
 72
12
 73
8
 74
0
 42
0.0000001
 43
0.0000001
 44
0.0000000001
 40
0.0
 40
0.0
 40
0.0
 40
0.0
 40
0.1341799809
 40
0.290831959
 40
0.5815217441
 40
0.760783857
 40
1.0
 40
1.0
 40
1.0
 40
1.0
 10
56.5809416116
 20
5.6766434886
 30
0.0
 10
56.5672597682
 20
5.6743051317
 30
0.0
 10
56.537604694
 20
5.6692367976
 30
0.0
 10
56.4876851358
 20
5.6319420116
 30
0.0
 10
56.4640406997
 20
5.5691972795
 30
0.0
 10
56.4502065515
 20
5.4980703428
 30
0.0
 10
56.4491680653
 20
5.4550495295
 30
0.0
 10
56.4485744318
 20
5.4304573962
 30
0.0
  0
SPLINE
  5
258
100
AcDbEntity
  8
0
100
AcDbSpline
 62
7
  6
CONTINUOUS
 70
0
 71
3
 72
12
 73
8
 74
0
 42
0.0000001
 43
0.0000001
 44
0.0000000001
 40
0.0
 40
0.0
 40
0.0
 40
0.0
 40
0.2392679579
 40
0.4185688994
 40
0.7093216488
 40
0.8660075581
 40
1.0
 40
1.0
 40
1.0
 40
1.0
 10
56.4485744318
 20
5.4304573962
 30
0.0
 10
56.4491683025
 20
5.4058662214
 30
0.0
 10
56.4502072032
 20
5.3628470849
 30
0.0
 10
56.4640383662
 20
5.2917080781
 30
0.0
 10
56.4876972485
 20
5.2290217605
 30
0.0
 10
56.5375648333
 20
5.1916058708
 30
0.0
 10
56.5672553384
 20
5.186777874
 30
0.0
 10
56.5809416116
 20
5.1845523381
 30
0.0
  0
LINE
  5
259
100
AcDbEntity
  8
0
100
AcDbLine
 62
7
  6
CONTINUOUS
 10
57.1981423032
 20
5.3112449168
 11
57.1981423032
 21
5.5579709135
  0
ARC
  5
25A
100
AcDbEntity
  8
0
100
AcDbCircle
 62
7
  6
CONTINUOUS
 10
56.6790424294
 20
5.3112449168
 40
0.0247430265
100
AcDbArc
 50
180.0
 51
270.0
  0
LINE
  5
25B
100
AcDbEntity
  8
0
100
AcDbLine
 62
7
  6
CONTINUOUS
 10
56.6790424294
 20
5.2865018903
 11
56.9632322156
 21
5.2865018903
  0
LINE
  5
25C
100
AcDbEntity
  8
0
100
AcDbLine
 62
7
  6
CONTINUOUS
 10
56.9632322156
 20
5.2865018903
 11
56.9632322156
 21
5.3341681992
  0
ARC
  5
25D
100
AcDbEntity
  8
0
100
AcDbCircle
 62
7
  6
CONTINUOUS
 10
56.9727487644
 20
5.3341681992
 40
0.0095165487
100
AcDbArc
 50
90.0
 51
180.0
  0
LINE
  5
25E
100
AcDbEntity
  8
0
100
AcDbLine
 62
7
  6
CONTINUOUS
 10
56.9727487642
 20
5.3436847479
 11
57.1201759356
 21
5.3436847479
  0
ARC
  5
25F
100
AcDbEntity
  8
0
100
AcDbCircle
 62
7
  6
CONTINUOUS
 10
57.1201759353
 20
5.3341681996
 40
0.0095165487
100
AcDbArc
 50
0.0
 51
90.0
  0
LINE
  5
260
100
AcDbEntity
  8
0
100
AcDbLine
 62
7
  6
CONTINUOUS
 10
57.1296924843
 20
5.2865018903
 11
57.1733992767
 21
5.2865018903
  0
ARC
  5
261
100
AcDbEntity
  8
0
100
AcDbCircle
 62
7
  6
CONTINUOUS
 10
57.1733992767
 20
5.3112449168
 40
0.0247430265
100
AcDbArc
 50
270.0
 51
360.0
  0
LINE
  5
262
100
AcDbEntity
  8
0
100
AcDbLine
 62
7
  6
CONTINUOUS
 10
57.1296924843
 20
5.2865018903
 11
57.1296924843
 21
5.3341681992
  0
LINE
  5
263
100
AcDbEntity
  8
0
100
AcDbLine
 62
7
  6
CONTINUOUS
 10
56.6542994028
 20
5.3112449168
 11
56.6542994028
 21
5.5579709135
  0
ARC
  5
264
100
AcDbEntity
  8
0
100
AcDbCircle
 62
7
  6
CONTINUOUS
 10
56.6790424297
 20
5.5579709135
 40
0.0247430265
100
AcDbArc
 50
90.0
 51
180.0
  0
LINE
  5
265
100
AcDbEntity
  8
0
100
AcDbLine
 62
7
  6
CONTINUOUS
 10
56.6790424294
 20
5.58271394
 11
57.1733992767
 21
5.58271394
  0
ARC
  5
266
100
AcDbEntity
  8
0
100
AcDbCircle
 62
7
  6
CONTINUOUS
 10
57.1733992769
 20
5.5579709133
 40
0.0247430265
100
AcDbArc
 50
0.0000000277
 51
90.0000000277
  0
ARC
  5
267
100
AcDbEntity
  8
0
100
AcDbCircle
 62
7
  6
CONTINUOUS
 10
57.63525684
 20
5.5056857104
 40
0.0247430265
100
AcDbArc
 50
180.0
 51
270.0
  0
ARC
  5
268
100
AcDbEntity
  8
0
100
AcDbCircle
 62
7
  6
CONTINUOUS
 10
57.9703931345
 20
5.3056604702
 40
0.0247430265
100
AcDbArc
 50
270.0
 51
360.0
  0
ARC
  5
269
100
AcDbEntity
  8
0
100
AcDbCircle
 62
7
  6
CONTINUOUS
 10
58.5118078505
 20
5.3078039224
 40
0.0247430265
100
AcDbArc
 50
180.0
 51
270.0
  0
ENDBLK
  5
26A
100
AcDbEntity
  8
0
  6
BYBLOCK
 62
0
100
AcDbBlockEnd
  0
BLOCK
  5
26B
100
AcDbEntity
  8
0
100
AcDbBlockBegin
  2
_FILLED
 70
64
 10
0.0
 20
0.0
  3
_FILLED
  1

  0
SOLID
  5
26C
100
AcDbEntity
  8
0
  6
BYBLOCK
 62
0
100
AcDbTrace
 10
0.0
 20
0.0
 11
-1.0
 21
0.1666666667
 12
-1.0
 22
-0.1666666667
 13
-1.0
 23
-0.1666666667
  0
ENDBLK
  5
26D
100
AcDbEntity
  8
0
  6
BYBLOCK
 62
0
100
AcDbBlockEnd
  0
BLOCK
  5
26E
100
AcDbEntity
  8
0
100
AcDbBlockBegin
 62
2
  6
CONTINUOUS
  2
*D0
 70
65
 10
0.0
 20
0.0
  3
*D0
  1

  0
MTEXT
  5
26F
100
AcDbEntity
  8
0
100
AcDbMText
 62
2
  6
CONTINUOUS
  7
STANDARD
 71
2
 72
1
 10
36.6695494666
 20
32.72058335
 30
0.0
 11
1.0
 21
0.0
 31
0.0
 44
0.9
  1
2X 291.0\P[11.46]
 40
0.3125
 41
2.7790178571
  0
LINE
  5
270
100
AcDbEntity
  8
0
100
AcDbLine
 62
2
  6
CONTINUOUS
 10
32.1118165433
 20
38.2926798067
 11
37.0199958952
 21
38.2926798067
  0
LINE
  5
271
100
AcDbEntity
  8
0
100
AcDbLine
 62
2
  6
CONTINUOUS
 10
32.4641791097
 20
26.8359868933
 11
37.0199958952
 21
26.8359868933
  0
LINE
  5
272
100
AcDbEntity
  8
0
100
AcDbLine
 62
2
  6
CONTINUOUS
 10
36.7699958952
 20
38.2926798067
 11
36.7699958952
 21
32.87683335
  0
LINE
  5
273
100
AcDbEntity
  8
0
100
AcDbLine
 62
2
  6
CONTINUOUS
 10
36.7699958952
 20
26.8359868933
 11
36.7699958952
 21
31.78308335
  0
INSERT
  5
274
100
AcDbEntity
  8
0
100
AcDbBlockReference
 62
2
  6
CONTINUOUS
  2
_FILLED
 10
36.7699958952
 20
38.2926798067
 41
0.375
 42
0.375
 43
0.375
 50
90.0
  0
INSERT
  5
275
100
AcDbEntity
  8
0
100
AcDbBlockReference
 62
2
  6
CONTINUOUS
  2
_FILLED
 10
36.7699958952
 20
26.8359868933
 41
0.375
 42
0.375
 43
0.375
 50
270.0
  0
ENDBLK
  5
276
100
AcDbEntity
  8
0
  6
BYBLOCK
 62
0
100
AcDbBlockEnd
  0
BLOCK
  5
277
100
AcDbEntity
  8
0
100
AcDbBlockBegin
 62
2
  6
CONTINUOUS
  2
*D1
 70
65
 10
0.0
 20
0.0
  3
*D1
  1

  0
MTEXT
  5
278
100
AcDbEntity
  8
0
100
AcDbMText
 62
2
  6
CONTINUOUS
  7
STANDARD
 71
2
 72
1
 10
37.9405413112
 20
16.077765671
 30
0.0
 11
1.0
 21
0.0
 31
0.0
 44
0.9
  1
106.0\P[4.17]
 40
0.3125
 41
1.6741071429
  0
LINE
  5
279
100
AcDbEntity
  8
0
100
AcDbLine
 62
2
  6
CONTINUOUS
 10
32.1118165433
 20
18.0081298442
 11
38.2017020255
 21
18.0081298442
  0
LINE
  5
27A
100
AcDbEntity
  8
0
100
AcDbLine
 62
2
  6
CONTINUOUS
 10
32.1118165433
 20
13.8349014978
 11
38.2017020255
 21
13.8349014978
  0
LINE
  5
27B
100
AcDbEntity
  8
0
100
AcDbLine
 62
2
  6
CONTINUOUS
 10
37.9517020255
 20
18.0081298442
 11
37.9517020255
 21
16.234015671
  0
LINE
  5
27C
100
AcDbEntity
  8
0
100
AcDbLine
 62
2
  6
CONTINUOUS
 10
37.9517020255
 20
13.8349014978
 11
37.9517020255
 21
15.140265671
  0
INSERT
  5
27D
100
AcDbEntity
  8
0
100
AcDbBlockReference
 62
2
  6
CONTINUOUS
  2
_FILLED
 10
37.9517020255
 20
18.0081298442
 41
0.375
 42
0.375
 43
0.375
 50
90.0
  0
INSERT
  5
27E
100
AcDbEntity
  8
0
100
AcDbBlockReference
 62
2
  6
CONTINUOUS
  2
_FILLED
 10
37.9517020255
 20
13.8349014978
 41
0.375
 42
0.375
 43
0.375
 50
270.0
  0
ENDBLK
  5
27F
100
AcDbEntity
  8
0
  6
BYBLOCK
 62
0
100
AcDbBlockEnd
  0
BLOCK
  5
280
100
AcDbEntity
  8
0
100
AcDbBlockBegin
 62
2
  6
CONTINUOUS
  2
*D2
 70
65
 10
0.0
 20
0.0
  3
*D2
  1

  0
MTEXT
  5
281
100
AcDbEntity
  8
0
100
AcDbMText
 62
2
  6
CONTINUOUS
  7
STANDARD
 71
1
 72
1
 10
55.1063440788
 20
19.0012404009
 30
0.0
 11
1.0
 21
0.0
 31
0.0
 44
0.9
  1
2X 23.0\P[0.91]
 40
0.3125
 41
2.4776785714
  0
LINE
  5
282
100
AcDbEntity
  8
0
100
AcDbLine
 62
2
  6
CONTINUOUS
 10
53.0992365763
 20
18.1331298442
 11
53.0992365763
 21
19.0949904009
  0
LINE
  5
283
100
AcDbEntity
  8
0
100
AcDbLine
 62
2
  6
CONTINUOUS
 10
54.0047483873
 20
18.015019608
 11
54.0047483873
 21
19.0949904009
  0
LINE
  5
284
100
AcDbEntity
  8
0
100
AcDbLine
 62
2
  6
CONTINUOUS
 10
53.0992365763
 20
18.8449904009
 11
53.5519924818
 21
18.8449904009
  0
LINE
  5
285
100
AcDbEntity
  8
0
100
AcDbLine
 62
2
  6
CONTINUOUS
 10
54.0047483873
 20
18.8449904009
 11
53.5519924818
 21
18.8449904009
  0
LINE
  5
286
100
AcDbEntity
  8
0
100
AcDbLine
 62
2
  6
CONTINUOUS
 10
53.5519924818
 20
18.8449904009
 11
54.9500940788
 21
18.8449904009
  0
INSERT
  5
287
100
AcDbEntity
  8
0
100
AcDbBlockReference
 62
2
  6
CONTINUOUS
  2
_FILLED
 10
53.0992365763
 20
18.8449904009
 41
0.375
 42
0.375
 43
0.375
 50
180.0
  0
INSERT
  5
288
100
AcDbEntity
  8
0
100
AcDbBlockReference
 62
2
  6
CONTINUOUS
  2
_FILLED
 10
54.0047483873
 20
18.8449904009
 41
0.375
 42
0.375
 43
0.375
  0
ENDBLK
  5
289
100
AcDbEntity
  8
0
  6
BYBLOCK
 62
0
100
AcDbBlockEnd
  0
BLOCK
  5
28A
100
AcDbEntity
  8
0
100
AcDbBlockBegin
 62
2
  6
CONTINUOUS
  2
*D3
 70
65
 10
0.0
 20
0.0
  3
*D3
  1

  0
MTEXT
  5
28B
100
AcDbEntity
  8
0
100
AcDbMText
 62
2
  6
CONTINUOUS
  7
STANDARD
 71
2
 72
1
 10
49.007999934
 20
13.0349673359
 30
0.0
 11
1.0
 21
0.0
 31
0.0
 44
0.9
  1
2X 251.0\P[9.88]
 40
0.3125
 41
2.7455357143
  0
LINE
  5
28C
100
AcDbEntity
  8
0
100
AcDbLine
 62
2
  6
CONTINUOUS
 10
44.1228586235
 20
15.3602951985
 11
44.1228586235
 21
12.6287173359
  0
LINE
  5
28D
100
AcDbEntity
  8
0
100
AcDbLine
 62
2
  6
CONTINUOUS
 10
54.0047483873
 20
13.828011734
 11
54.0047483873
 21
12.6287173359
  0
LINE
  5
28E
100
AcDbEntity
  8
0
100
AcDbLine
 62
2
  6
CONTINUOUS
 10
44.1228586235
 20
12.8787173359
 11
47.9365713625
 21
12.8787173359
  0
LINE
  5
28F
100
AcDbEntity
  8
0
100
AcDbLine
 62
2
  6
CONTINUOUS
 10
54.0047483873
 20
12.8787173359
 11
50.1910356482
 21
12.8787173359
  0
INSERT
  5
290
100
AcDbEntity
  8
0
100
AcDbBlockReference
 62
2
  6
CONTINUOUS
  2
_FILLED
 10
44.1228586235
 20
12.8787173359
 41
0.375
 42
0.375
 43
0.375
 50
180.0
  0
INSERT
  5
291
100
AcDbEntity
  8
0
100
AcDbBlockReference
 62
2
  6
CONTINUOUS
  2
_FILLED
 10
54.0047483873
 20
12.8787173359
 41
0.375
 42
0.375
 43
0.375
  0
ENDBLK
  5
292
100
AcDbEntity
  8
0
  6
BYBLOCK
 62
0
100
AcDbBlockEnd
  0
BLOCK
  5
293
100
AcDbEntity
  8
0
100
AcDbBlockBegin
 62
2
  6
CONTINUOUS
  2
*D4
 70
65
 10
0.0
 20
0.0
  3
*D4
  1

  0
MTEXT
  5
294
100
AcDbEntity
  8
0
100
AcDbMText
 62
2
  6
CONTINUOUS
  7
STANDARD
 71
2
 72
1
 10
35.4871221635
 20
16.077765671
 30
0.0
 11
1.0
 21
0.0
 31
0.0
 44
0.9
  1
2X 45.0\P[1.77]
 40
0.3125
 41
2.4776785714
  0
LINE
  5
295
100
AcDbEntity
  8
0
100
AcDbLine
 62
2
  6
CONTINUOUS
 10
29.4217165676
 20
16.8073424426
 11
35.8487293064
 21
16.8073424426
  0
LINE
  5
296
100
AcDbEntity
  8
0
100
AcDbLine
 62
2
  6
CONTINUOUS
 10
29.4142099997
 20
15.0356888993
 11
35.8487293064
 21
15.0356888993
  0
LINE
  5
297
100
AcDbEntity
  8
0
100
AcDbLine
 62
2
  6
CONTINUOUS
 10
35.5987293064
 20
16.8073424426
 11
35.5987293064
 21
17.8073424426
  0
LINE
  5
298
100
AcDbEntity
  8
0
100
AcDbLine
 62
2
  6
CONTINUOUS
 10
35.5987293064
 20
15.0356888993
 11
35.5987293064
 21
14.0356888993
  0
INSERT
  5
299
100
AcDbEntity
  8
0
100
AcDbBlockReference
 62
2
  6
CONTINUOUS
  2
_FILLED
 10
35.5987293064
 20
16.8073424426
 41
0.375
 42
0.375
 43
0.375
 50
270.0
  0
INSERT
  5
29A
100
AcDbEntity
  8
0
100
AcDbBlockReference
 62
2
  6
CONTINUOUS
  2
_FILLED
 10
35.5987293064
 20
15.0356888993
 41
0.375
 42
0.375
 43
0.375
 50
90.0
  0
ENDBLK
  5
29B
100
AcDbEntity
  8
0
  6
BYBLOCK
 62
0
100
AcDbBlockEnd
  0
BLOCK
  5
29C
100
AcDbEntity
  8
0
100
AcDbBlockBegin
 62
2
  6
CONTINUOUS
  2
*D5
 70
65
 10
0.0
 20
0.0
  3
*D5
  1

  0
MTEXT
  5
29D
100
AcDbEntity
  8
0
100
AcDbMText
 62
2
  6
CONTINUOUS
  7
TEXTSTYLE_1
 71
1
 72
1
 10
22.2119065731
 20
20.1884738602
 30
0.0
 11
1.0
 21
0.0
 31
0.0
 44
0.9
  1
{\Fgdt;n}\Ftxt;13.0\P[0.51]
 40
0.3125
 41
1.8638392857
  0
LINE
  5
29E
100
AcDbEntity
  8
0
100
AcDbLine
 62
2
  6
CONTINUOUS
 10
21.009049963
 20
16.1732792647
 11
21.7119065731
 21
20.0322238602
  0
LINE
  5
29F
100
AcDbEntity
  8
0
100
AcDbLine
 62
2
  6
CONTINUOUS
 10
21.7119065731
 20
20.0322238602
 11
22.0556565731
 21
20.0322238602
  0
INSERT
  5
2A0
100
AcDbEntity
  8
0
100
AcDbBlockReference
 62
2
  6
CONTINUOUS
  2
_FILLED
 10
21.009049963
 20
16.1732792647
 41
0.375
 42
0.375
 43
0.375
 50
259.6774718656
  0
ENDBLK
  5
2A1
100
AcDbEntity
  8
0
  6
BYBLOCK
 62
0
100
AcDbBlockEnd
  0
BLOCK
  5
2A2
100
AcDbEntity
  8
0
100
AcDbBlockBegin
 62
2
  6
CONTINUOUS
  2
*D6
 70
65
 10
0.0
 20
0.0
  3
*D6
  1

  0
MTEXT
  5
2A3
100
AcDbEntity
  8
0
100
AcDbMText
 62
2
  6
CONTINUOUS
  7
STANDARD
 71
2
 72
1
 10
20.8515873532
 20
9.3501134168
 30
0.0
 11
1.0
 21
0.0
 31
0.0
 44
0.9
  1
2X 379.4\P[14.94]
 40
0.3125
 41
2.8459821429
  0
LINE
  5
2A4
100
AcDbEntity
  8
0
100
AcDbLine
 62
2
  6
CONTINUOUS
 10
13.4946905591
 20
14.6034775513
 11
13.4946905591
 21
8.9438634168
  0
LINE
  5
2A5
100
AcDbEntity
  8
0
100
AcDbLine
 62
2
  6
CONTINUOUS
 10
28.4316984331
 20
14.493116597
 11
28.4316984331
 21
8.9438634168
  0
LINE
  5
2A6
100
AcDbEntity
  8
0
100
AcDbLine
 62
2
  6
CONTINUOUS
 10
13.4946905591
 20
9.1938634168
 11
19.7466766389
 21
9.1938634168
  0
LINE
  5
2A7
100
AcDbEntity
  8
0
100
AcDbLine
 62
2
  6
CONTINUOUS
 10
28.4316984331
 20
9.1938634168
 11
22.1797123532
 21
9.1938634168
  0
INSERT
  5
2A8
100
AcDbEntity
  8
0
100
AcDbBlockReference
 62
2
  6
CONTINUOUS
  2
_FILLED
 10
13.4946905591
 20
9.1938634168
 41
0.375
 42
0.375
 43
0.375
 50
180.0
  0
INSERT
  5
2A9
100
AcDbEntity
  8
0
100
AcDbBlockReference
 62
2
  6
CONTINUOUS
  2
_FILLED
 10
28.4316984331
 20
9.1938634168
 41
0.375
 42
0.375
 43
0.375
  0
ENDBLK
  5
2AA
100
AcDbEntity
  8
0
  6
BYBLOCK
 62
0
100
AcDbBlockEnd
  0
BLOCK
  5
2AB
100
AcDbEntity
  8
0
100
AcDbBlockBegin
 62
2
  6
CONTINUOUS
  2
*D7
 70
65
 10
0.0
 20
0.0
  3
*D7
  1

  0
MTEXT
  5
2AC
100
AcDbEntity
  8
0
100
AcDbMText
 62
2
  6
CONTINUOUS
  7
STANDARD
 71
2
 72
1
 10
20.9520337818
 20
11.069488186
 30
0.0
 11
1.0
 21
0.0
 31
0.0
 44
0.9
  1
247.0\P[9.72]
 40
0.3125
 41
1.7745535714
  0
LINE
  5
2AD
100
AcDbEntity
  8
0
100
AcDbLine
 62
2
  6
CONTINUOUS
 10
16.1009897717
 20
15.5799802379
 11
16.1009897717
 21
10.663238186
  0
LINE
  5
2AE
100
AcDbEntity
  8
0
100
AcDbLine
 62
2
  6
CONTINUOUS
 10
25.8253992205
 20
15.5799802379
 11
25.8253992205
 21
10.663238186
  0
LINE
  5
2AF
100
AcDbEntity
  8
0
100
AcDbLine
 62
2
  6
CONTINUOUS
 10
16.1009897717
 20
10.913238186
 11
20.2154266389
 21
10.913238186
  0
LINE
  5
2B0
100
AcDbEntity
  8
0
100
AcDbLine
 62
2
  6
CONTINUOUS
 10
25.8253992205
 20
10.913238186
 11
21.7109623532
 21
10.913238186
  0
INSERT
  5
2B1
100
AcDbEntity
  8
0
100
AcDbBlockReference
 62
2
  6
CONTINUOUS
  2
_FILLED
 10
16.1009897717
 20
10.913238186
 41
0.375
 42
0.375
 43
0.375
 50
180.0
  0
INSERT
  5
2B2
100
AcDbEntity
  8
0
100
AcDbBlockReference
 62
2
  6
CONTINUOUS
  2
_FILLED
 10
25.8253992205
 20
10.913238186
 41
0.375
 42
0.375
 43
0.375
  0
ENDBLK
  5
2B3
100
AcDbEntity
  8
0
  6
BYBLOCK
 62
0
100
AcDbBlockEnd
  0
BLOCK
  5
2B4
100
AcDbEntity
  8
0
100
AcDbBlockBegin
 62
2
  6
CONTINUOUS
  2
*D8
 70
65
 10
0.0
 20
0.0
  3
*D8
  1

  0
MTEXT
  5
2B5
100
AcDbEntity
  8
0
100
AcDbMText
 62
2
  6
CONTINUOUS
  7
STANDARD
 71
2
 72
1
 10
20.8739087818
 20
40.1739611117
 30
0.0
 11
1.0
 21
0.0
 31
0.0
 44
0.9
  1
587.9\P[23.15]
 40
0.3125
 41
1.9754464286
  0
LINE
  5
2B6
100
AcDbEntity
  8
0
100
AcDbLine
 62
2
  6
CONTINUOUS
 10
9.3903598504
 20
38.1001660854
 11
9.3903598504
 21
40.2677111117
  0
LINE
  5
2B7
100
AcDbEntity
  8
0
100
AcDbLine
 62
2
  6
CONTINUOUS
 10
32.5360291418
 20
37.8743727201
 11
32.5360291418
 21
38.1950676622
  0
LINE
  5
2B8
100
AcDbEntity
  8
0
100
AcDbLine
 62
2
  6
CONTINUOUS
 10
32.5360291418
 20
38.4377002762
 11
32.5360291418
 21
40.2677111117
  0
LINE
  5
2B9
100
AcDbEntity
  8
0
100
AcDbLine
 62
2
  6
CONTINUOUS
 10
9.3903598504
 20
40.0177111117
 11
20.1484623532
 21
40.0177111117
  0
LINE
  5
2BA
100
AcDbEntity
  8
0
100
AcDbLine
 62
2
  6
CONTINUOUS
 10
32.5360291418
 20
40.0177111117
 11
21.7779266389
 21
40.0177111117
  0
INSERT
  5
2BB
100
AcDbEntity
  8
0
100
AcDbBlockReference
 62
2
  6
CONTINUOUS
  2
_FILLED
 10
9.3903598504
 20
40.0177111117
 41
0.375
 42
0.375
 43
0.375
 50
180.0
  0
INSERT
  5
2BC
100
AcDbEntity
  8
0
100
AcDbBlockReference
 62
2
  6
CONTINUOUS
  2
_FILLED
 10
32.5360291418
 20
40.0177111117
 41
0.375
 42
0.375
 43
0.375
  0
ENDBLK
  5
2BD
100
AcDbEntity
  8
0
  6
BYBLOCK
 62
0
100
AcDbBlockEnd
  0
BLOCK
  5
2BE
100
AcDbEntity
  8
0
100
AcDbBlockBegin
 62
2
  6
CONTINUOUS
  2
*D9
 70
65
 10
0.0
 20
0.0
  3
*D9
  1

  0
MTEXT
  5
2BF
100
AcDbEntity
  8
0
100
AcDbMText
 62
2
  6
CONTINUOUS
  7
STANDARD
 71
1
 72
1
 10
34.0297793339
 20
26.4070415626
 30
0.0
 11
1.0
 21
0.0
 31
0.0
 44
0.9
  1
(3.0{\Ftxt.shx;\W1.500000;\H0.312500; })\P[0.12]
 40
0.3125
 41
2.0758928571
  0
LINE
  5
2C0
100
AcDbEntity
  8
0
100
AcDbLine
 62
2
  6
CONTINUOUS
 10
32.3391791097
 20
26.7109868933
 11
32.3391791097
 21
26.0007915626
  0
LINE
  5
2C1
100
AcDbEntity
  8
0
100
AcDbLine
 62
2
  6
CONTINUOUS
 10
32.2210688735
 20
26.7109868933
 11
32.2210688735
 21
26.0007915626
  0
LINE
  5
2C2
100
AcDbEntity
  8
0
100
AcDbLine
 62
2
  6
CONTINUOUS
 10
32.3391791097
 20
26.2507915626
 11
33.8735293339
 21
26.2507915626
  0
LINE
  5
2C3
100
AcDbEntity
  8
0
100
AcDbLine
 62
2
  6
CONTINUOUS
 10
32.2210688735
 20
26.2507915626
 11
31.2210688735
 21
26.2507915626
  0
INSERT
  5
2C4
100
AcDbEntity
  8
0
100
AcDbBlockReference
 62
2
  6
CONTINUOUS
  2
_FILLED
 10
32.3391791097
 20
26.2507915626
 41
0.375
 42
0.375
 43
0.375
 50
180.0
  0
INSERT
  5
2C5
100
AcDbEntity
  8
0
100
AcDbBlockReference
 62
2
  6
CONTINUOUS
  2
_FILLED
 10
32.2210688735
 20
26.2507915626
 41
0.375
 42
0.375
 43
0.375
  0
ENDBLK
  5
2C6
100
AcDbEntity
  8
0
  6
BYBLOCK
 62
0
100
AcDbBlockEnd
  0
BLOCK
  5
2C7
100
AcDbEntity
  8
0
100
AcDbBlockBegin
 62
2
  6
CONTINUOUS
  2
*D10
 70
65
 10
0.0
 20
0.0
  3
*D10
  1

  0
MTEXT
  5
2C8
100
AcDbEntity
  8
0
100
AcDbMText
 62
2
  6
CONTINUOUS
  7
STANDARD
 71
2
 72
1
 10
21.1805700363
 20
24.8298507157
 30
0.0
 11
1.0
 21
0.0
 31
0.0
 44
0.9
  1
577.9\P[22.75]
 40
0.3125
 41
2.109375
  0
LINE
  5
2C9
100
AcDbEntity
  8
0
100
AcDbLine
 62
2
  6
CONTINUOUS
 10
32.3391791097
 20
26.7109868933
 11
32.3391791097
 21
24.4236007157
  0
LINE
  5
2CA
100
AcDbEntity
  8
0
100
AcDbLine
 62
2
  6
CONTINUOUS
 10
9.5872098825
 20
26.7109868933
 11
9.5872098825
 21
24.4236007157
  0
LINE
  5
2CB
100
AcDbEntity
  8
0
100
AcDbLine
 62
2
  6
CONTINUOUS
 10
32.3391791097
 20
24.6736007157
 11
22.1738736078
 21
24.6736007157
  0
LINE
  5
2CC
100
AcDbEntity
  8
0
100
AcDbLine
 62
2
  6
CONTINUOUS
 10
9.5872098825
 20
24.6736007157
 11
20.4551236078
 21
24.6736007157
  0
INSERT
  5
2CD
100
AcDbEntity
  8
0
100
AcDbBlockReference
 62
2
  6
CONTINUOUS
  2
_FILLED
 10
32.3391791097
 20
24.6736007157
 41
0.375
 42
0.375
 43
0.375
  0
INSERT
  5
2CE
100
AcDbEntity
  8
0
100
AcDbBlockReference
 62
2
  6
CONTINUOUS
  2
_FILLED
 10
9.5872098825
 20
24.6736007157
 41
0.375
 42
0.375
 43
0.375
 50
180.0
  0
ENDBLK
  5
2CF
100
AcDbEntity
  8
0
  6
BYBLOCK
 62
0
100
AcDbBlockEnd
  0
BLOCK
  5
2D0
100
AcDbEntity
  8
0
100
AcDbBlockBegin
 62
2
  6
CONTINUOUS
  2
*D11
 70
65
 10
0.0
 20
0.0
  3
*D11
  1

  0
MTEXT
  5
2D1
100
AcDbEntity
  8
0
100
AcDbMText
 62
2
  6
CONTINUOUS
  7
STANDARD
 71
2
 72
1
 10
34.4625352973
 20
34.9230932735
 30
0.0
 11
1.0
 21
0.0
 31
0.0
 44
0.9
  1
2X 207.7\P[8.18]
 40
0.3125
 41
2.8794642857
  0
LINE
  5
2D2
100
AcDbEntity
  8
0
100
AcDbLine
 62
2
  6
CONTINUOUS
 10
32.4839821888
 20
30.1153550108
 11
34.7125352973
 21
30.1153550108
  0
LINE
  5
2D3
100
AcDbEntity
  8
0
100
AcDbLine
 62
2
  6
CONTINUOUS
 10
32.2661391115
 20
38.2926798067
 11
34.7125352973
 21
38.2926798067
  0
LINE
  5
2D4
100
AcDbEntity
  8
0
100
AcDbLine
 62
2
  6
CONTINUOUS
 10
34.4625352973
 20
30.1153550108
 11
34.4625352973
 21
33.9855932735
  0
LINE
  5
2D5
100
AcDbEntity
  8
0
100
AcDbLine
 62
2
  6
CONTINUOUS
 10
34.4625352973
 20
38.2926798067
 11
34.4625352973
 21
35.0793432735
  0
INSERT
  5
2D6
100
AcDbEntity
  8
0
100
AcDbBlockReference
 62
2
  6
CONTINUOUS
  2
_FILLED
 10
34.4625352973
 20
30.1153550108
 41
0.375
 42
0.375
 43
0.375
 50
270.0
  0
INSERT
  5
2D7
100
AcDbEntity
  8
0
100
AcDbBlockReference
 62
2
  6
CONTINUOUS
  2
_FILLED
 10
34.4625352973
 20
38.2926798067
 41
0.375
 42
0.375
 43
0.375
 50
90.0
  0
ENDBLK
  5
2D8
100
AcDbEntity
  8
0
  6
BYBLOCK
 62
0
100
AcDbBlockEnd
  0
BLOCK
  5
2D9
100
AcDbEntity
  8
0
100
AcDbBlockBegin
 62
2
  6
CONTINUOUS
  2
*D12
 70
65
 10
0.0
 20
0.0
  3
*D12
  1

  0
MTEXT
  5
2DA
100
AcDbEntity
  8
0
100
AcDbMText
 62
2
  6
CONTINUOUS
  7
STANDARD
 71
1
 72
1
 10
45.199906422
 20
20.0204150618
 30
0.0
 11
1.0
 21
0.0
 31
0.0
 44
0.9
  1
2X \Fgdt;{\Fgdt;n}\Ftxt;12.0\P[0.47]
 40
0.3125
 41
3.0357142857
  0
LINE
  5
2DB
100
AcDbEntity
  8
0
100
AcDbLine
 62
2
  6
CONTINUOUS
 10
44.1570674908
 20
16.1552459964
 11
44.699906422
 21
19.8641650618
  0
LINE
  5
2DC
100
AcDbEntity
  8
0
100
AcDbLine
 62
2
  6
CONTINUOUS
 10
44.699906422
 20
19.8641650618
 11
45.043656422
 21
19.8641650618
  0
INSERT
  5
2DD
100
AcDbEntity
  8
0
100
AcDbBlockReference
 62
2
  6
CONTINUOUS
  2
_FILLED
 10
44.1570674908
 20
16.1552459964
 41
0.375
 42
0.375
 43
0.375
 50
261.6732866291
  0
ENDBLK
  5
2DE
100
AcDbEntity
  8
0
  6
BYBLOCK
 62
0
100
AcDbBlockEnd
  0
ENDSEC
  0
SECTION
  2
ENTITIES
  0
MTEXT
  5
2DF
100
AcDbEntity
  8
0
100
AcDbMText
 62
2
  6
CONTINUOUS
  7
STANDARD
 71
1
 72
1
 10
4.9258154895
 20
0.7298333671
 30
0.0
 11
1.0
 21
0.0
 31
0.0
 44
0.9
  1
8
 40
0.3125
 41
0.3683035714
  0
MTEXT
  5
2E0
100
AcDbEntity
  8
0
100
AcDbMText
 62
2
  6
CONTINUOUS
  7
STANDARD
 71
1
 72
1
 10
13.0508154895
 20
0.7298333671
 30
0.0
 11
1.0
 21
0.0
 31
0.0
 44
0.9
  1
7
 40
0.3125
 41
0.3683035714
  0
MTEXT
  5
2E1
100
AcDbEntity
  8
0
100
AcDbMText
 62
2
  6
CONTINUOUS
  7
STANDARD
 71
1
 72
1
 10
21.1758154895
 20
0.7298333671
 30
0.0
 11
1.0
 21
0.0
 31
0.0
 44
0.9
  1
6
 40
0.3125
 41
0.3683035714
  0
MTEXT
  5
2E2
100
AcDbEntity
  8
0
100
AcDbMText
 62
2
  6
CONTINUOUS
  7
STANDARD
 71
1
 72
1
 10
29.3008154895
 20
0.7298333671
 30
0.0
 11
1.0
 21
0.0
 31
0.0
 44
0.9
  1
5
 40
0.3125
 41
0.3348214286
  0
MTEXT
  5
2E3
100
AcDbEntity
  8
0
100
AcDbMText
 62
2
  6
CONTINUOUS
  7
STANDARD
 71
1
 72
1
 10
37.4258154895
 20
0.7298333671
 30
0.0
 11
1.0
 21
0.0
 31
0.0
 44
0.9
  1
4
 40
0.3125
 41
0.3683035714
  0
MTEXT
  5
2E4
100
AcDbEntity
  8
0
100
AcDbMText
 62
2
  6
CONTINUOUS
  7
STANDARD
 71
1
 72
1
 10
45.5508154895
 20
0.7298333671
 30
0.0
 11
1.0
 21
0.0
 31
0.0
 44
0.9
  1
3
 40
0.3125
 41
0.3348214286
  0
MTEXT
  5
2E5
100
AcDbEntity
  8
0
100
AcDbMText
 62
2
  6
CONTINUOUS
  7
STANDARD
 71
1
 72
1
 10
53.6758154895
 20
0.7298333671
 30
0.0
 11
1.0
 21
0.0
 31
0.0
 44
0.9
  1
2
 40
0.3125
 41
0.3683035714
  0
MTEXT
  5
2E6
100
AcDbEntity
  8
0
100
AcDbMText
 62
2
  6
CONTINUOUS
  7
STANDARD
 71
1
 72
1
 10
61.8008154895
 20
0.7298333671
 30
0.0
 11
1.0
 21
0.0
 31
0.0
 44
0.9
  1
1
 40
0.3125
 41
0.2678571429
  0
MTEXT
  5
2E7
100
AcDbEntity
  8
0
100
AcDbMText
 62
2
  6
CONTINUOUS
  7
STANDARD
 71
1
 72
1
 10
4.9258154895
 20
43.7298333671
 30
0.0
 11
1.0
 21
0.0
 31
0.0
 44
0.9
  1
8
 40
0.3125
 41
0.4575892857
  0
MTEXT
  5
2E8
100
AcDbEntity
  8
0
100
AcDbMText
 62
2
  6
CONTINUOUS
  7
STANDARD
 71
1
 72
1
 10
13.0508154895
 20
43.7298333671
 30
0.0
 11
1.0
 21
0.0
 31
0.0
 44
0.9
  1
7
 40
0.3125
 41
0.3683035714
  0
MTEXT
  5
2E9
100
AcDbEntity
  8
0
100
AcDbMText
 62
2
  6
CONTINUOUS
  7
STANDARD
 71
1
 72
1
 10
21.1758154895
 20
43.7298333671
 30
0.0
 11
1.0
 21
0.0
 31
0.0
 44
0.9
  1
6
 40
0.3125
 41
0.3683035714
  0
MTEXT
  5
2EA
100
AcDbEntity
  8
0
100
AcDbMText
 62
2
  6
CONTINUOUS
  7
STANDARD
 71
1
 72
1
 10
29.3008154895
 20
43.7298333671
 30
0.0
 11
1.0
 21
0.0
 31
0.0
 44
0.9
  1
5
 40
0.3125
 41
0.3348214286
  0
MTEXT
  5
2EB
100
AcDbEntity
  8
0
100
AcDbMText
 62
2
  6
CONTINUOUS
  7
STANDARD
 71
1
 72
1
 10
37.4258154895
 20
43.7298333671
 30
0.0
 11
1.0
 21
0.0
 31
0.0
 44
0.9
  1
4
 40
0.3125
 41
0.3683035714
  0
MTEXT
  5
2EC
100
AcDbEntity
  8
0
100
AcDbMText
 62
2
  6
CONTINUOUS
  7
STANDARD
 71
1
 72
1
 10
45.5508154895
 20
43.7298333671
 30
0.0
 11
1.0
 21
0.0
 31
0.0
 44
0.9
  1
3
 40
0.3125
 41
0.3348214286
  0
MTEXT
  5
2ED
100
AcDbEntity
  8
0
100
AcDbMText
 62
2
  6
CONTINUOUS
  7
STANDARD
 71
1
 72
1
 10
53.6758154895
 20
43.7298333671
 30
0.0
 11
1.0
 21
0.0
 31
0.0
 44
0.9
  1
2
 40
0.3125
 41
0.3683035714
  0
MTEXT
  5
2EE
100
AcDbEntity
  8
0
100
AcDbMText
 62
2
  6
CONTINUOUS
  7
STANDARD
 71
1
 72
1
 10
61.8008154895
 20
43.7298333671
 30
0.0
 11
1.0
 21
0.0
 31
0.0
 44
0.9
  1
1
 40
0.3125
 41
0.2678571429
  0
MTEXT
  5
2EF
100
AcDbEntity
  8
0
100
AcDbMText
 62
2
  6
CONTINUOUS
  7
STANDARD
 71
1
 72
1
 10
0.3964386186
 20
6.4389798985
 30
0.0
 11
1.0
 21
0.0
 31
0.0
 44
0.9
  1
A
 40
0.3125
 41
0.4017857143
  0
MTEXT
  5
2F0
100
AcDbEntity
  8
0
100
AcDbMText
 62
2
  6
CONTINUOUS
  7
STANDARD
 71
1
 72
1
 10
0.3964386186
 20
16.9389798985
 30
0.0
 11
1.0
 21
0.0
 31
0.0
 44
0.9
  1
B
 40
0.3125
 41
0.3683035714
  0
MTEXT
  5
2F1
100
AcDbEntity
  8
0
100
AcDbMText
 62
2
  6
CONTINUOUS
  7
STANDARD
 71
1
 72
1
 10
0.3964386186
 20
27.4389798985
 30
0.0
 11
1.0
 21
0.0
 31
0.0
 44
0.9
  1
C
 40
0.3125
 41
0.390625
  0
MTEXT
  5
2F2
100
AcDbEntity
  8
0
100
AcDbMText
 62
2
  6
CONTINUOUS
  7
STANDARD
 71
1
 72
1
 10
0.3964386186
 20
37.9389798985
 30
0.0
 11
1.0
 21
0.0
 31
0.0
 44
0.9
  1
D
 40
0.3125
 41
0.4241071429
  0
MTEXT
  5
2F3
100
AcDbEntity
  8
0
100
AcDbMText
 62
2
  6
CONTINUOUS
  7
STANDARD
 71
1
 72
1
 10
66.3964386186
 20
6.4389798985
 30
0.0
 11
1.0
 21
0.0
 31
0.0
 44
0.9
  1
A
 40
0.3125
 41
0.4017857143
  0
MTEXT
  5
2F4
100
AcDbEntity
  8
0
100
AcDbMText
 62
2
  6
CONTINUOUS
  7
STANDARD
 71
1
 72
1
 10
66.3964386186
 20
16.9389798985
 30
0.0
 11
1.0
 21
0.0
 31
0.0
 44
0.9
  1
B
 40
0.3125
 41
0.3683035714
  0
MTEXT
  5
2F5
100
AcDbEntity
  8
0
100
AcDbMText
 62
2
  6
CONTINUOUS
  7
STANDARD
 71
1
 72
1
 10
66.3964386186
 20
27.4389798985
 30
0.0
 11
1.0
 21
0.0
 31
0.0
 44
0.9
  1
C
 40
0.3125
 41
0.390625
  0
MTEXT
  5
2F6
100
AcDbEntity
  8
0
100
AcDbMText
 62
2
  6
CONTINUOUS
  7
STANDARD
 71
1
 72
1
 10
66.3964386186
 20
37.9389798985
 30
0.0
 11
1.0
 21
0.0
 31
0.0
 44
0.9
  1
D
 40
0.3125
 41
0.4241071429
  0
MTEXT
  5
2F7
100
AcDbEntity
  8
0
100
AcDbMText
 62
5
  6
CONTINUOUS
  7
STANDARD
 71
1
 72
1
 10
1.1325792212
 20
42.9123642308
 30
0.0
 11
1.0
 21
0.0
 31
0.0
 44
0.9
  1
THIS DOCUMENT CONTAINS PROPRIETARY INFORMATION\PWHICH IS THE PROPERTY OF QSC, LLC, THAT MAY NOT BE\PDISCLOSED, REPRODUCED OR USED WITHOUT EXPRESS\PWRITTEN CONSENT FROM QSC, LLC.
 40
0.15
 41
8.8875
  0
MTEXT
  5
2F8
100
AcDbEntity
  8
0
100
AcDbMText
 62
2
  6
CONTINUOUS
  7
STANDARD
 71
2
 72
1
 10
48.4986282107
 20
5.9565149306
 30
0.0
 11
1.0
 21
0.0
 31
0.0
 44
0.9
  1
UNLESS OTHERWISE SPECIFIED\PDIMENSIONS IN MILLIMETERS [IN]
 40
0.2
 41
6.5714285714
  0
MTEXT
  5
2F9
100
AcDbEntity
  8
0
100
AcDbMText
 62
2
  6
CONTINUOUS
  7
STANDARD
 71
2
 72
1
 10
48.4698945584
 20
5.1839709972
 30
0.0
 11
1.0
 21
0.0
 31
0.0
 44
0.9
  1
TOLERANCES ARE:
 40
0.18
 41
3.0921428571
  0
MTEXT
  5
2FA
100
AcDbEntity
  8
0
100
AcDbMText
 62
2
  6
CONTINUOUS
  7
STANDARD
 71
2
 72
1
 10
46.9985532817
 20
4.7274111455
 30
0.0
 11
1.0
 21
0.0
 31
0.0
 44
0.9
  1
DECIMALS\P.X\Fgdt;{\Fgdt;`}\Ftxt;.5[.02]
 40
0.18
 41
1.8578571429
  0
MTEXT
  5
2FB
100
AcDbEntity
  8
0
100
AcDbMText
 62
2
  6
CONTINUOUS
  7
STANDARD
 71
2
 72
1
 10
48.75
 20
4.715
 30
0.0
 11
1.0
 21
0.0
 31
0.0
 44
0.9
  1
DECIMALS\P.XX\Fgdt;{\Fgdt;`}\Ftxt;.25[.010]
 40
0.18
 41
2.4557142857
  0
MTEXT
  5
2FC
100
AcDbEntity
  8
0
100
AcDbMText
 62
2
  6
CONTINUOUS
  7
STANDARD
 71
2
 72
1
 10
50.2585939888
 20
4.7250013893
 30
0.0
 11
1.0
 21
0.0
 31
0.0
 44
0.9
  1
ANGLES\P\Fgdt;{\Fgdt;`}\Ftxt; 1/2
 40
0.18
 41
1.2857142857
  0
MTEXT
  5
2FD
100
AcDbEntity
  8
0
100
AcDbMText
 62
2
  6
CONTINUOUS
  7
STANDARD
 71
2
 72
1
 10
48.5
 20
3.965
 30
0.0
 11
1.0
 21
0.0
 31
0.0
 44
0.9
  1
DEBURR EDGES .25 [.010] R MAX
 40
0.18
 41
5.8821428571
  0
MTEXT
  5
2FE
100
AcDbEntity
  8
0
100
AcDbMText
 62
2
  6
CONTINUOUS
  7
STANDARD
 71
2
 72
1
 10
46.9178489616
 20
3.3724398351
 30
0.0
 11
1.0
 21
0.0
 31
0.0
 44
0.9
  1
MATERIAL
 40
0.18
 41
1.7292857143
  0
MTEXT
  5
2FF
100
AcDbEntity
  8
0
100
AcDbMText
 62
2
  6
CONTINUOUS
  7
STANDARD
 71
2
 72
1
 10
46.7262794321
 20
2.1542932539
 30
0.0
 11
1.0
 21
0.0
 31
0.0
 44
0.9
  1
FINISH
 40
0.18
 41
1.2278571429
  0
MTEXT
  5
300
100
AcDbEntity
  8
0
100
AcDbMText
 62
2
  6
CONTINUOUS
  7
STANDARD
 71
2
 72
1
 10
60.5395846296
 20
1.3618051235
 30
0.0
 11
1.0
 21
0.0
 31
0.0
 44
0.9
  1
DO NOT SCALE DRAWING
 40
0.25
 41
6.2321428571
  0
MTEXT
  5
301
100
AcDbEntity
  8
0
100
AcDbMText
 62
2
  6
CONTINUOUS
  7
STANDARD
 71
2
 72
1
 10
51.4420732885
 20
6.0178722363
 30
0.0
 11
1.0
 21
0.0
 31
0.0
 44
0.9
  1
DESIGNER
 40
0.18
 41
1.7035714286
  0
MTEXT
  5
302
100
AcDbEntity
  8
0
100
AcDbMText
 62
2
  6
CONTINUOUS
  7
STANDARD
 71
2
 72
1
 10
51.3716825982
 20
4.9931999708
 30
0.0
 11
1.0
 21
0.0
 31
0.0
 44
0.9
  1
ENGINEER
 40
0.18
 41
1.6521428571
  0
MTEXT
  5
303
100
AcDbEntity
  8
0
100
AcDbMText
 62
2
  6
CONTINUOUS
  7
STANDARD
 71
2
 72
1
 10
52.1396855542
 20
3.9492502587
 30
0.0
 11
1.0
 21
0.0
 31
0.0
 44
0.9
  1
TECHNICAL DIRECTOR
 40
0.18
 41
3.8442857143
  0
MTEXT
  5
304
100
AcDbEntity
  8
0
100
AcDbMText
 62
2
  6
CONTINUOUS
  7
STANDARD
 71
2
 72
1
 10
52.406322558
 20
2.9046238556
 30
0.0
 11
1.0
 21
0.0
 31
0.0
 44
0.9
  1
MANUFACTURING ENGINEER
 40
0.18
 41
4.6542857143
  0
MTEXT
  5
305
100
AcDbEntity
  8
0
100
AcDbMText
 62
2
  6
CONTINUOUS
  7
STANDARD
 71
2
 72
1
 10
51.9130470007
 20
1.3520049377
 30
0.0
 11
1.0
 21
0.0
 31
0.0
 44
0.9
  1
MODEL INFO:
 40
0.18
 41
2.205
  0
MTEXT
  5
306
100
AcDbEntity
  8
0
100
AcDbMText
 62
2
  6
CONTINUOUS
  7
STANDARD
 71
2
 72
1
 10
51.7277017866
 20
1.836722083
 30
0.0
 11
1.0
 21
0.0
 31
0.0
 44
0.9
  1
DRAWING INFO:
 40
0.18
 41
2.8028571429
  0
MTEXT
  5
307
100
AcDbEntity
  8
0
100
AcDbMText
 62
2
  6
CONTINUOUS
  7
STANDARD
 71
2
 72
1
 10
56.4787291628
 20
1.3340406604
 30
0.0
 11
1.0
 21
0.0
 31
0.0
 44
0.9
  1
SCALE:
 40
0.18
 41
1.1828571429
  0
MTEXT
  5
308
100
AcDbEntity
  8
0
100
AcDbMText
 62
2
  6
CONTINUOUS
  7
STANDARD
 71
2
 72
1
 10
63.2324854686
 20
1.337361773
 30
0.0
 11
1.0
 21
0.0
 31
0.0
 44
0.9
  1
SHEET
 40
0.18
 41
1.0928571429
  0
MTEXT
  5
309
100
AcDbEntity
  8
0
100
AcDbMText
 62
2
  6
CONTINUOUS
  7
STANDARD
 71
2
 72
1
 10
56.4839589016
 20
2.4206593346
 30
0.0
 11
1.0
 21
0.0
 31
0.0
 44
0.9
  1
SIZE
 40
0.18
 41
0.8421428571
  0
MTEXT
  5
30A
100
AcDbEntity
  8
0
100
AcDbMText
 62
2
  6
CONTINUOUS
  7
STANDARD
 71
2
 72
1
 10
57.9673952173
 20
2.4228328862
 30
0.0
 11
1.0
 21
0.0
 31
0.0
 44
0.9
  1
CAGE CODE
 40
0.18
 41
1.9992857143
  0
MTEXT
  5
30B
100
AcDbEntity
  8
0
100
AcDbMText
 62
2
  6
CONTINUOUS
  7
STANDARD
 71
2
 72
1
 10
59.8818994961
 20
2.4186659314
 30
0.0
 11
1.0
 21
0.0
 31
0.0
 44
0.9
  1
DRAWING NO.
 40
0.18
 41
2.4942857143
  0
MTEXT
  5
30C
100
AcDbEntity
  8
0
100
AcDbMText
 62
2
  6
CONTINUOUS
  7
STANDARD
 71
2
 72
1
 10
65.5242653189
 20
2.4213478134
 30
0.0
 11
1.0
 21
0.0
 31
0.0
 44
0.9
  1
REV
 40
0.18
 41
0.6814285714
  0
MTEXT
  5
30D
100
AcDbEntity
  8
0
100
AcDbMText
 62
2
  6
CONTINUOUS
  7
STANDARD
 71
2
 72
1
 10
60.8342830009
 20
5.9870356053
 30
0.0
 11
1.0
 21
0.0
 31
0.0
 44
0.9
  1
QSC, LLC
 40
0.3125
 41
2.8794642857
  0
MTEXT
  5
30E
100
AcDbEntity
  8
0
100
AcDbMText
 62
2
  6
CONTINUOUS
  7
STANDARD
 71
1
 72
1
 10
59.8242648276
 20
5.5085803278
 30
0.0
 11
1.0
 21
0.0
 31
0.0
 44
0.9
  1
1675 MACARTHUR BOULEVARD\PCOSTA MESA, CA  92626
 40
0.25
 41
7.1696428571
  0
MTEXT
  5
30F
100
AcDbEntity
  8
0
100
AcDbMText
 62
2
  6
CONTINUOUS
  7
STANDARD
 71
1
 72
1
 10
57.2602169778
 20
1.9925529836
 30
0.0
 11
1.0
 21
0.0
 31
0.0
 44
0.9
  1
00PW4
 40
0.3125
 41
2.1986607143
  0
INSERT
  5
310
100
AcDbEntity
  8
0
100
AcDbBlockReference
 62
7
  6
CONTINUOUS
  2
RD010411_BL0
 10
57.7776405976
 20
5.4022213303
  0
DIMENSION
  5
311
100
AcDbEntity
  8
0
100
AcDbDimension
 62
2
  6
CONTINUOUS
  2
*D0
 10
36.7699958952
 20
26.8359868933
 11
36.7699958952
 21
32.32995835
 70
160
 71
2
 42
291.0
  1
2X <>
  3
DIMSTYLE_1
100
AcDbAlignedDimension
 13
32.0493165433
 23
38.2926798067
 14
32.4016791097
 24
26.8359868933
 50
270.0
100
AcDbRotatedDimension
  0
DIMENSION
  5
312
100
AcDbEntity
  8
0
100
AcDbDimension
 62
2
  6
CONTINUOUS
  2
*D1
 10
37.9517020255
 20
13.8349014978
 11
37.9517020255
 21
15.687140671
 70
160
 71
2
 42
106.0
  3
DIMSTYLE_1
100
AcDbAlignedDimension
 13
32.0493165433
 23
18.0081298442
 14
32.0493165433
 24
13.8349014978
 50
270.0
100
AcDbRotatedDimension
  0
DIMENSION
  5
313
100
AcDbEntity
  8
0
100
AcDbDimension
 62
2
  6
CONTINUOUS
  2
*D2
 10
54.0047483873
 20
18.8449904009
 11
56.0438440788
 21
18.6106154009
 70
160
 71
1
 42
23.0
  1
2X <>
  3
DIMSTYLE_1
100
AcDbAlignedDimension
 13
53.0992365763
 23
18.0706298442
 14
54.0047483873
 24
17.952519608
100
AcDbRotatedDimension
  0
DIMENSION
  5
314
100
AcDbEntity
  8
0
100
AcDbDimension
 62
2
  6
CONTINUOUS
  2
*D3
 10
54.0047483873
 20
12.8787173359
 11
49.0638035054
 21
12.6443423359
 70
160
 71
2
 42
251.0
  1
2X <>
  3
DIMSTYLE_2
100
AcDbAlignedDimension
 13
44.1228586235
 23
15.4227951985
 14
54.0047483873
 24
13.890511734
100
AcDbRotatedDimension
  0
DIMENSION
  5
315
100
AcDbEntity
  8
0
100
AcDbDimension
 62
2
  6
CONTINUOUS
  2
*D4
 10
35.5987293064
 20
15.0356888993
 11
35.5987293064
 21
15.687140671
 70
160
 71
2
 42
45.0
  1
2X <>
  3
DIMSTYLE_2
100
AcDbAlignedDimension
 13
29.3592165676
 23
16.8073424426
 14
29.3517099997
 24
15.0356888993
 50
270.0
100
AcDbRotatedDimension
  0
DIMENSION
  5
316
100
AcDbEntity
  8
0
100
AcDbDimension
 62
2
  6
CONTINUOUS
  2
*D5
 10
21.009049963
 20
16.1732792647
 11
22.9671149064
 21
19.7978488602
 70
163
 71
1
 42
13.0
  1
%%c<>
  3
DIMSTYLE_3
100
AcDbDiametricDimension
 15
20.9173390292
 25
15.6697520772
  0
DIMENSION
  5
317
100
AcDbEntity
  8
0
100
AcDbDimension
 62
2
  6
CONTINUOUS
  2
*D6
 10
28.4316984331
 20
9.1938634168
 11
20.9631944961
 21
8.9594884168
 70
160
 71
2
 42
379.4
  1
2X <>
  3
DIMSTYLE_2
100
AcDbAlignedDimension
 13
13.4946905591
 23
14.6659775513
 14
28.4316984331
 24
14.555616597
100
AcDbRotatedDimension
  0
DIMENSION
  5
318
100
AcDbEntity
  8
0
100
AcDbDimension
 62
2
  6
CONTINUOUS
  2
*D7
 10
25.8253992205
 20
10.913238186
 11
20.9631944961
 21
10.678863186
 70
160
 71
2
 42
247.0
  3
DIMSTYLE_2
100
AcDbAlignedDimension
 13
16.1009897717
 23
15.6424802379
 14
25.8253992205
 24
15.6424802379
100
AcDbRotatedDimension
  0
DIMENSION
  5
319
100
AcDbEntity
  8
0
100
AcDbDimension
 62
2
  6
CONTINUOUS
  2
*D8
 10
32.5360291418
 20
40.0177111117
 11
20.9631944961
 21
39.7833361117
 70
160
 71
2
 42
587.9
  3
DIMSTYLE_4
100
AcDbAlignedDimension
 13
9.3903598504
 23
38.0376660854
 14
32.5360291418
 24
37.8118727201
100
AcDbRotatedDimension
  0
DIMENSION
  5
31A
100
AcDbEntity
  8
0
100
AcDbDimension
 62
2
  6
CONTINUOUS
  2
*D9
 10
32.2210688735
 20
26.2507915626
 11
34.7217436197
 21
26.0164165626
 70
160
 71
1
 42
3.0
  1
(<>)
  3
DIMSTYLE_4
100
AcDbAlignedDimension
 13
32.3391791097
 23
26.7734868933
 14
32.2210688735
 24
26.7734868933
 50
180.0
100
AcDbRotatedDimension
  0
DIMENSION
  5
31B
100
AcDbEntity
  8
0
100
AcDbDimension
 62
2
  6
CONTINUOUS
  2
*D10
 10
9.5872098825
 20
24.6736007157
 11
21.3144986078
 21
24.4392257157
 70
160
 71
2
 42
577.9000183723
  3
DIMSTYLE_4
100
AcDbAlignedDimension
 13
32.3391791097
 23
26.7734868933
 14
9.5872098825
 24
26.7734868933
 50
180.0
100
AcDbRotatedDimension
  0
DIMENSION
  5
31C
100
AcDbEntity
  8
0
100
AcDbDimension
 62
2
  6
CONTINUOUS
  2
*D11
 10
34.4625352973
 20
38.2926798067
 11
34.4625352973
 21
34.5324682735
 70
160
 71
2
 42
207.7040498174
  1
2X <>
  3
DIMSTYLE_4
100
AcDbAlignedDimension
 13
32.4214821888
 23
30.1153550108
 14
32.2036391115
 24
38.2926798067
 50
90.0
100
AcDbRotatedDimension
  0
DIMENSION
  5
31D
100
AcDbEntity
  8
0
100
AcDbDimension
 62
2
  6
CONTINUOUS
  2
*D12
 10
44.1570674908
 20
16.1552459964
 11
46.3792218982
 21
19.6297900618
 70
163
 71
1
 42
12.0
  1
2X %%c<>
  3
DIMSTYLE_5
100
AcDbDiametricDimension
 15
44.0886497562
 25
15.6877853456
  0
LINE
  5
31E
100
AcDbEntity
  8
0
100
AcDbLine
 62
2
  6
CONTINUOUS
 10
46.25
 20
3.5
 11
50.75
 21
3.5
  0
LINE
  5
31F
100
AcDbEntity
  8
0
100
AcDbLine
 62
2
  6
CONTINUOUS
 10
46.25
 20
3.5
 11
46.25
 21
2.25
  0
LINE
  5
320
100
AcDbEntity
  8
0
100
AcDbLine
 62
2
  6
CONTINUOUS
 10
46.25
 20
2.25
 11
50.75
 21
2.25
  0
LINE
  5
321
100
AcDbEntity
  8
0
100
AcDbLine
 62
2
  6
CONTINUOUS
 10
50.75
 20
3.5
 11
50.75
 21
2.25
  0
LINE
  5
322
100
AcDbEntity
  8
0
100
AcDbLine
 62
2
  6
CONTINUOUS
 10
46.25
 20
2.25
 11
50.75
 21
2.25
  0
LINE
  5
323
100
AcDbEntity
  8
0
100
AcDbLine
 62
2
  6
CONTINUOUS
 10
46.25
 20
2.25
 11
46.25
 21
1.0
  0
LINE
  5
324
100
AcDbEntity
  8
0
100
AcDbLine
 62
2
  6
CONTINUOUS
 10
46.25
 20
1.0
 11
50.75
 21
1.0
  0
LINE
  5
325
100
AcDbEntity
  8
0
100
AcDbLine
 62
2
  6
CONTINUOUS
 10
50.75
 20
2.25
 11
50.75
 21
1.0
  0
LINE
  5
326
100
AcDbEntity
  8
0
100
AcDbLine
 62
2
  6
CONTINUOUS
 10
50.7494219713
 20
6.1234928289
 11
55.9994219713
 21
6.1234928289
  0
LINE
  5
327
100
AcDbEntity
  8
0
100
AcDbLine
 62
2
  6
CONTINUOUS
 10
50.7494219713
 20
6.1234928289
 11
50.7494219713
 21
5.1034928289
  0
LINE
  5
328
100
AcDbEntity
  8
0
100
AcDbLine
 62
2
  6
CONTINUOUS
 10
50.7494219713
 20
5.1034928289
 11
55.9994219713
 21
5.1034928289
  0
LINE
  5
329
100
AcDbEntity
  8
0
100
AcDbLine
 62
2
  6
CONTINUOUS
 10
55.9994219713
 20
6.1234928289
 11
55.9994219713
 21
5.1034928289
  0
MTEXT
  5
32A
100
AcDbEntity
  8
0
100
AcDbMText
 62
2
  6
CONTINUOUS
  7
STANDARD
 71
1
 72
1
 10
50.8744219713
 20
5.5722428289
 30
0.0
 11
1.0
 21
0.0
 31
0.0
 44
0.9
  1
ENG. SERVICES
 40
0.3125
 41
4.6540178571
  0
LINE
  5
32B
100
AcDbEntity
  8
0
100
AcDbLine
 62
2
  6
CONTINUOUS
 10
50.75
 20
5.0922730768
 11
56.0
 21
5.0922730768
  0
LINE
  5
32C
100
AcDbEntity
  8
0
100
AcDbLine
 62
2
  6
CONTINUOUS
 10
50.75
 20
5.0922730768
 11
50.75
 21
4.0722730768
  0
LINE
  5
32D
100
AcDbEntity
  8
0
100
AcDbLine
 62
2
  6
CONTINUOUS
 10
50.75
 20
4.0722730768
 11
56.0
 21
4.0722730768
  0
LINE
  5
32E
100
AcDbEntity
  8
0
100
AcDbLine
 62
2
  6
CONTINUOUS
 10
56.0
 20
5.0922730768
 11
56.0
 21
4.0722730768
  0
LINE
  5
32F
100
AcDbEntity
  8
0
100
AcDbLine
 62
2
  6
CONTINUOUS
 10
50.75
 20
4.0475990231
 11
56.0
 21
4.0475990231
  0
LINE
  5
330
100
AcDbEntity
  8
0
100
AcDbLine
 62
2
  6
CONTINUOUS
 10
50.75
 20
4.0475990231
 11
50.75
 21
3.0275990231
  0
LINE
  5
331
100
AcDbEntity
  8
0
100
AcDbLine
 62
2
  6
CONTINUOUS
 10
50.75
 20
3.0275990231
 11
56.0
 21
3.0275990231
  0
LINE
  5
332
100
AcDbEntity
  8
0
100
AcDbLine
 62
2
  6
CONTINUOUS
 10
56.0
 20
4.0475990231
 11
56.0
 21
3.0275990231
  0
LINE
  5
333
100
AcDbEntity
  8
0
100
AcDbLine
 62
2
  6
CONTINUOUS
 10
50.75
 20
2.9999312041
 11
56.0
 21
2.9999312041
  0
LINE
  5
334
100
AcDbEntity
  8
0
100
AcDbLine
 62
2
  6
CONTINUOUS
 10
50.75
 20
2.9999312041
 11
50.75
 21
1.9799312041
  0
LINE
  5
335
100
AcDbEntity
  8
0
100
AcDbLine
 62
2
  6
CONTINUOUS
 10
50.75
 20
1.9799312041
 11
56.0
 21
1.9799312041
  0
LINE
  5
336
100
AcDbEntity
  8
0
100
AcDbLine
 62
2
  6
CONTINUOUS
 10
56.0
 20
2.9999312041
 11
56.0
 21
1.9799312041
  0
LINE
  5
337
100
AcDbEntity
  8
0
100
AcDbLine
 62
2
  6
CONTINUOUS
 10
50.75
 20
2.0
 11
56.0
 21
2.0
  0
LINE
  5
338
100
AcDbEntity
  8
0
100
AcDbLine
 62
2
  6
CONTINUOUS
 10
50.75
 20
2.0
 11
50.75
 21
1.5
  0
LINE
  5
339
100
AcDbEntity
  8
0
100
AcDbLine
 62
2
  6
CONTINUOUS
 10
50.75
 20
1.5
 11
56.0
 21
1.5
  0
LINE
  5
33A
100
AcDbEntity
  8
0
100
AcDbLine
 62
2
  6
CONTINUOUS
 10
56.0
 20
2.0
 11
56.0
 21
1.5
  0
MTEXT
  5
33B
100
AcDbEntity
  8
0
100
AcDbMText
 62
2
  6
CONTINUOUS
  7
STANDARD
 71
3
 72
1
 10
55.875
 20
1.87625
 30
0.0
 11
1.0
 21
0.0
 31
0.0
 44
0.9
  1
FG-901181-2D.A.0
 40
0.22
 41
3.85
  0
LINE
  5
33C
100
AcDbEntity
  8
0
100
AcDbLine
 62
2
  6
CONTINUOUS
 10
50.75
 20
1.5
 11
56.0
 21
1.5
  0
LINE
  5
33D
100
AcDbEntity
  8
0
100
AcDbLine
 62
2
  6
CONTINUOUS
 10
50.75
 20
1.5
 11
50.75
 21
1.0
  0
LINE
  5
33E
100
AcDbEntity
  8
0
100
AcDbLine
 62
2
  6
CONTINUOUS
 10
50.75
 20
1.0
 11
56.0
 21
1.0
  0
LINE
  5
33F
100
AcDbEntity
  8
0
100
AcDbLine
 62
2
  6
CONTINUOUS
 10
56.0
 20
1.5
 11
56.0
 21
1.0
  0
MTEXT
  5
340
100
AcDbEntity
  8
0
100
AcDbMText
 62
2
  6
CONTINUOUS
  7
STANDARD
 71
3
 72
1
 10
55.875
 20
1.37625
 30
0.0
 11
1.0
 21
0.0
 31
0.0
 44
0.9
  1
FG-901181-3D.A.0
 40
0.22
 41
3.8264285714
  0
LINE
  5
341
100
AcDbEntity
  8
0
100
AcDbLine
 62
2
  6
CONTINUOUS
 10
56.0
 20
4.75
 11
66.0
 21
4.75
  0
LINE
  5
342
100
AcDbEntity
  8
0
100
AcDbLine
 62
2
  6
CONTINUOUS
 10
56.0
 20
4.75
 11
56.0
 21
2.5
  0
LINE
  5
343
100
AcDbEntity
  8
0
100
AcDbLine
 62
2
  6
CONTINUOUS
 10
56.0
 20
2.5
 11
66.0
 21
2.5
  0
LINE
  5
344
100
AcDbEntity
  8
0
100
AcDbLine
 62
2
  6
CONTINUOUS
 10
66.0
 20
4.75
 11
66.0
 21
2.5
  0
MTEXT
  5
345
100
AcDbEntity
  8
0
100
AcDbMText
 62
2
  6
CONTINUOUS
  7
STANDARD
 71
2
 72
1
 10
61.0
 20
3.895
 30
0.0
 11
1.0
 21
0.0
 31
0.0
 44
1.02
  1
E110 YOKE MOUNT-BK
 40
0.4
 41
8.3428571429
  0
LINE
  5
346
100
AcDbEntity
  8
0
100
AcDbLine
 62
2
  6
CONTINUOUS
 10
56.0021846059
 20
2.495880935
 11
57.0021846059
 21
2.495880935
  0
LINE
  5
347
100
AcDbEntity
  8
0
100
AcDbLine
 62
2
  6
CONTINUOUS
 10
56.0021846059
 20
2.495880935
 11
56.0021846059
 21
1.495880935
  0
LINE
  5
348
100
AcDbEntity
  8
0
100
AcDbLine
 62
2
  6
CONTINUOUS
 10
56.0021846059
 20
1.495880935
 11
57.0021846059
 21
1.495880935
  0
LINE
  5
349
100
AcDbEntity
  8
0
100
AcDbLine
 62
2
  6
CONTINUOUS
 10
57.0021846059
 20
2.495880935
 11
57.0021846059
 21
1.495880935
  0
MTEXT
  5
34A
100
AcDbEntity
  8
0
100
AcDbMText
 62
2
  6
CONTINUOUS
  7
STANDARD
 71
2
 72
1
 10
56.5021846059
 20
2.052130935
 30
0.0
 11
1.0
 21
0.0
 31
0.0
 44
0.9
  1
D
 40
0.4
 41
0.6571428571
  0
LINE
  5
34B
100
AcDbEntity
  8
0
100
AcDbLine
 62
2
  6
CONTINUOUS
 10
59.0010349952
 20
2.4899491782
 11
65.0010349952
 21
2.4899491782
  0
LINE
  5
34C
100
AcDbEntity
  8
0
100
AcDbLine
 62
2
  6
CONTINUOUS
 10
59.0010349952
 20
2.4899491782
 11
59.0010349952
 21
1.4899491782
  0
LINE
  5
34D
100
AcDbEntity
  8
0
100
AcDbLine
 62
2
  6
CONTINUOUS
 10
59.0010349952
 20
1.4899491782
 11
65.0010349952
 21
1.4899491782
  0
LINE
  5
34E
100
AcDbEntity
  8
0
100
AcDbLine
 62
2
  6
CONTINUOUS
 10
65.0010349952
 20
2.4899491782
 11
65.0010349952
 21
1.4899491782
  0
MTEXT
  5
34F
100
AcDbEntity
  8
0
100
AcDbMText
 62
2
  6
CONTINUOUS
  7
STANDARD
 71
2
 72
1
 10
62.0010349952
 20
2.1061991782
 30
0.0
 11
1.0
 21
0.0
 31
0.0
 44
0.9
  1
FG-901181-2D
 40
0.46
 41
6.1278571429
  0
LINE
  5
350
100
AcDbEntity
  8
0
100
AcDbLine
 62
2
  6
CONTINUOUS
 10
64.9973997925
 20
2.4965756452
 11
65.9973997925
 21
2.4965756452
  0
LINE
  5
351
100
AcDbEntity
  8
0
100
AcDbLine
 62
2
  6
CONTINUOUS
 10
64.9973997925
 20
2.4965756452
 11
64.9973997925
 21
1.4965756452
  0
LINE
  5
352
100
AcDbEntity
  8
0
100
AcDbLine
 62
2
  6
CONTINUOUS
 10
64.9973997925
 20
1.4965756452
 11
65.9973997925
 21
1.4965756452
  0
LINE
  5
353
100
AcDbEntity
  8
0
100
AcDbLine
 62
2
  6
CONTINUOUS
 10
65.9973997925
 20
2.4965756452
 11
65.9973997925
 21
1.4965756452
  0
MTEXT
  5
354
100
AcDbEntity
  8
0
100
AcDbMText
 62
2
  6
CONTINUOUS
  7
STANDARD
 71
2
 72
1
 10
65.4973997925
 20
2.0128256452
 30
0.0
 11
1.0
 21
0.0
 31
0.0
 44
0.9
  1
A
 40
0.36
 41
0.5657142857
  0
LINE
  5
355
100
AcDbEntity
  8
0
100
AcDbLine
 62
2
  6
CONTINUOUS
 10
62.7512412387
 20
1.4858577673
 11
66.0012412387
 21
1.4858577673
  0
LINE
  5
356
100
AcDbEntity
  8
0
100
AcDbLine
 62
2
  6
CONTINUOUS
 10
62.7512412387
 20
1.4858577673
 11
62.7512412387
 21
0.9858577673
  0
LINE
  5
357
100
AcDbEntity
  8
0
100
AcDbLine
 62
2
  6
CONTINUOUS
 10
62.7512412387
 20
0.9858577673
 11
66.0012412387
 21
0.9858577673
  0
LINE
  5
358
100
AcDbEntity
  8
0
100
AcDbLine
 62
2
  6
CONTINUOUS
 10
66.0012412387
 20
1.4858577673
 11
66.0012412387
 21
0.9858577673
  0
MTEXT
  5
359
100
AcDbEntity
  8
0
100
AcDbMText
 62
2
  6
CONTINUOUS
  7
STANDARD
 71
3
 72
1
 10
65.8762412387
 20
1.4221077673
 30
0.0
 11
1.0
 21
0.0
 31
0.0
 44
0.9
  1
1 OF 1
 40
0.28
 41
1.77
  0
LINE
  5
35A
100
AcDbEntity
  8
0
100
AcDbLine
 62
2
  6
CONTINUOUS
 10
55.9965196242
 20
1.4976464338
 11
58.3725196242
 21
1.4976464338
  0
LINE
  5
35B
100
AcDbEntity
  8
0
100
AcDbLine
 62
2
  6
CONTINUOUS
 10
55.9965196242
 20
1.4976464338
 11
55.9965196242
 21
0.9898339338
  0
LINE
  5
35C
100
AcDbEntity
  8
0
100
AcDbLine
 62
2
  6
CONTINUOUS
 10
55.9965196242
 20
0.9898339338
 11
58.3725196242
 21
0.9898339338
  0
LINE
  5
35D
100
AcDbEntity
  8
0
100
AcDbLine
 62
2
  6
CONTINUOUS
 10
58.3725196242
 20
1.4976464338
 11
58.3725196242
 21
0.9898339338
  0
MTEXT
  5
35E
100
AcDbEntity
  8
0
100
AcDbMText
 62
2
  6
CONTINUOUS
  7
STANDARD
 71
3
 72
1
 10
58.2475196242
 20
1.3860839338
 30
0.0
 11
1.0
 21
0.0
 31
0.0
 44
0.9
  1
0.500
 40
0.24
 41
1.38
  0
LWPOLYLINE
  5
35F
100
AcDbEntity
  8
0
100
AcDbPolyline
 62
2
  6
CONTINUOUS
 90
2
 70
0
 43
0.04
 10
66.0175961538
 20
42.9856113022
 10
45.8525961538
 20
42.9856113022
  0
LWPOLYLINE
  5
360
100
AcDbEntity
  8
0
100
AcDbPolyline
 62
2
  6
CONTINUOUS
 90
2
 70
0
 43
0.04
 10
65.9975961538
 20
42.9856113022
 10
65.9975961538
 20
39.8606113022
  0
LWPOLYLINE
  5
361
100
AcDbEntity
  8
0
100
AcDbPolyline
 62
2
  6
CONTINUOUS
 90
2
 70
0
 43
0.04
 10
65.9975961538
 20
42.3606113022
 10
45.8725961538
 20
42.3606113022
  0
LWPOLYLINE
  5
362
100
AcDbEntity
  8
0
100
AcDbPolyline
 62
2
  6
CONTINUOUS
 90
2
 70
0
 43
0.04
 10
65.9975961538
 20
41.7356113022
 10
45.8725961538
 20
41.7356113022
  0
LWPOLYLINE
  5
363
100
AcDbEntity
  8
0
100
AcDbPolyline
 62
2
  6
CONTINUOUS
 90
2
 70
0
 43
0.04
 10
65.9975961538
 20
41.1106113022
 10
45.8725961538
 20
41.1106113022
  0
LWPOLYLINE
  5
364
100
AcDbEntity
  8
0
100
AcDbPolyline
 62
2
  6
CONTINUOUS
 90
2
 70
0
 43
0.04
 10
65.9975961538
 20
40.4856113022
 10
45.8725961538
 20
40.4856113022
  0
LWPOLYLINE
  5
365
100
AcDbEntity
  8
0
100
AcDbPolyline
 62
2
  6
CONTINUOUS
 90
2
 70
0
 43
0.04
 10
66.0175961538
 20
39.8606113022
 10
45.8525961538
 20
39.8606113022
  0
LWPOLYLINE
  5
366
100
AcDbEntity
  8
0
100
AcDbPolyline
 62
2
  6
CONTINUOUS
 90
2
 70
0
 43
0.04
 10
63.4975961538
 20
42.3606113022
 10
63.4975961538
 20
39.8606113022
  0
LWPOLYLINE
  5
367
100
AcDbEntity
  8
0
100
AcDbPolyline
 62
2
  6
CONTINUOUS
 90
2
 70
0
 43
0.04
 10
62.4975961538
 20
42.3606113022
 10
62.4975961538
 20
39.8606113022
  0
LWPOLYLINE
  5
368
100
AcDbEntity
  8
0
100
AcDbPolyline
 62
2
  6
CONTINUOUS
 90
2
 70
0
 43
0.04
 10
46.8725961538
 20
42.3606113022
 10
46.8725961538
 20
39.8606113022
  0
LWPOLYLINE
  5
369
100
AcDbEntity
  8
0
100
AcDbPolyline
 62
2
  6
CONTINUOUS
 90
2
 70
0
 43
0.04
 10
45.8725961538
 20
42.9856113022
 10
45.8725961538
 20
39.8606113022
  0
MTEXT
  5
36A
100
AcDbEntity
  8
0
100
AcDbMText
 62
2
  6
CONTINUOUS
  7
STANDARD
 71
2
 72
1
 10
55.9350961538
 20
42.8293613022
 30
0.0
 11
1.0
 21
0.0
 31
0.0
 44
0.9
  1
REVISIONS
 40
0.3125
 41
3.1696428571
  0
MTEXT
  5
36B
100
AcDbEntity
  8
0
100
AcDbMText
 62
2
  6
CONTINUOUS
  7
STANDARD
 71
2
 72
1
 10
64.7475961538
 20
42.2043613022
 30
0.0
 11
1.0
 21
0.0
 31
0.0
 44
0.9
  1
 DATE 
 40
0.3125
 41
2.3883928571
  0
MTEXT
  5
36C
100
AcDbEntity
  8
0
100
AcDbMText
 62
2
  6
CONTINUOUS
  7
STANDARD
 71
2
 72
1
 10
62.9975961538
 20
42.2043613022
 30
0.0
 11
1.0
 21
0.0
 31
0.0
 44
0.9
  1
BY
 40
0.3125
 41
0.7700892857
  0
MTEXT
  5
36D
100
AcDbEntity
  8
0
100
AcDbMText
 62
2
  6
CONTINUOUS
  7
STANDARD
 71
2
 72
1
 10
54.6850961538
 20
42.2043613022
 30
0.0
 11
1.0
 21
0.0
 31
0.0
 44
0.9
  1
DESCRIPTION
 40
0.3125
 41
3.9955357143
  0
MTEXT
  5
36E
100
AcDbEntity
  8
0
100
AcDbMText
 62
2
  6
CONTINUOUS
  7
STANDARD
 71
2
 72
1
 10
46.3725961538
 20
42.2043613022
 30
0.0
 11
1.0
 21
0.0
 31
0.0
 44
0.9
  1
REV
 40
0.3125
 41
1.09375
  0
MTEXT
  5
36F
100
AcDbEntity
  8
0
100
AcDbMText
 62
2
  6
CONTINUOUS
  7
STANDARD
 71
2
 72
1
 10
64.7475961538
 20
41.5793613022
 30
0.0
 11
1.0
 21
0.0
 31
0.0
 44
0.9
  1
24-JAN-18
 40
0.3125
 41
3.203125
  0
MTEXT
  5
370
100
AcDbEntity
  8
0
100
AcDbMText
 62
2
  6
CONTINUOUS
  7
STANDARD
 71
2
 72
1
 10
62.9975961538
 20
41.5793613022
 30
0.0
 11
1.0
 21
0.0
 31
0.0
 44
0.9
  1
ES
 40
0.3125
 41
0.7924107143
  0
MTEXT
  5
371
100
AcDbEntity
  8
0
100
AcDbMText
 62
2
  6
CONTINUOUS
  7
STANDARD
 71
1
 72
1
 10
46.9975961538
 20
41.5793613022
 30
0.0
 11
1.0
 21
0.0
 31
0.0
 44
0.9
  1
RELEASE FOR SAlES AND MARKETING 
 40
0.3125
 41
11.6629464286
  0
MTEXT
  5
372
100
AcDbEntity
  8
0
100
AcDbMText
 62
2
  6
CONTINUOUS
  7
STANDARD
 71
2
 72
1
 10
46.3725961538
 20
41.5793613022
 30
0.0
 11
1.0
 21
0.0
 31
0.0
 44
0.9
  1
A
 40
0.3125
 41
0.4910714286
  0
MTEXT
  5
373
100
AcDbEntity
  8
0
100
AcDbMText
 62
2
  6
CONTINUOUS
  7
STANDARD
 71
1
 72
1
 10
1.3459170672
 20
4.7036552044
 30
0.0
 11
1.0
 21
0.0
 31
0.0
 44
1.2
  3
4. PARTS ARE SYMMETRICAL ABOUT CENTER LINES UNLESS OTHERWISE NOTED.\P3. DIMENSIONS ARE IN MILLIMETERS [INCH].\P2. TOLERANCES (MM): X \Fgdt;{\Fgdt;`}\Ftxt; 3, ANGLES: \Fgdt;{\Fgdt;`}\Ftxt; 1\Fgdt;{\Fgdt;~}\Ftxt;.\P1. NET WEIGHT APPROX. 3.49 KG [7.7 LB
  1
S].\P \PNOTE:  UNLESS OTHERWISE SPECIFIED
 40
0.3125
 41
24.6651785714
  0
MTEXT
  5
374
100
AcDbEntity
  8
0
100
AcDbMText
 62
2
  6
CONTINUOUS
  7
TEXTSTYLE_1
 71
1
 72
1
 10
20.7787300581
 20
12.6922099671
 30
0.0
 11
1.0
 21
0.0
 31
0.0
 44
0.9
  1
{\Fgdt;q}
 40
0.3125
 41
0.4947916667
  0
MTEXT
  5
375
100
AcDbEntity
  8
0
100
AcDbMText
 62
2
  6
CONTINUOUS
  7
TEXTSTYLE_1
 71
1
 72
1
 10
33.2947103881
 20
16.0821102323
 30
0.0
 11
1.0
 21
0.0
 31
0.0
 44
0.9
  1
{\Fgdt;q}
 40
0.3125
 41
0.4947916667
  0
LEADER
  5
376
100
AcDbEntity
  8
0
100
AcDbLeader
 62
2
  6
CONTINUOUS
  3
STANDARD
 71
1
 72
0
 73
0
 75
0
 40
0.3125
 41
0.9077380952
 76
3
 10
28.598249001
 20
17.0041928363
 30
0.0
 10
29.1431207959
 20
19.9817588562
 30
0.0
 10
29.6431207959
 20
19.9817588562
 30
0.0
340
377
1001
ACAD
1000
DSTYLE
1002
{
1070
77
1070
0
1002
}
  0
MTEXT
  5
377
102
{ACAD_REACTORS
330
376
102
}
100
AcDbEntity
  8
0
100
AcDbMText
 62
2
  6
CONTINUOUS
  7
STANDARD
 71
1
 72
1
 10
29.6431207959
 20
20.1380088562
 30
0.0
 11
1.0
 21
0.0
 31
0.0
 44
0.9
  1
10.0{\Ftxt.shx;\W0.809524;\H0.312500; } X 37.0{\Ftxt.shx;\W0.714286;\H0.312500; } SLOT FULL R TYP\P[0.39]{\Ftxt.shx;\W2.428571;\H0.312500; }[1.46]
 40
0.3125
 41
10.3125
  0
LEADER
  5
378
100
AcDbEntity
  8
0
100
AcDbLeader
 62
2
  6
CONTINUOUS
  3
STANDARD
 71
1
 72
0
 73
0
 75
0
 40
0.3125
 41
0.8407738095
 76
3
 10
25.8817188899
 20
16.1380511041
 30
0.0
 10
26.8672620694
 20
22.1500661382
 30
0.0
 10
27.3672620694
 20
22.1500661382
 30
0.0
340
379
1001
ACAD
1000
DSTYLE
1002
{
1070
77
1070
0
1002
}
  0
MTEXT
  5
379
102
{ACAD_REACTORS
330
378
102
}
100
AcDbEntity
  8
0
100
AcDbMText
 62
2
  6
CONTINUOUS
  7
STANDARD
 71
1
 72
1
 10
27.3672620694
 20
22.3063161382
 30
0.0
 11
1.0
 21
0.0
 31
0.0
 44
0.9
  1
11.0{\Ftxt.shx;\W1.023810;\H0.312500; } X 18.0{\Ftxt.shx;\W0.857143;\H0.312500; } SLOT FULL R TYP\P[0.43]{\Ftxt.shx;\W2.428571;\H0.312500; }[0.71]
 40
0.3125
 41
10.3125
  0
MTEXT
  5
37A
100
AcDbEntity
  8
0
100
AcDbMText
 62
2
  6
CONTINUOUS
  7
TEXTSTYLE_1
 71
1
 72
1
 10
20.7584196543
 20
27.2765749092
 30
0.0
 11
1.0
 21
0.0
 31
0.0
 44
0.9
  1
{\Fgdt;q}
 40
0.3125
 41
0.4947916667
  0
MTEXT
  5
37B
100
AcDbEntity
  8
0
100
AcDbMText
 62
2
  6
CONTINUOUS
  7
TEXTSTYLE_1
 71
1
 72
1
 10
54.7624521456
 20
16.0739560042
 30
0.0
 11
1.0
 21
0.0
 31
0.0
 44
0.9
  1
{\Fgdt;q}
 40
0.3125
 41
0.4947916667
  0
MTEXT
  5
37C
100
AcDbEntity
  8
0
100
AcDbMText
 62
2
  6
CONTINUOUS
  7
TEXTSTYLE_2
 71
3
 72
1
 10
58.1155505765
 20
27.5855139994
 30
0.0
 11
1.0
 21
0.0
 31
0.0
 44
0.9
  1
SCALE  0.300
 40
0.4
 41
5.13
  0
LINE
  5
37D
100
AcDbEntity
  8
DEFAULT_3
100
AcDbLine
 62
7
  6
PHANTOM
 10
0.0
 20
-0.0
 11
0.0
 21
44.0
  0
LWPOLYLINE
  5
37E
100
AcDbEntity
  8
0
100
AcDbPolyline
 62
7
  6
CONTINUOUS
 90
2
 70
0
 43
0.0400000017
 10
0.5249254442
 20
21.6626902213
 10
0.5249254442
 20
22.3373097787
  0
LWPOLYLINE
  5
37F
100
AcDbEntity
  8
0
100
AcDbPolyline
 62
7
  6
CONTINUOUS
 90
2
 70
0
 43
0.0600000005
 10
1.0
 20
43.0
 10
1.0
 20
1.0
  0
LWPOLYLINE
  5
380
100
AcDbEntity
  8
0
100
AcDbPolyline
 62
7
  6
CONTINUOUS
 90
2
 70
0
 43
0.0600000005
 10
7.125
 20
43.0
 10
7.125
 20
42.0
  0
LWPOLYLINE
  5
381
100
AcDbEntity
  8
0
100
AcDbPolyline
 62
7
  6
CONTINUOUS
 90
2
 70
0
 43
0.0400000017
 10
9.125
 20
1.0
 10
9.125
 20
-0.0
  0
LWPOLYLINE
  5
382
100
AcDbEntity
  8
0
100
AcDbPolyline
 62
7
  6
CONTINUOUS
 90
2
 70
0
 43
0.0400000017
 10
9.125
 20
43.0
 10
9.125
 20
44.0
  0
LINE
  5
383
100
AcDbEntity
  8
0
100
AcDbLine
 62
7
  6
CONTINUOUS
 10
46.2694631086
 20
1.0295736502
 11
50.7304960231
 21
2.2301364173
  0
LINE
  5
384
100
AcDbEntity
  8
0
100
AcDbLine
 62
7
  6
CONTINUOUS
 10
46.2682801557
 20
2.2692611967
 11
50.7307363962
 21
3.4801964194
  0
LINE
  5
385
100
AcDbEntity
  8
DEFAULT_3
100
AcDbLine
 62
7
  6
PHANTOM
 10
0.0
 20
-0.0
 11
68.0
 21
-0.0
  0
LWPOLYLINE
  5
386
100
AcDbEntity
  8
0
100
AcDbPolyline
 62
7
  6
CONTINUOUS
 90
2
 70
0
 43
0.0400000017
 10
33.1626902213
 20
0.5249254442
 10
33.8373097787
 20
0.5249254442
  0
LWPOLYLINE
  5
387
100
AcDbEntity
  8
0
100
AcDbPolyline
 62
7
  6
CONTINUOUS
 90
2
 70
0
 43
0.0400000017
 10
1.0
 20
22.0
 10
0.5249254442
 20
21.6626902213
  0
LWPOLYLINE
  5
388
100
AcDbEntity
  8
0
100
AcDbPolyline
 62
7
  6
CONTINUOUS
 90
2
 70
0
 43
0.0600000005
 10
1.0
 20
1.0
 10
66.0
 20
1.0
  0
LWPOLYLINE
  5
389
100
AcDbEntity
  8
0
100
AcDbPolyline
 62
7
  6
CONTINUOUS
 90
2
 70
0
 43
0.0400000017
 10
50.75
 20
1.5
 10
66.0
 20
1.5
  0
LWPOLYLINE
  5
38A
100
AcDbEntity
  8
0
100
AcDbPolyline
 62
7
  6
CONTINUOUS
 90
2
 70
0
 43
0.0400000017
 10
50.75
 20
2.0
 10
56.0
 20
2.0
  0
LWPOLYLINE
  5
38B
100
AcDbEntity
  8
0
100
AcDbPolyline
 62
7
  6
CONTINUOUS
 90
2
 70
0
 43
0.0400000017
 10
50.75
 20
2.25
 10
46.25
 20
2.25
  0
LWPOLYLINE
  5
38C
100
AcDbEntity
  8
0
100
AcDbPolyline
 62
7
  6
CONTINUOUS
 90
2
 70
0
 43
0.0400000017
 10
56.0
 20
2.5
 10
66.0
 20
2.5
  0
LWPOLYLINE
  5
38D
100
AcDbEntity
  8
0
100
AcDbPolyline
 62
7
  6
CONTINUOUS
 90
2
 70
0
 43
0.0400000017
 10
50.7631388334
 20
3.0234706899
 10
56.0131388334
 20
3.0234706899
  0
LWPOLYLINE
  5
38E
100
AcDbEntity
  8
0
100
AcDbPolyline
 62
7
  6
CONTINUOUS
 90
2
 70
0
 43
0.0400000017
 10
1.0
 20
22.0
 10
0.5249254442
 20
22.3373097787
  0
LWPOLYLINE
  5
38F
100
AcDbEntity
  8
0
100
AcDbPolyline
 62
7
  6
CONTINUOUS
 90
2
 70
0
 43
0.0400000017
 10
17.25
 20
1.0
 10
17.25
 20
-0.0
  0
LWPOLYLINE
  5
390
100
AcDbEntity
  8
0
100
AcDbPolyline
 62
7
  6
CONTINUOUS
 90
2
 70
0
 43
0.0400000017
 10
17.25
 20
43.0
 10
17.25
 20
44.0
  0
LWPOLYLINE
  5
391
100
AcDbEntity
  8
0
100
AcDbPolyline
 62
7
  6
CONTINUOUS
 90
2
 70
0
 43
0.0400000017
 10
46.25
 20
3.5
 10
50.75
 20
3.5
  0
LWPOLYLINE
  5
392
100
AcDbEntity
  8
0
100
AcDbPolyline
 62
7
  6
CONTINUOUS
 90
2
 70
0
 43
0.0400000017
 10
50.7658862143
 20
4.0518380709
 10
56.0158862143
 20
4.0518380709
  0
LWPOLYLINE
  5
393
100
AcDbEntity
  8
0
100
AcDbPolyline
 62
7
  6
CONTINUOUS
 90
2
 70
0
 43
0.0400000017
 10
56.0
 20
4.75
 10
66.0
 20
4.75
  0
LWPOLYLINE
  5
394
100
AcDbEntity
  8
0
100
AcDbPolyline
 62
7
  6
CONTINUOUS
 90
2
 70
0
 43
0.0400000017
 10
50.75
 20
5.115059657
 10
56.0
 20
5.115059657
  0
LWPOLYLINE
  5
395
100
AcDbEntity
  8
0
100
AcDbPolyline
 62
7
  6
CONTINUOUS
 90
2
 70
0
 43
0.0400000017
 10
46.25
 20
6.125
 10
66.0
 20
6.125
  0
LWPOLYLINE
  5
396
100
AcDbEntity
  8
0
100
AcDbPolyline
 62
7
  6
CONTINUOUS
 90
2
 70
0
 43
0.0400000017
 10
33.5
 20
43.0
 10
33.8373097787
 20
43.4750745558
  0
LWPOLYLINE
  5
397
100
AcDbEntity
  8
0
100
AcDbPolyline
 62
7
  6
CONTINUOUS
 90
2
 70
0
 43
0.0400000017
 10
33.5
 20
1.0
 10
33.8373097787
 20
0.5249254442
  0
LWPOLYLINE
  5
398
100
AcDbEntity
  8
0
100
AcDbPolyline
 62
7
  6
CONTINUOUS
 90
2
 70
0
 43
0.0400000017
 10
1.0
 20
11.5
 10
0.0
 20
11.5
  0
LWPOLYLINE
  5
399
100
AcDbEntity
  8
0
100
AcDbPolyline
 62
7
  6
CONTINUOUS
 90
2
 70
0
 43
0.0400000017
 10
66.0131877017
 20
11.5016820819
 10
67.0131877017
 20
11.5016820819
  0
LWPOLYLINE
  5
39A
100
AcDbEntity
  8
0
100
AcDbPolyline
 62
7
  6
CONTINUOUS
 90
2
 70
0
 43
0.0400000017
 10
25.375
 20
1.0
 10
25.375
 20
-0.0
  0
LWPOLYLINE
  5
39B
100
AcDbEntity
  8
0
100
AcDbPolyline
 62
7
  6
CONTINUOUS
 90
2
 70
0
 43
0.0400000017
 10
25.375
 20
43.0
 10
25.375
 20
44.0
  0
LINE
  5
39C
100
AcDbEntity
  8
0
100
AcDbLine
 62
7
  6
CONTINUOUS
 10
50.7315656895
 20
3.5187848171
 11
46.2694614015
 21
6.1052483697
  0
LWPOLYLINE
  5
39D
100
AcDbEntity
  8
0
100
AcDbPolyline
 62
7
  6
CONTINUOUS
 90
2
 70
0
 43
0.0400000017
 10
33.5
 20
1.0
 10
33.5
 20
-0.0
  0
LWPOLYLINE
  5
39E
100
AcDbEntity
  8
0
100
AcDbPolyline
 62
7
  6
CONTINUOUS
 90
2
 70
0
 43
0.0400000017
 10
33.5
 20
43.0
 10
33.5
 20
44.0
  0
LWPOLYLINE
  5
39F
100
AcDbEntity
  8
0
100
AcDbPolyline
 62
7
  6
CONTINUOUS
 90
2
 70
0
 43
0.0400000017
 10
1.0
 20
22.0
 10
-0.0
 20
22.0
  0
LWPOLYLINE
  5
3A0
100
AcDbEntity
  8
0
100
AcDbPolyline
 62
7
  6
CONTINUOUS
 90
2
 70
0
 43
0.0400000017
 10
66.0021586919
 20
22.0027195963
 10
67.0021586919
 20
22.0027195963
  0
LWPOLYLINE
  5
3A1
100
AcDbEntity
  8
0
100
AcDbPolyline
 62
7
  6
CONTINUOUS
 90
2
 70
0
 43
0.0400000017
 10
41.625
 20
1.0
 10
41.625
 20
-0.0
  0
LWPOLYLINE
  5
3A2
100
AcDbEntity
  8
0
100
AcDbPolyline
 62
7
  6
CONTINUOUS
 90
2
 70
0
 43
0.0400000017
 10
41.625
 20
43.0
 10
41.625
 20
44.0
  0
LWPOLYLINE
  5
3A3
100
AcDbEntity
  8
0
100
AcDbPolyline
 62
7
  6
CONTINUOUS
 90
2
 70
0
 43
0.0400000017
 10
33.5
 20
1.0
 10
33.1626902213
 20
0.5249254442
  0
LWPOLYLINE
  5
3A4
100
AcDbEntity
  8
0
100
AcDbPolyline
 62
7
  6
CONTINUOUS
 90
2
 70
0
 43
0.0400000017
 10
1.0
 20
32.5
 10
0.0
 20
32.5
  0
LWPOLYLINE
  5
3A5
100
AcDbEntity
  8
0
100
AcDbPolyline
 62
7
  6
CONTINUOUS
 90
2
 70
0
 43
0.0400000017
 10
66.0
 20
32.5
 10
67.0
 20
32.5
  0
LWPOLYLINE
  5
3A6
100
AcDbEntity
  8
0
100
AcDbPolyline
 62
7
  6
CONTINUOUS
 90
2
 70
0
 43
0.0400000017
 10
33.5
 20
43.0
 10
33.1626902213
 20
43.4750745558
  0
LWPOLYLINE
  5
3A7
100
AcDbEntity
  8
0
100
AcDbPolyline
 62
7
  6
CONTINUOUS
 90
2
 70
0
 43
0.0400000017
 10
46.25
 20
1.0
 10
46.25
 20
6.125
  0
LWPOLYLINE
  5
3A8
100
AcDbEntity
  8
0
100
AcDbPolyline
 62
7
  6
CONTINUOUS
 90
2
 70
0
 43
0.0400000017
 10
49.75
 20
1.0
 10
49.75
 20
-0.0
  0
LWPOLYLINE
  5
3A9
100
AcDbEntity
  8
0
100
AcDbPolyline
 62
7
  6
CONTINUOUS
 90
2
 70
0
 43
0.0400000017
 10
49.75
 20
43.0
 10
49.75
 20
44.0
  0
LWPOLYLINE
  5
3AA
100
AcDbEntity
  8
0
100
AcDbPolyline
 62
7
  6
CONTINUOUS
 90
2
 70
0
 43
0.0400000017
 10
50.75
 20
1.0
 10
50.75
 20
6.125
  0
LWPOLYLINE
  5
3AB
100
AcDbEntity
  8
0
100
AcDbPolyline
 62
7
  6
CONTINUOUS
 90
2
 70
0
 43
0.0400000017
 10
66.0021586919
 20
22.0027195963
 10
66.4772332477
 20
22.340029375
  0
LWPOLYLINE
  5
3AC
100
AcDbEntity
  8
0
100
AcDbPolyline
 62
7
  6
CONTINUOUS
 90
2
 70
0
 43
0.0400000017
 10
66.0021586919
 20
22.0027195963
 10
66.4772332477
 20
21.6654098176
  0
LWPOLYLINE
  5
3AD
100
AcDbEntity
  8
0
100
AcDbPolyline
 62
7
  6
CONTINUOUS
 90
2
 70
0
 43
0.0600000005
 10
7.125
 20
42.0
 10
1.0
 20
42.0
  0
LWPOLYLINE
  5
3AE
100
AcDbEntity
  8
0
100
AcDbPolyline
 62
7
  6
CONTINUOUS
 90
2
 70
0
 43
0.0600000005
 10
66.0
 20
43.0
 10
1.0
 20
43.0
  0
LWPOLYLINE
  5
3AF
100
AcDbEntity
  8
0
100
AcDbPolyline
 62
7
  6
CONTINUOUS
 90
2
 70
0
 43
0.0400000017
 10
33.1626902213
 20
43.4750745558
 10
33.8373097787
 20
43.4750745558
  0
LWPOLYLINE
  5
3B0
100
AcDbEntity
  8
0
100
AcDbPolyline
 62
7
  6
CONTINUOUS
 90
2
 70
0
 43
0.0400000017
 10
56.0
 20
1.0
 10
56.0
 20
6.125
  0
LWPOLYLINE
  5
3B1
100
AcDbEntity
  8
0
100
AcDbPolyline
 62
7
  6
CONTINUOUS
 90
2
 70
0
 43
0.0400000017
 10
57.0
 20
1.5
 10
57.0
 20
2.5
  0
LWPOLYLINE
  5
3B2
100
AcDbEntity
  8
0
100
AcDbPolyline
 62
7
  6
CONTINUOUS
 90
2
 70
0
 43
0.0400000017
 10
57.875
 20
1.0
 10
57.875
 20
-0.0
  0
LWPOLYLINE
  5
3B3
100
AcDbEntity
  8
0
100
AcDbPolyline
 62
7
  6
CONTINUOUS
 90
2
 70
0
 43
0.0400000017
 10
57.875
 20
43.0
 10
57.875
 20
44.0
  0
LINE
  5
3B4
100
AcDbEntity
  8
0
100
AcDbLine
 62
7
  6
CONTINUOUS
 10
46.2697861016
 20
3.5198616909
 11
50.7303872939
 21
6.1052024388
  0
LINE
  5
3B5
100
AcDbEntity
  8
DEFAULT_3
100
AcDbLine
 62
7
  6
PHANTOM
 10
0.0
 20
44.0
 11
68.0
 21
44.0
  0
LWPOLYLINE
  5
3B6
100
AcDbEntity
  8
0
100
AcDbPolyline
 62
7
  6
CONTINUOUS
 90
2
 70
0
 43
0.0400000017
 10
58.3672579331
 20
1.0095003111
 10
58.3672579331
 20
1.5095003111
  0
LWPOLYLINE
  5
3B7
100
AcDbEntity
  8
0
100
AcDbPolyline
 62
7
  6
CONTINUOUS
 90
2
 70
0
 43
0.0400000017
 10
59.0
 20
1.5
 10
59.0
 20
2.5
  0
LWPOLYLINE
  5
3B8
100
AcDbEntity
  8
0
100
AcDbPolyline
 62
7
  6
CONTINUOUS
 90
2
 70
0
 43
0.0400000017
 10
62.75
 20
1.0
 10
62.75
 20
1.5
  0
LWPOLYLINE
  5
3B9
100
AcDbEntity
  8
0
100
AcDbPolyline
 62
7
  6
CONTINUOUS
 90
2
 70
0
 43
0.0400000017
 10
65.0
 20
1.5
 10
65.0
 20
2.5
  0
LWPOLYLINE
  5
3BA
100
AcDbEntity
  8
0
100
AcDbPolyline
 62
7
  6
CONTINUOUS
 90
2
 70
0
 43
0.0600000005
 10
66.0
 20
43.0
 10
66.0
 20
1.0
  0
LWPOLYLINE
  5
3BB
100
AcDbEntity
  8
0
100
AcDbPolyline
 62
7
  6
CONTINUOUS
 90
2
 70
0
 43
0.0400000017
 10
66.4772332477
 20
21.6654098176
 10
66.4772332477
 20
22.340029375
  0
LINE
  5
3BC
100
AcDbEntity
  8
DEFAULT_3
100
AcDbLine
 62
7
  6
PHANTOM
 10
68.0
 20
-0.0
 11
68.0
 21
44.0
  0
LINE
  5
3BD
100
AcDbEntity
  8
7_ALL_ROUNDS
100
AcDbLine
 62
7
  6
CONTINUOUS
 10
9.3903598504
 20
17.890019608
 11
9.3903598504
 21
13.953011734
  0
LINE
  5
3BE
100
AcDbEntity
  8
7_ALL_ROUNDS
100
AcDbLine
 62
9
  6
CONTINUOUS
 10
9.5098007748
 20
17.890019608
 11
9.5098007748
 21
13.953011734
  0
LINE
  5
3BF
100
AcDbEntity
  8
7_ALL_ROUNDS
100
AcDbLine
 62
7
  6
CONTINUOUS
 10
9.5872098825
 20
13.953011734
 11
9.5872098825
 21
17.890019608
  0
LINE
  5
3C0
100
AcDbEntity
  8
7_ALL_ROUNDS
100
AcDbLine
 62
7
  6
CONTINUOUS
 10
9.7053201187
 20
17.890019608
 11
9.7053201187
 21
13.953011734
  0
LINE
  5
3C1
100
AcDbEntity
  8
7_ALL_ROUNDS
100
AcDbLine
 62
9
  6
CONTINUOUS
 10
9.933666937
 20
13.953011734
 11
9.933666937
 21
17.890019608
  0
LINE
  5
3C2
100
AcDbEntity
  8
0
100
AcDbLine
 62
7
  6
CONTINUOUS
 10
9.9395724488
 20
18.0081298442
 11
9.9395724488
 21
17.890019608
  0
LINE
  5
3C3
100
AcDbEntity
  8
0
100
AcDbLine
 62
7
  6
CONTINUOUS
 10
9.9395724488
 20
13.953011734
 11
9.9395724488
 21
13.8349014978
  0
LINE
  5
3C4
100
AcDbEntity
  8
3_AXES_OTHER
100
AcDbLine
 62
7
  6
CENTER
 10
13.4946905591
 20
16.8073424426
 11
13.4946905591
 21
16.4079119185
  0
LINE
  5
3C5
100
AcDbEntity
  8
3_AXES_OTHER
100
AcDbLine
 62
7
  6
CENTER
 10
13.4946905591
 20
15.0356888993
 11
13.4946905591
 21
14.6911859628
  0
LINE
  5
3C6
100
AcDbEntity
  8
3_AXES_OTHER
100
AcDbLine
 62
7
  6
CENTER
 10
13.4946905591
 20
15.0356888993
 11
13.4946905591
 21
15.4637126429
  0
LINE
  5
3C7
100
AcDbEntity
  8
3_AXES_OTHER
100
AcDbLine
 62
7
  6
CENTER
 10
13.4946905591
 20
16.8073424426
 11
13.4946905591
 21
17.2049632551
  0
LINE
  5
3C8
100
AcDbEntity
  8
3_AXES_OTHER
100
AcDbLine
 62
7
  6
CENTER
 10
16.1009897717
 20
15.921515671
 11
16.1009897717
 21
15.721511734
  0
LINE
  5
3C9
100
AcDbEntity
  8
3_AXES_OTHER
100
AcDbLine
 62
7
  6
CENTER
 10
16.1009897717
 20
15.921515671
 11
16.1009897717
 21
16.121519608
  0
LINE
  5
3CA
100
AcDbEntity
  8
0
100
AcDbLine
 62
7
  6
CONTINUOUS
 10
9.9395724488
 20
13.8349014978
 11
31.9868165433
 21
13.8349014978
  0
LINE
  5
3CB
100
AcDbEntity
  8
0
100
AcDbLine
 62
7
  6
CONTINUOUS
 10
31.9868165433
 20
13.953011734
 11
9.9395724488
 21
13.953011734
  0
LINE
  5
3CC
100
AcDbEntity
  8
7_ALL_ROUNDS
100
AcDbLine
 62
7
  6
CONTINUOUS
 10
9.3903598504
 20
13.953011734
 11
9.9395724488
 21
13.953011734
  0
LINE
  5
3CD
100
AcDbEntity
  8
7_ALL_ROUNDS
100
AcDbLine
 62
7
  6
CONTINUOUS
 10
31.9868165433
 20
13.953011734
 11
32.5360291418
 21
13.953011734
  0
LINE
  5
3CE
100
AcDbEntity
  8
0
100
AcDbLine
 62
7
  6
CONTINUOUS
 10
28.9631944961
 20
14.8388385056
 11
27.9002023701
 21
14.8388385056
  0
LINE
  5
3CF
100
AcDbEntity
  8
0
100
AcDbLine
 62
7
  6
CONTINUOUS
 10
14.0261866221
 20
14.8388385056
 11
12.9631944961
 21
14.8388385056
  0
LINE
  5
3D0
100
AcDbEntity
  8
3_AXES_OTHER
100
AcDbLine
 62
7
  6
CENTER
 10
28.4316984331
 20
15.0356888993
 11
27.5629059576
 21
15.0356888993
  0
LINE
  5
3D1
100
AcDbEntity
  8
3_AXES_OTHER
100
AcDbLine
 62
7
  6
CENTER
 10
13.4946905591
 20
15.0356888993
 11
12.4999477742
 21
15.0356888993
  0
LINE
  5
3D2
100
AcDbEntity
  8
3_AXES_OTHER
100
AcDbLine
 62
7
  6
CENTER
 10
13.4946905591
 20
15.0356888993
 11
14.4894333439
 21
15.0356888993
  0
LINE
  5
3D3
100
AcDbEntity
  8
3_AXES_OTHER
100
AcDbLine
 62
7
  6
CENTER
 10
28.4316984331
 20
15.0356888993
 11
29.3004909085
 21
15.0356888993
  0
LINE
  5
3D4
100
AcDbEntity
  8
0
100
AcDbLine
 62
7
  6
CONTINUOUS
 10
12.9631944961
 20
15.232539293
 11
14.0261866221
 21
15.232539293
  0
LINE
  5
3D5
100
AcDbEntity
  8
0
100
AcDbLine
 62
7
  6
CONTINUOUS
 10
27.9002023701
 20
15.232539293
 11
28.9631944961
 21
15.232539293
  0
LINE
  5
3D6
100
AcDbEntity
  8
3_AXES_OTHER
100
AcDbLine
 62
7
  6
CENTER
 10
20.9631944961
 20
15.921515671
 11
20.9631944961
 21
13.0433082577
  0
LINE
  5
3D7
100
AcDbEntity
  8
3_AXES_OTHER
100
AcDbLine
 62
7
  6
CENTER
 10
20.9631944961
 20
15.921515671
 11
20.9631944961
 21
18.2523330354
  0
LINE
  5
3D8
100
AcDbEntity
  8
7_ALL_ROUNDS
100
AcDbLine
 62
9
  6
CONTINUOUS
 10
32.3391791097
 20
15.5278148836
 11
32.2210688735
 21
15.5278148836
  0
LINE
  5
3D9
100
AcDbEntity
  8
7_ALL_ROUNDS
100
AcDbLine
 62
9
  6
CONTINUOUS
 10
9.7053201187
 20
15.5278148836
 11
9.5872098825
 21
15.5278148836
  0
LINE
  5
3DA
100
AcDbEntity
  8
0
100
AcDbLine
 62
7
  6
CONTINUOUS
 10
25.9631944961
 20
15.7049802379
 11
25.6876039449
 21
15.7049802379
  0
LINE
  5
3DB
100
AcDbEntity
  8
0
100
AcDbLine
 62
7
  6
CONTINUOUS
 10
16.2387850473
 20
15.7049802379
 11
15.9631944961
 21
15.7049802379
  0
LINE
  5
3DC
100
AcDbEntity
  8
3_AXES_OTHER
100
AcDbLine
 62
7
  6
CENTER
 10
25.8253992205
 20
15.921515671
 11
25.6253952835
 21
15.921515671
  0
LINE
  5
3DD
100
AcDbEntity
  8
3_AXES_OTHER
100
AcDbLine
 62
7
  6
CENTER
 10
16.1009897717
 20
15.921515671
 11
15.9009858347
 21
15.921515671
  0
LINE
  5
3DE
100
AcDbEntity
  8
3_AXES_OTHER
100
AcDbLine
 62
7
  6
CENTER
 10
20.9631944961
 20
15.921515671
 11
16.1009897717
 21
15.921515671
  0
LINE
  5
3DF
100
AcDbEntity
  8
3_AXES_OTHER
100
AcDbLine
 62
7
  6
CENTER
 10
15.9009858347
 20
15.921515671
 11
8.9443326222
 21
15.921515671
  0
LINE
  5
3E0
100
AcDbEntity
  8
3_AXES_OTHER
100
AcDbLine
 62
7
  6
CENTER
 10
20.9631944961
 20
15.921515671
 11
25.6253952835
 21
15.921515671
  0
LINE
  5
3E1
100
AcDbEntity
  8
3_AXES_OTHER
100
AcDbLine
 62
7
  6
CENTER
 10
25.8253992205
 20
15.921515671
 11
32.9647304953
 21
15.921515671
  0
LINE
  5
3E2
100
AcDbEntity
  8
0
100
AcDbLine
 62
7
  6
CONTINUOUS
 10
15.9631944961
 20
16.1380511041
 11
16.2387850473
 21
16.1380511041
  0
LINE
  5
3E3
100
AcDbEntity
  8
0
100
AcDbLine
 62
7
  6
CONTINUOUS
 10
25.6876039449
 20
16.1380511041
 11
25.9631944961
 21
16.1380511041
  0
LINE
  5
3E4
100
AcDbEntity
  8
7_ALL_ROUNDS
100
AcDbLine
 62
9
  6
CONTINUOUS
 10
9.5872098825
 20
16.3152164584
 11
9.7053201187
 21
16.3152164584
  0
LINE
  5
3E5
100
AcDbEntity
  8
7_ALL_ROUNDS
100
AcDbLine
 62
9
  6
CONTINUOUS
 10
32.2210688735
 20
16.3152164584
 11
32.3391791097
 21
16.3152164584
  0
LINE
  5
3E6
100
AcDbEntity
  8
0
100
AcDbLine
 62
7
  6
CONTINUOUS
 10
28.9631944961
 20
16.6104920489
 11
27.9002023701
 21
16.6104920489
  0
LINE
  5
3E7
100
AcDbEntity
  8
0
100
AcDbLine
 62
7
  6
CONTINUOUS
 10
14.0261866221
 20
16.6104920489
 11
12.9631944961
 21
16.6104920489
  0
LINE
  5
3E8
100
AcDbEntity
  8
3_AXES_OTHER
100
AcDbLine
 62
7
  6
CENTER
 10
28.4316984331
 20
16.8073424426
 11
27.5393622874
 21
16.8073424426
  0
LINE
  5
3E9
100
AcDbEntity
  8
3_AXES_OTHER
100
AcDbLine
 62
7
  6
CENTER
 10
13.4946905591
 20
16.8073424426
 11
12.4607083238
 21
16.8073424426
  0
LINE
  5
3EA
100
AcDbEntity
  8
3_AXES_OTHER
100
AcDbLine
 62
7
  6
CENTER
 10
13.4946905591
 20
16.8073424426
 11
14.5286727943
 21
16.8073424426
  0
LINE
  5
3EB
100
AcDbEntity
  8
3_AXES_OTHER
100
AcDbLine
 62
7
  6
CENTER
 10
28.4316984331
 20
16.8073424426
 11
29.3240345788
 21
16.8073424426
  0
LINE
  5
3EC
100
AcDbEntity
  8
0
100
AcDbLine
 62
7
  6
CONTINUOUS
 10
12.9631944961
 20
17.0041928363
 11
14.0261866221
 21
17.0041928363
  0
LINE
  5
3ED
100
AcDbEntity
  8
0
100
AcDbLine
 62
7
  6
CONTINUOUS
 10
27.9002023701
 20
17.0041928363
 11
28.9631944961
 21
17.0041928363
  0
LINE
  5
3EE
100
AcDbEntity
  8
7_ALL_ROUNDS
100
AcDbLine
 62
7
  6
CONTINUOUS
 10
9.3903598504
 20
17.890019608
 11
9.9395724488
 21
17.890019608
  0
LINE
  5
3EF
100
AcDbEntity
  8
0
100
AcDbLine
 62
7
  6
CONTINUOUS
 10
9.9395724488
 20
17.890019608
 11
31.9868165433
 21
17.890019608
  0
LINE
  5
3F0
100
AcDbEntity
  8
7_ALL_ROUNDS
100
AcDbLine
 62
7
  6
CONTINUOUS
 10
31.9868165433
 20
17.890019608
 11
32.5360291418
 21
17.890019608
  0
LINE
  5
3F1
100
AcDbEntity
  8
0
100
AcDbLine
 62
7
  6
CONTINUOUS
 10
31.9868165433
 20
18.0081298442
 11
9.9395724488
 21
18.0081298442
  0
LINE
  5
3F2
100
AcDbEntity
  8
3_AXES_OTHER
100
AcDbLine
 62
7
  6
CENTER
 10
25.8253992205
 20
15.921515671
 11
25.8253992205
 21
15.721511734
  0
LINE
  5
3F3
100
AcDbEntity
  8
3_AXES_OTHER
100
AcDbLine
 62
7
  6
CENTER
 10
25.8253992205
 20
15.921515671
 11
25.8253992205
 21
16.121519608
  0
LINE
  5
3F4
100
AcDbEntity
  8
3_AXES_OTHER
100
AcDbLine
 62
7
  6
CENTER
 10
28.4316984331
 20
16.8073424426
 11
28.4316984331
 21
16.3915302143
  0
LINE
  5
3F5
100
AcDbEntity
  8
3_AXES_OTHER
100
AcDbLine
 62
7
  6
CENTER
 10
28.4316984331
 20
15.0356888993
 11
28.4316984331
 21
14.6134926174
  0
LINE
  5
3F6
100
AcDbEntity
  8
3_AXES_OTHER
100
AcDbLine
 62
7
  6
CENTER
 10
28.4316984331
 20
15.0356888993
 11
28.4316984331
 21
15.4350686105
  0
LINE
  5
3F7
100
AcDbEntity
  8
3_AXES_OTHER
100
AcDbLine
 62
7
  6
CENTER
 10
28.4316984331
 20
16.8073424426
 11
28.4316984331
 21
17.2131062074
  0
LINE
  5
3F8
100
AcDbEntity
  8
0
100
AcDbLine
 62
7
  6
CONTINUOUS
 10
31.9868165433
 20
13.8349014978
 11
31.9868165433
 21
13.953011734
  0
LINE
  5
3F9
100
AcDbEntity
  8
0
100
AcDbLine
 62
7
  6
CONTINUOUS
 10
31.9868165433
 20
17.890019608
 11
31.9868165433
 21
18.0081298442
  0
LINE
  5
3FA
100
AcDbEntity
  8
7_ALL_ROUNDS
100
AcDbLine
 62
9
  6
CONTINUOUS
 10
31.9927220551
 20
17.890019608
 11
31.9927220551
 21
13.953011734
  0
LINE
  5
3FB
100
AcDbEntity
  8
7_ALL_ROUNDS
100
AcDbLine
 62
7
  6
CONTINUOUS
 10
32.2210688735
 20
13.953011734
 11
32.2210688735
 21
17.890019608
  0
LINE
  5
3FC
100
AcDbEntity
  8
7_ALL_ROUNDS
100
AcDbLine
 62
7
  6
CONTINUOUS
 10
32.3391791097
 20
17.890019608
 11
32.3391791097
 21
13.953011734
  0
LINE
  5
3FD
100
AcDbEntity
  8
7_ALL_ROUNDS
100
AcDbLine
 62
9
  6
CONTINUOUS
 10
32.4165882173
 20
13.953011734
 11
32.4165882173
 21
17.890019608
  0
LINE
  5
3FE
100
AcDbEntity
  8
7_ALL_ROUNDS
100
AcDbLine
 62
7
  6
CONTINUOUS
 10
32.5360291418
 20
13.953011734
 11
32.5360291418
 21
17.890019608
  0
LINE
  5
3FF
100
AcDbEntity
  8
7_ALL_ROUNDS
100
AcDbLine
 62
7
  6
CONTINUOUS
 10
9.3903598504
 20
37.7493727201
 11
9.3903598504
 21
30.6155141356
  0
LINE
  5
400
100
AcDbEntity
  8
7_ALL_ROUNDS
100
AcDbLine
 62
7
  6
CONTINUOUS
 10
9.5084700866
 20
30.6155141356
 11
9.5084700866
 21
37.7493727201
  0
LINE
  5
401
100
AcDbEntity
  8
7_ALL_ROUNDS
100
AcDbLine
 62
7
  6
CONTINUOUS
 10
9.5872098825
 20
26.8359868933
 11
9.5872098825
 21
29.9855933979
  0
LINE
  5
402
100
AcDbEntity
  8
7_ALL_ROUNDS
100
AcDbLine
 62
7
  6
CONTINUOUS
 10
9.7053201187
 20
26.8359868933
 11
9.7053201187
 21
29.9855933979
  0
LINE
  5
403
100
AcDbEntity
  8
7_ALL_ROUNDS
100
AcDbLine
 62
7
  6
CONTINUOUS
 10
9.9395724488
 20
37.3871679957
 11
9.9395724488
 21
38.2926798067
  0
LINE
  5
404
100
AcDbEntity
  8
7_ALL_ROUNDS
100
AcDbLine
 62
7
  6
CONTINUOUS
 10
9.5872098825
 20
26.8359868933
 11
9.7053201187
 21
26.8359868933
  0
LINE
  5
405
100
AcDbEntity
  8
7_ALL_ROUNDS
100
AcDbLine
 62
7
  6
CONTINUOUS
 10
32.2210688735
 20
26.8359868933
 11
32.3391791097
 21
26.8359868933
  0
LINE
  5
406
100
AcDbEntity
  8
7_ALL_ROUNDS
100
AcDbLine
 62
9
  6
CONTINUOUS
 10
9.5872098825
 20
28.4107900429
 11
9.7053201187
 21
28.4107900429
  0
LINE
  5
407
100
AcDbEntity
  8
7_ALL_ROUNDS
100
AcDbLine
 62
9
  6
CONTINUOUS
 10
32.2210688735
 20
28.4107900429
 11
32.3391791097
 21
28.4107900429
  0
LINE
  5
408
100
AcDbEntity
  8
3_AXES_OTHER
100
AcDbLine
 62
7
  6
CENTER
 10
20.9631944961
 20
38.9416430172
 11
20.9631944961
 21
27.8431877865
  0
LINE
  5
409
100
AcDbEntity
  8
0
100
AcDbLine
 62
7
  6
CONTINUOUS
 10
31.9868165433
 20
37.3871679957
 11
9.9395724488
 21
37.3871679957
  0
LINE
  5
40A
100
AcDbEntity
  8
7_ALL_ROUNDS
100
AcDbLine
 62
7
  6
CONTINUOUS
 10
31.9927220551
 20
38.1745695705
 11
31.9868165433
 21
38.1745695705
  0
LINE
  5
40B
100
AcDbEntity
  8
7_ALL_ROUNDS
100
AcDbLine
 62
7
  6
CONTINUOUS
 10
9.9395724488
 20
38.1745695705
 11
9.933666937
 21
38.1745695705
  0
LINE
  5
40C
100
AcDbEntity
  8
7_ALL_ROUNDS
100
AcDbLine
 62
9
  6
CONTINUOUS
 10
9.9395724488
 20
38.1745695705
 11
31.9868165433
 21
38.1745695705
  0
LINE
  5
40D
100
AcDbEntity
  8
7_ALL_ROUNDS
100
AcDbLine
 62
7
  6
CONTINUOUS
 10
9.933666937
 20
38.2926798067
 11
31.9927220551
 21
38.2926798067
  0
LINE
  5
40E
100
AcDbEntity
  8
7_ALL_ROUNDS
100
AcDbLine
 62
7
  6
CONTINUOUS
 10
31.9868165433
 20
38.2926798067
 11
31.9868165433
 21
37.3871679957
  0
LINE
  5
40F
100
AcDbEntity
  8
7_ALL_ROUNDS
100
AcDbLine
 62
7
  6
CONTINUOUS
 10
32.2210688735
 20
26.8359868933
 11
32.2210688735
 21
29.9855933979
  0
LINE
  5
410
100
AcDbEntity
  8
7_ALL_ROUNDS
100
AcDbLine
 62
7
  6
CONTINUOUS
 10
32.3391791097
 20
29.9855933979
 11
32.3391791097
 21
26.8359868933
  0
LINE
  5
411
100
AcDbEntity
  8
7_ALL_ROUNDS
100
AcDbLine
 62
7
  6
CONTINUOUS
 10
32.4179189055
 20
30.6155141356
 11
32.4179189055
 21
37.7493727201
  0
LINE
  5
412
100
AcDbEntity
  8
7_ALL_ROUNDS
100
AcDbLine
 62
7
  6
CONTINUOUS
 10
32.5360291418
 20
30.6155141356
 11
32.5360291418
 21
37.7493727201
  0
LINE
  5
413
100
AcDbEntity
  8
7_ALL_ROUNDS
100
AcDbLine
 62
7
  6
CONTINUOUS
 10
42.5480554739
 20
16.3152164584
 11
42.5480554739
 21
15.5278148836
  0
LINE
  5
414
100
AcDbEntity
  8
3_AXES_OTHER
100
AcDbLine
 62
7
  6
CENTER
 10
44.1228586235
 20
15.921515671
 11
44.1228586235
 21
15.4852951985
  0
LINE
  5
415
100
AcDbEntity
  8
3_AXES_OTHER
100
AcDbLine
 62
7
  6
CENTER
 10
44.1228586235
 20
15.921515671
 11
44.1228586235
 21
16.3577361434
  0
LINE
  5
416
100
AcDbEntity
  8
7_ALL_ROUNDS
100
AcDbLine
 62
9
  6
CONTINUOUS
 10
45.6976619784
 20
17.890019608
 11
45.6976619784
 21
13.953011734
  0
LINE
  5
417
100
AcDbEntity
  8
7_ALL_ROUNDS
100
AcDbLine
 62
9
  6
CONTINUOUS
 10
45.9453711807
 20
13.953011734
 11
45.9453711807
 21
17.890019608
  0
LINE
  5
418
100
AcDbEntity
  8
7_ALL_ROUNDS
100
AcDbLine
 62
7
  6
CONTINUOUS
 10
53.0992365763
 20
13.8349014978
 11
53.8866381511
 21
13.8349014978
  0
LINE
  5
419
100
AcDbEntity
  8
7_ALL_ROUNDS
100
AcDbLine
 62
9
  6
CONTINUOUS
 10
46.3275827161
 20
13.953011734
 11
46.3275827161
 21
17.890019608
  0
LINE
  5
41A
100
AcDbEntity
  8
7_ALL_ROUNDS
100
AcDbLine
 62
7
  6
CONTINUOUS
 10
54.0047483873
 20
13.953011734
 11
44.1228586235
 21
13.953011734
  0
LINE
  5
41B
100
AcDbEntity
  8
3_AXES_OTHER
100
AcDbLine
 62
7
  6
CENTER
 10
44.1228586235
 20
15.921515671
 11
42.2122384704
 21
15.921515671
  0
LINE
  5
41C
100
AcDbEntity
  8
3_AXES_OTHER
100
AcDbLine
 62
7
  6
CENTER
 10
44.1228586235
 20
15.921515671
 11
54.6171530003
 21
15.921515671
  0
LINE
  5
41D
100
AcDbEntity
  8
7_ALL_ROUNDS
100
AcDbLine
 62
7
  6
CONTINUOUS
 10
44.1228586235
 20
17.890019608
 11
54.0047483873
 21
17.890019608
  0
LINE
  5
41E
100
AcDbEntity
  8
7_ALL_ROUNDS
100
AcDbLine
 62
7
  6
CONTINUOUS
 10
53.8866381511
 20
18.0081298442
 11
53.0992365763
 21
18.0081298442
  0
LINE
  5
41F
100
AcDbEntity
  8
0
100
AcDbLine
 62
7
  6
CONTINUOUS
 10
53.0992365763
 20
13.8349014978
 11
53.0992365763
 21
13.953011734
  0
LINE
  5
420
100
AcDbEntity
  8
0
100
AcDbLine
 62
7
  6
CONTINUOUS
 10
53.0992365763
 20
17.890019608
 11
53.0992365763
 21
18.0081298442
  0
LINE
  5
421
100
AcDbEntity
  8
7_ALL_ROUNDS
100
AcDbLine
 62
9
  6
CONTINUOUS
 10
53.4614413007
 20
17.890019608
 11
53.4614413007
 21
13.953011734
  0
LINE
  5
422
100
AcDbEntity
  8
7_ALL_ROUNDS
100
AcDbLine
 62
7
  6
CONTINUOUS
 10
54.0047483873
 20
17.890019608
 11
54.0047483873
 21
13.953011734
  0
LINE
  5
423
100
AcDbEntity
  8
7_ALL_ROUNDS
100
AcDbLine
 62
7
  6
CONTINUOUS
 10
50.0408171627
 20
34.9547916352
 11
50.0408171627
 21
34.5690957374
  0
LINE
  5
424
100
AcDbEntity
  8
7_ALL_ROUNDS
100
AcDbLine
 62
7
  6
CONTINUOUS
 10
50.0909270921
 20
34.9258530777
 11
50.0909270921
 21
34.5401571799
  0
LINE
  5
425
100
AcDbEntity
  8
7_ALL_ROUNDS
100
AcDbLine
 62
9
  6
CONTINUOUS
 10
51.4271919626
 20
36.4689397899
 11
51.4271919626
 21
34.5404603009
  0
LINE
  5
426
100
AcDbEntity
  8
7_ALL_ROUNDS
100
AcDbLine
 62
9
  6
CONTINUOUS
 10
51.5190601324
 20
36.5702246328
 11
51.5190601324
 21
34.6417451438
  0
LINE
  5
427
100
AcDbEntity
  8
7_ALL_ROUNDS
100
AcDbLine
 62
9
  6
CONTINUOUS
 10
51.6109283022
 20
34.7430299867
 11
51.6109283022
 21
36.6715094757
  0
LINE
  5
428
100
AcDbEntity
  8
7_ALL_ROUNDS
100
AcDbLine
 62
7
  6
CONTINUOUS
 10
54.5874582415
 20
38.4483369829
 11
51.5608183728
 21
36.7004480332
  0
LINE
  5
429
100
AcDbEntity
  8
7_ALL_ROUNDS
100
AcDbLine
 62
7
  6
CONTINUOUS
 10
51.6109283022
 20
36.6715094757
 11
54.6375681709
 21
38.4193984254
  0
LINE
  5
42A
100
AcDbEntity
  8
7_ALL_ROUNDS
100
AcDbLine
 62
7
  6
CONTINUOUS
 10
51.3770820332
 20
36.4978783474
 11
50.7089495544
 21
36.1120308639
  0
LINE
  5
42B
100
AcDbEntity
  8
7_ALL_ROUNDS
100
AcDbLine
 62
7
  6
CONTINUOUS
 10
50.7590594838
 20
36.0830923064
 11
51.4271919626
 21
36.4689397899
  0
LINE
  5
42C
100
AcDbEntity
  8
7_ALL_ROUNDS
100
AcDbLine
 62
7
  6
CONTINUOUS
 10
54.666798963
 20
38.2828821656
 11
55.0008651589
 21
38.4758058822
  0
LINE
  5
42D
100
AcDbEntity
  8
7_ALL_ROUNDS
100
AcDbLine
 62
7
  6
CONTINUOUS
 10
51.6109283022
 20
34.7430299867
 11
54.6375681709
 21
36.4909189364
  0
LINE
  5
42E
100
AcDbEntity
  8
7_ALL_ROUNDS
100
AcDbLine
 62
7
  6
CONTINUOUS
 10
50.7590594838
 20
34.1546128175
 11
51.4271919626
 21
34.5404603009
  0
LINE
  5
42F
100
AcDbEntity
  8
0
100
AcDbLine
 62
7
  6
CONTINUOUS
 10
55.0008651589
 20
36.4894720085
 11
54.666798963
 21
36.296548292
  0
LINE
  5
430
100
AcDbEntity
  8
0
100
AcDbLine
 62
9
  6
CONTINUOUS
 10
56.3337892802
 20
37.0793071495
 11
56.2836793509
 21
37.050368592
  0
LINE
  5
431
100
AcDbEntity
  8
0
100
AcDbLine
 62
9
  6
CONTINUOUS
 10
56.7847786446
 20
36.8188601321
 11
56.7346687152
 21
36.7899215746
  0
LINE
  5
432
100
AcDbEntity
  8
7_ALL_ROUNDS
100
AcDbLine
 62
7
  6
CONTINUOUS
 10
59.8892588642
 20
28.5621740572
 11
59.8391489348
 21
28.5911126147
  0
LINE
  5
433
100
AcDbEntity
  8
7_ALL_ROUNDS
100
AcDbLine
 62
7
  6
CONTINUOUS
 10
50.286525758
 20
34.107766467
 11
50.2364158287
 21
34.1367050245
  0
LINE
  5
434
100
AcDbEntity
  8
7_ALL_ROUNDS
100
AcDbLine
 62
9
  6
CONTINUOUS
 10
54.6375681709
 20
36.4909189364
 11
54.6375681709
 21
38.4193984254
  0
LINE
  5
435
100
AcDbEntity
  8
0
100
AcDbLine
 62
7
  6
CONTINUOUS
 10
54.666798963
 20
38.2828821656
 11
54.666798963
 21
38.225027781
  0
LINE
  5
436
100
AcDbEntity
  8
0
100
AcDbLine
 62
7
  6
CONTINUOUS
 10
54.666798963
 20
36.296548292
 11
54.666798963
 21
36.2386939073
  0
LINE
  5
437
100
AcDbEntity
  8
7_ALL_ROUNDS
100
AcDbLine
 62
9
  6
CONTINUOUS
 10
54.9983596624
 20
36.4909189364
 11
54.9983596624
 21
38.0335509923
  0
LINE
  5
438
100
AcDbEntity
  8
0
100
AcDbLine
 62
9
  6
CONTINUOUS
 10
56.3337892802
 20
36.2114913794
 11
56.2836793509
 21
36.182552822
  0
LINE
  5
439
100
AcDbEntity
  8
0
100
AcDbLine
 62
9
  6
CONTINUOUS
 10
56.7847786446
 20
35.9510443621
 11
56.7346687152
 21
35.9221058046
  0
LINE
  5
43A
100
AcDbEntity
  8
7_ALL_ROUNDS
100
AcDbLine
 62
9
  6
CONTINUOUS
 10
59.6936601983
 20
28.9945647701
 11
59.6435502689
 21
29.0235033276
  0
LINE
  5
43B
100
AcDbEntity
  8
7_ALL_ROUNDS
100
AcDbLine
 62
9
  6
CONTINUOUS
 10
50.0909270921
 20
34.5401571799
 11
50.0408171627
 21
34.5690957374
  0
LINE
  5
43C
100
AcDbEntity
  8
7_ALL_ROUNDS
100
AcDbLine
 62
9
  6
CONTINUOUS
 10
50.0408171627
 20
34.9547916352
 11
50.0909270921
 21
34.9258530777
  0
LINE
  5
43D
100
AcDbEntity
  8
7_ALL_ROUNDS
100
AcDbLine
 62
9
  6
CONTINUOUS
 10
59.6435502689
 20
29.4091992254
 11
59.6936601983
 21
29.3802606679
  0
LINE
  5
43E
100
AcDbEntity
  8
0
100
AcDbLine
 62
9
  6
CONTINUOUS
 10
57.6065814864
 20
35.9007175069
 11
57.556471557
 21
35.8717789494
  0
LINE
  5
43F
100
AcDbEntity
  8
0
100
AcDbLine
 62
9
  6
CONTINUOUS
 10
57.7235046549
 20
35.8331942061
 11
57.6733947255
 21
35.8042556486
  0
LINE
  5
440
100
AcDbEntity
  8
7_ALL_ROUNDS
100
AcDbLine
 62
9
  6
CONTINUOUS
 10
50.7089495544
 20
36.1120308639
 11
50.7590594838
 21
36.0830923064
  0
LINE
  5
441
100
AcDbEntity
  8
7_ALL_ROUNDS
100
AcDbLine
 62
9
  6
CONTINUOUS
 10
60.3116826606
 20
30.5664384541
 11
60.36179259
 21
30.5374998967
  0
LINE
  5
442
100
AcDbEntity
  8
0
100
AcDbLine
 62
7
  6
CONTINUOUS
 10
54.666798963
 20
36.2386939073
 11
62.4837884554
 21
31.7243710456
  0
LINE
  5
443
100
AcDbEntity
  8
0
100
AcDbLine
 62
7
  6
CONTINUOUS
 10
62.5338787049
 20
31.7532982379
 11
54.666798963
 21
36.296548292
  0
LINE
  5
444
100
AcDbEntity
  8
0
100
AcDbLine
 62
7
  6
CONTINUOUS
 10
62.8679449007
 20
31.9462219545
 11
55.0008651589
 21
36.4894720085
  0
LINE
  5
445
100
AcDbEntity
  8
7_ALL_ROUNDS
100
AcDbLine
 62
7
  6
CONTINUOUS
 10
54.9983596624
 20
36.4909189364
 11
55.0008651589
 21
36.4894720085
  0
LINE
  5
446
100
AcDbEntity
  8
0
100
AcDbLine
 62
7
  6
CONTINUOUS
 10
63.0719044503
 20
32.2623429014
 11
62.6209150859
 21
32.5227899188
  0
LINE
  5
447
100
AcDbEntity
  8
0
100
AcDbLine
 62
7
  6
CONTINUOUS
 10
56.7346687152
 20
35.9221058046
 11
56.2836793509
 21
36.182552822
  0
LINE
  5
448
100
AcDbEntity
  8
7_ALL_ROUNDS
100
AcDbLine
 62
7
  6
CONTINUOUS
 10
59.6435502689
 20
29.4091992254
 11
59.6435502689
 21
29.0235033276
  0
LINE
  5
449
100
AcDbEntity
  8
0
100
AcDbLine
 62
9
  6
CONTINUOUS
 10
61.732299005
 20
33.5181096074
 11
61.6821890756
 21
33.4891710499
  0
LINE
  5
44A
100
AcDbEntity
  8
0
100
AcDbLine
 62
9
  6
CONTINUOUS
 10
61.8492221735
 20
33.4505863066
 11
61.7991122441
 21
33.4216477491
  0
LINE
  5
44B
100
AcDbEntity
  8
0
100
AcDbLine
 62
7
  6
CONTINUOUS
 10
63.1220143796
 20
32.2912814589
 11
62.6710250153
 21
32.5517284763
  0
LINE
  5
44C
100
AcDbEntity
  8
0
100
AcDbLine
 62
7
  6
CONTINUOUS
 10
56.7847786446
 20
35.9510443621
 11
56.3337892802
 21
36.2114913794
  0
LINE
  5
44D
100
AcDbEntity
  8
0
100
AcDbLine
 62
7
  6
CONTINUOUS
 10
56.2836793509
 20
36.3754007709
 11
56.7346687152
 21
36.1149537535
  0
LINE
  5
44E
100
AcDbEntity
  8
0
100
AcDbLine
 62
7
  6
CONTINUOUS
 10
62.6209150859
 20
32.7156378677
 11
63.0719044503
 21
32.4551908503
  0
LINE
  5
44F
100
AcDbEntity
  8
0
100
AcDbLine
 62
7
  6
CONTINUOUS
 10
61.7991122441
 20
33.4216477491
 11
61.6821890756
 21
33.4891710499
  0
LINE
  5
450
100
AcDbEntity
  8
0
100
AcDbLine
 62
7
  6
CONTINUOUS
 10
57.6733947255
 20
35.8042556486
 11
57.556471557
 21
35.8717789494
  0
LINE
  5
451
100
AcDbEntity
  8
0
100
AcDbLine
 62
7
  6
CONTINUOUS
 10
61.8492221735
 20
33.4505863066
 11
61.732299005
 21
33.5181096074
  0
LINE
  5
452
100
AcDbEntity
  8
0
100
AcDbLine
 62
7
  6
CONTINUOUS
 10
57.7235046549
 20
35.8331942061
 11
57.6065814864
 21
35.9007175069
  0
LINE
  5
453
100
AcDbEntity
  8
0
100
AcDbLine
 62
7
  6
CONTINUOUS
 10
57.556471557
 20
36.0839116932
 11
57.6733947255
 21
36.0163883924
  0
LINE
  5
454
100
AcDbEntity
  8
0
100
AcDbLine
 62
7
  6
CONTINUOUS
 10
61.6821890756
 20
33.7013037937
 11
61.7991122441
 21
33.6337804929
  0
LINE
  5
455
100
AcDbEntity
  8
7_ALL_ROUNDS
100
AcDbLine
 62
7
  6
CONTINUOUS
 10
59.6936601983
 20
29.3802606679
 11
59.6936601983
 21
28.9945647701
  0
LINE
  5
456
100
AcDbEntity
  8
0
100
AcDbLine
 62
9
  6
CONTINUOUS
 10
62.6710250153
 20
33.4195442463
 11
62.6209150859
 21
33.3906056888
  0
LINE
  5
457
100
AcDbEntity
  8
0
100
AcDbLine
 62
7
  6
CONTINUOUS
 10
63.0719044503
 20
33.1301586715
 11
62.6209150859
 21
33.3906056888
  0
LINE
  5
458
100
AcDbEntity
  8
0
100
AcDbLine
 62
7
  6
CONTINUOUS
 10
56.7346687152
 20
36.7899215746
 11
56.2836793509
 21
37.050368592
  0
LINE
  5
459
100
AcDbEntity
  8
0
100
AcDbLine
 62
7
  6
CONTINUOUS
 10
63.1220143796
 20
33.159097229
 11
62.6710250153
 21
33.4195442463
  0
LINE
  5
45A
100
AcDbEntity
  8
0
100
AcDbLine
 62
7
  6
CONTINUOUS
 10
56.7847786446
 20
36.8188601321
 11
56.3337892802
 21
37.0793071495
  0
LINE
  5
45B
100
AcDbEntity
  8
0
100
AcDbLine
 62
7
  6
CONTINUOUS
 10
56.2836793509
 20
37.2432165409
 11
56.7346687152
 21
36.9827695235
  0
LINE
  5
45C
100
AcDbEntity
  8
0
100
AcDbLine
 62
7
  6
CONTINUOUS
 10
62.6209150859
 20
33.5834536377
 11
63.0719044503
 21
33.3230066204
  0
LINE
  5
45D
100
AcDbEntity
  8
0
100
AcDbLine
 62
7
  6
CONTINUOUS
 10
54.666798963
 20
38.225027781
 11
64.0206524464
 21
32.8231637172
  0
LINE
  5
45E
100
AcDbEntity
  8
0
100
AcDbLine
 62
7
  6
CONTINUOUS
 10
64.0206524464
 20
32.8810181019
 11
54.666798963
 21
38.2828821656
  0
LINE
  5
45F
100
AcDbEntity
  8
0
100
AcDbLine
 62
9
  6
CONTINUOUS
 10
63.1220143796
 20
33.159097229
 11
63.0719044503
 21
33.1301586715
  0
LINE
  5
460
100
AcDbEntity
  8
0
100
AcDbLine
 62
9
  6
CONTINUOUS
 10
62.6710250153
 20
32.5517284763
 11
62.6209150859
 21
32.5227899188
  0
LINE
  5
461
100
AcDbEntity
  8
7_ALL_ROUNDS
100
AcDbLine
 62
7
  6
CONTINUOUS
 10
64.3572241387
 20
33.0146405059
 11
64.3547186423
 21
33.0160874338
  0
LINE
  5
462
100
AcDbEntity
  8
7_ALL_ROUNDS
100
AcDbLine
 62
9
  6
CONTINUOUS
 10
55.0008651589
 20
38.4758058822
 11
64.3547186423
 21
33.0739418185
  0
LINE
  5
463
100
AcDbEntity
  8
7_ALL_ROUNDS
100
AcDbLine
 62
7
  6
CONTINUOUS
 10
64.4073340681
 20
33.0435790634
 11
64.4048285716
 21
33.0450259913
  0
LINE
  5
464
100
AcDbEntity
  8
7_ALL_ROUNDS
100
AcDbLine
 62
7
  6
CONTINUOUS
 10
55.0363051883
 20
38.4793193585
 11
64.3901586717
 21
33.0774552947
  0
LINE
  5
465
100
AcDbEntity
  8
7_ALL_ROUNDS
100
AcDbLine
 62
9
  6
CONTINUOUS
 10
61.0299250688
 20
30.9233473801
 11
61.0299250688
 21
28.9948678911
  0
LINE
  5
466
100
AcDbEntity
  8
7_ALL_ROUNDS
100
AcDbLine
 62
9
  6
CONTINUOUS
 10
61.1678610857
 20
29.0365936486
 11
61.1678610857
 21
30.9650731376
  0
LINE
  5
467
100
AcDbEntity
  8
7_ALL_ROUNDS
100
AcDbLine
 62
9
  6
CONTINUOUS
 10
61.3806941994
 20
29.1009758959
 11
61.3806941994
 21
31.0294553849
  0
LINE
  5
468
100
AcDbEntity
  8
7_ALL_ROUNDS
100
AcDbLine
 62
7
  6
CONTINUOUS
 10
64.3547186423
 20
33.0739418185
 11
64.0206524464
 21
32.8810181019
  0
LINE
  5
469
100
AcDbEntity
  8
0
100
AcDbLine
 62
7
  6
CONTINUOUS
 10
64.3547186423
 20
33.0160874338
 11
64.0206524464
 21
32.8231637172
  0
LINE
  5
46A
100
AcDbEntity
  8
7_ALL_ROUNDS
100
AcDbLine
 62
7
  6
CONTINUOUS
 10
64.3547186423
 20
33.0160874338
 11
64.4048285716
 21
33.0450259913
  0
LINE
  5
46B
100
AcDbEntity
  8
0
100
AcDbLine
 62
9
  6
CONTINUOUS
 10
63.1220143796
 20
32.2912814589
 11
63.0719044503
 21
32.2623429014
  0
LINE
  5
46C
100
AcDbEntity
  8
7_ALL_ROUNDS
100
AcDbLine
 62
7
  6
CONTINUOUS
 10
60.3116826606
 20
30.5664384541
 11
60.9798151394
 21
30.9522859376
  0
LINE
  5
46D
100
AcDbEntity
  8
7_ALL_ROUNDS
100
AcDbLine
 62
7
  6
CONTINUOUS
 10
61.0299250688
 20
30.9233473801
 11
60.36179259
 21
30.5374998967
  0
LINE
  5
46E
100
AcDbEntity
  8
7_ALL_ROUNDS
100
AcDbLine
 62
7
  6
CONTINUOUS
 10
61.33058427
 20
31.0583939424
 11
64.3572241387
 21
32.806282892
  0
LINE
  5
46F
100
AcDbEntity
  8
7_ALL_ROUNDS
100
AcDbLine
 62
7
  6
CONTINUOUS
 10
61.3806941994
 20
31.0294553849
 11
64.4073340681
 21
32.7773443345
  0
LINE
  5
470
100
AcDbEntity
  8
7_ALL_ROUNDS
100
AcDbLine
 62
7
  6
CONTINUOUS
 10
61.0299250688
 20
28.9948678911
 11
60.36179259
 21
28.6090204077
  0
LINE
  5
471
100
AcDbEntity
  8
7_ALL_ROUNDS
100
AcDbLine
 62
7
  6
CONTINUOUS
 10
64.4073340681
 20
30.8488648456
 11
61.3806941994
 21
29.1009758959
  0
LINE
  5
472
100
AcDbEntity
  8
0
100
AcDbLine
 62
7
  6
CONTINUOUS
 10
64.0206524464
 20
32.8231637172
 11
64.0206524464
 21
32.8810181019
  0
LINE
  5
473
100
AcDbEntity
  8
7_ALL_ROUNDS
100
AcDbLine
 62
9
  6
CONTINUOUS
 10
64.3572241387
 20
33.0146405059
 11
64.3572241387
 21
32.806282892
  0
LINE
  5
474
100
AcDbEntity
  8
7_ALL_ROUNDS
100
AcDbLine
 62
9
  6
CONTINUOUS
 10
64.4073340681
 20
32.7773443345
 11
64.4073340681
 21
30.8488648456
  0
LINE
  5
475
100
AcDbEntity
  8
7_ALL_ROUNDS
100
AcDbLine
 62
7
  6
CONTINUOUS
 10
64.502812645
 20
32.910461699
 11
64.502812645
 21
30.98198221
  0
CIRCLE
  5
476
100
AcDbEntity
  8
0
100
AcDbCircle
 62
7
  6
CONTINUOUS
 10
20.9631944961
 20
15.921515671
 40
0.2559055118
  0
ARC
  5
477
100
AcDbEntity
  8
0
100
AcDbCircle
 62
7
  6
CONTINUOUS
 10
16.2387850473
 20
15.921515671
 40
0.2165354331
100
AcDbArc
 50
270.0
 51
90.0
  0
ARC
  5
478
100
AcDbEntity
  8
0
100
AcDbCircle
 62
7
  6
CONTINUOUS
 10
15.9631944961
 20
15.921515671
 40
0.2165354331
100
AcDbArc
 50
90.0
 51
270.0
  0
ARC
  5
479
100
AcDbEntity
  8
0
100
AcDbCircle
 62
7
  6
CONTINUOUS
 10
25.6876039449
 20
15.921515671
 40
0.2165354331
100
AcDbArc
 50
90.0
 51
270.0
  0
ARC
  5
47A
100
AcDbEntity
  8
0
100
AcDbCircle
 62
7
  6
CONTINUOUS
 10
25.9631944961
 20
15.921515671
 40
0.2165354331
100
AcDbArc
 50
270.0
 51
90.0
  0
ARC
  5
47B
100
AcDbEntity
  8
0
100
AcDbCircle
 62
7
  6
CONTINUOUS
 10
14.0261866221
 20
16.8073424426
 40
0.1968503937
100
AcDbArc
 50
270.0
 51
90.0
  0
ARC
  5
47C
100
AcDbEntity
  8
0
100
AcDbCircle
 62
7
  6
CONTINUOUS
 10
12.9631944961
 20
16.8073424426
 40
0.1968503937
100
AcDbArc
 50
90.0
 51
270.0
  0
ARC
  5
47D
100
AcDbEntity
  8
0
100
AcDbCircle
 62
7
  6
CONTINUOUS
 10
27.9002023701
 20
16.8073424426
 40
0.1968503937
100
AcDbArc
 50
90.0
 51
270.0
  0
ARC
  5
47E
100
AcDbEntity
  8
0
100
AcDbCircle
 62
7
  6
CONTINUOUS
 10
28.9631944961
 20
16.8073424426
 40
0.1968503937
100
AcDbArc
 50
270.0
 51
90.0
  0
ARC
  5
47F
100
AcDbEntity
  8
0
100
AcDbCircle
 62
7
  6
CONTINUOUS
 10
14.0261866221
 20
15.0356888993
 40
0.1968503937
100
AcDbArc
 50
270.0
 51
90.0
  0
ARC
  5
480
100
AcDbEntity
  8
0
100
AcDbCircle
 62
7
  6
CONTINUOUS
 10
12.9631944961
 20
15.0356888993
 40
0.1968503937
100
AcDbArc
 50
90.0
 51
270.0
  0
ARC
  5
481
100
AcDbEntity
  8
0
100
AcDbCircle
 62
7
  6
CONTINUOUS
 10
27.9002023701
 20
15.0356888993
 40
0.1968503937
100
AcDbArc
 50
90.0
 51
270.0
  0
ARC
  5
482
100
AcDbEntity
  8
0
100
AcDbCircle
 62
7
  6
CONTINUOUS
 10
28.9631944961
 20
15.0356888993
 40
0.1968503937
100
AcDbArc
 50
270.0
 51
90.0
  0
ARC
  5
483
100
AcDbEntity
  8
7_ALL_ROUNDS
100
AcDbCircle
 62
7
  6
CONTINUOUS
 10
10.0616196929
 20
30.6155141356
 40
0.6712598425
100
AcDbArc
 50
180.0
 51
214.7079347836
  0
ARC
  5
484
100
AcDbEntity
  8
7_ALL_ROUNDS
100
AcDbCircle
 62
7
  6
CONTINUOUS
 10
31.8647692992
 20
30.6155141356
 40
0.6712598425
100
AcDbArc
 50
325.2920492551
 51
360.0
  0
ARC
  5
485
100
AcDbEntity
  8
7_ALL_ROUNDS
100
AcDbCircle
 62
7
  6
CONTINUOUS
 10
31.8647692992
 20
30.6155141356
 40
0.5531496063
100
AcDbArc
 50
325.2919426186
 51
360.0
  0
ARC
  5
486
100
AcDbEntity
  8
7_ALL_ROUNDS
100
AcDbCircle
 62
7
  6
CONTINUOUS
 10
10.0616196929
 20
30.6155141356
 40
0.5531496063
100
AcDbArc
 50
180.0
 51
214.7080820091
  0
ARC
  5
487
100
AcDbEntity
  8
7_ALL_ROUNDS
100
AcDbCircle
 62
7
  6
CONTINUOUS
 10
9.1521705124
 20
29.9855933979
 40
0.5531496063
100
AcDbArc
 50
0.0
 51
34.7079507451
  0
ARC
  5
488
100
AcDbEntity
  8
7_ALL_ROUNDS
100
AcDbCircle
 62
7
  6
CONTINUOUS
 10
32.7742184798
 20
29.9855933979
 40
0.5531496063
100
AcDbArc
 50
145.2920246272
 51
180.0
  0
ARC
  5
489
100
AcDbEntity
  8
7_ALL_ROUNDS
100
AcDbCircle
 62
7
  6
CONTINUOUS
 10
9.933666937
 20
37.7493727201
 40
0.5433070866
100
AcDbArc
 50
90.0
 51
180.0
  0
ARC
  5
48A
100
AcDbEntity
  8
7_ALL_ROUNDS
100
AcDbCircle
 62
7
  6
CONTINUOUS
 10
31.9927220551
 20
37.7493727201
 40
0.5433070866
100
AcDbArc
 50
0.0
 51
90.0
  0
ARC
  5
48B
100
AcDbEntity
  8
7_ALL_ROUNDS
100
AcDbCircle
 62
7
  6
CONTINUOUS
 10
32.7742184798
 20
29.9855933979
 40
0.4350393701
100
AcDbArc
 50
145.2918823533
 51
180.0
  0
ARC
  5
48C
100
AcDbEntity
  8
7_ALL_ROUNDS
100
AcDbCircle
 62
7
  6
CONTINUOUS
 10
9.1521705124
 20
29.9855933979
 40
0.4350393701
100
AcDbArc
 50
0.0
 51
34.7081422748
  0
ARC
  5
48D
100
AcDbEntity
  8
7_ALL_ROUNDS
100
AcDbCircle
 62
7
  6
CONTINUOUS
 10
31.9927220551
 20
37.7493727201
 40
0.4251968504
100
AcDbArc
 50
0.0
 51
90.0
  0
ARC
  5
48E
100
AcDbEntity
  8
7_ALL_ROUNDS
100
AcDbCircle
 62
7
  6
CONTINUOUS
 10
9.933666937
 20
37.7493727201
 40
0.4251968504
100
AcDbArc
 50
90.0
 51
180.0
  0
ARC
  5
48F
100
AcDbEntity
  8
7_ALL_ROUNDS
100
AcDbCircle
 62
7
  6
CONTINUOUS
 10
44.1228586235
 20
15.5278148836
 40
1.5748031496
100
AcDbArc
 50
180.0
 51
270.0
  0
ARC
  5
490
100
AcDbEntity
  8
7_ALL_ROUNDS
100
AcDbCircle
 62
7
  6
CONTINUOUS
 10
44.1228586235
 20
16.3152164584
 40
1.5748031496
100
AcDbArc
 50
90.0
 51
180.0
  0
CIRCLE
  5
491
100
AcDbEntity
  8
0
100
AcDbCircle
 62
7
  6
CONTINUOUS
 10
44.1228586235
 20
15.921515671
 40
0.2362204724
  0
ARC
  5
492
100
AcDbEntity
  8
7_ALL_ROUNDS
100
AcDbCircle
 62
7
  6
CONTINUOUS
 10
53.8866381511
 20
17.890019608
 40
0.1181102362
100
AcDbArc
 50
0.0
 51
90.0
  0
ARC
  5
493
100
AcDbEntity
  8
7_ALL_ROUNDS
100
AcDbCircle
 62
7
  6
CONTINUOUS
 10
53.8866381511
 20
13.953011734
 40
0.1181102362
100
AcDbArc
 50
270.0
 51
360.0
  0
ARC
  5
494
100
AcDbEntity
  8
7_ALL_ROUNDS
100
AcDbCircle
 62
7
  6
CONTINUOUS
 10
54.8492437068
 20
38.0831981373
 40
0.4164344031
100
AcDbArc
 50
69.4242398726
 51
71.5615392846
  0
ARC
  5
495
100
AcDbEntity
  8
7_ALL_ROUNDS
100
AcDbCircle
 62
7
  6
CONTINUOUS
 10
50.4462192811
 20
34.3838315692
 40
0.3189262636
100
AcDbArc
 50
229.746979614
 51
239.9523182173
  0
ARC
  5
496
100
AcDbEntity
  8
7_ALL_ROUNDS
100
AcDbCircle
 62
7
  6
CONTINUOUS
 10
60.0489523873
 20
28.8382391594
 40
0.3189262636
100
AcDbArc
 50
229.746979614
 51
239.9523182173
  0
ARC
  5
497
100
AcDbEntity
  8
0
100
AcDbCircle
 62
7
  6
CONTINUOUS
 10
57.5841087835
 20
36.0682514239
 40
0.0684522922
100
AcDbArc
 50
156.2482343012
 51
161.8746438929
  0
ARC
  5
498
100
AcDbEntity
  8
0
100
AcDbCircle
 62
7
  6
CONTINUOUS
 10
61.7098263021
 20
33.6856435244
 40
0.0684522922
100
AcDbArc
 50
156.248234301
 51
161.874643893
  0
SPLINE
  5
499
100
AcDbEntity
  8
0
100
AcDbSpline
 62
7
  6
CONTINUOUS
 70
0
 71
3
 72
9
 73
5
 74
0
 42
0.0000001
 43
0.0000001
 44
0.0000000001
 40
0.0
 40
0.0
 40
0.0
 40
0.0
 40
0.5508264657
 40
1.0
 40
1.0
 40
1.0
 40
1.0
 10
59.7863634142
 20
34.6900795133
 30
0.0
 10
59.7863634142
 20
34.6754207565
 30
0.0
 10
59.7828107541
 20
34.6481816425
 30
0.0
 10
59.7649270736
 20
34.6257993605
 30
0.0
 10
59.7545759744
 20
34.6198209127
 30
0.0
  0
SPLINE
  5
49A
100
AcDbEntity
  8
0
100
AcDbSpline
 62
7
  6
CONTINUOUS
 70
0
 71
3
 72
12
 73
8
 74
0
 42
0.0000001
 43
0.0000001
 44
0.0000000001
 40
0.0
 40
0.0
 40
0.0
 40
0.0
 40
0.2710796172
 40
0.5638150146
 40
0.6985434507
 40
0.8167333064
 40
1.0
 40
1.0
 40
1.0
 40
1.0
 10
57.6733947255
 20
36.0163883924
 30
0.0
 10
57.693489847
 20
36.0047834304
 30
0.0
 10
57.7287449629
 20
35.9696563361
 30
0.0
 10
57.7565615089
 20
35.9156109619
 30
0.0
 10
57.7658013666
 20
35.869372098
 30
0.0
 10
57.7655065899
 20
35.8321919214
 30
0.0
 10
57.7519517836
 20
35.8056634549
 30
0.0
 10
57.738365865
 20
35.7978184117
 30
0.0
  0
SPLINE
  5
49B
100
AcDbEntity
  8
0
100
AcDbSpline
 62
7
  6
CONTINUOUS
 70
0
 71
3
 72
12
 73
8
 74
0
 42
0.0000001
 43
0.0000001
 44
0.0000000001
 40
0.0
 40
0.0
 40
0.0
 40
0.0
 40
0.2710796172
 40
0.5638150146
 40
0.6985434507
 40
0.8167333064
 40
1.0
 40
1.0
 40
1.0
 40
1.0
 10
61.7991122441
 20
33.6337804929
 30
0.0
 10
61.8192073656
 20
33.6221755309
 30
0.0
 10
61.8544624815
 20
33.5870484365
 30
0.0
 10
61.8822790274
 20
33.5330030624
 30
0.0
 10
61.8915188852
 20
33.4867641984
 30
0.0
 10
61.8912241085
 20
33.4495840218
 30
0.0
 10
61.8776693022
 20
33.4230555553
 30
0.0
 10
61.8640833835
 20
33.4152105122
 30
0.0
  0
SPLINE
  5
49C
100
AcDbEntity
  8
0
100
AcDbSpline
 62
7
  6
CONTINUOUS
 70
0
 71
3
 72
12
 73
8
 74
0
 42
0.0000001
 43
0.0000001
 44
0.0000000001
 40
0.0
 40
0.0
 40
0.0
 40
0.0
 40
0.2711265503
 40
0.5638617066
 40
0.6985851978
 40
0.8167655118
 40
1.0
 40
1.0
 40
1.0
 40
1.0
 10
56.7346687152
 20
36.9827695235
 30
0.0
 10
56.7529435599
 20
36.972215774
 30
0.0
 10
56.7850001919
 20
36.940270473
 30
0.0
 10
56.8102870227
 20
36.8911210577
 30
0.0
 10
56.8186778541
 20
36.849078662
 30
0.0
 10
56.8184048617
 20
36.8152711367
 30
0.0
 10
56.8060474156
 20
36.791173967
 30
0.0
 10
56.793693802
 20
36.7840466451
 30
0.0
  0
SPLINE
  5
49D
100
AcDbEntity
  8
0
100
AcDbSpline
 62
7
  6
CONTINUOUS
 70
0
 71
3
 72
12
 73
8
 74
0
 42
0.0000001
 43
0.0000001
 44
0.0000000001
 40
0.0
 40
0.0
 40
0.0
 40
0.0
 40
0.2711265503
 40
0.5638617066
 40
0.6985851978
 40
0.8167655118
 40
1.0
 40
1.0
 40
1.0
 40
1.0
 10
63.0719044503
 20
33.3230066204
 30
0.0
 10
63.0901792949
 20
33.3124528708
 30
0.0
 10
63.122235927
 20
33.2805075698
 30
0.0
 10
63.1475227577
 20
33.2313581545
 30
0.0
 10
63.1559135891
 20
33.1893157588
 30
0.0
 10
63.1556405967
 20
33.1555082335
 30
0.0
 10
63.1432831506
 20
33.1314110638
 30
0.0
 10
63.130929537
 20
33.124283742
 30
0.0
  0
SPLINE
  5
49E
100
AcDbEntity
  8
0
100
AcDbSpline
 62
7
  6
CONTINUOUS
 70
0
 71
3
 72
12
 73
8
 74
0
 42
0.0000001
 43
0.0000001
 44
0.0000000001
 40
0.0
 40
0.0
 40
0.0
 40
0.0
 40
0.2711265503
 40
0.5638617066
 40
0.6985851978
 40
0.8167655118
 40
1.0
 40
1.0
 40
1.0
 40
1.0
 10
56.7346687152
 20
36.1149537535
 30
0.0
 10
56.7529435599
 20
36.104400004
 30
0.0
 10
56.7850001919
 20
36.072454703
 30
0.0
 10
56.8102870227
 20
36.0233052876
 30
0.0
 10
56.8186778541
 20
35.981262892
 30
0.0
 10
56.8184048617
 20
35.9474553667
 30
0.0
 10
56.8060474156
 20
35.9233581969
 30
0.0
 10
56.793693802
 20
35.9162308751
 30
0.0
  0
SPLINE
  5
49F
100
AcDbEntity
  8
0
100
AcDbSpline
 62
7
  6
CONTINUOUS
 70
0
 71
3
 72
12
 73
8
 74
0
 42
0.0000001
 43
0.0000001
 44
0.0000000001
 40
0.0
 40
0.0
 40
0.0
 40
0.0
 40
0.2711265503
 40
0.5638617066
 40
0.6985851978
 40
0.8167655118
 40
1.0
 40
1.0
 40
1.0
 40
1.0
 10
63.0719044503
 20
32.4551908503
 30
0.0
 10
63.0901792949
 20
32.4446371008
 30
0.0
 10
63.122235927
 20
32.4126917998
 30
0.0
 10
63.1475227577
 20
32.3635423845
 30
0.0
 10
63.1559135891
 20
32.3214999888
 30
0.0
 10
63.1556405967
 20
32.2876924635
 30
0.0
 10
63.1432831506
 20
32.2635952938
 30
0.0
 10
63.130929537
 20
32.2564679719
 30
0.0
  0
SPLINE
  5
4A0
100
AcDbEntity
  8
7_ALL_ROUNDS
100
AcDbSpline
 62
7
  6
CONTINUOUS
 70
0
 71
3
 72
11
 73
7
 74
0
 42
0.0000001
 43
0.0000001
 44
0.0000000001
 40
0.0
 40
0.0
 40
0.0
 40
0.0
 40
0.2177733199
 40
0.4509522137
 40
0.7102006067
 40
1.0
 40
1.0
 40
1.0
 40
1.0
 10
59.8391495281
 20
28.5911122722
 30
0.0
 10
59.8079966606
 20
28.609103051
 30
0.0
 10
59.7496906924
 20
28.6581058406
 30
0.0
 10
59.6876732394
 20
28.759582534
 30
0.0
 10
59.6507789554
 20
28.8846186323
 30
0.0
 10
59.6435502689
 20
28.9756305813
 30
0.0
 10
59.6435502689
 20
29.0235033276
 30
0.0
  0
SPLINE
  5
4A1
100
AcDbEntity
  8
0
100
AcDbSpline
 62
7
  6
CONTINUOUS
 70
0
 71
3
 72
9
 73
5
 74
0
 42
0.0000001
 43
0.0000001
 44
0.0000000001
 40
0.0
 40
0.0
 40
0.0
 40
0.0
 40
0.2745480674
 40
1.0
 40
1.0
 40
1.0
 40
1.0
 10
59.6193303163
 20
34.8444184865
 30
0.0
 10
59.6193303163
 20
34.8489575814
 30
0.0
 10
59.6201076639
 20
34.8654416794
 30
0.0
 10
59.6242942772
 20
34.8820538651
 30
0.0
 10
59.6300661182
 20
34.8925676125
 30
0.0
  0
SPLINE
  5
4A2
100
AcDbEntity
  8
7_ALL_ROUNDS
100
AcDbSpline
 62
7
  6
CONTINUOUS
 70
0
 71
3
 72
11
 73
7
 74
0
 42
0.0000001
 43
0.0000001
 44
0.0000000001
 40
0.0
 40
0.0
 40
0.0
 40
0.0
 40
0.2177515728
 40
0.4509214562
 40
0.7101781225
 40
1.0
 40
1.0
 40
1.0
 40
1.0
 10
59.8892594574
 20
28.5621737147
 30
0.0
 10
59.9204280645
 20
28.5441738462
 30
0.0
 10
59.9920553251
 20
28.5181570622
 30
0.0
 10
60.1110147626
 20
28.5151863384
 30
0.0
 10
60.2378245717
 20
28.5457823876
 30
0.0
 10
60.3203079839
 20
28.585062987
 30
0.0
 10
60.36179259
 20
28.6090204077
 30
0.0
  0
SPLINE
  5
4A3
100
AcDbEntity
  8
0
100
AcDbSpline
 62
7
  6
CONTINUOUS
 70
0
 71
3
 72
10
 73
6
 74
0
 42
0.0000001
 43
0.0000001
 44
0.0000000001
 40
0.0
 40
0.0
 40
0.0
 40
0.0
 40
0.5200501107
 40
0.7828059105
 40
1.0
 40
1.0
 40
1.0
 40
1.0
 10
57.6065814864
 20
35.9007175069
 30
0.0
 10
57.5737298157
 20
35.9196893948
 30
0.0
 10
57.5358433562
 20
35.968534142
 30
0.0
 10
57.5135475585
 20
36.0380156892
 30
0.0
 10
57.51410973
 20
36.0744939422
 30
0.0
 10
57.5190532207
 20
36.0895467299
 30
0.0
  0
SPLINE
  5
4A4
100
AcDbEntity
  8
7_ALL_ROUNDS
100
AcDbSpline
 62
7
  6
CONTINUOUS
 70
0
 71
3
 72
11
 73
7
 74
0
 42
0.0000001
 43
0.0000001
 44
0.0000000001
 40
0.0
 40
0.0
 40
0.0
 40
0.0
 40
0.2177733199
 40
0.4509522137
 40
0.7102006067
 40
1.0
 40
1.0
 40
1.0
 40
1.0
 10
50.2364164219
 20
34.136704682
 30
0.0
 10
50.2052635544
 20
34.1546954608
 30
0.0
 10
50.1469575862
 20
34.2036982504
 30
0.0
 10
50.0849401332
 20
34.3051749438
 30
0.0
 10
50.0480458492
 20
34.430211042
 30
0.0
 10
50.0408171627
 20
34.5212229911
 30
0.0
 10
50.0408171627
 20
34.5690957374
 30
0.0
  0
SPLINE
  5
4A5
100
AcDbEntity
  8
7_ALL_ROUNDS
100
AcDbSpline
 62
7
  6
CONTINUOUS
 70
0
 71
3
 72
11
 73
7
 74
0
 42
0.0000001
 43
0.0000001
 44
0.0000000001
 40
0.0
 40
0.0
 40
0.0
 40
0.0
 40
0.2177515728
 40
0.4509214562
 40
0.7101781225
 40
1.0
 40
1.0
 40
1.0
 40
1.0
 10
50.2865263513
 20
34.1077661245
 30
0.0
 10
50.3176949583
 20
34.089766256
 30
0.0
 10
50.389322219
 20
34.063749472
 30
0.0
 10
50.5082816565
 20
34.0607787482
 30
0.0
 10
50.6350914655
 20
34.0913747974
 30
0.0
 10
50.7175748777
 20
34.1306553968
 30
0.0
 10
50.7590594838
 20
34.1546128175
 30
0.0
  0
SPLINE
  5
4A6
100
AcDbEntity
  8
0
100
AcDbSpline
 62
7
  6
CONTINUOUS
 70
0
 71
3
 72
10
 73
6
 74
0
 42
0.0000001
 43
0.0000001
 44
0.0000000001
 40
0.0
 40
0.0
 40
0.0
 40
0.0
 40
0.5200501107
 40
0.7828059105
 40
1.0
 40
1.0
 40
1.0
 40
1.0
 10
61.732299005
 20
33.5181096074
 30
0.0
 10
61.6994473343
 20
33.5370814952
 30
0.0
 10
61.6615608748
 20
33.5859262425
 30
0.0
 10
61.639265077
 20
33.6554077897
 30
0.0
 10
61.6398272486
 20
33.6918860426
 30
0.0
 10
61.6447707393
 20
33.7069388304
 30
0.0
  0
SPLINE
  5
4A7
100
AcDbEntity
  8
7_ALL_ROUNDS
100
AcDbSpline
 62
7
  6
CONTINUOUS
 70
0
 71
3
 72
9
 73
5
 74
0
 42
0.0000001
 43
0.0000001
 44
0.0000000001
 40
0.0
 40
0.0
 40
0.0
 40
0.0
 40
0.4492447768
 40
1.0
 40
1.0
 40
1.0
 40
1.0
 10
64.502812645
 20
30.98198221
 30
0.0
 10
64.502812645
 20
30.9565854383
 30
0.0
 10
64.4806185679
 20
30.8999156823
 30
0.0
 10
64.4342963286
 20
30.8644355904
 30
0.0
 10
64.4073340681
 20
30.8488648456
 30
0.0
  0
SPLINE
  5
4A8
100
AcDbEntity
  8
0
100
AcDbSpline
 62
7
  6
CONTINUOUS
 70
0
 71
3
 72
10
 73
6
 74
0
 42
0.0000001
 43
0.0000001
 44
0.0000000001
 40
0.0
 40
0.0
 40
0.0
 40
0.0
 40
0.5238805337
 40
0.7862410583
 40
1.0
 40
1.0
 40
1.0
 40
1.0
 10
56.3337892802
 20
37.0793071495
 30
0.0
 10
56.3031631832
 20
37.0969937653
 30
0.0
 10
56.2681813089
 20
37.1428242792
 30
0.0
 10
56.24855381
 20
37.2074386868
 30
0.0
 10
56.2501976373
 20
37.2410815934
 30
0.0
 10
56.2554970786
 20
37.2545037898
 30
0.0
  0
SPLINE
  5
4A9
100
AcDbEntity
  8
7_ALL_ROUNDS
100
AcDbSpline
 62
7
  6
CONTINUOUS
 70
0
 71
3
 72
9
 73
5
 74
0
 42
0.0000001
 43
0.0000001
 44
0.0000000001
 40
0.0
 40
0.0
 40
0.0
 40
0.0
 40
0.4492447768
 40
1.0
 40
1.0
 40
1.0
 40
1.0
 10
64.502812645
 20
32.910461699
 30
0.0
 10
64.502812645
 20
32.9358584706
 30
0.0
 10
64.4806185679
 20
32.9925282266
 30
0.0
 10
64.4342963286
 20
33.0280083186
 30
0.0
 10
64.4073340681
 20
33.0435790634
 30
0.0
  0
SPLINE
  5
4AA
100
AcDbEntity
  8
0
100
AcDbSpline
 62
7
  6
CONTINUOUS
 70
0
 71
3
 72
10
 73
6
 74
0
 42
0.0000001
 43
0.0000001
 44
0.0000000001
 40
0.0
 40
0.0
 40
0.0
 40
0.0
 40
0.5238805337
 40
0.7862410583
 40
1.0
 40
1.0
 40
1.0
 40
1.0
 10
62.6710250153
 20
33.4195442463
 30
0.0
 10
62.6403989183
 20
33.4372308621
 30
0.0
 10
62.6054170439
 20
33.483061376
 30
0.0
 10
62.585789545
 20
33.5476757836
 30
0.0
 10
62.5874333723
 20
33.5813186903
 30
0.0
 10
62.5927328136
 20
33.5947408866
 30
0.0
  0
SPLINE
  5
4AB
100
AcDbEntity
  8
0
100
AcDbSpline
 62
7
  6
CONTINUOUS
 70
0
 71
3
 72
10
 73
6
 74
0
 42
0.0000001
 43
0.0000001
 44
0.0000000001
 40
0.0
 40
0.0
 40
0.0
 40
0.0
 40
0.5238805337
 40
0.7862410583
 40
1.0
 40
1.0
 40
1.0
 40
1.0
 10
56.3337892802
 20
36.2114913794
 30
0.0
 10
56.3031631832
 20
36.2291779952
 30
0.0
 10
56.2681813089
 20
36.2750085092
 30
0.0
 10
56.24855381
 20
36.3396229167
 30
0.0
 10
56.2501976373
 20
36.3732658234
 30
0.0
 10
56.2554970786
 20
36.3866880198
 30
0.0
  0
SPLINE
  5
4AC
100
AcDbEntity
  8
7_ALL_ROUNDS
100
AcDbSpline
 62
7
  6
CONTINUOUS
 70
0
 71
3
 72
9
 73
5
 74
0
 42
0.0000001
 43
0.0000001
 44
0.0000000001
 40
0.0
 40
0.0
 40
0.0
 40
0.0
 40
0.4492447768
 40
1.0
 40
1.0
 40
1.0
 40
1.0
 10
64.4319465032
 20
32.910461699
 30
0.0
 10
64.4319465032
 20
32.8905859646
 30
0.0
 10
64.4145772255
 20
32.8462357208
 30
0.0
 10
64.3783250382
 20
32.8184686923
 30
0.0
 10
64.3572241387
 20
32.806282892
 30
0.0
  0
SPLINE
  5
4AD
100
AcDbEntity
  8
0
100
AcDbSpline
 62
7
  6
CONTINUOUS
 70
0
 71
3
 72
10
 73
6
 74
0
 42
0.0000001
 43
0.0000001
 44
0.0000000001
 40
0.0
 40
0.0
 40
0.0
 40
0.0
 40
0.5238805337
 40
0.7862410583
 40
1.0
 40
1.0
 40
1.0
 40
1.0
 10
62.6710250153
 20
32.5517284763
 30
0.0
 10
62.6403989183
 20
32.5694150921
 30
0.0
 10
62.6054170439
 20
32.615245606
 30
0.0
 10
62.585789545
 20
32.6798600135
 30
0.0
 10
62.5874333723
 20
32.7135029202
 30
0.0
 10
62.5927328136
 20
32.7269251166
 30
0.0
  0
SPLINE
  5
4AE
100
AcDbEntity
  8
0
100
AcDbSpline
 62
7
  6
CONTINUOUS
 70
0
 71
3
 72
9
 73
5
 74
0
 42
0.0000001
 43
0.0000001
 44
0.0000000001
 40
0.0
 40
0.0
 40
0.0
 40
0.0
 40
0.2289228981
 40
1.0
 40
1.0
 40
1.0
 40
1.0
 10
60.4032120574
 20
29.7021882046
 30
0.0
 10
60.4046809821
 20
29.6992350117
 30
0.0
 10
60.4101314177
 20
29.6858512676
 30
0.0
 10
60.4119025194
 20
29.6711855882
 30
0.0
 10
60.4119025194
 20
29.6600758246
 30
0.0
  0
SPLINE
  5
4AF
100
AcDbEntity
  8
0
100
AcDbSpline
 62
7
  6
CONTINUOUS
 70
0
 71
3
 72
9
 73
5
 74
0
 42
0.0000001
 43
0.0000001
 44
0.0000000001
 40
0.0
 40
0.0
 40
0.0
 40
0.0
 40
0.4491735343
 40
1.0
 40
1.0
 40
1.0
 40
1.0
 10
60.2909149834
 20
29.4505289443
 30
0.0
 10
60.2813601226
 20
29.4560475115
 30
0.0
 10
60.2648521098
 20
29.4767080796
 30
0.0
 10
60.2615727312
 20
29.5018518771
 30
0.0
 10
60.2615727312
 20
29.5153830372
 30
0.0
  0
SPLINE
  5
4B0
100
AcDbEntity
  8
0
100
AcDbSpline
 62
7
  6
CONTINUOUS
 70
0
 71
3
 72
9
 73
5
 74
0
 42
0.0000001
 43
0.0000001
 44
0.0000000001
 40
0.0
 40
0.0
 40
0.0
 40
0.0
 40
0.2289228981
 40
1.0
 40
1.0
 40
1.0
 40
1.0
 10
50.8004789512
 20
35.2477806144
 30
0.0
 10
50.8019478759
 20
35.2448274214
 30
0.0
 10
50.8073983116
 20
35.2314436774
 30
0.0
 10
50.8091694132
 20
35.216777998
 30
0.0
 10
50.8091694132
 20
35.2056682344
 30
0.0
  0
SPLINE
  5
4B1
100
AcDbEntity
  8
0
100
AcDbSpline
 62
7
  6
CONTINUOUS
 70
0
 71
3
 72
9
 73
5
 74
0
 42
0.0000001
 43
0.0000001
 44
0.0000000001
 40
0.0
 40
0.0
 40
0.0
 40
0.0
 40
0.4491735343
 40
1.0
 40
1.0
 40
1.0
 40
1.0
 10
50.6881818772
 20
34.9961213541
 30
0.0
 10
50.6786270164
 20
35.0016399213
 30
0.0
 10
50.6621190036
 20
35.0223004893
 30
0.0
 10
50.658839625
 20
35.0474442869
 30
0.0
 10
50.658839625
 20
35.060975447
 30
0.0
  0
SPLINE
  5
4B2
100
AcDbEntity
  8
0
100
AcDbSpline
 62
7
  6
CONTINUOUS
 70
0
 71
3
 72
9
 73
5
 74
0
 42
0.0000001
 43
0.0000001
 44
0.0000000001
 40
0.0
 40
0.0
 40
0.0
 40
0.0
 40
0.233689914
 40
1.0
 40
1.0
 40
1.0
 40
1.0
 10
63.1490958202
 20
32.2808530808
 30
0.0
 10
63.1468656998
 20
32.2812602146
 30
0.0
 10
63.1374160216
 20
32.2835109101
 30
0.0
 10
63.1284518362
 20
32.2875638183
 30
0.0
 10
63.1220143796
 20
32.2912814589
 30
0.0
  0
SPLINE
  5
4B3
100
AcDbEntity
  8
7_ALL_ROUNDS
100
AcDbSpline
 62
7
  6
CONTINUOUS
 70
0
 71
3
 72
9
 73
5
 74
0
 42
0.0000001
 43
0.0000001
 44
0.0000000001
 40
0.0
 40
0.0
 40
0.0
 40
0.0
 40
0.2949908402
 40
1.0
 40
1.0
 40
1.0
 40
1.0
 10
55.0008651589
 20
38.4758058822
 30
0.0
 10
55.0039693775
 20
38.477598573
 30
0.0
 10
55.0147536736
 20
38.482898649
 30
0.0
 10
55.0288861034
 20
38.483603834
 30
0.0
 10
55.0363050111
 20
38.4793194608
 30
0.0
  0
SPLINE
  5
4B4
100
AcDbEntity
  8
7_ALL_ROUNDS
100
AcDbSpline
 62
7
  6
CONTINUOUS
 70
0
 71
3
 72
9
 73
5
 74
0
 42
0.0000001
 43
0.0000001
 44
0.0000000001
 40
0.0
 40
0.0
 40
0.0
 40
0.0
 40
0.2849299529
 40
1.0
 40
1.0
 40
1.0
 40
1.0
 10
51.5608183728
 20
36.7004480332
 30
0.0
 10
51.5470104188
 20
36.6924739196
 30
0.0
 10
51.500547599
 20
36.6618355697
 30
0.0
 10
51.4613375218
 20
36.6157105852
 30
0.0
 10
51.4493343719
 20
36.5775368545
 30
0.0
  0
SPLINE
  5
4B5
100
AcDbEntity
  8
7_ALL_ROUNDS
100
AcDbSpline
 62
7
  6
CONTINUOUS
 70
0
 71
3
 72
9
 73
5
 74
0
 42
0.0000001
 43
0.0000001
 44
0.0000000001
 40
0.0
 40
0.0
 40
0.0
 40
0.0
 40
0.5142519156
 40
1.0
 40
1.0
 40
1.0
 40
1.0
 10
54.9809560426
 20
38.4782544278
 30
0.0
 10
54.9155347697
 20
38.5000769236
 30
0.0
 10
54.7788656907
 20
38.5137939789
 30
0.0
 10
54.6438695013
 20
38.4809145679
 30
0.0
 10
54.5874582415
 20
38.4483369829
 30
0.0
  0
SPLINE
  5
4B6
100
AcDbEntity
  8
0
100
AcDbSpline
 62
7
  6
CONTINUOUS
 70
0
 71
3
 72
9
 73
5
 74
0
 42
0.0000001
 43
0.0000001
 44
0.0000000001
 40
0.0
 40
0.0
 40
0.0
 40
0.0
 40
0.4491614419
 40
1.0
 40
1.0
 40
1.0
 40
1.0
 10
62.5618899991
 20
32.7215127972
 30
0.0
 10
62.5698535253
 20
32.726107292
 30
0.0
 10
62.5916462169
 20
32.7293854888
 30
0.0
 10
62.6111512128
 20
32.7212765187
 30
0.0
 10
62.6209150859
 20
32.7156378677
 30
0.0
  0
SPLINE
  5
4B7
100
AcDbEntity
  8
0
100
AcDbSpline
 62
7
  6
CONTINUOUS
 70
0
 71
3
 72
9
 73
5
 74
0
 42
0.0000001
 43
0.0000001
 44
0.0000000001
 40
0.0
 40
0.0
 40
0.0
 40
0.0
 40
0.233689914
 40
1.0
 40
1.0
 40
1.0
 40
1.0
 10
56.8118600852
 20
35.940615984
 30
0.0
 10
56.8096299648
 20
35.9410231177
 30
0.0
 10
56.8001802866
 20
35.9432738133
 30
0.0
 10
56.7912161012
 20
35.9473267215
 30
0.0
 10
56.7847786446
 20
35.9510443621
 30
0.0
  0
SPLINE
  5
4B8
100
AcDbEntity
  8
7_ALL_ROUNDS
100
AcDbSpline
 62
7
  6
CONTINUOUS
 70
0
 71
3
 72
9
 73
5
 74
0
 42
0.0000001
 43
0.0000001
 44
0.0000000001
 40
0.0
 40
0.0
 40
0.0
 40
0.0
 40
0.2220592184
 40
1.0
 40
1.0
 40
1.0
 40
1.0
 10
51.5190600757
 20
34.6417450103
 30
0.0
 10
51.5159818132
 20
34.6319551672
 30
0.0
 10
51.496410545
 20
34.5895861179
 30
0.0
 10
51.4583255103
 20
34.5584399702
 30
0.0
 10
51.4271919626
 20
34.5404603009
 30
0.0
  0
SPLINE
  5
4B9
100
AcDbEntity
  8
0
100
AcDbSpline
 62
7
  6
CONTINUOUS
 70
0
 71
3
 72
9
 73
5
 74
0
 42
0.0000001
 43
0.0000001
 44
0.0000000001
 40
0.0
 40
0.0
 40
0.0
 40
0.0
 40
0.4491614419
 40
1.0
 40
1.0
 40
1.0
 40
1.0
 10
56.2246542641
 20
36.3812757004
 30
0.0
 10
56.2326177902
 20
36.3858701952
 30
0.0
 10
56.2544104819
 20
36.389148392
 30
0.0
 10
56.2739154778
 20
36.3810394219
 30
0.0
 10
56.2836793509
 20
36.3754007709
 30
0.0
  0
SPLINE
  5
4BA
100
AcDbEntity
  8
0
100
AcDbSpline
 62
7
  6
CONTINUOUS
 70
0
 71
3
 72
9
 73
5
 74
0
 42
0.0000001
 43
0.0000001
 44
0.0000000001
 40
0.0
 40
0.0
 40
0.0
 40
0.0
 40
0.4491614419
 40
1.0
 40
1.0
 40
1.0
 40
1.0
 10
62.5618899991
 20
33.5893285672
 30
0.0
 10
62.5698535253
 20
33.593923062
 30
0.0
 10
62.5916462169
 20
33.5972012589
 30
0.0
 10
62.6111512128
 20
33.5890922887
 30
0.0
 10
62.6209150859
 20
33.5834536377
 30
0.0
  0
SPLINE
  5
4BB
100
AcDbEntity
  8
0
100
AcDbSpline
 62
7
  6
CONTINUOUS
 70
0
 71
3
 72
9
 73
5
 74
0
 42
0.0000001
 43
0.0000001
 44
0.0000000001
 40
0.0
 40
0.0
 40
0.0
 40
0.0
 40
0.233689914
 40
1.0
 40
1.0
 40
1.0
 40
1.0
 10
63.1490958202
 20
33.1486688508
 30
0.0
 10
63.1468656998
 20
33.1490759846
 30
0.0
 10
63.1374160216
 20
33.1513266801
 30
0.0
 10
63.1284518362
 20
33.1553795884
 30
0.0
 10
63.1220143796
 20
33.159097229
 30
0.0
  0
SPLINE
  5
4BC
100
AcDbEntity
  8
0
100
AcDbSpline
 62
7
  6
CONTINUOUS
 70
0
 71
3
 72
9
 73
5
 74
0
 42
0.0000001
 43
0.0000001
 44
0.0000000001
 40
0.0
 40
0.0
 40
0.0
 40
0.0
 40
0.4491614419
 40
1.0
 40
1.0
 40
1.0
 40
1.0
 10
56.2246542641
 20
37.2490914704
 30
0.0
 10
56.2326177902
 20
37.2536859652
 30
0.0
 10
56.2544104819
 20
37.256964162
 30
0.0
 10
56.2739154778
 20
37.2488551919
 30
0.0
 10
56.2836793509
 20
37.2432165409
 30
0.0
  0
SPLINE
  5
4BD
100
AcDbEntity
  8
0
100
AcDbSpline
 62
7
  6
CONTINUOUS
 70
0
 71
3
 72
9
 73
5
 74
0
 42
0.0000001
 43
0.0000001
 44
0.0000000001
 40
0.0
 40
0.0
 40
0.0
 40
0.0
 40
0.233689914
 40
1.0
 40
1.0
 40
1.0
 40
1.0
 10
56.8118600852
 20
36.808431754
 30
0.0
 10
56.8096299648
 20
36.8088388878
 30
0.0
 10
56.8001802866
 20
36.8110895833
 30
0.0
 10
56.7912161012
 20
36.8151424916
 30
0.0
 10
56.7847786446
 20
36.8188601321
 30
0.0
  0
SPLINE
  5
4BE
100
AcDbEntity
  8
0
100
AcDbSpline
 62
7
  6
CONTINUOUS
 70
0
 71
3
 72
9
 73
5
 74
0
 42
0.0000001
 43
0.0000001
 44
0.0000000001
 40
0.0
 40
0.0
 40
0.0
 40
0.0
 40
0.4491404386
 40
1.0
 40
1.0
 40
1.0
 40
1.0
 10
61.6172179362
 20
33.7077410306
 30
0.0
 10
61.6259817009
 20
33.7128015727
 30
0.0
 10
61.6499652208
 20
33.7164401437
 30
0.0
 10
61.6714408258
 20
33.7075109236
 30
0.0
 10
61.6821890756
 20
33.7013037937
 30
0.0
  0
SPLINE
  5
4BF
100
AcDbEntity
  8
0
100
AcDbSpline
 62
7
  6
CONTINUOUS
 70
0
 71
3
 72
9
 73
5
 74
0
 42
0.0000001
 43
0.0000001
 44
0.0000000001
 40
0.0
 40
0.0
 40
0.0
 40
0.0
 40
0.2305858537
 40
1.0
 40
1.0
 40
1.0
 40
1.0
 10
61.8838039929
 20
33.4384162181
 30
0.0
 10
61.8809907405
 20
33.4387208745
 30
0.0
 10
61.8688776238
 20
33.440855345
 30
0.0
 10
61.8573987248
 20
33.4458643363
 30
0.0
 10
61.8492221735
 20
33.4505863066
 30
0.0
  0
SPLINE
  5
4C0
100
AcDbEntity
  8
7_ALL_ROUNDS
100
AcDbSpline
 62
7
  6
CONTINUOUS
 70
0
 71
3
 72
9
 73
5
 74
0
 42
0.0000001
 43
0.0000001
 44
0.0000000001
 40
0.0
 40
0.0
 40
0.0
 40
0.0
 40
0.2310540288
 40
1.0
 40
1.0
 40
1.0
 40
1.0
 10
61.3806941994
 20
29.1009758959
 30
0.0
 10
61.3658020888
 20
29.0923756802
 30
0.0
 10
61.2988307125
 20
29.0595469896
 30
0.0
 10
61.2247810718
 20
29.042562676
 30
0.0
 10
61.1678615285
 20
29.0365937223
 30
0.0
  0
SPLINE
  5
4C1
100
AcDbEntity
  8
0
100
AcDbSpline
 62
7
  6
CONTINUOUS
 70
0
 71
3
 72
9
 73
5
 74
0
 42
0.0000001
 43
0.0000001
 44
0.0000000001
 40
0.0
 40
0.0
 40
0.0
 40
0.0
 40
0.4491404386
 40
1.0
 40
1.0
 40
1.0
 40
1.0
 10
57.4915004176
 20
36.0903489302
 30
0.0
 10
57.5002641823
 20
36.0954094722
 30
0.0
 10
57.5242477023
 20
36.0990480433
 30
0.0
 10
57.5457233072
 20
36.0901188232
 30
0.0
 10
57.556471557
 20
36.0839116932
 30
0.0
  0
SPLINE
  5
4C2
100
AcDbEntity
  8
0
100
AcDbSpline
 62
7
  6
CONTINUOUS
 70
0
 71
3
 72
9
 73
5
 74
0
 42
0.0000001
 43
0.0000001
 44
0.0000000001
 40
0.0
 40
0.0
 40
0.0
 40
0.0
 40
0.2305858537
 40
1.0
 40
1.0
 40
1.0
 40
1.0
 10
57.7580864743
 20
35.8210241176
 30
0.0
 10
57.7552732219
 20
35.821328774
 30
0.0
 10
57.7431601052
 20
35.8234632446
 30
0.0
 10
57.7316812062
 20
35.8284722358
 30
0.0
 10
57.7235046549
 20
35.8331942061
 30
0.0
  0
SPLINE
  5
4C3
100
AcDbEntity
  8
0
100
AcDbSpline
 62
7
  6
CONTINUOUS
 70
0
 71
3
 72
11
 73
7
 74
0
 42
0.0000001
 43
0.0000001
 44
0.0000000001
 40
0.0
 40
0.0
 40
0.0
 40
0.0
 40
0.2056110961
 40
0.4652505666
 40
0.7451918358
 40
1.0
 40
1.0
 40
1.0
 40
1.0
 10
59.7750157095
 20
34.6415790844
 30
0.0
 10
59.7562469022
 20
34.641978545
 30
0.0
 10
59.7148401556
 20
34.6596313354
 30
0.0
 10
59.6663338229
 20
34.7083702463
 30
0.0
 10
59.6304389662
 20
34.7723601498
 30
0.0
 10
59.6193303163
 20
34.8211535535
 30
0.0
 10
59.6193303163
 20
34.8444184865
 30
0.0
  0
SPLINE
  5
4C4
100
AcDbEntity
  8
7_ALL_ROUNDS
100
AcDbSpline
 62
7
  6
CONTINUOUS
 70
0
 71
3
 72
9
 73
5
 74
0
 42
0.0000001
 43
0.0000001
 44
0.0000000001
 40
0.0
 40
0.0
 40
0.0
 40
0.0
 40
0.2670958878
 40
1.0
 40
1.0
 40
1.0
 40
1.0
 10
61.1551994736
 20
31.0053399072
 30
0.0
 10
61.1389133958
 20
31.0036320459
 30
0.0
 10
61.0783358663
 20
30.9945474265
 30
0.0
 10
61.018726246
 20
30.9747571585
 30
0.0
 10
60.9798151394
 20
30.9522859376
 30
0.0
  0
SPLINE
  5
4C5
100
AcDbEntity
  8
7_ALL_ROUNDS
100
AcDbSpline
 62
7
  6
CONTINUOUS
 70
0
 71
3
 72
9
 73
5
 74
0
 42
0.0000001
 43
0.0000001
 44
0.0000000001
 40
0.0
 40
0.0
 40
0.0
 40
0.0
 40
0.2949638288
 40
1.0
 40
1.0
 40
1.0
 40
1.0
 10
64.4048285716
 20
33.0450259913
 30
0.0
 10
64.4048285716
 20
33.0486082484
 30
0.0
 10
64.4040254451
 20
33.0605908843
 30
0.0
 10
64.3975733557
 20
33.0731733607
 30
0.0
 10
64.3901584945
 20
33.0774553971
 30
0.0
  0
SPLINE
  5
4C6
100
AcDbEntity
  8
0
100
AcDbSpline
 62
7
  6
CONTINUOUS
 70
0
 71
3
 72
12
 73
8
 74
0
 42
0.0000001
 43
0.0000001
 44
0.0000000001
 40
0.0
 40
0.0
 40
0.0
 40
0.0
 40
0.1832716406
 40
0.3014699805
 40
0.4362077708
 40
0.7289493337
 40
1.0
 40
1.0
 40
1.0
 40
1.0
 10
59.6010078267
 20
34.8857385297
 30
0.0
 10
59.6170660019
 20
34.8950131933
 30
0.0
 10
59.6522356289
 20
34.893214708
 30
0.0
 10
59.6904733999
 20
34.8715460454
 30
0.0
 10
59.7323508343
 20
34.8347633254
 30
0.0
 10
59.7712397248
 20
34.7743530985
 30
0.0
 10
59.7863634142
 20
34.7175054477
 30
0.0
 10
59.7863634142
 20
34.6900795133
 30
0.0
  0
SPLINE
  5
4C7
100
AcDbEntity
  8
7_ALL_ROUNDS
100
AcDbSpline
 62
7
  6
CONTINUOUS
 70
0
 71
3
 72
9
 73
5
 74
0
 42
0.0000001
 43
0.0000001
 44
0.0000000001
 40
0.0
 40
0.0
 40
0.0
 40
0.0
 40
0.2671436967
 40
1.0
 40
1.0
 40
1.0
 40
1.0
 10
61.1678615285
 20
29.0365937223
 30
0.0
 10
61.1550505179
 20
29.0352502819
 30
0.0
 10
61.10740684
 20
29.0281082662
 30
0.0
 10
61.0605259825
 20
29.0125399635
 30
0.0
 10
61.0299250688
 20
28.9948678911
 30
0.0
  0
SPLINE
  5
4C8
100
AcDbEntity
  8
7_ALL_ROUNDS
100
AcDbSpline
 62
7
  6
CONTINUOUS
 70
0
 71
3
 72
9
 73
5
 74
0
 42
0.0000001
 43
0.0000001
 44
0.0000000001
 40
0.0
 40
0.0
 40
0.0
 40
0.0
 40
0.2220921989
 40
1.0
 40
1.0
 40
1.0
 40
1.0
 10
51.4493343719
 20
36.5775368545
 30
0.0
 10
51.4469130056
 20
36.5698361288
 30
0.0
 10
51.4315248919
 20
36.5365112298
 30
0.0
 10
51.4015671131
 20
36.5120185168
 30
0.0
 10
51.3770820332
 20
36.4978783474
 30
0.0
  0
SPLINE
  5
4C9
100
AcDbEntity
  8
7_ALL_ROUNDS
100
AcDbSpline
 62
7
  6
CONTINUOUS
 70
0
 71
3
 72
9
 73
5
 74
0
 42
0.0000001
 43
0.0000001
 44
0.0000000001
 40
0.0
 40
0.0
 40
0.0
 40
0.0
 40
0.2310893423
 40
1.0
 40
1.0
 40
1.0
 40
1.0
 10
61.33058427
 20
31.0583939424
 30
0.0
 10
61.3183105197
 20
31.0513058336
 30
0.0
 10
61.2631244798
 20
31.024249297
 30
0.0
 10
61.2021019885
 20
31.0102584022
 30
0.0
 10
61.1551994736
 20
31.0053399072
 30
0.0
  0
SPLINE
  5
4CA
100
AcDbEntity
  8
7_ALL_ROUNDS
100
AcDbSpline
 62
7
  6
CONTINUOUS
 70
0
 71
3
 72
9
 73
5
 74
0
 42
0.0000001
 43
0.0000001
 44
0.0000000001
 40
0.0
 40
0.0
 40
0.0
 40
0.0
 40
0.2849840221
 40
1.0
 40
1.0
 40
1.0
 40
1.0
 10
51.6109283022
 20
34.7430299867
 30
0.0
 10
51.5995476282
 20
34.7364576309
 30
0.0
 10
51.5612569911
 20
34.7112135993
 30
0.0
 10
51.52895057
 20
34.6731998932
 30
0.0
 10
51.5190600757
 20
34.6417450103
 30
0.0
  0
SPLINE
  5
4CB
100
AcDbEntity
  8
7_ALL_ROUNDS
100
AcDbSpline
 62
7
  6
CONTINUOUS
 70
0
 71
3
 72
9
 73
5
 74
0
 42
0.0000001
 43
0.0000001
 44
0.0000000001
 40
0.0
 40
0.0
 40
0.0
 40
0.0
 40
0.5
 40
1.0
 40
1.0
 40
1.0
 40
1.0
 10
54.9983596624
 20
36.4909189364
 30
0.0
 10
54.944818215
 20
36.5218392006
 30
0.0
 10
54.8179639166
 20
36.5463032218
 30
0.0
 10
54.6911096183
 20
36.5218392006
 30
0.0
 10
54.6375681709
 20
36.4909189364
 30
0.0
  0
SPLINE
  5
4CC
100
AcDbEntity
  8
0
100
AcDbSpline
 62
7
  6
CONTINUOUS
 70
0
 71
3
 72
10
 73
6
 74
0
 42
0.0000001
 43
0.0000001
 44
0.0000000001
 40
0.0
 40
0.0
 40
0.0
 40
0.0
 40
0.5204402689
 40
0.7831714723
 40
1.0
 40
1.0
 40
1.0
 40
1.0
 10
50.8091694132
 20
35.2056682344
 30
0.0
 10
50.8091694132
 20
35.164161262
 30
0.0
 10
50.7835492104
 20
35.1015560545
 30
0.0
 10
50.7298399765
 20
35.0425658887
 30
0.0
 10
50.6949291176
 20
35.0232908637
 30
0.0
 10
50.6779799149
 20
35.0198605283
 30
0.0
  0
SPLINE
  5
4CD
100
AcDbEntity
  8
0
100
AcDbSpline
 62
7
  6
CONTINUOUS
 70
0
 71
3
 72
8
 73
4
 74
0
 42
0.0000001
 43
0.0000001
 44
0.0000000001
 40
0.0
 40
0.0
 40
0.0
 40
0.0
 40
1.0
 40
1.0
 40
1.0
 40
1.0
 10
50.6779799149
 20
35.0198605283
 30
0.0
 10
50.6747190949
 20
35.0192005735
 30
0.0
 10
50.6714073135
 20
35.0187461123
 30
0.0
 10
50.6680866957
 20
35.0185412103
 30
0.0
  0
SPLINE
  5
4CE
100
AcDbEntity
  8
7_ALL_ROUNDS
100
AcDbSpline
 62
7
  6
CONTINUOUS
 70
0
 71
3
 72
11
 73
7
 74
0
 42
0.0000001
 43
0.0000001
 44
0.0000000001
 40
0.0
 40
0.0
 40
0.0
 40
0.0
 40
0.2371984339
 40
0.4999751756
 40
0.7627654293
 40
1.0
 40
1.0
 40
1.0
 40
1.0
 10
59.6435502689
 20
29.4091992254
 30
0.0
 10
59.6435502689
 20
29.5187093025
 30
0.0
 10
59.6846319279
 20
29.7496869516
 30
0.0
 10
59.8278221288
 20
30.0742680643
 30
0.0
 10
60.0373342494
 20
30.3605771633
 30
0.0
 10
60.2168359135
 20
30.511664319
 30
0.0
 10
60.3116826606
 20
30.5664384541
 30
0.0
  0
SPLINE
  5
4CF
100
AcDbEntity
  8
7_ALL_ROUNDS
100
AcDbSpline
 62
7
  6
CONTINUOUS
 70
0
 71
3
 72
11
 73
7
 74
0
 42
0.0000001
 43
0.0000001
 44
0.0000000001
 40
0.0
 40
0.0
 40
0.0
 40
0.0
 40
0.2371984339
 40
0.4999751756
 40
0.7627654293
 40
1.0
 40
1.0
 40
1.0
 40
1.0
 10
50.0408171627
 20
34.9547916352
 30
0.0
 10
50.0408171627
 20
35.0643017123
 30
0.0
 10
50.0818988217
 20
35.2952793613
 30
0.0
 10
50.2250890226
 20
35.6198604741
 30
0.0
 10
50.4346011432
 20
35.906169573
 30
0.0
 10
50.6141028073
 20
36.0572567288
 30
0.0
 10
50.7089495544
 20
36.1120308639
 30
0.0
  0
SPLINE
  5
4D0
100
AcDbEntity
  8
0
100
AcDbSpline
 62
7
  6
CONTINUOUS
 70
0
 71
3
 72
12
 73
8
 74
0
 42
0.0000001
 43
0.0000001
 44
0.0000000001
 40
0.0
 40
0.0
 40
0.0
 40
0.0
 40
0.2710506663
 40
0.5637922292
 40
0.6985300195
 40
0.8167283594
 40
1.0
 40
1.0
 40
1.0
 40
1.0
 10
50.658839625
 20
35.060975447
 30
0.0
 10
50.658839625
 20
35.0862916942
 30
0.0
 10
50.6727999538
 20
35.1387664487
 30
0.0
 10
50.7086973911
 20
35.1945297351
 30
0.0
 10
50.7473534844
 20
35.2284830151
 30
0.0
 10
50.7826498884
 20
35.2484848575
 30
0.0
 10
50.8151141594
 20
35.2501449978
 30
0.0
 10
50.8299370904
 20
35.2415837698
 30
0.0
  0
SPLINE
  5
4D1
100
AcDbEntity
  8
0
100
AcDbSpline
 62
7
  6
CONTINUOUS
 70
0
 71
3
 72
10
 73
6
 74
0
 42
0.0000001
 43
0.0000001
 44
0.0000000001
 40
0.0
 40
0.0
 40
0.0
 40
0.0
 40
0.5204402689
 40
0.7831714723
 40
1.0
 40
1.0
 40
1.0
 40
1.0
 10
60.4119025194
 20
29.6600758246
 30
0.0
 10
60.4119025194
 20
29.6185688522
 30
0.0
 10
60.3862823166
 20
29.5559636447
 30
0.0
 10
60.3325730827
 20
29.4969734789
 30
0.0
 10
60.2976622238
 20
29.4776984539
 30
0.0
 10
60.2807130211
 20
29.4742681185
 30
0.0
  0
SPLINE
  5
4D2
100
AcDbEntity
  8
0
100
AcDbSpline
 62
7
  6
CONTINUOUS
 70
0
 71
3
 72
8
 73
4
 74
0
 42
0.0000001
 43
0.0000001
 44
0.0000000001
 40
0.0
 40
0.0
 40
0.0
 40
0.0
 40
1.0
 40
1.0
 40
1.0
 40
1.0
 10
60.2807130211
 20
29.4742681185
 30
0.0
 10
60.2774522011
 20
29.4736081638
 30
0.0
 10
60.2741404197
 20
29.4731537025
 30
0.0
 10
60.2708198019
 20
29.4729488005
 30
0.0
  0
SPLINE
  5
4D3
100
AcDbEntity
  8
0
100
AcDbSpline
 62
7
  6
CONTINUOUS
 70
0
 71
3
 72
12
 73
8
 74
0
 42
0.0000001
 43
0.0000001
 44
0.0000000001
 40
0.0
 40
0.0
 40
0.0
 40
0.0
 40
0.2710506663
 40
0.5637922292
 40
0.6985300195
 40
0.8167283594
 40
1.0
 40
1.0
 40
1.0
 40
1.0
 10
60.2615727312
 20
29.5153830372
 30
0.0
 10
60.2615727312
 20
29.5406992844
 30
0.0
 10
60.2755330599
 20
29.5931740389
 30
0.0
 10
60.3114304973
 20
29.6489373253
 30
0.0
 10
60.3500865905
 20
29.6828906053
 30
0.0
 10
60.3853829946
 20
29.7028924477
 30
0.0
 10
60.4178472656
 20
29.704552588
 30
0.0
 10
60.4326701966
 20
29.69599136
 30
0.0
  0
SPLINE
  5
4D4
100
AcDbEntity
  8
0
100
AcDbSpline
 62
7
  6
CONTINUOUS
 70
0
 71
3
 72
9
 73
5
 74
0
 42
0.0000001
 43
0.0000001
 44
0.0000000001
 40
0.0
 40
0.0
 40
0.0
 40
0.0
 40
0.4491404386
 40
1.0
 40
1.0
 40
1.0
 40
1.0
 10
57.738365865
 20
35.7978184117
 30
0.0
 10
57.7296021002
 20
35.7927578697
 30
0.0
 10
57.7056185803
 20
35.7891192986
 30
0.0
 10
57.6841429753
 20
35.7980485187
 30
0.0
 10
57.6733947255
 20
35.8042556486
 30
0.0
  0
SPLINE
  5
4D5
100
AcDbEntity
  8
0
100
AcDbSpline
 62
7
  6
CONTINUOUS
 70
0
 71
3
 72
12
 73
8
 74
0
 42
0.0000001
 43
0.0000001
 44
0.0000000001
 40
0.0
 40
0.0
 40
0.0
 40
0.0
 40
0.2710796172
 40
0.5638150146
 40
0.6985434507
 40
0.8167333064
 40
1.0
 40
1.0
 40
1.0
 40
1.0
 10
61.6821890756
 20
33.4891710499
 30
0.0
 10
61.6620939541
 20
33.5007760119
 30
0.0
 10
61.6268388382
 20
33.5359031063
 30
0.0
 10
61.5990222923
 20
33.5899484804
 30
0.0
 10
61.5897824345
 20
33.6361873444
 30
0.0
 10
61.5900772112
 20
33.673367521
 30
0.0
 10
61.6036320175
 20
33.6998959875
 30
0.0
 10
61.6172179362
 20
33.7077410306
 30
0.0
  0
SPLINE
  5
4D6
100
AcDbEntity
  8
0
100
AcDbSpline
 62
7
  6
CONTINUOUS
 70
0
 71
3
 72
9
 73
5
 74
0
 42
0.0000001
 43
0.0000001
 44
0.0000000001
 40
0.0
 40
0.0
 40
0.0
 40
0.0
 40
0.4491614419
 40
1.0
 40
1.0
 40
1.0
 40
1.0
 10
63.130929537
 20
32.2564679719
 30
0.0
 10
63.1229660109
 20
32.2518734771
 30
0.0
 10
63.1011733192
 20
32.2485952803
 30
0.0
 10
63.0816683234
 20
32.2567042504
 30
0.0
 10
63.0719044503
 20
32.2623429014
 30
0.0
  0
SPLINE
  5
4D7
100
AcDbEntity
  8
7_ALL_ROUNDS
100
AcDbSpline
 62
7
  6
CONTINUOUS
 70
0
 71
3
 72
9
 73
5
 74
0
 42
0.0000001
 43
0.0000001
 44
0.0000000001
 40
0.0
 40
0.0
 40
0.0
 40
0.0
 40
0.5507552232
 40
1.0
 40
1.0
 40
1.0
 40
1.0
 10
64.4073340681
 20
32.7773443345
 30
0.0
 10
64.4342963286
 20
32.7929150794
 30
0.0
 10
64.4806185679
 20
32.8283951713
 30
0.0
 10
64.502812645
 20
32.8850649273
 30
0.0
 10
64.502812645
 20
32.910461699
 30
0.0
  0
SPLINE
  5
4D8
100
AcDbEntity
  8
7_ALL_ROUNDS
100
AcDbSpline
 62
7
  6
CONTINUOUS
 70
0
 71
3
 72
9
 73
5
 74
0
 42
0.0000001
 43
0.0000001
 44
0.0000000001
 40
0.0
 40
0.0
 40
0.0
 40
0.0
 40
0.2670958917
 40
1.0
 40
1.0
 40
1.0
 40
1.0
 10
61.1678614201
 20
30.9650731933
 30
0.0
 10
61.1876249373
 20
30.9671457243
 30
0.0
 10
61.2611371149
 20
30.9781701137
 30
0.0
 10
61.3334747074
 20
31.0021860592
 30
0.0
 10
61.3806941994
 20
31.0294553849
 30
0.0
  0
SPLINE
  5
4D9
100
AcDbEntity
  8
7_ALL_ROUNDS
100
AcDbSpline
 62
7
  6
CONTINUOUS
 70
0
 71
3
 72
9
 73
5
 74
0
 42
0.0000001
 43
0.0000001
 44
0.0000000001
 40
0.0
 40
0.0
 40
0.0
 40
0.0
 40
0.2849299626
 40
1.0
 40
1.0
 40
1.0
 40
1.0
 10
51.4271919626
 20
36.4689397899
 30
0.0
 10
51.4385703697
 20
36.4755108366
 30
0.0
 10
51.4768579272
 20
36.5007582861
 30
0.0
 10
51.5091688879
 20
36.5387674574
 30
0.0
 10
51.519060036
 20
36.5702244198
 30
0.0
  0
SPLINE
  5
4DA
100
AcDbEntity
  8
0
100
AcDbSpline
 62
7
  6
CONTINUOUS
 70
0
 71
3
 72
12
 73
8
 74
0
 42
0.0000001
 43
0.0000001
 44
0.0000000001
 40
0.0
 40
0.0
 40
0.0
 40
0.0
 40
0.2711265503
 40
0.5638617066
 40
0.6985851978
 40
0.8167655118
 40
1.0
 40
1.0
 40
1.0
 40
1.0
 10
62.6209150859
 20
33.3906056888
 30
0.0
 10
62.6026402412
 20
33.4011594384
 30
0.0
 10
62.5705836092
 20
33.4331047394
 30
0.0
 10
62.5452967784
 20
33.4822541547
 30
0.0
 10
62.536905947
 20
33.5242965504
 30
0.0
 10
62.5371789394
 20
33.5581040757
 30
0.0
 10
62.5495363855
 20
33.5822012454
 30
0.0
 10
62.5618899991
 20
33.5893285672
 30
0.0
  0
SPLINE
  5
4DB
100
AcDbEntity
  8
0
100
AcDbSpline
 62
7
  6
CONTINUOUS
 70
0
 71
3
 72
9
 73
5
 74
0
 42
0.0000001
 43
0.0000001
 44
0.0000000001
 40
0.0
 40
0.0
 40
0.0
 40
0.0
 40
0.4491614419
 40
1.0
 40
1.0
 40
1.0
 40
1.0
 10
56.793693802
 20
35.9162308751
 30
0.0
 10
56.7857302759
 20
35.9116363803
 30
0.0
 10
56.7639375842
 20
35.9083581835
 30
0.0
 10
56.7444325884
 20
35.9164671536
 30
0.0
 10
56.7346687152
 20
35.9221058046
 30
0.0
  0
SPLINE
  5
4DC
100
AcDbEntity
  8
7_ALL_ROUNDS
100
AcDbSpline
 62
7
  6
CONTINUOUS
 70
0
 71
3
 72
9
 73
5
 74
0
 42
0.0000001
 43
0.0000001
 44
0.0000000001
 40
0.0
 40
0.0
 40
0.0
 40
0.0
 40
0.2208379492
 40
1.0
 40
1.0
 40
1.0
 40
1.0
 10
64.3901584945
 20
33.0774553971
 30
0.0
 10
64.387822057
 20
33.0788046752
 30
0.0
 10
64.3760767668
 20
33.0830630095
 30
0.0
 10
64.3629620504
 20
33.0787023987
 30
0.0
 10
64.3547186423
 20
33.0739418185
 30
0.0
  0
SPLINE
  5
4DD
100
AcDbEntity
  8
0
100
AcDbSpline
 62
7
  6
CONTINUOUS
 70
0
 71
3
 72
12
 73
8
 74
0
 42
0.0000001
 43
0.0000001
 44
0.0000000001
 40
0.0
 40
0.0
 40
0.0
 40
0.0
 40
0.1832716406
 40
0.3014699805
 40
0.4362077708
 40
0.7289493337
 40
1.0
 40
1.0
 40
1.0
 40
1.0
 10
59.7545759744
 20
34.6198209127
 30
0.0
 10
59.7385177992
 20
34.6105462491
 30
0.0
 10
59.7033481722
 20
34.6123447343
 30
0.0
 10
59.6651104012
 20
34.6340133969
 30
0.0
 10
59.6232329668
 20
34.6707961169
 30
0.0
 10
59.5843440764
 20
34.7312063439
 30
0.0
 10
59.5692203869
 20
34.7880539946
 30
0.0
 10
59.5692203869
 20
34.815479929
 30
0.0
  0
SPLINE
  5
4DE
100
AcDbEntity
  8
0
100
AcDbSpline
 62
7
  6
CONTINUOUS
 70
0
 71
3
 72
12
 73
8
 74
0
 42
0.0000001
 43
0.0000001
 44
0.0000000001
 40
0.0
 40
0.0
 40
0.0
 40
0.0
 40
0.2710796172
 40
0.5638150146
 40
0.6985434507
 40
0.8167333064
 40
1.0
 40
1.0
 40
1.0
 40
1.0
 10
57.556471557
 20
35.8717789494
 30
0.0
 10
57.5363764356
 20
35.8833839115
 30
0.0
 10
57.5011213197
 20
35.9185110058
 30
0.0
 10
57.4733047737
 20
35.97255638
 30
0.0
 10
57.4640649159
 20
36.0187952439
 30
0.0
 10
57.4643596926
 20
36.0559754205
 30
0.0
 10
57.4779144989
 20
36.082503887
 30
0.0
 10
57.4915004176
 20
36.0903489302
 30
0.0
  0
SPLINE
  5
4DF
100
AcDbEntity
  8
7_ALL_ROUNDS
100
AcDbSpline
 62
7
  6
CONTINUOUS
 70
0
 71
3
 72
9
 73
5
 74
0
 42
0.0000001
 43
0.0000001
 44
0.0000000001
 40
0.0
 40
0.0
 40
0.0
 40
0.0
 40
0.2310893294
 40
1.0
 40
1.0
 40
1.0
 40
1.0
 10
61.0299250688
 20
30.9233473801
 30
0.0
 10
61.0395781069
 20
30.9289220237
 30
0.0
 10
61.0829807345
 20
30.9502013982
 30
0.0
 10
61.1309736069
 20
30.9612049131
 30
0.0
 10
61.1678614201
 20
30.9650731933
 30
0.0
  0
SPLINE
  5
4E0
100
AcDbEntity
  8
0
100
AcDbSpline
 62
7
  6
CONTINUOUS
 70
0
 71
3
 72
12
 73
8
 74
0
 42
0.0000001
 43
0.0000001
 44
0.0000000001
 40
0.0
 40
0.0
 40
0.0
 40
0.0
 40
0.2711265503
 40
0.5638617066
 40
0.6985851978
 40
0.8167655118
 40
1.0
 40
1.0
 40
1.0
 40
1.0
 10
56.2836793509
 20
36.182552822
 30
0.0
 10
56.2654045062
 20
36.1931065715
 30
0.0
 10
56.2333478742
 20
36.2250518725
 30
0.0
 10
56.2080610434
 20
36.2742012878
 30
0.0
 10
56.199670212
 20
36.3162436835
 30
0.0
 10
56.1999432044
 20
36.3500512088
 30
0.0
 10
56.2123006505
 20
36.3741483785
 30
0.0
 10
56.2246542641
 20
36.3812757004
 30
0.0
  0
SPLINE
  5
4E1
100
AcDbEntity
  8
0
100
AcDbSpline
 62
7
  6
CONTINUOUS
 70
0
 71
3
 72
12
 73
8
 74
0
 42
0.0000001
 43
0.0000001
 44
0.0000000001
 40
0.0
 40
0.0
 40
0.0
 40
0.0
 40
0.2711265503
 40
0.5638617066
 40
0.6985851978
 40
0.8167655118
 40
1.0
 40
1.0
 40
1.0
 40
1.0
 10
62.6209150859
 20
32.5227899188
 30
0.0
 10
62.6026402412
 20
32.5333436683
 30
0.0
 10
62.5705836092
 20
32.5652889693
 30
0.0
 10
62.5452967784
 20
32.6144383846
 30
0.0
 10
62.536905947
 20
32.6564807803
 30
0.0
 10
62.5371789394
 20
32.6902883056
 30
0.0
 10
62.5495363855
 20
32.7143854753
 30
0.0
 10
62.5618899991
 20
32.7215127972
 30
0.0
  0
SPLINE
  5
4E2
100
AcDbEntity
  8
0
100
AcDbSpline
 62
7
  6
CONTINUOUS
 70
0
 71
3
 72
9
 73
5
 74
0
 42
0.0000001
 43
0.0000001
 44
0.0000000001
 40
0.0
 40
0.0
 40
0.0
 40
0.0
 40
0.4491614419
 40
1.0
 40
1.0
 40
1.0
 40
1.0
 10
63.130929537
 20
33.124283742
 30
0.0
 10
63.1229660109
 20
33.1196892472
 30
0.0
 10
63.1011733192
 20
33.1164110503
 30
0.0
 10
63.0816683234
 20
33.1245200205
 30
0.0
 10
63.0719044503
 20
33.1301586715
 30
0.0
  0
SPLINE
  5
4E3
100
AcDbEntity
  8
7_ALL_ROUNDS
100
AcDbSpline
 62
7
  6
CONTINUOUS
 70
0
 71
3
 72
9
 73
5
 74
0
 42
0.0000001
 43
0.0000001
 44
0.0000000001
 40
0.0
 40
0.0
 40
0.0
 40
0.0
 40
0.2220921769
 40
1.0
 40
1.0
 40
1.0
 40
1.0
 10
51.519060036
 20
36.5702244198
 30
0.0
 10
51.5221387889
 20
36.5800158223
 30
0.0
 10
51.541704656
 20
36.6223881345
 30
0.0
 10
51.5797957356
 20
36.653530373
 30
0.0
 10
51.6109283022
 20
36.6715094757
 30
0.0
  0
SPLINE
  5
4E4
100
AcDbEntity
  8
7_ALL_ROUNDS
100
AcDbSpline
 62
7
  6
CONTINUOUS
 70
0
 71
3
 72
9
 73
5
 74
0
 42
0.0000001
 43
0.0000001
 44
0.0000000001
 40
0.0
 40
0.0
 40
0.0
 40
0.0
 40
0.5507552232
 40
1.0
 40
1.0
 40
1.0
 40
1.0
 10
64.3572241387
 20
33.0146405059
 30
0.0
 10
64.3783250382
 20
33.0024547056
 30
0.0
 10
64.4145772255
 20
32.9746876771
 30
0.0
 10
64.4319465032
 20
32.9303374333
 30
0.0
 10
64.4319465032
 20
32.910461699
 30
0.0
  0
SPLINE
  5
4E5
100
AcDbEntity
  8
7_ALL_ROUNDS
100
AcDbSpline
 62
7
  6
CONTINUOUS
 70
0
 71
3
 72
9
 73
5
 74
0
 42
0.0000001
 43
0.0000001
 44
0.0000000001
 40
0.0
 40
0.0
 40
0.0
 40
0.0
 40
0.48551872
 40
1.0
 40
1.0
 40
1.0
 40
1.0
 10
54.6375681709
 20
38.4193984254
 30
0.0
 10
54.6815251625
 20
38.4447836523
 30
0.0
 10
54.7867200187
 20
38.4705203989
 30
0.0
 10
54.8932568924
 20
38.4600336359
 30
0.0
 10
54.9443443182
 20
38.4432028096
 30
0.0
  0
SPLINE
  5
4E6
100
AcDbEntity
  8
0
100
AcDbSpline
 62
7
  6
CONTINUOUS
 70
0
 71
3
 72
9
 73
5
 74
0
 42
0.0000001
 43
0.0000001
 44
0.0000000001
 40
0.0
 40
0.0
 40
0.0
 40
0.0
 40
0.4491735343
 40
1.0
 40
1.0
 40
1.0
 40
1.0
 10
60.4326701966
 20
29.69599136
 30
0.0
 10
60.4422250573
 20
29.6904727928
 30
0.0
 10
60.4587330702
 20
29.6698122248
 30
0.0
 10
60.4620124487
 20
29.6446684272
 30
0.0
 10
60.4620124487
 20
29.6311372671
 30
0.0
  0
SPLINE
  5
4E7
100
AcDbEntity
  8
0
100
AcDbSpline
 62
7
  6
CONTINUOUS
 70
0
 71
3
 72
9
 73
5
 74
0
 42
0.0000001
 43
0.0000001
 44
0.0000000001
 40
0.0
 40
0.0
 40
0.0
 40
0.0
 40
0.5508264657
 40
1.0
 40
1.0
 40
1.0
 40
1.0
 10
59.5692203869
 20
34.815479929
 30
0.0
 10
59.5692203869
 20
34.8301386858
 30
0.0
 10
59.572773047
 20
34.8573777998
 30
0.0
 10
59.5906567276
 20
34.8797600819
 30
0.0
 10
59.6010078267
 20
34.8857385297
 30
0.0
  0
SPLINE
  5
4E8
100
AcDbEntity
  8
0
100
AcDbSpline
 62
7
  6
CONTINUOUS
 70
0
 71
3
 72
9
 73
5
 74
0
 42
0.0000001
 43
0.0000001
 44
0.0000000001
 40
0.0
 40
0.0
 40
0.0
 40
0.0
 40
0.4491614419
 40
1.0
 40
1.0
 40
1.0
 40
1.0
 10
56.793693802
 20
36.7840466451
 30
0.0
 10
56.7857302759
 20
36.7794521503
 30
0.0
 10
56.7639375842
 20
36.7761739535
 30
0.0
 10
56.7444325884
 20
36.7842829237
 30
0.0
 10
56.7346687152
 20
36.7899215746
 30
0.0
  0
SPLINE
  5
4E9
100
AcDbEntity
  8
0
100
AcDbSpline
 62
7
  6
CONTINUOUS
 70
0
 71
3
 72
9
 73
5
 74
0
 42
0.0000001
 43
0.0000001
 44
0.0000000001
 40
0.0
 40
0.0
 40
0.0
 40
0.0
 40
0.4491735343
 40
1.0
 40
1.0
 40
1.0
 40
1.0
 10
50.8299370904
 20
35.2415837698
 30
0.0
 10
50.8394919512
 20
35.2360652026
 30
0.0
 10
50.855999964
 20
35.2154046346
 30
0.0
 10
50.8592793425
 20
35.190260837
 30
0.0
 10
50.8592793425
 20
35.1767296769
 30
0.0
  0
SPLINE
  5
4EA
100
AcDbEntity
  8
0
100
AcDbSpline
 62
7
  6
CONTINUOUS
 70
0
 71
3
 72
12
 73
8
 74
0
 42
0.0000001
 43
0.0000001
 44
0.0000000001
 40
0.0
 40
0.0
 40
0.0
 40
0.0
 40
0.2710506663
 40
0.5637922292
 40
0.6985300195
 40
0.8167283594
 40
1.0
 40
1.0
 40
1.0
 40
1.0
 10
50.8592793425
 20
35.1767296769
 30
0.0
 10
50.8592793425
 20
35.1514134297
 30
0.0
 10
50.8453190138
 20
35.0989386752
 30
0.0
 10
50.8094215765
 20
35.0431753888
 30
0.0
 10
50.7707654832
 20
35.0092221088
 30
0.0
 10
50.7354690792
 20
34.9892202664
 30
0.0
 10
50.7030048081
 20
34.9875601262
 30
0.0
 10
50.6881818772
 20
34.9961213541
 30
0.0
  0
SPLINE
  5
4EB
100
AcDbEntity
  8
0
100
AcDbSpline
 62
7
  6
CONTINUOUS
 70
0
 71
3
 72
12
 73
8
 74
0
 42
0.0000001
 43
0.0000001
 44
0.0000000001
 40
0.0
 40
0.0
 40
0.0
 40
0.0
 40
0.2711265503
 40
0.5638617066
 40
0.6985851978
 40
0.8167655118
 40
1.0
 40
1.0
 40
1.0
 40
1.0
 10
56.2836793509
 20
37.050368592
 30
0.0
 10
56.2654045062
 20
37.0609223415
 30
0.0
 10
56.2333478742
 20
37.0928676426
 30
0.0
 10
56.2080610434
 20
37.1420170579
 30
0.0
 10
56.199670212
 20
37.1840594535
 30
0.0
 10
56.1999432044
 20
37.2178669788
 30
0.0
 10
56.2123006505
 20
37.2419641486
 30
0.0
 10
56.2246542641
 20
37.2490914704
 30
0.0
  0
SPLINE
  5
4EC
100
AcDbEntity
  8
7_ALL_ROUNDS
100
AcDbSpline
 62
7
  6
CONTINUOUS
 70
0
 71
3
 72
11
 73
7
 74
0
 42
0.0000001
 43
0.0000001
 44
0.0000000001
 40
0.0
 40
0.0
 40
0.0
 40
0.0
 40
0.2372345707
 40
0.5000248244
 40
0.7628015661
 40
1.0
 40
1.0
 40
1.0
 40
1.0
 10
50.7590594838
 20
36.0830923064
 30
0.0
 10
50.6642127367
 20
36.0283181713
 30
0.0
 10
50.4847110725
 20
35.8772310156
 30
0.0
 10
50.275198952
 20
35.5909219166
 30
0.0
 10
50.1320087511
 20
35.2663408039
 30
0.0
 10
50.0909270921
 20
35.0353631548
 30
0.0
 10
50.0909270921
 20
34.9258530777
 30
0.0
  0
SPLINE
  5
4ED
100
AcDbEntity
  8
7_ALL_ROUNDS
100
AcDbSpline
 62
7
  6
CONTINUOUS
 70
0
 71
3
 72
9
 73
5
 74
0
 42
0.0000001
 43
0.0000001
 44
0.0000000001
 40
0.0
 40
0.0
 40
0.0
 40
0.0
 40
0.5465565171
 40
1.0
 40
1.0
 40
1.0
 40
1.0
 10
50.0909270921
 20
34.5401571799
 30
0.0
 10
50.0909270921
 20
34.4605894474
 30
0.0
 10
50.1088608514
 20
34.3130671238
 30
0.0
 10
50.1897444564
 20
34.1830639492
 30
0.0
 10
50.240140543
 20
34.1404275526
 30
0.0
  0
SPLINE
  5
4EE
100
AcDbEntity
  8
0
100
AcDbSpline
 62
7
  6
CONTINUOUS
 70
0
 71
3
 72
12
 73
8
 74
0
 42
0.0000001
 43
0.0000001
 44
0.0000000001
 40
0.0
 40
0.0
 40
0.0
 40
0.0
 40
0.2710506663
 40
0.5637922292
 40
0.6985300195
 40
0.8167283594
 40
1.0
 40
1.0
 40
1.0
 40
1.0
 10
60.4620124487
 20
29.6311372671
 30
0.0
 10
60.4620124487
 20
29.6058210199
 30
0.0
 10
60.44805212
 20
29.5533462654
 30
0.0
 10
60.4121546826
 20
29.497582979
 30
0.0
 10
60.3734985894
 20
29.463629699
 30
0.0
 10
60.3382021854
 20
29.4436278566
 30
0.0
 10
60.3057379143
 20
29.4419677164
 30
0.0
 10
60.2909149834
 20
29.4505289443
 30
0.0
  0
SPLINE
  5
4EF
100
AcDbEntity
  8
0
100
AcDbSpline
 62
7
  6
CONTINUOUS
 70
0
 71
3
 72
9
 73
5
 74
0
 42
0.0000001
 43
0.0000001
 44
0.0000000001
 40
0.0
 40
0.0
 40
0.0
 40
0.0
 40
0.4491404386
 40
1.0
 40
1.0
 40
1.0
 40
1.0
 10
61.8640833835
 20
33.4152105122
 30
0.0
 10
61.8553196188
 20
33.4101499701
 30
0.0
 10
61.8313360989
 20
33.4065113991
 30
0.0
 10
61.8098604939
 20
33.4154406192
 30
0.0
 10
61.7991122441
 20
33.4216477491
 30
0.0
  0
SPLINE
  5
4F0
100
AcDbEntity
  8
7_ALL_ROUNDS
100
AcDbSpline
 62
7
  6
CONTINUOUS
 70
0
 71
3
 72
11
 73
7
 74
0
 42
0.0000001
 43
0.0000001
 44
0.0000000001
 40
0.0
 40
0.0
 40
0.0
 40
0.0
 40
0.2372345707
 40
0.5000248244
 40
0.7628015661
 40
1.0
 40
1.0
 40
1.0
 40
1.0
 10
60.36179259
 20
30.5374998967
 30
0.0
 10
60.2669458429
 20
30.4827257615
 30
0.0
 10
60.0874441787
 20
30.3316386058
 30
0.0
 10
59.8779320582
 20
30.0453295068
 30
0.0
 10
59.7347418573
 20
29.7207483941
 30
0.0
 10
59.6936601983
 20
29.489770745
 30
0.0
 10
59.6936601983
 20
29.3802606679
 30
0.0
  0
SPLINE
  5
4F1
100
AcDbEntity
  8
7_ALL_ROUNDS
100
AcDbSpline
 62
7
  6
CONTINUOUS
 70
0
 71
3
 72
9
 73
5
 74
0
 42
0.0000001
 43
0.0000001
 44
0.0000000001
 40
0.0
 40
0.0
 40
0.0
 40
0.0
 40
0.5465565171
 40
1.0
 40
1.0
 40
1.0
 40
1.0
 10
59.6936601983
 20
28.9945647701
 30
0.0
 10
59.6936601983
 20
28.9149970376
 30
0.0
 10
59.7115939576
 20
28.767474714
 30
0.0
 10
59.7924775626
 20
28.6374715394
 30
0.0
 10
59.8428736492
 20
28.5948351428
 30
0.0
  0
ENDSEC
  0
SECTION
  2
OBJECTS
  0
DICTIONARY
  5
C
100
AcDbDictionary
280
0
281
1
  3
ACAD_GROUP
350
D
  3
ACAD_MLINESTYLE
350
17
  3
ACAD_LAYOUT
350
1A
  3
ACAD_PLOTSETTINGS
350
19
  3
ACAD_PLOTSTYLENAME
350
E
  0
DICTIONARY
  5
D
102
{ACAD_REACTORS
330
C
102
}
100
AcDbDictionary
280
0
281
1
  0
ACDBDICTIONARYWDFLT
  5
E
102
{ACAD_REACTORS
330
C
102
}
100
AcDbDictionary
281
1
  3
Normal
350
F
100
AcDbDictionaryWithDefault
340
F
  0
DICTIONARY
  5
17
102
{ACAD_REACTORS
330
C
102
}
100
AcDbDictionary
280
0
281
1
  3
Standard
350
18
  0
DICTIONARY
  5
19
102
{ACAD_REACTORS
330
C
102
}
100
AcDbDictionary
281
1
  0
DICTIONARY
  5
1A
102
{ACAD_REACTORS
330
C
102
}
100
AcDbDictionary
281
1
  3
Model
350
4F2
  3
Layout1
350
4F3
  0
ACDBPLACEHOLDER
  5
F
102
{ACAD_REACTORS
330
E
102
}
  0
MLINESTYLE
  5
18
102
{ACAD_REACTORS
330
17
102
}
100
AcDbMlineStyle
  2
STANDARD
 70
0
  3

 62
256
 51
90.0
 52
90.0
 71
2
 49
0.5
 62
256
  6
BYLAYER
 49
-0.5
 62
256
  6
BYLAYER
  0
LAYOUT
  5
4F2
102
{ACAD_REACTORS
330
1A
102
}
100
AcDbPlotSettings
  1

  2
none_device
  4
ANSI_D_(34.00_x_22.00_Inches)
  6

 40
0.0
 41
0.0
 42
0.0
 43
0.0
 44
863.6
 45
558.8
 46
0.0
 47
0.0
 48
0.0
 49
0.0
140
0.0
141
0.0
142
1.0
143
1.0
 70
1024
 72
0
 73
0
 74
0
  7

 75
0
147
1.0
148
0.0
149
0.0
100
AcDbLayout
  1
Model
 70
0
 71
0
 10
0.0
 20
0.0
 11
34.0
 21
22.0
 12
0.0
 22
0.0
 32
0.0
 14
0.0
 24
0.0
 34
0.0
 15
0.0
 25
0.0
 35
0.0
146
0.0
 13
0.0
 23
0.0
 33
0.0
 16
1.0
 26
0.0
 36
0.0
 17
0.0
 27
1.0
 37
0.0
 76
0
330
211
345
0
346
0
  0
LAYOUT
  5
4F3
102
{ACAD_REACTORS
330
1A
102
}
100
AcDbPlotSettings
  1

  2
none_device
  4
ANSI_D_(34.00_x_22.00_Inches)
  6

 40
0.0
 41
0.0
 42
0.0
 43
0.0
 44
863.6
 45
558.8
 46
0.0
 47
0.0
 48
0.0
 49
0.0
140
0.0
141
0.0
142
1.0
143
1.0
 70
0
 72
0
 73
0
 74
0
  7

 75
0
147
1.0
148
0.0
149
0.0
100
AcDbLayout
  1
Layout1
 70
0
 71
1
 10
0.0
 20
0.0
 11
34.0
 21
22.0
 12
0.0
 22
0.0
 32
0.0
 14
0.0
 24
0.0
 34
0.0
 15
0.0
 25
0.0
 35
0.0
146
0.0
 13
0.0
 23
0.0
 33
0.0
 16
1.0
 26
0.0
 36
0.0
 17
0.0
 27
1.0
 37
0.0
 76
0
330
212
345
0
346
0
  0
ENDSEC
  0
EOF
