999
DXF file: fg-000507-xx-2d-a.dxf
999
Pro/ENGINEER 2016130 by Parametric Technology Corporation
  0
SECTION
  2
HEADER
  9
$ACADVER
  1
AC1015
  9
$DWGCODEPAGE
  3
ANSI_1252
  9
$EXTMAX
 10
68.0
 20
44.0
 30
0.0
  9
$EXTMIN
 10
0.0
 20
0.0
 30
0.0
  9
$LIMMIN
 10
0.0
 20
0.0
  9
$LIMMAX
 10
68.0
 20
44.0
  9
$VIEWCTR
 10
34.0
 20
22.0
  9
$VIEWSIZE
 40
44.0
  9
$CLAYER
  8
0
  9
$LTSCALE
 40
3.74
  9
$CELTYPE
  6
BYLAYER
  9
$DIMSCALE
 40
1.0
  9
$DIMASZ
 40
0.375
  9
$DIMEXO
 40
0.0625
  9
$DIMDLI
 40
2.584
  9
$DIMEXE
 40
0.125
  9
$DIMCEN
 40
0.612
  9
$DIMLFAC
 40
1.0
  9
$DIMBLK
  1
_FILLED
  9
$DIMALT
 70
0
  9
$DIMALTF
 40
25.4
  9
$DIMTXT
 40
0.3125
  9
$DIMTOL
 70
1
  9
$DIMLIM
 70
0
  9
$DIMTFAC
 40
1.0
  9
$DIMTP
 40
0.01
  9
$DIMTM
 40
0.01
  9
$DIMGAP
 40
0.09
  9
$DIMDSEP
 70
46
  9
$AUNITS
 70
0
  9
$PDMODE
 70
3
  9
$PDSIZE
 40
0.3125
  9
$HANDSEED
  5
513
  9
$TILEMODE
 70
1
  9
$MEASUREMENT
 70
0
  9
$INSUNITS
 70
1
  0
ENDSEC
  0
SECTION
  2
CLASSES
  0
CLASS
  1
ACDBDICTIONARYWDFLT
  2
AcDbDictionaryWithDefault
  3
AutoCAD 2000
 90
0
280
0
281
0
  0
CLASS
  1
ACDBPLACEHOLDER
  2
AcDbPlaceHolder
  3
AutoCAD 2000
 90
0
280
0
281
0
  0
CLASS
  1
LAYOUT
  2
AcDbLayout
  3
AutoCAD 2000
 90
0
280
0
281
0
  0
ENDSEC
  0
SECTION
  2
TABLES
  0
TABLE
  2
VPORT
  5
8
100
AcDbSymbolTable
 70
2
  0
VPORT
  5
1F4
100
AcDbSymbolTableRecord
100
AcDbViewportTableRecord
  2
*ACTIVE
 70
0
 10
0.0
 20
0.0
 11
1.0
 21
1.0
 12
34.0
 22
22.0
 13
0.0
 23
0.0
 14
1.0
 24
1.0
 15
0.0
 25
0.0
 16
0.0
 26
0.0
 36
1.0
 17
0.0
 27
0.0
 37
0.0
 40
44.0
 41
1.5454545455
 42
50.0
 43
0.0
 44
0.0
 50
0.0
 51
0.0
 71
0
 72
100
 73
1
 74
1
 75
0
 76
0
 77
0
 78
0
  0
ENDTAB
  0
TABLE
  2
LTYPE
  5
5
100
AcDbSymbolTable
 70
6
  0
LTYPE
  5
14
100
AcDbSymbolTableRecord
100
AcDbLinetypeTableRecord
  2
BYBLOCK
 70
0
  3

 72
65
 73
0
 40
0.0
  0
LTYPE
  5
15
100
AcDbSymbolTableRecord
100
AcDbLinetypeTableRecord
  2
BYLAYER
 70
0
  3

 72
65
 73
0
 40
0.0
  0
LTYPE
  5
16
100
AcDbSymbolTableRecord
100
AcDbLinetypeTableRecord
  2
CONTINUOUS
 70
64
  3
Solid line
 72
65
 73
0
 40
0.0
  0
LTYPE
  5
1F5
100
AcDbSymbolTableRecord
100
AcDbLinetypeTableRecord
  2
CENTER
 70
64
  3
____ _ ____ _ ____ _ ____ _ ____ _ ____ _ ____
 72
65
 73
4
 40
0.6
 49
0.375
 74
0
 49
-0.075
 74
0
 49
0.075
 74
0
 49
-0.075
 74
0
  0
LTYPE
  5
1F6
100
AcDbSymbolTableRecord
100
AcDbLinetypeTableRecord
  2
HIDDEN
 70
64
  3
- - - - - - - - - - - - - - - - - - - -
 72
65
 73
2
 40
0.2
 49
0.1
 74
0
 49
-0.1
 74
0
  0
LTYPE
  5
1F7
100
AcDbSymbolTableRecord
100
AcDbLinetypeTableRecord
  2
PHANTOM
 70
64
  3
_____ _ _ _____ _ _ _____ _ _ _____
 72
65
 73
6
 40
0.8
 49
0.45
 74
0
 49
-0.05
 74
0
 49
0.1
 74
0
 49
-0.05
 74
0
 49
0.1
 74
0
 49
-0.05
 74
0
  0
LTYPE
  5
1F8
100
AcDbSymbolTableRecord
100
AcDbLinetypeTableRecord
  2
DOT
 70
64
  3
. . . . . . . . . . . . . . . . . . . .
 72
65
 73
2
 40
0.2
 49
0.1
 74
0
 49
-0.1
 74
0
  0
LTYPE
  5
1F9
100
AcDbSymbolTableRecord
100
AcDbLinetypeTableRecord
  2
DASHED
 70
64
  3
- - - - - - - - - - - - - - - - - - - -
 72
65
 73
2
 40
0.2
 49
0.1
 74
0
 49
-0.1
 74
0
  0
ENDTAB
  0
TABLE
  2
LAYER
  5
2
100
AcDbSymbolTable
 70
36
  0
LAYER
  5
10
100
AcDbSymbolTableRecord
100
AcDbLayerTableRecord
  2
0
 70
0
 62
7
  6
CONTINUOUS
370
-3
390
F
  0
LAYER
  5
1FA
100
AcDbSymbolTableRecord
100
AcDbLayerTableRecord
  2
DEFAULT_1
 70
0
 62
7
  6
CENTER
370
-3
390
F
  0
LAYER
  5
1FB
100
AcDbSymbolTableRecord
100
AcDbLayerTableRecord
  2
DEFAULT_2
 70
0
 62
8
  6
HIDDEN
370
-3
390
F
  0
LAYER
  5
1FC
100
AcDbSymbolTableRecord
100
AcDbLayerTableRecord
  2
DEFAULT_3
 70
0
 62
7
  6
PHANTOM
370
-3
390
F
  0
LAYER
  5
1FD
100
AcDbSymbolTableRecord
100
AcDbLayerTableRecord
  2
0_SNAPLINES
 70
0
 62
7
  6
CONTINUOUS
370
-3
390
F
  0
LAYER
  5
1FE
100
AcDbSymbolTableRecord
100
AcDbLayerTableRecord
  2
1_ALL_PLANES
 70
0
 62
7
  6
CONTINUOUS
370
-3
390
F
  0
LAYER
  5
1FF
100
AcDbSymbolTableRecord
100
AcDbLayerTableRecord
  2
1__DEF_PLANES
 70
0
 62
7
  6
CONTINUOUS
370
-3
390
F
  0
LAYER
  5
200
100
AcDbSymbolTableRecord
100
AcDbLayerTableRecord
  2
2_ALL_CSYS
 70
0
 62
7
  6
CONTINUOUS
370
-3
390
F
  0
LAYER
  5
201
100
AcDbSymbolTableRecord
100
AcDbLayerTableRecord
  2
2__DEF_CSYS
 70
0
 62
7
  6
CONTINUOUS
370
-3
390
F
  0
LAYER
  5
202
100
AcDbSymbolTableRecord
100
AcDbLayerTableRecord
  2
3_ALL_AXES
 70
0
 62
7
  6
CONTINUOUS
370
-3
390
F
  0
LAYER
  5
203
100
AcDbSymbolTableRecord
100
AcDbLayerTableRecord
  2
3_AXES_OTHER
 70
0
 62
7
  6
CONTINUOUS
370
-3
390
F
  0
LAYER
  5
204
100
AcDbSymbolTableRecord
100
AcDbLayerTableRecord
  2
3_HOLES
 70
0
 62
7
  6
CONTINUOUS
370
-3
390
F
  0
LAYER
  5
205
100
AcDbSymbolTableRecord
100
AcDbLayerTableRecord
  2
4_ALL_POINTS
 70
0
 62
7
  6
CONTINUOUS
370
-3
390
F
  0
LAYER
  5
206
100
AcDbSymbolTableRecord
100
AcDbLayerTableRecord
  2
5_ALL_CURVES
 70
0
 62
7
  6
CONTINUOUS
370
-3
390
F
  0
LAYER
  5
207
100
AcDbSymbolTableRecord
100
AcDbLayerTableRecord
  2
6_ALL_SURFS
 70
0
 62
7
  6
CONTINUOUS
370
-3
390
F
  0
LAYER
  5
208
100
AcDbSymbolTableRecord
100
AcDbLayerTableRecord
  2
6_COPYGEOM
 70
0
 62
7
  6
CONTINUOUS
370
-3
390
F
  0
LAYER
  5
209
100
AcDbSymbolTableRecord
100
AcDbLayerTableRecord
  2
7_ALL_ROUNDS
 70
0
 62
7
  6
CONTINUOUS
370
-3
390
F
  0
LAYER
  5
20A
100
AcDbSymbolTableRecord
100
AcDbLayerTableRecord
  2
7_MERGES
 70
0
 62
7
  6
CONTINUOUS
370
-3
390
F
  0
LAYER
  5
20B
100
AcDbSymbolTableRecord
100
AcDbLayerTableRecord
  2
8_GDT
 70
0
 62
7
  6
CONTINUOUS
370
-3
390
F
  0
LAYER
  5
20C
100
AcDbSymbolTableRecord
100
AcDbLayerTableRecord
  2
8_SET_DATUMS
 70
0
 62
7
  6
CONTINUOUS
370
-3
390
F
  0
LAYER
  5
20D
100
AcDbSymbolTableRecord
100
AcDbLayerTableRecord
  2
9_COSMETICS
 70
0
 62
7
  6
CONTINUOUS
370
-3
390
F
  0
LAYER
  5
20E
100
AcDbSymbolTableRecord
100
AcDbLayerTableRecord
  2
9_THREADS
 70
0
 62
7
  6
CONTINUOUS
370
-3
390
F
  0
ENDTAB
  0
TABLE
  2
STYLE
  5
3
100
AcDbSymbolTable
 70
1
  0
STYLE
  5
11
100
AcDbSymbolTableRecord
100
AcDbTextStyleTableRecord
  2
STANDARD
 70
0
 40
0.0
 41
0.8
 50
0.0
 71
0
 42
0.2
  3
txt
  4

  0
STYLE
  5
20F
100
AcDbSymbolTableRecord
100
AcDbTextStyleTableRecord
  2
TEXTSTYLE_1
 70
0
 40
0.0
 41
0.8
 50
0.0
 71
0
 42
0.2
  3
gdt
  4

  0
ENDTAB
  0
TABLE
  2
VIEW
  5
6
100
AcDbSymbolTable
 70
0
  0
ENDTAB
  0
TABLE
  2
UCS
  5
7
100
AcDbSymbolTable
 70
0
  0
ENDTAB
  0
TABLE
  2
APPID
  5
9
100
AcDbSymbolTable
 70
1
  0
APPID
  5
210
100
AcDbSymbolTableRecord
100
AcDbRegAppTableRecord
  2
ACAD
 70
0
  0
ENDTAB
  0
TABLE
  2
BLOCK_RECORD
  5
1
100
AcDbSymbolTable
 70
0
  0
BLOCK_RECORD
  5
211
100
AcDbSymbolTableRecord
100
AcDbBlockTableRecord
  2
*Model_Space
  0
BLOCK_RECORD
  5
212
100
AcDbSymbolTableRecord
100
AcDbBlockTableRecord
  2
*Paper_Space
  0
BLOCK_RECORD
  5
213
100
AcDbSymbolTableRecord
100
AcDbBlockTableRecord
  2
_FILLED
  0
BLOCK_RECORD
  5
214
100
AcDbSymbolTableRecord
100
AcDbBlockTableRecord
  2
*D0
  0
BLOCK_RECORD
  5
215
100
AcDbSymbolTableRecord
100
AcDbBlockTableRecord
  2
*D1
  0
BLOCK_RECORD
  5
216
100
AcDbSymbolTableRecord
100
AcDbBlockTableRecord
  2
*D2
  0
BLOCK_RECORD
  5
217
100
AcDbSymbolTableRecord
100
AcDbBlockTableRecord
  2
*D3
  0
BLOCK_RECORD
  5
218
100
AcDbSymbolTableRecord
100
AcDbBlockTableRecord
  2
*D4
  0
BLOCK_RECORD
  5
219
100
AcDbSymbolTableRecord
100
AcDbBlockTableRecord
  2
*D5
  0
BLOCK_RECORD
  5
21A
100
AcDbSymbolTableRecord
100
AcDbBlockTableRecord
  2
*D6
  0
BLOCK_RECORD
  5
21B
100
AcDbSymbolTableRecord
100
AcDbBlockTableRecord
  2
*D7
  0
BLOCK_RECORD
  5
21C
100
AcDbSymbolTableRecord
100
AcDbBlockTableRecord
  2
*D8
  0
BLOCK_RECORD
  5
21D
100
AcDbSymbolTableRecord
100
AcDbBlockTableRecord
  2
*D9
  0
BLOCK_RECORD
  5
21E
100
AcDbSymbolTableRecord
100
AcDbBlockTableRecord
  2
*D10
  0
BLOCK_RECORD
  5
21F
100
AcDbSymbolTableRecord
100
AcDbBlockTableRecord
  2
*D11
  0
BLOCK_RECORD
  5
220
100
AcDbSymbolTableRecord
100
AcDbBlockTableRecord
  2
*D12
  0
BLOCK_RECORD
  5
221
100
AcDbSymbolTableRecord
100
AcDbBlockTableRecord
  2
RD010411_BL0
  0
ENDTAB
  0
TABLE
  2
DIMSTYLE
  5
A
100
AcDbSymbolTable
 70
1
100
AcDbDimStyleTable
 71
0
  0
DIMSTYLE
105
222
100
AcDbSymbolTableRecord
100
AcDbDimStyleTableRecord
  2
STANDARD
 70
0
  3

  4

 40
1.0
 41
0.375
 42
0.0625
 43
0.38
 44
0.125
 45
0.0
 46
0.0
 47
0.01
 48
0.01
140
0.3125
141
0.09
142
0.0
143
25.4
144
1.0
145
0.0
146
1.0
147
0.09
 71
1.0
 72
0.0
 73
1
 74
1
 75
0
 76
0
 77
0
 78
4
170
0
171
2
172
0
173
0
174
0
175
0
176
0
177
0
178
0
270
2
271
3
272
3
273
2
274
2
275
0
280
0
281
0
282
0
283
1
284
4
285
0
286
0
287
3
288
0
340
11
278
46
341
213
342
213
343
213
344
213
  0
DIMSTYLE
105
223
100
AcDbSymbolTableRecord
100
AcDbDimStyleTableRecord
  2
DIMSTYLE_1
 70
0
  3

  4

 40
1.0
 41
0.375
 42
0.0625
 43
0.38
 44
0.125
 45
0.0
 46
0.0
 47
0.01
 48
0.01
140
0.3125
141
0.09
142
0.0
143
25.4
144
1.0
145
0.0
146
1.0
147
0.078125
 71
0.0
 72
0.0
 73
1
 74
1
 75
0
 76
0
 77
0
 78
4
170
0
171
2
172
0
173
0
174
0
175
0
176
0
177
0
178
0
270
2
271
1
272
1
273
2
274
2
275
0
280
0
281
0
282
0
283
1
284
4
285
0
286
0
287
3
288
0
340
11
278
46
341
213
342
213
343
213
344
213
  0
DIMSTYLE
105
224
100
AcDbSymbolTableRecord
100
AcDbDimStyleTableRecord
  2
DIMSTYLE_2
 70
0
  3
<>
  4

 40
1.0
 41
0.375
 42
0.0625
 43
0.38
 44
0.125
 45
0.0
 46
0.0
 47
0.01
 48
0.01
140
0.3125
141
0.09
142
0.0
143
25.4
144
1.0
145
0.0
146
1.0
147
0.09
 71
0.0
 72
0.0
 73
1
 74
1
 75
0
 76
0
 77
0
 78
4
170
0
171
2
172
0
173
0
174
0
175
0
176
0
177
0
178
0
270
2
271
1
272
1
273
2
274
2
275
0
280
0
281
0
282
0
283
1
284
4
285
0
286
0
287
3
288
1
340
11
278
46
289
2
341
213
342
213
343
213
344
213
  0
DIMSTYLE
105
225
100
AcDbSymbolTableRecord
100
AcDbDimStyleTableRecord
  2
DIMSTYLE_3
 70
0
  3

  4

 40
1.0
 41
0.375
 42
0.0625
 43
0.38
 44
0.125
 45
0.0
 46
0.0
 47
0.01
 48
0.01
140
0.3125
141
0.09
142
0.0
143
25.4
144
1.0
145
0.0
146
1.0
147
0.078125
 71
0.0
 72
0.0
 73
1
 74
1
 75
0
 76
0
 77
0
 78
4
170
0
171
2
172
0
173
0
174
0
175
0
176
0
177
0
178
0
270
2
271
3
272
3
273
2
274
2
275
0
280
0
281
0
282
0
283
1
284
4
285
0
286
0
287
3
288
0
340
11
278
46
341
213
342
213
343
213
344
213
  0
ENDTAB
  0
ENDSEC
  0
SECTION
  2
BLOCKS
  0
BLOCK
  5
20
100
AcDbEntity
  8
0
100
AcDbBlockBegin
  2
*Model_Space
 70
0
 10
0.0
 20
0.0
 30
0.0
  3
*Model_Space
  1

  0
ENDBLK
  5
21
100
AcDbEntity
  8
0
100
AcDbBlockEnd
  0
BLOCK
  5
1C
100
AcDbEntity
  8
0
100
AcDbBlockBegin
  2
*Paper_Space
 70
0
 10
0.0
 20
0.0
 30
0.0
  3
*Paper_Space
  1

  0
ENDBLK
  5
1D
100
AcDbEntity
  8
0
100
AcDbBlockEnd
  0
BLOCK
  5
226
100
AcDbEntity
  8
0
100
AcDbBlockBegin
 62
7
  6
CONTINUOUS
  2
RD010411_BL0
 70
64
 10
57.7776405976
 20
5.4022213303
  3
RD010411_BL0
  1

  0
ARC
  5
227
100
AcDbEntity
  8
0
100
AcDbCircle
 62
7
  6
CONTINUOUS
 10
59.0819637369
 20
5.6029752454
 40
0.0247430265
100
AcDbArc
 50
270.0
 51
360.0
  0
LINE
  5
228
100
AcDbEntity
  8
0
100
AcDbLine
 62
7
  6
CONTINUOUS
 10
59.1067067634
 20
5.6029752454
 11
59.1067067634
 21
5.6524783038
  0
ARC
  5
229
100
AcDbEntity
  8
0
100
AcDbCircle
 62
7
  6
CONTINUOUS
 10
59.0819637369
 20
5.6524783038
 40
0.0247430265
100
AcDbArc
 50
0.0
 51
90.0
  0
LINE
  5
22A
100
AcDbEntity
  8
0
100
AcDbLine
 62
7
  6
CONTINUOUS
 10
59.0819637369
 20
5.6772213303
 11
58.4167770725
 21
5.6772213303
  0
SPLINE
  5
22B
100
AcDbEntity
  8
0
100
AcDbSpline
 62
7
  6
CONTINUOUS
 70
0
 71
3
 72
13
 73
9
 74
0
 42
0.0000001
 43
0.0000001
 44
0.0000000001
 40
0.0
 40
0.0
 40
0.0
 40
0.0
 40
0.1310616762
 40
0.2699656353
 40
0.4157607805
 40
0.5899807757
 40
0.76586761
 40
0.9948829976
 40
0.9948829976
 40
0.9948829976
 40
0.9948829976
 10
58.4167770725
 20
5.6772213303
 30
0.0
 10
58.4027942434
 20
5.67617988
 30
0.0
 10
58.3739919011
 20
5.6740346626
 30
0.0
 10
58.3349589914
 20
5.6498476469
 30
0.0
 10
58.3069380201
 20
5.6092420039
 30
0.0
 10
58.2887173369
 20
5.5595902407
 30
0.0
 10
58.2784543356
 20
5.4988951451
 30
0.0
 10
58.2775093907
 20
5.4560069247
 30
0.0
 10
58.2770196478
 20
5.431745876
 30
0.0
  0
LINE
  5
22C
100
AcDbEntity
  8
0
100
AcDbLine
 62
7
  6
CONTINUOUS
 10
58.2770196478
 20
5.431745876
 11
58.2770630744
 21
5.4279810182
  0
SPLINE
  5
22D
100
AcDbEntity
  8
0
100
AcDbSpline
 62
7
  6
CONTINUOUS
 70
0
 71
3
 72
13
 73
9
 74
0
 42
0.0000001
 43
0.0000001
 44
0.0000000001
 40
0.0
 40
0.0
 40
0.0
 40
0.0
 40
0.2222860645
 40
0.3981728988
 40
0.572392894
 40
0.7181880393
 40
0.8570919984
 40
0.9881536746
 40
0.9881536746
 40
0.9881536746
 40
0.9881536746
 10
58.2770630744
 20
5.4279810182
 30
0.0
 10
58.2775431653
 20
5.4044331609
 30
0.0
 10
58.2785733793
 20
5.362265561
 30
0.0
 10
58.2887173285
 20
5.3022740315
 30
0.0
 10
58.3069382299
 20
5.2526278213
 30
0.0
 10
58.3349583272
 20
5.2120049453
 30
0.0
 10
58.3739942159
 20
5.1878757469
 30
0.0
 10
58.4027895362
 20
5.1855943884
 30
0.0
 10
58.4167770725
 20
5.1845525879
 30
0.0
  0
LINE
  5
22E
100
AcDbEntity
  8
0
100
AcDbLine
 62
7
  6
CONTINUOUS
 10
58.4167770725
 20
5.1845525879
 11
59.082017741
 21
5.1860045433
  0
ARC
  5
22F
100
AcDbEntity
  8
0
100
AcDbCircle
 62
7
  6
CONTINUOUS
 10
59.0819637369
 20
5.2107475108
 40
0.0247430265
100
AcDbArc
 50
270.125053868
 51
360.0
  0
LINE
  5
230
100
AcDbEntity
  8
0
100
AcDbLine
 62
7
  6
CONTINUOUS
 10
59.1067067634
 20
5.2107475108
 11
59.1067067634
 21
5.2583178693
  0
ARC
  5
231
100
AcDbEntity
  8
0
100
AcDbCircle
 62
7
  6
CONTINUOUS
 10
59.0819637369
 20
5.2583178693
 40
0.0247430265
100
AcDbArc
 50
0.0
 51
90.0
  0
LINE
  5
232
100
AcDbEntity
  8
0
100
AcDbLine
 62
7
  6
CONTINUOUS
 10
59.0819637369
 20
5.2830608959
 11
58.5118078505
 21
5.2830608959
  0
LINE
  5
233
100
AcDbEntity
  8
0
100
AcDbLine
 62
7
  6
CONTINUOUS
 10
58.487064824
 20
5.3078039224
 11
58.487064824
 21
5.5534891923
  0
ARC
  5
234
100
AcDbEntity
  8
0
100
AcDbCircle
 62
7
  6
CONTINUOUS
 10
58.5118078507
 20
5.5534891923
 40
0.0247430265
100
AcDbArc
 50
90.0
 51
180.0
  0
LINE
  5
235
100
AcDbEntity
  8
0
100
AcDbLine
 62
7
  6
CONTINUOUS
 10
58.5118078505
 20
5.5782322189
 11
59.0819637369
 21
5.5782322189
  0
LINE
  5
236
100
AcDbEntity
  8
0
100
AcDbLine
 62
7
  6
CONTINUOUS
 10
57.495169266
 20
5.3809262012
 11
57.9703931345
 21
5.3809262012
  0
ARC
  5
237
100
AcDbEntity
  8
0
100
AcDbCircle
 62
7
  6
CONTINUOUS
 10
57.9703931344
 20
5.3561831747
 40
0.0247430265
100
AcDbArc
 50
0.0
 51
90.0
  0
LINE
  5
238
100
AcDbEntity
  8
0
100
AcDbLine
 62
7
  6
CONTINUOUS
 10
57.995136161
 20
5.3561831746
 11
57.995136161
 21
5.3056604702
  0
LINE
  5
239
100
AcDbEntity
  8
0
100
AcDbLine
 62
7
  6
CONTINUOUS
 10
57.9703931345
 20
5.2809174437
 11
57.4164328547
 21
5.2809174437
  0
ARC
  5
23A
100
AcDbEntity
  8
0
100
AcDbCircle
 62
7
  6
CONTINUOUS
 10
57.4164328547
 20
5.2561744171
 40
0.0247430265
100
AcDbArc
 50
90.0
 51
180.0
  0
LINE
  5
23B
100
AcDbEntity
  8
0
100
AcDbLine
 62
7
  6
CONTINUOUS
 10
57.3916898282
 20
5.2561744171
 11
57.3916898282
 21
5.2092953647
  0
ARC
  5
23C
100
AcDbEntity
  8
0
100
AcDbCircle
 62
7
  6
CONTINUOUS
 10
57.4164328547
 20
5.2092953647
 40
0.0247430265
100
AcDbArc
 50
180.0
 51
270.0
  0
LINE
  5
23D
100
AcDbEntity
  8
0
100
AcDbLine
 62
7
  6
CONTINUOUS
 10
57.4164328547
 20
5.1845523381
 11
58.1041462888
 21
5.1845523381
  0
SPLINE
  5
23E
100
AcDbEntity
  8
0
100
AcDbSpline
 62
7
  6
CONTINUOUS
 70
0
 71
3
 72
13
 73
9
 74
0
 42
0.0000001
 43
0.0000001
 44
0.0000000001
 40
0.0
 40
0.0
 40
0.0
 40
0.0
 40
0.1604571392
 40
0.3334692485
 40
0.4767982758
 40
0.6242014838
 40
0.7505998515
 40
1.0
 40
1.0
 40
1.0
 40
1.0
 10
58.1041462888
 20
5.1845523381
 30
0.0
 10
58.1157412232
 20
5.1851106135
 30
0.0
 10
58.1398383372
 20
5.186270846
 30
0.0
 10
58.1722421298
 20
5.2003390868
 30
0.0
 10
58.1966594551
 20
5.2239866254
 30
0.0
 10
58.2104195783
 20
5.2510976148
 30
0.0
 10
58.2209692595
 20
5.2874672848
 30
0.0
 10
58.221397366
 20
5.3146846205
 30
0.0
 10
58.2216814802
 20
5.332747511
 30
0.0
  0
SPLINE
  5
23F
100
AcDbEntity
  8
0
100
AcDbSpline
 62
7
  6
CONTINUOUS
 70
0
 71
3
 72
13
 73
9
 74
0
 42
0.0000001
 43
0.0000001
 44
0.0000000001
 40
0.0
 40
0.0
 40
0.0
 40
0.0
 40
0.2494001485
 40
0.3757985162
 40
0.5232017242
 40
0.6665307515
 40
0.8395428608
 40
1.0
 40
1.0
 40
1.0
 40
1.0
 10
58.2216814802
 20
5.332747511
 30
0.0
 10
58.221397366
 20
5.3508104019
 30
0.0
 10
58.2209692595
 20
5.3780277372
 30
0.0
 10
58.2104195783
 20
5.4143974076
 30
0.0
 10
58.1966594551
 20
5.441508397
 30
0.0
 10
58.1722421298
 20
5.4651559351
 30
0.0
 10
58.1398383372
 20
5.4792241759
 30
0.0
 10
58.1157412232
 20
5.4803844088
 30
0.0
 10
58.1041462888
 20
5.4809426838
 30
0.0
  0
LINE
  5
240
100
AcDbEntity
  8
0
100
AcDbLine
 62
7
  6
CONTINUOUS
 10
58.1041462888
 20
5.4809426838
 11
57.63525684
 21
5.4809426838
  0
LINE
  5
241
100
AcDbEntity
  8
0
100
AcDbLine
 62
7
  6
CONTINUOUS
 10
57.6105138134
 20
5.5056857104
 11
57.6105138134
 21
5.5525019989
  0
ARC
  5
242
100
AcDbEntity
  8
0
100
AcDbCircle
 62
7
  6
CONTINUOUS
 10
57.6352568398
 20
5.5525019989
 40
0.0247430265
100
AcDbArc
 50
90.0
 51
180.0
  0
LINE
  5
243
100
AcDbEntity
  8
0
100
AcDbLine
 62
7
  6
CONTINUOUS
 10
57.63525684
 20
5.5772450254
 11
58.1899690394
 21
5.5772450254
  0
ARC
  5
244
100
AcDbEntity
  8
0
100
AcDbCircle
 62
7
  6
CONTINUOUS
 10
58.1899690394
 20
5.601988052
 40
0.0247430265
100
AcDbArc
 50
270.0
 51
360.0
  0
LINE
  5
245
100
AcDbEntity
  8
0
100
AcDbLine
 62
7
  6
CONTINUOUS
 10
58.2147120659
 20
5.601988052
 11
58.2147120659
 21
5.6524783038
  0
ARC
  5
246
100
AcDbEntity
  8
0
100
AcDbCircle
 62
7
  6
CONTINUOUS
 10
58.1899690394
 20
5.6524783038
 40
0.0247430265
100
AcDbArc
 50
0.0
 51
90.0
  0
LINE
  5
247
100
AcDbEntity
  8
0
100
AcDbLine
 62
7
  6
CONTINUOUS
 10
58.1899690394
 20
5.6772213303
 11
57.495169266
 21
5.6772213303
  0
SPLINE
  5
248
100
AcDbEntity
  8
0
100
AcDbSpline
 62
7
  6
CONTINUOUS
 70
0
 71
3
 72
13
 73
9
 74
0
 42
0.0000001
 43
0.0000001
 44
0.0000000001
 40
0.0
 40
0.0
 40
0.0
 40
0.0
 40
0.1133740464
 40
0.2392044088
 40
0.3655787964
 40
0.4912154373
 40
0.7445390876
 40
1.0
 40
1.0
 40
1.0
 40
1.0
 10
57.495169266
 20
5.6772213303
 30
0.0
 10
57.4872320137
 20
5.6768303837
 30
0.0
 10
57.4704854499
 20
5.6760055368
 30
0.0
 10
57.4456100859
 20
5.6685735211
 30
0.0
 10
57.4233566486
 20
5.6535659669
 30
0.0
 10
57.400624564
 20
5.6259214794
 30
0.0
 10
57.3863200943
 20
5.5825233121
 30
0.0
 10
57.3847687724
 20
5.5469401064
 30
0.0
 10
57.3839898535
 20
5.5290737658
 30
0.0
  0
SPLINE
  5
249
100
AcDbEntity
  8
0
100
AcDbSpline
 62
7
  6
CONTINUOUS
 70
0
 71
3
 72
13
 73
9
 74
0
 42
0.0000001
 43
0.0000001
 44
0.0000000001
 40
0.0
 40
0.0
 40
0.0
 40
0.0
 40
0.2554609124
 40
0.5087845627
 40
0.6344212036
 40
0.7607955912
 40
0.8866259536
 40
1.0
 40
1.0
 40
1.0
 40
1.0
 10
57.3839898535
 20
5.5290737658
 30
0.0
 10
57.3847687724
 20
5.5112074251
 30
0.0
 10
57.3863200943
 20
5.475624219
 30
0.0
 10
57.400624564
 20
5.4322260521
 30
0.0
 10
57.4233566486
 20
5.4045815646
 30
0.0
 10
57.4456100859
 20
5.3895740104
 30
0.0
 10
57.4704854499
 20
5.3821419947
 30
0.0
 10
57.4872320137
 20
5.3813171478
 30
0.0
 10
57.495169266
 20
5.3809262012
 30
0.0
  0
LINE
  5
24A
100
AcDbEntity
  8
0
100
AcDbLine
 62
7
  6
CONTINUOUS
 10
56.5809416116
 20
5.1845523381
 11
56.9653966053
 21
5.1845523381
  0
LINE
  5
24B
100
AcDbEntity
  8
0
100
AcDbLine
 62
7
  6
CONTINUOUS
 10
56.9653966053
 20
5.1845523381
 11
56.9653966053
 21
5.136737879
  0
ARC
  5
24C
100
AcDbEntity
  8
0
100
AcDbCircle
 62
7
  6
CONTINUOUS
 10
56.974913154
 20
5.136737879
 40
0.0095165487
100
AcDbArc
 50
180.0
 51
270.0
  0
LINE
  5
24D
100
AcDbEntity
  8
0
100
AcDbLine
 62
7
  6
CONTINUOUS
 10
56.974913154
 20
5.1272213303
 11
57.1230954959
 21
5.1272213303
  0
ARC
  5
24E
100
AcDbEntity
  8
0
100
AcDbCircle
 62
7
  6
CONTINUOUS
 10
57.1230954959
 20
5.136737879
 40
0.0095165487
100
AcDbArc
 50
270.0
 51
360.0
  0
LINE
  5
24F
100
AcDbEntity
  8
0
100
AcDbLine
 62
7
  6
CONTINUOUS
 10
57.1326120445
 20
5.136737879
 11
57.1326120445
 21
5.1845523381
  0
LINE
  5
250
100
AcDbEntity
  8
0
100
AcDbLine
 62
7
  6
CONTINUOUS
 10
57.1326120445
 20
5.1845523381
 11
57.2082102852
 21
5.1845523381
  0
SPLINE
  5
251
100
AcDbEntity
  8
0
100
AcDbSpline
 62
7
  6
CONTINUOUS
 70
0
 71
3
 72
12
 73
8
 74
0
 42
0.0000001
 43
0.0000001
 44
0.0000000001
 40
0.0
 40
0.0
 40
0.0
 40
0.0
 40
0.2415790084
 40
0.4893269843
 40
0.7378634303
 40
0.8656387112
 40
1.0
 40
1.0
 40
1.0
 40
1.0
 10
57.2082102852
 20
5.1845523381
 30
0.0
 10
57.2217657946
 20
5.1849737637
 30
0.0
 10
57.2492229675
 20
5.1858273764
 30
0.0
 10
57.2894036749
 20
5.2001568853
 30
0.0
 10
57.3138062096
 20
5.2272072059
 30
0.0
 10
57.3245571563
 20
5.2542354801
 30
0.0
 10
57.3247509041
 20
5.2690415115
 30
0.0
 10
57.3248502119
 20
5.2766305228
 30
0.0
  0
LINE
  5
252
100
AcDbEntity
  8
0
100
AcDbLine
 62
7
  6
CONTINUOUS
 10
57.3248502119
 20
5.2766305228
 11
57.3248502119
 21
5.5845653039
  0
SPLINE
  5
253
100
AcDbEntity
  8
0
100
AcDbSpline
 62
7
  6
CONTINUOUS
 70
0
 71
3
 72
12
 73
8
 74
0
 42
0.0000001
 43
0.0000001
 44
0.0000000001
 40
0.0
 40
0.0
 40
0.0
 40
0.0
 40
0.1343612888
 40
0.2621365697
 40
0.5106730157
 40
0.7584209916
 40
1.0
 40
1.0
 40
1.0
 40
1.0
 10
57.3248502119
 20
5.5845653039
 30
0.0
 10
57.3247509041
 20
5.5921543156
 30
0.0
 10
57.3245571563
 20
5.606960347
 30
0.0
 10
57.3138062096
 20
5.6339886212
 30
0.0
 10
57.2894036749
 20
5.6610389418
 30
0.0
 10
57.2492229675
 20
5.6753684503
 30
0.0
 10
57.2217657946
 20
5.676222063
 30
0.0
 10
57.2082102852
 20
5.6766434886
 30
0.0
  0
LINE
  5
254
100
AcDbEntity
  8
0
100
AcDbLine
 62
7
  6
CONTINUOUS
 10
57.2082102852
 20
5.6766434886
 11
56.5809416116
 21
5.6766434886
  0
SPLINE
  5
255
100
AcDbEntity
  8
0
100
AcDbSpline
 62
7
  6
CONTINUOUS
 70
0
 71
3
 72
12
 73
8
 74
0
 42
0.0000001
 43
0.0000001
 44
0.0000000001
 40
0.0
 40
0.0
 40
0.0
 40
0.0
 40
0.1341799809
 40
0.290831959
 40
0.5815217441
 40
0.760783857
 40
1.0
 40
1.0
 40
1.0
 40
1.0
 10
56.5809416116
 20
5.6766434886
 30
0.0
 10
56.5672597682
 20
5.6743051317
 30
0.0
 10
56.537604694
 20
5.6692367976
 30
0.0
 10
56.4876851358
 20
5.6319420116
 30
0.0
 10
56.4640406997
 20
5.5691972795
 30
0.0
 10
56.4502065515
 20
5.4980703428
 30
0.0
 10
56.4491680653
 20
5.4550495295
 30
0.0
 10
56.4485744318
 20
5.4304573962
 30
0.0
  0
SPLINE
  5
256
100
AcDbEntity
  8
0
100
AcDbSpline
 62
7
  6
CONTINUOUS
 70
0
 71
3
 72
12
 73
8
 74
0
 42
0.0000001
 43
0.0000001
 44
0.0000000001
 40
0.0
 40
0.0
 40
0.0
 40
0.0
 40
0.2392679579
 40
0.4185688994
 40
0.7093216488
 40
0.8660075581
 40
1.0
 40
1.0
 40
1.0
 40
1.0
 10
56.4485744318
 20
5.4304573962
 30
0.0
 10
56.4491683025
 20
5.4058662214
 30
0.0
 10
56.4502072032
 20
5.3628470849
 30
0.0
 10
56.4640383662
 20
5.2917080781
 30
0.0
 10
56.4876972485
 20
5.2290217605
 30
0.0
 10
56.5375648333
 20
5.1916058708
 30
0.0
 10
56.5672553384
 20
5.186777874
 30
0.0
 10
56.5809416116
 20
5.1845523381
 30
0.0
  0
LINE
  5
257
100
AcDbEntity
  8
0
100
AcDbLine
 62
7
  6
CONTINUOUS
 10
57.1981423032
 20
5.3112449168
 11
57.1981423032
 21
5.5579709135
  0
ARC
  5
258
100
AcDbEntity
  8
0
100
AcDbCircle
 62
7
  6
CONTINUOUS
 10
56.6790424294
 20
5.3112449168
 40
0.0247430265
100
AcDbArc
 50
180.0
 51
270.0
  0
LINE
  5
259
100
AcDbEntity
  8
0
100
AcDbLine
 62
7
  6
CONTINUOUS
 10
56.6790424294
 20
5.2865018903
 11
56.9632322156
 21
5.2865018903
  0
LINE
  5
25A
100
AcDbEntity
  8
0
100
AcDbLine
 62
7
  6
CONTINUOUS
 10
56.9632322156
 20
5.2865018903
 11
56.9632322156
 21
5.3341681992
  0
ARC
  5
25B
100
AcDbEntity
  8
0
100
AcDbCircle
 62
7
  6
CONTINUOUS
 10
56.9727487644
 20
5.3341681992
 40
0.0095165487
100
AcDbArc
 50
90.0
 51
180.0
  0
LINE
  5
25C
100
AcDbEntity
  8
0
100
AcDbLine
 62
7
  6
CONTINUOUS
 10
56.9727487642
 20
5.3436847479
 11
57.1201759356
 21
5.3436847479
  0
ARC
  5
25D
100
AcDbEntity
  8
0
100
AcDbCircle
 62
7
  6
CONTINUOUS
 10
57.1201759353
 20
5.3341681996
 40
0.0095165487
100
AcDbArc
 50
0.0
 51
90.0
  0
LINE
  5
25E
100
AcDbEntity
  8
0
100
AcDbLine
 62
7
  6
CONTINUOUS
 10
57.1296924843
 20
5.2865018903
 11
57.1733992767
 21
5.2865018903
  0
ARC
  5
25F
100
AcDbEntity
  8
0
100
AcDbCircle
 62
7
  6
CONTINUOUS
 10
57.1733992767
 20
5.3112449168
 40
0.0247430265
100
AcDbArc
 50
270.0
 51
360.0
  0
LINE
  5
260
100
AcDbEntity
  8
0
100
AcDbLine
 62
7
  6
CONTINUOUS
 10
57.1296924843
 20
5.2865018903
 11
57.1296924843
 21
5.3341681992
  0
LINE
  5
261
100
AcDbEntity
  8
0
100
AcDbLine
 62
7
  6
CONTINUOUS
 10
56.6542994028
 20
5.3112449168
 11
56.6542994028
 21
5.5579709135
  0
ARC
  5
262
100
AcDbEntity
  8
0
100
AcDbCircle
 62
7
  6
CONTINUOUS
 10
56.6790424297
 20
5.5579709135
 40
0.0247430265
100
AcDbArc
 50
90.0
 51
180.0
  0
LINE
  5
263
100
AcDbEntity
  8
0
100
AcDbLine
 62
7
  6
CONTINUOUS
 10
56.6790424294
 20
5.58271394
 11
57.1733992767
 21
5.58271394
  0
ARC
  5
264
100
AcDbEntity
  8
0
100
AcDbCircle
 62
7
  6
CONTINUOUS
 10
57.1733992769
 20
5.5579709133
 40
0.0247430265
100
AcDbArc
 50
0.0000000277
 51
90.0000000277
  0
ARC
  5
265
100
AcDbEntity
  8
0
100
AcDbCircle
 62
7
  6
CONTINUOUS
 10
57.63525684
 20
5.5056857104
 40
0.0247430265
100
AcDbArc
 50
180.0
 51
270.0
  0
ARC
  5
266
100
AcDbEntity
  8
0
100
AcDbCircle
 62
7
  6
CONTINUOUS
 10
57.9703931345
 20
5.3056604702
 40
0.0247430265
100
AcDbArc
 50
270.0
 51
360.0
  0
ARC
  5
267
100
AcDbEntity
  8
0
100
AcDbCircle
 62
7
  6
CONTINUOUS
 10
58.5118078505
 20
5.3078039224
 40
0.0247430265
100
AcDbArc
 50
180.0
 51
270.0
  0
ENDBLK
  5
268
100
AcDbEntity
  8
0
  6
BYBLOCK
 62
0
100
AcDbBlockEnd
  0
BLOCK
  5
269
100
AcDbEntity
  8
0
100
AcDbBlockBegin
  2
_FILLED
 70
64
 10
0.0
 20
0.0
  3
_FILLED
  1

  0
SOLID
  5
26A
100
AcDbEntity
  8
0
  6
BYBLOCK
 62
0
100
AcDbTrace
 10
0.0
 20
0.0
 11
-1.0
 21
0.1666666667
 12
-1.0
 22
-0.1666666667
 13
-1.0
 23
-0.1666666667
  0
ENDBLK
  5
26B
100
AcDbEntity
  8
0
  6
BYBLOCK
 62
0
100
AcDbBlockEnd
  0
BLOCK
  5
26C
100
AcDbEntity
  8
0
100
AcDbBlockBegin
 62
2
  6
CONTINUOUS
  2
*D0
 70
65
 10
0.0
 20
0.0
  3
*D0
  1

  0
MTEXT
  5
26D
100
AcDbEntity
  8
0
100
AcDbMText
 62
2
  6
CONTINUOUS
  7
STANDARD
 71
2
 72
1
 10
21.0320250818
 20
38.9088760787
 30
0.0
 11
1.0
 21
0.0
 31
0.0
 44
0.9
  1
587,9\P[23.15]
 40
0.3125
 41
1.9754464286
  0
LINE
  5
26E
100
AcDbEntity
  8
0
100
AcDbLine
 62
2
  6
CONTINUOUS
 10
9.6253162545
 20
36.2842576822
 11
9.6253162545
 21
39.0026260787
  0
LINE
  5
26F
100
AcDbEntity
  8
0
100
AcDbLine
 62
2
  6
CONTINUOUS
 10
32.7717729474
 20
36.2842576822
 11
32.7717729474
 21
39.0026260787
  0
LINE
  5
270
100
AcDbEntity
  8
0
100
AcDbLine
 62
2
  6
CONTINUOUS
 10
9.6253162545
 20
38.7526260787
 11
20.3065786532
 21
38.7526260787
  0
LINE
  5
271
100
AcDbEntity
  8
0
100
AcDbLine
 62
2
  6
CONTINUOUS
 10
32.7717729474
 20
38.7526260787
 11
21.9360429389
 21
38.7526260787
  0
INSERT
  5
272
100
AcDbEntity
  8
0
100
AcDbBlockReference
 62
2
  6
CONTINUOUS
  2
_FILLED
 10
9.6253162545
 20
38.7526260787
 41
0.375
 42
0.375
 43
0.375
 50
180.0
  0
INSERT
  5
273
100
AcDbEntity
  8
0
100
AcDbBlockReference
 62
2
  6
CONTINUOUS
  2
_FILLED
 10
32.7717729474
 20
38.7526260787
 41
0.375
 42
0.375
 43
0.375
  0
ENDBLK
  5
274
100
AcDbEntity
  8
0
  6
BYBLOCK
 62
0
100
AcDbBlockEnd
  0
BLOCK
  5
275
100
AcDbEntity
  8
0
100
AcDbBlockBegin
 62
2
  6
CONTINUOUS
  2
*D1
 70
65
 10
0.0
 20
0.0
  3
*D1
  1

  0
MTEXT
  5
276
100
AcDbEntity
  8
0
100
AcDbMText
 62
2
  6
CONTINUOUS
  7
STANDARD
 71
2
 72
1
 10
20.8468406378
 20
28.088643378
 30
0.0
 11
1.0
 21
0.0
 31
0.0
 44
0.9
  1
578,7\P[22.78]
 40
0.3125
 41
2.1428571429
  0
LINE
  5
277
100
AcDbEntity
  8
0
100
AcDbLine
 62
2
  6
CONTINUOUS
 10
9.8067083753
 20
29.7271853885
 11
9.8067083753
 21
27.682393378
  0
LINE
  5
278
100
AcDbEntity
  8
0
100
AcDbLine
 62
2
  6
CONTINUOUS
 10
32.5903808266
 20
29.7271853885
 11
32.5903808266
 21
27.682393378
  0
LINE
  5
279
100
AcDbEntity
  8
0
100
AcDbLine
 62
2
  6
CONTINUOUS
 10
9.8067083753
 20
27.932393378
 11
20.1213942092
 21
27.932393378
  0
LINE
  5
27A
100
AcDbEntity
  8
0
100
AcDbLine
 62
2
  6
CONTINUOUS
 10
32.5903808266
 20
27.932393378
 11
21.8624656378
 21
27.932393378
  0
INSERT
  5
27B
100
AcDbEntity
  8
0
100
AcDbBlockReference
 62
2
  6
CONTINUOUS
  2
_FILLED
 10
9.8067083753
 20
27.932393378
 41
0.375
 42
0.375
 43
0.375
 50
180.0
  0
INSERT
  5
27C
100
AcDbEntity
  8
0
100
AcDbBlockReference
 62
2
  6
CONTINUOUS
  2
_FILLED
 10
32.5903808266
 20
27.932393378
 41
0.375
 42
0.375
 43
0.375
  0
ENDBLK
  5
27D
100
AcDbEntity
  8
0
  6
BYBLOCK
 62
0
100
AcDbBlockEnd
  0
BLOCK
  5
27E
100
AcDbEntity
  8
0
100
AcDbBlockBegin
 62
2
  6
CONTINUOUS
  2
*D2
 70
65
 10
0.0
 20
0.0
  3
*D2
  1

  0
MTEXT
  5
27F
100
AcDbEntity
  8
0
100
AcDbMText
 62
2
  6
CONTINUOUS
  7
STANDARD
 71
2
 72
1
 10
36.6433074052
 20
33.7618372615
 30
0.0
 11
1.0
 21
0.0
 31
0.0
 44
0.9
  1
2X 171,0\P[6.73]
 40
0.3125
 41
2.6785714286
  0
LINE
  5
280
100
AcDbEntity
  8
0
100
AcDbLine
 62
2
  6
CONTINUOUS
 10
32.7153808266
 20
29.8521853885
 11
36.9602716909
 21
29.8521853885
  0
LINE
  5
281
100
AcDbEntity
  8
0
100
AcDbLine
 62
2
  6
CONTINUOUS
 10
32.471576097
 20
36.5844545326
 11
36.9602716909
 21
36.5844545326
  0
LINE
  5
282
100
AcDbEntity
  8
0
100
AcDbLine
 62
2
  6
CONTINUOUS
 10
36.7102716909
 20
29.8521853885
 11
36.7102716909
 21
32.8243372615
  0
LINE
  5
283
100
AcDbEntity
  8
0
100
AcDbLine
 62
2
  6
CONTINUOUS
 10
36.7102716909
 20
36.5844545326
 11
36.7102716909
 21
33.9180872615
  0
INSERT
  5
284
100
AcDbEntity
  8
0
100
AcDbBlockReference
 62
2
  6
CONTINUOUS
  2
_FILLED
 10
36.7102716909
 20
29.8521853885
 41
0.375
 42
0.375
 43
0.375
 50
270.0
  0
INSERT
  5
285
100
AcDbEntity
  8
0
100
AcDbBlockReference
 62
2
  6
CONTINUOUS
  2
_FILLED
 10
36.7102716909
 20
36.5844545326
 41
0.375
 42
0.375
 43
0.375
 50
90.0
  0
ENDBLK
  5
286
100
AcDbEntity
  8
0
  6
BYBLOCK
 62
0
100
AcDbBlockEnd
  0
BLOCK
  5
287
100
AcDbEntity
  8
0
100
AcDbBlockBegin
 62
2
  6
CONTINUOUS
  2
*D3
 70
65
 10
0.0
 20
0.0
  3
*D3
  1

  0
MTEXT
  5
288
100
AcDbEntity
  8
0
100
AcDbMText
 62
2
  6
CONTINUOUS
  7
STANDARD
 71
2
 72
1
 10
45.1946284928
 20
16.2139678062
 30
0.0
 11
1.0
 21
0.0
 31
0.0
 44
0.9
  1
131,0\P[5.16]
 40
0.3125
 41
1.640625
  0
LINE
  5
289
100
AcDbEntity
  8
0
100
AcDbLine
 62
2
  6
CONTINUOUS
 10
47.6570471709
 20
17.6362865932
 11
47.6570471709
 21
15.8077178062
  0
LINE
  5
28A
100
AcDbEntity
  8
0
100
AcDbLine
 62
2
  6
CONTINUOUS
 10
42.4995668559
 20
19.6047905302
 11
42.4995668559
 21
15.8077178062
  0
LINE
  5
28B
100
AcDbEntity
  8
0
100
AcDbLine
 62
2
  6
CONTINUOUS
 10
47.6570471709
 20
16.0577178062
 11
45.9423963499
 21
16.0577178062
  0
LINE
  5
28C
100
AcDbEntity
  8
0
100
AcDbLine
 62
2
  6
CONTINUOUS
 10
42.4995668559
 20
16.0577178062
 11
44.5361463499
 21
16.0577178062
  0
INSERT
  5
28D
100
AcDbEntity
  8
0
100
AcDbBlockReference
 62
2
  6
CONTINUOUS
  2
_FILLED
 10
47.6570471709
 20
16.0577178062
 41
0.375
 42
0.375
 43
0.375
  0
INSERT
  5
28E
100
AcDbEntity
  8
0
100
AcDbBlockReference
 62
2
  6
CONTINUOUS
  2
_FILLED
 10
42.4995668559
 20
16.0577178062
 41
0.375
 42
0.375
 43
0.375
 50
180.0
  0
ENDBLK
  5
28F
100
AcDbEntity
  8
0
  6
BYBLOCK
 62
0
100
AcDbBlockEnd
  0
BLOCK
  5
290
100
AcDbEntity
  8
0
100
AcDbBlockBegin
 62
2
  6
CONTINUOUS
  2
*D4
 70
65
 10
0.0
 20
0.0
  3
*D4
  1

  0
MTEXT
  5
291
100
AcDbEntity
  8
0
100
AcDbMText
 62
2
  6
CONTINUOUS
  7
STANDARD
 71
1
 72
1
 10
44.3081407191
 20
24.2995634883
 30
0.0
 11
1.0
 21
0.0
 31
0.0
 44
0.9
  1
2X \Fgdt;{\Fgdt;n}\Ftxt;10,0\P[.39]
 40
0.3125
 41
3.0357142857
  0
LINE
  5
292
100
AcDbEntity
  8
0
100
AcDbLine
 62
2
  6
CONTINUOUS
 10
42.5555236936
 20
19.9185202571
 11
43.8081407191
 21
24.1433134883
  0
LINE
  5
293
100
AcDbEntity
  8
0
100
AcDbLine
 62
2
  6
CONTINUOUS
 10
43.8081407191
 20
24.1433134883
 11
44.1518907191
 21
24.1433134883
  0
INSERT
  5
294
100
AcDbEntity
  8
0
100
AcDbBlockReference
 62
2
  6
CONTINUOUS
  2
_FILLED
 10
42.5555236936
 20
19.9185202571
 41
0.375
 42
0.375
 43
0.375
 50
253.4853357316
  0
ENDBLK
  5
295
100
AcDbEntity
  8
0
  6
BYBLOCK
 62
0
100
AcDbBlockEnd
  0
BLOCK
  5
296
100
AcDbEntity
  8
0
100
AcDbBlockBegin
 62
2
  6
CONTINUOUS
  2
*D5
 70
65
 10
0.0
 20
0.0
  3
*D5
  1

  0
MTEXT
  5
297
100
AcDbEntity
  8
0
100
AcDbMText
 62
2
  6
CONTINUOUS
  7
TEXTSTYLE_1
 71
1
 72
1
 10
23.0011527183
 20
23.6112831983
 30
0.0
 11
1.0
 21
0.0
 31
0.0
 44
0.9
  1
{\Fgdt;n}\Ftxt;13,0\P[.51]
 40
0.3125
 41
1.8638392857
  0
LINE
  5
298
100
AcDbEntity
  8
0
100
AcDbLine
 62
2
  6
CONTINUOUS
 10
21.2830122207
 20
19.9713538805
 11
22.5011527183
 21
23.4550331983
  0
LINE
  5
299
100
AcDbEntity
  8
0
100
AcDbLine
 62
2
  6
CONTINUOUS
 10
22.5011527183
 20
23.4550331983
 11
22.8449027183
 21
23.4550331983
  0
INSERT
  5
29A
100
AcDbEntity
  8
0
100
AcDbBlockReference
 62
2
  6
CONTINUOUS
  2
_FILLED
 10
21.2830122207
 20
19.9713538805
 41
0.375
 42
0.375
 43
0.375
 50
250.7267652591
  0
ENDBLK
  5
29B
100
AcDbEntity
  8
0
  6
BYBLOCK
 62
0
100
AcDbBlockEnd
  0
BLOCK
  5
29C
100
AcDbEntity
  8
0
100
AcDbBlockBegin
 62
2
  6
CONTINUOUS
  2
*D6
 70
65
 10
0.0
 20
0.0
  3
*D6
  1

  0
MTEXT
  5
29D
100
AcDbEntity
  8
0
100
AcDbMText
 62
2
  6
CONTINUOUS
  7
STANDARD
 71
2
 72
1
 10
21.0980981724
 20
14.4444598388
 30
0.0
 11
1.0
 21
0.0
 31
0.0
 44
0.9
  1
2X 406,4\P[16.00]
 40
0.3125
 41
2.8794642857
  0
LINE
  5
29E
100
AcDbEntity
  8
0
100
AcDbLine
 62
2
  6
CONTINUOUS
 10
29.198544601
 20
18.5530188767
 11
29.198544601
 21
14.0382098388
  0
LINE
  5
29F
100
AcDbEntity
  8
0
100
AcDbLine
 62
2
  6
CONTINUOUS
 10
13.198544601
 20
18.5530188767
 11
13.198544601
 21
14.0382098388
  0
LINE
  5
2A0
100
AcDbEntity
  8
0
100
AcDbLine
 62
2
  6
CONTINUOUS
 10
29.198544601
 20
14.2882098388
 11
22.4150624581
 21
14.2882098388
  0
LINE
  5
2A1
100
AcDbEntity
  8
0
100
AcDbLine
 62
2
  6
CONTINUOUS
 10
13.198544601
 20
14.2882098388
 11
19.9820267438
 21
14.2882098388
  0
INSERT
  5
2A2
100
AcDbEntity
  8
0
100
AcDbBlockReference
 62
2
  6
CONTINUOUS
  2
_FILLED
 10
29.198544601
 20
14.2882098388
 41
0.375
 42
0.375
 43
0.375
  0
INSERT
  5
2A3
100
AcDbEntity
  8
0
100
AcDbBlockReference
 62
2
  6
CONTINUOUS
  2
_FILLED
 10
13.198544601
 20
14.2882098388
 41
0.375
 42
0.375
 43
0.375
 50
180.0
  0
ENDBLK
  5
2A4
100
AcDbEntity
  8
0
  6
BYBLOCK
 62
0
100
AcDbBlockEnd
  0
BLOCK
  5
2A5
100
AcDbEntity
  8
0
100
AcDbBlockBegin
 62
2
  6
CONTINUOUS
  2
*D7
 70
65
 10
0.0
 20
0.0
  3
*D7
  1

  0
MTEXT
  5
2A6
100
AcDbEntity
  8
0
100
AcDbMText
 62
2
  6
CONTINUOUS
  7
STANDARD
 71
2
 72
1
 10
21.3275907847
 20
15.6499765033
 30
0.0
 11
1.0
 21
0.0
 31
0.0
 44
0.9
  1
247,0\P[9.72]
 40
0.3125
 41
1.7745535714
  0
LINE
  5
2A7
100
AcDbEntity
  8
0
100
AcDbLine
 62
2
  6
CONTINUOUS
 10
16.3363398766
 20
19.3882550972
 11
16.3363398766
 21
15.2437265033
  0
LINE
  5
2A8
100
AcDbEntity
  8
0
100
AcDbLine
 62
2
  6
CONTINUOUS
 10
26.0607493254
 20
19.3882550972
 11
26.0607493254
 21
15.2437265033
  0
LINE
  5
2A9
100
AcDbEntity
  8
0
100
AcDbLine
 62
2
  6
CONTINUOUS
 10
16.3363398766
 20
15.4937265033
 11
20.5909836419
 21
15.4937265033
  0
LINE
  5
2AA
100
AcDbEntity
  8
0
100
AcDbLine
 62
2
  6
CONTINUOUS
 10
26.0607493254
 20
15.4937265033
 11
22.0865193562
 21
15.4937265033
  0
INSERT
  5
2AB
100
AcDbEntity
  8
0
100
AcDbBlockReference
 62
2
  6
CONTINUOUS
  2
_FILLED
 10
16.3363398766
 20
15.4937265033
 41
0.375
 42
0.375
 43
0.375
 50
180.0
  0
INSERT
  5
2AC
100
AcDbEntity
  8
0
100
AcDbBlockReference
 62
2
  6
CONTINUOUS
  2
_FILLED
 10
26.0607493254
 20
15.4937265033
 41
0.375
 42
0.375
 43
0.375
  0
ENDBLK
  5
2AD
100
AcDbEntity
  8
0
  6
BYBLOCK
 62
0
100
AcDbBlockEnd
  0
BLOCK
  5
2AE
100
AcDbEntity
  8
0
100
AcDbBlockBegin
 62
2
  6
CONTINUOUS
  2
*D8
 70
65
 10
0.0
 20
0.0
  3
*D8
  1

  0
MTEXT
  5
2AF
100
AcDbEntity
  8
0
100
AcDbMText
 62
2
  6
CONTINUOUS
  7
STANDARD
 71
2
 72
1
 10
36.249659309
 20
20.1187225561
 30
0.0
 11
1.0
 21
0.0
 31
0.0
 44
0.9
  1
118,0\P[4.65]
 40
0.3125
 41
1.7410714286
  0
LINE
  5
2B0
100
AcDbEntity
  8
0
100
AcDbLine
 62
2
  6
CONTINUOUS
 10
32.3534658608
 20
22.0526251759
 11
36.5666235947
 21
22.0526251759
  0
LINE
  5
2B1
100
AcDbEntity
  8
0
100
AcDbLine
 62
2
  6
CONTINUOUS
 10
32.3534658608
 20
17.4069558846
 11
36.5666235947
 21
17.4069558846
  0
LINE
  5
2B2
100
AcDbEntity
  8
0
100
AcDbLine
 62
2
  6
CONTINUOUS
 10
36.3166235947
 20
22.0526251759
 11
36.3166235947
 21
20.2749725561
  0
LINE
  5
2B3
100
AcDbEntity
  8
0
100
AcDbLine
 62
2
  6
CONTINUOUS
 10
36.3166235947
 20
17.4069558846
 11
36.3166235947
 21
19.1812225561
  0
INSERT
  5
2B4
100
AcDbEntity
  8
0
100
AcDbBlockReference
 62
2
  6
CONTINUOUS
  2
_FILLED
 10
36.3166235947
 20
22.0526251759
 41
0.375
 42
0.375
 43
0.375
 50
90.0
  0
INSERT
  5
2B5
100
AcDbEntity
  8
0
100
AcDbBlockReference
 62
2
  6
CONTINUOUS
  2
_FILLED
 10
36.3166235947
 20
17.4069558846
 41
0.375
 42
0.375
 43
0.375
 50
270.0
  0
ENDBLK
  5
2B6
100
AcDbEntity
  8
0
  6
BYBLOCK
 62
0
100
AcDbBlockEnd
  0
BLOCK
  5
2B7
100
AcDbEntity
  8
0
100
AcDbBlockBegin
 62
2
  6
CONTINUOUS
  2
*D9
 70
65
 10
0.0
 20
0.0
  3
*D9
  1

  0
MTEXT
  5
2B8
100
AcDbEntity
  8
0
100
AcDbMText
 62
2
  6
CONTINUOUS
  7
STANDARD
 71
2
 72
1
 10
34.5974405634
 20
20.1054302055
 30
0.0
 11
1.0
 21
0.0
 31
0.0
 44
0.9
  1
45,0\P[1.77]
 40
0.3125
 41
1.6741071429
  0
LINE
  5
2B9
100
AcDbEntity
  8
0
100
AcDbLine
 62
2
  6
CONTINUOUS
 10
30.1894894829
 20
20.6156173019
 11
34.9590477063
 21
20.6156173019
  0
LINE
  5
2BA
100
AcDbEntity
  8
0
100
AcDbLine
 62
2
  6
CONTINUOUS
 10
30.1894894829
 20
18.8439637586
 11
34.9590477063
 21
18.8439637586
  0
LINE
  5
2BB
100
AcDbEntity
  8
0
100
AcDbLine
 62
2
  6
CONTINUOUS
 10
34.7090477063
 20
20.6156173019
 11
34.7090477063
 21
21.6156173019
  0
LINE
  5
2BC
100
AcDbEntity
  8
0
100
AcDbLine
 62
2
  6
CONTINUOUS
 10
34.7090477063
 20
18.8439637586
 11
34.7090477063
 21
17.8439637586
  0
INSERT
  5
2BD
100
AcDbEntity
  8
0
100
AcDbBlockReference
 62
2
  6
CONTINUOUS
  2
_FILLED
 10
34.7090477063
 20
20.6156173019
 41
0.375
 42
0.375
 43
0.375
 50
270.0
  0
INSERT
  5
2BE
100
AcDbEntity
  8
0
100
AcDbBlockReference
 62
2
  6
CONTINUOUS
  2
_FILLED
 10
34.7090477063
 20
18.8439637586
 41
0.375
 42
0.375
 43
0.375
 50
90.0
  0
ENDBLK
  5
2BF
100
AcDbEntity
  8
0
  6
BYBLOCK
 62
0
100
AcDbBlockEnd
  0
BLOCK
  5
2C0
100
AcDbEntity
  8
0
100
AcDbBlockBegin
 62
2
  6
CONTINUOUS
  2
*D10
 70
65
 10
0.0
 20
0.0
  3
*D10
  1

  0
MTEXT
  5
2C1
100
AcDbEntity
  8
0
100
AcDbMText
 62
2
  6
CONTINUOUS
  7
STANDARD
 71
2
 72
1
 10
34.9544696153
 20
35.2008941974
 30
0.0
 11
1.0
 21
0.0
 31
0.0
 44
0.9
  1
2X 89,3\P[3.51]
 40
0.3125
 41
2.4776785714
  0
LINE
  5
2C2
100
AcDbEntity
  8
0
100
AcDbLine
 62
2
  6
CONTINUOUS
 10
32.471576097
 20
36.5844545326
 11
35.2937553296
 21
36.5844545326
  0
LINE
  5
2C3
100
AcDbEntity
  8
0
100
AcDbLine
 62
2
  6
CONTINUOUS
 10
32.7153808266
 20
33.0700601545
 11
35.2937553296
 21
33.0700601545
  0
LINE
  5
2C4
100
AcDbEntity
  8
0
100
AcDbLine
 62
2
  6
CONTINUOUS
 10
35.0437553296
 20
36.5844545326
 11
35.0437553296
 21
35.3571441974
  0
LINE
  5
2C5
100
AcDbEntity
  8
0
100
AcDbLine
 62
2
  6
CONTINUOUS
 10
35.0437553296
 20
33.0700601545
 11
35.0437553296
 21
34.2633941974
  0
INSERT
  5
2C6
100
AcDbEntity
  8
0
100
AcDbBlockReference
 62
2
  6
CONTINUOUS
  2
_FILLED
 10
35.0437553296
 20
36.5844545326
 41
0.375
 42
0.375
 43
0.375
 50
90.0
  0
INSERT
  5
2C7
100
AcDbEntity
  8
0
100
AcDbBlockReference
 62
2
  6
CONTINUOUS
  2
_FILLED
 10
35.0437553296
 20
33.0700601545
 41
0.375
 42
0.375
 43
0.375
 50
270.0
  0
ENDBLK
  5
2C8
100
AcDbEntity
  8
0
  6
BYBLOCK
 62
0
100
AcDbBlockEnd
  0
BLOCK
  5
2C9
100
AcDbEntity
  8
0
100
AcDbBlockBegin
 62
2
  6
CONTINUOUS
  2
*D11
 70
65
 10
0.0
 20
0.0
  3
*D11
  1

  0
MTEXT
  5
2CA
100
AcDbEntity
  8
0
100
AcDbMText
 62
2
  6
CONTINUOUS
  7
STANDARD
 71
1
 72
1
 10
48.6577643497
 20
23.0868860246
 30
0.0
 11
1.0
 21
0.0
 31
0.0
 44
0.9
  1
2X 23,000\P[.91]
 40
0.3125
 41
3.2142857143
  0
LINE
  5
2CB
100
AcDbEntity
  8
0
100
AcDbLine
 62
2
  6
CONTINUOUS
 10
46.7515353598
 20
22.1776251759
 11
46.7515353598
 21
23.1806360246
  0
LINE
  5
2CC
100
AcDbEntity
  8
0
100
AcDbLine
 62
2
  6
CONTINUOUS
 10
47.6570471709
 20
21.8232944672
 11
47.6570471709
 21
23.1806360246
  0
LINE
  5
2CD
100
AcDbEntity
  8
0
100
AcDbLine
 62
2
  6
CONTINUOUS
 10
46.7515353598
 20
22.9306360246
 11
47.2042912653
 21
22.9306360246
  0
LINE
  5
2CE
100
AcDbEntity
  8
0
100
AcDbLine
 62
2
  6
CONTINUOUS
 10
47.6570471709
 20
22.9306360246
 11
47.2042912653
 21
22.9306360246
  0
LINE
  5
2CF
100
AcDbEntity
  8
0
100
AcDbLine
 62
2
  6
CONTINUOUS
 10
47.2042912653
 20
22.9306360246
 11
48.5015143497
 21
22.9306360246
  0
INSERT
  5
2D0
100
AcDbEntity
  8
0
100
AcDbBlockReference
 62
2
  6
CONTINUOUS
  2
_FILLED
 10
46.7515353598
 20
22.9306360246
 41
0.375
 42
0.375
 43
0.375
 50
180.0
  0
INSERT
  5
2D1
100
AcDbEntity
  8
0
100
AcDbBlockReference
 62
2
  6
CONTINUOUS
  2
_FILLED
 10
47.6570471709
 20
22.9306360246
 41
0.375
 42
0.375
 43
0.375
  0
ENDBLK
  5
2D2
100
AcDbEntity
  8
0
  6
BYBLOCK
 62
0
100
AcDbBlockEnd
  0
BLOCK
  5
2D3
100
AcDbEntity
  8
0
100
AcDbBlockBegin
 62
2
  6
CONTINUOUS
  2
*D12
 70
65
 10
0.0
 20
0.0
  3
*D12
  1

  0
MTEXT
  5
2D4
100
AcDbEntity
  8
0
100
AcDbMText
 62
2
  6
CONTINUOUS
  7
STANDARD
 71
1
 72
1
 10
33.5095768774
 20
29.4427293292
 30
0.0
 11
1.0
 21
0.0
 31
0.0
 44
0.9
  1
(3.0{\Ftxt.shx;\W0.714286;\H0.312500; })\P[.12]
 40
0.3125
 41
1.7075892857
  0
LINE
  5
2D5
100
AcDbEntity
  8
0
100
AcDbLine
 62
2
  6
CONTINUOUS
 10
32.4722705904
 20
29.7271853885
 11
32.4722705904
 21
29.0364793292
  0
LINE
  5
2D6
100
AcDbEntity
  8
0
100
AcDbLine
 62
2
  6
CONTINUOUS
 10
32.5903808266
 20
29.7271853885
 11
32.5903808266
 21
29.0364793292
  0
LINE
  5
2D7
100
AcDbEntity
  8
0
100
AcDbLine
 62
2
  6
CONTINUOUS
 10
32.4722705904
 20
29.2864793292
 11
31.4722705904
 21
29.2864793292
  0
LINE
  5
2D8
100
AcDbEntity
  8
0
100
AcDbLine
 62
2
  6
CONTINUOUS
 10
32.5903808266
 20
29.2864793292
 11
33.3533268774
 21
29.2864793292
  0
INSERT
  5
2D9
100
AcDbEntity
  8
0
100
AcDbBlockReference
 62
2
  6
CONTINUOUS
  2
_FILLED
 10
32.4722705904
 20
29.2864793292
 41
0.375
 42
0.375
 43
0.375
  0
INSERT
  5
2DA
100
AcDbEntity
  8
0
100
AcDbBlockReference
 62
2
  6
CONTINUOUS
  2
_FILLED
 10
32.5903808266
 20
29.2864793292
 41
0.375
 42
0.375
 43
0.375
 50
180.0
  0
ENDBLK
  5
2DB
100
AcDbEntity
  8
0
  6
BYBLOCK
 62
0
100
AcDbBlockEnd
  0
ENDSEC
  0
SECTION
  2
ENTITIES
  0
MTEXT
  5
2DC
100
AcDbEntity
  8
0
100
AcDbMText
 62
2
  6
CONTINUOUS
  7
STANDARD
 71
1
 72
1
 10
4.9258154895
 20
0.7298333671
 30
0.0
 11
1.0
 21
0.0
 31
0.0
 44
0.9
  1
8
 40
0.3125
 41
0.3683035714
  0
MTEXT
  5
2DD
100
AcDbEntity
  8
0
100
AcDbMText
 62
2
  6
CONTINUOUS
  7
STANDARD
 71
1
 72
1
 10
13.0508154895
 20
0.7298333671
 30
0.0
 11
1.0
 21
0.0
 31
0.0
 44
0.9
  1
7
 40
0.3125
 41
0.3683035714
  0
MTEXT
  5
2DE
100
AcDbEntity
  8
0
100
AcDbMText
 62
2
  6
CONTINUOUS
  7
STANDARD
 71
1
 72
1
 10
21.1758154895
 20
0.7298333671
 30
0.0
 11
1.0
 21
0.0
 31
0.0
 44
0.9
  1
6
 40
0.3125
 41
0.3683035714
  0
MTEXT
  5
2DF
100
AcDbEntity
  8
0
100
AcDbMText
 62
2
  6
CONTINUOUS
  7
STANDARD
 71
1
 72
1
 10
29.3008154895
 20
0.7298333671
 30
0.0
 11
1.0
 21
0.0
 31
0.0
 44
0.9
  1
5
 40
0.3125
 41
0.3348214286
  0
MTEXT
  5
2E0
100
AcDbEntity
  8
0
100
AcDbMText
 62
2
  6
CONTINUOUS
  7
STANDARD
 71
1
 72
1
 10
37.4258154895
 20
0.7298333671
 30
0.0
 11
1.0
 21
0.0
 31
0.0
 44
0.9
  1
4
 40
0.3125
 41
0.3683035714
  0
MTEXT
  5
2E1
100
AcDbEntity
  8
0
100
AcDbMText
 62
2
  6
CONTINUOUS
  7
STANDARD
 71
1
 72
1
 10
45.5508154895
 20
0.7298333671
 30
0.0
 11
1.0
 21
0.0
 31
0.0
 44
0.9
  1
3
 40
0.3125
 41
0.3348214286
  0
MTEXT
  5
2E2
100
AcDbEntity
  8
0
100
AcDbMText
 62
2
  6
CONTINUOUS
  7
STANDARD
 71
1
 72
1
 10
53.6758154895
 20
0.7298333671
 30
0.0
 11
1.0
 21
0.0
 31
0.0
 44
0.9
  1
2
 40
0.3125
 41
0.3683035714
  0
MTEXT
  5
2E3
100
AcDbEntity
  8
0
100
AcDbMText
 62
2
  6
CONTINUOUS
  7
STANDARD
 71
1
 72
1
 10
61.8008154895
 20
0.7298333671
 30
0.0
 11
1.0
 21
0.0
 31
0.0
 44
0.9
  1
1
 40
0.3125
 41
0.2678571429
  0
MTEXT
  5
2E4
100
AcDbEntity
  8
0
100
AcDbMText
 62
2
  6
CONTINUOUS
  7
STANDARD
 71
1
 72
1
 10
4.9258154895
 20
43.7298333671
 30
0.0
 11
1.0
 21
0.0
 31
0.0
 44
0.9
  1
8
 40
0.3125
 41
0.4575892857
  0
MTEXT
  5
2E5
100
AcDbEntity
  8
0
100
AcDbMText
 62
2
  6
CONTINUOUS
  7
STANDARD
 71
1
 72
1
 10
13.0508154895
 20
43.7298333671
 30
0.0
 11
1.0
 21
0.0
 31
0.0
 44
0.9
  1
7
 40
0.3125
 41
0.3683035714
  0
MTEXT
  5
2E6
100
AcDbEntity
  8
0
100
AcDbMText
 62
2
  6
CONTINUOUS
  7
STANDARD
 71
1
 72
1
 10
21.1758154895
 20
43.7298333671
 30
0.0
 11
1.0
 21
0.0
 31
0.0
 44
0.9
  1
6
 40
0.3125
 41
0.3683035714
  0
MTEXT
  5
2E7
100
AcDbEntity
  8
0
100
AcDbMText
 62
2
  6
CONTINUOUS
  7
STANDARD
 71
1
 72
1
 10
29.3008154895
 20
43.7298333671
 30
0.0
 11
1.0
 21
0.0
 31
0.0
 44
0.9
  1
5
 40
0.3125
 41
0.3348214286
  0
MTEXT
  5
2E8
100
AcDbEntity
  8
0
100
AcDbMText
 62
2
  6
CONTINUOUS
  7
STANDARD
 71
1
 72
1
 10
37.4258154895
 20
43.7298333671
 30
0.0
 11
1.0
 21
0.0
 31
0.0
 44
0.9
  1
4
 40
0.3125
 41
0.3683035714
  0
MTEXT
  5
2E9
100
AcDbEntity
  8
0
100
AcDbMText
 62
2
  6
CONTINUOUS
  7
STANDARD
 71
1
 72
1
 10
45.5508154895
 20
43.7298333671
 30
0.0
 11
1.0
 21
0.0
 31
0.0
 44
0.9
  1
3
 40
0.3125
 41
0.3348214286
  0
MTEXT
  5
2EA
100
AcDbEntity
  8
0
100
AcDbMText
 62
2
  6
CONTINUOUS
  7
STANDARD
 71
1
 72
1
 10
53.6758154895
 20
43.7298333671
 30
0.0
 11
1.0
 21
0.0
 31
0.0
 44
0.9
  1
2
 40
0.3125
 41
0.3683035714
  0
MTEXT
  5
2EB
100
AcDbEntity
  8
0
100
AcDbMText
 62
2
  6
CONTINUOUS
  7
STANDARD
 71
1
 72
1
 10
61.8008154895
 20
43.7298333671
 30
0.0
 11
1.0
 21
0.0
 31
0.0
 44
0.9
  1
1
 40
0.3125
 41
0.2678571429
  0
MTEXT
  5
2EC
100
AcDbEntity
  8
0
100
AcDbMText
 62
2
  6
CONTINUOUS
  7
STANDARD
 71
1
 72
1
 10
0.3964386186
 20
6.4389798985
 30
0.0
 11
1.0
 21
0.0
 31
0.0
 44
0.9
  1
A
 40
0.3125
 41
0.4017857143
  0
MTEXT
  5
2ED
100
AcDbEntity
  8
0
100
AcDbMText
 62
2
  6
CONTINUOUS
  7
STANDARD
 71
1
 72
1
 10
0.3964386186
 20
16.9389798985
 30
0.0
 11
1.0
 21
0.0
 31
0.0
 44
0.9
  1
B
 40
0.3125
 41
0.3683035714
  0
MTEXT
  5
2EE
100
AcDbEntity
  8
0
100
AcDbMText
 62
2
  6
CONTINUOUS
  7
STANDARD
 71
1
 72
1
 10
0.3964386186
 20
27.4389798985
 30
0.0
 11
1.0
 21
0.0
 31
0.0
 44
0.9
  1
C
 40
0.3125
 41
0.390625
  0
MTEXT
  5
2EF
100
AcDbEntity
  8
0
100
AcDbMText
 62
2
  6
CONTINUOUS
  7
STANDARD
 71
1
 72
1
 10
0.3964386186
 20
37.9389798985
 30
0.0
 11
1.0
 21
0.0
 31
0.0
 44
0.9
  1
D
 40
0.3125
 41
0.4241071429
  0
MTEXT
  5
2F0
100
AcDbEntity
  8
0
100
AcDbMText
 62
2
  6
CONTINUOUS
  7
STANDARD
 71
1
 72
1
 10
66.3964386186
 20
6.4389798985
 30
0.0
 11
1.0
 21
0.0
 31
0.0
 44
0.9
  1
A
 40
0.3125
 41
0.4017857143
  0
MTEXT
  5
2F1
100
AcDbEntity
  8
0
100
AcDbMText
 62
2
  6
CONTINUOUS
  7
STANDARD
 71
1
 72
1
 10
66.3964386186
 20
16.9389798985
 30
0.0
 11
1.0
 21
0.0
 31
0.0
 44
0.9
  1
B
 40
0.3125
 41
0.3683035714
  0
MTEXT
  5
2F2
100
AcDbEntity
  8
0
100
AcDbMText
 62
2
  6
CONTINUOUS
  7
STANDARD
 71
1
 72
1
 10
66.3964386186
 20
27.4389798985
 30
0.0
 11
1.0
 21
0.0
 31
0.0
 44
0.9
  1
C
 40
0.3125
 41
0.390625
  0
MTEXT
  5
2F3
100
AcDbEntity
  8
0
100
AcDbMText
 62
2
  6
CONTINUOUS
  7
STANDARD
 71
1
 72
1
 10
66.3964386186
 20
37.9389798985
 30
0.0
 11
1.0
 21
0.0
 31
0.0
 44
0.9
  1
D
 40
0.3125
 41
0.4241071429
  0
MTEXT
  5
2F4
100
AcDbEntity
  8
0
100
AcDbMText
 62
5
  6
CONTINUOUS
  7
STANDARD
 71
1
 72
1
 10
1.1325792212
 20
42.9123642308
 30
0.0
 11
1.0
 21
0.0
 31
0.0
 44
0.9
  1
THIS DOCUMENT CONTAINS PROPRIETARY INFORMATION\PWHICH IS THE PROPERTY OF QSC, LLC, THAT MAY NOT BE\PDISCLOSED, REPRODUCED OR USED WITHOUT EXPRESS\PWRITTEN CONSENT FROM QSC, LLC.
 40
0.15
 41
8.8875
  0
MTEXT
  5
2F5
100
AcDbEntity
  8
0
100
AcDbMText
 62
2
  6
CONTINUOUS
  7
STANDARD
 71
2
 72
1
 10
48.4986282107
 20
5.9565149306
 30
0.0
 11
1.0
 21
0.0
 31
0.0
 44
0.9
  1
UNLESS OTHERWISE SPECIFIED\PDIMENSIONS IN MILLIMETERS [IN]
 40
0.2
 41
6.5714285714
  0
MTEXT
  5
2F6
100
AcDbEntity
  8
0
100
AcDbMText
 62
2
  6
CONTINUOUS
  7
STANDARD
 71
2
 72
1
 10
48.4698945584
 20
5.1839709972
 30
0.0
 11
1.0
 21
0.0
 31
0.0
 44
0.9
  1
TOLERANCES ARE:
 40
0.18
 41
3.0921428571
  0
MTEXT
  5
2F7
100
AcDbEntity
  8
0
100
AcDbMText
 62
2
  6
CONTINUOUS
  7
STANDARD
 71
2
 72
1
 10
46.9985532817
 20
4.7274111455
 30
0.0
 11
1.0
 21
0.0
 31
0.0
 44
0.9
  1
DECIMALS\P.X\Fgdt;{\Fgdt;`}\Ftxt;.5[.02]
 40
0.18
 41
1.8578571429
  0
MTEXT
  5
2F8
100
AcDbEntity
  8
0
100
AcDbMText
 62
2
  6
CONTINUOUS
  7
STANDARD
 71
2
 72
1
 10
48.75
 20
4.715
 30
0.0
 11
1.0
 21
0.0
 31
0.0
 44
0.9
  1
DECIMALS\P.XX\Fgdt;{\Fgdt;`}\Ftxt;.25[.010]
 40
0.18
 41
2.4557142857
  0
MTEXT
  5
2F9
100
AcDbEntity
  8
0
100
AcDbMText
 62
2
  6
CONTINUOUS
  7
STANDARD
 71
2
 72
1
 10
50.2585939888
 20
4.7250013893
 30
0.0
 11
1.0
 21
0.0
 31
0.0
 44
0.9
  1
ANGLES\P\Fgdt;{\Fgdt;`}\Ftxt; 1/2
 40
0.18
 41
1.2857142857
  0
MTEXT
  5
2FA
100
AcDbEntity
  8
0
100
AcDbMText
 62
2
  6
CONTINUOUS
  7
STANDARD
 71
2
 72
1
 10
48.5
 20
3.965
 30
0.0
 11
1.0
 21
0.0
 31
0.0
 44
0.9
  1
DEBURR EDGES .25 [.010] R MAX
 40
0.18
 41
5.8821428571
  0
MTEXT
  5
2FB
100
AcDbEntity
  8
0
100
AcDbMText
 62
2
  6
CONTINUOUS
  7
STANDARD
 71
2
 72
1
 10
46.9178489616
 20
3.3724398351
 30
0.0
 11
1.0
 21
0.0
 31
0.0
 44
0.9
  1
MATERIAL
 40
0.18
 41
1.7292857143
  0
MTEXT
  5
2FC
100
AcDbEntity
  8
0
100
AcDbMText
 62
2
  6
CONTINUOUS
  7
STANDARD
 71
2
 72
1
 10
46.7262794321
 20
2.1542932539
 30
0.0
 11
1.0
 21
0.0
 31
0.0
 44
0.9
  1
FINISH
 40
0.18
 41
1.2278571429
  0
MTEXT
  5
2FD
100
AcDbEntity
  8
0
100
AcDbMText
 62
2
  6
CONTINUOUS
  7
STANDARD
 71
2
 72
1
 10
60.5395846296
 20
1.3618051235
 30
0.0
 11
1.0
 21
0.0
 31
0.0
 44
0.9
  1
DO NOT SCALE DRAWING
 40
0.25
 41
6.2321428571
  0
MTEXT
  5
2FE
100
AcDbEntity
  8
0
100
AcDbMText
 62
2
  6
CONTINUOUS
  7
STANDARD
 71
2
 72
1
 10
51.4420732885
 20
6.0178722363
 30
0.0
 11
1.0
 21
0.0
 31
0.0
 44
0.9
  1
DESIGNER
 40
0.18
 41
1.7035714286
  0
MTEXT
  5
2FF
100
AcDbEntity
  8
0
100
AcDbMText
 62
2
  6
CONTINUOUS
  7
STANDARD
 71
2
 72
1
 10
51.3716825982
 20
4.9931999708
 30
0.0
 11
1.0
 21
0.0
 31
0.0
 44
0.9
  1
ENGINEER
 40
0.18
 41
1.6521428571
  0
MTEXT
  5
300
100
AcDbEntity
  8
0
100
AcDbMText
 62
2
  6
CONTINUOUS
  7
STANDARD
 71
2
 72
1
 10
52.1396855542
 20
3.9492502587
 30
0.0
 11
1.0
 21
0.0
 31
0.0
 44
0.9
  1
TECHNICAL DIRECTOR
 40
0.18
 41
3.8442857143
  0
MTEXT
  5
301
100
AcDbEntity
  8
0
100
AcDbMText
 62
2
  6
CONTINUOUS
  7
STANDARD
 71
2
 72
1
 10
52.406322558
 20
2.9046238556
 30
0.0
 11
1.0
 21
0.0
 31
0.0
 44
0.9
  1
MANUFACTURING ENGINEER
 40
0.18
 41
4.6542857143
  0
MTEXT
  5
302
100
AcDbEntity
  8
0
100
AcDbMText
 62
2
  6
CONTINUOUS
  7
STANDARD
 71
2
 72
1
 10
51.9130470007
 20
1.3520049377
 30
0.0
 11
1.0
 21
0.0
 31
0.0
 44
0.9
  1
MODEL INFO:
 40
0.18
 41
2.205
  0
MTEXT
  5
303
100
AcDbEntity
  8
0
100
AcDbMText
 62
2
  6
CONTINUOUS
  7
STANDARD
 71
2
 72
1
 10
51.7277017866
 20
1.836722083
 30
0.0
 11
1.0
 21
0.0
 31
0.0
 44
0.9
  1
DRAWING INFO:
 40
0.18
 41
2.8028571429
  0
MTEXT
  5
304
100
AcDbEntity
  8
0
100
AcDbMText
 62
2
  6
CONTINUOUS
  7
STANDARD
 71
2
 72
1
 10
56.4787291628
 20
1.3340406604
 30
0.0
 11
1.0
 21
0.0
 31
0.0
 44
0.9
  1
SCALE:
 40
0.18
 41
1.1828571429
  0
MTEXT
  5
305
100
AcDbEntity
  8
0
100
AcDbMText
 62
2
  6
CONTINUOUS
  7
STANDARD
 71
2
 72
1
 10
63.2324854686
 20
1.337361773
 30
0.0
 11
1.0
 21
0.0
 31
0.0
 44
0.9
  1
SHEET
 40
0.18
 41
1.0928571429
  0
MTEXT
  5
306
100
AcDbEntity
  8
0
100
AcDbMText
 62
2
  6
CONTINUOUS
  7
STANDARD
 71
2
 72
1
 10
56.4839589016
 20
2.4206593346
 30
0.0
 11
1.0
 21
0.0
 31
0.0
 44
0.9
  1
SIZE
 40
0.18
 41
0.8421428571
  0
MTEXT
  5
307
100
AcDbEntity
  8
0
100
AcDbMText
 62
2
  6
CONTINUOUS
  7
STANDARD
 71
2
 72
1
 10
57.9673952173
 20
2.4228328862
 30
0.0
 11
1.0
 21
0.0
 31
0.0
 44
0.9
  1
CAGE CODE
 40
0.18
 41
1.9992857143
  0
MTEXT
  5
308
100
AcDbEntity
  8
0
100
AcDbMText
 62
2
  6
CONTINUOUS
  7
STANDARD
 71
2
 72
1
 10
59.8818994961
 20
2.4186659314
 30
0.0
 11
1.0
 21
0.0
 31
0.0
 44
0.9
  1
DRAWING NO.
 40
0.18
 41
2.4942857143
  0
MTEXT
  5
309
100
AcDbEntity
  8
0
100
AcDbMText
 62
2
  6
CONTINUOUS
  7
STANDARD
 71
2
 72
1
 10
65.5242653189
 20
2.4213478134
 30
0.0
 11
1.0
 21
0.0
 31
0.0
 44
0.9
  1
REV
 40
0.18
 41
0.6814285714
  0
MTEXT
  5
30A
100
AcDbEntity
  8
0
100
AcDbMText
 62
2
  6
CONTINUOUS
  7
STANDARD
 71
2
 72
1
 10
60.8342830009
 20
5.9870356053
 30
0.0
 11
1.0
 21
0.0
 31
0.0
 44
0.9
  1
QSC, LLC
 40
0.3125
 41
2.8794642857
  0
MTEXT
  5
30B
100
AcDbEntity
  8
0
100
AcDbMText
 62
2
  6
CONTINUOUS
  7
STANDARD
 71
1
 72
1
 10
59.8242648276
 20
5.5085803278
 30
0.0
 11
1.0
 21
0.0
 31
0.0
 44
0.9
  1
1675  MACARTHUR BOULEVARD\PCOSTA MESA, CA  92626
 40
0.25
 41
7.4642857143
  0
MTEXT
  5
30C
100
AcDbEntity
  8
0
100
AcDbMText
 62
2
  6
CONTINUOUS
  7
STANDARD
 71
1
 72
1
 10
57.2602169778
 20
1.9925529836
 30
0.0
 11
1.0
 21
0.0
 31
0.0
 44
0.9
  1
00PW4
 40
0.3125
 41
2.1986607143
  0
INSERT
  5
30D
100
AcDbEntity
  8
0
100
AcDbBlockReference
 62
7
  6
CONTINUOUS
  2
RD010411_BL0
 10
57.7776405976
 20
5.4022213303
  0
DIMENSION
  5
30E
100
AcDbEntity
  8
0
100
AcDbDimension
 62
2
  6
CONTINUOUS
  2
*D0
 10
32.7717729474
 20
38.7526260787
 11
21.121310796
 21
38.5182510787
 70
160
 71
2
 42
587.92
  3
DIMSTYLE_1
100
AcDbAlignedDimension
 13
9.6253162545
 23
36.2217576822
 14
32.7717729474
 24
36.2217576822
100
AcDbRotatedDimension
  0
DIMENSION
  5
30F
100
AcDbEntity
  8
0
100
AcDbDimension
 62
2
  6
CONTINUOUS
  2
*D1
 10
32.5903808266
 20
27.932393378
 11
20.9919299235
 21
27.698018378
 70
160
 71
2
 42
578.7052802622
  3
DIMSTYLE_1
100
AcDbAlignedDimension
 13
9.8067083753
 23
29.7896853885
 14
32.5903808266
 24
29.7896853885
100
AcDbRotatedDimension
  0
DIMENSION
  5
310
100
AcDbEntity
  8
0
100
AcDbDimension
 62
2
  6
CONTINUOUS
  2
*D2
 10
36.7102716909
 20
36.5844545326
 11
36.7102716909
 21
33.3712122615
 70
160
 71
2
 42
170.999636261
  1
2X <>
  3
DIMSTYLE_1
100
AcDbAlignedDimension
 13
32.6528808266
 23
29.8521853885
 14
32.409076097
 24
36.5844545326
 50
90.0
100
AcDbRotatedDimension
  0
DIMENSION
  5
311
100
AcDbEntity
  8
0
100
AcDbDimension
 62
2
  6
CONTINUOUS
  2
*D3
 10
42.4995668559
 20
16.0577178062
 11
45.2392713499
 21
15.8233428062
 70
160
 71
2
 42
131.0
  3
DIMSTYLE_1
100
AcDbAlignedDimension
 13
47.6570471709
 23
17.6987865932
 14
42.4995668559
 24
19.6672905302
 50
180.0
100
AcDbRotatedDimension
  0
DIMENSION
  5
312
100
AcDbEntity
  8
0
100
AcDbDimension
 62
2
  6
CONTINUOUS
  2
*D4
 10
42.5555236936
 20
19.9185202571
 11
45.3535276239
 21
23.9089384883
 70
163
 71
1
 42
10.0
  1
2X %%c<>
  3
DIMSTYLE_2
100
AcDbDiametricDimension
 15
42.4436100182
 25
19.5410608033
  0
DIMENSION
  5
313
100
AcDbEntity
  8
0
100
AcDbDimension
 62
2
  6
CONTINUOUS
  2
*D5
 10
21.2830122207
 20
19.9713538805
 11
23.6335931945
 21
23.2206581983
 70
163
 71
1
 42
13.0
  1
%%c<>
  3
DIMSTYLE_2
100
AcDbDiametricDimension
 15
21.1140769813
 25
19.4882271799
  0
DIMENSION
  5
314
100
AcDbEntity
  8
0
100
AcDbDimension
 62
2
  6
CONTINUOUS
  2
*D6
 10
13.198544601
 20
14.2882098388
 11
21.198544601
 21
14.0538348388
 70
160
 71
2
 42
406.4
  1
2X <>
  3
DIMSTYLE_1
100
AcDbAlignedDimension
 13
29.198544601
 23
18.6155188767
 14
13.198544601
 24
18.6155188767
 50
180.0
100
AcDbRotatedDimension
  0
DIMENSION
  5
315
100
AcDbEntity
  8
0
100
AcDbDimension
 62
2
  6
CONTINUOUS
  2
*D7
 10
26.0607493254
 20
15.4937265033
 11
21.338751499
 21
15.2593515033
 70
160
 71
2
 42
247.0
  3
DIMSTYLE_1
100
AcDbAlignedDimension
 13
16.3363398766
 23
19.4507550972
 14
26.0607493254
 24
19.4507550972
100
AcDbRotatedDimension
  0
DIMENSION
  5
316
100
AcDbEntity
  8
0
100
AcDbDimension
 62
2
  6
CONTINUOUS
  2
*D8
 10
36.3166235947
 20
17.4069558846
 11
36.3166235947
 21
19.7280975561
 70
160
 71
2
 42
118.0
  3
DIMSTYLE_1
100
AcDbAlignedDimension
 13
32.2909658608
 23
22.0526251759
 14
32.2909658608
 24
17.4069558846
 50
270.0
100
AcDbRotatedDimension
  0
DIMENSION
  5
317
100
AcDbEntity
  8
0
100
AcDbDimension
 62
2
  6
CONTINUOUS
  2
*D9
 10
34.7090477063
 20
18.8439637586
 11
34.7090477063
 21
19.7148052055
 70
160
 71
2
 42
45.0
  3
DIMSTYLE_1
100
AcDbAlignedDimension
 13
30.1269894829
 23
20.6156173019
 14
30.1269894829
 24
18.8439637586
 50
270.0
100
AcDbRotatedDimension
  0
DIMENSION
  5
318
100
AcDbEntity
  8
0
100
AcDbDimension
 62
2
  6
CONTINUOUS
  2
*D10
 10
35.0437553296
 20
33.0700601545
 11
35.0437553296
 21
34.8102691974
 70
160
 71
2
 42
89.2656172032
  1
2X <>
  3
DIMSTYLE_1
100
AcDbAlignedDimension
 13
32.409076097
 23
36.5844545326
 14
32.6528808266
 24
33.0700601545
 50
270.0
100
AcDbRotatedDimension
  0
DIMENSION
  5
319
100
AcDbEntity
  8
0
100
AcDbDimension
 62
2
  6
CONTINUOUS
  2
*D11
 10
47.6570471709
 20
22.9306360246
 11
49.7291929211
 21
22.6962610246
 70
160
 71
1
 42
23.0
  1
2X <>
  3
DIMSTYLE_3
100
AcDbAlignedDimension
 13
46.7515353598
 23
22.1151251759
 14
47.6570471709
 24
21.7607944672
100
AcDbRotatedDimension
  0
DIMENSION
  5
31A
100
AcDbEntity
  8
0
100
AcDbDimension
 62
2
  6
CONTINUOUS
  2
*D12
 10
32.5903808266
 20
29.2864793292
 11
34.0787733059
 21
29.0521043292
 70
160
 71
1
 42
3.0
  1
(<>)
  3
DIMSTYLE_1
100
AcDbAlignedDimension
 13
32.4722705904
 23
29.7896853885
 14
32.5903808266
 24
29.7896853885
100
AcDbRotatedDimension
  0
LINE
  5
31B
100
AcDbEntity
  8
0
100
AcDbLine
 62
2
  6
CONTINUOUS
 10
46.25
 20
3.5
 11
50.75
 21
3.5
  0
LINE
  5
31C
100
AcDbEntity
  8
0
100
AcDbLine
 62
2
  6
CONTINUOUS
 10
46.25
 20
3.5
 11
46.25
 21
2.25
  0
LINE
  5
31D
100
AcDbEntity
  8
0
100
AcDbLine
 62
2
  6
CONTINUOUS
 10
46.25
 20
2.25
 11
50.75
 21
2.25
  0
LINE
  5
31E
100
AcDbEntity
  8
0
100
AcDbLine
 62
2
  6
CONTINUOUS
 10
50.75
 20
3.5
 11
50.75
 21
2.25
  0
LINE
  5
31F
100
AcDbEntity
  8
0
100
AcDbLine
 62
2
  6
CONTINUOUS
 10
46.25
 20
2.25
 11
50.75
 21
2.25
  0
LINE
  5
320
100
AcDbEntity
  8
0
100
AcDbLine
 62
2
  6
CONTINUOUS
 10
46.25
 20
2.25
 11
46.25
 21
1.0
  0
LINE
  5
321
100
AcDbEntity
  8
0
100
AcDbLine
 62
2
  6
CONTINUOUS
 10
46.25
 20
1.0
 11
50.75
 21
1.0
  0
LINE
  5
322
100
AcDbEntity
  8
0
100
AcDbLine
 62
2
  6
CONTINUOUS
 10
50.75
 20
2.25
 11
50.75
 21
1.0
  0
LINE
  5
323
100
AcDbEntity
  8
0
100
AcDbLine
 62
2
  6
CONTINUOUS
 10
50.7494219713
 20
6.1234928289
 11
55.9994219713
 21
6.1234928289
  0
LINE
  5
324
100
AcDbEntity
  8
0
100
AcDbLine
 62
2
  6
CONTINUOUS
 10
50.7494219713
 20
6.1234928289
 11
50.7494219713
 21
5.1034928289
  0
LINE
  5
325
100
AcDbEntity
  8
0
100
AcDbLine
 62
2
  6
CONTINUOUS
 10
50.7494219713
 20
5.1034928289
 11
55.9994219713
 21
5.1034928289
  0
LINE
  5
326
100
AcDbEntity
  8
0
100
AcDbLine
 62
2
  6
CONTINUOUS
 10
55.9994219713
 20
6.1234928289
 11
55.9994219713
 21
5.1034928289
  0
MTEXT
  5
327
100
AcDbEntity
  8
0
100
AcDbMText
 62
2
  6
CONTINUOUS
  7
STANDARD
 71
1
 72
1
 10
50.8744219713
 20
5.5722428289
 30
0.0
 11
1.0
 21
0.0
 31
0.0
 44
0.9
  1
ENGINEERING SERVICES
 40
0.3125
 41
7.1316964286
  0
LINE
  5
328
100
AcDbEntity
  8
0
100
AcDbLine
 62
2
  6
CONTINUOUS
 10
50.75
 20
5.0922730768
 11
56.0
 21
5.0922730768
  0
LINE
  5
329
100
AcDbEntity
  8
0
100
AcDbLine
 62
2
  6
CONTINUOUS
 10
50.75
 20
5.0922730768
 11
50.75
 21
4.0722730768
  0
LINE
  5
32A
100
AcDbEntity
  8
0
100
AcDbLine
 62
2
  6
CONTINUOUS
 10
50.75
 20
4.0722730768
 11
56.0
 21
4.0722730768
  0
LINE
  5
32B
100
AcDbEntity
  8
0
100
AcDbLine
 62
2
  6
CONTINUOUS
 10
56.0
 20
5.0922730768
 11
56.0
 21
4.0722730768
  0
LINE
  5
32C
100
AcDbEntity
  8
0
100
AcDbLine
 62
2
  6
CONTINUOUS
 10
50.75
 20
4.0475990231
 11
56.0
 21
4.0475990231
  0
LINE
  5
32D
100
AcDbEntity
  8
0
100
AcDbLine
 62
2
  6
CONTINUOUS
 10
50.75
 20
4.0475990231
 11
50.75
 21
3.0275990231
  0
LINE
  5
32E
100
AcDbEntity
  8
0
100
AcDbLine
 62
2
  6
CONTINUOUS
 10
50.75
 20
3.0275990231
 11
56.0
 21
3.0275990231
  0
LINE
  5
32F
100
AcDbEntity
  8
0
100
AcDbLine
 62
2
  6
CONTINUOUS
 10
56.0
 20
4.0475990231
 11
56.0
 21
3.0275990231
  0
LINE
  5
330
100
AcDbEntity
  8
0
100
AcDbLine
 62
2
  6
CONTINUOUS
 10
50.75
 20
2.9999312041
 11
56.0
 21
2.9999312041
  0
LINE
  5
331
100
AcDbEntity
  8
0
100
AcDbLine
 62
2
  6
CONTINUOUS
 10
50.75
 20
2.9999312041
 11
50.75
 21
1.9799312041
  0
LINE
  5
332
100
AcDbEntity
  8
0
100
AcDbLine
 62
2
  6
CONTINUOUS
 10
50.75
 20
1.9799312041
 11
56.0
 21
1.9799312041
  0
LINE
  5
333
100
AcDbEntity
  8
0
100
AcDbLine
 62
2
  6
CONTINUOUS
 10
56.0
 20
2.9999312041
 11
56.0
 21
1.9799312041
  0
LINE
  5
334
100
AcDbEntity
  8
0
100
AcDbLine
 62
2
  6
CONTINUOUS
 10
50.75
 20
2.0
 11
56.0
 21
2.0
  0
LINE
  5
335
100
AcDbEntity
  8
0
100
AcDbLine
 62
2
  6
CONTINUOUS
 10
50.75
 20
2.0
 11
50.75
 21
1.5
  0
LINE
  5
336
100
AcDbEntity
  8
0
100
AcDbLine
 62
2
  6
CONTINUOUS
 10
50.75
 20
1.5
 11
56.0
 21
1.5
  0
LINE
  5
337
100
AcDbEntity
  8
0
100
AcDbLine
 62
2
  6
CONTINUOUS
 10
56.0
 20
2.0
 11
56.0
 21
1.5
  0
MTEXT
  5
338
100
AcDbEntity
  8
0
100
AcDbMText
 62
2
  6
CONTINUOUS
  7
STANDARD
 71
3
 72
1
 10
55.875
 20
1.87625
 30
0.0
 11
1.0
 21
0.0
 31
0.0
 44
0.9
  1
FG-000507-XX-2D.A.2
 40
0.22
 41
4.7771428571
  0
LINE
  5
339
100
AcDbEntity
  8
0
100
AcDbLine
 62
2
  6
CONTINUOUS
 10
50.75
 20
1.5
 11
56.0
 21
1.5
  0
LINE
  5
33A
100
AcDbEntity
  8
0
100
AcDbLine
 62
2
  6
CONTINUOUS
 10
50.75
 20
1.5
 11
50.75
 21
1.0
  0
LINE
  5
33B
100
AcDbEntity
  8
0
100
AcDbLine
 62
2
  6
CONTINUOUS
 10
50.75
 20
1.0
 11
56.0
 21
1.0
  0
LINE
  5
33C
100
AcDbEntity
  8
0
100
AcDbLine
 62
2
  6
CONTINUOUS
 10
56.0
 20
1.5
 11
56.0
 21
1.0
  0
MTEXT
  5
33D
100
AcDbEntity
  8
0
100
AcDbMText
 62
2
  6
CONTINUOUS
  7
STANDARD
 71
3
 72
1
 10
55.875
 20
1.37625
 30
0.0
 11
1.0
 21
0.0
 31
0.0
 44
0.9
  1
FG-000507-XX-3D.A.2
 40
0.22
 41
4.7535714286
  0
LINE
  5
33E
100
AcDbEntity
  8
0
100
AcDbLine
 62
2
  6
CONTINUOUS
 10
56.0
 20
4.75
 11
66.0
 21
4.75
  0
LINE
  5
33F
100
AcDbEntity
  8
0
100
AcDbLine
 62
2
  6
CONTINUOUS
 10
56.0
 20
4.75
 11
56.0
 21
2.5
  0
LINE
  5
340
100
AcDbEntity
  8
0
100
AcDbLine
 62
2
  6
CONTINUOUS
 10
56.0
 20
2.5
 11
66.0
 21
2.5
  0
LINE
  5
341
100
AcDbEntity
  8
0
100
AcDbLine
 62
2
  6
CONTINUOUS
 10
66.0
 20
4.75
 11
66.0
 21
2.5
  0
MTEXT
  5
342
100
AcDbEntity
  8
0
100
AcDbMText
 62
2
  6
CONTINUOUS
  7
STANDARD
 71
2
 72
1
 10
61.0
 20
3.895
 30
0.0
 11
1.0
 21
0.0
 31
0.0
 44
1.02
  1
E10YM, FINISHED
 40
0.4
 41
6.7857142857
  0
LINE
  5
343
100
AcDbEntity
  8
0
100
AcDbLine
 62
2
  6
CONTINUOUS
 10
56.0021846059
 20
2.495880935
 11
57.0021846059
 21
2.495880935
  0
LINE
  5
344
100
AcDbEntity
  8
0
100
AcDbLine
 62
2
  6
CONTINUOUS
 10
56.0021846059
 20
2.495880935
 11
56.0021846059
 21
1.495880935
  0
LINE
  5
345
100
AcDbEntity
  8
0
100
AcDbLine
 62
2
  6
CONTINUOUS
 10
56.0021846059
 20
1.495880935
 11
57.0021846059
 21
1.495880935
  0
LINE
  5
346
100
AcDbEntity
  8
0
100
AcDbLine
 62
2
  6
CONTINUOUS
 10
57.0021846059
 20
2.495880935
 11
57.0021846059
 21
1.495880935
  0
MTEXT
  5
347
100
AcDbEntity
  8
0
100
AcDbMText
 62
2
  6
CONTINUOUS
  7
STANDARD
 71
2
 72
1
 10
56.5021846059
 20
2.052130935
 30
0.0
 11
1.0
 21
0.0
 31
0.0
 44
0.9
  1
D
 40
0.4
 41
0.5428571429
  0
LINE
  5
348
100
AcDbEntity
  8
0
100
AcDbLine
 62
2
  6
CONTINUOUS
 10
59.0010349952
 20
2.4899491782
 11
65.0010349952
 21
2.4899491782
  0
LINE
  5
349
100
AcDbEntity
  8
0
100
AcDbLine
 62
2
  6
CONTINUOUS
 10
59.0010349952
 20
2.4899491782
 11
59.0010349952
 21
1.4899491782
  0
LINE
  5
34A
100
AcDbEntity
  8
0
100
AcDbLine
 62
2
  6
CONTINUOUS
 10
59.0010349952
 20
1.4899491782
 11
65.0010349952
 21
1.4899491782
  0
LINE
  5
34B
100
AcDbEntity
  8
0
100
AcDbLine
 62
2
  6
CONTINUOUS
 10
65.0010349952
 20
2.4899491782
 11
65.0010349952
 21
1.4899491782
  0
MTEXT
  5
34C
100
AcDbEntity
  8
0
100
AcDbMText
 62
2
  6
CONTINUOUS
  7
STANDARD
 71
2
 72
1
 10
62.0010349952
 20
2.1061991782
 30
0.0
 11
1.0
 21
0.0
 31
0.0
 44
0.9
  1
FG-000507-XX-2D
 40
0.46
 41
8.0664285714
  0
LINE
  5
34D
100
AcDbEntity
  8
0
100
AcDbLine
 62
2
  6
CONTINUOUS
 10
64.9973997925
 20
2.4965756452
 11
65.9973997925
 21
2.4965756452
  0
LINE
  5
34E
100
AcDbEntity
  8
0
100
AcDbLine
 62
2
  6
CONTINUOUS
 10
64.9973997925
 20
2.4965756452
 11
64.9973997925
 21
1.4965756452
  0
LINE
  5
34F
100
AcDbEntity
  8
0
100
AcDbLine
 62
2
  6
CONTINUOUS
 10
64.9973997925
 20
1.4965756452
 11
65.9973997925
 21
1.4965756452
  0
LINE
  5
350
100
AcDbEntity
  8
0
100
AcDbLine
 62
2
  6
CONTINUOUS
 10
65.9973997925
 20
2.4965756452
 11
65.9973997925
 21
1.4965756452
  0
MTEXT
  5
351
100
AcDbEntity
  8
0
100
AcDbMText
 62
2
  6
CONTINUOUS
  7
STANDARD
 71
2
 72
1
 10
65.4973997925
 20
2.0128256452
 30
0.0
 11
1.0
 21
0.0
 31
0.0
 44
0.9
  1
A
 40
0.36
 41
0.4628571429
  0
LINE
  5
352
100
AcDbEntity
  8
0
100
AcDbLine
 62
2
  6
CONTINUOUS
 10
62.7512412387
 20
1.4858577673
 11
66.0012412387
 21
1.4858577673
  0
LINE
  5
353
100
AcDbEntity
  8
0
100
AcDbLine
 62
2
  6
CONTINUOUS
 10
62.7512412387
 20
1.4858577673
 11
62.7512412387
 21
0.9858577673
  0
LINE
  5
354
100
AcDbEntity
  8
0
100
AcDbLine
 62
2
  6
CONTINUOUS
 10
62.7512412387
 20
0.9858577673
 11
66.0012412387
 21
0.9858577673
  0
LINE
  5
355
100
AcDbEntity
  8
0
100
AcDbLine
 62
2
  6
CONTINUOUS
 10
66.0012412387
 20
1.4858577673
 11
66.0012412387
 21
0.9858577673
  0
MTEXT
  5
356
100
AcDbEntity
  8
0
100
AcDbMText
 62
2
  6
CONTINUOUS
  7
STANDARD
 71
3
 72
1
 10
65.8762412387
 20
1.4221077673
 30
0.0
 11
1.0
 21
0.0
 31
0.0
 44
0.9
  1
1 OF 1
 40
0.28
 41
1.77
  0
LINE
  5
357
100
AcDbEntity
  8
0
100
AcDbLine
 62
2
  6
CONTINUOUS
 10
55.9965196242
 20
1.4976464338
 11
58.3725196242
 21
1.4976464338
  0
LINE
  5
358
100
AcDbEntity
  8
0
100
AcDbLine
 62
2
  6
CONTINUOUS
 10
55.9965196242
 20
1.4976464338
 11
55.9965196242
 21
0.9898339338
  0
LINE
  5
359
100
AcDbEntity
  8
0
100
AcDbLine
 62
2
  6
CONTINUOUS
 10
55.9965196242
 20
0.9898339338
 11
58.3725196242
 21
0.9898339338
  0
LINE
  5
35A
100
AcDbEntity
  8
0
100
AcDbLine
 62
2
  6
CONTINUOUS
 10
58.3725196242
 20
1.4976464338
 11
58.3725196242
 21
0.9898339338
  0
MTEXT
  5
35B
100
AcDbEntity
  8
0
100
AcDbMText
 62
2
  6
CONTINUOUS
  7
STANDARD
 71
3
 72
1
 10
58.2475196242
 20
1.3860839338
 30
0.0
 11
1.0
 21
0.0
 31
0.0
 44
0.9
  1
0.500
 40
0.24
 41
1.3114285714
  0
LWPOLYLINE
  5
35C
100
AcDbEntity
  8
0
100
AcDbPolyline
 62
2
  6
CONTINUOUS
 90
2
 70
0
 43
0.04
 10
66.0175961538
 20
42.9856113022
 10
45.8525961538
 20
42.9856113022
  0
LWPOLYLINE
  5
35D
100
AcDbEntity
  8
0
100
AcDbPolyline
 62
2
  6
CONTINUOUS
 90
2
 70
0
 43
0.04
 10
65.9975961538
 20
42.9856113022
 10
65.9975961538
 20
39.8606113022
  0
LWPOLYLINE
  5
35E
100
AcDbEntity
  8
0
100
AcDbPolyline
 62
2
  6
CONTINUOUS
 90
2
 70
0
 43
0.04
 10
65.9975961538
 20
42.3606113022
 10
45.8725961538
 20
42.3606113022
  0
LWPOLYLINE
  5
35F
100
AcDbEntity
  8
0
100
AcDbPolyline
 62
2
  6
CONTINUOUS
 90
2
 70
0
 43
0.04
 10
65.9975961538
 20
41.7356113022
 10
45.8725961538
 20
41.7356113022
  0
LWPOLYLINE
  5
360
100
AcDbEntity
  8
0
100
AcDbPolyline
 62
2
  6
CONTINUOUS
 90
2
 70
0
 43
0.04
 10
65.9975961538
 20
41.1106113022
 10
45.8725961538
 20
41.1106113022
  0
LWPOLYLINE
  5
361
100
AcDbEntity
  8
0
100
AcDbPolyline
 62
2
  6
CONTINUOUS
 90
2
 70
0
 43
0.04
 10
65.9975961538
 20
40.4856113022
 10
45.8725961538
 20
40.4856113022
  0
LWPOLYLINE
  5
362
100
AcDbEntity
  8
0
100
AcDbPolyline
 62
2
  6
CONTINUOUS
 90
2
 70
0
 43
0.04
 10
66.0175961538
 20
39.8606113022
 10
45.8525961538
 20
39.8606113022
  0
LWPOLYLINE
  5
363
100
AcDbEntity
  8
0
100
AcDbPolyline
 62
2
  6
CONTINUOUS
 90
2
 70
0
 43
0.04
 10
63.4975961538
 20
42.3606113022
 10
63.4975961538
 20
39.8606113022
  0
LWPOLYLINE
  5
364
100
AcDbEntity
  8
0
100
AcDbPolyline
 62
2
  6
CONTINUOUS
 90
2
 70
0
 43
0.04
 10
62.4975961538
 20
42.3606113022
 10
62.4975961538
 20
39.8606113022
  0
LWPOLYLINE
  5
365
100
AcDbEntity
  8
0
100
AcDbPolyline
 62
2
  6
CONTINUOUS
 90
2
 70
0
 43
0.04
 10
46.8725961538
 20
42.3606113022
 10
46.8725961538
 20
39.8606113022
  0
LWPOLYLINE
  5
366
100
AcDbEntity
  8
0
100
AcDbPolyline
 62
2
  6
CONTINUOUS
 90
2
 70
0
 43
0.04
 10
45.8725961538
 20
42.9856113022
 10
45.8725961538
 20
39.8606113022
  0
MTEXT
  5
367
100
AcDbEntity
  8
0
100
AcDbMText
 62
2
  6
CONTINUOUS
  7
STANDARD
 71
2
 72
1
 10
55.9350961538
 20
42.8293613022
 30
0.0
 11
1.0
 21
0.0
 31
0.0
 44
0.9
  1
REVISIONS
 40
0.3125
 41
3.1696428571
  0
MTEXT
  5
368
100
AcDbEntity
  8
0
100
AcDbMText
 62
2
  6
CONTINUOUS
  7
STANDARD
 71
2
 72
1
 10
64.7475961538
 20
42.2043613022
 30
0.0
 11
1.0
 21
0.0
 31
0.0
 44
0.9
  1
 DATE 
 40
0.3125
 41
2.2991071429
  0
MTEXT
  5
369
100
AcDbEntity
  8
0
100
AcDbMText
 62
2
  6
CONTINUOUS
  7
STANDARD
 71
2
 72
1
 10
62.9975961538
 20
42.2043613022
 30
0.0
 11
1.0
 21
0.0
 31
0.0
 44
0.9
  1
BY
 40
0.3125
 41
0.7700892857
  0
MTEXT
  5
36A
100
AcDbEntity
  8
0
100
AcDbMText
 62
2
  6
CONTINUOUS
  7
STANDARD
 71
2
 72
1
 10
54.6850961538
 20
42.2043613022
 30
0.0
 11
1.0
 21
0.0
 31
0.0
 44
0.9
  1
DESCRIPTION
 40
0.3125
 41
3.9955357143
  0
MTEXT
  5
36B
100
AcDbEntity
  8
0
100
AcDbMText
 62
2
  6
CONTINUOUS
  7
STANDARD
 71
2
 72
1
 10
46.3725961538
 20
42.2043613022
 30
0.0
 11
1.0
 21
0.0
 31
0.0
 44
0.9
  1
REV
 40
0.3125
 41
1.09375
  0
MTEXT
  5
36C
100
AcDbEntity
  8
0
100
AcDbMText
 62
2
  6
CONTINUOUS
  7
STANDARD
 71
2
 72
1
 10
64.7475961538
 20
41.5793613022
 30
0.0
 11
1.0
 21
0.0
 31
0.0
 44
0.9
  1
15-AUG-16
 40
0.3125
 41
3.1361607143
  0
MTEXT
  5
36D
100
AcDbEntity
  8
0
100
AcDbMText
 62
2
  6
CONTINUOUS
  7
STANDARD
 71
2
 72
1
 10
62.9975961538
 20
41.5793613022
 30
0.0
 11
1.0
 21
0.0
 31
0.0
 44
0.9
  1
ES
 40
0.3125
 41
0.7924107143
  0
MTEXT
  5
36E
100
AcDbEntity
  8
0
100
AcDbMText
 62
2
  6
CONTINUOUS
  7
STANDARD
 71
1
 72
1
 10
46.9975961538
 20
41.5793613022
 30
0.0
 11
1.0
 21
0.0
 31
0.0
 44
0.9
  1
RELEASE FOR SALES AND MARKETING
 40
0.3125
 41
11.3616071429
  0
MTEXT
  5
36F
100
AcDbEntity
  8
0
100
AcDbMText
 62
2
  6
CONTINUOUS
  7
STANDARD
 71
2
 72
1
 10
46.3725961538
 20
41.5793613022
 30
0.0
 11
1.0
 21
0.0
 31
0.0
 44
0.9
  1
A
 40
0.3125
 41
0.4910714286
  0
MTEXT
  5
370
100
AcDbEntity
  8
0
100
AcDbMText
 62
2
  6
CONTINUOUS
  7
STANDARD
 71
1
 72
1
 10
1.5043038114
 20
5.6168536906
 30
0.0
 11
1.0
 21
0.0
 31
0.0
 44
0.9
  3
 4. PARTS ARE SYMMETRICAL ABOUT CENTER LINES UNLESS OTHERWISE NOTED. \P \P 3. DIMENSIONS ARE IN MILLIMETERS [INCH].\P \P 2. TOLERANCES (MM): X \Fgdt;{\Fgdt;`}\Ftxt; 3. ANGLES \Fgdt;{\Fgdt;`}\Ftxt; 1\Fgdt;{\Fgdt;~}\Ftxt;.\P \P 1. NET WEIGHT APPROX. 6.
  1
4 LBS (2.90 KG)\P \PNOTE: UNLESS OTHERWISE SPECIFIED
 40
0.3125
 41
25.4084821429
  0
MTEXT
  5
371
100
AcDbEntity
  8
0
100
AcDbMText
 62
2
  6
CONTINUOUS
  7
STANDARD
 71
3
 72
1
 10
57.2140399964
 20
27.9954005335
 30
0.0
 11
1.0
 21
0.0
 31
0.0
 44
0.9
  1
SCALE  0.300
 40
0.3125
 41
4.2410714286
  0
MTEXT
  5
372
100
AcDbEntity
  8
0
100
AcDbMText
 62
2
  6
CONTINUOUS
  7
TEXTSTYLE_1
 71
1
 72
1
 10
20.907379004
 20
16.6988667669
 30
0.0
 11
1.0
 21
0.0
 31
0.0
 44
0.9
  1
{\Fgdt;q}
 40
0.3125
 41
0.4947916667
  0
MTEXT
  5
373
100
AcDbEntity
  8
0
100
AcDbMText
 62
2
  6
CONTINUOUS
  7
TEXTSTYLE_1
 71
1
 72
1
 10
33.2071274817
 20
19.8873596264
 30
0.0
 11
1.0
 21
0.0
 31
0.0
 44
0.9
  1
{\Fgdt;q}
 40
0.3125
 41
0.4947916667
  0
LEADER
  5
374
100
AcDbEntity
  8
0
100
AcDbLeader
 62
2
  6
CONTINUOUS
  3
STANDARD
 71
1
 72
0
 73
0
 75
0
 40
0.3125
 41
0.818452381
 76
3
 10
29.2193145713
 20
20.7815621838
 30
0.0
 10
29.9646896681
 20
23.2369208183
 30
0.0
 10
30.4646896681
 20
23.2369208183
 30
0.0
340
375
1001
ACAD
1000
DSTYLE
1002
{
1070
77
1070
0
1002
}
  0
MTEXT
  5
375
102
{ACAD_REACTORS
330
374
102
}
100
AcDbEntity
  8
0
100
AcDbMText
 62
2
  6
CONTINUOUS
  7
STANDARD
 71
1
 72
1
 10
30.4646896681
 20
23.3931708183
 30
0.0
 11
1.0
 21
0.0
 31
0.0
 44
0.9
  1
4X 8,4{\Ftxt.shx;\W0.714286;\H0.312500; } X33,8{\Ftxt.shx;\W0.642857;\H0.312500; } SLOT\P[.33]{\Ftxt.shx;\W1.642857;\H0.312500; }[1.33]
 40
0.3125
 41
6.7522321429
  0
LEADER
  5
376
100
AcDbEntity
  8
0
100
AcDbLeader
 62
2
  6
CONTINUOUS
  3
STANDARD
 71
1
 72
0
 73
0
 75
0
 40
0.3125
 41
0.818452381
 76
3
 10
26.1277746362
 20
19.9463259633
 30
0.0
 10
27.4088545873
 20
24.5424695279
 30
0.0
 10
27.9088545873
 20
24.5424695279
 30
0.0
340
377
1001
ACAD
1000
DSTYLE
1002
{
1070
77
1070
0
1002
}
  0
MTEXT
  5
377
102
{ACAD_REACTORS
330
376
102
}
100
AcDbEntity
  8
0
100
AcDbMText
 62
2
  6
CONTINUOUS
  7
STANDARD
 71
1
 72
1
 10
27.9088545873
 20
24.6987195279
 30
0.0
 11
1.0
 21
0.0
 31
0.0
 44
0.9
  1
2X 11,0{\Ftxt.shx;\W0.428571;\H0.312500; } X 18,0{\Ftxt.shx;\W0.071429;\H0.312500; } SLOT\P[.43]{\Ftxt.shx;\W2.428571;\H0.312500; }[.71]
 40
0.3125
 41
6.8526785714
  0
MTEXT
  5
378
100
AcDbEntity
  8
0
100
AcDbMText
 62
2
  6
CONTINUOUS
  7
TEXTSTYLE_1
 71
1
 72
1
 10
48.290313723
 20
19.8751938148
 30
0.0
 11
1.0
 21
0.0
 31
0.0
 44
0.9
  1
{\Fgdt;q}
 40
0.3125
 41
0.4947916667
  0
LINE
  5
379
100
AcDbEntity
  8
DEFAULT_3
100
AcDbLine
 62
7
  6
PHANTOM
 10
0.0
 20
-0.0
 11
0.0
 21
44.0
  0
LWPOLYLINE
  5
37A
100
AcDbEntity
  8
0
100
AcDbPolyline
 62
7
  6
CONTINUOUS
 90
2
 70
0
 43
0.0400000017
 10
0.5249254442
 20
21.6626902213
 10
0.5249254442
 20
22.3373097787
  0
LWPOLYLINE
  5
37B
100
AcDbEntity
  8
0
100
AcDbPolyline
 62
7
  6
CONTINUOUS
 90
2
 70
0
 43
0.0600000005
 10
1.0
 20
43.0
 10
1.0
 20
1.0
  0
LWPOLYLINE
  5
37C
100
AcDbEntity
  8
0
100
AcDbPolyline
 62
7
  6
CONTINUOUS
 90
2
 70
0
 43
0.0600000005
 10
7.125
 20
43.0
 10
7.125
 20
42.0
  0
LWPOLYLINE
  5
37D
100
AcDbEntity
  8
0
100
AcDbPolyline
 62
7
  6
CONTINUOUS
 90
2
 70
0
 43
0.0400000017
 10
9.125
 20
1.0
 10
9.125
 20
-0.0
  0
LWPOLYLINE
  5
37E
100
AcDbEntity
  8
0
100
AcDbPolyline
 62
7
  6
CONTINUOUS
 90
2
 70
0
 43
0.0400000017
 10
9.125
 20
43.0
 10
9.125
 20
44.0
  0
LINE
  5
37F
100
AcDbEntity
  8
0
100
AcDbLine
 62
7
  6
CONTINUOUS
 10
46.2533851578
 20
1.019286629
 11
50.7527319155
 21
2.2505281372
  0
LINE
  5
380
100
AcDbEntity
  8
0
100
AcDbLine
 62
7
  6
CONTINUOUS
 10
46.2493366395
 20
2.2549832928
 11
50.7486833973
 21
3.486224801
  0
LINE
  5
381
100
AcDbEntity
  8
DEFAULT_3
100
AcDbLine
 62
7
  6
PHANTOM
 10
0.0
 20
-0.0
 11
68.0
 21
-0.0
  0
LWPOLYLINE
  5
382
100
AcDbEntity
  8
0
100
AcDbPolyline
 62
7
  6
CONTINUOUS
 90
2
 70
0
 43
0.0400000017
 10
33.1626902213
 20
0.5249254442
 10
33.8373097787
 20
0.5249254442
  0
LWPOLYLINE
  5
383
100
AcDbEntity
  8
0
100
AcDbPolyline
 62
7
  6
CONTINUOUS
 90
2
 70
0
 43
0.0400000017
 10
1.0
 20
22.0
 10
0.5249254442
 20
21.6626902213
  0
LWPOLYLINE
  5
384
100
AcDbEntity
  8
0
100
AcDbPolyline
 62
7
  6
CONTINUOUS
 90
2
 70
0
 43
0.0600000005
 10
1.0
 20
1.0
 10
66.0
 20
1.0
  0
LWPOLYLINE
  5
385
100
AcDbEntity
  8
0
100
AcDbPolyline
 62
7
  6
CONTINUOUS
 90
2
 70
0
 43
0.0400000017
 10
50.75
 20
1.5
 10
66.0
 20
1.5
  0
LWPOLYLINE
  5
386
100
AcDbEntity
  8
0
100
AcDbPolyline
 62
7
  6
CONTINUOUS
 90
2
 70
0
 43
0.0400000017
 10
50.75
 20
2.0
 10
56.0
 20
2.0
  0
LWPOLYLINE
  5
387
100
AcDbEntity
  8
0
100
AcDbPolyline
 62
7
  6
CONTINUOUS
 90
2
 70
0
 43
0.0400000017
 10
50.75
 20
2.25
 10
46.25
 20
2.25
  0
LWPOLYLINE
  5
388
100
AcDbEntity
  8
0
100
AcDbPolyline
 62
7
  6
CONTINUOUS
 90
2
 70
0
 43
0.0400000017
 10
56.0
 20
2.5
 10
66.0
 20
2.5
  0
LWPOLYLINE
  5
389
100
AcDbEntity
  8
0
100
AcDbPolyline
 62
7
  6
CONTINUOUS
 90
2
 70
0
 43
0.0400000017
 10
50.7631388334
 20
3.0234706899
 10
56.0131388334
 20
3.0234706899
  0
LWPOLYLINE
  5
38A
100
AcDbEntity
  8
0
100
AcDbPolyline
 62
7
  6
CONTINUOUS
 90
2
 70
0
 43
0.0400000017
 10
1.0
 20
22.0
 10
0.5249254442
 20
22.3373097787
  0
LWPOLYLINE
  5
38B
100
AcDbEntity
  8
0
100
AcDbPolyline
 62
7
  6
CONTINUOUS
 90
2
 70
0
 43
0.0400000017
 10
17.25
 20
1.0
 10
17.25
 20
-0.0
  0
LWPOLYLINE
  5
38C
100
AcDbEntity
  8
0
100
AcDbPolyline
 62
7
  6
CONTINUOUS
 90
2
 70
0
 43
0.0400000017
 10
17.25
 20
43.0
 10
17.25
 20
44.0
  0
LWPOLYLINE
  5
38D
100
AcDbEntity
  8
0
100
AcDbPolyline
 62
7
  6
CONTINUOUS
 90
2
 70
0
 43
0.0400000017
 10
46.25
 20
3.5
 10
50.75
 20
3.5
  0
LWPOLYLINE
  5
38E
100
AcDbEntity
  8
0
100
AcDbPolyline
 62
7
  6
CONTINUOUS
 90
2
 70
0
 43
0.0400000017
 10
50.7658862143
 20
4.0518380709
 10
56.0158862143
 20
4.0518380709
  0
LWPOLYLINE
  5
38F
100
AcDbEntity
  8
0
100
AcDbPolyline
 62
7
  6
CONTINUOUS
 90
2
 70
0
 43
0.0400000017
 10
56.0
 20
4.75
 10
66.0
 20
4.75
  0
LWPOLYLINE
  5
390
100
AcDbEntity
  8
0
100
AcDbPolyline
 62
7
  6
CONTINUOUS
 90
2
 70
0
 43
0.0400000017
 10
50.75
 20
5.115059657
 10
56.0
 20
5.115059657
  0
LWPOLYLINE
  5
391
100
AcDbEntity
  8
0
100
AcDbPolyline
 62
7
  6
CONTINUOUS
 90
2
 70
0
 43
0.0400000017
 10
46.25
 20
6.125
 10
66.0
 20
6.125
  0
LWPOLYLINE
  5
392
100
AcDbEntity
  8
0
100
AcDbPolyline
 62
7
  6
CONTINUOUS
 90
2
 70
0
 43
0.0400000017
 10
33.5
 20
43.0
 10
33.8373097787
 20
43.4750745558
  0
LWPOLYLINE
  5
393
100
AcDbEntity
  8
0
100
AcDbPolyline
 62
7
  6
CONTINUOUS
 90
2
 70
0
 43
0.0400000017
 10
33.5
 20
1.0
 10
33.8373097787
 20
0.5249254442
  0
LWPOLYLINE
  5
394
100
AcDbEntity
  8
0
100
AcDbPolyline
 62
7
  6
CONTINUOUS
 90
2
 70
0
 43
0.0400000017
 10
1.0
 20
11.5
 10
0.0
 20
11.5
  0
LWPOLYLINE
  5
395
100
AcDbEntity
  8
0
100
AcDbPolyline
 62
7
  6
CONTINUOUS
 90
2
 70
0
 43
0.0400000017
 10
66.0131877017
 20
11.5016820819
 10
67.0131877017
 20
11.5016820819
  0
LWPOLYLINE
  5
396
100
AcDbEntity
  8
0
100
AcDbPolyline
 62
7
  6
CONTINUOUS
 90
2
 70
0
 43
0.0400000017
 10
25.375
 20
1.0
 10
25.375
 20
-0.0
  0
LWPOLYLINE
  5
397
100
AcDbEntity
  8
0
100
AcDbPolyline
 62
7
  6
CONTINUOUS
 90
2
 70
0
 43
0.0400000017
 10
25.375
 20
43.0
 10
25.375
 20
44.0
  0
LINE
  5
398
100
AcDbEntity
  8
0
100
AcDbLine
 62
7
  6
CONTINUOUS
 10
46.2607599676
 20
6.1095017422
 11
50.7399999583
 21
3.514504063
  0
LWPOLYLINE
  5
399
100
AcDbEntity
  8
0
100
AcDbPolyline
 62
7
  6
CONTINUOUS
 90
2
 70
0
 43
0.0400000017
 10
33.5
 20
1.0
 10
33.5
 20
-0.0
  0
LWPOLYLINE
  5
39A
100
AcDbEntity
  8
0
100
AcDbPolyline
 62
7
  6
CONTINUOUS
 90
2
 70
0
 43
0.0400000017
 10
33.5
 20
43.0
 10
33.5
 20
44.0
  0
LWPOLYLINE
  5
39B
100
AcDbEntity
  8
0
100
AcDbPolyline
 62
7
  6
CONTINUOUS
 90
2
 70
0
 43
0.0400000017
 10
1.0
 20
22.0
 10
-0.0
 20
22.0
  0
LWPOLYLINE
  5
39C
100
AcDbEntity
  8
0
100
AcDbPolyline
 62
7
  6
CONTINUOUS
 90
2
 70
0
 43
0.0400000017
 10
66.0021586919
 20
22.0027195963
 10
67.0021586919
 20
22.0027195963
  0
LWPOLYLINE
  5
39D
100
AcDbEntity
  8
0
100
AcDbPolyline
 62
7
  6
CONTINUOUS
 90
2
 70
0
 43
0.0400000017
 10
41.625
 20
1.0
 10
41.625
 20
-0.0
  0
LWPOLYLINE
  5
39E
100
AcDbEntity
  8
0
100
AcDbPolyline
 62
7
  6
CONTINUOUS
 90
2
 70
0
 43
0.0400000017
 10
41.625
 20
43.0
 10
41.625
 20
44.0
  0
LWPOLYLINE
  5
39F
100
AcDbEntity
  8
0
100
AcDbPolyline
 62
7
  6
CONTINUOUS
 90
2
 70
0
 43
0.0400000017
 10
33.5
 20
1.0
 10
33.1626902213
 20
0.5249254442
  0
LWPOLYLINE
  5
3A0
100
AcDbEntity
  8
0
100
AcDbPolyline
 62
7
  6
CONTINUOUS
 90
2
 70
0
 43
0.0400000017
 10
1.0
 20
32.5
 10
0.0
 20
32.5
  0
LWPOLYLINE
  5
3A1
100
AcDbEntity
  8
0
100
AcDbPolyline
 62
7
  6
CONTINUOUS
 90
2
 70
0
 43
0.0400000017
 10
66.0
 20
32.5
 10
67.0
 20
32.5
  0
LWPOLYLINE
  5
3A2
100
AcDbEntity
  8
0
100
AcDbPolyline
 62
7
  6
CONTINUOUS
 90
2
 70
0
 43
0.0400000017
 10
33.5
 20
43.0
 10
33.1626902213
 20
43.4750745558
  0
LWPOLYLINE
  5
3A3
100
AcDbEntity
  8
0
100
AcDbPolyline
 62
7
  6
CONTINUOUS
 90
2
 70
0
 43
0.0400000017
 10
46.25
 20
1.0
 10
46.25
 20
6.125
  0
LWPOLYLINE
  5
3A4
100
AcDbEntity
  8
0
100
AcDbPolyline
 62
7
  6
CONTINUOUS
 90
2
 70
0
 43
0.0400000017
 10
49.75
 20
1.0
 10
49.75
 20
-0.0
  0
LWPOLYLINE
  5
3A5
100
AcDbEntity
  8
0
100
AcDbPolyline
 62
7
  6
CONTINUOUS
 90
2
 70
0
 43
0.0400000017
 10
49.75
 20
43.0
 10
49.75
 20
44.0
  0
LWPOLYLINE
  5
3A6
100
AcDbEntity
  8
0
100
AcDbPolyline
 62
7
  6
CONTINUOUS
 90
2
 70
0
 43
0.0400000017
 10
50.75
 20
1.0
 10
50.75
 20
6.125
  0
LWPOLYLINE
  5
3A7
100
AcDbEntity
  8
0
100
AcDbPolyline
 62
7
  6
CONTINUOUS
 90
2
 70
0
 43
0.0400000017
 10
66.0021586919
 20
22.0027195963
 10
66.4772332477
 20
22.340029375
  0
LWPOLYLINE
  5
3A8
100
AcDbEntity
  8
0
100
AcDbPolyline
 62
7
  6
CONTINUOUS
 90
2
 70
0
 43
0.0400000017
 10
66.0021586919
 20
22.0027195963
 10
66.4772332477
 20
21.6654098176
  0
LWPOLYLINE
  5
3A9
100
AcDbEntity
  8
0
100
AcDbPolyline
 62
7
  6
CONTINUOUS
 90
2
 70
0
 43
0.0600000005
 10
7.125
 20
42.0
 10
1.0
 20
42.0
  0
LWPOLYLINE
  5
3AA
100
AcDbEntity
  8
0
100
AcDbPolyline
 62
7
  6
CONTINUOUS
 90
2
 70
0
 43
0.0600000005
 10
66.0
 20
43.0
 10
1.0
 20
43.0
  0
LWPOLYLINE
  5
3AB
100
AcDbEntity
  8
0
100
AcDbPolyline
 62
7
  6
CONTINUOUS
 90
2
 70
0
 43
0.0400000017
 10
33.1626902213
 20
43.4750745558
 10
33.8373097787
 20
43.4750745558
  0
LWPOLYLINE
  5
3AC
100
AcDbEntity
  8
0
100
AcDbPolyline
 62
7
  6
CONTINUOUS
 90
2
 70
0
 43
0.0400000017
 10
56.0
 20
1.0
 10
56.0
 20
6.125
  0
LWPOLYLINE
  5
3AD
100
AcDbEntity
  8
0
100
AcDbPolyline
 62
7
  6
CONTINUOUS
 90
2
 70
0
 43
0.0400000017
 10
57.0
 20
1.5
 10
57.0
 20
2.5
  0
LWPOLYLINE
  5
3AE
100
AcDbEntity
  8
0
100
AcDbPolyline
 62
7
  6
CONTINUOUS
 90
2
 70
0
 43
0.0400000017
 10
57.875
 20
1.0
 10
57.875
 20
-0.0
  0
LWPOLYLINE
  5
3AF
100
AcDbEntity
  8
0
100
AcDbPolyline
 62
7
  6
CONTINUOUS
 90
2
 70
0
 43
0.0400000017
 10
57.875
 20
43.0
 10
57.875
 20
44.0
  0
LINE
  5
3B0
100
AcDbEntity
  8
0
100
AcDbLine
 62
7
  6
CONTINUOUS
 10
46.257450844
 20
3.500230218
 11
50.7473706005
 21
6.1187131268
  0
LINE
  5
3B1
100
AcDbEntity
  8
DEFAULT_3
100
AcDbLine
 62
7
  6
PHANTOM
 10
0.0
 20
44.0
 11
68.0
 21
44.0
  0
LWPOLYLINE
  5
3B2
100
AcDbEntity
  8
0
100
AcDbPolyline
 62
7
  6
CONTINUOUS
 90
2
 70
0
 43
0.0400000017
 10
58.3672579331
 20
1.0095003111
 10
58.3672579331
 20
1.5095003111
  0
LWPOLYLINE
  5
3B3
100
AcDbEntity
  8
0
100
AcDbPolyline
 62
7
  6
CONTINUOUS
 90
2
 70
0
 43
0.0400000017
 10
59.0
 20
1.5
 10
59.0
 20
2.5
  0
LWPOLYLINE
  5
3B4
100
AcDbEntity
  8
0
100
AcDbPolyline
 62
7
  6
CONTINUOUS
 90
2
 70
0
 43
0.0400000017
 10
62.75
 20
1.0
 10
62.75
 20
1.5
  0
LWPOLYLINE
  5
3B5
100
AcDbEntity
  8
0
100
AcDbPolyline
 62
7
  6
CONTINUOUS
 90
2
 70
0
 43
0.0400000017
 10
65.0
 20
1.5
 10
65.0
 20
2.5
  0
LWPOLYLINE
  5
3B6
100
AcDbEntity
  8
0
100
AcDbPolyline
 62
7
  6
CONTINUOUS
 90
2
 70
0
 43
0.0600000005
 10
66.0
 20
43.0
 10
66.0
 20
1.0
  0
LWPOLYLINE
  5
3B7
100
AcDbEntity
  8
0
100
AcDbPolyline
 62
7
  6
CONTINUOUS
 90
2
 70
0
 43
0.0400000017
 10
66.4772332477
 20
21.6654098176
 10
66.4772332477
 20
22.340029375
  0
LINE
  5
3B8
100
AcDbEntity
  8
DEFAULT_3
100
AcDbLine
 62
7
  6
PHANTOM
 10
68.0
 20
-0.0
 11
68.0
 21
44.0
  0
LINE
  5
3B9
100
AcDbEntity
  8
7_ALL_ROUNDS
100
AcDbLine
 62
7
  6
CONTINUOUS
 10
50.9671208709
 20
34.9834322851
 11
50.9671208709
 21
35.3691281829
  0
LINE
  5
3BA
100
AcDbEntity
  8
7_ALL_ROUNDS
100
AcDbLine
 62
7
  6
CONTINUOUS
 10
51.0172308003
 20
34.9544937276
 11
51.0172308003
 21
35.3401896254
  0
LINE
  5
3BB
100
AcDbEntity
  8
0
100
AcDbLine
 62
7
  6
CONTINUOUS
 10
52.4668321572
 20
37.0954923381
 11
52.3323495117
 21
36.9289415148
  0
LINE
  5
3BC
100
AcDbEntity
  8
0
100
AcDbLine
 62
7
  6
CONTINUOUS
 10
52.3912951737
 20
36.9051056058
 11
52.5257778191
 21
37.0716564291
  0
LINE
  5
3BD
100
AcDbEntity
  8
7_ALL_ROUNDS
100
AcDbLine
 62
7
  6
CONTINUOUS
 10
53.5660268647
 20
37.7302788889
 11
52.4668321572
 21
37.0954923381
  0
LINE
  5
3BE
100
AcDbEntity
  8
7_ALL_ROUNDS
100
AcDbLine
 62
7
  6
CONTINUOUS
 10
53.5927521603
 20
37.7109183263
 11
53.8265984974
 21
37.8459649279
  0
LINE
  5
3BF
100
AcDbEntity
  8
7_ALL_ROUNDS
100
AcDbLine
 62
7
  6
CONTINUOUS
 10
52.5257778191
 20
37.0716564291
 11
53.5927521603
 21
37.6878356713
  0
LINE
  5
3C0
100
AcDbEntity
  8
7_ALL_ROUNDS
100
AcDbLine
 62
7
  6
CONTINUOUS
 10
52.3323495117
 20
36.9289415148
 11
51.6352532626
 21
36.5263674116
  0
LINE
  5
3C1
100
AcDbEntity
  8
7_ALL_ROUNDS
100
AcDbLine
 62
7
  6
CONTINUOUS
 10
51.6853631919
 20
36.4974288541
 11
52.3912951737
 21
36.9051056058
  0
LINE
  5
3C2
100
AcDbEntity
  8
0
100
AcDbLine
 62
7
  6
CONTINUOUS
 10
61.9986430861
 20
29.4181633527
 11
62.28704205
 21
29.4958272771
  0
LINE
  5
3C3
100
AcDbEntity
  8
0
100
AcDbLine
 62
7
  6
CONTINUOUS
 10
52.3912951737
 20
34.9766261168
 11
52.3912951737
 21
36.9051056058
  0
LINE
  5
3C4
100
AcDbEntity
  8
0
100
AcDbLine
 62
7
  6
CONTINUOUS
 10
52.5257778191
 20
35.1431769401
 11
52.5257778191
 21
37.0716564291
  0
LINE
  5
3C5
100
AcDbEntity
  8
0
100
AcDbLine
 62
7
  6
CONTINUOUS
 10
52.3912951737
 20
34.9766261168
 11
52.5257778191
 21
35.1431769401
  0
LINE
  5
3C6
100
AcDbEntity
  8
0
100
AcDbLine
 62
7
  6
CONTINUOUS
 10
53.5927521603
 20
37.7109183263
 11
53.5927521603
 21
37.5951868267
  0
LINE
  5
3C7
100
AcDbEntity
  8
0
100
AcDbLine
 62
7
  6
CONTINUOUS
 10
53.5927521603
 20
35.493166914
 11
53.5927521603
 21
35.3774354144
  0
LINE
  5
3C8
100
AcDbEntity
  8
7_ALL_ROUNDS
100
AcDbLine
 62
7
  6
CONTINUOUS
 10
53.616136794
 20
35.7728608424
 11
53.616136794
 21
37.5816821666
  0
LINE
  5
3C9
100
AcDbEntity
  8
7_ALL_ROUNDS
100
AcDbLine
 62
7
  6
CONTINUOUS
 10
52.5257778191
 20
35.1431769401
 11
53.616136794
 21
35.7728608424
  0
LINE
  5
3CA
100
AcDbEntity
  8
7_ALL_ROUNDS
100
AcDbLine
 62
7
  6
CONTINUOUS
 10
51.6853631919
 20
34.5689493651
 11
52.3912951737
 21
34.9766261168
  0
LINE
  5
3CB
100
AcDbEntity
  8
0
100
AcDbLine
 62
7
  6
CONTINUOUS
 10
55.0502829728
 20
36.4698591602
 11
55.0001730434
 21
36.4409206027
  0
LINE
  5
3CC
100
AcDbEntity
  8
7_ALL_ROUNDS
100
AcDbLine
 62
7
  6
CONTINUOUS
 10
53.8265984974
 20
35.6282135156
 11
53.5927521603
 21
35.493166914
  0
LINE
  5
3CD
100
AcDbEntity
  8
7_ALL_ROUNDS
100
AcDbLine
 62
7
  6
CONTINUOUS
 10
53.8767084268
 20
35.7150064578
 11
53.8767084268
 21
37.4312016676
  0
LINE
  5
3CE
100
AcDbEntity
  8
0
100
AcDbLine
 62
7
  6
CONTINUOUS
 10
55.4745470415
 20
36.2248460401
 11
55.4244371121
 21
36.1959074827
  0
LINE
  5
3CF
100
AcDbEntity
  8
0
100
AcDbLine
 62
7
  6
CONTINUOUS
 10
61.9986430861
 20
31.3466428417
 11
62.28704205
 21
31.4243067661
  0
LINE
  5
3D0
100
AcDbEntity
  8
0
100
AcDbLine
 62
7
  6
CONTINUOUS
 10
62.2457678532
 20
31.458347972
 11
61.9573688893
 21
31.3806840476
  0
LINE
  5
3D1
100
AcDbEntity
  8
0
100
AcDbLine
 62
7
  6
CONTINUOUS
 10
55.0502829728
 20
35.6020433901
 11
55.0001730434
 21
35.5731048326
  0
LINE
  5
3D2
100
AcDbEntity
  8
0
100
AcDbLine
 62
7
  6
CONTINUOUS
 10
55.4745470415
 20
35.3570302701
 11
55.4244371121
 21
35.3280917126
  0
LINE
  5
3D3
100
AcDbEntity
  8
7_ALL_ROUNDS
100
AcDbLine
 62
7
  6
CONTINUOUS
 10
51.1627195368
 20
34.5510415722
 11
51.2128294662
 21
34.5221030147
  0
LINE
  5
3D4
100
AcDbEntity
  8
7_ALL_ROUNDS
100
AcDbLine
 62
7
  6
CONTINUOUS
 10
60.7789031818
 20
28.9976814565
 11
60.8290131112
 21
28.9687428991
  0
LINE
  5
3D5
100
AcDbEntity
  8
0
100
AcDbLine
 62
7
  6
CONTINUOUS
 10
56.5352072133
 20
35.1536243936
 11
56.4850972839
 21
35.1246858361
  0
LINE
  5
3D6
100
AcDbEntity
  8
0
100
AcDbLine
 62
7
  6
CONTINUOUS
 10
56.6521303818
 20
35.0861010928
 11
56.6020204524
 21
35.0571625353
  0
LINE
  5
3D7
100
AcDbEntity
  8
7_ALL_ROUNDS
100
AcDbLine
 62
7
  6
CONTINUOUS
 10
50.9671208709
 20
34.9834322851
 11
51.0172308003
 21
34.9544937276
  0
LINE
  5
3D8
100
AcDbEntity
  8
7_ALL_ROUNDS
100
AcDbLine
 62
7
  6
CONTINUOUS
 10
60.5833045159
 20
29.4300721695
 11
60.6334144453
 21
29.401133612
  0
LINE
  5
3D9
100
AcDbEntity
  8
0
100
AcDbLine
 62
7
  6
CONTINUOUS
 10
63.0521705616
 20
32.1902359835
 11
62.9519507029
 21
32.1902359835
  0
LINE
  5
3DA
100
AcDbEntity
  8
0
100
AcDbLine
 62
7
  6
CONTINUOUS
 10
62.9519507029
 20
32.2480903682
 11
63.0521705616
 21
32.2480903682
  0
LINE
  5
3DB
100
AcDbEntity
  8
7_ALL_ROUNDS
100
AcDbLine
 62
7
  6
CONTINUOUS
 10
60.6334144453
 20
29.7868295098
 11
60.5833045159
 21
29.8157680673
  0
LINE
  5
3DC
100
AcDbEntity
  8
7_ALL_ROUNDS
100
AcDbLine
 62
7
  6
CONTINUOUS
 10
51.0172308003
 20
35.3401896254
 11
50.9671208709
 21
35.3691281829
  0
LINE
  5
3DD
100
AcDbEntity
  8
0
100
AcDbLine
 62
7
  6
CONTINUOUS
 10
61.2368761075
 20
30.9629426578
 11
53.5927521603
 21
35.3774354144
  0
LINE
  5
3DE
100
AcDbEntity
  8
7_ALL_ROUNDS
100
AcDbLine
 62
7
  6
CONTINUOUS
 10
61.3015468369
 20
30.9440687385
 11
61.2514369076
 21
30.973007296
  0
LINE
  5
3DF
100
AcDbEntity
  8
7_ALL_ROUNDS
100
AcDbLine
 62
7
  6
CONTINUOUS
 10
51.6853631919
 20
36.4974288541
 11
51.6352532626
 21
36.5263674116
  0
LINE
  5
3E0
100
AcDbEntity
  8
0
100
AcDbLine
 62
7
  6
CONTINUOUS
 10
61.2855328066
 20
30.9926977275
 11
53.5927521603
 21
35.4352897991
  0
LINE
  5
3E1
100
AcDbEntity
  8
7_ALL_ROUNDS
100
AcDbLine
 62
7
  6
CONTINUOUS
 10
61.5694890731
 20
31.1566828866
 11
53.8265984974
 21
35.6282135156
  0
LINE
  5
3E2
100
AcDbEntity
  8
7_ALL_ROUNDS
100
AcDbLine
 62
7
  6
CONTINUOUS
 10
61.669689252
 20
31.2145486364
 11
53.8767084268
 21
35.7150064578
  0
LINE
  5
3E3
100
AcDbEntity
  8
0
100
AcDbLine
 62
7
  6
CONTINUOUS
 10
62.1635935944
 20
31.4362189902
 11
61.7883981428
 21
31.6528949121
  0
LINE
  5
3E4
100
AcDbEntity
  8
0
100
AcDbLine
 62
7
  6
CONTINUOUS
 10
55.4244371121
 20
35.3280917126
 11
55.0001730434
 21
35.5731048326
  0
LINE
  5
3E5
100
AcDbEntity
  8
0
100
AcDbLine
 62
7
  6
CONTINUOUS
 10
62.2319420465
 20
31.4546247742
 11
61.8385080722
 21
31.6818334696
  0
LINE
  5
3E6
100
AcDbEntity
  8
0
100
AcDbLine
 62
7
  6
CONTINUOUS
 10
55.4745470415
 20
35.3570302701
 11
55.0502829728
 21
35.6020433901
  0
LINE
  5
3E7
100
AcDbEntity
  8
0
100
AcDbLine
 62
7
  6
CONTINUOUS
 10
55.0001730434
 20
35.7356756536
 11
55.4244371121
 21
35.4906625335
  0
LINE
  5
3E8
100
AcDbEntity
  8
0
100
AcDbLine
 62
7
  6
CONTINUOUS
 10
61.7883981428
 20
31.815465733
 11
62.2126622115
 21
31.570452613
  0
LINE
  5
3E9
100
AcDbEntity
  8
0
100
AcDbLine
 62
7
  6
CONTINUOUS
 10
60.727737971
 20
32.6745546358
 11
60.6108148025
 21
32.7420779366
  0
LINE
  5
3EA
100
AcDbEntity
  8
0
100
AcDbLine
 62
7
  6
CONTINUOUS
 10
56.6020204524
 20
35.0571625353
 11
56.4850972839
 21
35.1246858361
  0
LINE
  5
3EB
100
AcDbEntity
  8
0
100
AcDbLine
 62
7
  6
CONTINUOUS
 10
60.7778479004
 20
32.7034931933
 11
60.6609247318
 21
32.7710164941
  0
LINE
  5
3EC
100
AcDbEntity
  8
0
100
AcDbLine
 62
7
  6
CONTINUOUS
 10
56.6521303818
 20
35.0861010928
 11
56.5352072133
 21
35.1536243936
  0
LINE
  5
3ED
100
AcDbEntity
  8
0
100
AcDbLine
 62
7
  6
CONTINUOUS
 10
56.4850972839
 20
35.3368185799
 11
56.6020204524
 21
35.2692952791
  0
LINE
  5
3EE
100
AcDbEntity
  8
0
100
AcDbLine
 62
7
  6
CONTINUOUS
 10
60.6108148025
 20
32.9542106804
 11
60.727737971
 21
32.8866873796
  0
LINE
  5
3EF
100
AcDbEntity
  8
0
100
AcDbLine
 62
7
  6
CONTINUOUS
 10
62.2126622115
 20
32.2756975621
 11
61.7883981428
 21
32.5207106822
  0
LINE
  5
3F0
100
AcDbEntity
  8
0
100
AcDbLine
 62
7
  6
CONTINUOUS
 10
55.4244371121
 20
36.1959074827
 11
55.0001730434
 21
36.4409206027
  0
LINE
  5
3F1
100
AcDbEntity
  8
0
100
AcDbLine
 62
7
  6
CONTINUOUS
 10
62.2627721409
 20
32.3046361196
 11
61.8385080722
 21
32.5496492396
  0
LINE
  5
3F2
100
AcDbEntity
  8
0
100
AcDbLine
 62
7
  6
CONTINUOUS
 10
55.4745470415
 20
36.2248460401
 11
55.0502829728
 21
36.4698591602
  0
LINE
  5
3F3
100
AcDbEntity
  8
0
100
AcDbLine
 62
7
  6
CONTINUOUS
 10
55.0001730434
 20
36.6034914236
 11
55.4244371121
 21
36.3584783036
  0
LINE
  5
3F4
100
AcDbEntity
  8
0
100
AcDbLine
 62
7
  6
CONTINUOUS
 10
61.7883981428
 20
32.6832815031
 11
62.2126622115
 21
32.438268383
  0
LINE
  5
3F5
100
AcDbEntity
  8
0
100
AcDbLine
 62
7
  6
CONTINUOUS
 10
53.5927521603
 20
37.5951868267
 11
62.9519507029
 21
32.1902359835
  0
LINE
  5
3F6
100
AcDbEntity
  8
0
100
AcDbLine
 62
7
  6
CONTINUOUS
 10
53.5927521603
 20
37.6530412114
 11
62.9519507029
 21
32.2480903682
  0
LINE
  5
3F7
100
AcDbEntity
  8
7_ALL_ROUNDS
100
AcDbLine
 62
7
  6
CONTINUOUS
 10
63.2860267425
 20
32.3252996306
 11
63.3361268281
 21
32.2963667579
  0
LINE
  5
3F8
100
AcDbEntity
  8
0
100
AcDbLine
 62
7
  6
CONTINUOUS
 10
60.6609247318
 20
32.7710164941
 11
60.6108148025
 21
32.7420779366
  0
LINE
  5
3F9
100
AcDbEntity
  8
0
100
AcDbLine
 62
7
  6
CONTINUOUS
 10
60.7778479004
 20
32.7034931933
 11
60.727737971
 21
32.6745546358
  0
LINE
  5
3FA
100
AcDbEntity
  8
7_ALL_ROUNDS
100
AcDbLine
 62
7
  6
CONTINUOUS
 10
63.2860168987
 20
32.3831369698
 11
53.8265984974
 21
37.8459649279
  0
LINE
  5
3FB
100
AcDbEntity
  8
7_ALL_ROUNDS
100
AcDbLine
 62
7
  6
CONTINUOUS
 10
63.3568969576
 20
32.3901639223
 11
53.8974785563
 21
37.8529918805
  0
LINE
  5
3FC
100
AcDbEntity
  8
0
100
AcDbLine
 62
7
  6
CONTINUOUS
 10
61.8385080722
 20
32.5496492396
 11
61.7883981428
 21
32.5207106822
  0
LINE
  5
3FD
100
AcDbEntity
  8
7_ALL_ROUNDS
100
AcDbLine
 62
7
  6
CONTINUOUS
 10
60.5833045159
 20
29.4300721695
 11
60.5833045159
 21
29.8157680673
  0
LINE
  5
3FE
100
AcDbEntity
  8
7_ALL_ROUNDS
100
AcDbLine
 62
7
  6
CONTINUOUS
 10
60.6334144453
 20
29.401133612
 11
60.6334144453
 21
29.7868295098
  0
LINE
  5
3FF
100
AcDbEntity
  8
0
100
AcDbLine
 62
7
  6
CONTINUOUS
 10
62.2627721409
 20
32.3046361196
 11
62.2126622115
 21
32.2756975621
  0
LINE
  5
400
100
AcDbEntity
  8
0
100
AcDbLine
 62
7
  6
CONTINUOUS
 10
61.8385080722
 20
31.6818334696
 11
61.7883981428
 21
31.6528949121
  0
LINE
  5
401
100
AcDbEntity
  8
7_ALL_ROUNDS
100
AcDbLine
 62
7
  6
CONTINUOUS
 10
63.0521705616
 20
32.2480903682
 11
63.2860168987
 21
32.3831369698
  0
LINE
  5
402
100
AcDbEntity
  8
7_ALL_ROUNDS
100
AcDbLine
 62
7
  6
CONTINUOUS
 10
63.0521705616
 20
32.1902359835
 11
63.2860168987
 21
32.3252825851
  0
LINE
  5
403
100
AcDbEntity
  8
7_ALL_ROUNDS
100
AcDbLine
 62
7
  6
CONTINUOUS
 10
63.3361268281
 20
32.2385123733
 11
63.3862367575
 21
32.2674509307
  0
LINE
  5
404
100
AcDbEntity
  8
7_ALL_ROUNDS
100
AcDbLine
 62
7
  6
CONTINUOUS
 10
61.9573688893
 20
31.3806840476
 11
61.2514369076
 21
30.973007296
  0
LINE
  5
405
100
AcDbEntity
  8
7_ALL_ROUNDS
100
AcDbLine
 62
7
  6
CONTINUOUS
 10
61.3015468369
 20
30.9440687385
 11
61.9986430861
 21
31.3466428417
  0
LINE
  5
406
100
AcDbEntity
  8
7_ALL_ROUNDS
100
AcDbLine
 62
7
  6
CONTINUOUS
 10
63.3361268281
 20
32.0880318743
 11
62.2457678532
 21
31.458347972
  0
LINE
  5
407
100
AcDbEntity
  8
7_ALL_ROUNDS
100
AcDbLine
 62
7
  6
CONTINUOUS
 10
62.28704205
 20
31.4243067661
 11
63.3862367575
 21
32.0590933169
  0
LINE
  5
408
100
AcDbEntity
  8
0
100
AcDbLine
 62
7
  6
CONTINUOUS
 10
61.9986430861
 20
29.4181633527
 11
61.9986430861
 21
31.3466428417
  0
LINE
  5
409
100
AcDbEntity
  8
0
100
AcDbLine
 62
7
  6
CONTINUOUS
 10
62.28704205
 20
29.4958272771
 11
62.28704205
 21
31.4243067661
  0
LINE
  5
40A
100
AcDbEntity
  8
0
100
AcDbLine
 62
7
  6
CONTINUOUS
 10
62.9519507029
 20
32.1902359835
 11
62.9519507029
 21
32.2480903682
  0
LINE
  5
40B
100
AcDbEntity
  8
0
100
AcDbLine
 62
7
  6
CONTINUOUS
 10
63.0521705616
 20
32.1902359835
 11
63.0521705616
 21
32.2480903682
  0
LINE
  5
40C
100
AcDbEntity
  8
7_ALL_ROUNDS
100
AcDbLine
 62
7
  6
CONTINUOUS
 10
63.3361268281
 20
32.0880318743
 11
63.3361268281
 21
32.2963667579
  0
LINE
  5
40D
100
AcDbEntity
  8
7_ALL_ROUNDS
100
AcDbLine
 62
7
  6
CONTINUOUS
 10
63.3862367575
 20
32.0590933169
 11
63.3862367575
 21
30.1306138279
  0
LINE
  5
40E
100
AcDbEntity
  8
7_ALL_ROUNDS
100
AcDbLine
 62
7
  6
CONTINUOUS
 10
63.3862367575
 20
32.2674509307
 11
63.3862367575
 21
32.3253053154
  0
LINE
  5
40F
100
AcDbEntity
  8
7_ALL_ROUNDS
100
AcDbLine
 62
7
  6
CONTINUOUS
 10
61.3015468369
 20
29.0155892495
 11
61.9986430861
 21
29.4181633527
  0
LINE
  5
410
100
AcDbEntity
  8
7_ALL_ROUNDS
100
AcDbLine
 62
7
  6
CONTINUOUS
 10
62.28704205
 20
29.4958272771
 11
63.3862367575
 21
30.1306138279
  0
LINE
  5
411
100
AcDbEntity
  8
7_ALL_ROUNDS
100
AcDbLine
 62
7
  6
CONTINUOUS
 10
63.460959122
 20
32.1632721238
 11
63.460959122
 21
30.2347926348
  0
LINE
  5
412
100
AcDbEntity
  8
0
100
AcDbLine
 62
7
  6
CONTINUOUS
 10
9.6253162545
 20
17.7612865932
 11
9.6253162545
 21
21.6982944672
  0
LINE
  5
413
100
AcDbEntity
  8
7_ALL_ROUNDS
100
AcDbLine
 62
7
  6
CONTINUOUS
 10
9.8067083753
 20
17.7612865932
 11
9.8067083753
 21
21.6982944672
  0
LINE
  5
414
100
AcDbEntity
  8
7_ALL_ROUNDS
100
AcDbLine
 62
7
  6
CONTINUOUS
 10
9.9248186116
 20
17.7612865932
 11
9.9248186116
 21
21.6982944672
  0
LINE
  5
415
100
AcDbEntity
  8
0
100
AcDbLine
 62
7
  6
CONTINUOUS
 10
10.0505131049
 20
22.0526251759
 11
10.0505131049
 21
21.9345149397
  0
LINE
  5
416
100
AcDbEntity
  8
0
100
AcDbLine
 62
7
  6
CONTINUOUS
 10
10.0505131049
 20
17.5250661208
 11
10.0505131049
 21
17.4069558846
  0
LINE
  5
417
100
AcDbEntity
  8
7_ALL_ROUNDS
100
AcDbLine
 62
7
  6
CONTINUOUS
 10
10.0505131049
 20
17.5250661208
 11
10.0505131049
 21
21.9345149397
  0
LINE
  5
418
100
AcDbEntity
  8
0
100
AcDbLine
 62
7
  6
CONTINUOUS
 10
10.1686233411
 20
22.0526251759
 11
10.1686233411
 21
21.9345149397
  0
LINE
  5
419
100
AcDbEntity
  8
0
100
AcDbLine
 62
7
  6
CONTINUOUS
 10
10.1686233411
 20
17.5250661208
 11
10.1686233411
 21
17.4069558846
  0
LINE
  5
41A
100
AcDbEntity
  8
3_AXES_OTHER
100
AcDbLine
 62
7
  6
CENTER
 10
12.698544601
 20
20.6156173019
 11
12.698544601
 21
20.24967242
  0
LINE
  5
41B
100
AcDbEntity
  8
3_AXES_OTHER
100
AcDbLine
 62
7
  6
CENTER
 10
12.698544601
 20
18.8439637586
 11
12.698544601
 21
18.4780188767
  0
LINE
  5
41C
100
AcDbEntity
  8
3_AXES_OTHER
100
AcDbLine
 62
7
  6
CENTER
 10
12.698544601
 20
18.8439637586
 11
12.698544601
 21
19.2099086405
  0
LINE
  5
41D
100
AcDbEntity
  8
3_AXES_OTHER
100
AcDbLine
 62
7
  6
CENTER
 10
12.698544601
 20
20.6156173019
 11
12.698544601
 21
20.9815621838
  0
LINE
  5
41E
100
AcDbEntity
  8
3_AXES_OTHER
100
AcDbLine
 62
7
  6
CENTER
 10
13.698544601
 20
20.6156173019
 11
13.698544601
 21
20.24967242
  0
LINE
  5
41F
100
AcDbEntity
  8
3_AXES_OTHER
100
AcDbLine
 62
7
  6
CENTER
 10
13.698544601
 20
18.8439637586
 11
13.698544601
 21
18.4780188767
  0
LINE
  5
420
100
AcDbEntity
  8
3_AXES_OTHER
100
AcDbLine
 62
7
  6
CENTER
 10
13.698544601
 20
18.8439637586
 11
13.698544601
 21
19.2099086405
  0
LINE
  5
421
100
AcDbEntity
  8
3_AXES_OTHER
100
AcDbLine
 62
7
  6
CENTER
 10
13.698544601
 20
20.6156173019
 11
13.698544601
 21
20.9815621838
  0
LINE
  5
422
100
AcDbEntity
  8
3_AXES_OTHER
100
AcDbLine
 62
7
  6
CENTER
 10
16.198544601
 20
19.7297905302
 11
16.198544601
 21
19.3132550972
  0
LINE
  5
423
100
AcDbEntity
  8
3_AXES_OTHER
100
AcDbLine
 62
7
  6
CENTER
 10
16.198544601
 20
19.7297905302
 11
16.198544601
 21
20.1463259633
  0
LINE
  5
424
100
AcDbEntity
  8
3_AXES_OTHER
100
AcDbLine
 62
7
  6
CENTER
 10
16.4741351522
 20
19.7297905302
 11
16.4741351522
 21
19.3132550972
  0
LINE
  5
425
100
AcDbEntity
  8
3_AXES_OTHER
100
AcDbLine
 62
7
  6
CENTER
 10
16.4741351522
 20
19.7297905302
 11
16.4741351522
 21
20.1463259633
  0
LINE
  5
426
100
AcDbEntity
  8
0
100
AcDbLine
 62
7
  6
CONTINUOUS
 10
32.346576097
 20
17.4069558846
 11
10.0505131049
 21
17.4069558846
  0
LINE
  5
427
100
AcDbEntity
  8
0
100
AcDbLine
 62
7
  6
CONTINUOUS
 10
10.0505131049
 20
17.5250661208
 11
32.346576097
 21
17.5250661208
  0
LINE
  5
428
100
AcDbEntity
  8
7_ALL_ROUNDS
100
AcDbLine
 62
7
  6
CONTINUOUS
 10
32.346576097
 20
17.643176357
 11
10.0505131049
 21
17.643176357
  0
LINE
  5
429
100
AcDbEntity
  8
0
100
AcDbLine
 62
7
  6
CONTINUOUS
 10
9.6253162545
 20
17.7612865932
 11
9.8067083753
 21
17.7612865932
  0
LINE
  5
42A
100
AcDbEntity
  8
7_ALL_ROUNDS
100
AcDbLine
 62
7
  6
CONTINUOUS
 10
9.8067083753
 20
17.7612865932
 11
10.0505131049
 21
17.7612865932
  0
LINE
  5
42B
100
AcDbEntity
  8
7_ALL_ROUNDS
100
AcDbLine
 62
7
  6
CONTINUOUS
 10
32.346576097
 20
17.7612865932
 11
32.5903808266
 21
17.7612865932
  0
LINE
  5
42C
100
AcDbEntity
  8
0
100
AcDbLine
 62
7
  6
CONTINUOUS
 10
32.5903808266
 20
17.7612865932
 11
32.7717729474
 21
17.7612865932
  0
LINE
  5
42D
100
AcDbEntity
  8
0
100
AcDbLine
 62
7
  6
CONTINUOUS
 10
29.698544601
 20
18.6780188767
 11
28.698544601
 21
18.6780188767
  0
LINE
  5
42E
100
AcDbEntity
  8
0
100
AcDbLine
 62
7
  6
CONTINUOUS
 10
13.698544601
 20
18.6780188767
 11
12.698544601
 21
18.6780188767
  0
LINE
  5
42F
100
AcDbEntity
  8
3_AXES_OTHER
100
AcDbLine
 62
7
  6
CENTER
 10
29.698544601
 20
18.8439637586
 11
29.3325997191
 21
18.8439637586
  0
LINE
  5
430
100
AcDbEntity
  8
3_AXES_OTHER
100
AcDbLine
 62
7
  6
CENTER
 10
28.698544601
 20
18.8439637586
 11
28.3325997191
 21
18.8439637586
  0
LINE
  5
431
100
AcDbEntity
  8
3_AXES_OTHER
100
AcDbLine
 62
7
  6
CENTER
 10
13.698544601
 20
18.8439637586
 11
13.3325997191
 21
18.8439637586
  0
LINE
  5
432
100
AcDbEntity
  8
3_AXES_OTHER
100
AcDbLine
 62
7
  6
CENTER
 10
12.698544601
 20
18.8439637586
 11
12.3325997191
 21
18.8439637586
  0
LINE
  5
433
100
AcDbEntity
  8
3_AXES_OTHER
100
AcDbLine
 62
7
  6
CENTER
 10
12.698544601
 20
18.8439637586
 11
13.0644894829
 21
18.8439637586
  0
LINE
  5
434
100
AcDbEntity
  8
3_AXES_OTHER
100
AcDbLine
 62
7
  6
CENTER
 10
13.698544601
 20
18.8439637586
 11
14.0644894829
 21
18.8439637586
  0
LINE
  5
435
100
AcDbEntity
  8
3_AXES_OTHER
100
AcDbLine
 62
7
  6
CENTER
 10
28.698544601
 20
18.8439637586
 11
29.0644894829
 21
18.8439637586
  0
LINE
  5
436
100
AcDbEntity
  8
3_AXES_OTHER
100
AcDbLine
 62
7
  6
CENTER
 10
29.698544601
 20
18.8439637586
 11
30.0644894829
 21
18.8439637586
  0
LINE
  5
437
100
AcDbEntity
  8
0
100
AcDbLine
 62
7
  6
CONTINUOUS
 10
12.698544601
 20
19.0099086405
 11
13.698544601
 21
19.0099086405
  0
LINE
  5
438
100
AcDbEntity
  8
0
100
AcDbLine
 62
7
  6
CONTINUOUS
 10
28.698544601
 20
19.0099086405
 11
29.698544601
 21
19.0099086405
  0
LINE
  5
439
100
AcDbEntity
  8
3_AXES_OTHER
100
AcDbLine
 62
7
  6
CENTER
 10
21.198544601
 20
19.7297905302
 11
21.198544601
 21
16.9612858012
  0
LINE
  5
43A
100
AcDbEntity
  8
3_AXES_OTHER
100
AcDbLine
 62
7
  6
CENTER
 10
21.198544601
 20
19.7297905302
 11
21.198544601
 21
22.4346741807
  0
LINE
  5
43B
100
AcDbEntity
  8
7_ALL_ROUNDS
100
AcDbLine
 62
7
  6
CONTINUOUS
 10
9.8067083753
 20
19.3360897428
 11
9.9248186116
 21
19.3360897428
  0
LINE
  5
43C
100
AcDbEntity
  8
7_ALL_ROUNDS
100
AcDbLine
 62
7
  6
CONTINUOUS
 10
32.4722705904
 20
19.3360897428
 11
32.5903808266
 21
19.3360897428
  0
LINE
  5
43D
100
AcDbEntity
  8
0
100
AcDbLine
 62
7
  6
CONTINUOUS
 10
26.198544601
 20
19.5132550972
 11
25.9229540498
 21
19.5132550972
  0
LINE
  5
43E
100
AcDbEntity
  8
0
100
AcDbLine
 62
7
  6
CONTINUOUS
 10
16.4741351522
 20
19.5132550972
 11
16.198544601
 21
19.5132550972
  0
LINE
  5
43F
100
AcDbEntity
  8
3_AXES_OTHER
100
AcDbLine
 62
7
  6
CENTER
 10
26.198544601
 20
19.7297905302
 11
25.7820091679
 21
19.7297905302
  0
LINE
  5
440
100
AcDbEntity
  8
3_AXES_OTHER
100
AcDbLine
 62
7
  6
CENTER
 10
25.7820091679
 20
19.7297905302
 11
25.5064186167
 21
19.7297905302
  0
LINE
  5
441
100
AcDbEntity
  8
3_AXES_OTHER
100
AcDbLine
 62
7
  6
CENTER
 10
16.4741351522
 20
19.7297905302
 11
16.0575997191
 21
19.7297905302
  0
LINE
  5
442
100
AcDbEntity
  8
3_AXES_OTHER
100
AcDbLine
 62
7
  6
CENTER
 10
16.0575997191
 20
19.7297905302
 11
15.7820091679
 21
19.7297905302
  0
LINE
  5
443
100
AcDbEntity
  8
3_AXES_OTHER
100
AcDbLine
 62
7
  6
CENTER
 10
21.198544601
 20
19.7297905302
 11
16.4741351522
 21
19.7297905302
  0
LINE
  5
444
100
AcDbEntity
  8
3_AXES_OTHER
100
AcDbLine
 62
7
  6
CENTER
 10
15.7820091679
 20
19.7297905302
 11
9.152547777
 21
19.7297905302
  0
LINE
  5
445
100
AcDbEntity
  8
3_AXES_OTHER
100
AcDbLine
 62
7
  6
CENTER
 10
21.198544601
 20
19.7297905302
 11
25.5064186167
 21
19.7297905302
  0
LINE
  5
446
100
AcDbEntity
  8
3_AXES_OTHER
100
AcDbLine
 62
7
  6
CENTER
 10
26.198544601
 20
19.7297905302
 11
33.0851210054
 21
19.7297905302
  0
LINE
  5
447
100
AcDbEntity
  8
0
100
AcDbLine
 62
7
  6
CONTINUOUS
 10
16.198544601
 20
19.9463259633
 11
16.4741351522
 21
19.9463259633
  0
LINE
  5
448
100
AcDbEntity
  8
0
100
AcDbLine
 62
7
  6
CONTINUOUS
 10
25.9229540498
 20
19.9463259633
 11
26.198544601
 21
19.9463259633
  0
LINE
  5
449
100
AcDbEntity
  8
7_ALL_ROUNDS
100
AcDbLine
 62
7
  6
CONTINUOUS
 10
32.5903808266
 20
20.1234913176
 11
32.4722705904
 21
20.1234913176
  0
LINE
  5
44A
100
AcDbEntity
  8
7_ALL_ROUNDS
100
AcDbLine
 62
7
  6
CONTINUOUS
 10
9.9248186116
 20
20.1234913176
 11
9.8067083753
 21
20.1234913176
  0
LINE
  5
44B
100
AcDbEntity
  8
0
100
AcDbLine
 62
7
  6
CONTINUOUS
 10
29.698544601
 20
20.44967242
 11
28.698544601
 21
20.44967242
  0
LINE
  5
44C
100
AcDbEntity
  8
0
100
AcDbLine
 62
7
  6
CONTINUOUS
 10
13.698544601
 20
20.44967242
 11
12.698544601
 21
20.44967242
  0
LINE
  5
44D
100
AcDbEntity
  8
3_AXES_OTHER
100
AcDbLine
 62
7
  6
CENTER
 10
29.698544601
 20
20.6156173019
 11
29.3325997191
 21
20.6156173019
  0
LINE
  5
44E
100
AcDbEntity
  8
3_AXES_OTHER
100
AcDbLine
 62
7
  6
CENTER
 10
28.698544601
 20
20.6156173019
 11
28.3325997191
 21
20.6156173019
  0
LINE
  5
44F
100
AcDbEntity
  8
3_AXES_OTHER
100
AcDbLine
 62
7
  6
CENTER
 10
13.698544601
 20
20.6156173019
 11
13.3325997191
 21
20.6156173019
  0
LINE
  5
450
100
AcDbEntity
  8
3_AXES_OTHER
100
AcDbLine
 62
7
  6
CENTER
 10
12.698544601
 20
20.6156173019
 11
12.3325997191
 21
20.6156173019
  0
LINE
  5
451
100
AcDbEntity
  8
3_AXES_OTHER
100
AcDbLine
 62
7
  6
CENTER
 10
12.698544601
 20
20.6156173019
 11
13.0644894829
 21
20.6156173019
  0
LINE
  5
452
100
AcDbEntity
  8
3_AXES_OTHER
100
AcDbLine
 62
7
  6
CENTER
 10
13.698544601
 20
20.6156173019
 11
14.0644894829
 21
20.6156173019
  0
LINE
  5
453
100
AcDbEntity
  8
3_AXES_OTHER
100
AcDbLine
 62
7
  6
CENTER
 10
28.698544601
 20
20.6156173019
 11
29.0644894829
 21
20.6156173019
  0
LINE
  5
454
100
AcDbEntity
  8
3_AXES_OTHER
100
AcDbLine
 62
7
  6
CENTER
 10
29.698544601
 20
20.6156173019
 11
30.0644894829
 21
20.6156173019
  0
LINE
  5
455
100
AcDbEntity
  8
0
100
AcDbLine
 62
7
  6
CONTINUOUS
 10
12.698544601
 20
20.7815621838
 11
13.698544601
 21
20.7815621838
  0
LINE
  5
456
100
AcDbEntity
  8
0
100
AcDbLine
 62
7
  6
CONTINUOUS
 10
28.698544601
 20
20.7815621838
 11
29.698544601
 21
20.7815621838
  0
LINE
  5
457
100
AcDbEntity
  8
0
100
AcDbLine
 62
7
  6
CONTINUOUS
 10
9.6253162545
 20
21.6982944672
 11
9.8067083753
 21
21.6982944672
  0
LINE
  5
458
100
AcDbEntity
  8
7_ALL_ROUNDS
100
AcDbLine
 62
7
  6
CONTINUOUS
 10
9.8067083753
 20
21.6982944672
 11
10.0505131049
 21
21.6982944672
  0
LINE
  5
459
100
AcDbEntity
  8
7_ALL_ROUNDS
100
AcDbLine
 62
7
  6
CONTINUOUS
 10
32.346576097
 20
21.6982944672
 11
32.5903808266
 21
21.6982944672
  0
LINE
  5
45A
100
AcDbEntity
  8
0
100
AcDbLine
 62
7
  6
CONTINUOUS
 10
32.5903808266
 20
21.6982944672
 11
32.7717729474
 21
21.6982944672
  0
LINE
  5
45B
100
AcDbEntity
  8
7_ALL_ROUNDS
100
AcDbLine
 62
7
  6
CONTINUOUS
 10
10.0505131049
 20
21.8164047035
 11
32.346576097
 21
21.8164047035
  0
LINE
  5
45C
100
AcDbEntity
  8
0
100
AcDbLine
 62
7
  6
CONTINUOUS
 10
10.0505131049
 20
21.9345149397
 11
32.346576097
 21
21.9345149397
  0
LINE
  5
45D
100
AcDbEntity
  8
0
100
AcDbLine
 62
7
  6
CONTINUOUS
 10
10.0505131049
 20
22.0526251759
 11
32.346576097
 21
22.0526251759
  0
LINE
  5
45E
100
AcDbEntity
  8
3_AXES_OTHER
100
AcDbLine
 62
7
  6
CENTER
 10
25.9229540498
 20
19.7297905302
 11
25.9229540498
 21
19.3132550972
  0
LINE
  5
45F
100
AcDbEntity
  8
3_AXES_OTHER
100
AcDbLine
 62
7
  6
CENTER
 10
25.9229540498
 20
19.7297905302
 11
25.9229540498
 21
20.1463259633
  0
LINE
  5
460
100
AcDbEntity
  8
3_AXES_OTHER
100
AcDbLine
 62
7
  6
CENTER
 10
26.198544601
 20
19.7297905302
 11
26.198544601
 21
19.3132550972
  0
LINE
  5
461
100
AcDbEntity
  8
3_AXES_OTHER
100
AcDbLine
 62
7
  6
CENTER
 10
26.198544601
 20
19.7297905302
 11
26.198544601
 21
20.1463259633
  0
LINE
  5
462
100
AcDbEntity
  8
3_AXES_OTHER
100
AcDbLine
 62
7
  6
CENTER
 10
28.698544601
 20
20.6156173019
 11
28.698544601
 21
20.24967242
  0
LINE
  5
463
100
AcDbEntity
  8
3_AXES_OTHER
100
AcDbLine
 62
7
  6
CENTER
 10
28.698544601
 20
18.8439637586
 11
28.698544601
 21
18.4780188767
  0
LINE
  5
464
100
AcDbEntity
  8
3_AXES_OTHER
100
AcDbLine
 62
7
  6
CENTER
 10
28.698544601
 20
18.8439637586
 11
28.698544601
 21
19.2099086405
  0
LINE
  5
465
100
AcDbEntity
  8
3_AXES_OTHER
100
AcDbLine
 62
7
  6
CENTER
 10
28.698544601
 20
20.6156173019
 11
28.698544601
 21
20.9815621838
  0
LINE
  5
466
100
AcDbEntity
  8
3_AXES_OTHER
100
AcDbLine
 62
7
  6
CENTER
 10
29.698544601
 20
20.6156173019
 11
29.698544601
 21
20.24967242
  0
LINE
  5
467
100
AcDbEntity
  8
3_AXES_OTHER
100
AcDbLine
 62
7
  6
CENTER
 10
29.698544601
 20
18.8439637586
 11
29.698544601
 21
18.4780188767
  0
LINE
  5
468
100
AcDbEntity
  8
3_AXES_OTHER
100
AcDbLine
 62
7
  6
CENTER
 10
29.698544601
 20
18.8439637586
 11
29.698544601
 21
19.2099086405
  0
LINE
  5
469
100
AcDbEntity
  8
3_AXES_OTHER
100
AcDbLine
 62
7
  6
CENTER
 10
29.698544601
 20
20.6156173019
 11
29.698544601
 21
20.9815621838
  0
LINE
  5
46A
100
AcDbEntity
  8
0
100
AcDbLine
 62
7
  6
CONTINUOUS
 10
32.2284658608
 20
17.4069558846
 11
32.2284658608
 21
17.5250661208
  0
LINE
  5
46B
100
AcDbEntity
  8
0
100
AcDbLine
 62
7
  6
CONTINUOUS
 10
32.2284658608
 20
21.9345149397
 11
32.2284658608
 21
22.0526251759
  0
LINE
  5
46C
100
AcDbEntity
  8
0
100
AcDbLine
 62
7
  6
CONTINUOUS
 10
32.346576097
 20
17.4069558846
 11
32.346576097
 21
17.5250661208
  0
LINE
  5
46D
100
AcDbEntity
  8
7_ALL_ROUNDS
100
AcDbLine
 62
7
  6
CONTINUOUS
 10
32.346576097
 20
17.5250661208
 11
32.346576097
 21
21.9345149397
  0
LINE
  5
46E
100
AcDbEntity
  8
0
100
AcDbLine
 62
7
  6
CONTINUOUS
 10
32.346576097
 20
21.9345149397
 11
32.346576097
 21
22.0526251759
  0
LINE
  5
46F
100
AcDbEntity
  8
7_ALL_ROUNDS
100
AcDbLine
 62
7
  6
CONTINUOUS
 10
32.4722705904
 20
17.7612865932
 11
32.4722705904
 21
21.6982944672
  0
LINE
  5
470
100
AcDbEntity
  8
7_ALL_ROUNDS
100
AcDbLine
 62
7
  6
CONTINUOUS
 10
32.5903808266
 20
17.7612865932
 11
32.5903808266
 21
21.6982944672
  0
LINE
  5
471
100
AcDbEntity
  8
0
100
AcDbLine
 62
7
  6
CONTINUOUS
 10
32.7717729474
 20
17.7612865932
 11
32.7717729474
 21
21.6982944672
  0
LINE
  5
472
100
AcDbEntity
  8
7_ALL_ROUNDS
100
AcDbLine
 62
7
  6
CONTINUOUS
 10
40.9247780267
 20
19.3360897428
 11
40.9247780267
 21
20.1234913176
  0
LINE
  5
473
100
AcDbEntity
  8
0
100
AcDbLine
 62
7
  6
CONTINUOUS
 10
46.869645596
 20
17.4069558846
 11
46.7515353598
 21
17.4069558846
  0
LINE
  5
474
100
AcDbEntity
  8
7_ALL_ROUNDS
100
AcDbLine
 62
7
  6
CONTINUOUS
 10
46.869645596
 20
17.4069558846
 11
47.4208266984
 21
17.4069558846
  0
LINE
  5
475
100
AcDbEntity
  8
7_ALL_ROUNDS
100
AcDbLine
 62
7
  6
CONTINUOUS
 10
47.4208266984
 20
17.5250661208
 11
46.869645596
 21
17.5250661208
  0
LINE
  5
476
100
AcDbEntity
  8
0
100
AcDbLine
 62
7
  6
CONTINUOUS
 10
46.7515353598
 20
17.5250661208
 11
46.869645596
 21
17.5250661208
  0
LINE
  5
477
100
AcDbEntity
  8
7_ALL_ROUNDS
100
AcDbLine
 62
7
  6
CONTINUOUS
 10
42.4995811763
 20
17.7612865932
 11
44.1426527928
 21
17.7612865932
  0
LINE
  5
478
100
AcDbEntity
  8
0
100
AcDbLine
 62
7
  6
CONTINUOUS
 10
44.1426527928
 20
17.7612865932
 11
44.6410235488
 21
17.7612865932
  0
LINE
  5
479
100
AcDbEntity
  8
7_ALL_ROUNDS
100
AcDbLine
 62
7
  6
CONTINUOUS
 10
44.6410235488
 20
17.7612865932
 11
47.6570471709
 21
17.7612865932
  0
LINE
  5
47A
100
AcDbEntity
  8
3_AXES_OTHER
100
AcDbLine
 62
7
  6
CENTER
 10
42.4995668559
 20
19.7297905302
 11
42.4995668559
 21
19.3329401365
  0
LINE
  5
47B
100
AcDbEntity
  8
3_AXES_OTHER
100
AcDbLine
 62
7
  6
CENTER
 10
42.4995668559
 20
19.7297905302
 11
42.4995668559
 21
20.1266409239
  0
LINE
  5
47C
100
AcDbEntity
  8
0
100
AcDbLine
 62
7
  6
CONTINUOUS
 10
44.1426527928
 20
17.7612865932
 11
44.1426527928
 21
21.6982944672
  0
LINE
  5
47D
100
AcDbEntity
  8
3_AXES_OTHER
100
AcDbLine
 62
7
  6
CENTER
 10
42.4995668559
 20
19.7297905302
 11
40.4847751339
 21
19.7297905302
  0
LINE
  5
47E
100
AcDbEntity
  8
3_AXES_OTHER
100
AcDbLine
 62
7
  6
CENTER
 10
42.4995668559
 20
19.7297905302
 11
47.9514774369
 21
19.7297905302
  0
LINE
  5
47F
100
AcDbEntity
  8
0
100
AcDbLine
 62
7
  6
CONTINUOUS
 10
44.6410235488
 20
17.7612865932
 11
44.6410235488
 21
21.6982944672
  0
LINE
  5
480
100
AcDbEntity
  8
7_ALL_ROUNDS
100
AcDbLine
 62
7
  6
CONTINUOUS
 10
42.4995811763
 20
21.6982944672
 11
44.1426527928
 21
21.6982944672
  0
LINE
  5
481
100
AcDbEntity
  8
0
100
AcDbLine
 62
7
  6
CONTINUOUS
 10
44.1426527928
 20
21.6982944672
 11
44.6410235488
 21
21.6982944672
  0
LINE
  5
482
100
AcDbEntity
  8
7_ALL_ROUNDS
100
AcDbLine
 62
7
  6
CONTINUOUS
 10
44.6410235488
 20
21.6982944672
 11
47.6570471709
 21
21.6982944672
  0
LINE
  5
483
100
AcDbEntity
  8
0
100
AcDbLine
 62
7
  6
CONTINUOUS
 10
46.869645596
 20
21.9345149397
 11
46.7515353598
 21
21.9345149397
  0
LINE
  5
484
100
AcDbEntity
  8
7_ALL_ROUNDS
100
AcDbLine
 62
7
  6
CONTINUOUS
 10
46.869645596
 20
21.9345149397
 11
47.4208266984
 21
21.9345149397
  0
LINE
  5
485
100
AcDbEntity
  8
0
100
AcDbLine
 62
7
  6
CONTINUOUS
 10
46.7515353598
 20
17.4069558846
 11
46.7515353598
 21
17.5250661208
  0
LINE
  5
486
100
AcDbEntity
  8
0
100
AcDbLine
 62
7
  6
CONTINUOUS
 10
46.7515353598
 20
21.9345149397
 11
46.7515353598
 21
22.0526251759
  0
LINE
  5
487
100
AcDbEntity
  8
0
100
AcDbLine
 62
7
  6
CONTINUOUS
 10
46.7515353598
 20
22.0526251759
 11
46.869645596
 21
22.0526251759
  0
LINE
  5
488
100
AcDbEntity
  8
7_ALL_ROUNDS
100
AcDbLine
 62
7
  6
CONTINUOUS
 10
46.869645596
 20
22.0526251759
 11
47.4208266984
 21
22.0526251759
  0
LINE
  5
489
100
AcDbEntity
  8
0
100
AcDbLine
 62
7
  6
CONTINUOUS
 10
46.869645596
 20
17.4069558846
 11
46.869645596
 21
17.5250661208
  0
LINE
  5
48A
100
AcDbEntity
  8
0
100
AcDbLine
 62
7
  6
CONTINUOUS
 10
46.869645596
 20
21.9345149397
 11
46.869645596
 21
22.0526251759
  0
LINE
  5
48B
100
AcDbEntity
  8
7_ALL_ROUNDS
100
AcDbLine
 62
7
  6
CONTINUOUS
 10
47.2318503205
 20
21.6982944672
 11
47.2318503205
 21
17.7612865932
  0
LINE
  5
48C
100
AcDbEntity
  8
7_ALL_ROUNDS
100
AcDbLine
 62
7
  6
CONTINUOUS
 10
47.5389369346
 20
17.643176357
 11
47.5389369346
 21
17.7612865932
  0
LINE
  5
48D
100
AcDbEntity
  8
7_ALL_ROUNDS
100
AcDbLine
 62
7
  6
CONTINUOUS
 10
47.5389369346
 20
21.6982944672
 11
47.5389369346
 21
21.8164047035
  0
LINE
  5
48E
100
AcDbEntity
  8
7_ALL_ROUNDS
100
AcDbLine
 62
7
  6
CONTINUOUS
 10
47.6570471709
 20
17.643176357
 11
47.6570471709
 21
21.8164047035
  0
LINE
  5
48F
100
AcDbEntity
  8
7_ALL_ROUNDS
100
AcDbLine
 62
7
  6
CONTINUOUS
 10
9.6253162545
 20
36.1592576822
 11
9.6253162545
 21
33.5684309105
  0
LINE
  5
490
100
AcDbEntity
  8
7_ALL_ROUNDS
100
AcDbLine
 62
7
  6
CONTINUOUS
 10
9.7434264907
 20
33.5892569319
 11
9.7434264907
 21
36.1592576822
  0
LINE
  5
491
100
AcDbEntity
  8
7_ALL_ROUNDS
100
AcDbLine
 62
7
  6
CONTINUOUS
 10
9.8067083753
 20
29.8521853885
 11
9.8067083753
 21
33.0700601545
  0
LINE
  5
492
100
AcDbEntity
  8
7_ALL_ROUNDS
100
AcDbLine
 62
7
  6
CONTINUOUS
 10
9.9248186116
 20
29.8521853885
 11
9.9248186116
 21
33.0908861759
  0
LINE
  5
493
100
AcDbEntity
  8
7_ALL_ROUNDS
100
AcDbLine
 62
7
  6
CONTINUOUS
 10
10.0505131049
 20
35.7970529578
 11
10.0505131049
 21
36.5844545326
  0
LINE
  5
494
100
AcDbEntity
  8
0
100
AcDbLine
 62
7
  6
CONTINUOUS
 10
9.6253162545
 20
33.5684309105
 11
9.8067083753
 21
33.0700601545
  0
LINE
  5
495
100
AcDbEntity
  8
0
100
AcDbLine
 62
7
  6
CONTINUOUS
 10
9.9248186116
 20
33.0908861759
 11
9.7434264907
 21
33.5892569319
  0
LINE
  5
496
100
AcDbEntity
  8
0
100
AcDbLine
 62
7
  6
CONTINUOUS
 10
10.0505131049
 20
35.7970529578
 11
10.1686233411
 21
35.6789427216
  0
LINE
  5
497
100
AcDbEntity
  8
7_ALL_ROUNDS
100
AcDbLine
 62
7
  6
CONTINUOUS
 10
32.5903808266
 20
29.8521853885
 11
32.4722705904
 21
29.8521853885
  0
LINE
  5
498
100
AcDbEntity
  8
7_ALL_ROUNDS
100
AcDbLine
 62
7
  6
CONTINUOUS
 10
9.9248186116
 20
29.8521853885
 11
9.8067083753
 21
29.8521853885
  0
LINE
  5
499
100
AcDbEntity
  8
7_ALL_ROUNDS
100
AcDbLine
 62
7
  6
CONTINUOUS
 10
32.5903808266
 20
31.4269885381
 11
32.4722705904
 21
31.4269885381
  0
LINE
  5
49A
100
AcDbEntity
  8
7_ALL_ROUNDS
100
AcDbLine
 62
7
  6
CONTINUOUS
 10
9.9248186116
 20
31.4269885381
 11
9.8067083753
 21
31.4269885381
  0
LINE
  5
49B
100
AcDbEntity
  8
0
100
AcDbLine
 62
7
  6
CONTINUOUS
 10
10.1686233411
 20
35.6789427216
 11
32.2284658608
 21
35.6789427216
  0
LINE
  5
49C
100
AcDbEntity
  8
7_ALL_ROUNDS
100
AcDbLine
 62
7
  6
CONTINUOUS
 10
32.346576097
 20
36.3482340601
 11
10.0505131049
 21
36.3482340601
  0
LINE
  5
49D
100
AcDbEntity
  8
7_ALL_ROUNDS
100
AcDbLine
 62
7
  6
CONTINUOUS
 10
32.346576097
 20
36.5844545326
 11
10.0505131049
 21
36.5844545326
  0
LINE
  5
49E
100
AcDbEntity
  8
0
100
AcDbLine
 62
7
  6
CONTINUOUS
 10
32.2284658608
 20
35.6789427216
 11
32.346576097
 21
35.7970529578
  0
LINE
  5
49F
100
AcDbEntity
  8
7_ALL_ROUNDS
100
AcDbLine
 62
7
  6
CONTINUOUS
 10
32.346576097
 20
35.7970529578
 11
32.346576097
 21
36.5844545326
  0
LINE
  5
4A0
100
AcDbEntity
  8
7_ALL_ROUNDS
100
AcDbLine
 62
7
  6
CONTINUOUS
 10
32.4722705904
 20
29.8521853885
 11
32.4722705904
 21
33.0908861759
  0
LINE
  5
4A1
100
AcDbEntity
  8
7_ALL_ROUNDS
100
AcDbLine
 62
7
  6
CONTINUOUS
 10
32.5903808266
 20
29.8521853885
 11
32.5903808266
 21
33.0700601545
  0
LINE
  5
4A2
100
AcDbEntity
  8
7_ALL_ROUNDS
100
AcDbLine
 62
7
  6
CONTINUOUS
 10
32.6536627112
 20
36.1592576822
 11
32.6536627112
 21
33.5892569319
  0
LINE
  5
4A3
100
AcDbEntity
  8
7_ALL_ROUNDS
100
AcDbLine
 62
7
  6
CONTINUOUS
 10
32.7717729474
 20
33.5684309105
 11
32.7717729474
 21
36.1592576822
  0
LINE
  5
4A4
100
AcDbEntity
  8
0
100
AcDbLine
 62
7
  6
CONTINUOUS
 10
32.6536627112
 20
33.5892569319
 11
32.4722705904
 21
33.0908861759
  0
LINE
  5
4A5
100
AcDbEntity
  8
0
100
AcDbLine
 62
7
  6
CONTINUOUS
 10
32.5903808266
 20
33.0700601545
 11
32.7717729474
 21
33.5684309105
  0
ARC
  5
4A6
100
AcDbEntity
  8
7_ALL_ROUNDS
100
AcDbCircle
 62
7
  6
CONTINUOUS
 10
60.9887067145
 20
29.2448081128
 40
0.3189264009
100
AcDbArc
 50
229.746860338
 51
239.9521927114
  0
ARC
  5
4A7
100
AcDbEntity
  8
7_ALL_ROUNDS
100
AcDbCircle
 62
7
  6
CONTINUOUS
 10
51.3725230695
 20
34.7981682285
 40
0.3189264009
100
AcDbArc
 50
229.746860338
 51
239.9521927114
  0
CIRCLE
  5
4A8
100
AcDbEntity
  8
0
100
AcDbCircle
 62
7
  6
CONTINUOUS
 10
21.198544601
 20
19.7297905302
 40
0.2559055118
  0
ARC
  5
4A9
100
AcDbEntity
  8
0
100
AcDbCircle
 62
7
  6
CONTINUOUS
 10
16.4741351522
 20
19.7297905302
 40
0.2165354331
100
AcDbArc
 50
270.0
 51
90.0
  0
ARC
  5
4AA
100
AcDbEntity
  8
0
100
AcDbCircle
 62
7
  6
CONTINUOUS
 10
16.198544601
 20
19.7297905302
 40
0.2165354331
100
AcDbArc
 50
90.0
 51
270.0
  0
ARC
  5
4AB
100
AcDbEntity
  8
0
100
AcDbCircle
 62
7
  6
CONTINUOUS
 10
26.198544601
 20
19.7297905302
 40
0.2165354331
100
AcDbArc
 50
270.0
 51
90.0
  0
ARC
  5
4AC
100
AcDbEntity
  8
0
100
AcDbCircle
 62
7
  6
CONTINUOUS
 10
25.9229540498
 20
19.7297905302
 40
0.2165354331
100
AcDbArc
 50
90.0
 51
270.0
  0
ARC
  5
4AD
100
AcDbEntity
  8
0
100
AcDbCircle
 62
7
  6
CONTINUOUS
 10
13.698544601
 20
20.6156173019
 40
0.1659448819
100
AcDbArc
 50
270.0
 51
90.0
  0
ARC
  5
4AE
100
AcDbEntity
  8
0
100
AcDbCircle
 62
7
  6
CONTINUOUS
 10
12.698544601
 20
20.6156173019
 40
0.1659448819
100
AcDbArc
 50
90.0
 51
270.0
  0
ARC
  5
4AF
100
AcDbEntity
  8
0
100
AcDbCircle
 62
7
  6
CONTINUOUS
 10
13.698544601
 20
18.8439637586
 40
0.1659448819
100
AcDbArc
 50
270.0
 51
90.0
  0
ARC
  5
4B0
100
AcDbEntity
  8
0
100
AcDbCircle
 62
7
  6
CONTINUOUS
 10
12.698544601
 20
18.8439637586
 40
0.1659448819
100
AcDbArc
 50
90.0
 51
270.0
  0
ARC
  5
4B1
100
AcDbEntity
  8
0
100
AcDbCircle
 62
7
  6
CONTINUOUS
 10
28.698544601
 20
20.6156173019
 40
0.1659448819
100
AcDbArc
 50
90.0
 51
270.0
  0
ARC
  5
4B2
100
AcDbEntity
  8
0
100
AcDbCircle
 62
7
  6
CONTINUOUS
 10
29.698544601
 20
20.6156173019
 40
0.1659448819
100
AcDbArc
 50
270.0
 51
90.0
  0
ARC
  5
4B3
100
AcDbEntity
  8
0
100
AcDbCircle
 62
7
  6
CONTINUOUS
 10
29.698544601
 20
18.8439637586
 40
0.1659448819
100
AcDbArc
 50
270.0
 51
90.0
  0
ARC
  5
4B4
100
AcDbEntity
  8
0
100
AcDbCircle
 62
7
  6
CONTINUOUS
 10
28.698544601
 20
18.8439637586
 40
0.1659448819
100
AcDbArc
 50
90.0
 51
270.0
  0
ARC
  5
4B5
100
AcDbEntity
  8
7_ALL_ROUNDS
100
AcDbCircle
 62
7
  6
CONTINUOUS
 10
42.4995811763
 20
20.1234913176
 40
1.5748031496
100
AcDbArc
 50
90.0
 51
180.0
  0
ARC
  5
4B6
100
AcDbEntity
  8
7_ALL_ROUNDS
100
AcDbCircle
 62
7
  6
CONTINUOUS
 10
42.4995811763
 20
19.3360897428
 40
1.5748031496
100
AcDbArc
 50
180.0
 51
270.0
  0
ARC
  5
4B7
100
AcDbEntity
  8
7_ALL_ROUNDS
100
AcDbCircle
 62
7
  6
CONTINUOUS
 10
47.4208266984
 20
21.8164047035
 40
0.2362204724
100
AcDbArc
 50
0.0
 51
90.0
  0
ARC
  5
4B8
100
AcDbEntity
  8
7_ALL_ROUNDS
100
AcDbCircle
 62
7
  6
CONTINUOUS
 10
47.4208266984
 20
17.643176357
 40
0.2362204724
100
AcDbArc
 50
270.0
 51
360.0
  0
CIRCLE
  5
4B9
100
AcDbEntity
  8
0
100
AcDbCircle
 62
7
  6
CONTINUOUS
 10
42.4995668559
 20
19.7297905302
 40
0.1968503937
  0
ARC
  5
4BA
100
AcDbEntity
  8
7_ALL_ROUNDS
100
AcDbCircle
 62
7
  6
CONTINUOUS
 10
47.4208266984
 20
17.643176357
 40
0.1181102362
100
AcDbArc
 50
270.0
 51
360.0
  0
ARC
  5
4BB
100
AcDbEntity
  8
7_ALL_ROUNDS
100
AcDbCircle
 62
7
  6
CONTINUOUS
 10
47.4208266984
 20
21.8164047035
 40
0.1181102362
100
AcDbArc
 50
0.0
 51
90.0
  0
ARC
  5
4BC
100
AcDbEntity
  8
7_ALL_ROUNDS
100
AcDbCircle
 62
7
  6
CONTINUOUS
 10
10.0505131049
 20
36.1592576822
 40
0.4251968504
100
AcDbArc
 50
90.0
 51
180.0
  0
ARC
  5
4BD
100
AcDbEntity
  8
7_ALL_ROUNDS
100
AcDbCircle
 62
7
  6
CONTINUOUS
 10
32.346576097
 20
36.1592576822
 40
0.4251968504
100
AcDbArc
 50
0.0
 51
90.0
  0
ARC
  5
4BE
100
AcDbEntity
  8
7_ALL_ROUNDS
100
AcDbCircle
 62
7
  6
CONTINUOUS
 10
32.346576097
 20
36.1592576822
 40
0.3070866142
100
AcDbArc
 50
0.0
 51
90.0
  0
ARC
  5
4BF
100
AcDbEntity
  8
7_ALL_ROUNDS
100
AcDbCircle
 62
7
  6
CONTINUOUS
 10
10.0505131049
 20
36.1592576822
 40
0.3070866142
100
AcDbArc
 50
90.0
 51
180.0
  0
SPLINE
  5
4C0
100
AcDbEntity
  8
7_ALL_ROUNDS
100
AcDbSpline
 62
7
  6
CONTINUOUS
 70
0
 71
3
 72
9
 73
5
 74
0
 42
0.0000001
 43
0.0000001
 44
0.0000000001
 40
0.0
 40
0.0
 40
0.0
 40
0.0
 40
0.4492447768
 40
1.0
 40
1.0
 40
1.0
 40
1.0
 10
63.460959122
 20
30.2347926348
 30
0.0
 10
63.460959122
 20
30.2149169005
 30
0.0
 10
63.4435898443
 20
30.1705666567
 30
0.0
 10
63.407337657
 20
30.1427996282
 30
0.0
 10
63.3862367575
 20
30.1306138279
 30
0.0
  0
SPLINE
  5
4C1
100
AcDbEntity
  8
7_ALL_ROUNDS
100
AcDbSpline
 62
7
  6
CONTINUOUS
 70
0
 71
3
 72
9
 73
5
 74
0
 42
0.0000001
 43
0.0000001
 44
0.0000000001
 40
0.0
 40
0.0
 40
0.0
 40
0.0
 40
0.4492447768
 40
1.0
 40
1.0
 40
1.0
 40
1.0
 10
63.460959122
 20
32.1632721238
 30
0.0
 10
63.460959122
 20
32.1831478581
 30
0.0
 10
63.4435898443
 20
32.227498102
 30
0.0
 10
63.407337657
 20
32.2552651304
 30
0.0
 10
63.3862367575
 20
32.2674509307
 30
0.0
  0
SPLINE
  5
4C2
100
AcDbEntity
  8
0
100
AcDbSpline
 62
7
  6
CONTINUOUS
 70
0
 71
3
 72
9
 73
5
 74
0
 42
0.0000001
 43
0.0000001
 44
0.0000000001
 40
0.0
 40
0.0
 40
0.0
 40
0.0
 40
0.5508594325
 40
1.0
 40
1.0
 40
1.0
 40
1.0
 10
61.3015407613
 20
30.0762494597
 30
0.0
 10
61.3113119153
 20
30.0818923155
 30
0.0
 10
61.3308328422
 20
30.0900068744
 30
0.0
 10
61.3526418418
 20
30.0867083192
 30
0.0
 10
61.3606053191
 20
30.0821015863
 30
0.0
  0
SPLINE
  5
4C3
100
AcDbEntity
  8
0
100
AcDbSpline
 62
7
  6
CONTINUOUS
 70
0
 71
3
 72
9
 73
5
 74
0
 42
0.0000001
 43
0.0000001
 44
0.0000000001
 40
0.0
 40
0.0
 40
0.0
 40
0.0
 40
0.2745480674
 40
1.0
 40
1.0
 40
1.0
 40
1.0
 10
58.5479560432
 20
34.0973253732
 30
0.0
 10
58.5479560432
 20
34.1018644681
 30
0.0
 10
58.5487333908
 20
34.1183485661
 30
0.0
 10
58.5529200041
 20
34.1349607517
 30
0.0
 10
58.5586918451
 20
34.1454744992
 30
0.0
  0
SPLINE
  5
4C4
100
AcDbEntity
  8
0
100
AcDbSpline
 62
7
  6
CONTINUOUS
 70
0
 71
3
 72
11
 73
7
 74
0
 42
0.0000001
 43
0.0000001
 44
0.0000000001
 40
0.0
 40
0.0
 40
0.0
 40
0.0
 40
0.2519224556
 40
0.529257078
 40
0.7897212244
 40
1.0
 40
1.0
 40
1.0
 40
1.0
 10
60.6609247318
 20
32.7710164941
 30
0.0
 10
60.6444459732
 20
32.7805330013
 30
0.0
 10
60.6142532174
 20
32.8081543762
 30
0.0
 10
60.5827606998
 20
32.85958457
 30
0.0
 10
60.5667218088
 20
32.9143627438
 30
0.0
 10
60.569385261
 20
32.9515895359
 30
0.0
 10
60.5757977098
 20
32.966121276
 30
0.0
  0
SPLINE
  5
4C5
100
AcDbEntity
  8
7_ALL_ROUNDS
100
AcDbSpline
 62
7
  6
CONTINUOUS
 70
0
 71
3
 72
9
 73
5
 74
0
 42
0.0000001
 43
0.0000001
 44
0.0000000001
 40
0.0
 40
0.0
 40
0.0
 40
0.0
 40
0.4492048962
 40
1.0
 40
1.0
 40
1.0
 40
1.0
 10
63.3900844202
 20
32.1632721238
 30
0.0
 10
63.3900844202
 20
32.1489190094
 30
0.0
 10
63.3775554897
 20
32.1168836944
 30
0.0
 10
63.3513671427
 20
32.0968331783
 30
0.0
 10
63.3361268281
 20
32.0880318743
 30
0.0
  0
SPLINE
  5
4C6
100
AcDbEntity
  8
0
100
AcDbSpline
 62
7
  6
CONTINUOUS
 70
0
 71
3
 72
9
 73
5
 74
0
 42
0.0000001
 43
0.0000001
 44
0.0000000001
 40
0.0
 40
0.0
 40
0.0
 40
0.0
 40
0.4898862444
 40
1.0
 40
1.0
 40
1.0
 40
1.0
 10
61.8385080722
 20
31.6818334696
 30
0.0
 10
61.8200549814
 20
31.6924901565
 30
0.0
 10
61.7893805171
 20
31.7256973948
 30
0.0
 10
61.7722566101
 20
31.767071021
 30
0.0
 10
61.7691732232
 20
31.7890447933
 30
0.0
  0
SPLINE
  5
4C7
100
AcDbEntity
  8
0
100
AcDbSpline
 62
7
  6
CONTINUOUS
 70
0
 71
3
 72
9
 73
5
 74
0
 42
0.0000001
 43
0.0000001
 44
0.0000000001
 40
0.0
 40
0.0
 40
0.0
 40
0.0
 40
0.2707069358
 40
1.0
 40
1.0
 40
1.0
 40
1.0
 10
61.7691732232
 20
31.7890447933
 30
0.0
 10
61.7687510227
 20
31.7920536071
 30
0.0
 10
61.767623855
 20
31.8032101222
 30
0.0
 10
61.768274589
 20
31.8146533368
 30
0.0
 10
61.7702845117
 20
31.8225879808
 30
0.0
  0
SPLINE
  5
4C8
100
AcDbEntity
  8
0
100
AcDbSpline
 62
7
  6
CONTINUOUS
 70
0
 71
3
 72
9
 73
5
 74
0
 42
0.0000001
 43
0.0000001
 44
0.0000000001
 40
0.0
 40
0.0
 40
0.0
 40
0.0
 40
0.4898862444
 40
1.0
 40
1.0
 40
1.0
 40
1.0
 10
61.8385080722
 20
32.5496492396
 30
0.0
 10
61.8200549814
 20
32.5603059266
 30
0.0
 10
61.7893805171
 20
32.5935131649
 30
0.0
 10
61.7722566101
 20
32.634886791
 30
0.0
 10
61.7691732232
 20
32.6568605634
 30
0.0
  0
SPLINE
  5
4C9
100
AcDbEntity
  8
0
100
AcDbSpline
 62
7
  6
CONTINUOUS
 70
0
 71
3
 72
9
 73
5
 74
0
 42
0.0000001
 43
0.0000001
 44
0.0000000001
 40
0.0
 40
0.0
 40
0.0
 40
0.0
 40
0.2707069358
 40
1.0
 40
1.0
 40
1.0
 40
1.0
 10
61.7691732232
 20
32.6568605634
 30
0.0
 10
61.7687510227
 20
32.6598693771
 30
0.0
 10
61.767623855
 20
32.6710258922
 30
0.0
 10
61.768274589
 20
32.6824691069
 30
0.0
 10
61.7702845117
 20
32.6904037508
 30
0.0
  0
SPLINE
  5
4CA
100
AcDbEntity
  8
0
100
AcDbSpline
 62
7
  6
CONTINUOUS
 70
0
 71
3
 72
8
 73
4
 74
0
 42
0.0000001
 43
0.0000001
 44
0.0000000001
 40
0.0
 40
0.0
 40
0.0
 40
0.0
 40
1.0
 40
1.0
 40
1.0
 40
1.0
 10
55.4921722503
 20
36.2172613337
 30
0.0
 10
55.4860126837
 20
36.2189841675
 30
0.0
 10
55.4800857503
 20
36.2216474277
 30
0.0
 10
55.4745470415
 20
36.2248460401
 30
0.0
  0
SPLINE
  5
4CB
100
AcDbEntity
  8
0
100
AcDbSpline
 62
7
  6
CONTINUOUS
 70
0
 71
3
 72
9
 73
5
 74
0
 42
0.0000001
 43
0.0000001
 44
0.0000000001
 40
0.0
 40
0.0
 40
0.0
 40
0.0
 40
0.2208689615
 40
1.0
 40
1.0
 40
1.0
 40
1.0
 10
54.9503816212
 20
36.6084247663
 30
0.0
 10
54.9536634516
 20
36.6103232481
 30
0.0
 10
54.9701642997
 20
36.6163154993
 30
0.0
 10
54.98859123
 20
36.6101799378
 30
0.0
 10
55.0001730434
 20
36.6034914236
 30
0.0
  0
SPLINE
  5
4CC
100
AcDbEntity
  8
0
100
AcDbSpline
 62
7
  6
CONTINUOUS
 70
0
 71
3
 72
9
 73
5
 74
0
 42
0.0000001
 43
0.0000001
 44
0.0000000001
 40
0.0
 40
0.0
 40
0.0
 40
0.0
 40
0.2208689615
 40
1.0
 40
1.0
 40
1.0
 40
1.0
 10
54.9503816212
 20
35.7406089963
 30
0.0
 10
54.9536634516
 20
35.742507478
 30
0.0
 10
54.9701642997
 20
35.7484997293
 30
0.0
 10
54.98859123
 20
35.7423641678
 30
0.0
 10
55.0001730434
 20
35.7356756536
 30
0.0
  0
SPLINE
  5
4CD
100
AcDbEntity
  8
0
100
AcDbSpline
 62
7
  6
CONTINUOUS
 70
0
 71
3
 72
11
 73
7
 74
0
 42
0.0000001
 43
0.0000001
 44
0.0000000001
 40
0.0
 40
0.0
 40
0.0
 40
0.0
 40
0.2519224556
 40
0.529257078
 40
0.7897212244
 40
1.0
 40
1.0
 40
1.0
 40
1.0
 10
56.5352072133
 20
35.1536243936
 30
0.0
 10
56.5187284547
 20
35.1631409008
 30
0.0
 10
56.4885356989
 20
35.1907622758
 30
0.0
 10
56.4570431812
 20
35.2421924695
 30
0.0
 10
56.4410042902
 20
35.2969706434
 30
0.0
 10
56.4436677424
 20
35.3341974354
 30
0.0
 10
56.4500801912
 20
35.3487291755
 30
0.0
  0
SPLINE
  5
4CE
100
AcDbEntity
  8
0
100
AcDbSpline
 62
7
  6
CONTINUOUS
 70
0
 71
3
 72
8
 73
4
 74
0
 42
0.0000001
 43
0.0000001
 44
0.0000000001
 40
0.0
 40
0.0
 40
0.0
 40
0.0
 40
1.0
 40
1.0
 40
1.0
 40
1.0
 10
55.4921722503
 20
35.3494455637
 30
0.0
 10
55.4860126837
 20
35.3511683975
 30
0.0
 10
55.4800857503
 20
35.3538316576
 30
0.0
 10
55.4745470415
 20
35.3570302701
 30
0.0
  0
SPLINE
  5
4CF
100
AcDbEntity
  8
0
100
AcDbSpline
 62
7
  6
CONTINUOUS
 70
0
 71
3
 72
9
 73
5
 74
0
 42
0.0000001
 43
0.0000001
 44
0.0000000001
 40
0.0
 40
0.0
 40
0.0
 40
0.0
 40
0.4898862444
 40
1.0
 40
1.0
 40
1.0
 40
1.0
 10
55.0502829728
 20
35.6020433901
 30
0.0
 10
55.031829882
 20
35.612700077
 30
0.0
 10
55.0011554177
 20
35.6459073154
 30
0.0
 10
54.9840315107
 20
35.6872809415
 30
0.0
 10
54.9809481238
 20
35.7092547139
 30
0.0
  0
SPLINE
  5
4D0
100
AcDbEntity
  8
0
100
AcDbSpline
 62
7
  6
CONTINUOUS
 70
0
 71
3
 72
9
 73
5
 74
0
 42
0.0000001
 43
0.0000001
 44
0.0000000001
 40
0.0
 40
0.0
 40
0.0
 40
0.0
 40
0.2707069358
 40
1.0
 40
1.0
 40
1.0
 40
1.0
 10
54.9809481238
 20
35.7092547139
 30
0.0
 10
54.9805259233
 20
35.7122635276
 30
0.0
 10
54.9793987556
 20
35.7234200427
 30
0.0
 10
54.9800494896
 20
35.7348632574
 30
0.0
 10
54.9820594123
 20
35.7427979013
 30
0.0
  0
SPLINE
  5
4D1
100
AcDbEntity
  8
0
100
AcDbSpline
 62
7
  6
CONTINUOUS
 70
0
 71
3
 72
9
 73
5
 74
0
 42
0.0000001
 43
0.0000001
 44
0.0000000001
 40
0.0
 40
0.0
 40
0.0
 40
0.0
 40
0.4898862444
 40
1.0
 40
1.0
 40
1.0
 40
1.0
 10
55.0502829728
 20
36.4698591602
 30
0.0
 10
55.031829882
 20
36.4805158471
 30
0.0
 10
55.0011554177
 20
36.5137230854
 30
0.0
 10
54.9840315107
 20
36.5550967116
 30
0.0
 10
54.9809481238
 20
36.5770704839
 30
0.0
  0
SPLINE
  5
4D2
100
AcDbEntity
  8
0
100
AcDbSpline
 62
7
  6
CONTINUOUS
 70
0
 71
3
 72
9
 73
5
 74
0
 42
0.0000001
 43
0.0000001
 44
0.0000000001
 40
0.0
 40
0.0
 40
0.0
 40
0.0
 40
0.2707069358
 40
1.0
 40
1.0
 40
1.0
 40
1.0
 10
54.9809481238
 20
36.5770704839
 30
0.0
 10
54.9805259233
 20
36.5800792977
 30
0.0
 10
54.9793987556
 20
36.5912358128
 30
0.0
 10
54.9800494896
 20
36.6026790274
 30
0.0
 10
54.9820594123
 20
36.6106136714
 30
0.0
  0
SPLINE
  5
4D3
100
AcDbEntity
  8
0
100
AcDbSpline
 62
7
  6
CONTINUOUS
 70
0
 71
3
 72
9
 73
5
 74
0
 42
0.0000001
 43
0.0000001
 44
0.0000000001
 40
0.0
 40
0.0
 40
0.0
 40
0.0
 40
0.4491404885
 40
1.0
 40
1.0
 40
1.0
 40
1.0
 10
56.4201262503
 20
35.343255878
 30
0.0
 10
56.4288900151
 20
35.3483163872
 30
0.0
 10
56.4528734914
 20
35.3519549037
 30
0.0
 10
56.4743490536
 20
35.3430256986
 30
0.0
 10
56.4850972839
 20
35.3368185799
 30
0.0
  0
SPLINE
  5
4D4
100
AcDbEntity
  8
0
100
AcDbSpline
 62
7
  6
CONTINUOUS
 70
0
 71
3
 72
9
 73
5
 74
0
 42
0.0000001
 43
0.0000001
 44
0.0000000001
 40
0.0
 40
0.0
 40
0.0
 40
0.0
 40
0.2305858537
 40
1.0
 40
1.0
 40
1.0
 40
1.0
 10
56.6867122012
 20
35.0739310043
 30
0.0
 10
56.6838989488
 20
35.0742356607
 30
0.0
 10
56.6717858321
 20
35.0763701312
 30
0.0
 10
56.6603069331
 20
35.0813791225
 30
0.0
 10
56.6521303818
 20
35.0861010928
 30
0.0
  0
SPLINE
  5
4D5
100
AcDbEntity
  8
0
100
AcDbSpline
 62
7
  6
CONTINUOUS
 70
0
 71
3
 72
8
 73
4
 74
0
 42
0.0000001
 43
0.0000001
 44
0.0000000001
 40
0.0
 40
0.0
 40
0.0
 40
0.0
 40
1.0
 40
1.0
 40
1.0
 40
1.0
 10
62.2803973497
 20
32.2970514132
 30
0.0
 10
62.2742377831
 20
32.298774247
 30
0.0
 10
62.2683108497
 20
32.3014375071
 30
0.0
 10
62.2627721409
 20
32.3046361196
 30
0.0
  0
SPLINE
  5
4D6
100
AcDbEntity
  8
0
100
AcDbSpline
 62
7
  6
CONTINUOUS
 70
0
 71
3
 72
9
 73
5
 74
0
 42
0.0000001
 43
0.0000001
 44
0.0000000001
 40
0.0
 40
0.0
 40
0.0
 40
0.0
 40
0.2208689615
 40
1.0
 40
1.0
 40
1.0
 40
1.0
 10
61.7386067206
 20
32.6882148458
 30
0.0
 10
61.741888551
 20
32.6901133275
 30
0.0
 10
61.7583893991
 20
32.6961055788
 30
0.0
 10
61.7768163294
 20
32.6899700173
 30
0.0
 10
61.7883981428
 20
32.6832815031
 30
0.0
  0
SPLINE
  5
4D7
100
AcDbEntity
  8
0
100
AcDbSpline
 62
7
  6
CONTINUOUS
 70
0
 71
3
 72
9
 73
5
 74
0
 42
0.0000001
 43
0.0000001
 44
0.0000000001
 40
0.0
 40
0.0
 40
0.0
 40
0.0
 40
0.2208689615
 40
1.0
 40
1.0
 40
1.0
 40
1.0
 10
61.7386067206
 20
31.8203990757
 30
0.0
 10
61.741888551
 20
31.8222975575
 30
0.0
 10
61.7583893991
 20
31.8282898087
 30
0.0
 10
61.7768163294
 20
31.8221542472
 30
0.0
 10
61.7883981428
 20
31.815465733
 30
0.0
  0
SPLINE
  5
4D8
100
AcDbEntity
  8
0
100
AcDbSpline
 62
7
  6
CONTINUOUS
 70
0
 71
3
 72
9
 73
5
 74
0
 42
0.0000001
 43
0.0000001
 44
0.0000000001
 40
0.0
 40
0.0
 40
0.0
 40
0.0
 40
0.4491404885
 40
1.0
 40
1.0
 40
1.0
 40
1.0
 10
60.5458437689
 20
32.9606479784
 30
0.0
 10
60.5546075337
 20
32.9657084877
 30
0.0
 10
60.57859101
 20
32.9693470042
 30
0.0
 10
60.6000665722
 20
32.9604177991
 30
0.0
 10
60.6108148025
 20
32.9542106804
 30
0.0
  0
SPLINE
  5
4D9
100
AcDbEntity
  8
0
100
AcDbSpline
 62
7
  6
CONTINUOUS
 70
0
 71
3
 72
9
 73
5
 74
0
 42
0.0000001
 43
0.0000001
 44
0.0000000001
 40
0.0
 40
0.0
 40
0.0
 40
0.0
 40
0.2305858537
 40
1.0
 40
1.0
 40
1.0
 40
1.0
 10
60.8124297198
 20
32.6913231047
 30
0.0
 10
60.8096164674
 20
32.6916277612
 30
0.0
 10
60.7975033507
 20
32.6937622317
 30
0.0
 10
60.7860244517
 20
32.698771223
 30
0.0
 10
60.7778479004
 20
32.7034931933
 30
0.0
  0
SPLINE
  5
4DA
100
AcDbEntity
  8
7_ALL_ROUNDS
100
AcDbSpline
 62
7
  6
CONTINUOUS
 70
0
 71
3
 72
11
 73
7
 74
0
 42
0.0000001
 43
0.0000001
 44
0.0000000001
 40
0.0
 40
0.0
 40
0.0
 40
0.0
 40
0.2371984339
 40
0.4999751756
 40
0.7627654293
 40
1.0
 40
1.0
 40
1.0
 40
1.0
 10
50.9671208709
 20
35.3691281829
 30
0.0
 10
50.9671208709
 20
35.4786382599
 30
0.0
 10
51.0082025299
 20
35.709615909
 30
0.0
 10
51.1513927308
 20
36.0341970218
 30
0.0
 10
51.3609048513
 20
36.3205061207
 30
0.0
 10
51.5404065155
 20
36.4715932765
 30
0.0
 10
51.6352532626
 20
36.5263674116
 30
0.0
  0
SPLINE
  5
4DB
100
AcDbEntity
  8
0
100
AcDbSpline
 62
7
  6
CONTINUOUS
 70
0
 71
3
 72
11
 73
7
 74
0
 42
0.0000001
 43
0.0000001
 44
0.0000000001
 40
0.0
 40
0.0
 40
0.0
 40
0.0
 40
0.2056110961
 40
0.4652505666
 40
0.7451918358
 40
1.0
 40
1.0
 40
1.0
 40
1.0
 10
58.7036414364
 20
33.8944859711
 30
0.0
 10
58.6848726291
 20
33.8948854317
 30
0.0
 10
58.6434658824
 20
33.9125382221
 30
0.0
 10
58.5949595497
 20
33.961277133
 30
0.0
 10
58.5590646931
 20
34.0252670365
 30
0.0
 10
58.5479560432
 20
34.0740604402
 30
0.0
 10
58.5479560432
 20
34.0973253732
 30
0.0
  0
SPLINE
  5
4DC
100
AcDbEntity
  8
0
100
AcDbSpline
 62
7
  6
CONTINUOUS
 70
0
 71
3
 72
12
 73
8
 74
0
 42
0.0000001
 43
0.0000001
 44
0.0000000001
 40
0.0
 40
0.0
 40
0.0
 40
0.0
 40
0.1832717232
 40
0.3014701037
 40
0.4362079054
 40
0.7289494132
 40
1.0
 40
1.0
 40
1.0
 40
1.0
 10
58.5296336787
 20
34.1386454886
 30
0.0
 10
58.5456918801
 20
34.1479201072
 30
0.0
 10
58.5808614867
 20
34.1461215459
 30
0.0
 10
58.6190992329
 20
34.1244528554
 30
0.0
 10
58.6609766248
 20
34.0876701258
 30
0.0
 10
58.6998654719
 20
34.0272599271
 30
0.0
 10
58.7149891411
 20
33.9704123142
 30
0.0
 10
58.7149891411
 20
33.9429864
 30
0.0
  0
SPLINE
  5
4DD
100
AcDbEntity
  8
0
100
AcDbSpline
 62
7
  6
CONTINUOUS
 70
0
 71
3
 72
9
 73
5
 74
0
 42
0.0000001
 43
0.0000001
 44
0.0000000001
 40
0.0
 40
0.0
 40
0.0
 40
0.0
 40
0.2669924996
 40
1.0
 40
1.0
 40
1.0
 40
1.0
 10
51.6352471869
 20
35.465700184
 30
0.0
 10
51.6330048496
 20
35.4644052309
 30
0.0
 10
51.6244433985
 20
35.459859134
 30
0.0
 10
51.6151591543
 20
35.4565485318
 30
0.0
 10
51.6081657463
 20
35.4552718058
 30
0.0
  0
SPLINE
  5
4DE
100
AcDbEntity
  8
0
100
AcDbSpline
 62
7
  6
CONTINUOUS
 70
0
 71
3
 72
8
 73
4
 74
0
 42
0.0000001
 43
0.0000001
 44
0.0000000001
 40
0.0
 40
0.0
 40
0.0
 40
0.0
 40
1.0
 40
1.0
 40
1.0
 40
1.0
 10
51.7135393886
 20
35.6408968243
 30
0.0
 10
51.7153828536
 20
35.6362277757
 30
0.0
 10
51.7166658509
 20
35.6313170576
 30
0.0
 10
51.7174949318
 20
35.6263661988
 30
0.0
  0
SPLINE
  5
4DF
100
AcDbEntity
  8
0
100
AcDbSpline
 62
7
  6
CONTINUOUS
 70
0
 71
3
 72
9
 73
5
 74
0
 42
0.0000001
 43
0.0000001
 44
0.0000000001
 40
0.0
 40
0.0
 40
0.0
 40
0.0
 40
0.4873409206
 40
1.0
 40
1.0
 40
1.0
 40
1.0
 10
51.7174949318
 20
35.6263661988
 30
0.0
 10
51.7225118056
 20
35.5964079264
 30
0.0
 10
51.7042244388
 20
35.5322291275
 30
0.0
 10
51.6629179089
 20
35.4816800664
 30
0.0
 10
51.6352471869
 20
35.465700184
 30
0.0
  0
SPLINE
  5
4E0
100
AcDbEntity
  8
0
100
AcDbSpline
 62
7
  6
CONTINUOUS
 70
0
 71
3
 72
9
 73
5
 74
0
 42
0.0000001
 43
0.0000001
 44
0.0000000001
 40
0.0
 40
0.0
 40
0.0
 40
0.0
 40
0.5508594325
 40
1.0
 40
1.0
 40
1.0
 40
1.0
 10
51.6853571163
 20
35.6296095754
 30
0.0
 10
51.6951282703
 20
35.6352524311
 30
0.0
 10
51.7146491972
 20
35.64336699
 30
0.0
 10
51.7364581968
 20
35.6400684348
 30
0.0
 10
51.7444216741
 20
35.635461702
 30
0.0
  0
SPLINE
  5
4E1
100
AcDbEntity
  8
0
100
AcDbSpline
 62
7
  6
CONTINUOUS
 70
0
 71
3
 72
9
 73
5
 74
0
 42
0.0000001
 43
0.0000001
 44
0.0000000001
 40
0.0
 40
0.0
 40
0.0
 40
0.0
 40
0.5508265156
 40
1.0
 40
1.0
 40
1.0
 40
1.0
 10
58.7149891411
 20
33.9429864
 30
0.0
 10
58.7149891411
 20
33.9283276166
 30
0.0
 10
58.711436471
 20
33.90108845
 30
0.0
 10
58.6935527088
 20
33.8787061555
 30
0.0
 10
58.6832015762
 20
33.8727277271
 30
0.0
  0
SPLINE
  5
4E2
100
AcDbEntity
  8
0
100
AcDbSpline
 62
7
  6
CONTINUOUS
 70
0
 71
3
 72
12
 73
8
 74
0
 42
0.0000001
 43
0.0000001
 44
0.0000000001
 40
0.0
 40
0.0
 40
0.0
 40
0.0
 40
0.2710796967
 40
0.5638151492
 40
0.6985435739
 40
0.816733389
 40
1.0
 40
1.0
 40
1.0
 40
1.0
 10
60.727737971
 20
32.8866873796
 30
0.0
 10
60.7478331073
 20
32.875082409
 30
0.0
 10
60.7830882423
 20
32.8399552838
 30
0.0
 10
60.8109047907
 20
32.7859098659
 30
0.0
 10
60.8201446234
 20
32.739670975
 30
0.0
 10
60.8198498158
 20
32.702490792
 30
0.0
 10
60.8062949452
 20
32.6759623427
 30
0.0
 10
60.7927090046
 20
32.6681173377
 30
0.0
  0
SPLINE
  5
4E3
100
AcDbEntity
  8
0
100
AcDbSpline
 62
7
  6
CONTINUOUS
 70
0
 71
3
 72
9
 73
5
 74
0
 42
0.0000001
 43
0.0000001
 44
0.0000000001
 40
0.0
 40
0.0
 40
0.0
 40
0.0
 40
0.2318342689
 40
1.0
 40
1.0
 40
1.0
 40
1.0
 10
62.2126622115
 20
31.570452613
 30
0.0
 10
62.2204521401
 20
31.5659539179
 30
0.0
 10
62.2511794248
 20
31.5418758663
 30
0.0
 10
62.2719895996
 20
31.5058470718
 30
0.0
 10
62.2792894039
 20
31.4769484482
 30
0.0
  0
SPLINE
  5
4E4
100
AcDbEntity
  8
0
100
AcDbSpline
 62
7
  6
CONTINUOUS
 70
0
 71
3
 72
11
 73
7
 74
0
 42
0.0000001
 43
0.0000001
 44
0.0000000001
 40
0.0
 40
0.0
 40
0.0
 40
0.0
 40
0.2715613565
 40
0.5647786957
 40
0.8164157334
 40
1.0
 40
1.0
 40
1.0
 40
1.0
 10
62.2126622115
 20
32.438268383
 30
0.0
 10
62.2280632452
 20
32.4293742635
 30
0.0
 10
62.2552359863
 20
32.4024595873
 30
0.0
 10
62.279398332
 20
32.3541088631
 30
0.0
 10
62.2874482718
 20
32.3058416809
 30
0.0
 10
62.2728608063
 20
32.2767845874
 30
0.0
 10
62.2624536337
 20
32.2707642194
 30
0.0
  0
SPLINE
  5
4E5
100
AcDbEntity
  8
0
100
AcDbSpline
 62
7
  6
CONTINUOUS
 70
0
 71
3
 72
12
 73
8
 74
0
 42
0.0000001
 43
0.0000001
 44
0.0000000001
 40
0.0
 40
0.0
 40
0.0
 40
0.0
 40
0.2710796967
 40
0.5638151492
 40
0.6985435739
 40
0.816733389
 40
1.0
 40
1.0
 40
1.0
 40
1.0
 10
56.6020204524
 20
35.2692952791
 30
0.0
 10
56.6221155887
 20
35.2576903085
 30
0.0
 10
56.6573707237
 20
35.2225631833
 30
0.0
 10
56.6851872721
 20
35.1685177655
 30
0.0
 10
56.6944271048
 20
35.1222788745
 30
0.0
 10
56.6941322972
 20
35.0850986915
 30
0.0
 10
56.6805774266
 20
35.0585702422
 30
0.0
 10
56.666991486
 20
35.0507252373
 30
0.0
  0
SPLINE
  5
4E6
100
AcDbEntity
  8
0
100
AcDbSpline
 62
7
  6
CONTINUOUS
 70
0
 71
3
 72
11
 73
7
 74
0
 42
0.0000001
 43
0.0000001
 44
0.0000000001
 40
0.0
 40
0.0
 40
0.0
 40
0.0
 40
0.2715613565
 40
0.5647786957
 40
0.8164157334
 40
1.0
 40
1.0
 40
1.0
 40
1.0
 10
55.4244371121
 20
35.4906625335
 30
0.0
 10
55.4398381459
 20
35.481768414
 30
0.0
 10
55.4670108869
 20
35.4548537378
 30
0.0
 10
55.4911732326
 20
35.4065030136
 30
0.0
 10
55.4992231724
 20
35.3582358314
 30
0.0
 10
55.4846357069
 20
35.3291787379
 30
0.0
 10
55.4742285343
 20
35.3231583699
 30
0.0
  0
SPLINE
  5
4E7
100
AcDbEntity
  8
0
100
AcDbSpline
 62
7
  6
CONTINUOUS
 70
0
 71
3
 72
11
 73
7
 74
0
 42
0.0000001
 43
0.0000001
 44
0.0000000001
 40
0.0
 40
0.0
 40
0.0
 40
0.0
 40
0.2715613565
 40
0.5647786957
 40
0.8164157334
 40
1.0
 40
1.0
 40
1.0
 40
1.0
 10
55.4244371121
 20
36.3584783036
 30
0.0
 10
55.4398381459
 20
36.3495841841
 30
0.0
 10
55.4670108869
 20
36.3226695078
 30
0.0
 10
55.4911732326
 20
36.2743187836
 30
0.0
 10
55.4992231724
 20
36.2260516015
 30
0.0
 10
55.4846357069
 20
36.196994508
 30
0.0
 10
55.4742285343
 20
36.1909741399
 30
0.0
  0
SPLINE
  5
4E8
100
AcDbEntity
  8
0
100
AcDbSpline
 62
7
  6
CONTINUOUS
 70
0
 71
3
 72
8
 73
4
 74
0
 42
0.0000001
 43
0.0000001
 44
0.0000000001
 40
0.0
 40
0.0
 40
0.0
 40
0.0
 40
1.0
 40
1.0
 40
1.0
 40
1.0
 10
61.3297230336
 20
30.0875367086
 30
0.0
 10
61.3315664986
 20
30.0828676601
 30
0.0
 10
61.3328494959
 20
30.0779569419
 30
0.0
 10
61.3336785768
 20
30.0730060832
 30
0.0
  0
SPLINE
  5
4E9
100
AcDbEntity
  8
0
100
AcDbSpline
 62
7
  6
CONTINUOUS
 70
0
 71
3
 72
9
 73
5
 74
0
 42
0.0000001
 43
0.0000001
 44
0.0000000001
 40
0.0
 40
0.0
 40
0.0
 40
0.0
 40
0.4873409206
 40
1.0
 40
1.0
 40
1.0
 40
1.0
 10
61.3336785768
 20
30.0730060832
 30
0.0
 10
61.3386954506
 20
30.0430478108
 30
0.0
 10
61.3204080838
 20
29.9788690118
 30
0.0
 10
61.2791015539
 20
29.9283199507
 30
0.0
 10
61.2514308319
 20
29.9123400683
 30
0.0
  0
SPLINE
  5
4EA
100
AcDbEntity
  8
0
100
AcDbSpline
 62
7
  6
CONTINUOUS
 70
0
 71
3
 72
12
 73
8
 74
0
 42
0.0000001
 43
0.0000001
 44
0.0000000001
 40
0.0
 40
0.0
 40
0.0
 40
0.0
 40
0.1832682591
 40
0.3014652587
 40
0.43619347
 40
0.7289060879
 40
1.0
 40
1.0
 40
1.0
 40
1.0
 10
51.6262925585
 20
35.4309094999
 30
0.0
 10
51.6139471581
 20
35.438051099
 30
0.0
 10
51.6016136221
 20
35.46215463
 30
0.0
 10
51.6013521725
 20
35.4959597745
 30
0.0
 10
51.609752351
 20
35.5379920999
 30
0.0
 10
51.6350383122
 20
35.5871252364
 30
0.0
 10
51.6670877999
 20
35.6190590184
 30
0.0
 10
51.6853571163
 20
35.6296095754
 30
0.0
  0
SPLINE
  5
4EB
100
AcDbEntity
  8
7_ALL_ROUNDS
100
AcDbSpline
 62
7
  6
CONTINUOUS
 70
0
 71
3
 72
11
 73
7
 74
0
 42
0.0000001
 43
0.0000001
 44
0.0000000001
 40
0.0
 40
0.0
 40
0.0
 40
0.0
 40
0.2371984339
 40
0.4999751756
 40
0.7627654293
 40
1.0
 40
1.0
 40
1.0
 40
1.0
 10
60.5833045159
 20
29.8157680673
 30
0.0
 10
60.5833045159
 20
29.9252781443
 30
0.0
 10
60.6243861749
 20
30.1562557934
 30
0.0
 10
60.7675763758
 20
30.4808369061
 30
0.0
 10
60.9770884963
 20
30.7671460051
 30
0.0
 10
61.1565901605
 20
30.9182331608
 30
0.0
 10
61.2514369076
 20
30.973007296
 30
0.0
  0
SPLINE
  5
4EC
100
AcDbEntity
  8
0
100
AcDbSpline
 62
7
  6
CONTINUOUS
 70
0
 71
3
 72
12
 73
8
 74
0
 42
0.0000001
 43
0.0000001
 44
0.0000000001
 40
0.0
 40
0.0
 40
0.0
 40
0.0
 40
0.1832682591
 40
0.3014652587
 40
0.43619347
 40
0.7289060879
 40
1.0
 40
1.0
 40
1.0
 40
1.0
 10
61.2424762035
 20
29.8775493843
 30
0.0
 10
61.2301308031
 20
29.8846909833
 30
0.0
 10
61.2177972671
 20
29.9087945144
 30
0.0
 10
61.2175358175
 20
29.9425996589
 30
0.0
 10
61.225935996
 20
29.9846319843
 30
0.0
 10
61.2512219572
 20
30.0337651208
 30
0.0
 10
61.2832714449
 20
30.0656989028
 30
0.0
 10
61.3015407613
 20
30.0762494597
 30
0.0
  0
SPLINE
  5
4ED
100
AcDbEntity
  8
7_ALL_ROUNDS
100
AcDbSpline
 62
7
  6
CONTINUOUS
 70
0
 71
3
 72
11
 73
7
 74
0
 42
0.0000001
 43
0.0000001
 44
0.0000000001
 40
0.0
 40
0.0
 40
0.0
 40
0.0
 40
0.2177515766
 40
0.4509214262
 40
0.710178081
 40
1.0
 40
1.0
 40
1.0
 40
1.0
 10
60.8290131112
 20
28.9687428991
 30
0.0
 10
60.8601817221
 20
28.9507429377
 30
0.0
 10
60.9318090327
 20
28.924725981
 30
0.0
 10
61.0507686305
 20
28.9217551193
 30
0.0
 10
61.1775786325
 20
28.9523511461
 30
0.0
 10
61.2600621682
 20
28.9916317927
 30
0.0
 10
61.3015468369
 20
29.0155892495
 30
0.0
  0
SPLINE
  5
4EE
100
AcDbEntity
  8
7_ALL_ROUNDS
100
AcDbSpline
 62
7
  6
CONTINUOUS
 70
0
 71
3
 72
11
 73
7
 74
0
 42
0.0000001
 43
0.0000001
 44
0.0000000001
 40
0.0
 40
0.0
 40
0.0
 40
0.0
 40
0.2177733161
 40
0.4509522437
 40
0.7102006482
 40
1.0
 40
1.0
 40
1.0
 40
1.0
 10
60.7789031818
 20
28.9976814566
 30
0.0
 10
60.7477503968
 20
29.0156722785
 30
0.0
 10
60.689444603
 20
29.064675111
 30
0.0
 10
60.6274273495
 20
29.1661517346
 30
0.0
 10
60.5905331815
 20
29.2911876769
 30
0.0
 10
60.5833045159
 20
29.3821994954
 30
0.0
 10
60.5833045159
 20
29.4300721695
 30
0.0
  0
SPLINE
  5
4EF
100
AcDbEntity
  8
0
100
AcDbSpline
 62
7
  6
CONTINUOUS
 70
0
 71
3
 72
9
 73
5
 74
0
 42
0.0000001
 43
0.0000001
 44
0.0000000001
 40
0.0
 40
0.0
 40
0.0
 40
0.0
 40
0.2669924996
 40
1.0
 40
1.0
 40
1.0
 40
1.0
 10
61.2514308319
 20
29.9123400683
 30
0.0
 10
61.2491884946
 20
29.9110451153
 30
0.0
 10
61.2406270435
 20
29.9064990184
 30
0.0
 10
61.2313427993
 20
29.9031884161
 30
0.0
 10
61.2243493913
 20
29.9019116902
 30
0.0
  0
SPLINE
  5
4F0
100
AcDbEntity
  8
7_ALL_ROUNDS
100
AcDbSpline
 62
7
  6
CONTINUOUS
 70
0
 71
3
 72
11
 73
7
 74
0
 42
0.0000001
 43
0.0000001
 44
0.0000000001
 40
0.0
 40
0.0
 40
0.0
 40
0.0
 40
0.2177515766
 40
0.4509214262
 40
0.710178081
 40
1.0
 40
1.0
 40
1.0
 40
1.0
 10
51.2128294662
 20
34.5221030147
 30
0.0
 10
51.2439980771
 20
34.5041030534
 30
0.0
 10
51.3156253877
 20
34.4780860966
 30
0.0
 10
51.4345849855
 20
34.4751152349
 30
0.0
 10
51.5613949875
 20
34.5057112617
 30
0.0
 10
51.6438785232
 20
34.5449919083
 30
0.0
 10
51.6853631919
 20
34.5689493651
 30
0.0
  0
SPLINE
  5
4F1
100
AcDbEntity
  8
7_ALL_ROUNDS
100
AcDbSpline
 62
7
  6
CONTINUOUS
 70
0
 71
3
 72
11
 73
7
 74
0
 42
0.0000001
 43
0.0000001
 44
0.0000000001
 40
0.0
 40
0.0
 40
0.0
 40
0.0
 40
0.2177733161
 40
0.4509522437
 40
0.7102006482
 40
1.0
 40
1.0
 40
1.0
 40
1.0
 10
51.1627195368
 20
34.5510415722
 30
0.0
 10
51.1315667518
 20
34.5690323941
 30
0.0
 10
51.073260958
 20
34.6180352267
 30
0.0
 10
51.0112437046
 20
34.7195118502
 30
0.0
 10
50.9743495365
 20
34.8445477925
 30
0.0
 10
50.9671208709
 20
34.935559611
 30
0.0
 10
50.9671208709
 20
34.9834322851
 30
0.0
  0
SPLINE
  5
4F2
100
AcDbEntity
  8
7_ALL_ROUNDS
100
AcDbSpline
 62
7
  6
CONTINUOUS
 70
0
 71
3
 72
9
 73
5
 74
0
 42
0.0000001
 43
0.0000001
 44
0.0000000001
 40
0.0
 40
0.0
 40
0.0
 40
0.0
 40
0.550823952
 40
1.0
 40
1.0
 40
1.0
 40
1.0
 10
63.3862367575
 20
32.3253053154
 30
0.0
 10
63.3862367575
 20
32.3388363714
 30
0.0
 10
63.3829583377
 20
32.3639804831
 30
0.0
 10
63.3664488294
 20
32.3846401249
 30
0.0
 10
63.3568936647
 20
32.3901582202
 30
0.0
  0
SPLINE
  5
4F3
100
AcDbEntity
  8
7_ALL_ROUNDS
100
AcDbSpline
 62
7
  6
CONTINUOUS
 70
0
 71
3
 72
9
 73
5
 74
0
 42
0.0000001
 43
0.0000001
 44
0.0000000001
 40
0.0
 40
0.0
 40
0.0
 40
0.0
 40
0.5
 40
1.0
 40
1.0
 40
1.0
 40
1.0
 10
53.8767084268
 20
35.7728608424
 30
0.0
 10
53.8380399356
 20
35.7951919526
 30
0.0
 10
53.7464226104
 20
35.812850909
 30
0.0
 10
53.6548052852
 20
35.7951919526
 30
0.0
 10
53.616136794
 20
35.7728608424
 30
0.0
  0
SPLINE
  5
4F4
100
AcDbEntity
  8
7_ALL_ROUNDS
100
AcDbSpline
 62
7
  6
CONTINUOUS
 70
0
 71
3
 72
9
 73
5
 74
0
 42
0.0000001
 43
0.0000001
 44
0.0000000001
 40
0.0
 40
0.0
 40
0.0
 40
0.0
 40
0.5000256547
 40
1.0
 40
1.0
 40
1.0
 40
1.0
 10
53.8265984974
 20
35.6282135156
 30
0.0
 10
53.8414715685
 20
35.6368027359
 30
0.0
 10
53.864971331
 20
35.66392157
 30
0.0
 10
53.8767084268
 20
35.6978331525
 30
0.0
 10
53.8767084268
 20
35.7150064578
 30
0.0
  0
SPLINE
  5
4F5
100
AcDbEntity
  8
7_ALL_ROUNDS
100
AcDbSpline
 62
7
  6
CONTINUOUS
 70
0
 71
3
 72
9
 73
5
 74
0
 42
0.0000001
 43
0.0000001
 44
0.0000000001
 40
0.0
 40
0.0
 40
0.0
 40
0.0
 40
0.5508569429
 40
1.0
 40
1.0
 40
1.0
 40
1.0
 10
53.8265984974
 20
37.8459649279
 30
0.0
 10
53.8383237278
 20
37.8527362657
 30
0.0
 10
53.8617513617
 20
37.8624781933
 30
0.0
 10
53.8879150461
 20
37.8585071916
 30
0.0
 10
53.8974752634
 20
37.8529861784
 30
0.0
  0
SPLINE
  5
4F6
100
AcDbEntity
  8
7_ALL_ROUNDS
100
AcDbSpline
 62
7
  6
CONTINUOUS
 70
0
 71
3
 72
9
 73
5
 74
0
 42
0.0000001
 43
0.0000001
 44
0.0000000001
 40
0.0
 40
0.0
 40
0.0
 40
0.0
 40
0.294991121
 40
1.0
 40
1.0
 40
1.0
 40
1.0
 10
63.2860168987
 20
32.3252825851
 30
0.0
 10
63.2891211361
 20
32.3270752867
 30
0.0
 10
63.2999054856
 20
32.3323753888
 30
0.0
 10
63.3140380232
 20
32.3330805195
 30
0.0
 10
63.3214569281
 20
32.3287960614
 30
0.0
  0
SPLINE
  5
4F7
100
AcDbEntity
  8
7_ALL_ROUNDS
100
AcDbSpline
 62
7
  6
CONTINUOUS
 70
0
 71
3
 72
9
 73
5
 74
0
 42
0.0000001
 43
0.0000001
 44
0.0000000001
 40
0.0
 40
0.0
 40
0.0
 40
0.0
 40
0.2668655353
 40
1.0
 40
1.0
 40
1.0
 40
1.0
 10
53.6938172765
 20
37.7702637122
 30
0.0
 10
53.681951792
 20
37.7688209927
 30
0.0
 10
53.6377946495
 20
37.7615303828
 30
0.0
 10
53.5944626767
 20
37.7467006119
 30
0.0
 10
53.5660268647
 20
37.7302788889
 30
0.0
  0
SPLINE
  5
4F8
100
AcDbEntity
  8
0
100
AcDbSpline
 62
7
  6
CONTINUOUS
 70
0
 71
3
 72
11
 73
7
 74
0
 42
0.0000001
 43
0.0000001
 44
0.0000000001
 40
0.0
 40
0.0
 40
0.0
 40
0.0
 40
0.2715613565
 40
0.5647786957
 40
0.8164157334
 40
1.0
 40
1.0
 40
1.0
 40
1.0
 10
61.7883981428
 20
32.5207106822
 30
0.0
 10
61.772997109
 20
32.5296048017
 30
0.0
 10
61.745824368
 20
32.5565194779
 30
0.0
 10
61.7216620223
 20
32.6048702021
 30
0.0
 10
61.7136120825
 20
32.6531373843
 30
0.0
 10
61.728199548
 20
32.6821944778
 30
0.0
 10
61.7386067206
 20
32.6882148458
 30
0.0
  0
SPLINE
  5
4F9
100
AcDbEntity
  8
0
100
AcDbSpline
 62
7
  6
CONTINUOUS
 70
0
 71
3
 72
12
 73
8
 74
0
 42
0.0000001
 43
0.0000001
 44
0.0000000001
 40
0.0
 40
0.0
 40
0.0
 40
0.0
 40
0.2710796967
 40
0.5638151492
 40
0.6985435739
 40
0.816733389
 40
1.0
 40
1.0
 40
1.0
 40
1.0
 10
56.4850972839
 20
35.1246858361
 30
0.0
 10
56.4650021476
 20
35.1362908067
 30
0.0
 10
56.4297470126
 20
35.1714179319
 30
0.0
 10
56.4019304642
 20
35.2254633498
 30
0.0
 10
56.3926906315
 20
35.2717022407
 30
0.0
 10
56.3929854391
 20
35.3088824237
 30
0.0
 10
56.4065403097
 20
35.335410873
 30
0.0
 10
56.4201262503
 20
35.343255878
 30
0.0
  0
SPLINE
  5
4FA
100
AcDbEntity
  8
7_ALL_ROUNDS
100
AcDbSpline
 62
7
  6
CONTINUOUS
 70
0
 71
3
 72
11
 73
7
 74
0
 42
0.0000001
 43
0.0000001
 44
0.0000000001
 40
0.0
 40
0.0
 40
0.0
 40
0.0
 40
0.2372345707
 40
0.5000248244
 40
0.7628015661
 40
1.0
 40
1.0
 40
1.0
 40
1.0
 10
61.3015468369
 20
30.9440687385
 30
0.0
 10
61.2067000898
 20
30.8892946034
 30
0.0
 10
61.0271984257
 20
30.7382074476
 30
0.0
 10
60.8176863051
 20
30.4518983487
 30
0.0
 10
60.6744961043
 20
30.1273172359
 30
0.0
 10
60.6334144453
 20
29.8963395868
 30
0.0
 10
60.6334144453
 20
29.7868295098
 30
0.0
  0
SPLINE
  5
4FB
100
AcDbEntity
  8
0
100
AcDbSpline
 62
7
  6
CONTINUOUS
 70
0
 71
3
 72
11
 73
7
 74
0
 42
0.0000001
 43
0.0000001
 44
0.0000000001
 40
0.0
 40
0.0
 40
0.0
 40
0.0
 40
0.2715613565
 40
0.5647786957
 40
0.8164157334
 40
1.0
 40
1.0
 40
1.0
 40
1.0
 10
55.0001730434
 20
35.5731048326
 30
0.0
 10
54.9847720097
 20
35.5819989522
 30
0.0
 10
54.9575992686
 20
35.6089136284
 30
0.0
 10
54.9334369229
 20
35.6572643526
 30
0.0
 10
54.9253869831
 20
35.7055315348
 30
0.0
 10
54.9399744486
 20
35.7345886283
 30
0.0
 10
54.9503816212
 20
35.7406089963
 30
0.0
  0
SPLINE
  5
4FC
100
AcDbEntity
  8
0
100
AcDbSpline
 62
7
  6
CONTINUOUS
 70
0
 71
3
 72
9
 73
5
 74
0
 42
0.0000001
 43
0.0000001
 44
0.0000000001
 40
0.0
 40
0.0
 40
0.0
 40
0.0
 40
0.4491404885
 40
1.0
 40
1.0
 40
1.0
 40
1.0
 10
60.7927090046
 20
32.6681173377
 30
0.0
 10
60.7839452398
 20
32.6630568285
 30
0.0
 10
60.7599617635
 20
32.659418312
 30
0.0
 10
60.7384862013
 20
32.6683475171
 30
0.0
 10
60.727737971
 20
32.6745546358
 30
0.0
  0
SPLINE
  5
4FD
100
AcDbEntity
  8
0
100
AcDbSpline
 62
7
  6
CONTINUOUS
 70
0
 71
3
 72
11
 73
7
 74
0
 42
0.0000001
 43
0.0000001
 44
0.0000000001
 40
0.0
 40
0.0
 40
0.0
 40
0.0
 40
0.2715613565
 40
0.5647786957
 40
0.8164157334
 40
1.0
 40
1.0
 40
1.0
 40
1.0
 10
55.0001730434
 20
36.4409206027
 30
0.0
 10
54.9847720097
 20
36.4498147222
 30
0.0
 10
54.9575992686
 20
36.4767293984
 30
0.0
 10
54.9334369229
 20
36.5250801226
 30
0.0
 10
54.9253869831
 20
36.5733473048
 30
0.0
 10
54.9399744486
 20
36.6024043983
 30
0.0
 10
54.9503816212
 20
36.6084247663
 30
0.0
  0
SPLINE
  5
4FE
100
AcDbEntity
  8
7_ALL_ROUNDS
100
AcDbSpline
 62
7
  6
CONTINUOUS
 70
0
 71
3
 72
9
 73
5
 74
0
 42
0.0000001
 43
0.0000001
 44
0.0000000001
 40
0.0
 40
0.0
 40
0.0
 40
0.0
 40
0.4491430571
 40
1.0
 40
1.0
 40
1.0
 40
1.0
 10
63.3568936647
 20
32.3901582202
 30
0.0
 10
63.3473334474
 20
32.3956792335
 30
0.0
 10
63.321169763
 20
32.3996502352
 30
0.0
 10
63.2977421291
 20
32.3899083075
 30
0.0
 10
63.2860168987
 20
32.3831369698
 30
0.0
  0
SPLINE
  5
4FF
100
AcDbEntity
  8
0
100
AcDbSpline
 62
7
  6
CONTINUOUS
 70
0
 71
3
 72
9
 73
5
 74
0
 42
0.0000001
 43
0.0000001
 44
0.0000000001
 40
0.0
 40
0.0
 40
0.0
 40
0.0
 40
0.2208689615
 40
1.0
 40
1.0
 40
1.0
 40
1.0
 10
55.4742285343
 20
35.3231583699
 30
0.0
 10
55.4709467039
 20
35.3212598882
 30
0.0
 10
55.4544458558
 20
35.3152676369
 30
0.0
 10
55.4360189255
 20
35.3214031984
 30
0.0
 10
55.4244371121
 20
35.3280917126
 30
0.0
  0
SPLINE
  5
500
100
AcDbEntity
  8
0
100
AcDbSpline
 62
7
  6
CONTINUOUS
 70
0
 71
3
 72
12
 73
8
 74
0
 42
0.0000001
 43
0.0000001
 44
0.0000000001
 40
0.0
 40
0.0
 40
0.0
 40
0.0
 40
0.1832717232
 40
0.3014701037
 40
0.4362079054
 40
0.7289494132
 40
1.0
 40
1.0
 40
1.0
 40
1.0
 10
58.6832015762
 20
33.8727277271
 30
0.0
 10
58.6671433748
 20
33.8634531085
 30
0.0
 10
58.6319737682
 20
33.8652516698
 30
0.0
 10
58.593736022
 20
33.8869203603
 30
0.0
 10
58.5518586301
 20
33.9237030899
 30
0.0
 10
58.5129697829
 20
33.9841132886
 30
0.0
 10
58.4978461138
 20
34.0409609015
 30
0.0
 10
58.4978461138
 20
34.0683868157
 30
0.0
  0
SPLINE
  5
501
100
AcDbEntity
  8
0
100
AcDbSpline
 62
7
  6
CONTINUOUS
 70
0
 71
3
 72
12
 73
8
 74
0
 42
0.0000001
 43
0.0000001
 44
0.0000000001
 40
0.0
 40
0.0
 40
0.0
 40
0.0
 40
0.1832682591
 40
0.3014652587
 40
0.43619347
 40
0.7289060879
 40
1.0
 40
1.0
 40
1.0
 40
1.0
 10
51.7444216741
 20
35.635461702
 30
0.0
 10
51.7567670745
 20
35.6283201029
 30
0.0
 10
51.7691006105
 20
35.6042165718
 30
0.0
 10
51.7693620601
 20
35.5704114273
 30
0.0
 10
51.7609618816
 20
35.5283791019
 30
0.0
 10
51.7356759204
 20
35.4792459654
 30
0.0
 10
51.7036264327
 20
35.4473121834
 30
0.0
 10
51.6853571163
 20
35.4367616265
 30
0.0
  0
SPLINE
  5
502
100
AcDbEntity
  8
7_ALL_ROUNDS
100
AcDbSpline
 62
7
  6
CONTINUOUS
 70
0
 71
3
 72
9
 73
5
 74
0
 42
0.0000001
 43
0.0000001
 44
0.0000000001
 40
0.0
 40
0.0
 40
0.0
 40
0.0
 40
0.5465564567
 40
1.0
 40
1.0
 40
1.0
 40
1.0
 10
60.6334144453
 20
29.401133612
 30
0.0
 10
60.6334144453
 20
29.3215660072
 30
0.0
 10
60.6513481575
 20
29.174043917
 30
0.0
 10
60.7322314514
 20
29.0440408634
 30
0.0
 10
60.782627381
 20
29.0014044205
 30
0.0
  0
SPLINE
  5
503
100
AcDbEntity
  8
0
100
AcDbSpline
 62
7
  6
CONTINUOUS
 70
0
 71
3
 72
12
 73
8
 74
0
 42
0.0000001
 43
0.0000001
 44
0.0000000001
 40
0.0
 40
0.0
 40
0.0
 40
0.0
 40
0.1832682591
 40
0.3014652587
 40
0.43619347
 40
0.7289060879
 40
1.0
 40
1.0
 40
1.0
 40
1.0
 10
61.3606053191
 20
30.0821015863
 30
0.0
 10
61.3729507195
 20
30.0749599873
 30
0.0
 10
61.3852842555
 20
30.0508564562
 30
0.0
 10
61.3855457051
 20
30.0170513117
 30
0.0
 10
61.3771455266
 20
29.9750189863
 30
0.0
 10
61.3518595654
 20
29.9258858498
 30
0.0
 10
61.3198100777
 20
29.8939520678
 30
0.0
 10
61.3015407613
 20
29.8834015108
 30
0.0
  0
SPLINE
  5
504
100
AcDbEntity
  8
0
100
AcDbSpline
 62
7
  6
CONTINUOUS
 70
0
 71
3
 72
9
 73
5
 74
0
 42
0.0000001
 43
0.0000001
 44
0.0000000001
 40
0.0
 40
0.0
 40
0.0
 40
0.0
 40
0.5508594325
 40
1.0
 40
1.0
 40
1.0
 40
1.0
 10
61.3015407613
 20
29.8834015108
 30
0.0
 10
61.2917696073
 20
29.8777586551
 30
0.0
 10
61.2722486804
 20
29.8696440962
 30
0.0
 10
61.2504396807
 20
29.8729426514
 30
0.0
 10
61.2424762035
 20
29.8775493843
 30
0.0
  0
SPLINE
  5
505
100
AcDbEntity
  8
7_ALL_ROUNDS
100
AcDbSpline
 62
7
  6
CONTINUOUS
 70
0
 71
3
 72
11
 73
7
 74
0
 42
0.0000001
 43
0.0000001
 44
0.0000000001
 40
0.0
 40
0.0
 40
0.0
 40
0.0
 40
0.2372345707
 40
0.5000248244
 40
0.7628015661
 40
1.0
 40
1.0
 40
1.0
 40
1.0
 10
51.6853631919
 20
36.4974288541
 30
0.0
 10
51.5905164448
 20
36.442654719
 30
0.0
 10
51.4110147807
 20
36.2915675632
 30
0.0
 10
51.2015026601
 20
36.0052584643
 30
0.0
 10
51.0583124593
 20
35.6806773515
 30
0.0
 10
51.0172308003
 20
35.4496997024
 30
0.0
 10
51.0172308003
 20
35.3401896254
 30
0.0
  0
SPLINE
  5
506
100
AcDbEntity
  8
7_ALL_ROUNDS
100
AcDbSpline
 62
7
  6
CONTINUOUS
 70
0
 71
3
 72
9
 73
5
 74
0
 42
0.0000001
 43
0.0000001
 44
0.0000000001
 40
0.0
 40
0.0
 40
0.0
 40
0.0
 40
0.5465564567
 40
1.0
 40
1.0
 40
1.0
 40
1.0
 10
51.0172308003
 20
34.9544937276
 30
0.0
 10
51.0172308003
 20
34.8749261228
 30
0.0
 10
51.0351645125
 20
34.7274040327
 30
0.0
 10
51.1160478064
 20
34.5974009791
 30
0.0
 10
51.166443736
 20
34.5547645361
 30
0.0
  0
SPLINE
  5
507
100
AcDbEntity
  8
0
100
AcDbSpline
 62
7
  6
CONTINUOUS
 70
0
 71
3
 72
9
 73
5
 74
0
 42
0.0000001
 43
0.0000001
 44
0.0000000001
 40
0.0
 40
0.0
 40
0.0
 40
0.0
 40
0.5508594325
 40
1.0
 40
1.0
 40
1.0
 40
1.0
 10
51.6853571163
 20
35.4367616265
 30
0.0
 10
51.6755859623
 20
35.4311187708
 30
0.0
 10
51.6560650354
 20
35.4230042118
 30
0.0
 10
51.6342560357
 20
35.426302767
 30
0.0
 10
51.6262925585
 20
35.4309094999
 30
0.0
  0
SPLINE
  5
508
100
AcDbEntity
  8
0
100
AcDbSpline
 62
7
  6
CONTINUOUS
 70
0
 71
3
 72
9
 73
5
 74
0
 42
0.0000001
 43
0.0000001
 44
0.0000000001
 40
0.0
 40
0.0
 40
0.0
 40
0.0
 40
0.4491404885
 40
1.0
 40
1.0
 40
1.0
 40
1.0
 10
56.666991486
 20
35.0507252373
 30
0.0
 10
56.6582277212
 20
35.045664728
 30
0.0
 10
56.6342442449
 20
35.0420262115
 30
0.0
 10
56.6127686827
 20
35.0509554166
 30
0.0
 10
56.6020204524
 20
35.0571625353
 30
0.0
  0
SPLINE
  5
509
100
AcDbEntity
  8
7_ALL_ROUNDS
100
AcDbSpline
 62
7
  6
CONTINUOUS
 70
0
 71
3
 72
9
 73
5
 74
0
 42
0.0000001
 43
0.0000001
 44
0.0000000001
 40
0.0
 40
0.0
 40
0.0
 40
0.0
 40
0.2208586395
 40
1.0
 40
1.0
 40
1.0
 40
1.0
 10
63.3214569281
 20
32.3287960614
 30
0.0
 10
63.3237921818
 20
32.3274474396
 30
0.0
 10
63.3333458107
 20
32.3194087568
 30
0.0
 10
63.3361268281
 20
32.3058801301
 30
0.0
 10
63.3361268281
 20
32.2963667579
 30
0.0
  0
SPLINE
  5
50A
100
AcDbEntity
  8
0
100
AcDbSpline
 62
7
  6
CONTINUOUS
 70
0
 71
3
 72
9
 73
5
 74
0
 42
0.0000001
 43
0.0000001
 44
0.0000000001
 40
0.0
 40
0.0
 40
0.0
 40
0.0
 40
0.5508265156
 40
1.0
 40
1.0
 40
1.0
 40
1.0
 10
58.4978461138
 20
34.0683868157
 30
0.0
 10
58.4978461138
 20
34.0830455991
 30
0.0
 10
58.5013987839
 20
34.1102847657
 30
0.0
 10
58.5192825461
 20
34.1326670602
 30
0.0
 10
58.5296336787
 20
34.1386454886
 30
0.0
  0
SPLINE
  5
50B
100
AcDbEntity
  8
0
100
AcDbSpline
 62
7
  6
CONTINUOUS
 70
0
 71
3
 72
9
 73
5
 74
0
 42
0.0000001
 43
0.0000001
 44
0.0000000001
 40
0.0
 40
0.0
 40
0.0
 40
0.0
 40
0.2208689615
 40
1.0
 40
1.0
 40
1.0
 40
1.0
 10
62.2624536337
 20
32.2707642194
 30
0.0
 10
62.2591718033
 20
32.2688657377
 30
0.0
 10
62.2426709552
 20
32.2628734864
 30
0.0
 10
62.2242440249
 20
32.2690090479
 30
0.0
 10
62.2126622115
 20
32.2756975621
 30
0.0
  0
SPLINE
  5
50C
100
AcDbEntity
  8
7_ALL_ROUNDS
100
AcDbSpline
 62
7
  6
CONTINUOUS
 70
0
 71
3
 72
9
 73
5
 74
0
 42
0.0000001
 43
0.0000001
 44
0.0000000001
 40
0.0
 40
0.0
 40
0.0
 40
0.0
 40
0.5507951038
 40
1.0
 40
1.0
 40
1.0
 40
1.0
 10
63.3361268281
 20
32.2385123733
 30
0.0
 10
63.3513671427
 20
32.2297110693
 30
0.0
 10
63.3775554897
 20
32.2096605532
 30
0.0
 10
63.3900844202
 20
32.1776252382
 30
0.0
 10
63.3900844202
 20
32.1632721238
 30
0.0
  0
SPLINE
  5
50D
100
AcDbEntity
  8
0
100
AcDbSpline
 62
7
  6
CONTINUOUS
 70
0
 71
3
 72
12
 73
8
 74
0
 42
0.0000001
 43
0.0000001
 44
0.0000000001
 40
0.0
 40
0.0
 40
0.0
 40
0.0
 40
0.2710796967
 40
0.5638151492
 40
0.6985435739
 40
0.816733389
 40
1.0
 40
1.0
 40
1.0
 40
1.0
 10
60.6108148025
 20
32.7420779366
 30
0.0
 10
60.5907196662
 20
32.7536829072
 30
0.0
 10
60.5554645312
 20
32.7888100324
 30
0.0
 10
60.5276479828
 20
32.8428554502
 30
0.0
 10
60.5184081501
 20
32.8890943412
 30
0.0
 10
60.5187029577
 20
32.9262745242
 30
0.0
 10
60.5322578283
 20
32.9528029735
 30
0.0
 10
60.5458437689
 20
32.9606479784
 30
0.0
  0
SPLINE
  5
50E
100
AcDbEntity
  8
7_ALL_ROUNDS
100
AcDbSpline
 62
7
  6
CONTINUOUS
 70
0
 71
3
 72
9
 73
5
 74
0
 42
0.0000001
 43
0.0000001
 44
0.0000000001
 40
0.0
 40
0.0
 40
0.0
 40
0.0
 40
0.5507552232
 40
1.0
 40
1.0
 40
1.0
 40
1.0
 10
63.3862367575
 20
32.0590933169
 30
0.0
 10
63.407337657
 20
32.0712791172
 30
0.0
 10
63.4435898443
 20
32.0990461456
 30
0.0
 10
63.460959122
 20
32.1433963894
 30
0.0
 10
63.460959122
 20
32.1632721238
 30
0.0
  0
SPLINE
  5
50F
100
AcDbEntity
  8
0
100
AcDbSpline
 62
7
  6
CONTINUOUS
 70
0
 71
3
 72
9
 73
5
 74
0
 42
0.0000001
 43
0.0000001
 44
0.0000000001
 40
0.0
 40
0.0
 40
0.0
 40
0.0
 40
0.2208689615
 40
1.0
 40
1.0
 40
1.0
 40
1.0
 10
55.4742285343
 20
36.1909741399
 30
0.0
 10
55.4709467039
 20
36.1890756582
 30
0.0
 10
55.4544458558
 20
36.183083407
 30
0.0
 10
55.4360189255
 20
36.1892189685
 30
0.0
 10
55.4244371121
 20
36.1959074827
 30
0.0
  0
SPLINE
  5
510
100
AcDbEntity
  8
0
100
AcDbSpline
 62
7
  6
CONTINUOUS
 70
0
 71
3
 72
11
 73
7
 74
0
 42
0.0000001
 43
0.0000001
 44
0.0000000001
 40
0.0
 40
0.0
 40
0.0
 40
0.0
 40
0.2715613565
 40
0.5647786957
 40
0.8164157334
 40
1.0
 40
1.0
 40
1.0
 40
1.0
 10
61.7883981428
 20
31.6528949121
 30
0.0
 10
61.772997109
 20
31.6617890316
 30
0.0
 10
61.745824368
 20
31.6887037079
 30
0.0
 10
61.7216620223
 20
31.7370544321
 30
0.0
 10
61.7136120825
 20
31.7853216142
 30
0.0
 10
61.728199548
 20
31.8143787077
 30
0.0
 10
61.7386067206
 20
31.8203990757
 30
0.0
  0
ENDSEC
  0
SECTION
  2
OBJECTS
  0
DICTIONARY
  5
C
100
AcDbDictionary
280
0
281
1
  3
ACAD_GROUP
350
D
  3
ACAD_MLINESTYLE
350
17
  3
ACAD_LAYOUT
350
1A
  3
ACAD_PLOTSETTINGS
350
19
  3
ACAD_PLOTSTYLENAME
350
E
  0
DICTIONARY
  5
D
102
{ACAD_REACTORS
330
C
102
}
100
AcDbDictionary
280
0
281
1
  0
ACDBDICTIONARYWDFLT
  5
E
102
{ACAD_REACTORS
330
C
102
}
100
AcDbDictionary
281
1
  3
Normal
350
F
100
AcDbDictionaryWithDefault
340
F
  0
DICTIONARY
  5
17
102
{ACAD_REACTORS
330
C
102
}
100
AcDbDictionary
280
0
281
1
  3
Standard
350
18
  0
DICTIONARY
  5
19
102
{ACAD_REACTORS
330
C
102
}
100
AcDbDictionary
281
1
  0
DICTIONARY
  5
1A
102
{ACAD_REACTORS
330
C
102
}
100
AcDbDictionary
281
1
  3
Model
350
511
  3
Layout1
350
512
  0
ACDBPLACEHOLDER
  5
F
102
{ACAD_REACTORS
330
E
102
}
  0
MLINESTYLE
  5
18
102
{ACAD_REACTORS
330
17
102
}
100
AcDbMlineStyle
  2
STANDARD
 70
0
  3

 62
256
 51
90.0
 52
90.0
 71
2
 49
0.5
 62
256
  6
BYLAYER
 49
-0.5
 62
256
  6
BYLAYER
  0
LAYOUT
  5
511
102
{ACAD_REACTORS
330
1A
102
}
100
AcDbPlotSettings
  1

  2
none_device
  4
ANSI_D_(34.00_x_22.00_Inches)
  6

 40
0.0
 41
0.0
 42
0.0
 43
0.0
 44
863.6
 45
558.8
 46
0.0
 47
0.0
 48
0.0
 49
0.0
140
0.0
141
0.0
142
1.0
143
1.0
 70
1024
 72
0
 73
0
 74
0
  7

 75
0
147
1.0
148
0.0
149
0.0
100
AcDbLayout
  1
Model
 70
0
 71
0
 10
0.0
 20
0.0
 11
34.0
 21
22.0
 12
0.0
 22
0.0
 32
0.0
 14
0.0
 24
0.0
 34
0.0
 15
0.0
 25
0.0
 35
0.0
146
0.0
 13
0.0
 23
0.0
 33
0.0
 16
1.0
 26
0.0
 36
0.0
 17
0.0
 27
1.0
 37
0.0
 76
0
330
211
345
0
346
0
  0
LAYOUT
  5
512
102
{ACAD_REACTORS
330
1A
102
}
100
AcDbPlotSettings
  1

  2
none_device
  4
ANSI_D_(34.00_x_22.00_Inches)
  6

 40
0.0
 41
0.0
 42
0.0
 43
0.0
 44
863.6
 45
558.8
 46
0.0
 47
0.0
 48
0.0
 49
0.0
140
0.0
141
0.0
142
1.0
143
1.0
 70
0
 72
0
 73
0
 74
0
  7

 75
0
147
1.0
148
0.0
149
0.0
100
AcDbLayout
  1
Layout1
 70
0
 71
1
 10
0.0
 20
0.0
 11
34.0
 21
22.0
 12
0.0
 22
0.0
 32
0.0
 14
0.0
 24
0.0
 34
0.0
 15
0.0
 25
0.0
 35
0.0
146
0.0
 13
0.0
 23
0.0
 33
0.0
 16
1.0
 26
0.0
 36
0.0
 17
0.0
 27
1.0
 37
0.0
 76
0
330
212
345
0
346
0
  0
ENDSEC
  0
EOF
