999
DXF file: dcs-sc-423c-f-2d-A.dxf
999
Pro/ENGINEER 2016130 by Parametric Technology Corporation
  0
SECTION
  2
HEADER
  9
$ACADVER
  1
AC1015
  9
$DWGCODEPAGE
  3
ANSI_1252
  9
$EXTMAX
 10
361.7021276596
 20
234.0425531915
 30
0.0
  9
$EXTMIN
 10
0.0
 20
0.0
 30
0.0
  9
$LIMMIN
 10
0.0
 20
0.0
  9
$LIMMAX
 10
361.7021276596
 20
234.0425531915
  9
$VIEWCTR
 10
180.8510638298
 20
117.0212765957
  9
$VIEWSIZE
 40
234.0425531915
  9
$CLAYER
  8
0
  9
$LTSCALE
 40
19.8936170213
  9
$CELTYPE
  6
BYLAYER
  9
$DIMSCALE
 40
1.0
  9
$DIMASZ
 40
3.9893617021
  9
$DIMEXO
 40
0.0625
  9
$DIMDLI
 40
13.7446808511
  9
$DIMEXE
 40
0.125
  9
$DIMCEN
 40
3.2553191489
  9
$DIMLFAC
 40
1.0
  9
$DIMBLK
  1
_FILLED
  9
$DIMALT
 70
0
  9
$DIMALTF
 40
25.4
  9
$DIMTXT
 40
3.3244680851
  9
$DIMTOL
 70
1
  9
$DIMLIM
 70
0
  9
$DIMTFAC
 40
1.0
  9
$DIMTP
 40
0.01
  9
$DIMTM
 40
0.01
  9
$DIMGAP
 40
0.09
  9
$DIMDSEP
 70
46
  9
$AUNITS
 70
0
  9
$PDMODE
 70
3
  9
$PDSIZE
 40
0.3125
  9
$HANDSEED
  5
5B7
  9
$TILEMODE
 70
1
  9
$MEASUREMENT
 70
0
  9
$INSUNITS
 70
1
  0
ENDSEC
  0
SECTION
  2
CLASSES
  0
CLASS
  1
ACDBDICTIONARYWDFLT
  2
AcDbDictionaryWithDefault
  3
AutoCAD 2000
 90
0
280
0
281
0
  0
CLASS
  1
ACDBPLACEHOLDER
  2
AcDbPlaceHolder
  3
AutoCAD 2000
 90
0
280
0
281
0
  0
CLASS
  1
LAYOUT
  2
AcDbLayout
  3
AutoCAD 2000
 90
0
280
0
281
0
  0
ENDSEC
  0
SECTION
  2
TABLES
  0
TABLE
  2
VPORT
  5
8
100
AcDbSymbolTable
 70
2
  0
VPORT
  5
1F4
100
AcDbSymbolTableRecord
100
AcDbViewportTableRecord
  2
*ACTIVE
 70
0
 10
0.0
 20
0.0
 11
1.0
 21
1.0
 12
180.8510638298
 22
117.0212765957
 13
0.0
 23
0.0
 14
1.0
 24
1.0
 15
0.0
 25
0.0
 16
0.0
 26
0.0
 36
1.0
 17
0.0
 27
0.0
 37
0.0
 40
234.0425531915
 41
1.5454545455
 42
50.0
 43
0.0
 44
0.0
 50
0.0
 51
0.0
 71
0
 72
100
 73
1
 74
1
 75
0
 76
0
 77
0
 78
0
  0
ENDTAB
  0
TABLE
  2
LTYPE
  5
5
100
AcDbSymbolTable
 70
6
  0
LTYPE
  5
14
100
AcDbSymbolTableRecord
100
AcDbLinetypeTableRecord
  2
BYBLOCK
 70
0
  3

 72
65
 73
0
 40
0.0
  0
LTYPE
  5
15
100
AcDbSymbolTableRecord
100
AcDbLinetypeTableRecord
  2
BYLAYER
 70
0
  3

 72
65
 73
0
 40
0.0
  0
LTYPE
  5
16
100
AcDbSymbolTableRecord
100
AcDbLinetypeTableRecord
  2
CONTINUOUS
 70
64
  3
Solid line
 72
65
 73
0
 40
0.0
  0
LTYPE
  5
1F5
100
AcDbSymbolTableRecord
100
AcDbLinetypeTableRecord
  2
CENTER
 70
64
  3
____ _ ____ _ ____ _ ____ _ ____ _ ____ _ ____
 72
65
 73
4
 40
0.6
 49
0.375
 74
0
 49
-0.075
 74
0
 49
0.075
 74
0
 49
-0.075
 74
0
  0
LTYPE
  5
1F6
100
AcDbSymbolTableRecord
100
AcDbLinetypeTableRecord
  2
HIDDEN
 70
64
  3
- - - - - - - - - - - - - - - - - - - -
 72
65
 73
2
 40
0.2
 49
0.1
 74
0
 49
-0.1
 74
0
  0
LTYPE
  5
1F7
100
AcDbSymbolTableRecord
100
AcDbLinetypeTableRecord
  2
PHANTOM
 70
64
  3
_____ _ _ _____ _ _ _____ _ _ _____
 72
65
 73
6
 40
0.8
 49
0.45
 74
0
 49
-0.05
 74
0
 49
0.1
 74
0
 49
-0.05
 74
0
 49
0.1
 74
0
 49
-0.05
 74
0
  0
LTYPE
  5
1F8
100
AcDbSymbolTableRecord
100
AcDbLinetypeTableRecord
  2
DOT
 70
64
  3
. . . . . . . . . . . . . . . . . . . .
 72
65
 73
2
 40
0.2
 49
0.1
 74
0
 49
-0.1
 74
0
  0
LTYPE
  5
1F9
100
AcDbSymbolTableRecord
100
AcDbLinetypeTableRecord
  2
DASHED
 70
64
  3
- - - - - - - - - - - - - - - - - - - -
 72
65
 73
2
 40
0.2
 49
0.1
 74
0
 49
-0.1
 74
0
  0
ENDTAB
  0
TABLE
  2
LAYER
  5
2
100
AcDbSymbolTable
 70
36
  0
LAYER
  5
10
100
AcDbSymbolTableRecord
100
AcDbLayerTableRecord
  2
0
 70
0
 62
7
  6
CONTINUOUS
370
-3
390
F
  0
LAYER
  5
1FA
100
AcDbSymbolTableRecord
100
AcDbLayerTableRecord
  2
DEFAULT_1
 70
0
 62
7
  6
CENTER
370
-3
390
F
  0
LAYER
  5
1FB
100
AcDbSymbolTableRecord
100
AcDbLayerTableRecord
  2
DEFAULT_2
 70
0
 62
8
  6
HIDDEN
370
-3
390
F
  0
LAYER
  5
1FC
100
AcDbSymbolTableRecord
100
AcDbLayerTableRecord
  2
DEFAULT_3
 70
0
 62
7
  6
PHANTOM
370
-3
390
F
  0
LAYER
  5
1FD
100
AcDbSymbolTableRecord
100
AcDbLayerTableRecord
  2
1_ALL_PLANES
 70
0
 62
7
  6
CONTINUOUS
370
-3
390
F
  0
LAYER
  5
1FE
100
AcDbSymbolTableRecord
100
AcDbLayerTableRecord
  2
1__DEF_ASM_PLN
 70
0
 62
7
  6
CONTINUOUS
370
-3
390
F
  0
LAYER
  5
1FF
100
AcDbSymbolTableRecord
100
AcDbLayerTableRecord
  2
1__DEF_PLANES
 70
0
 62
7
  6
CONTINUOUS
370
-3
390
F
  0
LAYER
  5
200
100
AcDbSymbolTableRecord
100
AcDbLayerTableRecord
  2
2_ALL_CSYS
 70
0
 62
7
  6
CONTINUOUS
370
-3
390
F
  0
LAYER
  5
201
100
AcDbSymbolTableRecord
100
AcDbLayerTableRecord
  2
2__DEF_ASM_CSYS
 70
0
 62
7
  6
CONTINUOUS
370
-3
390
F
  0
LAYER
  5
202
100
AcDbSymbolTableRecord
100
AcDbLayerTableRecord
  2
2__DEF_CSYS
 70
0
 62
7
  6
CONTINUOUS
370
-3
390
F
  0
LAYER
  5
203
100
AcDbSymbolTableRecord
100
AcDbLayerTableRecord
  2
3_ALL_AXES
 70
0
 62
7
  6
CONTINUOUS
370
-3
390
F
  0
LAYER
  5
204
100
AcDbSymbolTableRecord
100
AcDbLayerTableRecord
  2
3_AXES_OTHER
 70
0
 62
7
  6
CONTINUOUS
370
-3
390
F
  0
LAYER
  5
205
100
AcDbSymbolTableRecord
100
AcDbLayerTableRecord
  2
3_HOLES
 70
0
 62
7
  6
CONTINUOUS
370
-3
390
F
  0
LAYER
  5
206
100
AcDbSymbolTableRecord
100
AcDbLayerTableRecord
  2
4_ALL_POINTS
 70
0
 62
7
  6
CONTINUOUS
370
-3
390
F
  0
LAYER
  5
207
100
AcDbSymbolTableRecord
100
AcDbLayerTableRecord
  2
5_ALL_CURVES
 70
0
 62
7
  6
CONTINUOUS
370
-3
390
F
  0
LAYER
  5
208
100
AcDbSymbolTableRecord
100
AcDbLayerTableRecord
  2
6_ALL_SURFS
 70
0
 62
7
  6
CONTINUOUS
370
-3
390
F
  0
LAYER
  5
209
100
AcDbSymbolTableRecord
100
AcDbLayerTableRecord
  2
6_COPYGEOM
 70
0
 62
7
  6
CONTINUOUS
370
-3
390
F
  0
LAYER
  5
20A
100
AcDbSymbolTableRecord
100
AcDbLayerTableRecord
  2
7_ALL_ROUNDS
 70
0
 62
7
  6
CONTINUOUS
370
-3
390
F
  0
LAYER
  5
20B
100
AcDbSymbolTableRecord
100
AcDbLayerTableRecord
  2
7_MERGES
 70
0
 62
7
  6
CONTINUOUS
370
-3
390
F
  0
LAYER
  5
20C
100
AcDbSymbolTableRecord
100
AcDbLayerTableRecord
  2
8_GDT
 70
0
 62
7
  6
CONTINUOUS
370
-3
390
F
  0
LAYER
  5
20D
100
AcDbSymbolTableRecord
100
AcDbLayerTableRecord
  2
8_SET_DATUMS
 70
0
 62
7
  6
CONTINUOUS
370
-3
390
F
  0
LAYER
  5
20E
100
AcDbSymbolTableRecord
100
AcDbLayerTableRecord
  2
9_COSMETICS
 70
0
 62
7
  6
CONTINUOUS
370
-3
390
F
  0
LAYER
  5
20F
100
AcDbSymbolTableRecord
100
AcDbLayerTableRecord
  2
9_THREADS
 70
0
 62
7
  6
CONTINUOUS
370
-3
390
F
  0
ENDTAB
  0
TABLE
  2
STYLE
  5
3
100
AcDbSymbolTable
 70
1
  0
STYLE
  5
11
100
AcDbSymbolTableRecord
100
AcDbTextStyleTableRecord
  2
STANDARD
 70
0
 40
0.0
 41
0.8
 50
0.0
 71
0
 42
0.2
  3
txt
  4

  0
STYLE
  5
210
100
AcDbSymbolTableRecord
100
AcDbTextStyleTableRecord
  2
TEXTSTYLE_1
 70
0
 40
0.0
 41
0.8
 50
0.0
 71
0
 42
0.2
  3
gdt
  4

  0
ENDTAB
  0
TABLE
  2
VIEW
  5
6
100
AcDbSymbolTable
 70
0
  0
ENDTAB
  0
TABLE
  2
UCS
  5
7
100
AcDbSymbolTable
 70
0
  0
ENDTAB
  0
TABLE
  2
APPID
  5
9
100
AcDbSymbolTable
 70
1
  0
APPID
  5
211
100
AcDbSymbolTableRecord
100
AcDbRegAppTableRecord
  2
ACAD
 70
0
  0
ENDTAB
  0
TABLE
  2
BLOCK_RECORD
  5
1
100
AcDbSymbolTable
 70
0
  0
BLOCK_RECORD
  5
212
100
AcDbSymbolTableRecord
100
AcDbBlockTableRecord
  2
*Model_Space
  0
BLOCK_RECORD
  5
213
100
AcDbSymbolTableRecord
100
AcDbBlockTableRecord
  2
*Paper_Space
  0
BLOCK_RECORD
  5
214
100
AcDbSymbolTableRecord
100
AcDbBlockTableRecord
  2
_FILLED
  0
BLOCK_RECORD
  5
215
100
AcDbSymbolTableRecord
100
AcDbBlockTableRecord
  2
*D0
  0
BLOCK_RECORD
  5
216
100
AcDbSymbolTableRecord
100
AcDbBlockTableRecord
  2
*D1
  0
BLOCK_RECORD
  5
217
100
AcDbSymbolTableRecord
100
AcDbBlockTableRecord
  2
*D2
  0
BLOCK_RECORD
  5
218
100
AcDbSymbolTableRecord
100
AcDbBlockTableRecord
  2
*D3
  0
BLOCK_RECORD
  5
219
100
AcDbSymbolTableRecord
100
AcDbBlockTableRecord
  2
*D4
  0
BLOCK_RECORD
  5
21A
100
AcDbSymbolTableRecord
100
AcDbBlockTableRecord
  2
*D5
  0
BLOCK_RECORD
  5
21B
100
AcDbSymbolTableRecord
100
AcDbBlockTableRecord
  2
*D6
  0
BLOCK_RECORD
  5
21C
100
AcDbSymbolTableRecord
100
AcDbBlockTableRecord
  2
*D7
  0
BLOCK_RECORD
  5
21D
100
AcDbSymbolTableRecord
100
AcDbBlockTableRecord
  2
*D8
  0
BLOCK_RECORD
  5
21E
100
AcDbSymbolTableRecord
100
AcDbBlockTableRecord
  2
*D9
  0
BLOCK_RECORD
  5
21F
100
AcDbSymbolTableRecord
100
AcDbBlockTableRecord
  2
*D10
  0
BLOCK_RECORD
  5
220
100
AcDbSymbolTableRecord
100
AcDbBlockTableRecord
  2
*D11
  0
BLOCK_RECORD
  5
221
100
AcDbSymbolTableRecord
100
AcDbBlockTableRecord
  2
CG_3D_BL5
  0
BLOCK_RECORD
  5
222
100
AcDbSymbolTableRecord
100
AcDbBlockTableRecord
  2
CG_3D_BL4
  0
BLOCK_RECORD
  5
223
100
AcDbSymbolTableRecord
100
AcDbBlockTableRecord
  2
CG_3D_BL3
  0
BLOCK_RECORD
  5
224
100
AcDbSymbolTableRecord
100
AcDbBlockTableRecord
  2
CG_3D_BL2
  0
BLOCK_RECORD
  5
225
100
AcDbSymbolTableRecord
100
AcDbBlockTableRecord
  2
CG_3D_BL1
  0
BLOCK_RECORD
  5
226
100
AcDbSymbolTableRecord
100
AcDbBlockTableRecord
  2
RD010411_BL0
  0
ENDTAB
  0
TABLE
  2
DIMSTYLE
  5
A
100
AcDbSymbolTable
 70
1
100
AcDbDimStyleTable
 71
0
  0
DIMSTYLE
105
227
100
AcDbSymbolTableRecord
100
AcDbDimStyleTableRecord
  2
STANDARD
 70
0
  3

  4

 40
1.0
 41
3.9893617021
 42
0.0625
 43
0.38
 44
0.125
 45
0.0
 46
0.0
 47
0.01
 48
0.01
140
3.3244680851
141
0.09
142
0.0
143
25.4
144
1.0
145
0.0
146
1.0
147
0.09
 71
1.0
 72
0.0
 73
1
 74
1
 75
0
 76
0
 77
0
 78
4
170
0
171
2
172
0
173
0
174
0
175
0
176
0
177
0
178
0
270
2
271
3
272
3
273
2
274
2
275
0
280
0
281
0
282
0
283
1
284
4
285
0
286
0
287
3
288
0
340
11
278
46
341
214
342
214
343
214
344
214
  0
DIMSTYLE
105
228
100
AcDbSymbolTableRecord
100
AcDbDimStyleTableRecord
  2
DIMSTYLE_1
 70
0
  3

  4

 40
1.0
 41
3.9893617021
 42
0.0625
 43
0.38
 44
0.125
 45
0.0
 46
0.0
 47
0.01
 48
0.01
140
3.3244680851
141
0.09
142
0.0
143
25.4
144
1.0
145
0.0
146
1.0
147
0.078125
 71
0.0
 72
0.0
 73
1
 74
1
 75
0
 76
0
 77
0
 78
4
170
0
171
2
172
0
173
0
174
0
175
0
176
0
177
0
178
0
270
2
271
0
272
0
273
2
274
2
275
0
280
0
281
0
282
0
283
1
284
4
285
0
286
0
287
3
288
0
340
11
278
46
341
214
342
214
343
214
344
214
  0
ENDTAB
  0
ENDSEC
  0
SECTION
  2
BLOCKS
  0
BLOCK
  5
20
100
AcDbEntity
  8
0
100
AcDbBlockBegin
  2
*Model_Space
 70
0
 10
0.0
 20
0.0
 30
0.0
  3
*Model_Space
  1

  0
ENDBLK
  5
21
100
AcDbEntity
  8
0
100
AcDbBlockEnd
  0
BLOCK
  5
1C
100
AcDbEntity
  8
0
100
AcDbBlockBegin
  2
*Paper_Space
 70
0
 10
0.0
 20
0.0
 30
0.0
  3
*Paper_Space
  1

  0
ENDBLK
  5
1D
100
AcDbEntity
  8
0
100
AcDbBlockEnd
  0
BLOCK
  5
229
100
AcDbEntity
  8
0
100
AcDbBlockBegin
 62
2
  6
CONTINUOUS
  2
CG_3D_BL5
 70
64
 10
110.9822790088
 20
120.8496726073
  3
CG_3D_BL5
  1

  0
ARC
  5
22A
100
AcDbEntity
  8
0
100
AcDbCircle
 62
7
  6
CONTINUOUS
 10
110.9822790088
 20
120.8496726073
 40
2.0
100
AcDbArc
 50
90.0
 51
180.0
  0
ARC
  5
22B
100
AcDbEntity
  8
0
100
AcDbCircle
 62
7
  6
CONTINUOUS
 10
110.9822790088
 20
120.8496726073
 40
2.0
100
AcDbArc
 50
180.0
 51
270.0
  0
ARC
  5
22C
100
AcDbEntity
  8
0
100
AcDbCircle
 62
7
  6
CONTINUOUS
 10
110.9822790088
 20
120.8496726073
 40
2.0
100
AcDbArc
 50
270.0
 51
360.0
  0
ARC
  5
22D
100
AcDbEntity
  8
0
100
AcDbCircle
 62
7
  6
CONTINUOUS
 10
110.9822790088
 20
120.8496726073
 40
2.0
100
AcDbArc
 50
0.0
 51
90.0
  0
LINE
  5
22E
100
AcDbEntity
  8
0
100
AcDbLine
 62
7
  6
CONTINUOUS
 10
110.9822790088
 20
120.8496726073
 11
112.9822790088
 21
120.8496726073
  0
LINE
  5
22F
100
AcDbEntity
  8
0
100
AcDbLine
 62
7
  6
CONTINUOUS
 10
110.9822790088
 20
120.8496726073
 11
110.9822790088
 21
118.8496726073
  0
LINE
  5
230
100
AcDbEntity
  8
0
100
AcDbLine
 62
7
  6
CONTINUOUS
 10
108.9822790088
 20
120.8496726073
 11
110.9822790088
 21
120.8496726073
  0
LINE
  5
231
100
AcDbEntity
  8
0
100
AcDbLine
 62
7
  6
CONTINUOUS
 10
110.9822790088
 20
122.8496726073
 11
110.9822790088
 21
120.8496726073
  0
LINE
  5
232
100
AcDbEntity
  8
0
100
AcDbLine
 62
2
  6
CONTINUOUS
 10
110.9822790088
 20
120.8364912886
 11
110.9954603275
 21
120.8496726073
  0
LWPOLYLINE
  5
233
100
AcDbEntity
  8
0
100
AcDbPolyline
 62
7
  6
CONTINUOUS
 90
8
 70
0
 10
110.9822790088
 20
120.8496726073
 10
110.9822790088
 20
118.8496726073
 10
111.6003129976
 20
118.9475595747
 10
112.1578495134
 20
119.2316386186
 10
112.6003129976
 20
119.6741021028
 10
112.8843920414
 20
120.2316386186
 10
112.9822790088
 20
120.8496726073
 10
110.9822790088
 20
120.8496726073
  0
HATCH
  5
234
100
AcDbEntity
  8
0
100
AcDbHatch
 62
7
  6
CONTINUOUS
 10
0.0
 20
0.0
 30
0.0
210
0.0
220
0.0
230
1.0
  2
SOLID
 70
1
 71
1
 91
1
 92
1
 93
7
 72
1
 10
110.9822790088
 20
120.8496726073
 11
110.9822790088
 21
118.8496726073
 72
1
 10
110.9822790088
 20
118.8496726073
 11
111.6003129976
 21
118.9475595747
 72
1
 10
111.6003129976
 20
118.9475595747
 11
112.1578495134
 21
119.2316386186
 72
1
 10
112.1578495134
 20
119.2316386186
 11
112.6003129976
 21
119.6741021028
 72
1
 10
112.6003129976
 20
119.6741021028
 11
112.8843920414
 21
120.2316386186
 72
1
 10
112.8843920414
 20
120.2316386186
 11
112.9822790088
 21
120.8496726073
 72
1
 10
112.9822790088
 20
120.8496726073
 11
110.9822790088
 21
120.8496726073
 97
1
330
233
 75
0
 76
1
 98
1
 10
0.0
 20
0.0
  0
LWPOLYLINE
  5
235
100
AcDbEntity
  8
0
100
AcDbPolyline
 62
7
  6
CONTINUOUS
 90
8
 70
0
 10
110.9822790088
 20
120.8496726073
 10
108.9822790088
 20
120.8496726073
 10
109.0801659762
 20
121.4677065961
 10
109.3642450201
 20
122.0252431119
 10
109.8067085042
 20
122.4677065961
 10
110.3642450201
 20
122.7517856399
 10
110.9822790088
 20
122.8496726073
 10
110.9822790088
 20
120.8496726073
  0
HATCH
  5
236
100
AcDbEntity
  8
0
100
AcDbHatch
 62
7
  6
CONTINUOUS
 10
0.0
 20
0.0
 30
0.0
210
0.0
220
0.0
230
1.0
  2
SOLID
 70
1
 71
1
 91
1
 92
1
 93
7
 72
1
 10
110.9822790088
 20
120.8496726073
 11
108.9822790088
 21
120.8496726073
 72
1
 10
108.9822790088
 20
120.8496726073
 11
109.0801659762
 21
121.4677065961
 72
1
 10
109.0801659762
 20
121.4677065961
 11
109.3642450201
 21
122.0252431119
 72
1
 10
109.3642450201
 20
122.0252431119
 11
109.8067085042
 21
122.4677065961
 72
1
 10
109.8067085042
 20
122.4677065961
 11
110.3642450201
 21
122.7517856399
 72
1
 10
110.3642450201
 20
122.7517856399
 11
110.9822790088
 21
122.8496726073
 72
1
 10
110.9822790088
 20
122.8496726073
 11
110.9822790088
 21
120.8496726073
 97
1
330
235
 75
0
 76
1
 98
1
 10
0.0
 20
0.0
  0
ENDBLK
  5
237
100
AcDbEntity
  8
0
  6
BYBLOCK
 62
0
100
AcDbBlockEnd
  0
BLOCK
  5
238
100
AcDbEntity
  8
0
100
AcDbBlockBegin
 62
2
  6
CONTINUOUS
  2
CG_3D_BL4
 70
64
 10
48.4813118216
 20
120.8490908174
  3
CG_3D_BL4
  1

  0
ARC
  5
239
100
AcDbEntity
  8
0
100
AcDbCircle
 62
7
  6
CONTINUOUS
 10
48.4813118216
 20
120.8490908174
 40
2.0
100
AcDbArc
 50
90.0
 51
180.0
  0
ARC
  5
23A
100
AcDbEntity
  8
0
100
AcDbCircle
 62
7
  6
CONTINUOUS
 10
48.4813118216
 20
120.8490908174
 40
2.0
100
AcDbArc
 50
180.0
 51
270.0
  0
ARC
  5
23B
100
AcDbEntity
  8
0
100
AcDbCircle
 62
7
  6
CONTINUOUS
 10
48.4813118216
 20
120.8490908174
 40
2.0
100
AcDbArc
 50
270.0
 51
360.0
  0
ARC
  5
23C
100
AcDbEntity
  8
0
100
AcDbCircle
 62
7
  6
CONTINUOUS
 10
48.4813118216
 20
120.8490908174
 40
2.0
100
AcDbArc
 50
0.0
 51
90.0
  0
LINE
  5
23D
100
AcDbEntity
  8
0
100
AcDbLine
 62
7
  6
CONTINUOUS
 10
48.4813118216
 20
120.8490908174
 11
50.4813118216
 21
120.8490908174
  0
LINE
  5
23E
100
AcDbEntity
  8
0
100
AcDbLine
 62
7
  6
CONTINUOUS
 10
48.4813118216
 20
120.8490908174
 11
48.4813118216
 21
118.8490908174
  0
LINE
  5
23F
100
AcDbEntity
  8
0
100
AcDbLine
 62
7
  6
CONTINUOUS
 10
46.4813118216
 20
120.8490908174
 11
48.4813118216
 21
120.8490908174
  0
LINE
  5
240
100
AcDbEntity
  8
0
100
AcDbLine
 62
7
  6
CONTINUOUS
 10
48.4813118216
 20
122.8490908174
 11
48.4813118216
 21
120.8490908174
  0
LINE
  5
241
100
AcDbEntity
  8
0
100
AcDbLine
 62
2
  6
CONTINUOUS
 10
48.4813118216
 20
120.8359094986
 11
48.4944931403
 21
120.8490908174
  0
LWPOLYLINE
  5
242
100
AcDbEntity
  8
0
100
AcDbPolyline
 62
7
  6
CONTINUOUS
 90
8
 70
0
 10
48.4813118216
 20
120.8490908174
 10
48.4813118216
 20
118.8490908174
 10
49.0993458103
 20
118.9469777848
 10
49.6568823262
 20
119.2310568286
 10
50.0993458103
 20
119.6735203128
 10
50.3834248542
 20
120.2310568286
 10
50.4813118216
 20
120.8490908174
 10
48.4813118216
 20
120.8490908174
  0
HATCH
  5
243
100
AcDbEntity
  8
0
100
AcDbHatch
 62
7
  6
CONTINUOUS
 10
0.0
 20
0.0
 30
0.0
210
0.0
220
0.0
230
1.0
  2
SOLID
 70
1
 71
1
 91
1
 92
1
 93
7
 72
1
 10
48.4813118216
 20
120.8490908174
 11
48.4813118216
 21
118.8490908174
 72
1
 10
48.4813118216
 20
118.8490908174
 11
49.0993458103
 21
118.9469777848
 72
1
 10
49.0993458103
 20
118.9469777848
 11
49.6568823262
 21
119.2310568286
 72
1
 10
49.6568823262
 20
119.2310568286
 11
50.0993458103
 21
119.6735203128
 72
1
 10
50.0993458103
 20
119.6735203128
 11
50.3834248542
 21
120.2310568286
 72
1
 10
50.3834248542
 20
120.2310568286
 11
50.4813118216
 21
120.8490908174
 72
1
 10
50.4813118216
 20
120.8490908174
 11
48.4813118216
 21
120.8490908174
 97
1
330
242
 75
0
 76
1
 98
1
 10
0.0
 20
0.0
  0
LWPOLYLINE
  5
244
100
AcDbEntity
  8
0
100
AcDbPolyline
 62
7
  6
CONTINUOUS
 90
8
 70
0
 10
48.4813118216
 20
120.8490908174
 10
46.4813118216
 20
120.8490908174
 10
46.579198789
 20
121.4671248061
 10
46.8632778328
 20
122.0246613219
 10
47.305741317
 20
122.4671248061
 10
47.8632778328
 20
122.75120385
 10
48.4813118216
 20
122.8490908174
 10
48.4813118216
 20
120.8490908174
  0
HATCH
  5
245
100
AcDbEntity
  8
0
100
AcDbHatch
 62
7
  6
CONTINUOUS
 10
0.0
 20
0.0
 30
0.0
210
0.0
220
0.0
230
1.0
  2
SOLID
 70
1
 71
1
 91
1
 92
1
 93
7
 72
1
 10
48.4813118216
 20
120.8490908174
 11
46.4813118216
 21
120.8490908174
 72
1
 10
46.4813118216
 20
120.8490908174
 11
46.579198789
 21
121.4671248061
 72
1
 10
46.579198789
 20
121.4671248061
 11
46.8632778328
 21
122.0246613219
 72
1
 10
46.8632778328
 20
122.0246613219
 11
47.305741317
 21
122.4671248061
 72
1
 10
47.305741317
 20
122.4671248061
 11
47.8632778328
 21
122.75120385
 72
1
 10
47.8632778328
 20
122.75120385
 11
48.4813118216
 21
122.8490908174
 72
1
 10
48.4813118216
 20
122.8490908174
 11
48.4813118216
 21
120.8490908174
 97
1
330
244
 75
0
 76
1
 98
1
 10
0.0
 20
0.0
  0
ENDBLK
  5
246
100
AcDbEntity
  8
0
  6
BYBLOCK
 62
0
100
AcDbBlockEnd
  0
BLOCK
  5
247
100
AcDbEntity
  8
0
100
AcDbBlockBegin
 62
2
  6
CONTINUOUS
  2
CG_3D_BL3
 70
64
 10
297.823752952
 20
110.1709140018
  3
CG_3D_BL3
  1

  0
ARC
  5
248
100
AcDbEntity
  8
0
100
AcDbCircle
 62
7
  6
CONTINUOUS
 10
297.823752952
 20
110.1709140018
 40
2.0
100
AcDbArc
 50
90.0
 51
180.0
  0
ARC
  5
249
100
AcDbEntity
  8
0
100
AcDbCircle
 62
7
  6
CONTINUOUS
 10
297.823752952
 20
110.1709140018
 40
2.0
100
AcDbArc
 50
180.0
 51
270.0
  0
ARC
  5
24A
100
AcDbEntity
  8
0
100
AcDbCircle
 62
7
  6
CONTINUOUS
 10
297.823752952
 20
110.1709140018
 40
2.0
100
AcDbArc
 50
270.0
 51
360.0
  0
ARC
  5
24B
100
AcDbEntity
  8
0
100
AcDbCircle
 62
7
  6
CONTINUOUS
 10
297.823752952
 20
110.1709140018
 40
2.0
100
AcDbArc
 50
0.0
 51
90.0
  0
LINE
  5
24C
100
AcDbEntity
  8
0
100
AcDbLine
 62
7
  6
CONTINUOUS
 10
297.823752952
 20
110.1709140018
 11
299.823752952
 21
110.1709140018
  0
LINE
  5
24D
100
AcDbEntity
  8
0
100
AcDbLine
 62
7
  6
CONTINUOUS
 10
297.823752952
 20
110.1709140018
 11
297.823752952
 21
108.1709140018
  0
LINE
  5
24E
100
AcDbEntity
  8
0
100
AcDbLine
 62
7
  6
CONTINUOUS
 10
295.823752952
 20
110.1709140018
 11
297.823752952
 21
110.1709140018
  0
LINE
  5
24F
100
AcDbEntity
  8
0
100
AcDbLine
 62
7
  6
CONTINUOUS
 10
297.823752952
 20
112.1709140018
 11
297.823752952
 21
110.1709140018
  0
LINE
  5
250
100
AcDbEntity
  8
0
100
AcDbLine
 62
2
  6
CONTINUOUS
 10
297.823752952
 20
110.1577326831
 11
297.8369342707
 21
110.1709140018
  0
LWPOLYLINE
  5
251
100
AcDbEntity
  8
0
100
AcDbPolyline
 62
7
  6
CONTINUOUS
 90
8
 70
0
 10
297.823752952
 20
110.1709140018
 10
297.823752952
 20
108.1709140018
 10
298.4417869407
 20
108.2688009692
 10
298.9993234565
 20
108.552880013
 10
299.4417869407
 20
108.9953434972
 10
299.7258659846
 20
109.552880013
 10
299.823752952
 20
110.1709140018
 10
297.823752952
 20
110.1709140018
  0
HATCH
  5
252
100
AcDbEntity
  8
0
100
AcDbHatch
 62
7
  6
CONTINUOUS
 10
0.0
 20
0.0
 30
0.0
210
0.0
220
0.0
230
1.0
  2
SOLID
 70
1
 71
1
 91
1
 92
1
 93
7
 72
1
 10
297.823752952
 20
110.1709140018
 11
297.823752952
 21
108.1709140018
 72
1
 10
297.823752952
 20
108.1709140018
 11
298.4417869407
 21
108.2688009692
 72
1
 10
298.4417869407
 20
108.2688009692
 11
298.9993234565
 21
108.552880013
 72
1
 10
298.9993234565
 20
108.552880013
 11
299.4417869407
 21
108.9953434972
 72
1
 10
299.4417869407
 20
108.9953434972
 11
299.7258659846
 21
109.552880013
 72
1
 10
299.7258659846
 20
109.552880013
 11
299.823752952
 21
110.1709140018
 72
1
 10
299.823752952
 20
110.1709140018
 11
297.823752952
 21
110.1709140018
 97
1
330
251
 75
0
 76
1
 98
1
 10
0.0
 20
0.0
  0
LWPOLYLINE
  5
253
100
AcDbEntity
  8
0
100
AcDbPolyline
 62
7
  6
CONTINUOUS
 90
8
 70
0
 10
297.823752952
 20
110.1709140018
 10
295.823752952
 20
110.1709140018
 10
295.9216399194
 20
110.7889479905
 10
296.2057189632
 20
111.3464845064
 10
296.6481824474
 20
111.7889479905
 10
297.2057189632
 20
112.0730270344
 10
297.823752952
 20
112.1709140018
 10
297.823752952
 20
110.1709140018
  0
HATCH
  5
254
100
AcDbEntity
  8
0
100
AcDbHatch
 62
7
  6
CONTINUOUS
 10
0.0
 20
0.0
 30
0.0
210
0.0
220
0.0
230
1.0
  2
SOLID
 70
1
 71
1
 91
1
 92
1
 93
7
 72
1
 10
297.823752952
 20
110.1709140018
 11
295.823752952
 21
110.1709140018
 72
1
 10
295.823752952
 20
110.1709140018
 11
295.9216399194
 21
110.7889479905
 72
1
 10
295.9216399194
 20
110.7889479905
 11
296.2057189632
 21
111.3464845064
 72
1
 10
296.2057189632
 20
111.3464845064
 11
296.6481824474
 21
111.7889479905
 72
1
 10
296.6481824474
 20
111.7889479905
 11
297.2057189632
 21
112.0730270344
 72
1
 10
297.2057189632
 20
112.0730270344
 11
297.823752952
 21
112.1709140018
 72
1
 10
297.823752952
 20
112.1709140018
 11
297.823752952
 21
110.1709140018
 97
1
330
253
 75
0
 76
1
 98
1
 10
0.0
 20
0.0
  0
ENDBLK
  5
255
100
AcDbEntity
  8
0
  6
BYBLOCK
 62
0
100
AcDbBlockEnd
  0
BLOCK
  5
256
100
AcDbEntity
  8
0
100
AcDbBlockBegin
 62
2
  6
CONTINUOUS
  2
CG_3D_BL2
 70
64
 10
212.8042068121
 20
110.1719439653
  3
CG_3D_BL2
  1

  0
ARC
  5
257
100
AcDbEntity
  8
0
100
AcDbCircle
 62
7
  6
CONTINUOUS
 10
212.8042068121
 20
110.1719439653
 40
2.0
100
AcDbArc
 50
90.0
 51
180.0
  0
ARC
  5
258
100
AcDbEntity
  8
0
100
AcDbCircle
 62
7
  6
CONTINUOUS
 10
212.8042068121
 20
110.1719439653
 40
2.0
100
AcDbArc
 50
180.0
 51
270.0
  0
ARC
  5
259
100
AcDbEntity
  8
0
100
AcDbCircle
 62
7
  6
CONTINUOUS
 10
212.8042068121
 20
110.1719439653
 40
2.0
100
AcDbArc
 50
270.0
 51
360.0
  0
ARC
  5
25A
100
AcDbEntity
  8
0
100
AcDbCircle
 62
7
  6
CONTINUOUS
 10
212.8042068121
 20
110.1719439653
 40
2.0
100
AcDbArc
 50
0.0
 51
90.0
  0
LINE
  5
25B
100
AcDbEntity
  8
0
100
AcDbLine
 62
7
  6
CONTINUOUS
 10
212.8042068121
 20
110.1719439653
 11
214.8042068121
 21
110.1719439653
  0
LINE
  5
25C
100
AcDbEntity
  8
0
100
AcDbLine
 62
7
  6
CONTINUOUS
 10
212.8042068121
 20
110.1719439653
 11
212.8042068121
 21
108.1719439653
  0
LINE
  5
25D
100
AcDbEntity
  8
0
100
AcDbLine
 62
7
  6
CONTINUOUS
 10
210.8042068121
 20
110.1719439653
 11
212.8042068121
 21
110.1719439653
  0
LINE
  5
25E
100
AcDbEntity
  8
0
100
AcDbLine
 62
7
  6
CONTINUOUS
 10
212.8042068121
 20
112.1719439653
 11
212.8042068121
 21
110.1719439653
  0
LINE
  5
25F
100
AcDbEntity
  8
0
100
AcDbLine
 62
2
  6
CONTINUOUS
 10
212.8042068121
 20
110.1587626465
 11
212.8173881308
 21
110.1719439653
  0
LWPOLYLINE
  5
260
100
AcDbEntity
  8
0
100
AcDbPolyline
 62
7
  6
CONTINUOUS
 90
8
 70
0
 10
212.8042068121
 20
110.1719439653
 10
212.8042068121
 20
108.1719439653
 10
213.4222408008
 20
108.2698309327
 10
213.9797773167
 20
108.5539099765
 10
214.4222408008
 20
108.9963734607
 10
214.7063198447
 20
109.5539099765
 10
214.8042068121
 20
110.1719439653
 10
212.8042068121
 20
110.1719439653
  0
HATCH
  5
261
100
AcDbEntity
  8
0
100
AcDbHatch
 62
7
  6
CONTINUOUS
 10
0.0
 20
0.0
 30
0.0
210
0.0
220
0.0
230
1.0
  2
SOLID
 70
1
 71
1
 91
1
 92
1
 93
7
 72
1
 10
212.8042068121
 20
110.1719439653
 11
212.8042068121
 21
108.1719439653
 72
1
 10
212.8042068121
 20
108.1719439653
 11
213.4222408008
 21
108.2698309327
 72
1
 10
213.4222408008
 20
108.2698309327
 11
213.9797773167
 21
108.5539099765
 72
1
 10
213.9797773167
 20
108.5539099765
 11
214.4222408008
 21
108.9963734607
 72
1
 10
214.4222408008
 20
108.9963734607
 11
214.7063198447
 21
109.5539099765
 72
1
 10
214.7063198447
 20
109.5539099765
 11
214.8042068121
 21
110.1719439653
 72
1
 10
214.8042068121
 20
110.1719439653
 11
212.8042068121
 21
110.1719439653
 97
1
330
260
 75
0
 76
1
 98
1
 10
0.0
 20
0.0
  0
LWPOLYLINE
  5
262
100
AcDbEntity
  8
0
100
AcDbPolyline
 62
7
  6
CONTINUOUS
 90
8
 70
0
 10
212.8042068121
 20
110.1719439653
 10
210.8042068121
 20
110.1719439653
 10
210.9020937795
 20
110.789977954
 10
211.1861728233
 20
111.3475144699
 10
211.6286363075
 20
111.789977954
 10
212.1861728233
 20
112.0740569979
 10
212.8042068121
 20
112.1719439653
 10
212.8042068121
 20
110.1719439653
  0
HATCH
  5
263
100
AcDbEntity
  8
0
100
AcDbHatch
 62
7
  6
CONTINUOUS
 10
0.0
 20
0.0
 30
0.0
210
0.0
220
0.0
230
1.0
  2
SOLID
 70
1
 71
1
 91
1
 92
1
 93
7
 72
1
 10
212.8042068121
 20
110.1719439653
 11
210.8042068121
 21
110.1719439653
 72
1
 10
210.8042068121
 20
110.1719439653
 11
210.9020937795
 21
110.789977954
 72
1
 10
210.9020937795
 20
110.789977954
 11
211.1861728233
 21
111.3475144699
 72
1
 10
211.1861728233
 20
111.3475144699
 11
211.6286363075
 21
111.789977954
 72
1
 10
211.6286363075
 20
111.789977954
 11
212.1861728233
 21
112.0740569979
 72
1
 10
212.1861728233
 20
112.0740569979
 11
212.8042068121
 21
112.1719439653
 72
1
 10
212.8042068121
 20
112.1719439653
 11
212.8042068121
 21
110.1719439653
 97
1
330
262
 75
0
 76
1
 98
1
 10
0.0
 20
0.0
  0
ENDBLK
  5
264
100
AcDbEntity
  8
0
  6
BYBLOCK
 62
0
100
AcDbBlockEnd
  0
BLOCK
  5
265
100
AcDbEntity
  8
0
100
AcDbBlockBegin
 62
2
  6
CONTINUOUS
  2
CG_3D_BL1
 70
64
 10
39.0878002938
 20
43.8355568058
  3
CG_3D_BL1
  1

  0
ARC
  5
266
100
AcDbEntity
  8
0
100
AcDbCircle
 62
7
  6
CONTINUOUS
 10
39.0878002938
 20
43.8355568058
 40
2.0
100
AcDbArc
 50
90.0
 51
180.0
  0
ARC
  5
267
100
AcDbEntity
  8
0
100
AcDbCircle
 62
7
  6
CONTINUOUS
 10
39.0878002938
 20
43.8355568058
 40
2.0
100
AcDbArc
 50
180.0
 51
270.0
  0
ARC
  5
268
100
AcDbEntity
  8
0
100
AcDbCircle
 62
7
  6
CONTINUOUS
 10
39.0878002938
 20
43.8355568058
 40
2.0
100
AcDbArc
 50
270.0
 51
360.0
  0
ARC
  5
269
100
AcDbEntity
  8
0
100
AcDbCircle
 62
7
  6
CONTINUOUS
 10
39.0878002938
 20
43.8355568058
 40
2.0
100
AcDbArc
 50
0.0
 51
90.0
  0
LINE
  5
26A
100
AcDbEntity
  8
0
100
AcDbLine
 62
7
  6
CONTINUOUS
 10
39.0878002938
 20
43.8355568058
 11
41.0878002938
 21
43.8355568058
  0
LINE
  5
26B
100
AcDbEntity
  8
0
100
AcDbLine
 62
7
  6
CONTINUOUS
 10
39.0878002938
 20
43.8355568058
 11
39.0878002938
 21
41.8355568058
  0
LINE
  5
26C
100
AcDbEntity
  8
0
100
AcDbLine
 62
7
  6
CONTINUOUS
 10
37.0878002938
 20
43.8355568058
 11
39.0878002938
 21
43.8355568058
  0
LINE
  5
26D
100
AcDbEntity
  8
0
100
AcDbLine
 62
7
  6
CONTINUOUS
 10
39.0878002938
 20
45.8355568058
 11
39.0878002938
 21
43.8355568058
  0
LINE
  5
26E
100
AcDbEntity
  8
0
100
AcDbLine
 62
2
  6
CONTINUOUS
 10
39.0878002938
 20
43.8223754871
 11
39.1009816125
 21
43.8355568058
  0
LWPOLYLINE
  5
26F
100
AcDbEntity
  8
0
100
AcDbPolyline
 62
7
  6
CONTINUOUS
 90
8
 70
0
 10
39.0878002938
 20
43.8355568058
 10
39.0878002938
 20
41.8355568058
 10
39.7058342825
 20
41.9334437732
 10
40.2633707983
 20
42.2175228171
 10
40.7058342825
 20
42.6599863013
 10
40.9899133263
 20
43.2175228171
 10
41.0878002938
 20
43.8355568058
 10
39.0878002938
 20
43.8355568058
  0
HATCH
  5
270
100
AcDbEntity
  8
0
100
AcDbHatch
 62
7
  6
CONTINUOUS
 10
0.0
 20
0.0
 30
0.0
210
0.0
220
0.0
230
1.0
  2
SOLID
 70
1
 71
1
 91
1
 92
1
 93
7
 72
1
 10
39.0878002938
 20
43.8355568058
 11
39.0878002938
 21
41.8355568058
 72
1
 10
39.0878002938
 20
41.8355568058
 11
39.7058342825
 21
41.9334437732
 72
1
 10
39.7058342825
 20
41.9334437732
 11
40.2633707983
 21
42.2175228171
 72
1
 10
40.2633707983
 20
42.2175228171
 11
40.7058342825
 21
42.6599863013
 72
1
 10
40.7058342825
 20
42.6599863013
 11
40.9899133263
 21
43.2175228171
 72
1
 10
40.9899133263
 20
43.2175228171
 11
41.0878002938
 21
43.8355568058
 72
1
 10
41.0878002938
 20
43.8355568058
 11
39.0878002938
 21
43.8355568058
 97
1
330
26F
 75
0
 76
1
 98
1
 10
0.0
 20
0.0
  0
LWPOLYLINE
  5
271
100
AcDbEntity
  8
0
100
AcDbPolyline
 62
7
  6
CONTINUOUS
 90
8
 70
0
 10
39.0878002938
 20
43.8355568058
 10
37.0878002938
 20
43.8355568058
 10
37.1856872612
 20
44.4535907946
 10
37.469766305
 20
45.0111273104
 10
37.9122297892
 20
45.4535907946
 10
38.469766305
 20
45.7376698384
 10
39.0878002938
 20
45.8355568058
 10
39.0878002938
 20
43.8355568058
  0
HATCH
  5
272
100
AcDbEntity
  8
0
100
AcDbHatch
 62
7
  6
CONTINUOUS
 10
0.0
 20
0.0
 30
0.0
210
0.0
220
0.0
230
1.0
  2
SOLID
 70
1
 71
1
 91
1
 92
1
 93
7
 72
1
 10
39.0878002938
 20
43.8355568058
 11
37.0878002938
 21
43.8355568058
 72
1
 10
37.0878002938
 20
43.8355568058
 11
37.1856872612
 21
44.4535907946
 72
1
 10
37.1856872612
 20
44.4535907946
 11
37.469766305
 21
45.0111273104
 72
1
 10
37.469766305
 20
45.0111273104
 11
37.9122297892
 21
45.4535907946
 72
1
 10
37.9122297892
 20
45.4535907946
 11
38.469766305
 21
45.7376698384
 72
1
 10
38.469766305
 20
45.7376698384
 11
39.0878002938
 21
45.8355568058
 72
1
 10
39.0878002938
 20
45.8355568058
 11
39.0878002938
 21
43.8355568058
 97
1
330
271
 75
0
 76
1
 98
1
 10
0.0
 20
0.0
  0
ENDBLK
  5
273
100
AcDbEntity
  8
0
  6
BYBLOCK
 62
0
100
AcDbBlockEnd
  0
BLOCK
  5
274
100
AcDbEntity
  8
0
100
AcDbBlockBegin
 62
7
  6
CONTINUOUS
  2
RD010411_BL0
 70
64
 10
252.9536233788
 20
57.4704396845
  3
RD010411_BL0
  1

  0
ARC
  5
275
100
AcDbEntity
  8
0
100
AcDbCircle
 62
7
  6
CONTINUOUS
 10
266.8294014563
 20
59.6061196321
 40
0.2632236866
100
AcDbArc
 50
270.0
 51
360.0
  0
LINE
  5
276
100
AcDbEntity
  8
0
100
AcDbLine
 62
7
  6
CONTINUOUS
 10
267.0926251429
 20
59.6061196321
 11
267.0926251429
 21
60.1327479128
  0
ARC
  5
277
100
AcDbEntity
  8
0
100
AcDbCircle
 62
7
  6
CONTINUOUS
 10
266.8294014563
 20
60.1327479128
 40
0.2632236866
100
AcDbArc
 50
0.0
 51
90.0
  0
LINE
  5
278
100
AcDbEntity
  8
0
100
AcDbLine
 62
7
  6
CONTINUOUS
 10
266.8294014563
 20
60.3959715994
 11
259.7529475793
 21
60.3959715994
  0
SPLINE
  5
279
100
AcDbEntity
  8
0
100
AcDbSpline
 62
7
  6
CONTINUOUS
 70
0
 71
3
 72
13
 73
9
 74
0
 42
0.0000001
 43
0.0000001
 44
0.0000000001
 40
0.0
 40
0.0
 40
0.0
 40
0.0
 40
0.1310616762
 40
0.2699656353
 40
0.4157607805
 40
0.5899807757
 40
0.76586761
 40
0.9948829976
 40
0.9948829976
 40
0.9948829976
 40
0.9948829976
 10
259.7529475793
 20
60.3959715994
 30
0.0
 10
259.6041940791
 20
60.3848923403
 30
0.0
 10
259.2977861817
 20
60.3620708791
 30
0.0
 10
258.8825424618
 20
60.1047622013
 30
0.0
 10
258.5844470227
 20
59.6727872752
 30
0.0
 10
258.3906099665
 20
59.1445770282
 30
0.0
 10
258.2814291022
 20
58.4988845222
 30
0.0
 10
258.2713764965
 20
58.0426268586
 30
0.0
 10
258.2661664655
 20
57.7845305953
 30
0.0
  0
LINE
  5
27A
100
AcDbEntity
  8
0
100
AcDbLine
 62
7
  6
CONTINUOUS
 10
258.2661664655
 20
57.7845305953
 11
258.2666284514
 21
57.7444789165
  0
SPLINE
  5
27B
100
AcDbEntity
  8
0
100
AcDbSpline
 62
7
  6
CONTINUOUS
 70
0
 71
3
 72
13
 73
9
 74
0
 42
0.0000001
 43
0.0000001
 44
0.0000000001
 40
0.0
 40
0.0
 40
0.0
 40
0.0
 40
0.2222860645
 40
0.3981728988
 40
0.572392894
 40
0.7181880393
 40
0.8570919984
 40
0.9881536746
 40
0.9881536746
 40
0.9881536746
 40
0.9881536746
 10
258.2666284514
 20
57.7444789165
 30
0.0
 10
258.2717358009
 20
57.4939697966
 30
0.0
 10
258.282695524
 20
57.0453783083
 30
0.0
 10
258.3906098774
 20
56.4071705476
 30
0.0
 10
258.584449254
 20
55.879019376
 30
0.0
 10
258.8825353953
 20
55.4468611207
 30
0.0
 10
259.2978108073
 20
55.1901675197
 30
0.0
 10
259.6041440018
 20
55.1658977491
 30
0.0
 10
259.7529475793
 20
55.1548147644
 30
0.0
  0
LINE
  5
27C
100
AcDbEntity
  8
0
100
AcDbLine
 62
7
  6
CONTINUOUS
 10
259.7529475793
 20
55.1548147644
 11
266.8299759683
 21
55.1702610988
  0
ARC
  5
27D
100
AcDbEntity
  8
0
100
AcDbCircle
 62
7
  6
CONTINUOUS
 10
266.8294014563
 20
55.4334841578
 40
0.2632236859
100
AcDbArc
 50
270.125053868
 51
360.0
  0
LINE
  5
27E
100
AcDbEntity
  8
0
100
AcDbLine
 62
7
  6
CONTINUOUS
 10
267.0926251429
 20
55.4334841578
 11
267.0926251429
 21
55.9395518015
  0
ARC
  5
27F
100
AcDbEntity
  8
0
100
AcDbCircle
 62
7
  6
CONTINUOUS
 10
266.8294014563
 20
55.9395518015
 40
0.2632236866
100
AcDbArc
 50
0.0
 51
90.0
  0
LINE
  5
280
100
AcDbEntity
  8
0
100
AcDbLine
 62
7
  6
CONTINUOUS
 10
266.8294014563
 20
56.2027754881
 11
260.7639133032
 21
56.2027754881
  0
LINE
  5
281
100
AcDbEntity
  8
0
100
AcDbLine
 62
7
  6
CONTINUOUS
 10
260.5006896166
 20
56.4659991746
 11
260.5006896166
 21
59.0796722589
  0
ARC
  5
282
100
AcDbEntity
  8
0
100
AcDbCircle
 62
7
  6
CONTINUOUS
 10
260.7639133055
 20
59.0796722589
 40
0.2632236866
100
AcDbArc
 50
90.0
 51
180.0
  0
LINE
  5
283
100
AcDbEntity
  8
0
100
AcDbLine
 62
7
  6
CONTINUOUS
 10
260.7639133032
 20
59.3428959455
 11
266.8294014563
 21
59.3428959455
  0
LINE
  5
284
100
AcDbEntity
  8
0
100
AcDbLine
 62
7
  6
CONTINUOUS
 10
249.948609213
 20
57.243895757
 11
255.0041822815
 21
57.243895757
  0
ARC
  5
285
100
AcDbEntity
  8
0
100
AcDbCircle
 62
7
  6
CONTINUOUS
 10
255.0041822809
 20
56.980672071
 40
0.2632236866
100
AcDbArc
 50
0.0
 51
90.0
  0
LINE
  5
286
100
AcDbEntity
  8
0
100
AcDbLine
 62
7
  6
CONTINUOUS
 10
255.267405968
 20
56.9806720704
 11
255.267405968
 21
56.4431964914
  0
LINE
  5
287
100
AcDbEntity
  8
0
100
AcDbLine
 62
7
  6
CONTINUOUS
 10
255.0041822815
 20
56.1799728048
 11
249.110987816
 21
56.1799728048
  0
ARC
  5
288
100
AcDbEntity
  8
0
100
AcDbCircle
 62
7
  6
CONTINUOUS
 10
249.110987816
 20
55.9167491182
 40
0.2632236866
100
AcDbArc
 50
90.0
 51
180.0
  0
LINE
  5
289
100
AcDbEntity
  8
0
100
AcDbLine
 62
7
  6
CONTINUOUS
 10
248.8477641294
 20
55.9167491182
 11
248.8477641294
 21
55.4180357945
  0
ARC
  5
28A
100
AcDbEntity
  8
0
100
AcDbCircle
 62
7
  6
CONTINUOUS
 10
249.110987816
 20
55.4180357945
 40
0.2632236866
100
AcDbArc
 50
180.0
 51
270.0
  0
LINE
  5
28B
100
AcDbEntity
  8
0
100
AcDbLine
 62
7
  6
CONTINUOUS
 10
249.110987816
 20
55.1548121079
 11
256.4270881789
 21
55.1548121079
  0
SPLINE
  5
28C
100
AcDbEntity
  8
0
100
AcDbSpline
 62
7
  6
CONTINUOUS
 70
0
 71
3
 72
13
 73
9
 74
0
 42
0.0000001
 43
0.0000001
 44
0.0000000001
 40
0.0
 40
0.0
 40
0.0
 40
0.0
 40
0.1604571392
 40
0.3334692485
 40
0.4767982758
 40
0.6242014838
 40
0.7505998515
 40
1.0
 40
1.0
 40
1.0
 40
1.0
 10
256.4270881789
 20
55.1548121079
 30
0.0
 10
256.5504385443
 20
55.1607512077
 30
0.0
 10
256.8067908211
 20
55.1730941065
 30
0.0
 10
257.1515120194
 20
55.3227562428
 30
0.0
 10
257.4112707994
 20
55.5743258019
 30
0.0
 10
257.5576550881
 20
55.8627405825
 30
0.0
 10
257.669885739
 20
56.2496519658
 30
0.0
 10
257.6744400635
 20
56.5391980899
 30
0.0
 10
257.6774625558
 20
56.7313564998
 30
0.0
  0
SPLINE
  5
28D
100
AcDbEntity
  8
0
100
AcDbSpline
 62
7
  6
CONTINUOUS
 70
0
 71
3
 72
13
 73
9
 74
0
 42
0.0000001
 43
0.0000001
 44
0.0000000001
 40
0.0
 40
0.0
 40
0.0
 40
0.0
 40
0.2494001485
 40
0.3757985162
 40
0.5232017242
 40
0.6665307515
 40
0.8395428608
 40
1.0
 40
1.0
 40
1.0
 40
1.0
 10
257.6774625558
 20
56.7313564998
 30
0.0
 10
257.6744400635
 20
56.9235149137
 30
0.0
 10
257.669885739
 20
57.2130610338
 30
0.0
 10
257.5576550881
 20
57.5999724211
 30
0.0
 10
257.4112707994
 20
57.8883872017
 30
0.0
 10
257.1515120194
 20
58.1399567568
 30
0.0
 10
256.8067908211
 20
58.2896188931
 30
0.0
 10
256.5504385443
 20
58.3019617959
 30
0.0
 10
256.4270881789
 20
58.3079008917
 30
0.0
  0
LINE
  5
28E
100
AcDbEntity
  8
0
100
AcDbLine
 62
7
  6
CONTINUOUS
 10
256.4270881789
 20
58.3079008917
 11
251.4389025529
 21
58.3079008917
  0
LINE
  5
28F
100
AcDbEntity
  8
0
100
AcDbLine
 62
7
  6
CONTINUOUS
 10
251.1756788663
 20
58.5711245783
 11
251.1756788663
 21
59.0691702008
  0
ARC
  5
290
100
AcDbEntity
  8
0
100
AcDbCircle
 62
7
  6
CONTINUOUS
 10
251.4389025507
 20
59.0691702008
 40
0.2632236866
100
AcDbArc
 50
90.0
 51
180.0
  0
LINE
  5
291
100
AcDbEntity
  8
0
100
AcDbLine
 62
7
  6
CONTINUOUS
 10
251.4389025529
 20
59.3323938873
 11
257.3400961634
 21
59.3323938873
  0
ARC
  5
292
100
AcDbEntity
  8
0
100
AcDbCircle
 62
7
  6
CONTINUOUS
 10
257.3400961634
 20
59.5956175739
 40
0.2632236866
100
AcDbArc
 50
270.0
 51
360.0
  0
LINE
  5
293
100
AcDbEntity
  8
0
100
AcDbLine
 62
7
  6
CONTINUOUS
 10
257.60331985
 20
59.5956175739
 11
257.60331985
 21
60.1327479128
  0
ARC
  5
294
100
AcDbEntity
  8
0
100
AcDbCircle
 62
7
  6
CONTINUOUS
 10
257.3400961634
 20
60.1327479128
 40
0.2632236866
100
AcDbArc
 50
0.0
 51
90.0
  0
LINE
  5
295
100
AcDbEntity
  8
0
100
AcDbLine
 62
7
  6
CONTINUOUS
 10
257.3400961634
 20
60.3959715994
 11
249.948609213
 21
60.3959715994
  0
SPLINE
  5
296
100
AcDbEntity
  8
0
100
AcDbSpline
 62
7
  6
CONTINUOUS
 70
0
 71
3
 72
13
 73
9
 74
0
 42
0.0000001
 43
0.0000001
 44
0.0000000001
 40
0.0
 40
0.0
 40
0.0
 40
0.0
 40
0.1133740464
 40
0.2392044088
 40
0.3655787964
 40
0.4912154373
 40
0.7445390876
 40
1.0
 40
1.0
 40
1.0
 40
1.0
 10
249.948609213
 20
60.3959715994
 30
0.0
 10
249.8641703588
 20
60.3918125923
 30
0.0
 10
249.6860154248
 20
60.3830376257
 30
0.0
 10
249.4213838924
 20
60.3039736291
 30
0.0
 10
249.1846451981
 20
60.1443187968
 30
0.0
 10
248.9428145104
 20
59.8502285046
 30
0.0
 10
248.7906393006
 20
59.3885458738
 30
0.0
 10
248.7741358761
 20
59.0100011323
 30
0.0
 10
248.7658495053
 20
58.8199336782
 30
0.0
  0
SPLINE
  5
297
100
AcDbEntity
  8
0
100
AcDbSpline
 62
7
  6
CONTINUOUS
 70
0
 71
3
 72
13
 73
9
 74
0
 42
0.0000001
 43
0.0000001
 44
0.0000000001
 40
0.0
 40
0.0
 40
0.0
 40
0.0
 40
0.2554609124
 40
0.5087845627
 40
0.6344212036
 40
0.7607955912
 40
0.8866259536
 40
1.0
 40
1.0
 40
1.0
 40
1.0
 10
248.7658495053
 20
58.8199336782
 30
0.0
 10
248.7741358761
 20
58.6298662242
 30
0.0
 10
248.7906393006
 20
58.2513214786
 30
0.0
 10
248.9428145104
 20
57.7896388519
 30
0.0
 10
249.1846451981
 20
57.4955485596
 30
0.0
 10
249.4213838924
 20
57.3358937273
 30
0.0
 10
249.6860154248
 20
57.2568297307
 30
0.0
 10
249.8641703588
 20
57.2480547642
 30
0.0
 10
249.948609213
 20
57.243895757
 30
0.0
  0
LINE
  5
298
100
AcDbEntity
  8
0
100
AcDbLine
 62
7
  6
CONTINUOUS
 10
240.2227831022
 20
55.1548121079
 11
244.312729844
 21
55.1548121079
  0
LINE
  5
299
100
AcDbEntity
  8
0
100
AcDbLine
 62
7
  6
CONTINUOUS
 10
244.312729844
 20
55.1548121079
 11
244.312729844
 21
54.6461476491
  0
ARC
  5
29A
100
AcDbEntity
  8
0
100
AcDbCircle
 62
7
  6
CONTINUOUS
 10
244.4139697234
 20
54.6461476491
 40
0.1012398795
100
AcDbArc
 50
180.0
 51
270.0
  0
LINE
  5
29B
100
AcDbEntity
  8
0
100
AcDbLine
 62
7
  6
CONTINUOUS
 10
244.4139697234
 20
54.5449077696
 11
245.9903776156
 21
54.5449077696
  0
ARC
  5
29C
100
AcDbEntity
  8
0
100
AcDbCircle
 62
7
  6
CONTINUOUS
 10
245.9903776156
 20
54.6461476491
 40
0.1012398795
100
AcDbArc
 50
270.0
 51
360.0
  0
LINE
  5
29D
100
AcDbEntity
  8
0
100
AcDbLine
 62
7
  6
CONTINUOUS
 10
246.0916174951
 20
54.6461476491
 11
246.0916174951
 21
55.1548121079
  0
LINE
  5
29E
100
AcDbEntity
  8
0
100
AcDbLine
 62
7
  6
CONTINUOUS
 10
246.0916174951
 20
55.1548121079
 11
246.8958540983
 21
55.1548121079
  0
SPLINE
  5
29F
100
AcDbEntity
  8
0
100
AcDbSpline
 62
7
  6
CONTINUOUS
 70
0
 71
3
 72
12
 73
8
 74
0
 42
0.0000001
 43
0.0000001
 44
0.0000000001
 40
0.0
 40
0.0
 40
0.0
 40
0.0
 40
0.2415790084
 40
0.4893269843
 40
0.7378634303
 40
0.8656387112
 40
1.0
 40
1.0
 40
1.0
 40
1.0
 10
246.8958540983
 20
55.1548121079
 30
0.0
 10
247.0400616445
 20
55.159295358
 30
0.0
 10
247.3321592282
 20
55.1683763444
 30
0.0
 10
247.7596135629
 20
55.3208179284
 30
0.0
 10
248.0192149959
 20
55.6085872966
 30
0.0
 10
248.133586769
 20
55.8961221286
 30
0.0
 10
248.1356479157
 20
56.0536331011
 30
0.0
 10
248.1367043822
 20
56.1343672642
 30
0.0
  0
LINE
  5
2A0
100
AcDbEntity
  8
0
100
AcDbLine
 62
7
  6
CONTINUOUS
 10
248.1367043822
 20
56.1343672642
 11
248.1367043822
 21
59.4102691901
  0
SPLINE
  5
2A1
100
AcDbEntity
  8
0
100
AcDbSpline
 62
7
  6
CONTINUOUS
 70
0
 71
3
 72
12
 73
8
 74
0
 42
0.0000001
 43
0.0000001
 44
0.0000000001
 40
0.0
 40
0.0
 40
0.0
 40
0.0
 40
0.1343612888
 40
0.2621365697
 40
0.5106730157
 40
0.7584209916
 40
1.0
 40
1.0
 40
1.0
 40
1.0
 10
248.1367043822
 20
59.4102691901
 30
0.0
 10
248.1356479157
 20
59.4910033572
 30
0.0
 10
248.133586769
 20
59.6485143297
 30
0.0
 10
248.0192149959
 20
59.9360491616
 30
0.0
 10
247.7596135629
 20
60.2238185299
 30
0.0
 10
247.3321592282
 20
60.3762601099
 30
0.0
 10
247.0400616445
 20
60.3853410962
 30
0.0
 10
246.8958540983
 20
60.3898243463
 30
0.0
  0
LINE
  5
2A2
100
AcDbEntity
  8
0
100
AcDbLine
 62
7
  6
CONTINUOUS
 10
246.8958540983
 20
60.3898243463
 11
240.2227831022
 21
60.3898243463
  0
SPLINE
  5
2A3
100
AcDbEntity
  8
0
100
AcDbSpline
 62
7
  6
CONTINUOUS
 70
0
 71
3
 72
12
 73
8
 74
0
 42
0.0000001
 43
0.0000001
 44
0.0000000001
 40
0.0
 40
0.0
 40
0.0
 40
0.0
 40
0.1341799809
 40
0.290831959
 40
0.5815217441
 40
0.760783857
 40
1.0
 40
1.0
 40
1.0
 40
1.0
 10
240.2227831022
 20
60.3898243463
 30
0.0
 10
240.0772315763
 20
60.3649482096
 30
0.0
 10
239.7617520634
 20
60.3110297612
 30
0.0
 10
239.2306929343
 20
59.9142767197
 30
0.0
 10
238.9791563794
 20
59.2467795693
 30
0.0
 10
238.8319845902
 20
58.4901100294
 30
0.0
 10
238.8209368653
 20
58.0324418028
 30
0.0
 10
238.8146216148
 20
57.7708233636
 30
0.0
  0
SPLINE
  5
2A4
100
AcDbEntity
  8
0
100
AcDbSpline
 62
7
  6
CONTINUOUS
 70
0
 71
3
 72
12
 73
8
 74
0
 42
0.0000001
 43
0.0000001
 44
0.0000000001
 40
0.0
 40
0.0
 40
0.0
 40
0.0
 40
0.2392679579
 40
0.4185688994
 40
0.7093216488
 40
0.8660075581
 40
1.0
 40
1.0
 40
1.0
 40
1.0
 10
238.8146216148
 20
57.7708233636
 30
0.0
 10
238.8209393882
 20
57.5092151213
 30
0.0
 10
238.8319915231
 20
57.0515647331
 30
0.0
 10
238.9791315553
 20
56.2947667887
 30
0.0
 10
239.2308217924
 20
55.6278910689
 30
0.0
 10
239.7613280141
 20
55.2298496892
 30
0.0
 10
240.0771844512
 20
55.1784880215
 30
0.0
 10
240.2227831022
 20
55.1548121079
 30
0.0
  0
LINE
  5
2A5
100
AcDbEntity
  8
0
100
AcDbLine
 62
7
  6
CONTINUOUS
 10
246.7887479064
 20
56.5026054984
 11
246.7887479064
 21
59.1273501434
  0
ARC
  5
2A6
100
AcDbEntity
  8
0
100
AcDbCircle
 62
7
  6
CONTINUOUS
 10
241.2664088233
 20
56.5026054984
 40
0.2632236866
100
AcDbArc
 50
180.0
 51
270.0
  0
LINE
  5
2A7
100
AcDbEntity
  8
0
100
AcDbLine
 62
7
  6
CONTINUOUS
 10
241.2664088233
 20
56.2393818118
 11
244.2897044208
 21
56.2393818118
  0
LINE
  5
2A8
100
AcDbEntity
  8
0
100
AcDbLine
 62
7
  6
CONTINUOUS
 10
244.2897044208
 20
56.2393818118
 11
244.2897044208
 21
56.7464702045
  0
ARC
  5
2A9
100
AcDbEntity
  8
0
100
AcDbCircle
 62
7
  6
CONTINUOUS
 10
244.3909443022
 20
56.7464702045
 40
0.1012398795
100
AcDbArc
 50
90.0
 51
180.0
  0
LINE
  5
2AA
100
AcDbEntity
  8
0
100
AcDbLine
 62
7
  6
CONTINUOUS
 10
244.3909443003
 20
56.847710084
 11
245.9593184639
 21
56.847710084
  0
ARC
  5
2AB
100
AcDbEntity
  8
0
100
AcDbCircle
 62
7
  6
CONTINUOUS
 10
245.9593184601
 20
56.7464702083
 40
0.1012398795
100
AcDbArc
 50
0.0
 51
90.0
  0
LINE
  5
2AC
100
AcDbEntity
  8
0
100
AcDbLine
 62
7
  6
CONTINUOUS
 10
246.0605583433
 20
56.2393818118
 11
246.5255242198
 21
56.2393818118
  0
ARC
  5
2AD
100
AcDbEntity
  8
0
100
AcDbCircle
 62
7
  6
CONTINUOUS
 10
246.5255242198
 20
56.5026054984
 40
0.2632236866
100
AcDbArc
 50
270.0
 51
360.0
  0
LINE
  5
2AE
100
AcDbEntity
  8
0
100
AcDbLine
 62
7
  6
CONTINUOUS
 10
246.0605583433
 20
56.2393818118
 11
246.0605583433
 21
56.7464702045
  0
LINE
  5
2AF
100
AcDbEntity
  8
0
100
AcDbLine
 62
7
  6
CONTINUOUS
 10
241.0031851367
 20
56.5026054984
 11
241.0031851367
 21
59.1273501434
  0
ARC
  5
2B0
100
AcDbEntity
  8
0
100
AcDbCircle
 62
7
  6
CONTINUOUS
 10
241.2664088269
 20
59.1273501434
 40
0.2632236866
100
AcDbArc
 50
90.0
 51
180.0
  0
LINE
  5
2B1
100
AcDbEntity
  8
0
100
AcDbLine
 62
7
  6
CONTINUOUS
 10
241.2664088233
 20
59.39057383
 11
246.5255242198
 21
59.39057383
  0
ARC
  5
2B2
100
AcDbEntity
  8
0
100
AcDbCircle
 62
7
  6
CONTINUOUS
 10
246.5255242222
 20
59.1273501411
 40
0.2632236866
100
AcDbArc
 50
0.0000000277
 51
90.0000000277
  0
ARC
  5
2B3
100
AcDbEntity
  8
0
100
AcDbCircle
 62
7
  6
CONTINUOUS
 10
251.4389025529
 20
58.5711245783
 40
0.2632236866
100
AcDbArc
 50
180.0
 51
270.0
  0
ARC
  5
2B4
100
AcDbEntity
  8
0
100
AcDbCircle
 62
7
  6
CONTINUOUS
 10
255.0041822815
 20
56.4431964914
 40
0.2632236866
100
AcDbArc
 50
270.0
 51
360.0
  0
ARC
  5
2B5
100
AcDbEntity
  8
0
100
AcDbCircle
 62
7
  6
CONTINUOUS
 10
260.7639133032
 20
56.4659991746
 40
0.2632236866
100
AcDbArc
 50
180.0
 51
270.0
  0
ENDBLK
  5
2B6
100
AcDbEntity
  8
0
  6
BYBLOCK
 62
0
100
AcDbBlockEnd
  0
BLOCK
  5
2B7
100
AcDbEntity
  8
0
100
AcDbBlockBegin
  2
_FILLED
 70
64
 10
0.0
 20
0.0
  3
_FILLED
  1

  0
SOLID
  5
2B8
100
AcDbEntity
  8
0
  6
BYBLOCK
 62
0
100
AcDbTrace
 10
0.0
 20
0.0
 11
-1.0
 21
0.1666666667
 12
-1.0
 22
-0.1666666667
 13
-1.0
 23
-0.1666666667
  0
ENDBLK
  5
2B9
100
AcDbEntity
  8
0
  6
BYBLOCK
 62
0
100
AcDbBlockEnd
  0
BLOCK
  5
2BA
100
AcDbEntity
  8
0
100
AcDbBlockBegin
 62
2
  6
CONTINUOUS
  2
*D0
 70
65
 10
0.0
 20
0.0
  3
*D0
  1

  0
MTEXT
  5
2BB
100
AcDbEntity
  8
0
100
AcDbMText
 62
2
  6
CONTINUOUS
  7
STANDARD
 71
2
 72
1
 10
108.0960083437
 20
174.8803949276
 30
0.0
 11
1.0
 21
0.0
 31
0.0
 44
0.9
  1
483\P[19.0]
 40
3.3244680851
 41
17.8096504559
  0
LINE
  5
2BC
100
AcDbEntity
  8
0
100
AcDbLine
 62
2
  6
CONTINUOUS
 10
100.7331663984
 20
162.9656919769
 11
100.7331663984
 21
175.8777353531
  0
LINE
  5
2BD
100
AcDbEntity
  8
0
100
AcDbLine
 62
2
  6
CONTINUOUS
 10
119.7331663984
 20
162.9656919769
 11
119.7331663984
 21
175.8777353531
  0
LINE
  5
2BE
100
AcDbEntity
  8
0
100
AcDbLine
 62
2
  6
CONTINUOUS
 10
100.7331663984
 20
173.218160885
 11
90.094868526
 21
173.218160885
  0
LINE
  5
2BF
100
AcDbEntity
  8
0
100
AcDbLine
 62
2
  6
CONTINUOUS
 10
119.7331663984
 20
173.218160885
 11
130.3714642707
 21
173.218160885
  0
INSERT
  5
2C0
100
AcDbEntity
  8
0
100
AcDbBlockReference
 62
2
  6
CONTINUOUS
  2
_FILLED
 10
100.7331663984
 20
173.218160885
 41
3.9893617021
 42
3.9893617021
 43
3.9893617021
  0
INSERT
  5
2C1
100
AcDbEntity
  8
0
100
AcDbBlockReference
 62
2
  6
CONTINUOUS
  2
_FILLED
 10
119.7331663984
 20
173.218160885
 41
3.9893617021
 42
3.9893617021
 43
3.9893617021
 50
180.0
  0
ENDBLK
  5
2C2
100
AcDbEntity
  8
0
  6
BYBLOCK
 62
0
100
AcDbBlockEnd
  0
BLOCK
  5
2C3
100
AcDbEntity
  8
0
100
AcDbBlockBegin
 62
2
  6
CONTINUOUS
  2
*D1
 70
65
 10
0.0
 20
0.0
  3
*D1
  1

  0
MTEXT
  5
2C4
100
AcDbEntity
  8
0
100
AcDbMText
 62
2
  6
CONTINUOUS
  7
STANDARD
 71
2
 72
1
 10
46.7007045513
 20
187.3596630842
 30
0.0
 11
1.0
 21
0.0
 31
0.0
 44
0.9
  1
800\P[31.5]
 40
3.3244680851
 41
17.0972644377
  0
LINE
  5
2C5
100
AcDbEntity
  8
0
100
AcDbLine
 62
2
  6
CONTINUOUS
 10
64.2316695969
 20
189.6786138548
 11
64.2316695969
 21
183.0378545735
  0
LINE
  5
2C6
100
AcDbEntity
  8
0
100
AcDbLine
 62
2
  6
CONTINUOUS
 10
32.7316695969
 20
189.6786138548
 11
32.7316695969
 21
183.0378545735
  0
LINE
  5
2C7
100
AcDbEntity
  8
0
100
AcDbLine
 62
2
  6
CONTINUOUS
 10
64.2316695969
 20
185.6974290416
 11
55.8429917853
 21
185.6974290416
  0
LINE
  5
2C8
100
AcDbEntity
  8
0
100
AcDbLine
 62
2
  6
CONTINUOUS
 10
32.7316695969
 20
185.6974290416
 11
41.1203474084
 21
185.6974290416
  0
INSERT
  5
2C9
100
AcDbEntity
  8
0
100
AcDbBlockReference
 62
2
  6
CONTINUOUS
  2
_FILLED
 10
64.2316695969
 20
185.6974290416
 41
3.9893617021
 42
3.9893617021
 43
3.9893617021
  0
INSERT
  5
2CA
100
AcDbEntity
  8
0
100
AcDbBlockReference
 62
2
  6
CONTINUOUS
  2
_FILLED
 10
32.7316695969
 20
185.6974290416
 41
3.9893617021
 42
3.9893617021
 43
3.9893617021
 50
180.0
  0
ENDBLK
  5
2CB
100
AcDbEntity
  8
0
  6
BYBLOCK
 62
0
100
AcDbBlockEnd
  0
BLOCK
  5
2CC
100
AcDbEntity
  8
0
100
AcDbBlockBegin
 62
2
  6
CONTINUOUS
  2
*D2
 70
65
 10
0.0
 20
0.0
  3
*D2
  1

  0
MTEXT
  5
2CD
100
AcDbEntity
  8
0
100
AcDbMText
 62
2
  6
CONTINUOUS
  7
STANDARD
 71
2
 72
1
 10
78.1276191138
 20
123.5343592579
 30
0.0
 11
1.0
 21
0.0
 31
0.0
 44
0.9
  1
2032\P[80.0]
 40
3.3244680851
 41
18.8782294833
  0
LINE
  5
2CE
100
AcDbEntity
  8
0
100
AcDbLine
 62
2
  6
CONTINUOUS
 10
65.3252363585
 20
161.8721252153
 11
81.9745036123
 21
161.8721252153
  0
LINE
  5
2CF
100
AcDbEntity
  8
0
100
AcDbLine
 62
2
  6
CONTINUOUS
 10
65.3252363585
 20
81.8721252153
 11
81.9745036123
 21
81.8721252153
  0
LINE
  5
2D0
100
AcDbEntity
  8
0
100
AcDbLine
 62
2
  6
CONTINUOUS
 10
79.3149291442
 20
161.8721252153
 11
79.3149291442
 21
125.1965933004
  0
LINE
  5
2D1
100
AcDbEntity
  8
0
100
AcDbLine
 62
2
  6
CONTINUOUS
 10
79.3149291442
 20
81.8721252153
 11
79.3149291442
 21
113.5609550025
  0
INSERT
  5
2D2
100
AcDbEntity
  8
0
100
AcDbBlockReference
 62
2
  6
CONTINUOUS
  2
_FILLED
 10
79.3149291442
 20
161.8721252153
 41
3.9893617021
 42
3.9893617021
 43
3.9893617021
 50
90.0
  0
INSERT
  5
2D3
100
AcDbEntity
  8
0
100
AcDbBlockReference
 62
2
  6
CONTINUOUS
  2
_FILLED
 10
79.3149291442
 20
81.8721252153
 41
3.9893617021
 42
3.9893617021
 43
3.9893617021
 50
270.0
  0
ENDBLK
  5
2D4
100
AcDbEntity
  8
0
  6
BYBLOCK
 62
0
100
AcDbBlockEnd
  0
BLOCK
  5
2D5
100
AcDbEntity
  8
0
100
AcDbBlockBegin
 62
2
  6
CONTINUOUS
  2
*D3
 70
65
 10
0.0
 20
0.0
  3
*D3
  1

  0
MTEXT
  5
2D6
100
AcDbEntity
  8
0
100
AcDbMText
 62
2
  6
CONTINUOUS
  7
STANDARD
 71
2
 72
1
 10
254.8767258092
 20
114.3020365943
 30
0.0
 11
1.0
 21
0.0
 31
0.0
 44
0.9
  1
1016\P[40.0]
 40
3.3244680851
 41
18.8782294833
  0
LINE
  5
2D7
100
AcDbEntity
  8
0
100
AcDbLine
 62
2
  6
CONTINUOUS
 10
243.8255827315
 20
130.2900269761
 11
259.3172653228
 21
130.2900269761
  0
LINE
  5
2D8
100
AcDbEntity
  8
0
100
AcDbLine
 62
2
  6
CONTINUOUS
 10
243.8255827315
 20
90.2900269761
 11
259.3172653228
 21
90.2900269761
  0
LINE
  5
2D9
100
AcDbEntity
  8
0
100
AcDbLine
 62
2
  6
CONTINUOUS
 10
256.6576908548
 20
130.2900269761
 11
256.6576908548
 21
115.9642706368
  0
LINE
  5
2DA
100
AcDbEntity
  8
0
100
AcDbLine
 62
2
  6
CONTINUOUS
 10
256.6576908548
 20
90.2900269761
 11
256.6576908548
 21
104.328632339
  0
INSERT
  5
2DB
100
AcDbEntity
  8
0
100
AcDbBlockReference
 62
2
  6
CONTINUOUS
  2
_FILLED
 10
256.6576908548
 20
130.2900269761
 41
3.9893617021
 42
3.9893617021
 43
3.9893617021
 50
90.0
  0
INSERT
  5
2DC
100
AcDbEntity
  8
0
100
AcDbBlockReference
 62
2
  6
CONTINUOUS
  2
_FILLED
 10
256.6576908548
 20
90.2900269761
 41
3.9893617021
 42
3.9893617021
 43
3.9893617021
 50
270.0
  0
ENDBLK
  5
2DD
100
AcDbEntity
  8
0
  6
BYBLOCK
 62
0
100
AcDbBlockEnd
  0
BLOCK
  5
2DE
100
AcDbEntity
  8
0
100
AcDbBlockBegin
 62
2
  6
CONTINUOUS
  2
*D4
 70
65
 10
0.0
 20
0.0
  3
*D4
  1

  0
MTEXT
  5
2DF
100
AcDbEntity
  8
0
100
AcDbMText
 62
2
  6
CONTINUOUS
  7
STANDARD
 71
2
 72
1
 10
294.6806971897
 20
142.0330002345
 30
0.0
 11
1.0
 21
0.0
 31
0.0
 44
0.9
  1
483\P[19.0]
 40
3.3244680851
 41
17.8096504559
  0
LINE
  5
2E0
100
AcDbEntity
  8
0
100
AcDbLine
 62
2
  6
CONTINUOUS
 10
287.3178552444
 20
131.3835937377
 11
287.3178552444
 21
143.03034066
  0
LINE
  5
2E1
100
AcDbEntity
  8
0
100
AcDbLine
 62
2
  6
CONTINUOUS
 10
306.3178552444
 20
131.3835937377
 11
306.3178552444
 21
143.03034066
  0
LINE
  5
2E2
100
AcDbEntity
  8
0
100
AcDbLine
 62
2
  6
CONTINUOUS
 10
287.3178552444
 20
140.3707661919
 11
276.6795573721
 21
140.3707661919
  0
LINE
  5
2E3
100
AcDbEntity
  8
0
100
AcDbLine
 62
2
  6
CONTINUOUS
 10
306.3178552444
 20
140.3707661919
 11
316.9561531168
 21
140.3707661919
  0
INSERT
  5
2E4
100
AcDbEntity
  8
0
100
AcDbBlockReference
 62
2
  6
CONTINUOUS
  2
_FILLED
 10
287.3178552444
 20
140.3707661919
 41
3.9893617021
 42
3.9893617021
 43
3.9893617021
  0
INSERT
  5
2E5
100
AcDbEntity
  8
0
100
AcDbBlockReference
 62
2
  6
CONTINUOUS
  2
_FILLED
 10
306.3178552444
 20
140.3707661919
 41
3.9893617021
 42
3.9893617021
 43
3.9893617021
 50
180.0
  0
ENDBLK
  5
2E6
100
AcDbEntity
  8
0
  6
BYBLOCK
 62
0
100
AcDbBlockEnd
  0
BLOCK
  5
2E7
100
AcDbEntity
  8
0
100
AcDbBlockBegin
 62
2
  6
CONTINUOUS
  2
*D5
 70
65
 10
0.0
 20
0.0
  3
*D5
  1

  0
MTEXT
  5
2E8
100
AcDbEntity
  8
0
100
AcDbMText
 62
2
  6
CONTINUOUS
  7
STANDARD
 71
2
 72
1
 10
209.9259749365
 20
160.7366513005
 30
0.0
 11
1.0
 21
0.0
 31
0.0
 44
0.9
  1
1600\P[63.0]
 40
3.3244680851
 41
18.5220364742
  0
LINE
  5
2E9
100
AcDbEntity
  8
0
100
AcDbLine
 62
2
  6
CONTINUOUS
 10
242.7320159699
 20
165.3967485511
 11
242.7320159699
 21
156.4148427899
  0
LINE
  5
2EA
100
AcDbEntity
  8
0
100
AcDbLine
 62
2
  6
CONTINUOUS
 10
179.7320159699
 20
165.3967485511
 11
179.7320159699
 21
156.4148427899
  0
LINE
  5
2EB
100
AcDbEntity
  8
0
100
AcDbLine
 62
2
  6
CONTINUOUS
 10
242.7320159699
 20
159.0744172579
 11
219.0682621705
 21
159.0744172579
  0
LINE
  5
2EC
100
AcDbEntity
  8
0
100
AcDbLine
 62
2
  6
CONTINUOUS
 10
179.7320159699
 20
159.0744172579
 11
203.3957697693
 21
159.0744172579
  0
INSERT
  5
2ED
100
AcDbEntity
  8
0
100
AcDbBlockReference
 62
2
  6
CONTINUOUS
  2
_FILLED
 10
242.7320159699
 20
159.0744172579
 41
3.9893617021
 42
3.9893617021
 43
3.9893617021
  0
INSERT
  5
2EE
100
AcDbEntity
  8
0
100
AcDbBlockReference
 62
2
  6
CONTINUOUS
  2
_FILLED
 10
179.7320159699
 20
159.0744172579
 41
3.9893617021
 42
3.9893617021
 43
3.9893617021
 50
180.0
  0
ENDBLK
  5
2EF
100
AcDbEntity
  8
0
  6
BYBLOCK
 62
0
100
AcDbBlockEnd
  0
BLOCK
  5
2F0
100
AcDbEntity
  8
0
100
AcDbBlockBegin
 62
2
  6
CONTINUOUS
  2
*D6
 70
65
 10
0.0
 20
0.0
  3
*D6
  1

  0
MTEXT
  5
2F1
100
AcDbEntity
  8
0
100
AcDbMText
 62
2
  6
CONTINUOUS
  7
STANDARD
 71
2
 72
1
 10
54.4569735482
 20
173.2646987193
 30
0.0
 11
1.0
 21
0.0
 31
0.0
 44
0.9
  1
400\P[15.8]
 40
3.3244680851
 41
17.4534574468
  0
LINE
  5
2F2
100
AcDbEntity
  8
0
100
AcDbLine
 62
2
  6
CONTINUOUS
 10
64.2316695969
 20
162.9656919769
 11
64.2316695969
 21
174.2620391448
  0
LINE
  5
2F3
100
AcDbEntity
  8
0
100
AcDbLine
 62
2
  6
CONTINUOUS
 10
48.4816695969
 20
163.2637529661
 11
48.4816695969
 21
174.2620391448
  0
LINE
  5
2F4
100
AcDbEntity
  8
0
100
AcDbLine
 62
2
  6
CONTINUOUS
 10
64.2316695969
 20
171.6024646767
 11
74.8699674692
 21
171.6024646767
  0
LINE
  5
2F5
100
AcDbEntity
  8
0
100
AcDbLine
 62
2
  6
CONTINUOUS
 10
48.4816695969
 20
171.6024646767
 11
37.8433717245
 21
171.6024646767
  0
INSERT
  5
2F6
100
AcDbEntity
  8
0
100
AcDbBlockReference
 62
2
  6
CONTINUOUS
  2
_FILLED
 10
64.2316695969
 20
171.6024646767
 41
3.9893617021
 42
3.9893617021
 43
3.9893617021
 50
180.0
  0
INSERT
  5
2F7
100
AcDbEntity
  8
0
100
AcDbBlockReference
 62
2
  6
CONTINUOUS
  2
_FILLED
 10
48.4816695969
 20
171.6024646767
 41
3.9893617021
 42
3.9893617021
 43
3.9893617021
  0
ENDBLK
  5
2F8
100
AcDbEntity
  8
0
  6
BYBLOCK
 62
0
100
AcDbBlockEnd
  0
BLOCK
  5
2F9
100
AcDbEntity
  8
0
100
AcDbBlockBegin
 62
2
  6
CONTINUOUS
  2
*D7
 70
65
 10
0.0
 20
0.0
  3
*D7
  1

  0
MTEXT
  5
2FA
100
AcDbEntity
  8
0
100
AcDbMText
 62
2
  6
CONTINUOUS
  7
STANDARD
 71
1
 72
1
 10
123.7071457867
 20
78.7532700521
 30
0.0
 11
1.0
 21
0.0
 31
0.0
 44
0.9
  1
255\P[10.0]
 40
3.3244680851
 41
17.8096504559
  0
LINE
  5
2FB
100
AcDbEntity
  8
0
100
AcDbLine
 62
2
  6
CONTINUOUS
 10
100.9693868708
 20
80.7785584537
 11
100.9693868708
 21
74.4314615414
  0
LINE
  5
2FC
100
AcDbEntity
  8
0
100
AcDbLine
 62
2
  6
CONTINUOUS
 10
110.9930089181
 20
115.6895812326
 11
110.9930089181
 21
74.4314615414
  0
LINE
  5
2FD
100
AcDbEntity
  8
0
100
AcDbLine
 62
2
  6
CONTINUOUS
 10
100.9693868708
 20
77.0910360095
 11
90.3310889985
 21
77.0910360095
  0
LINE
  5
2FE
100
AcDbEntity
  8
0
100
AcDbLine
 62
2
  6
CONTINUOUS
 10
110.9930089181
 20
77.0910360095
 11
122.0449117441
 21
77.0910360095
  0
INSERT
  5
2FF
100
AcDbEntity
  8
0
100
AcDbBlockReference
 62
2
  6
CONTINUOUS
  2
_FILLED
 10
100.9693868708
 20
77.0910360095
 41
3.9893617021
 42
3.9893617021
 43
3.9893617021
  0
INSERT
  5
300
100
AcDbEntity
  8
0
100
AcDbBlockReference
 62
2
  6
CONTINUOUS
  2
_FILLED
 10
110.9930089181
 20
77.0910360095
 41
3.9893617021
 42
3.9893617021
 43
3.9893617021
 50
180.0
  0
ENDBLK
  5
301
100
AcDbEntity
  8
0
  6
BYBLOCK
 62
0
100
AcDbBlockEnd
  0
BLOCK
  5
302
100
AcDbEntity
  8
0
100
AcDbBlockBegin
 62
2
  6
CONTINUOUS
  2
*D8
 70
65
 10
0.0
 20
0.0
  3
*D8
  1

  0
MTEXT
  5
303
100
AcDbEntity
  8
0
100
AcDbMText
 62
2
  6
CONTINUOUS
  7
STANDARD
 71
2
 72
1
 10
225.3967659879
 20
141.7522657708
 30
0.0
 11
1.0
 21
0.0
 31
0.0
 44
0.9
  1
760\P[29.9]
 40
3.3244680851
 41
18.8782294833
  0
LINE
  5
304
100
AcDbEntity
  8
0
100
AcDbLine
 62
2
  6
CONTINUOUS
 10
242.7320159699
 20
131.3835937377
 11
242.7320159699
 21
142.7496061963
  0
LINE
  5
305
100
AcDbEntity
  8
0
100
AcDbLine
 62
2
  6
CONTINUOUS
 10
212.8107561274
 20
115.5211811245
 11
212.8107561274
 21
142.7496061963
  0
LINE
  5
306
100
AcDbEntity
  8
0
100
AcDbLine
 62
2
  6
CONTINUOUS
 10
242.7320159699
 20
140.0900317282
 11
235.7263632523
 21
140.0900317282
  0
LINE
  5
307
100
AcDbEntity
  8
0
100
AcDbLine
 62
2
  6
CONTINUOUS
 10
212.8107561274
 20
140.0900317282
 11
219.816408845
 21
140.0900317282
  0
INSERT
  5
308
100
AcDbEntity
  8
0
100
AcDbBlockReference
 62
2
  6
CONTINUOUS
  2
_FILLED
 10
242.7320159699
 20
140.0900317282
 41
3.9893617021
 42
3.9893617021
 43
3.9893617021
  0
INSERT
  5
309
100
AcDbEntity
  8
0
100
AcDbBlockReference
 62
2
  6
CONTINUOUS
  2
_FILLED
 10
212.8107561274
 20
140.0900317282
 41
3.9893617021
 42
3.9893617021
 43
3.9893617021
 50
180.0
  0
ENDBLK
  5
30A
100
AcDbEntity
  8
0
  6
BYBLOCK
 62
0
100
AcDbBlockEnd
  0
BLOCK
  5
30B
100
AcDbEntity
  8
0
100
AcDbBlockBegin
 62
2
  6
CONTINUOUS
  2
*D9
 70
65
 10
0.0
 20
0.0
  3
*D9
  1

  0
MTEXT
  5
30C
100
AcDbEntity
  8
0
100
AcDbMText
 62
2
  6
CONTINUOUS
  7
STANDARD
 71
2
 72
1
 10
132.0064159733
 20
105.4653794832
 30
0.0
 11
1.0
 21
0.0
 31
0.0
 44
0.9
  1
990\P[39.0]
 40
3.3244680851
 41
18.5220364742
  0
LINE
  5
30D
100
AcDbEntity
  8
0
100
AcDbLine
 62
2
  6
CONTINUOUS
 10
120.82673316
 20
81.8721252153
 11
136.9218794992
 21
81.8721252153
  0
LINE
  5
30E
100
AcDbEntity
  8
0
100
AcDbLine
 62
2
  6
CONTINUOUS
 10
115.8437147416
 20
120.8485031681
 11
136.9218794992
 21
120.8485031681
  0
LINE
  5
30F
100
AcDbEntity
  8
0
100
AcDbLine
 62
2
  6
CONTINUOUS
 10
134.2623050311
 20
81.8721252153
 11
134.2623050311
 21
95.4919752279
  0
LINE
  5
310
100
AcDbEntity
  8
0
100
AcDbLine
 62
2
  6
CONTINUOUS
 10
134.2623050311
 20
120.8485031681
 11
134.2623050311
 21
107.1276135258
  0
INSERT
  5
311
100
AcDbEntity
  8
0
100
AcDbBlockReference
 62
2
  6
CONTINUOUS
  2
_FILLED
 10
134.2623050311
 20
81.8721252153
 41
3.9893617021
 42
3.9893617021
 43
3.9893617021
 50
270.0
  0
INSERT
  5
312
100
AcDbEntity
  8
0
100
AcDbBlockReference
 62
2
  6
CONTINUOUS
  2
_FILLED
 10
134.2623050311
 20
120.8485031681
 41
3.9893617021
 42
3.9893617021
 43
3.9893617021
 50
90.0
  0
ENDBLK
  5
313
100
AcDbEntity
  8
0
  6
BYBLOCK
 62
0
100
AcDbBlockEnd
  0
BLOCK
  5
314
100
AcDbEntity
  8
0
100
AcDbBlockBegin
 62
2
  6
CONTINUOUS
  2
*D10
 70
65
 10
0.0
 20
0.0
  3
*D10
  1

  0
MTEXT
  5
315
100
AcDbEntity
  8
0
100
AcDbMText
 62
2
  6
CONTINUOUS
  7
STANDARD
 71
2
 72
1
 10
316.0251718963
 20
104.4871873331
 30
0.0
 11
1.0
 21
0.0
 31
0.0
 44
0.9
  1
505\P[19.9]
 40
3.3244680851
 41
17.8096504559
  0
LINE
  5
316
100
AcDbEntity
  8
0
100
AcDbLine
 62
2
  6
CONTINUOUS
 10
307.411422006
 20
90.2900269761
 11
320.9406354221
 21
90.2900269761
  0
LINE
  5
317
100
AcDbEntity
  8
0
100
AcDbLine
 62
2
  6
CONTINUOUS
 10
303.1261263878
 20
110.1719167399
 11
320.9406354221
 21
110.1719167399
  0
LINE
  5
318
100
AcDbEntity
  8
0
100
AcDbLine
 62
2
  6
CONTINUOUS
 10
318.281060954
 20
90.2900269761
 11
318.281060954
 21
79.6517291038
  0
LINE
  5
319
100
AcDbEntity
  8
0
100
AcDbLine
 62
2
  6
CONTINUOUS
 10
318.281060954
 20
110.1719167399
 11
318.281060954
 21
120.8102146122
  0
INSERT
  5
31A
100
AcDbEntity
  8
0
100
AcDbBlockReference
 62
2
  6
CONTINUOUS
  2
_FILLED
 10
318.281060954
 20
90.2900269761
 41
3.9893617021
 42
3.9893617021
 43
3.9893617021
 50
90.0
  0
INSERT
  5
31B
100
AcDbEntity
  8
0
100
AcDbBlockReference
 62
2
  6
CONTINUOUS
  2
_FILLED
 10
318.281060954
 20
110.1719167399
 41
3.9893617021
 42
3.9893617021
 43
3.9893617021
 50
270.0
  0
ENDBLK
  5
31C
100
AcDbEntity
  8
0
  6
BYBLOCK
 62
0
100
AcDbBlockEnd
  0
BLOCK
  5
31D
100
AcDbEntity
  8
0
100
AcDbBlockBegin
 62
2
  6
CONTINUOUS
  2
*D11
 70
65
 10
0.0
 20
0.0
  3
*D11
  1

  0
MTEXT
  5
31E
100
AcDbEntity
  8
0
100
AcDbMText
 62
2
  6
CONTINUOUS
  7
STANDARD
 71
3
 72
1
 10
271.9717546434
 20
84.5115634007
 30
0.0
 11
1.0
 21
0.0
 31
0.0
 44
0.9
  1
267\P[10.5]
 40
3.3244680851
 41
17.4534574468
  0
LINE
  5
31F
100
AcDbEntity
  8
0
100
AcDbLine
 62
2
  6
CONTINUOUS
 10
287.3178552444
 20
89.1964602145
 11
287.3178552444
 21
80.18975489
  0
LINE
  5
320
100
AcDbEntity
  8
0
100
AcDbLine
 62
2
  6
CONTINUOUS
 10
297.8139182365
 20
105.1123111246
 11
297.8139182365
 21
80.18975489
  0
LINE
  5
321
100
AcDbEntity
  8
0
100
AcDbLine
 62
2
  6
CONTINUOUS
 10
287.3178552444
 20
82.8493293581
 11
277.4333807832
 21
82.8493293581
  0
LINE
  5
322
100
AcDbEntity
  8
0
100
AcDbLine
 62
2
  6
CONTINUOUS
 10
297.8139182365
 20
82.8493293581
 11
308.4522161089
 21
82.8493293581
  0
INSERT
  5
323
100
AcDbEntity
  8
0
100
AcDbBlockReference
 62
2
  6
CONTINUOUS
  2
_FILLED
 10
287.3178552444
 20
82.8493293581
 41
3.9893617021
 42
3.9893617021
 43
3.9893617021
  0
INSERT
  5
324
100
AcDbEntity
  8
0
100
AcDbBlockReference
 62
2
  6
CONTINUOUS
  2
_FILLED
 10
297.8139182365
 20
82.8493293581
 41
3.9893617021
 42
3.9893617021
 43
3.9893617021
 50
180.0
  0
ENDBLK
  5
325
100
AcDbEntity
  8
0
  6
BYBLOCK
 62
0
100
AcDbBlockEnd
  0
ENDSEC
  0
SECTION
  2
ENTITIES
  0
MTEXT
  5
326
100
AcDbEntity
  8
0
100
AcDbMText
 62
2
  6
CONTINUOUS
  7
STANDARD
 71
1
 72
1
 10
52.5753853379
 20
8.5771026899
 30
0.0
 11
1.0
 21
0.0
 31
0.0
 44
0.9
  1
4
 40
3.3244680851
 41
3.9181231003
  0
MTEXT
  5
327
100
AcDbEntity
  8
0
100
AcDbMText
 62
2
  6
CONTINUOUS
  7
STANDARD
 71
1
 72
1
 10
134.9820166153
 20
8.5615498042
 30
0.0
 11
1.0
 21
0.0
 31
0.0
 44
0.9
  1
3
 40
3.3244680851
 41
3.5619300912
  0
MTEXT
  5
328
100
AcDbEntity
  8
0
100
AcDbMText
 62
2
  6
CONTINUOUS
  7
STANDARD
 71
1
 72
1
 10
217.1978056074
 20
8.5686255526
 30
0.0
 11
1.0
 21
0.0
 31
0.0
 44
0.9
  1
2
 40
3.3244680851
 41
3.9181231003
  0
MTEXT
  5
329
100
AcDbEntity
  8
0
100
AcDbMText
 62
2
  6
CONTINUOUS
  7
STANDARD
 71
1
 72
1
 10
299.5680487761
 20
8.5689822618
 30
0.0
 11
1.0
 21
0.0
 31
0.0
 44
0.9
  1
1
 40
3.3244680851
 41
2.8495440729
  0
MTEXT
  5
32A
100
AcDbEntity
  8
0
100
AcDbMText
 62
2
  6
CONTINUOUS
  7
STANDARD
 71
1
 72
1
 10
52.587167476
 20
231.2672020305
 30
0.0
 11
1.0
 21
0.0
 31
0.0
 44
0.9
  1
4
 40
3.3244680851
 41
3.9181231003
  0
MTEXT
  5
32B
100
AcDbEntity
  8
0
100
AcDbMText
 62
2
  6
CONTINUOUS
  7
STANDARD
 71
1
 72
1
 10
134.9494794329
 20
231.2424900356
 30
0.0
 11
1.0
 21
0.0
 31
0.0
 44
0.9
  1
3
 40
3.3244680851
 41
3.5619300912
  0
MTEXT
  5
32C
100
AcDbEntity
  8
0
100
AcDbMText
 62
2
  6
CONTINUOUS
  7
STANDARD
 71
1
 72
1
 10
217.2368482733
 20
231.238311591
 30
0.0
 11
1.0
 21
0.0
 31
0.0
 44
0.9
  1
2
 40
3.3244680851
 41
3.9181231003
  0
MTEXT
  5
32D
100
AcDbEntity
  8
0
100
AcDbMText
 62
2
  6
CONTINUOUS
  7
STANDARD
 71
1
 72
1
 10
299.5717452119
 20
231.2413079472
 30
0.0
 11
1.0
 21
0.0
 31
0.0
 44
0.9
  1
1
 40
3.3244680851
 41
2.8495440729
  0
MTEXT
  5
32E
100
AcDbEntity
  8
0
100
AcDbMText
 62
2
  6
CONTINUOUS
  7
STANDARD
 71
1
 72
1
 10
5.4099609906
 20
39.5594959408
 30
0.0
 11
1.0
 21
0.0
 31
0.0
 44
0.9
  1
A
 40
3.3244680851
 41
4.2743161094
  0
MTEXT
  5
32F
100
AcDbEntity
  8
0
100
AcDbMText
 62
2
  6
CONTINUOUS
  7
STANDARD
 71
1
 72
1
 10
5.5265368232
 20
92.7717151547
 30
0.0
 11
1.0
 21
0.0
 31
0.0
 44
0.9
  1
B
 40
3.3244680851
 41
3.9181231003
  0
MTEXT
  5
330
100
AcDbEntity
  8
0
100
AcDbMText
 62
2
  6
CONTINUOUS
  7
STANDARD
 71
1
 72
1
 10
5.4957246082
 20
145.9127673074
 30
0.0
 11
1.0
 21
0.0
 31
0.0
 44
0.9
  1
C
 40
3.3244680851
 41
4.1555851064
  0
MTEXT
  5
331
100
AcDbEntity
  8
0
100
AcDbMText
 62
2
  6
CONTINUOUS
  7
STANDARD
 71
1
 72
1
 10
5.5402503094
 20
199.193780842
 30
0.0
 11
1.0
 21
0.0
 31
0.0
 44
0.9
  1
D
 40
3.3244680851
 41
4.5117781155
  0
MTEXT
  5
332
100
AcDbEntity
  8
0
100
AcDbMText
 62
2
  6
CONTINUOUS
  7
STANDARD
 71
1
 72
1
 10
345.7531663919
 20
39.5530891409
 30
0.0
 11
1.0
 21
0.0
 31
0.0
 44
0.9
  1
A
 40
3.3244680851
 41
4.2743161094
  0
MTEXT
  5
333
100
AcDbEntity
  8
0
100
AcDbMText
 62
2
  6
CONTINUOUS
  7
STANDARD
 71
1
 72
1
 10
345.733337468
 20
92.7645349326
 30
0.0
 11
1.0
 21
0.0
 31
0.0
 44
0.9
  1
B
 40
3.3244680851
 41
3.9181231003
  0
MTEXT
  5
334
100
AcDbEntity
  8
0
100
AcDbMText
 62
2
  6
CONTINUOUS
  7
STANDARD
 71
1
 72
1
 10
345.7245320906
 20
145.9011012801
 30
0.0
 11
1.0
 21
0.0
 31
0.0
 44
0.9
  1
C
 40
3.3244680851
 41
4.1555851064
  0
MTEXT
  5
335
100
AcDbEntity
  8
0
100
AcDbMText
 62
2
  6
CONTINUOUS
  7
STANDARD
 71
1
 72
1
 10
345.7326549741
 20
199.1876342714
 30
0.0
 11
1.0
 21
0.0
 31
0.0
 44
0.9
  1
D
 40
3.3244680851
 41
4.5117781155
  0
MTEXT
  5
336
100
AcDbEntity
  8
0
100
AcDbMText
 62
5
  6
CONTINUOUS
  7
STANDARD
 71
1
 72
1
 10
11.5796884283
 20
222.6057919173
 30
0.0
 11
1.0
 21
0.0
 31
0.0
 44
0.9
  1
THIS DOCUMENT CONTAINS PROPRIETARY INFORMATION\PWHICH IS THE PROPERTY OF QSC, LLC, THAT MAY NOT BE\PDISCLOSED, REPRODUCED OR USED WITHOUT EXPRESS\PWRITTEN CONSENT FROM QSC, LLC.
 40
1.5957446809
 41
94.5478723404
  0
MTEXT
  5
337
100
AcDbEntity
  8
0
100
AcDbMText
 62
2
  6
CONTINUOUS
  7
STANDARD
 71
2
 72
1
 10
153.9350484931
 20
55.1486276302
 30
0.0
 11
1.0
 21
0.0
 31
0.0
 44
0.9
  1
TOLERANCES ARE:
 40
1.914893617
 41
32.8951367781
  0
MTEXT
  5
338
100
AcDbEntity
  8
0
100
AcDbMText
 62
2
  6
CONTINUOUS
  7
STANDARD
 71
2
 72
1
 10
172.9637658379
 20
50.2659722261
 30
0.0
 11
1.0
 21
0.0
 31
0.0
 44
0.9
  1
ANGLES\P\Fgdt;{\Fgdt;`}\Ftxt; 1/2
 40
1.914893617
 41
13.6778115502
  0
MTEXT
  5
339
100
AcDbEntity
  8
0
100
AcDbMText
 62
2
  6
CONTINUOUS
  7
STANDARD
 71
2
 72
1
 10
137.4239251235
 20
35.8770195227
 30
0.0
 11
1.0
 21
0.0
 31
0.0
 44
0.9
  1
MATERIAL
 40
1.914893617
 41
18.396656535
  0
MTEXT
  5
33A
100
AcDbEntity
  8
0
100
AcDbMText
 62
2
  6
CONTINUOUS
  7
STANDARD
 71
2
 72
1
 10
135.3859514049
 20
22.9180133393
 30
0.0
 11
1.0
 21
0.0
 31
0.0
 44
0.9
  1
FINISH
 40
1.914893617
 41
13.0623100304
  0
MTEXT
  5
33B
100
AcDbEntity
  8
0
100
AcDbMText
 62
2
  6
CONTINUOUS
  7
STANDARD
 71
2
 72
1
 10
282.3360066978
 20
14.4872885476
 30
0.0
 11
1.0
 21
0.0
 31
0.0
 44
0.9
  1
DO NOT SCALE DRAWING
 40
2.6595744681
 41
66.2993920973
  0
MTEXT
  5
33C
100
AcDbEntity
  8
0
100
AcDbMText
 62
2
  6
CONTINUOUS
  7
STANDARD
 71
2
 72
1
 10
185.2968820438
 20
64.0323994372
 30
0.0
 11
1.0
 21
0.0
 31
0.0
 44
0.9
  1
DESIGNER
 40
1.914893617
 41
18.123100304
  0
MTEXT
  5
33D
100
AcDbEntity
  8
0
100
AcDbMText
 62
2
  6
CONTINUOUS
  7
STANDARD
 71
2
 72
1
 10
184.8987231444
 20
53.2074446555
 30
0.0
 11
1.0
 21
0.0
 31
0.0
 44
0.9
  1
ENGINEER
 40
1.914893617
 41
17.5759878419
  0
MTEXT
  5
33E
100
AcDbEntity
  8
0
100
AcDbMText
 62
2
  6
CONTINUOUS
  7
STANDARD
 71
2
 72
1
 10
192.5053064936
 20
42.2244124889
 30
0.0
 11
1.0
 21
0.0
 31
0.0
 44
0.9
  1
TECHNICAL DIRECTOR
 40
1.914893617
 41
40.896656535
  0
MTEXT
  5
33F
100
AcDbEntity
  8
0
100
AcDbMText
 62
2
  6
CONTINUOUS
  7
STANDARD
 71
2
 72
1
 10
195.7224526628
 20
31.111829521
 30
0.0
 11
1.0
 21
0.0
 31
0.0
 44
0.9
  1
MANUFACTURING ENGINEER
 40
1.914893617
 41
49.5136778116
  0
MTEXT
  5
340
100
AcDbEntity
  8
0
100
AcDbMText
 62
2
  6
CONTINUOUS
  7
STANDARD
 71
2
 72
1
 10
190.5643297951
 20
14.3830312523
 30
0.0
 11
1.0
 21
0.0
 31
0.0
 44
0.9
  1
MODEL INFO:
 40
1.914893617
 41
23.4574468085
  0
MTEXT
  5
341
100
AcDbEntity
  8
0
100
AcDbMText
 62
2
  6
CONTINUOUS
  7
STANDARD
 71
2
 72
1
 10
188.5925721975
 20
19.5395966277
 30
0.0
 11
1.0
 21
0.0
 31
0.0
 44
0.9
  1
DRAWING INFO:
 40
1.914893617
 41
29.8176291793
  0
MTEXT
  5
342
100
AcDbEntity
  8
0
100
AcDbMText
 62
2
  6
CONTINUOUS
  7
STANDARD
 71
2
 72
1
 10
239.1354166253
 20
14.1919219196
 30
0.0
 11
1.0
 21
0.0
 31
0.0
 44
0.9
  1
SCALE:
 40
1.914893617
 41
12.5835866261
  0
MTEXT
  5
343
100
AcDbEntity
  8
0
100
AcDbMText
 62
2
  6
CONTINUOUS
  7
STANDARD
 71
2
 72
1
 10
310.9838879635
 20
14.2272529045
 30
0.0
 11
1.0
 21
0.0
 31
0.0
 44
0.9
  1
SHEET
 40
1.914893617
 41
11.6261398176
  0
MTEXT
  5
344
100
AcDbEntity
  8
0
100
AcDbMText
 62
2
  6
CONTINUOUS
  7
STANDARD
 71
2
 72
1
 10
239.1910521442
 20
25.7516950493
 30
0.0
 11
1.0
 21
0.0
 31
0.0
 44
0.9
  1
SIZE
 40
1.914893617
 41
8.9589665653
  0
MTEXT
  5
345
100
AcDbEntity
  8
0
100
AcDbMText
 62
2
  6
CONTINUOUS
  7
STANDARD
 71
2
 72
1
 10
254.9722895462
 20
25.7748179385
 30
0.0
 11
1.0
 21
0.0
 31
0.0
 44
0.9
  1
CAGE CODE
 40
1.914893617
 41
21.2689969605
  0
MTEXT
  5
346
100
AcDbEntity
  8
0
100
AcDbMText
 62
2
  6
CONTINUOUS
  7
STANDARD
 71
2
 72
1
 10
275.3393563411
 20
25.7304886323
 30
0.0
 11
1.0
 21
0.0
 31
0.0
 44
0.9
  1
DRAWING NO.
 40
1.914893617
 41
26.5349544073
  0
MTEXT
  5
347
100
AcDbEntity
  8
0
100
AcDbMText
 62
2
  6
CONTINUOUS
  7
STANDARD
 71
2
 72
1
 10
335.364524669
 20
25.7590192911
 30
0.0
 11
1.0
 21
0.0
 31
0.0
 44
0.9
  1
REV
 40
1.914893617
 41
7.2492401216
  0
MTEXT
  5
348
100
AcDbEntity
  8
0
100
AcDbMText
 62
2
  6
CONTINUOUS
  7
STANDARD
 71
2
 72
1
 10
285.2408233227
 20
63.4142903911
 30
0.0
 11
1.0
 21
0.0
 31
0.0
 44
0.9
  1
QSC, LLC
 40
3.3244680851
 41
30.6325987842
  0
MTEXT
  5
349
100
AcDbEntity
  8
0
100
AcDbMText
 62
2
  6
CONTINUOUS
  7
STANDARD
 71
1
 72
1
 10
274.7262215703
 20
58.6019183806
 30
0.0
 11
1.0
 21
0.0
 31
0.0
 44
0.9
  1
1675 MACARTHUR BOULEVARD\PCOSTA MESA, CA  92626
 40
2.6595744681
 41
76.2727963526
  0
MTEXT
  5
34A
100
AcDbEntity
  8
0
100
AcDbMText
 62
2
  6
CONTINUOUS
  7
STANDARD
 71
1
 72
1
 10
247.4491167854
 20
21.1973721655
 30
0.0
 11
1.0
 21
0.0
 31
0.0
 44
0.9
  1
00PW4
 40
3.3244680851
 41
23.3900075988
  0
MTEXT
  5
34B
100
AcDbEntity
  8
0
100
AcDbMText
 62
2
  6
CONTINUOUS
  7
STANDARD
 71
2
 72
1
 10
154.3631675989
 20
63.2294135075
 30
0.0
 11
1.0
 21
0.0
 31
0.0
 44
0.9
  1
UNLESS OTHERWISE SPECIFIED\PDIMENSIONS IN MILLIMETERS [IN]
 40
2.1276595745
 41
69.9088145897
  0
MTEXT
  5
34C
100
AcDbEntity
  8
0
100
AcDbMText
 62
2
  6
CONTINUOUS
  7
STANDARD
 71
2
 72
1
 10
138.9027183966
 20
50.2960683892
 30
0.0
 11
1.0
 21
0.0
 31
0.0
 44
0.9
  1
DECIMALS\P.X\Fgdt;{\Fgdt;`}\Ftxt;.5[.02]
 40
1.914893617
 41
19.76443769
  0
MTEXT
  5
34D
100
AcDbEntity
  8
0
100
AcDbMText
 62
2
  6
CONTINUOUS
  7
STANDARD
 71
2
 72
1
 10
157.4640167611
 20
50.3062619905
 30
0.0
 11
1.0
 21
0.0
 31
0.0
 44
0.9
  1
DECIMALS\P.XX\Fgdt;{\Fgdt;`}\Ftxt;.25[.010]
 40
1.914893617
 41
26.1246200608
  0
MTEXT
  5
34E
100
AcDbEntity
  8
0
100
AcDbMText
 62
2
  6
CONTINUOUS
  7
STANDARD
 71
2
 72
1
 10
154.0547074258
 20
41.9481663106
 30
0.0
 11
1.0
 21
0.0
 31
0.0
 44
0.9
  1
DEBURR EDGES .25 [.010] R MAX
 40
1.914893617
 41
62.5759878419
  0
INSERT
  5
34F
100
AcDbEntity
  8
0
100
AcDbBlockReference
 62
7
  6
CONTINUOUS
  2
RD010411_BL0
 10
252.9536233788
 20
57.4704396845
  0
DIMENSION
  5
350
100
AcDbEntity
  8
0
100
AcDbDimension
 62
2
  6
CONTINUOUS
  2
*D0
 10
119.7331663984
 20
173.218160885
 11
110.2331663984
 21
170.7248098212
 70
160
 71
2
 42
482.6
  3
DIMSTYLE_1
100
AcDbAlignedDimension
 13
100.7331663984
 23
162.9031919769
 14
119.7331663984
 24
162.9031919769
100
AcDbRotatedDimension
  0
DIMENSION
  5
351
100
AcDbEntity
  8
0
100
AcDbDimension
 62
2
  6
CONTINUOUS
  2
*D1
 10
32.7316695969
 20
185.6974290416
 11
48.4816695969
 21
183.2040779778
 70
160
 71
2
 42
800.1
  3
DIMSTYLE_1
100
AcDbAlignedDimension
 13
64.2316695969
 23
189.7411138548
 14
32.7316695969
 24
189.7411138548
 50
180.0
100
AcDbRotatedDimension
  0
DIMENSION
  5
352
100
AcDbEntity
  8
0
100
AcDbDimension
 62
2
  6
CONTINUOUS
  2
*D2
 10
79.3149291442
 20
81.8721252153
 11
79.3149291442
 21
119.3787741515
 70
160
 71
2
 42
2032.0
  3
DIMSTYLE_1
100
AcDbAlignedDimension
 13
65.2627363585
 23
161.8721252153
 14
65.2627363585
 24
81.8721252153
 50
270.0
100
AcDbRotatedDimension
  0
DIMENSION
  5
353
100
AcDbEntity
  8
0
100
AcDbDimension
 62
2
  6
CONTINUOUS
  2
*D3
 10
256.6576908548
 20
90.2900269761
 11
256.6576908548
 21
110.1464514879
 70
160
 71
2
 42
1016.0
  3
DIMSTYLE_1
100
AcDbAlignedDimension
 13
243.7630827315
 23
130.2900269761
 14
243.7630827315
 24
90.2900269761
 50
270.0
100
AcDbRotatedDimension
  0
DIMENSION
  5
354
100
AcDbEntity
  8
0
100
AcDbDimension
 62
2
  6
CONTINUOUS
  2
*D4
 10
306.3178552444
 20
140.3707661919
 11
296.8178552444
 21
137.8774151281
 70
160
 71
2
 42
482.6
  3
DIMSTYLE_1
100
AcDbAlignedDimension
 13
287.3178552444
 23
131.3210937377
 14
306.3178552444
 24
131.3210937377
100
AcDbRotatedDimension
  0
DIMENSION
  5
355
100
AcDbEntity
  8
0
100
AcDbDimension
 62
2
  6
CONTINUOUS
  2
*D5
 10
179.7320159699
 20
159.0744172579
 11
211.2320159699
 21
156.5810661941
 70
160
 71
2
 42
1600.2
  3
DIMSTYLE_1
100
AcDbAlignedDimension
 13
242.7320159699
 23
165.4592485511
 14
179.7320159699
 24
165.4592485511
 50
180.0
100
AcDbRotatedDimension
  0
DIMENSION
  5
356
100
AcDbEntity
  8
0
100
AcDbDimension
 62
2
  6
CONTINUOUS
  2
*D6
 10
48.4816695969
 20
171.6024646767
 11
56.3566695969
 21
169.1091136129
 70
160
 71
2
 42
400.05
  3
DIMSTYLE_1
100
AcDbAlignedDimension
 13
64.2316695969
 23
162.9031919769
 14
48.4816695969
 24
163.2012529661
 50
180.0
100
AcDbRotatedDimension
  0
DIMENSION
  5
357
100
AcDbEntity
  8
0
100
AcDbDimension
 62
2
  6
CONTINUOUS
  2
*D7
 10
110.9930089181
 20
77.0910360095
 11
129.6436959386
 21
74.5976849457
 70
160
 71
1
 42
254.6
  3
DIMSTYLE_1
100
AcDbAlignedDimension
 13
100.9693868708
 23
80.8410584537
 14
110.9930089181
 24
115.7520812326
100
AcDbRotatedDimension
  0
DIMENSION
  5
358
100
AcDbEntity
  8
0
100
AcDbDimension
 62
2
  6
CONTINUOUS
  2
*D8
 10
212.8107561274
 20
140.0900317282
 11
227.7713860486
 21
137.5966806644
 70
160
 71
2
 42
760.0
  3
DIMSTYLE_1
100
AcDbAlignedDimension
 13
242.7320159699
 23
131.3210937377
 14
212.8107561274
 24
115.4586811245
 50
180.0
100
AcDbRotatedDimension
  0
DIMENSION
  5
359
100
AcDbEntity
  8
0
100
AcDbDimension
 62
2
  6
CONTINUOUS
  2
*D9
 10
134.2623050311
 20
120.8485031681
 11
134.2623050311
 21
101.3097943768
 70
160
 71
2
 42
990.0
  3
DIMSTYLE_1
100
AcDbAlignedDimension
 13
120.76423316
 23
81.8721252153
 14
115.7812147416
 24
120.8485031681
 50
90.0
100
AcDbRotatedDimension
  0
DIMENSION
  5
35A
100
AcDbEntity
  8
0
100
AcDbDimension
 62
2
  6
CONTINUOUS
  2
*D10
 10
318.281060954
 20
110.1719167399
 11
318.281060954
 21
100.3316022267
 70
160
 71
2
 42
505.0
  3
DIMSTYLE_1
100
AcDbAlignedDimension
 13
307.348922006
 23
90.2900269761
 14
303.0636263878
 24
110.1719167399
 50
90.0
100
AcDbRotatedDimension
  0
DIMENSION
  5
35B
100
AcDbEntity
  8
0
100
AcDbDimension
 62
2
  6
CONTINUOUS
  2
*D11
 10
297.8139182365
 20
82.8493293581
 11
269.9533275917
 21
80.3559782943
 70
160
 71
3
 42
266.6
  3
DIMSTYLE_1
100
AcDbAlignedDimension
 13
287.3178552444
 23
89.2589602145
 14
297.8139182365
 24
105.1748111246
100
AcDbRotatedDimension
  0
LWPOLYLINE
  5
35C
100
AcDbEntity
  8
0
100
AcDbPolyline
 62
2
  6
CONTINUOUS
 90
2
 70
0
 43
0.4255319149
 10
340.5086030346
 20
223.2475261314
 10
125.9873264388
 20
223.2475261314
  0
LWPOLYLINE
  5
35D
100
AcDbEntity
  8
0
100
AcDbPolyline
 62
2
  6
CONTINUOUS
 90
2
 70
0
 43
0.4255319149
 10
340.2958370771
 20
223.2475261314
 10
340.2958370771
 20
203.3007176208
  0
LWPOLYLINE
  5
35E
100
AcDbEntity
  8
0
100
AcDbPolyline
 62
2
  6
CONTINUOUS
 90
2
 70
0
 43
0.4255319149
 10
340.2958370771
 20
216.5985899612
 10
126.2000923963
 20
216.5985899612
  0
LWPOLYLINE
  5
35F
100
AcDbEntity
  8
0
100
AcDbPolyline
 62
2
  6
CONTINUOUS
 90
2
 70
0
 43
0.4255319149
 10
340.2958370771
 20
209.949653791
 10
126.2000923963
 20
209.949653791
  0
LWPOLYLINE
  5
360
100
AcDbEntity
  8
0
100
AcDbPolyline
 62
2
  6
CONTINUOUS
 90
2
 70
0
 43
0.4255319149
 10
340.5086030346
 20
203.3007176208
 10
125.9873264388
 20
203.3007176208
  0
LWPOLYLINE
  5
361
100
AcDbEntity
  8
0
100
AcDbPolyline
 62
2
  6
CONTINUOUS
 90
2
 70
0
 43
0.4255319149
 10
324.3383902686
 20
216.5985899612
 10
324.3383902686
 20
203.3007176208
  0
LWPOLYLINE
  5
362
100
AcDbEntity
  8
0
100
AcDbPolyline
 62
2
  6
CONTINUOUS
 90
2
 70
0
 43
0.4255319149
 10
300.4022200559
 20
216.5985899612
 10
300.4022200559
 20
203.3007176208
  0
LWPOLYLINE
  5
363
100
AcDbEntity
  8
0
100
AcDbPolyline
 62
2
  6
CONTINUOUS
 90
2
 70
0
 43
0.4255319149
 10
289.7639221835
 20
216.5985899612
 10
289.7639221835
 20
203.3007176208
  0
LWPOLYLINE
  5
364
100
AcDbEntity
  8
0
100
AcDbPolyline
 62
2
  6
CONTINUOUS
 90
2
 70
0
 43
0.4255319149
 10
154.1256243112
 20
216.5985899612
 10
154.1256243112
 20
203.3007176208
  0
LWPOLYLINE
  5
365
100
AcDbEntity
  8
0
100
AcDbPolyline
 62
2
  6
CONTINUOUS
 90
2
 70
0
 43
0.4255319149
 10
136.8383902686
 20
216.5985899612
 10
136.8383902686
 20
203.3007176208
  0
LWPOLYLINE
  5
366
100
AcDbEntity
  8
0
100
AcDbPolyline
 62
2
  6
CONTINUOUS
 90
2
 70
0
 43
0.4255319149
 10
126.2000923963
 20
223.2475261314
 10
126.2000923963
 20
203.3007176208
  0
MTEXT
  5
367
100
AcDbEntity
  8
0
100
AcDbMText
 62
2
  6
CONTINUOUS
  7
STANDARD
 71
2
 72
1
 10
233.2479647367
 20
221.5852920889
 30
0.0
 11
1.0
 21
0.0
 31
0.0
 44
0.9
  1
REVISIONS
 40
3.3244680851
 41
33.7196048632
  0
MTEXT
  5
368
100
AcDbEntity
  8
0
100
AcDbMText
 62
2
  6
CONTINUOUS
  7
STANDARD
 71
2
 72
1
 10
332.3171136729
 20
214.9336963442
 30
0.0
 11
1.0
 21
0.0
 31
0.0
 44
0.9
  1
ISSUED
 40
3.3191489362
 41
22.9969604863
  0
MTEXT
  5
369
100
AcDbEntity
  8
0
100
AcDbMText
 62
2
  6
CONTINUOUS
  7
STANDARD
 71
2
 72
1
 10
312.3703051622
 20
214.9336963442
 30
0.0
 11
1.0
 21
0.0
 31
0.0
 44
0.9
  1
EFF DATE
 40
3.3191489362
 41
31.1762917933
  0
MTEXT
  5
36A
100
AcDbEntity
  8
0
100
AcDbMText
 62
2
  6
CONTINUOUS
  7
STANDARD
 71
2
 72
1
 10
295.0830711197
 20
214.9363559187
 30
0.0
 11
1.0
 21
0.0
 31
0.0
 44
0.9
  1
BY
 40
3.3244680851
 41
8.1924392097
  0
MTEXT
  5
36B
100
AcDbEntity
  8
0
100
AcDbMText
 62
2
  6
CONTINUOUS
  7
STANDARD
 71
2
 72
1
 10
221.9447732473
 20
214.9336963442
 30
0.0
 11
1.0
 21
0.0
 31
0.0
 44
0.9
  1
DESCRIPTION
 40
3.3191489362
 41
42.4376899696
  0
MTEXT
  5
36C
100
AcDbEntity
  8
0
100
AcDbMText
 62
2
  6
CONTINUOUS
  7
STANDARD
 71
2
 72
1
 10
145.4820072899
 20
214.9363559187
 30
0.0
 11
1.0
 21
0.0
 31
0.0
 44
0.9
  1
ECO
 40
3.3244680851
 41
11.6356382979
  0
MTEXT
  5
36D
100
AcDbEntity
  8
0
100
AcDbMText
 62
2
  6
CONTINUOUS
  7
STANDARD
 71
2
 72
1
 10
131.5192413324
 20
214.9336963442
 30
0.0
 11
1.0
 21
0.0
 31
0.0
 44
0.9
  1
REV
 40
3.3191489362
 41
11.6170212766
  0
MTEXT
  5
36E
100
AcDbEntity
  8
0
100
AcDbMText
 62
2
  6
CONTINUOUS
  7
STANDARD
 71
2
 72
1
 10
332.3171136729
 20
208.2874197485
 30
0.0
 11
1.0
 21
0.0
 31
0.0
 44
0.9
  1
-
 40
3.3244680851
 41
4.5117781155
  0
MTEXT
  5
36F
100
AcDbEntity
  8
0
100
AcDbMText
 62
2
  6
CONTINUOUS
  7
STANDARD
 71
2
 72
1
 10
312.3703051622
 20
208.2874197485
 30
0.0
 11
1.0
 21
0.0
 31
0.0
 44
0.9
  1
08-OCT-13
 40
3.3244680851
 41
34.6694528875
  0
MTEXT
  5
370
100
AcDbEntity
  8
0
100
AcDbMText
 62
2
  6
CONTINUOUS
  7
STANDARD
 71
2
 72
1
 10
295.0830711197
 20
208.2874197485
 30
0.0
 11
1.0
 21
0.0
 31
0.0
 44
0.9
  1
 JD 
 40
3.3244680851
 41
16.5036094225
  0
MTEXT
  5
371
100
AcDbEntity
  8
0
100
AcDbMText
 62
2
  6
CONTINUOUS
  7
STANDARD
 71
1
 72
1
 10
155.4554115452
 20
208.2874197485
 30
0.0
 11
1.0
 21
0.0
 31
0.0
 44
0.9
  1
RELEASE
 40
3.3244680851
 41
26.95193769
  0
MTEXT
  5
372
100
AcDbEntity
  8
0
100
AcDbMText
 62
2
  6
CONTINUOUS
  7
STANDARD
 71
2
 72
1
 10
145.4820072899
 20
208.2874197485
 30
0.0
 11
1.0
 21
0.0
 31
0.0
 44
0.9
  1
-
 40
3.3244680851
 41
4.5117781155
  0
MTEXT
  5
373
100
AcDbEntity
  8
0
100
AcDbMText
 62
2
  6
CONTINUOUS
  7
STANDARD
 71
2
 72
1
 10
131.5192413324
 20
208.2874197485
 30
0.0
 11
1.0
 21
0.0
 31
0.0
 44
0.9
  1
A
 40
3.3244680851
 41
5.2241641337
  0
LINE
  5
374
100
AcDbEntity
  8
0
100
AcDbLine
 62
2
  6
CONTINUOUS
 10
130.3191489362
 20
37.2340425532
 11
178.1914893617
 21
37.2340425532
  0
LINE
  5
375
100
AcDbEntity
  8
0
100
AcDbLine
 62
2
  6
CONTINUOUS
 10
130.3191489362
 20
37.2340425532
 11
130.3191489362
 21
23.9361702128
  0
LINE
  5
376
100
AcDbEntity
  8
0
100
AcDbLine
 62
2
  6
CONTINUOUS
 10
130.3191489362
 20
23.9361702128
 11
178.1914893617
 21
23.9361702128
  0
LINE
  5
377
100
AcDbEntity
  8
0
100
AcDbLine
 62
2
  6
CONTINUOUS
 10
178.1914893617
 20
37.2340425532
 11
178.1914893617
 21
23.9361702128
  0
LINE
  5
378
100
AcDbEntity
  8
0
100
AcDbLine
 62
2
  6
CONTINUOUS
 10
130.3191489362
 20
23.9361702128
 11
178.1914893617
 21
23.9361702128
  0
LINE
  5
379
100
AcDbEntity
  8
0
100
AcDbLine
 62
2
  6
CONTINUOUS
 10
130.3191489362
 20
23.9361702128
 11
130.3191489362
 21
10.6382978723
  0
LINE
  5
37A
100
AcDbEntity
  8
0
100
AcDbLine
 62
2
  6
CONTINUOUS
 10
130.3191489362
 20
10.6382978723
 11
178.1914893617
 21
10.6382978723
  0
LINE
  5
37B
100
AcDbEntity
  8
0
100
AcDbLine
 62
2
  6
CONTINUOUS
 10
178.1914893617
 20
23.9361702128
 11
178.1914893617
 21
10.6382978723
  0
LINE
  5
37C
100
AcDbEntity
  8
0
100
AcDbLine
 62
2
  6
CONTINUOUS
 10
178.1914893617
 20
58.5106382979
 11
215.4255319149
 21
58.5106382979
  0
LINE
  5
37D
100
AcDbEntity
  8
0
100
AcDbLine
 62
2
  6
CONTINUOUS
 10
178.1914893617
 20
58.5106382979
 11
178.1914893617
 21
49.3683510638
  0
LINE
  5
37E
100
AcDbEntity
  8
0
100
AcDbLine
 62
2
  6
CONTINUOUS
 10
178.1914893617
 20
49.3683510638
 11
215.4255319149
 21
49.3683510638
  0
LINE
  5
37F
100
AcDbEntity
  8
0
100
AcDbLine
 62
2
  6
CONTINUOUS
 10
215.4255319149
 20
58.5106382979
 11
215.4255319149
 21
49.3683510638
  0
MTEXT
  5
380
100
AcDbEntity
  8
0
100
AcDbMText
 62
2
  6
CONTINUOUS
  7
STANDARD
 71
1
 72
1
 10
179.5212765957
 20
54.3550531915
 30
0.0
 11
1.0
 21
0.0
 31
0.0
 44
0.9
  1
J. DELARM 
 40
3.3244680851
 41
37.6377279635
  0
LINE
  5
381
100
AcDbEntity
  8
0
100
AcDbLine
 62
2
  6
CONTINUOUS
 10
178.1914893617
 20
49.2021276596
 11
215.4255319149
 21
49.2021276596
  0
LINE
  5
382
100
AcDbEntity
  8
0
100
AcDbLine
 62
2
  6
CONTINUOUS
 10
178.1914893617
 20
49.2021276596
 11
178.1914893617
 21
39.8404255319
  0
LINE
  5
383
100
AcDbEntity
  8
0
100
AcDbLine
 62
2
  6
CONTINUOUS
 10
178.1914893617
 20
39.8404255319
 11
215.4255319149
 21
39.8404255319
  0
LINE
  5
384
100
AcDbEntity
  8
0
100
AcDbLine
 62
2
  6
CONTINUOUS
 10
215.4255319149
 20
49.2021276596
 11
215.4255319149
 21
39.8404255319
  0
MTEXT
  5
385
100
AcDbEntity
  8
0
100
AcDbMText
 62
2
  6
CONTINUOUS
  7
STANDARD
 71
1
 72
1
 10
179.5212765957
 20
44.8271276596
 30
0.0
 11
1.0
 21
0.0
 31
0.0
 44
0.9
  1
B. FERREL 
 40
3.3244680851
 41
36.3316869301
  0
LINE
  5
386
100
AcDbEntity
  8
0
100
AcDbLine
 62
2
  6
CONTINUOUS
 10
178.1914893617
 20
39.8936170213
 11
215.4255319149
 21
39.8936170213
  0
LINE
  5
387
100
AcDbEntity
  8
0
100
AcDbLine
 62
2
  6
CONTINUOUS
 10
178.1914893617
 20
39.8936170213
 11
178.1914893617
 21
30.7513297872
  0
LINE
  5
388
100
AcDbEntity
  8
0
100
AcDbLine
 62
2
  6
CONTINUOUS
 10
178.1914893617
 20
30.7513297872
 11
215.4255319149
 21
30.7513297872
  0
LINE
  5
389
100
AcDbEntity
  8
0
100
AcDbLine
 62
2
  6
CONTINUOUS
 10
215.4255319149
 20
39.8936170213
 11
215.4255319149
 21
30.7513297872
  0
MTEXT
  5
38A
100
AcDbEntity
  8
0
100
AcDbMText
 62
2
  6
CONTINUOUS
  7
STANDARD
 71
1
 72
1
 10
179.5212765957
 20
35.7380319149
 30
0.0
 11
1.0
 21
0.0
 31
0.0
 44
0.9
  1
-
 40
3.3244680851
 41
3.5619300912
  0
LINE
  5
38B
100
AcDbEntity
  8
0
100
AcDbLine
 62
2
  6
CONTINUOUS
 10
178.1914893617
 20
30.585106383
 11
215.4255319149
 21
30.585106383
  0
LINE
  5
38C
100
AcDbEntity
  8
0
100
AcDbLine
 62
2
  6
CONTINUOUS
 10
178.1914893617
 20
30.585106383
 11
178.1914893617
 21
21.2234042553
  0
LINE
  5
38D
100
AcDbEntity
  8
0
100
AcDbLine
 62
2
  6
CONTINUOUS
 10
178.1914893617
 20
21.2234042553
 11
215.4255319149
 21
21.2234042553
  0
LINE
  5
38E
100
AcDbEntity
  8
0
100
AcDbLine
 62
2
  6
CONTINUOUS
 10
215.4255319149
 20
30.585106383
 11
215.4255319149
 21
21.2234042553
  0
MTEXT
  5
38F
100
AcDbEntity
  8
0
100
AcDbMText
 62
2
  6
CONTINUOUS
  7
STANDARD
 71
1
 72
1
 10
179.5212765957
 20
26.210106383
 30
0.0
 11
1.0
 21
0.0
 31
0.0
 44
0.9
  1
-
 40
3.3244680851
 41
3.5619300912
  0
LINE
  5
390
100
AcDbEntity
  8
0
100
AcDbLine
 62
2
  6
CONTINUOUS
 10
215.4255319149
 20
58.5106382979
 11
234.0425531915
 21
58.5106382979
  0
LINE
  5
391
100
AcDbEntity
  8
0
100
AcDbLine
 62
2
  6
CONTINUOUS
 10
215.4255319149
 20
58.5106382979
 11
215.4255319149
 21
49.1489361702
  0
LINE
  5
392
100
AcDbEntity
  8
0
100
AcDbLine
 62
2
  6
CONTINUOUS
 10
215.4255319149
 20
49.1489361702
 11
234.0425531915
 21
49.1489361702
  0
LINE
  5
393
100
AcDbEntity
  8
0
100
AcDbLine
 62
2
  6
CONTINUOUS
 10
234.0425531915
 20
58.5106382979
 11
234.0425531915
 21
49.1489361702
  0
MTEXT
  5
394
100
AcDbEntity
  8
0
100
AcDbMText
 62
2
  6
CONTINUOUS
  7
STANDARD
 71
2
 72
1
 10
224.7340425532
 20
53.3643617021
 30
0.0
 11
1.0
 21
0.0
 31
0.0
 44
0.9
  1
05-NOV-12
 40
2.5531914894
 41
25.623100304
  0
LINE
  5
395
100
AcDbEntity
  8
0
100
AcDbLine
 62
2
  6
CONTINUOUS
 10
215.4255319149
 20
49.2021276596
 11
234.0425531915
 21
49.2021276596
  0
LINE
  5
396
100
AcDbEntity
  8
0
100
AcDbLine
 62
2
  6
CONTINUOUS
 10
215.4255319149
 20
49.2021276596
 11
215.4255319149
 21
39.8404255319
  0
LINE
  5
397
100
AcDbEntity
  8
0
100
AcDbLine
 62
2
  6
CONTINUOUS
 10
215.4255319149
 20
39.8404255319
 11
234.0425531915
 21
39.8404255319
  0
LINE
  5
398
100
AcDbEntity
  8
0
100
AcDbLine
 62
2
  6
CONTINUOUS
 10
234.0425531915
 20
49.2021276596
 11
234.0425531915
 21
39.8404255319
  0
MTEXT
  5
399
100
AcDbEntity
  8
0
100
AcDbMText
 62
2
  6
CONTINUOUS
  7
STANDARD
 71
2
 72
1
 10
224.7340425532
 20
44.0558510638
 30
0.0
 11
1.0
 21
0.0
 31
0.0
 44
0.9
  1
08-NOV-12
 40
2.5531914894
 41
25.896656535
  0
LINE
  5
39A
100
AcDbEntity
  8
0
100
AcDbLine
 62
2
  6
CONTINUOUS
 10
215.4255319149
 20
39.8936170213
 11
234.0425531915
 21
39.8936170213
  0
LINE
  5
39B
100
AcDbEntity
  8
0
100
AcDbLine
 62
2
  6
CONTINUOUS
 10
215.4255319149
 20
39.8936170213
 11
215.4255319149
 21
30.5319148936
  0
LINE
  5
39C
100
AcDbEntity
  8
0
100
AcDbLine
 62
2
  6
CONTINUOUS
 10
215.4255319149
 20
30.5319148936
 11
234.0425531915
 21
30.5319148936
  0
LINE
  5
39D
100
AcDbEntity
  8
0
100
AcDbLine
 62
2
  6
CONTINUOUS
 10
234.0425531915
 20
39.8936170213
 11
234.0425531915
 21
30.5319148936
  0
MTEXT
  5
39E
100
AcDbEntity
  8
0
100
AcDbMText
 62
2
  6
CONTINUOUS
  7
STANDARD
 71
2
 72
1
 10
224.7340425532
 20
34.7473404255
 30
0.0
 11
1.0
 21
0.0
 31
0.0
 44
0.9
  1
-
 40
2.5531914894
 41
2.73556231
  0
LINE
  5
39F
100
AcDbEntity
  8
0
100
AcDbLine
 62
2
  6
CONTINUOUS
 10
215.4255319149
 20
30.585106383
 11
234.0425531915
 21
30.585106383
  0
LINE
  5
3A0
100
AcDbEntity
  8
0
100
AcDbLine
 62
2
  6
CONTINUOUS
 10
215.4255319149
 20
30.585106383
 11
215.4255319149
 21
21.4428191489
  0
LINE
  5
3A1
100
AcDbEntity
  8
0
100
AcDbLine
 62
2
  6
CONTINUOUS
 10
215.4255319149
 20
21.4428191489
 11
234.0425531915
 21
21.4428191489
  0
LINE
  5
3A2
100
AcDbEntity
  8
0
100
AcDbLine
 62
2
  6
CONTINUOUS
 10
234.0425531915
 20
30.585106383
 11
234.0425531915
 21
21.4428191489
  0
MTEXT
  5
3A3
100
AcDbEntity
  8
0
100
AcDbMText
 62
2
  6
CONTINUOUS
  7
STANDARD
 71
2
 72
1
 10
224.7340425532
 20
25.6582446809
 30
0.0
 11
1.0
 21
0.0
 31
0.0
 44
0.9
  1
-
 40
2.5531914894
 41
2.73556231
  0
LINE
  5
3A4
100
AcDbEntity
  8
0
100
AcDbLine
 62
2
  6
CONTINUOUS
 10
178.1914893617
 20
21.2765957447
 11
234.0425531915
 21
21.2765957447
  0
LINE
  5
3A5
100
AcDbEntity
  8
0
100
AcDbLine
 62
2
  6
CONTINUOUS
 10
178.1914893617
 20
21.2765957447
 11
178.1914893617
 21
15.9574468085
  0
LINE
  5
3A6
100
AcDbEntity
  8
0
100
AcDbLine
 62
2
  6
CONTINUOUS
 10
178.1914893617
 20
15.9574468085
 11
234.0425531915
 21
15.9574468085
  0
LINE
  5
3A7
100
AcDbEntity
  8
0
100
AcDbLine
 62
2
  6
CONTINUOUS
 10
234.0425531915
 20
21.2765957447
 11
234.0425531915
 21
15.9574468085
  0
MTEXT
  5
3A8
100
AcDbEntity
  8
0
100
AcDbMText
 62
2
  6
CONTINUOUS
  7
STANDARD
 71
3
 72
1
 10
232.7127659574
 20
19.960106383
 30
0.0
 11
1.0
 21
0.0
 31
0.0
 44
0.9
  1
DCS-SC-423C-F-2D.A.0
 40
2.3404255319
 41
53.7462006079
  0
LINE
  5
3A9
100
AcDbEntity
  8
0
100
AcDbLine
 62
2
  6
CONTINUOUS
 10
178.1914893617
 20
15.9574468085
 11
234.0425531915
 21
15.9574468085
  0
LINE
  5
3AA
100
AcDbEntity
  8
0
100
AcDbLine
 62
2
  6
CONTINUOUS
 10
178.1914893617
 20
15.9574468085
 11
178.1914893617
 21
10.6382978723
  0
LINE
  5
3AB
100
AcDbEntity
  8
0
100
AcDbLine
 62
2
  6
CONTINUOUS
 10
178.1914893617
 20
10.6382978723
 11
234.0425531915
 21
10.6382978723
  0
LINE
  5
3AC
100
AcDbEntity
  8
0
100
AcDbLine
 62
2
  6
CONTINUOUS
 10
234.0425531915
 20
15.9574468085
 11
234.0425531915
 21
10.6382978723
  0
MTEXT
  5
3AD
100
AcDbEntity
  8
0
100
AcDbMText
 62
2
  6
CONTINUOUS
  7
STANDARD
 71
3
 72
1
 10
232.7127659574
 20
14.6409574468
 30
0.0
 11
1.0
 21
0.0
 31
0.0
 44
0.9
  1
DCS-SC-423C-F-2D.1.2
 40
2.3404255319
 41
52.7431610942
  0
LINE
  5
3AE
100
AcDbEntity
  8
0
100
AcDbLine
 62
2
  6
CONTINUOUS
 10
234.0425531915
 20
50.5319148936
 11
340.4255319149
 21
50.5319148936
  0
LINE
  5
3AF
100
AcDbEntity
  8
0
100
AcDbLine
 62
2
  6
CONTINUOUS
 10
234.0425531915
 20
50.5319148936
 11
234.0425531915
 21
26.5957446809
  0
LINE
  5
3B0
100
AcDbEntity
  8
0
100
AcDbLine
 62
2
  6
CONTINUOUS
 10
234.0425531915
 20
26.5957446809
 11
340.4255319149
 21
26.5957446809
  0
LINE
  5
3B1
100
AcDbEntity
  8
0
100
AcDbLine
 62
2
  6
CONTINUOUS
 10
340.4255319149
 20
50.5319148936
 11
340.4255319149
 21
26.5957446809
  0
MTEXT
  5
3B2
100
AcDbEntity
  8
0
100
AcDbMText
 62
2
  6
CONTINUOUS
  7
STANDARD
 71
2
 72
1
 10
287.2340425532
 20
45.0531914894
 30
0.0
 11
1.0
 21
0.0
 31
0.0
 44
1.02
  1
SPEAKER, FINISHED,\PSC-423C-F
 40
4.2553191489
 41
85.1063829787
  0
LINE
  5
3B3
100
AcDbEntity
  8
0
100
AcDbLine
 62
2
  6
CONTINUOUS
 10
234.0657936796
 20
26.5519248403
 11
244.7040915519
 21
26.5519248403
  0
LINE
  5
3B4
100
AcDbEntity
  8
0
100
AcDbLine
 62
2
  6
CONTINUOUS
 10
234.0657936796
 20
26.5519248403
 11
234.0657936796
 21
15.9136269679
  0
LINE
  5
3B5
100
AcDbEntity
  8
0
100
AcDbLine
 62
2
  6
CONTINUOUS
 10
234.0657936796
 20
15.9136269679
 11
244.7040915519
 21
15.9136269679
  0
LINE
  5
3B6
100
AcDbEntity
  8
0
100
AcDbLine
 62
2
  6
CONTINUOUS
 10
244.7040915519
 20
26.5519248403
 11
244.7040915519
 21
15.9136269679
  0
MTEXT
  5
3B7
100
AcDbEntity
  8
0
100
AcDbMText
 62
2
  6
CONTINUOUS
  7
STANDARD
 71
2
 72
1
 10
239.3849426158
 20
21.8311801594
 30
0.0
 11
1.0
 21
0.0
 31
0.0
 44
0.9
  1
B
 40
4.2553191489
 41
5.0151975684
  0
LINE
  5
3B8
100
AcDbEntity
  8
0
100
AcDbLine
 62
2
  6
CONTINUOUS
 10
265.9684573955
 20
26.4888210451
 11
329.7982446296
 21
26.4888210451
  0
LINE
  5
3B9
100
AcDbEntity
  8
0
100
AcDbLine
 62
2
  6
CONTINUOUS
 10
265.9684573955
 20
26.4888210451
 11
265.9684573955
 21
15.8505231728
  0
LINE
  5
3BA
100
AcDbEntity
  8
0
100
AcDbLine
 62
2
  6
CONTINUOUS
 10
265.9684573955
 20
15.8505231728
 11
329.7982446296
 21
15.8505231728
  0
LINE
  5
3BB
100
AcDbEntity
  8
0
100
AcDbLine
 62
2
  6
CONTINUOUS
 10
329.7982446296
 20
26.4888210451
 11
329.7982446296
 21
15.8505231728
  0
MTEXT
  5
3BC
100
AcDbEntity
  8
0
100
AcDbMText
 62
2
  6
CONTINUOUS
  7
STANDARD
 71
2
 72
1
 10
297.8833510126
 20
22.4063742366
 30
0.0
 11
1.0
 21
0.0
 31
0.0
 44
0.9
  1
DCS-SC-423C-F-2D
 40
4.8936170213
 41
91.9300911854
  0
LINE
  5
3BD
100
AcDbEntity
  8
0
100
AcDbLine
 62
2
  6
CONTINUOUS
 10
329.759572261
 20
26.5593153749
 11
340.3978701333
 21
26.5593153749
  0
LINE
  5
3BE
100
AcDbEntity
  8
0
100
AcDbLine
 62
2
  6
CONTINUOUS
 10
329.759572261
 20
26.5593153749
 11
329.759572261
 21
15.9210175025
  0
LINE
  5
3BF
100
AcDbEntity
  8
0
100
AcDbLine
 62
2
  6
CONTINUOUS
 10
329.759572261
 20
15.9210175025
 11
340.3978701333
 21
15.9210175025
  0
LINE
  5
3C0
100
AcDbEntity
  8
0
100
AcDbLine
 62
2
  6
CONTINUOUS
 10
340.3978701333
 20
26.5593153749
 11
340.3978701333
 21
15.9210175025
  0
MTEXT
  5
3C1
100
AcDbEntity
  8
0
100
AcDbMText
 62
2
  6
CONTINUOUS
  7
STANDARD
 71
2
 72
1
 10
335.0787211972
 20
21.4130387791
 30
0.0
 11
1.0
 21
0.0
 31
0.0
 44
0.9
  1
A
 40
3.829787234
 41
4.9240121581
  0
LINE
  5
3C2
100
AcDbEntity
  8
0
100
AcDbLine
 62
2
  6
CONTINUOUS
 10
305.8642684973
 20
15.806997524
 11
340.4387365824
 21
15.806997524
  0
LINE
  5
3C3
100
AcDbEntity
  8
0
100
AcDbLine
 62
2
  6
CONTINUOUS
 10
305.8642684973
 20
15.806997524
 11
305.8642684973
 21
10.4878485879
  0
LINE
  5
3C4
100
AcDbEntity
  8
0
100
AcDbLine
 62
2
  6
CONTINUOUS
 10
305.8642684973
 20
10.4878485879
 11
340.4387365824
 21
10.4878485879
  0
LINE
  5
3C5
100
AcDbEntity
  8
0
100
AcDbLine
 62
2
  6
CONTINUOUS
 10
340.4387365824
 20
15.806997524
 11
340.4387365824
 21
10.4878485879
  0
MTEXT
  5
3C6
100
AcDbEntity
  8
0
100
AcDbMText
 62
2
  6
CONTINUOUS
  7
STANDARD
 71
3
 72
1
 10
339.1089493483
 20
15.1288060347
 30
0.0
 11
1.0
 21
0.0
 31
0.0
 44
0.9
  1
1 OF 1
 40
2.9787234043
 41
18.829787234
  0
LINE
  5
3C7
100
AcDbEntity
  8
0
100
AcDbLine
 62
2
  6
CONTINUOUS
 10
234.005527917
 20
15.9324088704
 11
259.2821236617
 21
15.9324088704
  0
LINE
  5
3C8
100
AcDbEntity
  8
0
100
AcDbLine
 62
2
  6
CONTINUOUS
 10
234.005527917
 20
15.9324088704
 11
234.005527917
 21
10.5301482321
  0
LINE
  5
3C9
100
AcDbEntity
  8
0
100
AcDbLine
 62
2
  6
CONTINUOUS
 10
234.005527917
 20
10.5301482321
 11
259.2821236617
 21
10.5301482321
  0
LINE
  5
3CA
100
AcDbEntity
  8
0
100
AcDbLine
 62
2
  6
CONTINUOUS
 10
259.2821236617
 20
15.9324088704
 11
259.2821236617
 21
10.5301482321
  0
MTEXT
  5
3CB
100
AcDbEntity
  8
0
100
AcDbMText
 62
2
  6
CONTINUOUS
  7
STANDARD
 71
3
 72
1
 10
257.9523364277
 20
14.745573764
 30
0.0
 11
1.0
 21
0.0
 31
0.0
 44
0.9
  1
0.047
 40
2.5531914894
 41
14.2249240122
  0
MTEXT
  5
3CC
100
AcDbEntity
  8
0
100
AcDbMText
 62
2
  6
CONTINUOUS
  7
STANDARD
 71
1
 72
1
 10
13.6989956189
 20
57.1315341861
 30
0.0
 11
1.0
 21
0.0
 31
0.0
 44
1.2
  3
5. PARTS ARE SYMMETRICAL ABOUT CENTER LINES \P   UNLESS OTHERWISE NOTED.\P4. SYMBOL    INDICATES CENTER OF BALANCE.\P3. SYMBOL \Fgdt;{\Fgdt;r}\Ftxt; INDICATES SUSPENSION POINT, \P   24 TOTAL:  M10-1.5 THD. \P2. TOLERANCES (MM): X \Fgdt;{\Fgdt;`}\Ftxt
  1
; 5, ANGLES: \Fgdt;{\Fgdt;`}\Ftxt; 1\Fgdt;{\Fgdt;~}\Ftxt;.\P1. NET WEIGHT APPROX. 115.9 KG (255 LBS)\PNOTE:  UNLESS OTHERWISE SPECIFIED
 40
2.9787234043
 41
153.829787234
  0
MTEXT
  5
3CD
100
AcDbEntity
  8
0
100
AcDbMText
 62
2
  6
CONTINUOUS
  7
STANDARD
 71
1
 72
1
 10
179.748363054
 20
82.232285078
 30
0.0
 11
1.0
 21
0.0
 31
0.0
 44
0.9
  1
HORIZONTAL CONFIGURATION
 40
3.3244680851
 41
93.4412993921
  0
MTEXT
  5
3CE
100
AcDbEntity
  8
0
100
AcDbMText
 62
2
  6
CONTINUOUS
  7
STANDARD
 71
1
 72
1
 10
19.9520677583
 20
74.980284271
 30
0.0
 11
1.0
 21
0.0
 31
0.0
 44
0.9
  1
VERTICAL CONFIGURATION
 40
3.3244680851
 41
85.7237841945
  0
INSERT
  5
3CF
100
AcDbEntity
  8
0
100
AcDbBlockReference
 62
2
  6
CONTINUOUS
  2
CG_3D_BL1
 10
39.0878002938
 20
43.8355568058
  0
INSERT
  5
3D0
100
AcDbEntity
  8
0
100
AcDbBlockReference
 62
2
  6
CONTINUOUS
  2
CG_3D_BL2
 10
212.8042068121
 20
110.1719439653
  0
INSERT
  5
3D1
100
AcDbEntity
  8
0
100
AcDbBlockReference
 62
2
  6
CONTINUOUS
  2
CG_3D_BL3
 10
297.823752952
 20
110.1709140018
  0
INSERT
  5
3D2
100
AcDbEntity
  8
0
100
AcDbBlockReference
 62
2
  6
CONTINUOUS
  2
CG_3D_BL4
 10
48.4813118216
 20
120.8490908174
  0
INSERT
  5
3D3
100
AcDbEntity
  8
0
100
AcDbBlockReference
 62
2
  6
CONTINUOUS
  2
CG_3D_BL5
 10
110.9822790088
 20
120.8496726073
  0
LINE
  5
3D4
100
AcDbEntity
  8
DEFAULT_3
100
AcDbLine
 62
7
  6
PHANTOM
 10
-0.0000413166
 20
-0.0
 11
-0.0000413166
 21
234.0421934601
  0
LWPOLYLINE
  5
3D5
100
AcDbEntity
  8
0
100
AcDbPolyline
 62
7
  6
CONTINUOUS
 90
2
 70
0
 43
0.4255319326
 10
5.5852860028
 20
113.4330497595
 10
5.5852860028
 20
120.609853561
  0
LWPOLYLINE
  5
3D6
100
AcDbEntity
  8
0
100
AcDbPolyline
 62
7
  6
CONTINUOUS
 90
2
 70
0
 43
0.6382978774
 10
10.6354765255
 20
223.3964721063
 10
10.6354765255
 20
10.6382978723
  0
LINE
  5
3D7
100
AcDbEntity
  8
DEFAULT_3
100
AcDbLine
 62
7
  6
PHANTOM
 10
-0.0000413166
 20
-0.0
 11
361.7021276596
 21
-0.0
  0
LWPOLYLINE
  5
3D8
100
AcDbEntity
  8
0
100
AcDbPolyline
 62
7
  6
CONTINUOUS
 90
2
 70
0
 43
0.6382978774
 10
75.5548637251
 20
223.5305038714
 10
75.5548637251
 20
212.8922059991
  0
LWPOLYLINE
  5
3D9
100
AcDbEntity
  8
0
100
AcDbPolyline
 62
7
  6
CONTINUOUS
 90
2
 70
0
 43
0.4255319326
 10
171.9441672345
 20
5.5945398182
 10
179.120971036
 20
5.5945398182
  0
LWPOLYLINE
  5
3DA
100
AcDbEntity
  8
0
100
AcDbPolyline
 62
7
  6
CONTINUOUS
 90
2
 70
0
 43
0.6382978774
 10
10.6354765255
 20
10.6382978723
 10
340.4255319149
 20
10.6382978723
  0
LWPOLYLINE
  5
3DB
100
AcDbEntity
  8
0
100
AcDbPolyline
 62
7
  6
CONTINUOUS
 90
2
 70
0
 43
0.4255319326
 10
178.1914893617
 20
15.9574468085
 10
340.4255319149
 20
15.9574468085
  0
LWPOLYLINE
  5
3DC
100
AcDbEntity
  8
0
100
AcDbPolyline
 62
7
  6
CONTINUOUS
 90
2
 70
0
 43
0.4255319326
 10
93.0831475454
 20
10.6369245285
 10
93.0831475454
 20
-0.0013733438
  0
LWPOLYLINE
  5
3DD
100
AcDbEntity
  8
0
100
AcDbPolyline
 62
7
  6
CONTINUOUS
 90
2
 70
0
 43
0.4255319326
 10
93.0844634917
 20
223.3998355731
 10
93.0844634917
 20
234.0381334454
  0
LWPOLYLINE
  5
3DE
100
AcDbEntity
  8
0
100
AcDbPolyline
 62
7
  6
CONTINUOUS
 90
2
 70
0
 43
0.4255319326
 10
10.6392706386
 20
117.0214516602
 10
5.5852860028
 20
113.4330497595
  0
LINE
  5
3DF
100
AcDbEntity
  8
0
100
AcDbLine
 62
7
  6
CONTINUOUS
 10
178.442333907
 20
23.7363854204
 11
130.789523834
 21
11.18196237
  0
LWPOLYLINE
  5
3E0
100
AcDbEntity
  8
0
100
AcDbPolyline
 62
7
  6
CONTINUOUS
 90
2
 70
0
 43
0.4255319326
 10
178.1914893617
 20
21.2765957447
 10
234.0425531915
 20
21.2765957447
  0
LWPOLYLINE
  5
3E1
100
AcDbEntity
  8
0
100
AcDbPolyline
 62
7
  6
CONTINUOUS
 90
2
 70
0
 43
0.4255319326
 10
178.1914893617
 20
23.9361702128
 10
130.3191489362
 20
23.9361702128
  0
LWPOLYLINE
  5
3E2
100
AcDbEntity
  8
0
100
AcDbPolyline
 62
7
  6
CONTINUOUS
 90
2
 70
0
 43
0.4255319326
 10
234.0425531915
 20
26.5957446809
 10
340.4255319149
 20
26.5957446809
  0
LWPOLYLINE
  5
3E3
100
AcDbEntity
  8
0
100
AcDbPolyline
 62
7
  6
CONTINUOUS
 90
2
 70
0
 43
0.4255319326
 10
10.6392706386
 20
117.0214516602
 10
5.5852860028
 20
120.609853561
  0
LINE
  5
3E4
100
AcDbEntity
  8
0
100
AcDbLine
 62
7
  6
CONTINUOUS
 10
178.1804459423
 20
36.9009804298
 11
130.5762336359
 21
24.2007640794
  0
LWPOLYLINE
  5
3E5
100
AcDbEntity
  8
0
100
AcDbPolyline
 62
7
  6
CONTINUOUS
 90
2
 70
0
 43
0.4255319326
 10
178.2271996636
 20
32.3077395439
 10
234.0782634934
 20
32.3077395439
  0
LWPOLYLINE
  5
3E6
100
AcDbEntity
  8
0
100
AcDbPolyline
 62
7
  6
CONTINUOUS
 90
2
 70
0
 43
0.4255319326
 10
130.3191489362
 20
37.2340425532
 10
178.1914893617
 20
37.2340425532
  0
LWPOLYLINE
  5
3E7
100
AcDbEntity
  8
0
100
AcDbPolyline
 62
7
  6
CONTINUOUS
 90
2
 70
0
 43
0.4255319326
 10
175.5253223177
 20
223.4050886951
 10
179.1137242185
 20
228.4590733309
  0
LWPOLYLINE
  5
3E8
100
AcDbEntity
  8
0
100
AcDbPolyline
 62
7
  6
CONTINUOUS
 90
2
 70
0
 43
0.4255319326
 10
178.1393642446
 20
43.3102692733
 10
233.9904280743
 20
43.3102692733
  0
LWPOLYLINE
  5
3E9
100
AcDbEntity
  8
0
100
AcDbPolyline
 62
7
  6
CONTINUOUS
 90
2
 70
0
 43
0.4255319326
 10
234.0425531915
 20
50.5319148936
 10
340.4255319149
 20
50.5319148936
  0
LWPOLYLINE
  5
3EA
100
AcDbEntity
  8
0
100
AcDbPolyline
 62
7
  6
CONTINUOUS
 90
2
 70
0
 43
0.4255319326
 10
178.3263238921
 20
54.1744944056
 10
234.1773877219
 20
54.1744944056
  0
LINE
  5
3EB
100
AcDbEntity
  8
0
100
AcDbLine
 62
7
  6
CONTINUOUS
 10
130.5762336359
 20
64.9796900479
 11
178.0076538831
 21
37.505752637
  0
LWPOLYLINE
  5
3EC
100
AcDbEntity
  8
0
100
AcDbPolyline
 62
7
  6
CONTINUOUS
 90
2
 70
0
 43
0.4255319326
 10
175.5325691353
 20
10.648524454
 10
179.120971036
 20
5.5945398182
  0
LWPOLYLINE
  5
3ED
100
AcDbEntity
  8
0
100
AcDbPolyline
 62
7
  6
CONTINUOUS
 90
2
 70
0
 43
0.4255319326
 10
130.3191489362
 20
10.6382978723
 10
130.3191489362
 20
65.1595744681
  0
LWPOLYLINE
  5
3EE
100
AcDbEntity
  8
0
100
AcDbPolyline
 62
7
  6
CONTINUOUS
 90
2
 70
0
 43
0.4255319326
 10
10.6378010307
 20
63.8263166757
 10
-0.0004968417
 20
63.8263166757
  0
LWPOLYLINE
  5
3EF
100
AcDbEntity
  8
0
100
AcDbPolyline
 62
7
  6
CONTINUOUS
 90
2
 70
0
 43
0.4255319326
 10
340.6288961996
 20
63.8265198219
 10
351.267194072
 20
63.8265198219
  0
LWPOLYLINE
  5
3F0
100
AcDbEntity
  8
0
100
AcDbPolyline
 62
7
  6
CONTINUOUS
 90
2
 70
0
 43
0.4255319326
 10
130.3191489362
 20
65.1595744681
 10
340.4255319149
 20
65.1595744681
  0
LWPOLYLINE
  5
3F1
100
AcDbEntity
  8
0
100
AcDbPolyline
 62
7
  6
CONTINUOUS
 90
2
 70
0
 43
0.4255319326
 10
175.5253223177
 20
223.4050886951
 10
175.5253223177
 20
234.0433865675
  0
LWPOLYLINE
  5
3F2
100
AcDbEntity
  8
0
100
AcDbPolyline
 62
7
  6
CONTINUOUS
 90
2
 70
0
 43
0.4255319326
 10
175.5325691353
 20
10.648524454
 10
175.5325691353
 20
0.0102265816
  0
LWPOLYLINE
  5
3F3
100
AcDbEntity
  8
0
100
AcDbPolyline
 62
7
  6
CONTINUOUS
 90
2
 70
0
 43
0.4255319326
 10
178.1914893617
 20
10.6382978723
 10
178.1914893617
 20
65.1595744681
  0
LWPOLYLINE
  5
3F4
100
AcDbEntity
  8
0
100
AcDbPolyline
 62
7
  6
CONTINUOUS
 90
2
 70
0
 43
0.4255319326
 10
340.4986767001
 20
117.021023791
 10
351.1369745724
 20
117.021023791
  0
LWPOLYLINE
  5
3F5
100
AcDbEntity
  8
0
100
AcDbPolyline
 62
7
  6
CONTINUOUS
 90
2
 70
0
 43
0.4255319326
 10
10.6392706386
 20
117.0214516602
 10
0.0009727662
 20
117.0214516602
  0
LINE
  5
3F6
100
AcDbEntity
  8
0
100
AcDbLine
 62
7
  6
CONTINUOUS
 10
178.0076538831
 20
65.0660860775
 11
130.5762336359
 21
37.2465645482
  0
LWPOLYLINE
  5
3F7
100
AcDbEntity
  8
0
100
AcDbPolyline
 62
7
  6
CONTINUOUS
 90
2
 70
0
 43
0.4255319326
 10
234.0425531915
 20
10.6382978723
 10
234.0425531915
 20
65.1595744681
  0
LWPOLYLINE
  5
3F8
100
AcDbEntity
  8
0
100
AcDbPolyline
 62
7
  6
CONTINUOUS
 90
2
 70
0
 43
0.4255319326
 10
244.6808510638
 20
15.9574468085
 10
244.6808510638
 20
26.5957446809
  0
LWPOLYLINE
  5
3F9
100
AcDbEntity
  8
0
100
AcDbPolyline
 62
7
  6
CONTINUOUS
 90
2
 70
0
 43
0.4255319326
 10
175.5325691353
 20
10.648524454
 10
171.9441672345
 20
5.5945398182
  0
LWPOLYLINE
  5
3FA
100
AcDbEntity
  8
0
100
AcDbPolyline
 62
7
  6
CONTINUOUS
 90
2
 70
0
 43
0.4255319326
 10
340.5219461207
 20
170.2060975215
 10
351.1602439931
 20
170.2060975215
  0
LWPOLYLINE
  5
3FB
100
AcDbEntity
  8
0
100
AcDbPolyline
 62
7
  6
CONTINUOUS
 90
2
 70
0
 43
0.4255319326
 10
10.6354738667
 20
170.2067883941
 10
-0.0028240057
 20
170.2067883941
  0
LWPOLYLINE
  5
3FC
100
AcDbEntity
  8
0
100
AcDbPolyline
 62
7
  6
CONTINUOUS
 90
2
 70
0
 43
0.4255319326
 10
175.5253223177
 20
223.4050886951
 10
171.936920417
 20
228.4590733309
  0
LWPOLYLINE
  5
3FD
100
AcDbEntity
  8
0
100
AcDbPolyline
 62
7
  6
CONTINUOUS
 90
2
 70
0
 43
0.4255319326
 10
257.9726153233
 20
223.4347191505
 10
257.9726153233
 20
234.0730170229
  0
LWPOLYLINE
  5
3FE
100
AcDbEntity
  8
0
100
AcDbPolyline
 62
7
  6
CONTINUOUS
 90
2
 70
0
 43
0.4255319326
 10
257.9785233027
 20
10.6313192372
 10
257.9785233027
 20
-0.0069786352
  0
LWPOLYLINE
  5
3FF
100
AcDbEntity
  8
0
100
AcDbPolyline
 62
7
  6
CONTINUOUS
 90
2
 70
0
 43
0.4255319326
 10
259.2261482244
 20
10.7393650117
 10
259.2261482244
 20
16.0585139479
  0
LWPOLYLINE
  5
400
100
AcDbEntity
  8
0
100
AcDbPolyline
 62
7
  6
CONTINUOUS
 90
2
 70
0
 43
0.4255319326
 10
265.9574468085
 20
15.9574468085
 10
265.9574468085
 20
26.5957446809
  0
LWPOLYLINE
  5
401
100
AcDbEntity
  8
0
100
AcDbPolyline
 62
7
  6
CONTINUOUS
 90
2
 70
0
 43
0.4255319326
 10
340.4986767001
 20
117.021023791
 10
345.5526613358
 20
120.6094256917
  0
LWPOLYLINE
  5
402
100
AcDbEntity
  8
0
100
AcDbPolyline
 62
7
  6
CONTINUOUS
 90
2
 70
0
 43
0.6382978774
 10
75.5548637251
 20
212.8922059991
 10
10.395289257
 20
212.8922059991
  0
LWPOLYLINE
  5
403
100
AcDbEntity
  8
0
100
AcDbPolyline
 62
7
  6
CONTINUOUS
 90
2
 70
0
 43
0.4255319326
 10
340.4986767001
 20
117.021023791
 10
345.5526613358
 20
113.4326218902
  0
LWPOLYLINE
  5
404
100
AcDbEntity
  8
0
100
AcDbPolyline
 62
7
  6
CONTINUOUS
 90
2
 70
0
 43
0.6382978774
 10
340.4255319149
 20
223.3964721063
 10
10.6354765255
 20
223.3964721063
  0
LWPOLYLINE
  5
405
100
AcDbEntity
  8
0
100
AcDbPolyline
 62
7
  6
CONTINUOUS
 90
2
 70
0
 43
0.4255319326
 10
171.936920417
 20
228.4590733309
 10
179.1137242185
 20
228.4590733309
  0
LWPOLYLINE
  5
406
100
AcDbEntity
  8
0
100
AcDbPolyline
 62
7
  6
CONTINUOUS
 90
2
 70
0
 43
0.4255319326
 10
305.8510638298
 20
10.6382978723
 10
305.8510638298
 20
15.9574468085
  0
LINE
  5
407
100
AcDbEntity
  8
DEFAULT_3
100
AcDbLine
 62
7
  6
PHANTOM
 10
-0.0000413166
 20
234.0421934601
 11
361.702339759
 21
234.0421934601
  0
LWPOLYLINE
  5
408
100
AcDbEntity
  8
0
100
AcDbPolyline
 62
7
  6
CONTINUOUS
 90
2
 70
0
 43
0.4255319326
 10
329.7872340426
 20
15.9574468085
 10
329.7872340426
 20
26.5957446809
  0
LWPOLYLINE
  5
409
100
AcDbEntity
  8
0
100
AcDbPolyline
 62
7
  6
CONTINUOUS
 90
2
 70
0
 43
0.6382978774
 10
340.4255319149
 20
223.3964721063
 10
340.4255319149
 20
10.6382978723
  0
LWPOLYLINE
  5
40A
100
AcDbEntity
  8
0
100
AcDbPolyline
 62
7
  6
CONTINUOUS
 90
2
 70
0
 43
0.4255319326
 10
345.5526613358
 20
113.4326218902
 10
345.5526613358
 20
120.6094256917
  0
LINE
  5
40B
100
AcDbEntity
  8
DEFAULT_3
100
AcDbLine
 62
7
  6
PHANTOM
 10
361.7021276596
 20
-0.0
 11
361.7021276596
 21
234.0347699786
  0
LINE
  5
40C
100
AcDbEntity
  8
7_ALL_ROUNDS
100
AcDbLine
 62
7
  6
CONTINUOUS
 10
179.7320159699
 20
130.0538065037
 11
179.7320159699
 21
90.5262474485
  0
LINE
  5
40D
100
AcDbEntity
  8
7_ALL_ROUNDS
100
AcDbLine
 62
9
  6
CONTINUOUS
 10
179.9682364423
 20
130.2900269761
 11
179.9682364423
 21
90.2900269761
  0
LINE
  5
40E
100
AcDbEntity
  8
3_AXES_OTHER
100
AcDbLine
 62
7
  6
CONTINUOUS
 10
180.322567151
 20
129.699475795
 11
180.322567151
 21
90.8805781572
  0
LINE
  5
40F
100
AcDbEntity
  8
7_ALL_ROUNDS
100
AcDbLine
 62
7
  6
CONTINUOUS
 10
180.4820159699
 20
113.3848872768
 11
180.4820159699
 21
91.5145939052
  0
LINE
  5
410
100
AcDbEntity
  8
6_ALL_SURFS
100
AcDbLine
 62
7
  6
CONTINUOUS
 10
180.5570159699
 20
129.5448872768
 11
180.5570159699
 21
113.9448872768
  0
LINE
  5
411
100
AcDbEntity
  8
3_AXES_OTHER
100
AcDbLine
 62
7
  6
CONTINUOUS
 10
181.2820159699
 20
113.9448872768
 11
181.2820159699
 21
113.8848872768
  0
LINE
  5
412
100
AcDbEntity
  8
0
100
AcDbLine
 62
7
  6
CONTINUOUS
 10
181.9820159699
 20
115.9448872768
 11
184.9820159699
 21
127.5448872768
  0
LINE
  5
413
100
AcDbEntity
  8
0
100
AcDbLine
 62
7
  6
CONTINUOUS
 10
194.8022851296
 20
123.5427389713
 11
181.9820159699
 21
115.9448872768
  0
LINE
  5
414
100
AcDbEntity
  8
7_ALL_ROUNDS
100
AcDbLine
 62
7
  6
CONTINUOUS
 10
179.9682364423
 20
90.2900269761
 11
210.9957954975
 21
90.2900269761
  0
LINE
  5
415
100
AcDbEntity
  8
7_ALL_ROUNDS
100
AcDbLine
 62
7
  6
CONTINUOUS
 10
211.4682364423
 20
90.2900269761
 11
242.4957954975
 21
90.2900269761
  0
LINE
  5
416
100
AcDbEntity
  8
7_ALL_ROUNDS
100
AcDbLine
 62
9
  6
CONTINUOUS
 10
179.7320159699
 20
90.5262474485
 11
242.7320159699
 21
90.5262474485
  0
LINE
  5
417
100
AcDbEntity
  8
0
100
AcDbLine
 62
7
  6
CONTINUOUS
 10
196.0565493022
 20
124.329653943
 11
205.9820159699
 21
127.5448872768
  0
LINE
  5
418
100
AcDbEntity
  8
3_AXES_OTHER
100
AcDbLine
 62
7
  6
CONTINUOUS
 10
180.322567151
 20
90.8805781572
 11
210.6414647888
 21
90.8805781572
  0
LINE
  5
419
100
AcDbEntity
  8
3_AXES_OTHER
100
AcDbLine
 62
7
  6
CONTINUOUS
 10
211.822567151
 20
90.8805781572
 11
242.1414647888
 21
90.8805781572
  0
LINE
  5
41A
100
AcDbEntity
  8
7_ALL_ROUNDS
100
AcDbLine
 62
7
  6
CONTINUOUS
 10
180.9820159699
 20
91.0145939052
 11
209.9820159699
 21
91.0145939052
  0
LINE
  5
41B
100
AcDbEntity
  8
0
100
AcDbLine
 62
7
  6
CONTINUOUS
 10
204.7306054217
 20
93.1405939052
 11
186.2334265178
 21
93.1405939052
  0
LINE
  5
41C
100
AcDbEntity
  8
3_AXES_OTHER
100
AcDbLine
 62
9
  6
CONTINUOUS
 10
195.4820159699
 20
100.5099221794
 11
195.4820159699
 21
93.1405939052
  0
LINE
  5
41D
100
AcDbEntity
  8
3_AXES_OTHER
100
AcDbLine
 62
9
  6
CONTINUOUS
 10
195.4820159699
 20
106.9851877171
 11
195.4820159699
 21
111.2598872768
  0
LINE
  5
41E
100
AcDbEntity
  8
3_AXES_OTHER
100
AcDbLine
 62
7
  6
CONTINUOUS
 10
209.6820159699
 20
113.8848872768
 11
209.6820159699
 21
113.9448872768
  0
LINE
  5
41F
100
AcDbEntity
  8
6_ALL_SURFS
100
AcDbLine
 62
7
  6
CONTINUOUS
 10
210.4070159699
 20
113.9448872768
 11
210.4070159699
 21
129.5448872768
  0
LINE
  5
420
100
AcDbEntity
  8
7_ALL_ROUNDS
100
AcDbLine
 62
7
  6
CONTINUOUS
 10
210.4820159699
 20
113.3848872768
 11
210.4820159699
 21
91.5145939052
  0
LINE
  5
421
100
AcDbEntity
  8
3_AXES_OTHER
100
AcDbLine
 62
7
  6
CONTINUOUS
 10
210.6414647888
 20
90.8805781572
 11
210.6414647888
 21
129.699475795
  0
LINE
  5
422
100
AcDbEntity
  8
7_ALL_ROUNDS
100
AcDbLine
 62
9
  6
CONTINUOUS
 10
210.9957954975
 20
90.2900269761
 11
210.9957954975
 21
130.2900269761
  0
LINE
  5
423
100
AcDbEntity
  8
7_ALL_ROUNDS
100
AcDbLine
 62
7
  6
CONTINUOUS
 10
211.2320159699
 20
130.0538065037
 11
211.2320159699
 21
90.5262474485
  0
LINE
  5
424
100
AcDbEntity
  8
7_ALL_ROUNDS
100
AcDbLine
 62
9
  6
CONTINUOUS
 10
211.4682364423
 20
130.2900269761
 11
211.4682364423
 21
90.2900269761
  0
LINE
  5
425
100
AcDbEntity
  8
3_ALL_AXES
100
AcDbLine
 62
7
  6
CENTER
 10
212.8107561274
 20
110.1719167399
 11
208.8248980538
 21
110.1719167399
  0
LINE
  5
426
100
AcDbEntity
  8
3_ALL_AXES
100
AcDbLine
 62
7
  6
CENTER
 10
212.8107561274
 20
110.1719167399
 11
216.867546266
 21
110.1719167399
  0
LINE
  5
427
100
AcDbEntity
  8
0
100
AcDbLine
 62
7
  6
CONTINUOUS
 10
205.9820159699
 20
127.5448872768
 11
208.9820159699
 21
115.9448872768
  0
LINE
  5
428
100
AcDbEntity
  8
3_AXES_OTHER
100
AcDbLine
 62
7
  6
CONTINUOUS
 10
211.822567151
 20
129.699475795
 11
211.822567151
 21
90.8805781572
  0
LINE
  5
429
100
AcDbEntity
  8
3_ALL_AXES
100
AcDbLine
 62
7
  6
CENTER
 10
212.8107561274
 20
110.1719167399
 11
212.8107561274
 21
105.9822262682
  0
LINE
  5
42A
100
AcDbEntity
  8
3_ALL_AXES
100
AcDbLine
 62
7
  6
CENTER
 10
212.8107561274
 20
110.1719167399
 11
212.8107561274
 21
114.2119128108
  0
LINE
  5
42B
100
AcDbEntity
  8
7_ALL_ROUNDS
100
AcDbLine
 62
7
  6
CONTINUOUS
 10
180.9820159699
 20
113.8848872768
 11
209.9820159699
 21
113.8848872768
  0
LINE
  5
42C
100
AcDbEntity
  8
6_ALL_SURFS
100
AcDbLine
 62
7
  6
CONTINUOUS
 10
180.5570159699
 20
113.9448872768
 11
210.4070159699
 21
113.9448872768
  0
LINE
  5
42D
100
AcDbEntity
  8
0
100
AcDbLine
 62
7
  6
CONTINUOUS
 10
196.1617468102
 20
123.5427389713
 11
208.9820159699
 21
115.9448872768
  0
LINE
  5
42E
100
AcDbEntity
  8
0
100
AcDbLine
 62
7
  6
CONTINUOUS
 10
208.9820159699
 20
115.9448872768
 11
181.9820159699
 21
115.9448872768
  0
LINE
  5
42F
100
AcDbEntity
  8
0
100
AcDbLine
 62
7
  6
CONTINUOUS
 10
194.9074826376
 20
124.329653943
 11
184.9820159699
 21
127.5448872768
  0
LINE
  5
430
100
AcDbEntity
  8
0
100
AcDbLine
 62
7
  6
CONTINUOUS
 10
184.9820159699
 20
127.5448872768
 11
205.9820159699
 21
127.5448872768
  0
LINE
  5
431
100
AcDbEntity
  8
6_ALL_SURFS
100
AcDbLine
 62
7
  6
CONTINUOUS
 10
210.4070159699
 20
129.5448872768
 11
180.5570159699
 21
129.5448872768
  0
LINE
  5
432
100
AcDbEntity
  8
3_AXES_OTHER
100
AcDbLine
 62
7
  6
CONTINUOUS
 10
242.1414647888
 20
129.699475795
 11
211.822567151
 21
129.699475795
  0
LINE
  5
433
100
AcDbEntity
  8
3_AXES_OTHER
100
AcDbLine
 62
7
  6
CONTINUOUS
 10
210.6414647888
 20
129.699475795
 11
180.322567151
 21
129.699475795
  0
LINE
  5
434
100
AcDbEntity
  8
7_ALL_ROUNDS
100
AcDbLine
 62
9
  6
CONTINUOUS
 10
179.7320159699
 20
130.0538065037
 11
242.7320159699
 21
130.0538065037
  0
LINE
  5
435
100
AcDbEntity
  8
7_ALL_ROUNDS
100
AcDbLine
 62
7
  6
CONTINUOUS
 10
179.9682364423
 20
130.2900269761
 11
210.9957954975
 21
130.2900269761
  0
LINE
  5
436
100
AcDbEntity
  8
7_ALL_ROUNDS
100
AcDbLine
 62
7
  6
CONTINUOUS
 10
211.4682364423
 20
130.2900269761
 11
242.4957954975
 21
130.2900269761
  0
LINE
  5
437
100
AcDbEntity
  8
3_AXES_OTHER
100
AcDbLine
 62
7
  6
CONTINUOUS
 10
242.1414647888
 20
90.8805781572
 11
242.1414647888
 21
129.699475795
  0
LINE
  5
438
100
AcDbEntity
  8
7_ALL_ROUNDS
100
AcDbLine
 62
9
  6
CONTINUOUS
 10
242.4957954975
 20
90.2900269761
 11
242.4957954975
 21
130.2900269761
  0
LINE
  5
439
100
AcDbEntity
  8
7_ALL_ROUNDS
100
AcDbLine
 62
7
  6
CONTINUOUS
 10
242.7320159699
 20
90.5262474485
 11
242.7320159699
 21
130.0538065037
  0
LINE
  5
43A
100
AcDbEntity
  8
7_ALL_ROUNDS
100
AcDbLine
 62
7
  6
CONTINUOUS
 10
179.7320159699
 20
185.2540948403
 11
179.7320159699
 21
166.7265357852
  0
LINE
  5
43B
100
AcDbEntity
  8
7_ALL_ROUNDS
100
AcDbLine
 62
9
  6
CONTINUOUS
 10
179.9682364423
 20
166.4903153127
 11
179.9682364423
 21
185.4903153127
  0
LINE
  5
43C
100
AcDbEntity
  8
7_ALL_ROUNDS
100
AcDbLine
 62
7
  6
CONTINUOUS
 10
179.9682364423
 20
166.4903153127
 11
210.9957954975
 21
166.4903153127
  0
LINE
  5
43D
100
AcDbEntity
  8
7_ALL_ROUNDS
100
AcDbLine
 62
7
  6
CONTINUOUS
 10
211.4682364423
 20
166.4903153127
 11
242.4957954975
 21
166.4903153127
  0
LINE
  5
43E
100
AcDbEntity
  8
7_ALL_ROUNDS
100
AcDbLine
 62
9
  6
CONTINUOUS
 10
179.7320159699
 20
166.7265357852
 11
242.7320159699
 21
166.7265357852
  0
LINE
  5
43F
100
AcDbEntity
  8
7_ALL_ROUNDS
100
AcDbLine
 62
9
  6
CONTINUOUS
 10
210.9957954975
 20
166.4903153127
 11
210.9957954975
 21
185.4903153127
  0
LINE
  5
440
100
AcDbEntity
  8
7_ALL_ROUNDS
100
AcDbLine
 62
7
  6
CONTINUOUS
 10
211.2320159699
 20
185.2540948403
 11
211.2320159699
 21
166.7265357852
  0
LINE
  5
441
100
AcDbEntity
  8
7_ALL_ROUNDS
100
AcDbLine
 62
9
  6
CONTINUOUS
 10
211.4682364423
 20
166.4903153127
 11
211.4682364423
 21
185.4903153127
  0
LINE
  5
442
100
AcDbEntity
  8
7_ALL_ROUNDS
100
AcDbLine
 62
9
  6
CONTINUOUS
 10
179.7320159699
 20
185.2540948403
 11
242.7320159699
 21
185.2540948403
  0
LINE
  5
443
100
AcDbEntity
  8
7_ALL_ROUNDS
100
AcDbLine
 62
7
  6
CONTINUOUS
 10
242.4957954975
 20
185.4903153127
 11
211.4682364423
 21
185.4903153127
  0
LINE
  5
444
100
AcDbEntity
  8
7_ALL_ROUNDS
100
AcDbLine
 62
7
  6
CONTINUOUS
 10
210.9957954975
 20
185.4903153127
 11
179.9682364423
 21
185.4903153127
  0
LINE
  5
445
100
AcDbEntity
  8
7_ALL_ROUNDS
100
AcDbLine
 62
9
  6
CONTINUOUS
 10
242.4957954975
 20
166.4903153127
 11
242.4957954975
 21
185.4903153127
  0
LINE
  5
446
100
AcDbEntity
  8
7_ALL_ROUNDS
100
AcDbLine
 62
7
  6
CONTINUOUS
 10
242.7320159699
 20
166.7265357852
 11
242.7320159699
 21
185.2540948403
  0
LINE
  5
447
100
AcDbEntity
  8
7_ALL_ROUNDS
100
AcDbLine
 62
7
  6
CONTINUOUS
 10
287.5540757169
 20
90.2900269761
 11
306.081634772
 21
90.2900269761
  0
LINE
  5
448
100
AcDbEntity
  8
7_ALL_ROUNDS
100
AcDbLine
 62
9
  6
CONTINUOUS
 10
287.3178552444
 20
90.5262474485
 11
306.3178552444
 21
90.5262474485
  0
LINE
  5
449
100
AcDbEntity
  8
7_ALL_ROUNDS
100
AcDbLine
 62
7
  6
CONTINUOUS
 10
287.3178552444
 20
90.5262474485
 11
287.3178552444
 21
130.0538065037
  0
LINE
  5
44A
100
AcDbEntity
  8
7_ALL_ROUNDS
100
AcDbLine
 62
9
  6
CONTINUOUS
 10
287.5540757169
 20
90.2900269761
 11
287.5540757169
 21
130.2900269761
  0
LINE
  5
44B
100
AcDbEntity
  8
3_ALL_AXES
100
AcDbLine
 62
7
  6
CENTER
 10
293.6779834728
 20
110.1719167399
 11
301.8327404614
 21
110.1719167399
  0
LINE
  5
44C
100
AcDbEntity
  8
3_ALL_AXES
100
AcDbLine
 62
7
  6
CENTER
 10
297.8139182365
 20
114.2676517928
 11
297.8139182365
 21
106.2879969482
  0
LINE
  5
44D
100
AcDbEntity
  8
7_ALL_ROUNDS
100
AcDbLine
 62
9
  6
CONTINUOUS
 10
306.081634772
 20
130.2900269761
 11
306.081634772
 21
90.2900269761
  0
LINE
  5
44E
100
AcDbEntity
  8
7_ALL_ROUNDS
100
AcDbLine
 62
7
  6
CONTINUOUS
 10
306.3178552444
 20
130.0538065037
 11
306.3178552444
 21
90.5262474485
  0
LINE
  5
44F
100
AcDbEntity
  8
7_ALL_ROUNDS
100
AcDbLine
 62
9
  6
CONTINUOUS
 10
287.3178552444
 20
130.0538065037
 11
306.3178552444
 21
130.0538065037
  0
LINE
  5
450
100
AcDbEntity
  8
7_ALL_ROUNDS
100
AcDbLine
 62
7
  6
CONTINUOUS
 10
287.5540757169
 20
130.2900269761
 11
306.081634772
 21
130.2900269761
  0
LINE
  5
451
100
AcDbEntity
  8
7_ALL_ROUNDS
100
AcDbLine
 62
7
  6
CONTINUOUS
 10
32.9678900693
 20
81.8721252153
 11
63.9954491244
 21
81.8721252153
  0
LINE
  5
452
100
AcDbEntity
  8
7_ALL_ROUNDS
100
AcDbLine
 62
9
  6
CONTINUOUS
 10
32.7316695969
 20
82.1083456877
 11
64.2316695969
 21
82.1083456877
  0
LINE
  5
453
100
AcDbEntity
  8
3_AXES_OTHER
100
AcDbLine
 62
7
  6
CONTINUOUS
 10
33.322220778
 20
82.4626763964
 11
63.6411184158
 21
82.4626763964
  0
LINE
  5
454
100
AcDbEntity
  8
0
100
AcDbLine
 62
7
  6
CONTINUOUS
 10
49.0562029292
 20
155.9117521822
 11
58.9816695969
 21
159.126985516
  0
LINE
  5
455
100
AcDbEntity
  8
0
100
AcDbLine
 62
7
  6
CONTINUOUS
 10
47.8019387566
 20
155.1248372105
 11
34.9816695969
 21
147.526985516
  0
LINE
  5
456
100
AcDbEntity
  8
0
100
AcDbLine
 62
7
  6
CONTINUOUS
 10
34.9816695969
 20
147.526985516
 11
37.9816695969
 21
159.126985516
  0
LINE
  5
457
100
AcDbEntity
  8
7_ALL_ROUNDS
100
AcDbLine
 62
7
  6
CONTINUOUS
 10
32.7316695969
 20
161.6359047429
 11
32.7316695969
 21
122.1083456877
  0
LINE
  5
458
100
AcDbEntity
  8
7_ALL_ROUNDS
100
AcDbLine
 62
7
  6
CONTINUOUS
 10
32.7316695969
 20
121.6359047429
 11
32.7316695969
 21
82.1083456877
  0
LINE
  5
459
100
AcDbEntity
  8
7_ALL_ROUNDS
100
AcDbLine
 62
9
  6
CONTINUOUS
 10
32.9678900693
 20
161.8721252153
 11
32.9678900693
 21
81.8721252153
  0
LINE
  5
45A
100
AcDbEntity
  8
3_AXES_OTHER
100
AcDbLine
 62
7
  6
CONTINUOUS
 10
33.322220778
 20
161.2815740342
 11
33.322220778
 21
122.4626763964
  0
LINE
  5
45B
100
AcDbEntity
  8
3_AXES_OTHER
100
AcDbLine
 62
7
  6
CONTINUOUS
 10
33.322220778
 20
121.2815740342
 11
33.322220778
 21
82.4626763964
  0
LINE
  5
45C
100
AcDbEntity
  8
7_ALL_ROUNDS
100
AcDbLine
 62
7
  6
CONTINUOUS
 10
33.4816695969
 20
144.966985516
 11
33.4816695969
 21
123.0966921444
  0
LINE
  5
45D
100
AcDbEntity
  8
6_ALL_SURFS
100
AcDbLine
 62
7
  6
CONTINUOUS
 10
33.5566695969
 20
161.126985516
 11
33.5566695969
 21
145.526985516
  0
LINE
  5
45E
100
AcDbEntity
  8
3_AXES_OTHER
100
AcDbLine
 62
7
  6
CONTINUOUS
 10
34.2816695969
 20
145.526985516
 11
34.2816695969
 21
145.466985516
  0
LINE
  5
45F
100
AcDbEntity
  8
3_AXES_OTHER
100
AcDbLine
 62
9
  6
CONTINUOUS
 10
48.4816695969
 20
132.0920204187
 11
48.4816695969
 21
124.7226921444
  0
LINE
  5
460
100
AcDbEntity
  8
3_ALL_AXES
100
AcDbLine
 62
7
  6
CENTER
 10
48.4816695969
 20
120.8485031681
 11
48.4816695969
 21
80.6631357824
  0
LINE
  5
461
100
AcDbEntity
  8
3_AXES_OTHER
100
AcDbLine
 62
9
  6
CONTINUOUS
 10
48.4816695969
 20
138.5672859563
 11
48.4816695969
 21
142.841985516
  0
LINE
  5
462
100
AcDbEntity
  8
3_ALL_AXES
100
AcDbLine
 62
7
  6
CENTER
 10
48.4816695969
 20
120.8485031681
 11
48.4816695969
 21
162.2200628573
  0
LINE
  5
463
100
AcDbEntity
  8
3_ALL_AXES
100
AcDbLine
 62
7
  6
CENTER
 10
48.4816695969
 20
120.8485031681
 11
44.5166046837
 21
120.8485031681
  0
LINE
  5
464
100
AcDbEntity
  8
3_ALL_AXES
100
AcDbLine
 62
7
  6
CENTER
 10
48.4816695969
 20
120.8485031681
 11
52.2411106901
 21
120.8485031681
  0
LINE
  5
465
100
AcDbEntity
  8
3_AXES_OTHER
100
AcDbLine
 62
7
  6
CONTINUOUS
 10
63.6411184158
 20
121.2815740342
 11
33.322220778
 21
121.2815740342
  0
LINE
  5
466
100
AcDbEntity
  8
7_ALL_ROUNDS
100
AcDbLine
 62
9
  6
CONTINUOUS
 10
32.7316695969
 20
121.6359047429
 11
64.2316695969
 21
121.6359047429
  0
LINE
  5
467
100
AcDbEntity
  8
7_ALL_ROUNDS
100
AcDbLine
 62
7
  6
CONTINUOUS
 10
32.9678900693
 20
121.8721252153
 11
63.9954491244
 21
121.8721252153
  0
LINE
  5
468
100
AcDbEntity
  8
7_ALL_ROUNDS
100
AcDbLine
 62
9
  6
CONTINUOUS
 10
32.7316695969
 20
122.1083456877
 11
64.2316695969
 21
122.1083456877
  0
LINE
  5
469
100
AcDbEntity
  8
3_AXES_OTHER
100
AcDbLine
 62
7
  6
CONTINUOUS
 10
33.322220778
 20
122.4626763964
 11
63.6411184158
 21
122.4626763964
  0
LINE
  5
46A
100
AcDbEntity
  8
7_ALL_ROUNDS
100
AcDbLine
 62
7
  6
CONTINUOUS
 10
33.9816695969
 20
122.5966921444
 11
62.9816695969
 21
122.5966921444
  0
LINE
  5
46B
100
AcDbEntity
  8
0
100
AcDbLine
 62
7
  6
CONTINUOUS
 10
57.7302590486
 20
124.7226921444
 11
39.2330801448
 21
124.7226921444
  0
LINE
  5
46C
100
AcDbEntity
  8
3_AXES_OTHER
100
AcDbLine
 62
7
  6
CONTINUOUS
 10
62.6816695969
 20
145.466985516
 11
62.6816695969
 21
145.526985516
  0
LINE
  5
46D
100
AcDbEntity
  8
6_ALL_SURFS
100
AcDbLine
 62
7
  6
CONTINUOUS
 10
63.4066695969
 20
145.526985516
 11
63.4066695969
 21
161.126985516
  0
LINE
  5
46E
100
AcDbEntity
  8
7_ALL_ROUNDS
100
AcDbLine
 62
7
  6
CONTINUOUS
 10
63.4816695969
 20
144.966985516
 11
63.4816695969
 21
123.0966921444
  0
LINE
  5
46F
100
AcDbEntity
  8
3_AXES_OTHER
100
AcDbLine
 62
7
  6
CONTINUOUS
 10
63.6411184158
 20
82.4626763964
 11
63.6411184158
 21
121.2815740342
  0
LINE
  5
470
100
AcDbEntity
  8
3_AXES_OTHER
100
AcDbLine
 62
7
  6
CONTINUOUS
 10
63.6411184158
 20
122.4626763964
 11
63.6411184158
 21
161.2815740342
  0
LINE
  5
471
100
AcDbEntity
  8
7_ALL_ROUNDS
100
AcDbLine
 62
9
  6
CONTINUOUS
 10
63.9954491244
 20
81.8721252153
 11
63.9954491244
 21
161.8721252153
  0
LINE
  5
472
100
AcDbEntity
  8
7_ALL_ROUNDS
100
AcDbLine
 62
7
  6
CONTINUOUS
 10
64.2316695969
 20
82.1083456877
 11
64.2316695969
 21
121.6359047429
  0
LINE
  5
473
100
AcDbEntity
  8
7_ALL_ROUNDS
100
AcDbLine
 62
7
  6
CONTINUOUS
 10
64.2316695969
 20
122.1083456877
 11
64.2316695969
 21
161.6359047429
  0
LINE
  5
474
100
AcDbEntity
  8
0
100
AcDbLine
 62
7
  6
CONTINUOUS
 10
58.9816695969
 20
159.126985516
 11
61.9816695969
 21
147.526985516
  0
LINE
  5
475
100
AcDbEntity
  8
7_ALL_ROUNDS
100
AcDbLine
 62
7
  6
CONTINUOUS
 10
33.9816695969
 20
145.466985516
 11
62.9816695969
 21
145.466985516
  0
LINE
  5
476
100
AcDbEntity
  8
6_ALL_SURFS
100
AcDbLine
 62
7
  6
CONTINUOUS
 10
33.5566695969
 20
145.526985516
 11
63.4066695969
 21
145.526985516
  0
LINE
  5
477
100
AcDbEntity
  8
0
100
AcDbLine
 62
7
  6
CONTINUOUS
 10
61.9816695969
 20
147.526985516
 11
34.9816695969
 21
147.526985516
  0
LINE
  5
478
100
AcDbEntity
  8
0
100
AcDbLine
 62
7
  6
CONTINUOUS
 10
49.1614004371
 20
155.1248372105
 11
61.9816695969
 21
147.526985516
  0
LINE
  5
479
100
AcDbEntity
  8
0
100
AcDbLine
 62
7
  6
CONTINUOUS
 10
47.9071362645
 20
155.9117521822
 11
37.9816695969
 21
159.126985516
  0
LINE
  5
47A
100
AcDbEntity
  8
0
100
AcDbLine
 62
7
  6
CONTINUOUS
 10
37.9816695969
 20
159.126985516
 11
58.9816695969
 21
159.126985516
  0
LINE
  5
47B
100
AcDbEntity
  8
6_ALL_SURFS
100
AcDbLine
 62
7
  6
CONTINUOUS
 10
63.4066695969
 20
161.126985516
 11
33.5566695969
 21
161.126985516
  0
LINE
  5
47C
100
AcDbEntity
  8
3_AXES_OTHER
100
AcDbLine
 62
7
  6
CONTINUOUS
 10
63.6411184158
 20
161.2815740342
 11
33.322220778
 21
161.2815740342
  0
LINE
  5
47D
100
AcDbEntity
  8
7_ALL_ROUNDS
100
AcDbLine
 62
9
  6
CONTINUOUS
 10
32.7316695969
 20
161.6359047429
 11
64.2316695969
 21
161.6359047429
  0
LINE
  5
47E
100
AcDbEntity
  8
7_ALL_ROUNDS
100
AcDbLine
 62
7
  6
CONTINUOUS
 10
32.9678900693
 20
161.8721252153
 11
63.9954491244
 21
161.8721252153
  0
LINE
  5
47F
100
AcDbEntity
  8
7_ALL_ROUNDS
100
AcDbLine
 62
7
  6
CONTINUOUS
 10
32.7316695969
 20
209.5359601439
 11
32.7316695969
 21
191.0084010888
  0
LINE
  5
480
100
AcDbEntity
  8
7_ALL_ROUNDS
100
AcDbLine
 62
9
  6
CONTINUOUS
 10
32.9678900693
 20
190.7721806164
 11
32.9678900693
 21
209.7721806164
  0
LINE
  5
481
100
AcDbEntity
  8
7_ALL_ROUNDS
100
AcDbLine
 62
7
  6
CONTINUOUS
 10
32.9678900693
 20
190.7721806164
 11
63.9954491244
 21
190.7721806164
  0
LINE
  5
482
100
AcDbEntity
  8
7_ALL_ROUNDS
100
AcDbLine
 62
9
  6
CONTINUOUS
 10
32.7316695969
 20
191.0084010888
 11
64.2316695969
 21
191.0084010888
  0
LINE
  5
483
100
AcDbEntity
  8
3_ALL_AXES
100
AcDbLine
 62
7
  6
CENTER
 10
48.4816695969
 20
190.058185482
 11
48.4816695969
 21
210.3947556298
  0
LINE
  5
484
100
AcDbEntity
  8
7_ALL_ROUNDS
100
AcDbLine
 62
9
  6
CONTINUOUS
 10
32.7316695969
 20
209.5359601439
 11
64.2316695969
 21
209.5359601439
  0
LINE
  5
485
100
AcDbEntity
  8
7_ALL_ROUNDS
100
AcDbLine
 62
7
  6
CONTINUOUS
 10
63.9954491244
 20
209.7721806164
 11
32.9678900693
 21
209.7721806164
  0
LINE
  5
486
100
AcDbEntity
  8
7_ALL_ROUNDS
100
AcDbLine
 62
9
  6
CONTINUOUS
 10
63.9954491244
 20
190.7721806164
 11
63.9954491244
 21
209.7721806164
  0
LINE
  5
487
100
AcDbEntity
  8
7_ALL_ROUNDS
100
AcDbLine
 62
7
  6
CONTINUOUS
 10
64.2316695969
 20
191.0084010888
 11
64.2316695969
 21
209.5359601439
  0
LINE
  5
488
100
AcDbEntity
  8
7_ALL_ROUNDS
100
AcDbLine
 62
7
  6
CONTINUOUS
 10
100.9693868708
 20
81.8721252153
 11
119.4969459259
 21
81.8721252153
  0
LINE
  5
489
100
AcDbEntity
  8
7_ALL_ROUNDS
100
AcDbLine
 62
9
  6
CONTINUOUS
 10
100.7331663984
 20
82.1083456877
 11
119.7331663984
 21
82.1083456877
  0
LINE
  5
48A
100
AcDbEntity
  8
7_ALL_ROUNDS
100
AcDbLine
 62
7
  6
CONTINUOUS
 10
100.7331663984
 20
82.1083456877
 11
100.7331663984
 21
121.6359047429
  0
LINE
  5
48B
100
AcDbEntity
  8
7_ALL_ROUNDS
100
AcDbLine
 62
7
  6
CONTINUOUS
 10
100.7331663984
 20
122.1083456877
 11
100.7331663984
 21
161.6359047429
  0
LINE
  5
48C
100
AcDbEntity
  8
7_ALL_ROUNDS
100
AcDbLine
 62
9
  6
CONTINUOUS
 10
100.9693868708
 20
81.8721252153
 11
100.9693868708
 21
161.8721252153
  0
LINE
  5
48D
100
AcDbEntity
  8
7_ALL_ROUNDS
100
AcDbLine
 62
9
  6
CONTINUOUS
 10
107.947761356
 20
151.4852369101
 11
107.9682566717
 21
151.7205665802
  0
LINE
  5
48E
100
AcDbEntity
  8
7_ALL_ROUNDS
100
AcDbLine
 62
9
  6
CONTINUOUS
 10
112.5185714407
 20
153.2590135205
 11
112.4980761251
 21
153.0236838504
  0
LINE
  5
48F
100
AcDbEntity
  8
3_ALL_AXES
100
AcDbLine
 62
7
  6
CENTER
 10
106.6635549079
 20
120.8485031681
 11
115.1558134619
 21
120.8485031681
  0
LINE
  5
490
100
AcDbEntity
  8
7_ALL_ROUNDS
100
AcDbLine
 62
9
  6
CONTINUOUS
 10
100.7331663984
 20
121.6359047429
 11
119.7331663984
 21
121.6359047429
  0
LINE
  5
491
100
AcDbEntity
  8
7_ALL_ROUNDS
100
AcDbLine
 62
7
  6
CONTINUOUS
 10
100.9693868708
 20
121.8721252153
 11
119.4969459259
 21
121.8721252153
  0
LINE
  5
492
100
AcDbEntity
  8
7_ALL_ROUNDS
100
AcDbLine
 62
9
  6
CONTINUOUS
 10
100.7331663984
 20
122.1083456877
 11
119.7331663984
 21
122.1083456877
  0
LINE
  5
493
100
AcDbEntity
  8
7_ALL_ROUNDS
100
AcDbLine
 62
9
  6
CONTINUOUS
 10
107.9477613561
 20
153.2590135205
 11
107.9682566717
 21
153.0236838504
  0
LINE
  5
494
100
AcDbEntity
  8
3_ALL_AXES
100
AcDbLine
 62
7
  6
CENTER
 10
110.9930089181
 20
124.6010296289
 11
110.9930089181
 21
116.7214331522
  0
LINE
  5
495
100
AcDbEntity
  8
7_ALL_ROUNDS
100
AcDbLine
 62
9
  6
CONTINUOUS
 10
112.5185714407
 20
151.4852369101
 11
112.4980761251
 21
151.7205665802
  0
LINE
  5
496
100
AcDbEntity
  8
7_ALL_ROUNDS
100
AcDbLine
 62
9
  6
CONTINUOUS
 10
119.4969459259
 20
161.8721252153
 11
119.4969459259
 21
81.8721252153
  0
LINE
  5
497
100
AcDbEntity
  8
7_ALL_ROUNDS
100
AcDbLine
 62
7
  6
CONTINUOUS
 10
119.7331663984
 20
161.6359047429
 11
119.7331663984
 21
122.1083456877
  0
LINE
  5
498
100
AcDbEntity
  8
7_ALL_ROUNDS
100
AcDbLine
 62
7
  6
CONTINUOUS
 10
119.7331663984
 20
121.6359047429
 11
119.7331663984
 21
82.1083456877
  0
LINE
  5
499
100
AcDbEntity
  8
7_ALL_ROUNDS
100
AcDbLine
 62
9
  6
CONTINUOUS
 10
107.5183519066
 20
151.9120304269
 11
107.7535519469
 21
151.9339633386
  0
LINE
  5
49A
100
AcDbEntity
  8
7_ALL_ROUNDS
100
AcDbLine
 62
9
  6
CONTINUOUS
 10
112.9479808902
 20
152.8322200037
 11
112.7127808498
 21
152.810287092
  0
LINE
  5
49B
100
AcDbEntity
  8
7_ALL_ROUNDS
100
AcDbLine
 62
9
  6
CONTINUOUS
 10
112.9479808901
 20
151.9120304269
 11
112.7127808498
 21
151.9339633386
  0
LINE
  5
49C
100
AcDbEntity
  8
7_ALL_ROUNDS
100
AcDbLine
 62
9
  6
CONTINUOUS
 10
107.5183519066
 20
152.8322200037
 11
107.7535519469
 21
152.810287092
  0
LINE
  5
49D
100
AcDbEntity
  8
7_ALL_ROUNDS
100
AcDbLine
 62
9
  6
CONTINUOUS
 10
100.7331663984
 20
161.6359047429
 11
119.7331663984
 21
161.6359047429
  0
LINE
  5
49E
100
AcDbEntity
  8
7_ALL_ROUNDS
100
AcDbLine
 62
7
  6
CONTINUOUS
 10
100.9693868708
 20
161.8721252153
 11
119.4969459259
 21
161.8721252153
  0
ARC
  5
49F
100
AcDbEntity
  8
3_AXES_OTHER
100
AcDbCircle
 62
9
  6
CONTINUOUS
 10
170.2818834145
 20
19.5654447565
 40
87.748015553
100
AcDbArc
 50
69.1027388996
 51
71.2165820939
  0
ARC
  5
4A0
100
AcDbEntity
  8
3_AXES_OTHER
100
AcDbCircle
 62
7
  6
CONTINUOUS
 10
195.4927117219
 20
103.7508111745
 40
3.2608073048
100
AcDbArc
 50
185.6211072706
 51
186.0116793786
  0
ARC
  5
4A1
100
AcDbEntity
  8
3_AXES_OTHER
100
AcDbCircle
 62
7
  6
CONTINUOUS
 10
195.4871234624
 20
103.760016987
 40
3.2489846479
100
AcDbArc
 50
309.8971683741
 51
318.0458125749
  0
ARC
  5
4A2
100
AcDbEntity
  8
3_AXES_OTHER
100
AcDbCircle
 62
7
  6
CONTINUOUS
 10
195.4720399374
 20
103.7490336012
 40
3.2400608206
100
AcDbArc
 50
180.0255985505
 51
185.6256301192
  0
ARC
  5
4A3
100
AcDbEntity
  8
3_AXES_OTHER
100
AcDbCircle
 62
7
  6
CONTINUOUS
 10
195.4706095268
 20
103.7534877151
 40
3.2399352548
100
AcDbArc
 50
221.9429018567
 51
230.1142306043
  0
ARC
  5
4A4
100
AcDbEntity
  8
3_AXES_OTHER
100
AcDbCircle
 62
7
  6
CONTINUOUS
 10
195.4690685463
 20
103.7630903251
 40
3.2379742933
100
AcDbArc
 50
200.2486186666
 51
230.2585365584
  0
ARC
  5
4A5
100
AcDbEntity
  8
3_AXES_OTHER
100
AcDbCircle
 62
7
  6
CONTINUOUS
 10
195.4949633935
 20
103.7630903251
 40
3.2379742934
100
AcDbArc
 50
309.7414634519
 51
339.7513811656
  0
ARC
  5
4A6
100
AcDbEntity
  8
3_AXES_OTHER
100
AcDbCircle
 62
7
  6
CONTINUOUS
 10
195.4689053305
 20
103.7430597847
 40
3.2377447392
100
AcDbArc
 50
129.8788624437
 51
159.9161770167
  0
ARC
  5
4A7
100
AcDbEntity
  8
3_AXES_OTHER
100
AcDbCircle
 62
7
  6
CONTINUOUS
 10
195.4951266113
 20
103.7430597858
 40
3.2377447374
100
AcDbArc
 50
20.0838229822
 51
50.1211375816
  0
ARC
  5
4A8
100
AcDbEntity
  8
3_AXES_OTHER
100
AcDbCircle
 62
7
  6
CONTINUOUS
 10
195.4651458807
 20
103.7498991891
 40
3.2334729488
100
AcDbArc
 50
200.0707855745
 51
221.9603141556
  0
ARC
  5
4A9
100
AcDbEntity
  8
3_AXES_OTHER
100
AcDbCircle
 62
7
  6
CONTINUOUS
 10
195.4988860669
 20
103.7498991844
 40
3.2334729393
100
AcDbArc
 50
318.0397999088
 51
339.9292144641
  0
ARC
  5
4AA
100
AcDbEntity
  8
3_AXES_OTHER
100
AcDbCircle
 62
7
  6
CONTINUOUS
 10
195.4648980724
 20
103.7488001565
 40
3.2329361271
100
AcDbArc
 50
186.0278600052
 51
200.0541288943
  0
ARC
  5
4AB
100
AcDbEntity
  8
3_AXES_OTHER
100
AcDbCircle
 62
7
  6
CONTINUOUS
 10
195.4586943471
 20
103.747448955
 40
3.2267149591
100
AcDbArc
 50
159.9272504492
 51
179.8675913547
  0
ARC
  5
4AC
100
AcDbEntity
  8
3_AXES_OTHER
100
AcDbCircle
 62
7
  6
CONTINUOUS
 10
195.5053379403
 20
103.7474490278
 40
3.2267146076
100
AcDbArc
 50
0.1361261289
 51
20.0727504596
  0
ARC
  5
4AD
100
AcDbEntity
  8
3_AXES_OTHER
100
AcDbCircle
 62
7
  6
CONTINUOUS
 10
195.5085863916
 20
103.7481860827
 40
3.2234661779
100
AcDbArc
 50
354.2122292948
 51
359.9880687825
  0
ARC
  5
4AE
100
AcDbEntity
  8
3_AXES_OTHER
100
AcDbCircle
 62
7
  6
CONTINUOUS
 10
195.5126039337
 20
103.7456879216
 40
3.2192160003
100
AcDbArc
 50
339.9156953511
 51
354.1313919533
  0
ARC
  5
4AF
100
AcDbEntity
  8
7_ALL_ROUNDS
100
AcDbCircle
 62
7
  6
CONTINUOUS
 10
180.9820159699
 20
113.3848872768
 40
0.5
100
AcDbArc
 50
90.0
 51
180.0
  0
ARC
  5
4B0
100
AcDbEntity
  8
7_ALL_ROUNDS
100
AcDbCircle
 62
7
  6
CONTINUOUS
 10
180.9820159699
 20
91.5145939052
 40
0.5
100
AcDbArc
 50
180.0
 51
270.0
  0
ARC
  5
4B1
100
AcDbEntity
  8
7_ALL_ROUNDS
100
AcDbCircle
 62
7
  6
CONTINUOUS
 10
179.9682364423
 20
90.5262474485
 40
0.2362204724
100
AcDbArc
 50
180.0
 51
270.0
  0
ARC
  5
4B2
100
AcDbEntity
  8
7_ALL_ROUNDS
100
AcDbCircle
 62
7
  6
CONTINUOUS
 10
179.9682364423
 20
130.0538065037
 40
0.2362204724
100
AcDbArc
 50
90.0
 51
180.0
  0
CIRCLE
  5
4B3
100
AcDbEntity
  8
3_AXES_OTHER
100
AcDbCircle
 62
7
  6
CONTINUOUS
 10
192.5610159699
 20
113.1348872768
 40
0.125
  0
CIRCLE
  5
4B4
100
AcDbEntity
  8
3_AXES_OTHER
100
AcDbCircle
 62
7
  6
CONTINUOUS
 10
180.9820159699
 20
113.2548872768
 40
0.1065
  0
CIRCLE
  5
4B5
100
AcDbEntity
  8
3_AXES_OTHER
100
AcDbCircle
 62
7
  6
CONTINUOUS
 10
180.9820159699
 20
106.1348872768
 40
0.1065
  0
CIRCLE
  5
4B6
100
AcDbEntity
  8
3_AXES_OTHER
100
AcDbCircle
 62
7
  6
CONTINUOUS
 10
180.9820159699
 20
99.0148872768
 40
0.1065
  0
CIRCLE
  5
4B7
100
AcDbEntity
  8
3_AXES_OTHER
100
AcDbCircle
 62
7
  6
CONTINUOUS
 10
180.9820159699
 20
91.8948872768
 40
0.1065
  0
ARC
  5
4B8
100
AcDbEntity
  8
3_AXES_OTHER
100
AcDbCircle
 62
9
  6
CONTINUOUS
 10
220.6821485252
 20
19.5654447567
 40
87.7480155528
100
AcDbArc
 50
108.7834179061
 51
110.8972611004
  0
CIRCLE
  5
4B9
100
AcDbEntity
  8
7_ALL_ROUNDS
100
AcDbCircle
 62
9
  6
CONTINUOUS
 10
215.8220159699
 20
95.2890269761
 40
2.3543307087
  0
CIRCLE
  5
4BA
100
AcDbEntity
  8
7_ALL_ROUNDS
100
AcDbCircle
 62
7
  6
CONTINUOUS
 10
215.8220159699
 20
95.2890269761
 40
2.0
  0
ARC
  5
4BB
100
AcDbEntity
  8
7_ALL_ROUNDS
100
AcDbCircle
 62
7
  6
CONTINUOUS
 10
209.9820159699
 20
91.5145939052
 40
0.5
100
AcDbArc
 50
270.0
 51
360.0
  0
ARC
  5
4BC
100
AcDbEntity
  8
7_ALL_ROUNDS
100
AcDbCircle
 62
7
  6
CONTINUOUS
 10
211.4682364423
 20
90.5262474485
 40
0.2362204724
100
AcDbArc
 50
180.0
 51
270.0
  0
ARC
  5
4BD
100
AcDbEntity
  8
7_ALL_ROUNDS
100
AcDbCircle
 62
7
  6
CONTINUOUS
 10
210.9957954975
 20
90.5262474485
 40
0.2362204724
100
AcDbArc
 50
270.0
 51
360.0
  0
CIRCLE
  5
4BE
100
AcDbEntity
  8
3_AXES_OTHER
100
AcDbCircle
 62
7
  6
CONTINUOUS
 10
209.9820159699
 20
106.1348872768
 40
0.1065
  0
CIRCLE
  5
4BF
100
AcDbEntity
  8
3_AXES_OTHER
100
AcDbCircle
 62
7
  6
CONTINUOUS
 10
209.9820159699
 20
99.0148872768
 40
0.1065
  0
CIRCLE
  5
4C0
100
AcDbEntity
  8
3_AXES_OTHER
100
AcDbCircle
 62
7
  6
CONTINUOUS
 10
209.9820159699
 20
91.8948872768
 40
0.1065
  0
CIRCLE
  5
4C1
100
AcDbEntity
  8
7_ALL_ROUNDS
100
AcDbCircle
 62
9
  6
CONTINUOUS
 10
215.8220159699
 20
114.5690269761
 40
2.3543307087
  0
CIRCLE
  5
4C2
100
AcDbEntity
  8
7_ALL_ROUNDS
100
AcDbCircle
 62
7
  6
CONTINUOUS
 10
215.8220159699
 20
114.5690269761
 40
2.0
  0
ARC
  5
4C3
100
AcDbEntity
  8
7_ALL_ROUNDS
100
AcDbCircle
 62
7
  6
CONTINUOUS
 10
209.9820159699
 20
113.3848872768
 40
0.5
100
AcDbArc
 50
0.0
 51
90.0
  0
ARC
  5
4C4
100
AcDbEntity
  8
7_ALL_ROUNDS
100
AcDbCircle
 62
7
  6
CONTINUOUS
 10
211.4682364423
 20
130.0538065037
 40
0.2362204724
100
AcDbArc
 50
90.0
 51
180.0
  0
ARC
  5
4C5
100
AcDbEntity
  8
7_ALL_ROUNDS
100
AcDbCircle
 62
7
  6
CONTINUOUS
 10
210.9957954975
 20
130.0538065037
 40
0.2362204724
100
AcDbArc
 50
0.0
 51
90.0
  0
CIRCLE
  5
4C6
100
AcDbEntity
  8
3_AXES_OTHER
100
AcDbCircle
 62
7
  6
CONTINUOUS
 10
209.9820159699
 20
113.2548872768
 40
0.1065
  0
CIRCLE
  5
4C7
100
AcDbEntity
  8
3_AXES_OTHER
100
AcDbCircle
 62
7
  6
CONTINUOUS
 10
226.9820159699
 20
100.6443576848
 40
7.625
  0
CIRCLE
  5
4C8
100
AcDbEntity
  8
3_ALL_AXES
100
AcDbCircle
 62
7
  6
CONTINUOUS
 10
226.9820159699
 20
100.6443576848
 40
6.9950787402
  0
CIRCLE
  5
4C9
100
AcDbEntity
  8
3_ALL_AXES
100
AcDbCircle
 62
7
  6
CONTINUOUS
 10
226.9820159699
 20
100.6443576848
 40
6.6801181102
  0
CIRCLE
  5
4CA
100
AcDbEntity
  8
3_ALL_AXES
100
AcDbCircle
 62
7
  6
CONTINUOUS
 10
226.9820159699
 20
100.6443576848
 40
6.6013779528
  0
CIRCLE
  5
4CB
100
AcDbEntity
  8
3_ALL_AXES
100
AcDbCircle
 62
7
  6
CONTINUOUS
 10
226.9820159699
 20
100.6443576848
 40
6.2864173228
  0
CIRCLE
  5
4CC
100
AcDbEntity
  8
3_ALL_AXES
100
AcDbCircle
 62
7
  6
CONTINUOUS
 10
226.9820159699
 20
100.6443576848
 40
6.2076771654
  0
CIRCLE
  5
4CD
100
AcDbEntity
  8
3_ALL_AXES
100
AcDbCircle
 62
7
  6
CONTINUOUS
 10
226.9820159699
 20
100.6443576848
 40
5.8927165354
  0
CIRCLE
  5
4CE
100
AcDbEntity
  8
3_ALL_AXES
100
AcDbCircle
 62
7
  6
CONTINUOUS
 10
226.9820159699
 20
100.6443576848
 40
2.5590551181
  0
CIRCLE
  5
4CF
100
AcDbEntity
  8
7_ALL_ROUNDS
100
AcDbCircle
 62
9
  6
CONTINUOUS
 10
238.1420159699
 20
106.0100269761
 40
2.3543307087
  0
CIRCLE
  5
4D0
100
AcDbEntity
  8
7_ALL_ROUNDS
100
AcDbCircle
 62
7
  6
CONTINUOUS
 10
238.1420159699
 20
106.0100269761
 40
2.0
  0
ARC
  5
4D1
100
AcDbEntity
  8
7_ALL_ROUNDS
100
AcDbCircle
 62
7
  6
CONTINUOUS
 10
242.4957954975
 20
90.5262474485
 40
0.2362204724
100
AcDbArc
 50
270.0
 51
360.0
  0
CIRCLE
  5
4D2
100
AcDbEntity
  8
3_AXES_OTHER
100
AcDbCircle
 62
7
  6
CONTINUOUS
 10
226.9820159699
 20
119.9356962674
 40
7.625
  0
CIRCLE
  5
4D3
100
AcDbEntity
  8
3_ALL_AXES
100
AcDbCircle
 62
7
  6
CONTINUOUS
 10
226.9820159699
 20
119.9356962674
 40
6.9950787402
  0
CIRCLE
  5
4D4
100
AcDbEntity
  8
3_ALL_AXES
100
AcDbCircle
 62
7
  6
CONTINUOUS
 10
226.9820159699
 20
119.9356962674
 40
6.6801181102
  0
CIRCLE
  5
4D5
100
AcDbEntity
  8
3_ALL_AXES
100
AcDbCircle
 62
7
  6
CONTINUOUS
 10
226.9820159699
 20
119.9356962674
 40
6.6013779528
  0
CIRCLE
  5
4D6
100
AcDbEntity
  8
3_ALL_AXES
100
AcDbCircle
 62
7
  6
CONTINUOUS
 10
226.9820159699
 20
119.9356962674
 40
6.2864173228
  0
CIRCLE
  5
4D7
100
AcDbEntity
  8
3_ALL_AXES
100
AcDbCircle
 62
7
  6
CONTINUOUS
 10
226.9820159699
 20
119.9356962674
 40
6.2076771654
  0
CIRCLE
  5
4D8
100
AcDbEntity
  8
3_ALL_AXES
100
AcDbCircle
 62
7
  6
CONTINUOUS
 10
226.9820159699
 20
119.9356962674
 40
5.8927165354
  0
CIRCLE
  5
4D9
100
AcDbEntity
  8
3_ALL_AXES
100
AcDbCircle
 62
7
  6
CONTINUOUS
 10
226.9820159699
 20
119.9356962674
 40
2.5590551181
  0
CIRCLE
  5
4DA
100
AcDbEntity
  8
7_ALL_ROUNDS
100
AcDbCircle
 62
9
  6
CONTINUOUS
 10
238.1420159699
 20
125.2900269761
 40
2.3543307087
  0
CIRCLE
  5
4DB
100
AcDbEntity
  8
7_ALL_ROUNDS
100
AcDbCircle
 62
7
  6
CONTINUOUS
 10
238.1420159699
 20
125.2900269761
 40
2.0
  0
ARC
  5
4DC
100
AcDbEntity
  8
7_ALL_ROUNDS
100
AcDbCircle
 62
7
  6
CONTINUOUS
 10
242.4957954975
 20
130.0538065037
 40
0.2362204724
100
AcDbArc
 50
0.0
 51
90.0
  0
CIRCLE
  5
4DD
100
AcDbEntity
  8
0
100
AcDbCircle
 62
7
  6
CONTINUOUS
 10
209.7320159699
 20
169.4903153127
 40
0.4330708661
  0
CIRCLE
  5
4DE
100
AcDbEntity
  8
0
100
AcDbCircle
 62
7
  6
CONTINUOUS
 10
181.2320159699
 20
169.4903153127
 40
0.4330708661
  0
ARC
  5
4DF
100
AcDbEntity
  8
7_ALL_ROUNDS
100
AcDbCircle
 62
7
  6
CONTINUOUS
 10
179.9682364423
 20
166.7265357852
 40
0.2362204724
100
AcDbArc
 50
180.0
 51
270.0
  0
ARC
  5
4E0
100
AcDbEntity
  8
7_ALL_ROUNDS
100
AcDbCircle
 62
7
  6
CONTINUOUS
 10
210.9957954975
 20
166.7265357852
 40
0.2362204724
100
AcDbArc
 50
270.0
 51
360.0
  0
CIRCLE
  5
4E1
100
AcDbEntity
  8
0
100
AcDbCircle
 62
7
  6
CONTINUOUS
 10
209.7320159699
 20
169.4903153127
 40
0.2165354331
  0
CIRCLE
  5
4E2
100
AcDbEntity
  8
0
100
AcDbCircle
 62
7
  6
CONTINUOUS
 10
181.2320159699
 20
169.4903153127
 40
0.2165354331
  0
CIRCLE
  5
4E3
100
AcDbEntity
  8
0
100
AcDbCircle
 62
7
  6
CONTINUOUS
 10
181.2320159699
 20
182.4903153127
 40
0.4330708661
  0
CIRCLE
  5
4E4
100
AcDbEntity
  8
0
100
AcDbCircle
 62
7
  6
CONTINUOUS
 10
181.2320159699
 20
182.4903153127
 40
0.2165354331
  0
ARC
  5
4E5
100
AcDbEntity
  8
7_ALL_ROUNDS
100
AcDbCircle
 62
7
  6
CONTINUOUS
 10
179.9682364423
 20
185.2540948403
 40
0.2362204724
100
AcDbArc
 50
90.0
 51
180.0
  0
CIRCLE
  5
4E6
100
AcDbEntity
  8
0
100
AcDbCircle
 62
7
  6
CONTINUOUS
 10
209.7320159699
 20
182.4903153127
 40
0.4330708661
  0
CIRCLE
  5
4E7
100
AcDbEntity
  8
0
100
AcDbCircle
 62
7
  6
CONTINUOUS
 10
209.7320159699
 20
182.4903153127
 40
0.2165354331
  0
ARC
  5
4E8
100
AcDbEntity
  8
7_ALL_ROUNDS
100
AcDbCircle
 62
7
  6
CONTINUOUS
 10
210.9957954975
 20
185.2540948403
 40
0.2362204724
100
AcDbArc
 50
0.0
 51
90.0
  0
CIRCLE
  5
4E9
100
AcDbEntity
  8
0
100
AcDbCircle
 62
7
  6
CONTINUOUS
 10
212.7320159699
 20
169.4903153127
 40
0.4330708661
  0
CIRCLE
  5
4EA
100
AcDbEntity
  8
0
100
AcDbCircle
 62
7
  6
CONTINUOUS
 10
241.2320159699
 20
169.4903153127
 40
0.4330708661
  0
ARC
  5
4EB
100
AcDbEntity
  8
7_ALL_ROUNDS
100
AcDbCircle
 62
7
  6
CONTINUOUS
 10
211.4682364423
 20
166.7265357852
 40
0.2362204724
100
AcDbArc
 50
180.0
 51
270.0
  0
ARC
  5
4EC
100
AcDbEntity
  8
7_ALL_ROUNDS
100
AcDbCircle
 62
7
  6
CONTINUOUS
 10
242.4957954975
 20
166.7265357852
 40
0.2362204724
100
AcDbArc
 50
270.0
 51
360.0
  0
CIRCLE
  5
4ED
100
AcDbEntity
  8
0
100
AcDbCircle
 62
7
  6
CONTINUOUS
 10
241.2320159699
 20
169.4903153127
 40
0.2165354331
  0
CIRCLE
  5
4EE
100
AcDbEntity
  8
0
100
AcDbCircle
 62
7
  6
CONTINUOUS
 10
212.7320159699
 20
169.4903153127
 40
0.2165354331
  0
CIRCLE
  5
4EF
100
AcDbEntity
  8
0
100
AcDbCircle
 62
7
  6
CONTINUOUS
 10
212.7320159699
 20
182.4903153127
 40
0.4330708661
  0
CIRCLE
  5
4F0
100
AcDbEntity
  8
0
100
AcDbCircle
 62
7
  6
CONTINUOUS
 10
212.7320159699
 20
182.4903153127
 40
0.2165354331
  0
ARC
  5
4F1
100
AcDbEntity
  8
7_ALL_ROUNDS
100
AcDbCircle
 62
7
  6
CONTINUOUS
 10
211.4682364423
 20
185.2540948403
 40
0.2362204724
100
AcDbArc
 50
90.0
 51
180.0
  0
CIRCLE
  5
4F2
100
AcDbEntity
  8
0
100
AcDbCircle
 62
7
  6
CONTINUOUS
 10
241.2320159699
 20
182.4903153127
 40
0.4330708661
  0
CIRCLE
  5
4F3
100
AcDbEntity
  8
0
100
AcDbCircle
 62
7
  6
CONTINUOUS
 10
241.2320159699
 20
182.4903153127
 40
0.2165354331
  0
ARC
  5
4F4
100
AcDbEntity
  8
7_ALL_ROUNDS
100
AcDbCircle
 62
7
  6
CONTINUOUS
 10
242.4957954975
 20
185.2540948403
 40
0.2362204724
100
AcDbArc
 50
0.0
 51
90.0
  0
CIRCLE
  5
4F5
100
AcDbEntity
  8
0
100
AcDbCircle
 62
7
  6
CONTINUOUS
 10
303.3178552444
 20
91.7900269761
 40
0.4330708661
  0
CIRCLE
  5
4F6
100
AcDbEntity
  8
0
100
AcDbCircle
 62
7
  6
CONTINUOUS
 10
290.3178552444
 20
91.7900269761
 40
0.4330708661
  0
CIRCLE
  5
4F7
100
AcDbEntity
  8
0
100
AcDbCircle
 62
7
  6
CONTINUOUS
 10
303.3178552444
 20
128.7900269761
 40
0.4330708661
  0
CIRCLE
  5
4F8
100
AcDbEntity
  8
0
100
AcDbCircle
 62
7
  6
CONTINUOUS
 10
290.3178552444
 20
128.7900269761
 40
0.4330708661
  0
ARC
  5
4F9
100
AcDbEntity
  8
7_ALL_ROUNDS
100
AcDbCircle
 62
7
  6
CONTINUOUS
 10
287.5540757169
 20
90.5262474485
 40
0.2362204724
100
AcDbArc
 50
180.0
 51
270.0
  0
ARC
  5
4FA
100
AcDbEntity
  8
7_ALL_ROUNDS
100
AcDbCircle
 62
7
  6
CONTINUOUS
 10
306.081634772
 20
90.5262474485
 40
0.2362204724
100
AcDbArc
 50
270.0
 51
360.0
  0
ARC
  5
4FB
100
AcDbEntity
  8
7_ALL_ROUNDS
100
AcDbCircle
 62
7
  6
CONTINUOUS
 10
287.5540757169
 20
130.0538065037
 40
0.2362204724
100
AcDbArc
 50
90.0
 51
180.0
  0
ARC
  5
4FC
100
AcDbEntity
  8
7_ALL_ROUNDS
100
AcDbCircle
 62
7
  6
CONTINUOUS
 10
306.081634772
 20
130.0538065037
 40
0.2362204724
100
AcDbArc
 50
0.0
 51
90.0
  0
CIRCLE
  5
4FD
100
AcDbEntity
  8
0
100
AcDbCircle
 62
7
  6
CONTINUOUS
 10
290.3178552444
 20
128.7900269761
 40
0.2165354331
  0
CIRCLE
  5
4FE
100
AcDbEntity
  8
0
100
AcDbCircle
 62
7
  6
CONTINUOUS
 10
303.3178552444
 20
128.7900269761
 40
0.2165354331
  0
CIRCLE
  5
4FF
100
AcDbEntity
  8
0
100
AcDbCircle
 62
7
  6
CONTINUOUS
 10
290.3178552444
 20
91.7900269761
 40
0.2165354331
  0
CIRCLE
  5
500
100
AcDbEntity
  8
0
100
AcDbCircle
 62
7
  6
CONTINUOUS
 10
303.3178552444
 20
91.7900269761
 40
0.2165354331
  0
ARC
  5
501
100
AcDbEntity
  8
3_AXES_OTHER
100
AcDbCircle
 62
9
  6
CONTINUOUS
 10
23.2815370415
 20
51.1475429957
 40
87.7480155531
100
AcDbArc
 50
69.1027388996
 51
71.2165820939
  0
CIRCLE
  5
502
100
AcDbEntity
  8
7_ALL_ROUNDS
100
AcDbCircle
 62
9
  6
CONTINUOUS
 10
37.3216695969
 20
106.1511252153
 40
2.3543307087
  0
CIRCLE
  5
503
100
AcDbEntity
  8
7_ALL_ROUNDS
100
AcDbCircle
 62
9
  6
CONTINUOUS
 10
37.3216695969
 20
86.8711252153
 40
2.3543307087
  0
CIRCLE
  5
504
100
AcDbEntity
  8
7_ALL_ROUNDS
100
AcDbCircle
 62
7
  6
CONTINUOUS
 10
37.3216695969
 20
106.1511252153
 40
2.0
  0
CIRCLE
  5
505
100
AcDbEntity
  8
7_ALL_ROUNDS
100
AcDbCircle
 62
7
  6
CONTINUOUS
 10
37.3216695969
 20
86.8711252153
 40
2.0
  0
ARC
  5
506
100
AcDbEntity
  8
7_ALL_ROUNDS
100
AcDbCircle
 62
7
  6
CONTINUOUS
 10
32.9678900693
 20
82.1083456877
 40
0.2362204724
100
AcDbArc
 50
180.0
 51
270.0
  0
ARC
  5
507
100
AcDbEntity
  8
3_AXES_OTHER
100
AcDbCircle
 62
7
  6
CONTINUOUS
 10
48.4716935644
 20
135.3311318404
 40
3.2400608206
100
AcDbArc
 50
180.0255985505
 51
185.6256301193
  0
ARC
  5
508
100
AcDbEntity
  8
3_AXES_OTHER
100
AcDbCircle
 62
7
  6
CONTINUOUS
 10
48.4702631538
 20
135.3355859543
 40
3.2399352548
100
AcDbArc
 50
221.9429018567
 51
230.1142306042
  0
ARC
  5
509
100
AcDbEntity
  8
3_AXES_OTHER
100
AcDbCircle
 62
7
  6
CONTINUOUS
 10
48.4687221732
 20
135.3451885643
 40
3.2379742933
100
AcDbArc
 50
200.2486186666
 51
230.2585365584
  0
ARC
  5
50A
100
AcDbEntity
  8
3_AXES_OTHER
100
AcDbCircle
 62
7
  6
CONTINUOUS
 10
48.4685589575
 20
135.3251580239
 40
3.2377447392
100
AcDbArc
 50
129.8788624437
 51
159.9161770167
  0
ARC
  5
50B
100
AcDbEntity
  8
3_AXES_OTHER
100
AcDbCircle
 62
7
  6
CONTINUOUS
 10
48.4647995077
 20
135.3319974283
 40
3.2334729488
100
AcDbArc
 50
200.0707855745
 51
221.9603141556
  0
ARC
  5
50C
100
AcDbEntity
  8
3_AXES_OTHER
100
AcDbCircle
 62
7
  6
CONTINUOUS
 10
48.4645516993
 20
135.3308983957
 40
3.2329361271
100
AcDbArc
 50
186.0278600052
 51
200.0541288943
  0
ARC
  5
50D
100
AcDbEntity
  8
3_AXES_OTHER
100
AcDbCircle
 62
7
  6
CONTINUOUS
 10
48.458347974
 20
135.3295471942
 40
3.2267149591
100
AcDbArc
 50
159.9272504492
 51
179.8675913547
  0
ARC
  5
50E
100
AcDbEntity
  8
7_ALL_ROUNDS
100
AcDbCircle
 62
7
  6
CONTINUOUS
 10
33.9816695969
 20
144.966985516
 40
0.5
100
AcDbArc
 50
90.0
 51
180.0
  0
ARC
  5
50F
100
AcDbEntity
  8
7_ALL_ROUNDS
100
AcDbCircle
 62
7
  6
CONTINUOUS
 10
33.9816695969
 20
123.0966921444
 40
0.5
100
AcDbArc
 50
180.0
 51
270.0
  0
ARC
  5
510
100
AcDbEntity
  8
7_ALL_ROUNDS
100
AcDbCircle
 62
7
  6
CONTINUOUS
 10
32.9678900693
 20
122.1083456877
 40
0.2362204724
100
AcDbArc
 50
180.0
 51
270.0
  0
ARC
  5
511
100
AcDbEntity
  8
7_ALL_ROUNDS
100
AcDbCircle
 62
7
  6
CONTINUOUS
 10
32.9678900693
 20
161.6359047429
 40
0.2362204724
100
AcDbArc
 50
90.0
 51
180.0
  0
ARC
  5
512
100
AcDbEntity
  8
7_ALL_ROUNDS
100
AcDbCircle
 62
7
  6
CONTINUOUS
 10
32.9678900693
 20
121.6359047429
 40
0.2362204724
100
AcDbArc
 50
90.0
 51
180.0
  0
CIRCLE
  5
513
100
AcDbEntity
  8
3_AXES_OTHER
100
AcDbCircle
 62
7
  6
CONTINUOUS
 10
45.5606695969
 20
144.716985516
 40
0.125
  0
CIRCLE
  5
514
100
AcDbEntity
  8
3_AXES_OTHER
100
AcDbCircle
 62
7
  6
CONTINUOUS
 10
33.9816695969
 20
144.836985516
 40
0.1065
  0
CIRCLE
  5
515
100
AcDbEntity
  8
3_AXES_OTHER
100
AcDbCircle
 62
7
  6
CONTINUOUS
 10
33.9816695969
 20
137.716985516
 40
0.1065
  0
CIRCLE
  5
516
100
AcDbEntity
  8
3_AXES_OTHER
100
AcDbCircle
 62
7
  6
CONTINUOUS
 10
33.9816695969
 20
130.596985516
 40
0.1065
  0
CIRCLE
  5
517
100
AcDbEntity
  8
3_AXES_OTHER
100
AcDbCircle
 62
7
  6
CONTINUOUS
 10
33.9816695969
 20
123.476985516
 40
0.1065
  0
CIRCLE
  5
518
100
AcDbEntity
  8
3_AXES_OTHER
100
AcDbCircle
 62
7
  6
CONTINUOUS
 10
48.4816695969
 20
92.226455924
 40
7.625
  0
CIRCLE
  5
519
100
AcDbEntity
  8
3_ALL_AXES
100
AcDbCircle
 62
7
  6
CONTINUOUS
 10
48.4816695969
 20
92.226455924
 40
6.9950787402
  0
CIRCLE
  5
51A
100
AcDbEntity
  8
3_ALL_AXES
100
AcDbCircle
 62
7
  6
CONTINUOUS
 10
48.4816695969
 20
92.226455924
 40
6.6801181102
  0
CIRCLE
  5
51B
100
AcDbEntity
  8
3_ALL_AXES
100
AcDbCircle
 62
7
  6
CONTINUOUS
 10
48.4816695969
 20
92.226455924
 40
6.6013779528
  0
CIRCLE
  5
51C
100
AcDbEntity
  8
3_ALL_AXES
100
AcDbCircle
 62
7
  6
CONTINUOUS
 10
48.4816695969
 20
92.226455924
 40
6.2864173228
  0
CIRCLE
  5
51D
100
AcDbEntity
  8
3_ALL_AXES
100
AcDbCircle
 62
7
  6
CONTINUOUS
 10
48.4816695969
 20
92.226455924
 40
6.2076771654
  0
CIRCLE
  5
51E
100
AcDbEntity
  8
3_ALL_AXES
100
AcDbCircle
 62
7
  6
CONTINUOUS
 10
48.4816695969
 20
92.226455924
 40
5.8927165354
  0
CIRCLE
  5
51F
100
AcDbEntity
  8
3_ALL_AXES
100
AcDbCircle
 62
7
  6
CONTINUOUS
 10
48.4816695969
 20
92.226455924
 40
2.5590551181
  0
CIRCLE
  5
520
100
AcDbEntity
  8
7_ALL_ROUNDS
100
AcDbCircle
 62
9
  6
CONTINUOUS
 10
59.6416695969
 20
97.5921252153
 40
2.3543307087
  0
CIRCLE
  5
521
100
AcDbEntity
  8
7_ALL_ROUNDS
100
AcDbCircle
 62
7
  6
CONTINUOUS
 10
59.6416695969
 20
97.5921252153
 40
2.0
  0
ARC
  5
522
100
AcDbEntity
  8
3_AXES_OTHER
100
AcDbCircle
 62
9
  6
CONTINUOUS
 10
73.6818021523
 20
51.1475429957
 40
87.748015553
100
AcDbArc
 50
108.7834179061
 51
110.8972611004
  0
ARC
  5
523
100
AcDbEntity
  8
7_ALL_ROUNDS
100
AcDbCircle
 62
7
  6
CONTINUOUS
 10
63.9954491244
 20
82.1083456877
 40
0.2362204724
100
AcDbArc
 50
270.0
 51
360.0
  0
CIRCLE
  5
524
100
AcDbEntity
  8
3_AXES_OTHER
100
AcDbCircle
 62
7
  6
CONTINUOUS
 10
48.4816695969
 20
111.5177945066
 40
7.625
  0
CIRCLE
  5
525
100
AcDbEntity
  8
3_ALL_AXES
100
AcDbCircle
 62
7
  6
CONTINUOUS
 10
48.4816695969
 20
111.5177945066
 40
6.9950787402
  0
CIRCLE
  5
526
100
AcDbEntity
  8
3_ALL_AXES
100
AcDbCircle
 62
7
  6
CONTINUOUS
 10
48.4816695969
 20
111.5177945066
 40
6.6801181102
  0
CIRCLE
  5
527
100
AcDbEntity
  8
3_ALL_AXES
100
AcDbCircle
 62
7
  6
CONTINUOUS
 10
48.4816695969
 20
111.5177945066
 40
6.6013779528
  0
CIRCLE
  5
528
100
AcDbEntity
  8
3_ALL_AXES
100
AcDbCircle
 62
7
  6
CONTINUOUS
 10
48.4816695969
 20
111.5177945066
 40
6.2864173228
  0
CIRCLE
  5
529
100
AcDbEntity
  8
3_ALL_AXES
100
AcDbCircle
 62
7
  6
CONTINUOUS
 10
48.4816695969
 20
111.5177945066
 40
6.2076771654
  0
CIRCLE
  5
52A
100
AcDbEntity
  8
3_ALL_AXES
100
AcDbCircle
 62
7
  6
CONTINUOUS
 10
48.4816695969
 20
111.5177945066
 40
5.8927165354
  0
CIRCLE
  5
52B
100
AcDbEntity
  8
3_ALL_AXES
100
AcDbCircle
 62
7
  6
CONTINUOUS
 10
48.4816695969
 20
111.5177945066
 40
2.5590551181
  0
ARC
  5
52C
100
AcDbEntity
  8
3_AXES_OTHER
100
AcDbCircle
 62
7
  6
CONTINUOUS
 10
48.4923653485
 20
135.3329094137
 40
3.2608073044
100
AcDbArc
 50
185.6211072704
 51
186.0116793785
  0
ARC
  5
52D
100
AcDbEntity
  8
3_AXES_OTHER
100
AcDbCircle
 62
7
  6
CONTINUOUS
 10
48.4867770893
 20
135.3421152262
 40
3.2489846479
100
AcDbArc
 50
309.8971683741
 51
318.0458125749
  0
ARC
  5
52E
100
AcDbEntity
  8
3_AXES_OTHER
100
AcDbCircle
 62
7
  6
CONTINUOUS
 10
48.4946170205
 20
135.3451885643
 40
3.2379742934
100
AcDbArc
 50
309.7414634519
 51
339.7513811656
  0
ARC
  5
52F
100
AcDbEntity
  8
3_AXES_OTHER
100
AcDbCircle
 62
7
  6
CONTINUOUS
 10
48.4947802383
 20
135.3251580251
 40
3.2377447374
100
AcDbArc
 50
20.0838229822
 51
50.1211375816
  0
ARC
  5
530
100
AcDbEntity
  8
3_AXES_OTHER
100
AcDbCircle
 62
7
  6
CONTINUOUS
 10
48.4985396939
 20
135.3319974236
 40
3.2334729393
100
AcDbArc
 50
318.0397999088
 51
339.9292144641
  0
ARC
  5
531
100
AcDbEntity
  8
3_AXES_OTHER
100
AcDbCircle
 62
7
  6
CONTINUOUS
 10
48.5049915673
 20
135.329547267
 40
3.2267146076
100
AcDbArc
 50
0.1361261289
 51
20.0727504596
  0
ARC
  5
532
100
AcDbEntity
  8
3_AXES_OTHER
100
AcDbCircle
 62
7
  6
CONTINUOUS
 10
48.5082400186
 20
135.3302843219
 40
3.2234661779
100
AcDbArc
 50
354.2122292948
 51
359.9880687825
  0
ARC
  5
533
100
AcDbEntity
  8
3_AXES_OTHER
100
AcDbCircle
 62
7
  6
CONTINUOUS
 10
48.5122575606
 20
135.3277861608
 40
3.2192160003
100
AcDbArc
 50
339.9156953511
 51
354.1313919533
  0
CIRCLE
  5
534
100
AcDbEntity
  8
7_ALL_ROUNDS
100
AcDbCircle
 62
9
  6
CONTINUOUS
 10
59.6416695969
 20
116.8721252153
 40
2.3543307087
  0
CIRCLE
  5
535
100
AcDbEntity
  8
7_ALL_ROUNDS
100
AcDbCircle
 62
7
  6
CONTINUOUS
 10
59.6416695969
 20
116.8721252153
 40
2.0
  0
ARC
  5
536
100
AcDbEntity
  8
7_ALL_ROUNDS
100
AcDbCircle
 62
7
  6
CONTINUOUS
 10
62.9816695969
 20
123.0966921444
 40
0.5
100
AcDbArc
 50
270.0
 51
360.0
  0
ARC
  5
537
100
AcDbEntity
  8
7_ALL_ROUNDS
100
AcDbCircle
 62
7
  6
CONTINUOUS
 10
63.9954491244
 20
122.1083456877
 40
0.2362204724
100
AcDbArc
 50
270.0
 51
360.0
  0
ARC
  5
538
100
AcDbEntity
  8
7_ALL_ROUNDS
100
AcDbCircle
 62
7
  6
CONTINUOUS
 10
63.9954491244
 20
121.6359047429
 40
0.2362204724
100
AcDbArc
 50
0.0
 51
90.0
  0
CIRCLE
  5
539
100
AcDbEntity
  8
3_AXES_OTHER
100
AcDbCircle
 62
7
  6
CONTINUOUS
 10
62.9816695969
 20
130.596985516
 40
0.1065
  0
CIRCLE
  5
53A
100
AcDbEntity
  8
3_AXES_OTHER
100
AcDbCircle
 62
7
  6
CONTINUOUS
 10
62.9816695969
 20
123.476985516
 40
0.1065
  0
ARC
  5
53B
100
AcDbEntity
  8
7_ALL_ROUNDS
100
AcDbCircle
 62
7
  6
CONTINUOUS
 10
62.9816695969
 20
144.966985516
 40
0.5
100
AcDbArc
 50
0.0
 51
90.0
  0
ARC
  5
53C
100
AcDbEntity
  8
7_ALL_ROUNDS
100
AcDbCircle
 62
7
  6
CONTINUOUS
 10
63.9954491244
 20
161.6359047429
 40
0.2362204724
100
AcDbArc
 50
0.0
 51
90.0
  0
CIRCLE
  5
53D
100
AcDbEntity
  8
3_AXES_OTHER
100
AcDbCircle
 62
7
  6
CONTINUOUS
 10
62.9816695969
 20
144.836985516
 40
0.1065
  0
CIRCLE
  5
53E
100
AcDbEntity
  8
3_AXES_OTHER
100
AcDbCircle
 62
7
  6
CONTINUOUS
 10
62.9816695969
 20
137.716985516
 40
0.1065
  0
CIRCLE
  5
53F
100
AcDbEntity
  8
0
100
AcDbCircle
 62
7
  6
CONTINUOUS
 10
34.2316695969
 20
193.7721806164
 40
0.4330708661
  0
ARC
  5
540
100
AcDbEntity
  8
7_ALL_ROUNDS
100
AcDbCircle
 62
7
  6
CONTINUOUS
 10
32.9678900693
 20
191.0084010888
 40
0.2362204724
100
AcDbArc
 50
180.0
 51
270.0
  0
CIRCLE
  5
541
100
AcDbEntity
  8
0
100
AcDbCircle
 62
7
  6
CONTINUOUS
 10
34.2316695969
 20
193.7721806164
 40
0.2165354331
  0
CIRCLE
  5
542
100
AcDbEntity
  8
0
100
AcDbCircle
 62
7
  6
CONTINUOUS
 10
34.2316695969
 20
206.7721806164
 40
0.4330708661
  0
ARC
  5
543
100
AcDbEntity
  8
7_ALL_ROUNDS
100
AcDbCircle
 62
7
  6
CONTINUOUS
 10
32.9678900693
 20
209.5359601439
 40
0.2362204724
100
AcDbArc
 50
90.0
 51
180.0
  0
CIRCLE
  5
544
100
AcDbEntity
  8
0
100
AcDbCircle
 62
7
  6
CONTINUOUS
 10
34.2316695969
 20
206.7721806164
 40
0.2165354331
  0
CIRCLE
  5
545
100
AcDbEntity
  8
0
100
AcDbCircle
 62
7
  6
CONTINUOUS
 10
62.7316695969
 20
193.7721806164
 40
0.4330708661
  0
ARC
  5
546
100
AcDbEntity
  8
7_ALL_ROUNDS
100
AcDbCircle
 62
7
  6
CONTINUOUS
 10
63.9954491244
 20
191.0084010888
 40
0.2362204724
100
AcDbArc
 50
270.0
 51
360.0
  0
CIRCLE
  5
547
100
AcDbEntity
  8
0
100
AcDbCircle
 62
7
  6
CONTINUOUS
 10
62.7316695969
 20
193.7721806164
 40
0.2165354331
  0
CIRCLE
  5
548
100
AcDbEntity
  8
0
100
AcDbCircle
 62
7
  6
CONTINUOUS
 10
62.7316695969
 20
206.7721806164
 40
0.4330708661
  0
CIRCLE
  5
549
100
AcDbEntity
  8
0
100
AcDbCircle
 62
7
  6
CONTINUOUS
 10
62.7316695969
 20
206.7721806164
 40
0.2165354331
  0
ARC
  5
54A
100
AcDbEntity
  8
7_ALL_ROUNDS
100
AcDbCircle
 62
7
  6
CONTINUOUS
 10
63.9954491244
 20
209.5359601439
 40
0.2362204724
100
AcDbArc
 50
0.0
 51
90.0
  0
CIRCLE
  5
54B
100
AcDbEntity
  8
0
100
AcDbCircle
 62
7
  6
CONTINUOUS
 10
103.7331663984
 20
123.3721252153
 40
0.4330708661
  0
CIRCLE
  5
54C
100
AcDbEntity
  8
0
100
AcDbCircle
 62
7
  6
CONTINUOUS
 10
103.7331663984
 20
83.3721252153
 40
0.4330708661
  0
CIRCLE
  5
54D
100
AcDbEntity
  8
0
100
AcDbCircle
 62
7
  6
CONTINUOUS
 10
103.7331663984
 20
120.3721252153
 40
0.4330708661
  0
ARC
  5
54E
100
AcDbEntity
  8
7_ALL_ROUNDS
100
AcDbCircle
 62
7
  6
CONTINUOUS
 10
100.9693868708
 20
122.1083456877
 40
0.2362204724
100
AcDbArc
 50
180.0
 51
270.0
  0
ARC
  5
54F
100
AcDbEntity
  8
7_ALL_ROUNDS
100
AcDbCircle
 62
7
  6
CONTINUOUS
 10
100.9693868708
 20
82.1083456877
 40
0.2362204724
100
AcDbArc
 50
180.0
 51
270.0
  0
ARC
  5
550
100
AcDbEntity
  8
7_ALL_ROUNDS
100
AcDbCircle
 62
7
  6
CONTINUOUS
 10
100.9693868708
 20
121.6359047429
 40
0.2362204724
100
AcDbArc
 50
90.0
 51
180.0
  0
CIRCLE
  5
551
100
AcDbEntity
  8
0
100
AcDbCircle
 62
7
  6
CONTINUOUS
 10
103.7331663984
 20
123.3721252153
 40
0.2165354331
  0
CIRCLE
  5
552
100
AcDbEntity
  8
0
100
AcDbCircle
 62
7
  6
CONTINUOUS
 10
103.7331663984
 20
120.3721252153
 40
0.2165354331
  0
CIRCLE
  5
553
100
AcDbEntity
  8
0
100
AcDbCircle
 62
7
  6
CONTINUOUS
 10
103.7331663984
 20
83.3721252153
 40
0.2165354331
  0
ARC
  5
554
100
AcDbEntity
  8
7_ALL_ROUNDS
100
AcDbCircle
 62
9
  6
CONTINUOUS
 10
108.0141027869
 20
152.3721252153
 40
4.9552840839
100
AcDbArc
 50
354.6724519
 51
5.3275481
  0
ARC
  5
555
100
AcDbEntity
  8
7_ALL_ROUNDS
100
AcDbCircle
 62
7
  6
CONTINUOUS
 10
108.0141027869
 20
152.3721252153
 40
4.7190636115
100
AcDbArc
 50
354.6724519
 51
5.3275481
  0
ARC
  5
556
100
AcDbEntity
  8
7_ALL_ROUNDS
100
AcDbCircle
 62
9
  6
CONTINUOUS
 10
107.9887519873
 20
152.7883541803
 40
0.4724409449
100
AcDbArc
 50
94.9774408433
 51
174.6724519
  0
ARC
  5
557
100
AcDbEntity
  8
7_ALL_ROUNDS
100
AcDbCircle
 62
9
  6
CONTINUOUS
 10
107.9887519873
 20
151.9558962503
 40
0.4724409449
100
AcDbArc
 50
185.3275481
 51
265.0225591567
  0
CIRCLE
  5
558
100
AcDbEntity
  8
0
100
AcDbCircle
 62
7
  6
CONTINUOUS
 10
103.7331663984
 20
160.3721252153
 40
0.4330708661
  0
ARC
  5
559
100
AcDbEntity
  8
7_ALL_ROUNDS
100
AcDbCircle
 62
7
  6
CONTINUOUS
 10
107.9887519873
 20
151.9558962503
 40
0.2362204724
100
AcDbArc
 50
185.3275481
 51
265.0225591567
  0
ARC
  5
55A
100
AcDbEntity
  8
7_ALL_ROUNDS
100
AcDbCircle
 62
7
  6
CONTINUOUS
 10
107.9887519873
 20
152.7883541803
 40
0.2362204724
100
AcDbArc
 50
94.9774408433
 51
174.6724519
  0
ARC
  5
55B
100
AcDbEntity
  8
7_ALL_ROUNDS
100
AcDbCircle
 62
7
  6
CONTINUOUS
 10
100.9693868708
 20
161.6359047429
 40
0.2362204724
100
AcDbArc
 50
90.0
 51
180.0
  0
CIRCLE
  5
55C
100
AcDbEntity
  8
0
100
AcDbCircle
 62
7
  6
CONTINUOUS
 10
103.7331663984
 20
160.3721252153
 40
0.2165354331
  0
ARC
  5
55D
100
AcDbEntity
  8
7_ALL_ROUNDS
100
AcDbCircle
 62
9
  6
CONTINUOUS
 10
110.2331663984
 20
127.0177189158
 40
26.3406267719
100
AcDbArc
 50
85.0225591567
 51
94.9774408433
  0
ARC
  5
55E
100
AcDbEntity
  8
7_ALL_ROUNDS
100
AcDbCircle
 62
7
  6
CONTINUOUS
 10
110.2331663984
 20
127.0177189158
 40
26.1044062995
100
AcDbArc
 50
85.0225591567
 51
94.9774408433
  0
CIRCLE
  5
55F
100
AcDbEntity
  8
0
100
AcDbCircle
 62
7
  6
CONTINUOUS
 10
116.7331663984
 20
123.3721252153
 40
0.4330708661
  0
CIRCLE
  5
560
100
AcDbEntity
  8
0
100
AcDbCircle
 62
7
  6
CONTINUOUS
 10
116.7331663984
 20
83.3721252153
 40
0.4330708661
  0
CIRCLE
  5
561
100
AcDbEntity
  8
0
100
AcDbCircle
 62
7
  6
CONTINUOUS
 10
116.7331663984
 20
120.3721252153
 40
0.4330708661
  0
ARC
  5
562
100
AcDbEntity
  8
7_ALL_ROUNDS
100
AcDbCircle
 62
7
  6
CONTINUOUS
 10
119.4969459259
 20
122.1083456877
 40
0.2362204724
100
AcDbArc
 50
270.0
 51
360.0
  0
ARC
  5
563
100
AcDbEntity
  8
7_ALL_ROUNDS
100
AcDbCircle
 62
7
  6
CONTINUOUS
 10
119.4969459259
 20
82.1083456877
 40
0.2362204724
100
AcDbArc
 50
270.0
 51
360.0
  0
ARC
  5
564
100
AcDbEntity
  8
7_ALL_ROUNDS
100
AcDbCircle
 62
7
  6
CONTINUOUS
 10
119.4969459259
 20
121.6359047429
 40
0.2362204724
100
AcDbArc
 50
0.0
 51
90.0
  0
CIRCLE
  5
565
100
AcDbEntity
  8
0
100
AcDbCircle
 62
7
  6
CONTINUOUS
 10
116.7331663984
 20
123.3721252153
 40
0.2165354331
  0
CIRCLE
  5
566
100
AcDbEntity
  8
0
100
AcDbCircle
 62
7
  6
CONTINUOUS
 10
116.7331663984
 20
120.3721252153
 40
0.2165354331
  0
CIRCLE
  5
567
100
AcDbEntity
  8
0
100
AcDbCircle
 62
7
  6
CONTINUOUS
 10
116.7331663984
 20
83.3721252153
 40
0.2165354331
  0
ARC
  5
568
100
AcDbEntity
  8
7_ALL_ROUNDS
100
AcDbCircle
 62
9
  6
CONTINUOUS
 10
110.2331663984
 20
177.7265315148
 40
26.3406267719
100
AcDbArc
 50
265.0225591567
 51
274.9774408433
  0
ARC
  5
569
100
AcDbEntity
  8
7_ALL_ROUNDS
100
AcDbCircle
 62
7
  6
CONTINUOUS
 10
110.2331663984
 20
177.7265315148
 40
26.1044062995
100
AcDbArc
 50
265.0225591567
 51
274.9774408433
  0
ARC
  5
56A
100
AcDbEntity
  8
7_ALL_ROUNDS
100
AcDbCircle
 62
9
  6
CONTINUOUS
 10
112.4522300098
 20
152.3721252153
 40
4.9552840839
100
AcDbArc
 50
174.6724519
 51
185.3275481
  0
ARC
  5
56B
100
AcDbEntity
  8
7_ALL_ROUNDS
100
AcDbCircle
 62
7
  6
CONTINUOUS
 10
112.4522300098
 20
152.3721252153
 40
4.7190636115
100
AcDbArc
 50
174.6724519
 51
185.3275481
  0
ARC
  5
56C
100
AcDbEntity
  8
7_ALL_ROUNDS
100
AcDbCircle
 62
9
  6
CONTINUOUS
 10
112.4775808095
 20
152.7883541803
 40
0.4724409449
100
AcDbArc
 50
5.3275481
 51
85.0225591567
  0
ARC
  5
56D
100
AcDbEntity
  8
7_ALL_ROUNDS
100
AcDbCircle
 62
9
  6
CONTINUOUS
 10
112.4775808095
 20
151.9558962503
 40
0.4724409449
100
AcDbArc
 50
274.9774408433
 51
354.6724519
  0
CIRCLE
  5
56E
100
AcDbEntity
  8
0
100
AcDbCircle
 62
7
  6
CONTINUOUS
 10
116.7331663984
 20
160.3721252153
 40
0.4330708661
  0
ARC
  5
56F
100
AcDbEntity
  8
7_ALL_ROUNDS
100
AcDbCircle
 62
7
  6
CONTINUOUS
 10
112.4775808095
 20
151.9558962503
 40
0.2362204724
100
AcDbArc
 50
274.9774408433
 51
354.6724519
  0
ARC
  5
570
100
AcDbEntity
  8
7_ALL_ROUNDS
100
AcDbCircle
 62
7
  6
CONTINUOUS
 10
112.4775808095
 20
152.7883541803
 40
0.2362204724
100
AcDbArc
 50
5.3275481
 51
85.0225591567
  0
ARC
  5
571
100
AcDbEntity
  8
7_ALL_ROUNDS
100
AcDbCircle
 62
7
  6
CONTINUOUS
 10
119.4969459259
 20
161.6359047429
 40
0.2362204724
100
AcDbArc
 50
0.0
 51
90.0
  0
CIRCLE
  5
572
100
AcDbEntity
  8
0
100
AcDbCircle
 62
7
  6
CONTINUOUS
 10
116.7331663984
 20
160.3721252153
 40
0.2165354331
  0
SPLINE
  5
573
100
AcDbEntity
  8
0
100
AcDbSpline
 62
7
  6
CONTINUOUS
 70
0
 71
3
 72
11
 73
7
 74
0
 42
0.0000001
 43
0.0000001
 44
0.0000000001
 40
0.0
 40
0.0
 40
0.0
 40
0.0
 40
0.2507056669
 40
0.5005171571
 40
0.7500459977
 40
1.0
 40
1.0
 40
1.0
 40
1.0
 10
196.0565493149
 20
124.3296539281
 30
0.0
 10
196.1018812861
 20
124.2764501399
 30
0.0
 10
196.1773241803
 20
124.1564458274
 30
0.0
 10
196.2358016354
 20
123.9527409692
 30
0.0
 10
196.232922323
 20
123.7410292621
 30
0.0
 10
196.1915697597
 20
123.6057228661
 30
0.0
 10
196.1617468128
 20
123.5427389769
 30
0.0
  0
SPLINE
  5
574
100
AcDbEntity
  8
0
100
AcDbSpline
 62
7
  6
CONTINUOUS
 70
0
 71
3
 72
11
 73
7
 74
0
 42
0.0000001
 43
0.0000001
 44
0.0000000001
 40
0.0
 40
0.0
 40
0.0
 40
0.0
 40
0.2493860016
 40
0.5
 40
0.7506139984
 40
1.0
 40
1.0
 40
1.0
 40
1.0
 10
194.9074826256
 20
124.329653929
 30
0.0
 10
194.9772754616
 20
124.4115661679
 30
0.0
 10
195.1558764206
 20
124.5465003959
 30
0.0
 10
195.4820159705
 20
124.6170471464
 30
0.0
 10
195.8081555203
 20
124.5465003954
 30
0.0
 10
195.9867564791
 20
124.4115661671
 30
0.0
 10
196.0565493149
 20
124.3296539281
 30
0.0
  0
SPLINE
  5
575
100
AcDbEntity
  8
0
100
AcDbSpline
 62
7
  6
CONTINUOUS
 70
0
 71
3
 72
11
 73
7
 74
0
 42
0.0000001
 43
0.0000001
 44
0.0000000001
 40
0.0
 40
0.0
 40
0.0
 40
0.0
 40
0.2499540023
 40
0.4994828429
 40
0.7492943331
 40
1.0
 40
1.0
 40
1.0
 40
1.0
 10
194.8022851268
 20
123.5427389773
 30
0.0
 10
194.77246218
 20
123.6057228666
 30
0.0
 10
194.7311096167
 20
123.7410292628
 30
0.0
 10
194.7282303045
 20
123.95274097
 30
0.0
 10
194.78670776
 20
124.1564458283
 30
0.0
 10
194.8621506544
 20
124.2764501408
 30
0.0
 10
194.9074826256
 20
124.329653929
 30
0.0
  0
SPLINE
  5
576
100
AcDbEntity
  8
0
100
AcDbSpline
 62
7
  6
CONTINUOUS
 70
0
 71
3
 72
15
 73
11
 74
0
 42
0.0000001
 43
0.0000001
 44
0.0000000001
 40
0.0
 40
0.0
 40
0.0
 40
0.0
 40
0.12431449
 40
0.2491106961
 40
0.3744093628
 40
0.5
 40
0.6255906372
 40
0.7508893039
 40
0.87568551
 40
1.0
 40
1.0
 40
1.0
 40
1.0
 10
196.1617468128
 20
123.5427389769
 30
0.0
 10
196.1318247988
 20
123.4795458648
 30
0.0
 10
196.0528467305
 20
123.3611410979
 30
0.0
 10
195.8901743069
 20
123.2231777714
 30
0.0
 10
195.6943580608
 20
123.1365700741
 30
0.0
 10
195.4820159697
 20
123.1061253506
 30
0.0
 10
195.2696738786
 20
123.1365700743
 30
0.0
 10
195.0738576326
 20
123.2231777717
 30
0.0
 10
194.911185209
 20
123.3611410982
 30
0.0
 10
194.8322071408
 20
123.4795458652
 30
0.0
 10
194.8022851268
 20
123.5427389773
 30
0.0
  0
SPLINE
  5
577
100
AcDbEntity
  8
3_AXES_OTHER
100
AcDbSpline
 62
7
  6
CONTINUOUS
 70
0
 71
3
 72
11
 73
7
 74
0
 42
0.0000001
 43
0.0000001
 44
0.0000000001
 40
0.0
 40
0.0
 40
0.0
 40
0.0
 40
0.2542274193
 40
0.5111243565
 40
0.7624520162
 40
1.0
 40
1.0
 40
1.0
 40
1.0
 10
195.4820159699
 20
106.9852033031
 30
0.0
 10
195.2900906951
 20
106.9852033031
 30
0.0
 10
194.9033699879
 20
106.9509855213
 30
0.0
 10
194.3451649454
 20
106.798815466
 30
0.0
 10
193.8339281777
 20
106.5563501835
 30
0.0
 10
193.5305298877
 20
106.3427593581
 30
0.0
 10
193.3929347869
 20
106.2277461024
 30
0.0
  0
SPLINE
  5
578
100
AcDbEntity
  8
3_AXES_OTHER
100
AcDbSpline
 62
7
  6
CONTINUOUS
 70
0
 71
3
 72
11
 73
7
 74
0
 42
0.0000001
 43
0.0000001
 44
0.0000000001
 40
0.0
 40
0.0
 40
0.0
 40
0.0
 40
0.2375479838
 40
0.4888756435
 40
0.7457725807
 40
1.0
 40
1.0
 40
1.0
 40
1.0
 10
197.5710971449
 20
106.2277460956
 30
0.0
 10
197.4335020451
 20
106.3427593515
 30
0.0
 10
197.1301037567
 20
106.5563501774
 30
0.0
 10
196.618866991
 20
106.7988154602
 30
0.0
 10
196.0606619502
 20
106.9509855157
 30
0.0
 10
195.6739412441
 20
106.9852032976
 30
0.0
 10
195.4820159699
 20
106.9852032976
 30
0.0
  0
LINE
  5
579
100
AcDbEntity
  8
3_AXES_OTHER
100
AcDbLine
 62
7
  6
CONTINUOUS
 10
198.7320434411
 20
103.7551152078
 11
198.7320524996
 21
103.7475148313
  0
SPLINE
  5
57A
100
AcDbEntity
  8
3_AXES_OTHER
100
AcDbSpline
 62
7
  6
CONTINUOUS
 70
0
 71
3
 72
11
 73
7
 74
0
 42
0.0000001
 43
0.0000001
 44
0.0000000001
 40
0.0
 40
0.0
 40
0.0
 40
0.0
 40
0.2498323664
 40
0.4997791674
 40
0.7498989355
 40
1.0
 40
1.0
 40
1.0
 40
1.0
 10
193.3989524305
 20
101.2732917808
 30
0.0
 10
193.5434459774
 20
101.1530831582
 30
0.0
 10
193.8541387905
 20
100.9373704193
 30
0.0
 10
194.3686479902
 20
100.6993110373
 30
0.0
 10
194.9167181918
 20
100.5535645423
 30
0.0
 10
195.2938550508
 20
100.5208166473
 30
0.0
 10
195.4820159699
 20
100.5208166473
 30
0.0
  0
LINE
  5
57B
100
AcDbEntity
  8
3_AXES_OTHER
100
AcDbLine
 62
7
  6
CONTINUOUS
 10
192.2319794402
 20
103.7475860102
 11
192.2319880042
 21
103.7549057795
  0
SPLINE
  5
57C
100
AcDbEntity
  8
3_AXES_OTHER
100
AcDbSpline
 62
7
  6
CONTINUOUS
 70
0
 71
3
 72
11
 73
7
 74
0
 42
0.0000001
 43
0.0000001
 44
0.0000000001
 40
0.0
 40
0.0
 40
0.0
 40
0.0
 40
0.2498323664
 40
0.4997791674
 40
0.7498989355
 40
1.0
 40
1.0
 40
1.0
 40
1.0
 10
197.5650795098
 20
101.2732917811
 30
0.0
 10
197.4205859628
 20
101.1530831585
 30
0.0
 10
197.1098931497
 20
100.9373704195
 30
0.0
 10
196.5953839499
 20
100.6993110374
 30
0.0
 10
196.0473137482
 20
100.5535645423
 30
0.0
 10
195.670176889
 20
100.5208166473
 30
0.0
 10
195.4820159699
 20
100.5208166473
 30
0.0
  0
SPLINE
  5
57D
100
AcDbEntity
  8
3_AXES_OTHER
100
AcDbSpline
 62
9
  6
CONTINUOUS
 70
0
 71
3
 72
9
 73
5
 74
0
 42
0.0000001
 43
0.0000001
 44
0.0000000001
 40
0.0
 40
0.0
 40
0.0
 40
0.0
 40
0.240109831
 40
1.0
 40
1.0
 40
1.0
 40
1.0
 10
198.5360169875
 20
104.8548905719
 30
0.0
 10
198.7948371483
 20
104.8825075143
 30
0.0
 10
199.8714246501
 20
105.0099508897
 30
0.0
 10
200.9421899509
 20
105.1847746663
 30
0.0
 10
201.7514102118
 20
105.3388288261
 30
0.0
  0
SPLINE
  5
57E
100
AcDbEntity
  8
3_AXES_OTHER
100
AcDbSpline
 62
9
  6
CONTINUOUS
 70
0
 71
3
 72
9
 73
5
 74
0
 42
0.0000001
 43
0.0000001
 44
0.0000000001
 40
0.0
 40
0.0
 40
0.0
 40
0.0
 40
0.478370495
 40
1.0
 40
1.0
 40
1.0
 40
1.0
 10
201.7514102118
 20
105.3388288261
 30
0.0
 10
202.7797710604
 20
105.5346015645
 30
0.0
 10
204.9160779401
 20
106.0156864705
 30
0.0
 10
207.0230781098
 20
106.6101103054
 30
0.0
 10
208.1147199866
 20
106.9437691854
 30
0.0
  0
SPLINE
  5
57F
100
AcDbEntity
  8
3_AXES_OTHER
100
AcDbSpline
 62
9
  6
CONTINUOUS
 70
0
 71
3
 72
9
 73
5
 74
0
 42
0.0000001
 43
0.0000001
 44
0.0000000001
 40
0.0
 40
0.0
 40
0.0
 40
0.0
 40
0.475811529
 40
1.0
 40
1.0
 40
1.0
 40
1.0
 10
201.5810162752
 20
101.5415297793
 30
0.0
 10
202.7885310471
 20
101.0823693443
 30
0.0
 10
205.3087662193
 20
100.0709421101
 30
0.0
 10
207.7990897315
 20
98.9885165888
 30
0.0
 10
209.0978592063
 20
98.4065056396
 30
0.0
  0
SPLINE
  5
580
100
AcDbEntity
  8
3_AXES_OTHER
100
AcDbSpline
 62
7
  6
CONTINUOUS
 70
0
 71
3
 72
11
 73
7
 74
0
 42
0.0000001
 43
0.0000001
 44
0.0000000001
 40
0.0
 40
0.0
 40
0.0
 40
0.0
 40
0.2542274193
 40
0.5111243565
 40
0.7624520162
 40
1.0
 40
1.0
 40
1.0
 40
1.0
 10
195.4820159699
 20
100.5098968083
 30
0.0
 10
195.6739412446
 20
100.5098968083
 30
0.0
 10
196.0606619516
 20
100.54411459
 30
0.0
 10
196.6188669939
 20
100.6962846452
 30
0.0
 10
197.1301037613
 20
100.9387499275
 30
0.0
 10
197.4335020513
 20
101.1523407528
 30
0.0
 10
197.571097152
 20
101.2673540084
 30
0.0
  0
SPLINE
  5
581
100
AcDbEntity
  8
3_AXES_OTHER
100
AcDbSpline
 62
9
  6
CONTINUOUS
 70
0
 71
3
 72
9
 73
5
 74
0
 42
0.0000001
 43
0.0000001
 44
0.0000000001
 40
0.0
 40
0.0
 40
0.0
 40
0.0
 40
0.2381286368
 40
1.0
 40
1.0
 40
1.0
 40
1.0
 10
197.5710757014
 20
101.2673843569
 30
0.0
 10
197.675938675
 20
101.0311445528
 30
0.0
 10
198.1479793867
 20
100.0531750253
 30
0.0
 10
198.7390928855
 20
99.1349515694
 30
0.0
 10
199.2331519853
 20
98.4718211384
 30
0.0
  0
SPLINE
  5
582
100
AcDbEntity
  8
3_AXES_OTHER
100
AcDbSpline
 62
9
  6
CONTINUOUS
 70
0
 71
3
 72
11
 73
7
 74
0
 42
0.0000001
 43
0.0000001
 44
0.0000000001
 40
0.0
 40
0.0
 40
0.0
 40
0.0
 40
0.2238583699
 40
0.4642961155
 40
0.7226505665
 40
1.0
 40
1.0
 40
1.0
 40
1.0
 10
199.2331519853
 20
98.4718211384
 30
0.0
 10
199.5755865714
 20
98.0122024515
 30
0.0
 10
200.3313916871
 20
97.0923675499
 30
0.0
 10
201.6172067211
 20
95.7597453496
 30
0.0
 10
203.0932694689
 20
94.4272307695
 30
0.0
 10
204.1650874148
 20
93.5700737134
 30
0.0
 10
204.73060539
 20
93.1405939052
 30
0.0
  0
SPLINE
  5
583
100
AcDbEntity
  8
0
100
AcDbSpline
 62
7
  6
CONTINUOUS
 70
0
 71
3
 72
17
 73
13
 74
0
 42
0.0000001
 43
0.0000001
 44
0.0000000001
 40
0.0
 40
0.0
 40
0.0
 40
0.0
 40
0.1249991687
 40
0.1875594338
 40
0.2501229779
 40
0.3750886059
 40
0.5000376267
 40
0.5626055733
 40
0.6251746246
 40
0.7501080396
 40
0.8750442911
 40
1.0
 40
1.0
 40
1.0
 40
1.0
 10
209.0978591929
 20
98.4065057497
 30
0.0
 10
209.1369447499
 20
98.0856585114
 30
0.0
 10
209.1527091663
 20
97.5973972492
 30
0.0
 10
209.0832508289
 20
96.9536459113
 30
0.0
 10
208.9525547046
 20
96.3193854929
 30
0.0
 10
208.671314074
 20
95.5556456392
 30
0.0
 10
208.2365984731
 20
94.8664406476
 30
0.0
 10
207.8041164347
 20
94.3839912588
 30
0.0
 10
207.3202349647
 20
93.9533148533
 30
0.0
 10
206.6276218862
 20
93.5224307312
 30
0.0
 10
205.7022226276
 20
93.2089308438
 30
0.0
 10
205.0537122133
 20
93.1405939052
 30
0.0
 10
204.7306054217
 20
93.1405939052
 30
0.0
  0
SPLINE
  5
584
100
AcDbEntity
  8
0
100
AcDbSpline
 62
7
  6
CONTINUOUS
 70
0
 71
3
 72
10
 73
6
 74
0
 42
0.0000001
 43
0.0000001
 44
0.0000000001
 40
0.0
 40
0.0
 40
0.0
 40
0.0
 40
0.4999983502
 40
0.7499991296
 40
1.0
 40
1.0
 40
1.0
 40
1.0
 10
208.1147200293
 20
106.9437687793
 30
0.0
 10
208.2619184091
 20
105.5190596814
 30
0.0
 10
208.4991225859
 20
103.3836676609
 30
0.0
 10
208.838434144
 20
100.5392407984
 30
0.0
 10
209.0112579691
 20
99.1174016831
 30
0.0
 10
209.0978591929
 20
98.4065057497
 30
0.0
  0
SPLINE
  5
585
100
AcDbEntity
  8
0
100
AcDbSpline
 62
7
  6
CONTINUOUS
 70
0
 71
3
 72
15
 73
11
 74
0
 42
0.0000001
 43
0.0000001
 44
0.0000000001
 40
0.0
 40
0.0
 40
0.0
 40
0.0
 40
0.1249991583
 40
0.2500017707
 40
0.3750125288
 40
0.5000231118
 40
0.6250303802
 40
0.7500321126
 40
0.8750200731
 40
1.0
 40
1.0
 40
1.0
 40
1.0
 10
203.0219727654
 20
111.3392318676
 30
0.0
 10
203.3282503241
 20
111.3447906759
 30
0.0
 10
203.943286312
 20
111.2959195786
 30
0.0
 10
204.8354236756
 20
111.0560574841
 30
0.0
 10
205.670198723
 20
110.6603047394
 30
0.0
 10
206.4243970624
 20
110.1267643475
 30
0.0
 10
207.0705523547
 20
109.4663332795
 30
0.0
 10
207.589646453
 20
108.7016915542
 30
0.0
 10
207.9551535566
 20
107.8526537405
 30
0.0
 10
208.0832431971
 20
107.2484279012
 30
0.0
 10
208.1147200293
 20
106.9437687793
 30
0.0
  0
SPLINE
  5
586
100
AcDbEntity
  8
0
100
AcDbSpline
 62
7
  6
CONTINUOUS
 70
0
 71
3
 72
9
 73
5
 74
0
 42
0.0000001
 43
0.0000001
 44
0.0000000001
 40
0.0
 40
0.0
 40
0.0
 40
0.0
 40
0.4999991469
 40
1.0
 40
1.0
 40
1.0
 40
1.0
 10
195.4820159699
 20
111.2598872768
 30
0.0
 10
196.7387571622
 20
111.2598872768
 30
0.0
 10
199.2522671669
 20
111.2750025218
 30
0.0
 10
201.7654342241
 20
111.316426224
 30
0.0
 10
203.0219727654
 20
111.3392318676
 30
0.0
  0
SPLINE
  5
587
100
AcDbEntity
  8
0
100
AcDbSpline
 62
7
  6
CONTINUOUS
 70
0
 71
3
 72
9
 73
5
 74
0
 42
0.0000001
 43
0.0000001
 44
0.0000000001
 40
0.0
 40
0.0
 40
0.0
 40
0.0
 40
0.5000008531
 40
1.0
 40
1.0
 40
1.0
 40
1.0
 10
187.9420591451
 20
111.3392318681
 30
0.0
 10
189.1985976913
 20
111.3164262244
 30
0.0
 10
191.7117647582
 20
111.2750025221
 30
0.0
 10
194.2252747728
 20
111.2598872768
 30
0.0
 10
195.4820159699
 20
111.2598872768
 30
0.0
  0
SPLINE
  5
588
100
AcDbEntity
  8
0
100
AcDbSpline
 62
7
  6
CONTINUOUS
 70
0
 71
3
 72
15
 73
11
 74
0
 42
0.0000001
 43
0.0000001
 44
0.0000000001
 40
0.0
 40
0.0
 40
0.0
 40
0.0
 40
0.12498037
 40
0.2499687809
 40
0.3749705892
 40
0.4999774839
 40
0.6249875466
 40
0.7499981336
 40
0.8750008785
 40
1.0
 40
1.0
 40
1.0
 40
1.0
 10
182.8493119153
 20
106.9437688242
 30
0.0
 10
182.8807889042
 20
107.248429018
 30
0.0
 10
183.0088784107
 20
107.8526572318
 30
0.0
 10
183.3743888024
 20
108.7016962687
 30
0.0
 10
183.8934830861
 20
109.4663382021
 30
0.0
 10
184.539638016
 20
110.1267669193
 30
0.0
 10
185.2938347732
 20
110.6603048015
 30
0.0
 10
186.1286082678
 20
111.0560574899
 30
0.0
 10
187.0207454668
 20
111.2959196506
 30
0.0
 10
187.6357816801
 20
111.3447906747
 30
0.0
 10
187.9420591451
 20
111.3392318681
 30
0.0
  0
SPLINE
  5
589
100
AcDbEntity
  8
0
100
AcDbSpline
 62
7
  6
CONTINUOUS
 70
0
 71
3
 72
10
 73
6
 74
0
 42
0.0000001
 43
0.0000001
 44
0.0000000001
 40
0.0
 40
0.0
 40
0.0
 40
0.0
 40
0.2500008706
 40
0.5000016501
 40
1.0
 40
1.0
 40
1.0
 40
1.0
 10
181.8661727492
 20
98.406505769
 30
0.0
 10
181.9527739965
 20
99.1174017021
 30
0.0
 10
182.1255978368
 20
100.5392408207
 30
0.0
 10
182.4649094788
 20
103.3836676832
 30
0.0
 10
182.7021133223
 20
105.5190597449
 30
0.0
 10
182.8493119153
 20
106.9437688242
 30
0.0
  0
SPLINE
  5
58A
100
AcDbEntity
  8
0
100
AcDbSpline
 62
7
  6
CONTINUOUS
 70
0
 71
3
 72
17
 73
13
 74
0
 42
0.0000001
 43
0.0000001
 44
0.0000000001
 40
0.0
 40
0.0
 40
0.0
 40
0.0
 40
0.1249557339
 40
0.2498920386
 40
0.3748256658
 40
0.4373948875
 40
0.4999630665
 40
0.6249124258
 40
0.7498779169
 40
0.8124412161
 40
0.8750012593
 40
1.0
 40
1.0
 40
1.0
 40
1.0
 10
186.2334265178
 20
93.1405939052
 30
0.0
 10
185.9103196611
 20
93.1405939052
 30
0.0
 10
185.2618090102
 20
93.2089307997
 30
0.0
 10
184.3364091791
 20
93.5224312
 30
0.0
 10
183.6437949175
 20
93.9533157506
 30
0.0
 10
183.159913077
 20
94.3839941409
 30
0.0
 10
182.7274298641
 20
94.8664450317
 30
0.0
 10
182.292714762
 20
95.5556518353
 30
0.0
 10
182.0114756706
 20
96.3193919998
 30
0.0
 10
181.8807798225
 20
96.9536509068
 30
0.0
 10
181.8113235022
 20
97.597400132
 30
0.0
 10
181.8270873156
 20
98.08565963
 30
0.0
 10
181.8661727492
 20
98.406505769
 30
0.0
  0
SPLINE
  5
58B
100
AcDbEntity
  8
3_AXES_OTHER
100
AcDbSpline
 62
9
  6
CONTINUOUS
 70
0
 71
3
 72
9
 73
5
 74
0
 42
0.0000001
 43
0.0000001
 44
0.0000000001
 40
0.0
 40
0.0
 40
0.0
 40
0.0
 40
0.475811529
 40
1.0
 40
1.0
 40
1.0
 40
1.0
 10
189.3830156646
 20
101.5415297793
 30
0.0
 10
188.1755008927
 20
101.0823693443
 30
0.0
 10
185.6552657205
 20
100.0709421101
 30
0.0
 10
183.1649422084
 20
98.9885165888
 30
0.0
 10
181.8661727335
 20
98.4065056396
 30
0.0
  0
SPLINE
  5
58C
100
AcDbEntity
  8
3_AXES_OTHER
100
AcDbSpline
 62
7
  6
CONTINUOUS
 70
0
 71
3
 72
11
 73
7
 74
0
 42
0.0000001
 43
0.0000001
 44
0.0000000001
 40
0.0
 40
0.0
 40
0.0
 40
0.0
 40
0.2375479838
 40
0.4888756435
 40
0.7457725807
 40
1.0
 40
1.0
 40
1.0
 40
1.0
 10
193.3929347956
 20
101.2673540185
 30
0.0
 10
193.5305298954
 20
101.1523407626
 30
0.0
 10
193.8339281838
 20
100.9387499369
 30
0.0
 10
194.3451649493
 20
100.6962846542
 30
0.0
 10
194.9033699899
 20
100.5441145989
 30
0.0
 10
195.2900906958
 20
100.509896817
 30
0.0
 10
195.4820159699
 20
100.509896817
 30
0.0
  0
SPLINE
  5
58D
100
AcDbEntity
  8
3_AXES_OTHER
100
AcDbSpline
 62
9
  6
CONTINUOUS
 70
0
 71
3
 72
9
 73
5
 74
0
 42
0.0000001
 43
0.0000001
 44
0.0000000001
 40
0.0
 40
0.0
 40
0.0
 40
0.0
 40
0.240109831
 40
1.0
 40
1.0
 40
1.0
 40
1.0
 10
192.4280149524
 20
104.8548905719
 30
0.0
 10
192.1691947915
 20
104.8825075143
 30
0.0
 10
191.0926072897
 20
105.0099508897
 30
0.0
 10
190.0218419889
 20
105.1847746663
 30
0.0
 10
189.212621728
 20
105.3388288261
 30
0.0
  0
SPLINE
  5
58E
100
AcDbEntity
  8
3_AXES_OTHER
100
AcDbSpline
 62
9
  6
CONTINUOUS
 70
0
 71
3
 72
9
 73
5
 74
0
 42
0.0000001
 43
0.0000001
 44
0.0000000001
 40
0.0
 40
0.0
 40
0.0
 40
0.0
 40
0.478370495
 40
1.0
 40
1.0
 40
1.0
 40
1.0
 10
189.212621728
 20
105.3388288261
 30
0.0
 10
188.1842608794
 20
105.5346015645
 30
0.0
 10
186.0479539997
 20
106.0156864705
 30
0.0
 10
183.9409538299
 20
106.6101103054
 30
0.0
 10
182.8493119531
 20
106.9437691855
 30
0.0
  0
SPLINE
  5
58F
100
AcDbEntity
  8
3_AXES_OTHER
100
AcDbSpline
 62
9
  6
CONTINUOUS
 70
0
 71
3
 72
12
 73
8
 74
0
 42
0.0000001
 43
0.0000001
 44
0.0000000001
 40
0.0
 40
0.0
 40
0.0
 40
0.0
 40
0.203047864
 40
0.3154169872
 40
0.435568435
 40
0.7004858638
 40
1.0
 40
1.0
 40
1.0
 40
1.0
 10
193.3929562384
 20
106.2277255396
 30
0.0
 10
193.1263453802
 20
106.6614497747
 30
0.0
 10
192.6506653027
 20
107.2981560109
 30
0.0
 10
191.9173951419
 20
108.1077477503
 30
0.0
 10
191.0279322396
 20
108.9831344097
 30
0.0
 10
189.7136957731
 20
110.0910388595
 30
0.0
 10
188.5639677501
 20
110.9182604197
 30
0.0
 10
187.9420588929
 20
111.3392318726
 30
0.0
  0
LINE
  5
590
100
AcDbEntity
  8
3_AXES_OTHER
100
AcDbLine
 62
7
  6
CONTINUOUS
 10
198.7156201634
 20
103.4231190333
 11
198.7149479815
 21
103.4165310347
  0
SPLINE
  5
591
100
AcDbEntity
  8
3_AXES_OTHER
100
AcDbSpline
 62
9
  6
CONTINUOUS
 70
0
 71
3
 72
9
 73
5
 74
0
 42
0.0000001
 43
0.0000001
 44
0.0000000001
 40
0.0
 40
0.0
 40
0.0
 40
0.0
 40
0.2381286368
 40
1.0
 40
1.0
 40
1.0
 40
1.0
 10
193.3929562384
 20
101.2673843569
 30
0.0
 10
193.2880932648
 20
101.0311445528
 30
0.0
 10
192.8160525531
 20
100.0531750253
 30
0.0
 10
192.2249390543
 20
99.1349515694
 30
0.0
 10
191.7308799545
 20
98.4718211384
 30
0.0
  0
SPLINE
  5
592
100
AcDbEntity
  8
3_AXES_OTHER
100
AcDbSpline
 62
9
  6
CONTINUOUS
 70
0
 71
3
 72
11
 73
7
 74
0
 42
0.0000001
 43
0.0000001
 44
0.0000000001
 40
0.0
 40
0.0
 40
0.0
 40
0.0
 40
0.2238583699
 40
0.4642961155
 40
0.7226505665
 40
1.0
 40
1.0
 40
1.0
 40
1.0
 10
191.7308799545
 20
98.4718211384
 30
0.0
 10
191.3884453684
 20
98.0122024515
 30
0.0
 10
190.6326402526
 20
97.0923675498
 30
0.0
 10
189.3468252186
 20
95.7597453496
 30
0.0
 10
187.8707624707
 20
94.4272307694
 30
0.0
 10
186.7989445248
 20
93.5700737132
 30
0.0
 10
186.2334265496
 20
93.1405939051
 30
0.0
  0
SPLINE
  5
593
100
AcDbEntity
  8
3_AXES_OTHER
100
AcDbSpline
 62
9
  6
CONTINUOUS
 70
0
 71
3
 72
12
 73
8
 74
0
 42
0.0000001
 43
0.0000001
 44
0.0000000001
 40
0.0
 40
0.0
 40
0.0
 40
0.0
 40
0.203047864
 40
0.3154169872
 40
0.4355684349
 40
0.7004858638
 40
1.0
 40
1.0
 40
1.0
 40
1.0
 10
197.5710757014
 20
106.2277255396
 30
0.0
 10
197.8376865596
 20
106.6614497748
 30
0.0
 10
198.3133666372
 20
107.2981560112
 30
0.0
 10
199.0466367983
 20
108.1077477507
 30
0.0
 10
199.9360997008
 20
108.9831344102
 30
0.0
 10
201.2503361678
 20
110.0910388603
 30
0.0
 10
202.400064191
 20
110.9182604206
 30
0.0
 10
203.0219730484
 20
111.3392318736
 30
0.0
  0
SPLINE
  5
594
100
AcDbEntity
  8
0
100
AcDbSpline
 62
7
  6
CONTINUOUS
 70
0
 71
3
 72
11
 73
7
 74
0
 42
0.0000001
 43
0.0000001
 44
0.0000000001
 40
0.0
 40
0.0
 40
0.0
 40
0.0
 40
0.2507056669
 40
0.5005171571
 40
0.7500459977
 40
1.0
 40
1.0
 40
1.0
 40
1.0
 10
49.0562029419
 20
155.9117521673
 30
0.0
 10
49.101534913
 20
155.8585483791
 30
0.0
 10
49.1769778072
 20
155.7385440666
 30
0.0
 10
49.2354552623
 20
155.5348392084
 30
0.0
 10
49.23257595
 20
155.3231275013
 30
0.0
 10
49.1912233866
 20
155.1878211053
 30
0.0
 10
49.1614004398
 20
155.1248372161
 30
0.0
  0
SPLINE
  5
595
100
AcDbEntity
  8
0
100
AcDbSpline
 62
7
  6
CONTINUOUS
 70
0
 71
3
 72
11
 73
7
 74
0
 42
0.0000001
 43
0.0000001
 44
0.0000000001
 40
0.0
 40
0.0
 40
0.0
 40
0.0
 40
0.2493860016
 40
0.5
 40
0.7506139984
 40
1.0
 40
1.0
 40
1.0
 40
1.0
 10
47.9071362526
 20
155.9117521682
 30
0.0
 10
47.9769290886
 20
155.9936644071
 30
0.0
 10
48.1555300476
 20
156.1285986351
 30
0.0
 10
48.4816695975
 20
156.1991453856
 30
0.0
 10
48.8078091473
 20
156.1285986346
 30
0.0
 10
48.9864101061
 20
155.9936644063
 30
0.0
 10
49.0562029419
 20
155.9117521673
 30
0.0
  0
SPLINE
  5
596
100
AcDbEntity
  8
0
100
AcDbSpline
 62
7
  6
CONTINUOUS
 70
0
 71
3
 72
11
 73
7
 74
0
 42
0.0000001
 43
0.0000001
 44
0.0000000001
 40
0.0
 40
0.0
 40
0.0
 40
0.0
 40
0.2499540023
 40
0.4994828429
 40
0.7492943331
 40
1.0
 40
1.0
 40
1.0
 40
1.0
 10
47.8019387537
 20
155.1248372165
 30
0.0
 10
47.7721158069
 20
155.1878211058
 30
0.0
 10
47.7307632436
 20
155.323127502
 30
0.0
 10
47.7278839315
 20
155.5348392092
 30
0.0
 10
47.7863613869
 20
155.7385440675
 30
0.0
 10
47.8618042813
 20
155.85854838
 30
0.0
 10
47.9071362526
 20
155.9117521682
 30
0.0
  0
SPLINE
  5
597
100
AcDbEntity
  8
0
100
AcDbSpline
 62
7
  6
CONTINUOUS
 70
0
 71
3
 72
15
 73
11
 74
0
 42
0.0000001
 43
0.0000001
 44
0.0000000001
 40
0.0
 40
0.0
 40
0.0
 40
0.0
 40
0.12431449
 40
0.2491106961
 40
0.3744093628
 40
0.5
 40
0.6255906372
 40
0.7508893039
 40
0.87568551
 40
1.0
 40
1.0
 40
1.0
 40
1.0
 10
49.1614004398
 20
155.1248372161
 30
0.0
 10
49.1314784257
 20
155.061644104
 30
0.0
 10
49.0525003575
 20
154.9432393371
 30
0.0
 10
48.8898279338
 20
154.8052760106
 30
0.0
 10
48.6940116878
 20
154.7186683133
 30
0.0
 10
48.4816695966
 20
154.6882235898
 30
0.0
 10
48.2693275055
 20
154.7186683135
 30
0.0
 10
48.0735112595
 20
154.8052760109
 30
0.0
 10
47.910838836
 20
154.9432393374
 30
0.0
 10
47.8318607678
 20
155.0616441044
 30
0.0
 10
47.8019387537
 20
155.1248372165
 30
0.0
  0
SPLINE
  5
598
100
AcDbEntity
  8
3_AXES_OTHER
100
AcDbSpline
 62
7
  6
CONTINUOUS
 70
0
 71
3
 72
11
 73
7
 74
0
 42
0.0000001
 43
0.0000001
 44
0.0000000001
 40
0.0
 40
0.0
 40
0.0
 40
0.0
 40
0.2542274193
 40
0.5111243565
 40
0.7624520162
 40
1.0
 40
1.0
 40
1.0
 40
1.0
 10
48.4816695969
 20
138.5673015423
 30
0.0
 10
48.289744322
 20
138.5673015423
 30
0.0
 10
47.9030236148
 20
138.5330837605
 30
0.0
 10
47.3448185723
 20
138.3809137052
 30
0.0
 10
46.8335818047
 20
138.1384484227
 30
0.0
 10
46.5301835146
 20
137.9248575973
 30
0.0
 10
46.3925884139
 20
137.8098443416
 30
0.0
  0
SPLINE
  5
599
100
AcDbEntity
  8
3_AXES_OTHER
100
AcDbSpline
 62
7
  6
CONTINUOUS
 70
0
 71
3
 72
11
 73
7
 74
0
 42
0.0000001
 43
0.0000001
 44
0.0000000001
 40
0.0
 40
0.0
 40
0.0
 40
0.0
 40
0.2375479838
 40
0.4888756435
 40
0.7457725807
 40
1.0
 40
1.0
 40
1.0
 40
1.0
 10
50.5707507718
 20
137.8098443348
 30
0.0
 10
50.4331556721
 20
137.9248575907
 30
0.0
 10
50.1297573836
 20
138.1384484166
 30
0.0
 10
49.6185206179
 20
138.3809136994
 30
0.0
 10
49.0603155771
 20
138.5330837549
 30
0.0
 10
48.6735948711
 20
138.5673015368
 30
0.0
 10
48.4816695969
 20
138.5673015368
 30
0.0
  0
LINE
  5
59A
100
AcDbEntity
  8
3_AXES_OTHER
100
AcDbLine
 62
7
  6
CONTINUOUS
 10
51.7316970681
 20
135.337213447
 11
51.7317061266
 21
135.3296130705
  0
SPLINE
  5
59B
100
AcDbEntity
  8
3_AXES_OTHER
100
AcDbSpline
 62
7
  6
CONTINUOUS
 70
0
 71
3
 72
11
 73
7
 74
0
 42
0.0000001
 43
0.0000001
 44
0.0000000001
 40
0.0
 40
0.0
 40
0.0
 40
0.0
 40
0.2498323664
 40
0.4997791674
 40
0.7498989355
 40
1.0
 40
1.0
 40
1.0
 40
1.0
 10
46.3986060574
 20
132.85539002
 30
0.0
 10
46.5430996044
 20
132.7351813974
 30
0.0
 10
46.8537924175
 20
132.5194686585
 30
0.0
 10
47.3683016171
 20
132.2814092765
 30
0.0
 10
47.9163718187
 20
132.1356627815
 30
0.0
 10
48.2935086778
 20
132.1029148865
 30
0.0
 10
48.4816695969
 20
132.1029148865
 30
0.0
  0
LINE
  5
59C
100
AcDbEntity
  8
3_AXES_OTHER
100
AcDbLine
 62
7
  6
CONTINUOUS
 10
45.2316330672
 20
135.3296842494
 11
45.2316416312
 21
135.3370040187
  0
SPLINE
  5
59D
100
AcDbEntity
  8
3_AXES_OTHER
100
AcDbSpline
 62
7
  6
CONTINUOUS
 70
0
 71
3
 72
11
 73
7
 74
0
 42
0.0000001
 43
0.0000001
 44
0.0000000001
 40
0.0
 40
0.0
 40
0.0
 40
0.0
 40
0.2498323664
 40
0.4997791674
 40
0.7498989355
 40
1.0
 40
1.0
 40
1.0
 40
1.0
 10
50.5647331368
 20
132.8553900203
 30
0.0
 10
50.4202395898
 20
132.7351813977
 30
0.0
 10
50.1095467766
 20
132.5194686587
 30
0.0
 10
49.5950375769
 20
132.2814092766
 30
0.0
 10
49.0469673752
 20
132.1356627815
 30
0.0
 10
48.669830516
 20
132.1029148865
 30
0.0
 10
48.4816695969
 20
132.1029148865
 30
0.0
  0
SPLINE
  5
59E
100
AcDbEntity
  8
3_AXES_OTHER
100
AcDbSpline
 62
9
  6
CONTINUOUS
 70
0
 71
3
 72
9
 73
5
 74
0
 42
0.0000001
 43
0.0000001
 44
0.0000000001
 40
0.0
 40
0.0
 40
0.0
 40
0.0
 40
0.240109831
 40
1.0
 40
1.0
 40
1.0
 40
1.0
 10
51.5356706144
 20
136.4369888111
 30
0.0
 10
51.7944907753
 20
136.4646057535
 30
0.0
 10
52.871078277
 20
136.5920491289
 30
0.0
 10
53.9418435779
 20
136.7668729055
 30
0.0
 10
54.7510638388
 20
136.9209270653
 30
0.0
  0
SPLINE
  5
59F
100
AcDbEntity
  8
3_AXES_OTHER
100
AcDbSpline
 62
9
  6
CONTINUOUS
 70
0
 71
3
 72
9
 73
5
 74
0
 42
0.0000001
 43
0.0000001
 44
0.0000000001
 40
0.0
 40
0.0
 40
0.0
 40
0.0
 40
0.478370495
 40
1.0
 40
1.0
 40
1.0
 40
1.0
 10
54.7510638388
 20
136.9209270653
 30
0.0
 10
55.7794246873
 20
137.1166998037
 30
0.0
 10
57.915731567
 20
137.5977847097
 30
0.0
 10
60.0227317368
 20
138.1922085446
 30
0.0
 10
61.1143736135
 20
138.5258674246
 30
0.0
  0
SPLINE
  5
5A0
100
AcDbEntity
  8
3_AXES_OTHER
100
AcDbSpline
 62
9
  6
CONTINUOUS
 70
0
 71
3
 72
9
 73
5
 74
0
 42
0.0000001
 43
0.0000001
 44
0.0000000001
 40
0.0
 40
0.0
 40
0.0
 40
0.0
 40
0.475811529
 40
1.0
 40
1.0
 40
1.0
 40
1.0
 10
54.5806699021
 20
133.1236280185
 30
0.0
 10
55.788184674
 20
132.6644675835
 30
0.0
 10
58.3084198463
 20
131.6530403493
 30
0.0
 10
60.7987433584
 20
130.570614828
 30
0.0
 10
62.0975128333
 20
129.9886038788
 30
0.0
  0
SPLINE
  5
5A1
100
AcDbEntity
  8
3_AXES_OTHER
100
AcDbSpline
 62
7
  6
CONTINUOUS
 70
0
 71
3
 72
11
 73
7
 74
0
 42
0.0000001
 43
0.0000001
 44
0.0000000001
 40
0.0
 40
0.0
 40
0.0
 40
0.0
 40
0.2542274193
 40
0.5111243565
 40
0.7624520162
 40
1.0
 40
1.0
 40
1.0
 40
1.0
 10
48.4816695969
 20
132.0919950475
 30
0.0
 10
48.6735948716
 20
132.0919950475
 30
0.0
 10
49.0603155786
 20
132.1262128292
 30
0.0
 10
49.6185206209
 20
132.2783828844
 30
0.0
 10
50.1297573883
 20
132.5208481667
 30
0.0
 10
50.4331556783
 20
132.734438992
 30
0.0
 10
50.570750779
 20
132.8494522476
 30
0.0
  0
SPLINE
  5
5A2
100
AcDbEntity
  8
3_AXES_OTHER
100
AcDbSpline
 62
9
  6
CONTINUOUS
 70
0
 71
3
 72
9
 73
5
 74
0
 42
0.0000001
 43
0.0000001
 44
0.0000000001
 40
0.0
 40
0.0
 40
0.0
 40
0.0
 40
0.2381286368
 40
1.0
 40
1.0
 40
1.0
 40
1.0
 10
50.5707293283
 20
132.8494825961
 30
0.0
 10
50.6755923019
 20
132.613242792
 30
0.0
 10
51.1476330136
 20
131.6352732645
 30
0.0
 10
51.7387465124
 20
130.7170498086
 30
0.0
 10
52.2328056122
 20
130.0539193776
 30
0.0
  0
SPLINE
  5
5A3
100
AcDbEntity
  8
3_AXES_OTHER
100
AcDbSpline
 62
9
  6
CONTINUOUS
 70
0
 71
3
 72
11
 73
7
 74
0
 42
0.0000001
 43
0.0000001
 44
0.0000000001
 40
0.0
 40
0.0
 40
0.0
 40
0.0
 40
0.2238583699
 40
0.4642961155
 40
0.7226505665
 40
1.0
 40
1.0
 40
1.0
 40
1.0
 10
52.2328056122
 20
130.0539193776
 30
0.0
 10
52.5752401983
 20
129.5943006907
 30
0.0
 10
53.3310453141
 20
128.6744657891
 30
0.0
 10
54.616860348
 20
127.3418435888
 30
0.0
 10
56.0929230959
 20
126.0093290087
 30
0.0
 10
57.1647410418
 20
125.1521719526
 30
0.0
 10
57.7302590169
 20
124.7226921444
 30
0.0
  0
SPLINE
  5
5A4
100
AcDbEntity
  8
0
100
AcDbSpline
 62
7
  6
CONTINUOUS
 70
0
 71
3
 72
17
 73
13
 74
0
 42
0.0000001
 43
0.0000001
 44
0.0000000001
 40
0.0
 40
0.0
 40
0.0
 40
0.0
 40
0.1249991687
 40
0.1875594338
 40
0.2501229779
 40
0.3750886059
 40
0.5000376267
 40
0.5626055733
 40
0.6251746246
 40
0.7501080396
 40
0.8750442911
 40
1.0
 40
1.0
 40
1.0
 40
1.0
 10
62.0975128199
 20
129.9886039889
 30
0.0
 10
62.1365983769
 20
129.6677567506
 30
0.0
 10
62.1523627932
 20
129.1794954884
 30
0.0
 10
62.0829044559
 20
128.5357441505
 30
0.0
 10
61.9522083315
 20
127.9014837321
 30
0.0
 10
61.670967701
 20
127.1377438784
 30
0.0
 10
61.2362521
 20
126.4485388868
 30
0.0
 10
60.8037700617
 20
125.966089498
 30
0.0
 10
60.3198885916
 20
125.5354130925
 30
0.0
 10
59.6272755132
 20
125.1045289704
 30
0.0
 10
58.7018762546
 20
124.791029083
 30
0.0
 10
58.0533658402
 20
124.7226921444
 30
0.0
 10
57.7302590486
 20
124.7226921444
 30
0.0
  0
SPLINE
  5
5A5
100
AcDbEntity
  8
0
100
AcDbSpline
 62
7
  6
CONTINUOUS
 70
0
 71
3
 72
10
 73
6
 74
0
 42
0.0000001
 43
0.0000001
 44
0.0000000001
 40
0.0
 40
0.0
 40
0.0
 40
0.0
 40
0.4999983502
 40
0.7499991296
 40
1.0
 40
1.0
 40
1.0
 40
1.0
 10
61.1143736562
 20
138.5258670185
 30
0.0
 10
61.2615720361
 20
137.1011579206
 30
0.0
 10
61.4987762129
 20
134.9657659001
 30
0.0
 10
61.8380877709
 20
132.1213390376
 30
0.0
 10
62.0109115961
 20
130.6994999223
 30
0.0
 10
62.0975128199
 20
129.9886039889
 30
0.0
  0
SPLINE
  5
5A6
100
AcDbEntity
  8
0
100
AcDbSpline
 62
7
  6
CONTINUOUS
 70
0
 71
3
 72
15
 73
11
 74
0
 42
0.0000001
 43
0.0000001
 44
0.0000000001
 40
0.0
 40
0.0
 40
0.0
 40
0.0
 40
0.1249991583
 40
0.2500017707
 40
0.3750125288
 40
0.5000231118
 40
0.6250303802
 40
0.7500321126
 40
0.8750200731
 40
1.0
 40
1.0
 40
1.0
 40
1.0
 10
56.0216263923
 20
142.9213301068
 30
0.0
 10
56.327903951
 20
142.9268889151
 30
0.0
 10
56.942939939
 20
142.8780178178
 30
0.0
 10
57.8350773026
 20
142.6381557233
 30
0.0
 10
58.66985235
 20
142.2424029786
 30
0.0
 10
59.4240506894
 20
141.7088625867
 30
0.0
 10
60.0702059817
 20
141.0484315187
 30
0.0
 10
60.58930008
 20
140.2837897934
 30
0.0
 10
60.9548071835
 20
139.4347519797
 30
0.0
 10
61.0828968241
 20
138.8305261404
 30
0.0
 10
61.1143736562
 20
138.5258670185
 30
0.0
  0
SPLINE
  5
5A7
100
AcDbEntity
  8
0
100
AcDbSpline
 62
7
  6
CONTINUOUS
 70
0
 71
3
 72
9
 73
5
 74
0
 42
0.0000001
 43
0.0000001
 44
0.0000000001
 40
0.0
 40
0.0
 40
0.0
 40
0.0
 40
0.4999991469
 40
1.0
 40
1.0
 40
1.0
 40
1.0
 10
48.4816695969
 20
142.841985516
 30
0.0
 10
49.7384107891
 20
142.841985516
 30
0.0
 10
52.2519207939
 20
142.857100761
 30
0.0
 10
54.765087851
 20
142.8985244632
 30
0.0
 10
56.0216263923
 20
142.9213301068
 30
0.0
  0
SPLINE
  5
5A8
100
AcDbEntity
  8
0
100
AcDbSpline
 62
7
  6
CONTINUOUS
 70
0
 71
3
 72
9
 73
5
 74
0
 42
0.0000001
 43
0.0000001
 44
0.0000000001
 40
0.0
 40
0.0
 40
0.0
 40
0.0
 40
0.5000008531
 40
1.0
 40
1.0
 40
1.0
 40
1.0
 10
40.9417127721
 20
142.9213301073
 30
0.0
 10
42.1982513182
 20
142.8985244636
 30
0.0
 10
44.7114183852
 20
142.8571007613
 30
0.0
 10
47.2249283997
 20
142.841985516
 30
0.0
 10
48.4816695969
 20
142.841985516
 30
0.0
  0
SPLINE
  5
5A9
100
AcDbEntity
  8
0
100
AcDbSpline
 62
7
  6
CONTINUOUS
 70
0
 71
3
 72
15
 73
11
 74
0
 42
0.0000001
 43
0.0000001
 44
0.0000000001
 40
0.0
 40
0.0
 40
0.0
 40
0.0
 40
0.12498037
 40
0.2499687809
 40
0.3749705892
 40
0.4999774839
 40
0.6249875466
 40
0.7499981336
 40
0.8750008785
 40
1.0
 40
1.0
 40
1.0
 40
1.0
 10
35.8489655422
 20
138.5258670634
 30
0.0
 10
35.8804425311
 20
138.8305272572
 30
0.0
 10
36.0085320376
 20
139.434755471
 30
0.0
 10
36.3740424293
 20
140.2837945079
 30
0.0
 10
36.893136713
 20
141.0484364413
 30
0.0
 10
37.539291643
 20
141.7088651585
 30
0.0
 10
38.2934884002
 20
142.2424030407
 30
0.0
 10
39.1282618948
 20
142.6381557291
 30
0.0
 10
40.0203990937
 20
142.8780178898
 30
0.0
 10
40.6354353071
 20
142.9268889139
 30
0.0
 10
40.9417127721
 20
142.9213301073
 30
0.0
  0
SPLINE
  5
5AA
100
AcDbEntity
  8
0
100
AcDbSpline
 62
7
  6
CONTINUOUS
 70
0
 71
3
 72
10
 73
6
 74
0
 42
0.0000001
 43
0.0000001
 44
0.0000000001
 40
0.0
 40
0.0
 40
0.0
 40
0.0
 40
0.2500008706
 40
0.5000016501
 40
1.0
 40
1.0
 40
1.0
 40
1.0
 10
34.8658263762
 20
129.9886040082
 30
0.0
 10
34.9524276234
 20
130.6994999413
 30
0.0
 10
35.1252514638
 20
132.1213390599
 30
0.0
 10
35.4645631058
 20
134.9657659224
 30
0.0
 10
35.7017669493
 20
137.1011579841
 30
0.0
 10
35.8489655422
 20
138.5258670634
 30
0.0
  0
SPLINE
  5
5AB
100
AcDbEntity
  8
0
100
AcDbSpline
 62
7
  6
CONTINUOUS
 70
0
 71
3
 72
17
 73
13
 74
0
 42
0.0000001
 43
0.0000001
 44
0.0000000001
 40
0.0
 40
0.0
 40
0.0
 40
0.0
 40
0.1249557339
 40
0.2498920386
 40
0.3748256658
 40
0.4373948875
 40
0.4999630665
 40
0.6249124258
 40
0.7498779169
 40
0.8124412161
 40
0.8750012593
 40
1.0
 40
1.0
 40
1.0
 40
1.0
 10
39.2330801448
 20
124.7226921444
 30
0.0
 10
38.909973288
 20
124.7226921444
 30
0.0
 10
38.2614626372
 20
124.7910290389
 30
0.0
 10
37.3360628061
 20
125.1045294392
 30
0.0
 10
36.6434485445
 20
125.5354139898
 30
0.0
 10
36.1595667039
 20
125.9660923801
 30
0.0
 10
35.727083491
 20
126.4485432709
 30
0.0
 10
35.2923683889
 20
127.1377500745
 30
0.0
 10
35.0111292976
 20
127.901490239
 30
0.0
 10
34.8804334495
 20
128.535749146
 30
0.0
 10
34.8109771292
 20
129.1794983712
 30
0.0
 10
34.8267409426
 20
129.6677578692
 30
0.0
 10
34.8658263762
 20
129.9886040082
 30
0.0
  0
SPLINE
  5
5AC
100
AcDbEntity
  8
3_AXES_OTHER
100
AcDbSpline
 62
9
  6
CONTINUOUS
 70
0
 71
3
 72
9
 73
5
 74
0
 42
0.0000001
 43
0.0000001
 44
0.0000000001
 40
0.0
 40
0.0
 40
0.0
 40
0.0
 40
0.475811529
 40
1.0
 40
1.0
 40
1.0
 40
1.0
 10
42.3826692916
 20
133.1236280185
 30
0.0
 10
41.1751545197
 20
132.6644675835
 30
0.0
 10
38.6549193474
 20
131.6530403493
 30
0.0
 10
36.1645958353
 20
130.570614828
 30
0.0
 10
34.8658263604
 20
129.9886038788
 30
0.0
  0
SPLINE
  5
5AD
100
AcDbEntity
  8
3_AXES_OTHER
100
AcDbSpline
 62
7
  6
CONTINUOUS
 70
0
 71
3
 72
11
 73
7
 74
0
 42
0.0000001
 43
0.0000001
 44
0.0000000001
 40
0.0
 40
0.0
 40
0.0
 40
0.0
 40
0.2375479838
 40
0.4888756435
 40
0.7457725807
 40
1.0
 40
1.0
 40
1.0
 40
1.0
 10
46.3925884226
 20
132.8494522577
 30
0.0
 10
46.5301835223
 20
132.7344390018
 30
0.0
 10
46.8335818107
 20
132.5208481761
 30
0.0
 10
47.3448185763
 20
132.2783828934
 30
0.0
 10
47.9030236168
 20
132.1262128381
 30
0.0
 10
48.2897443227
 20
132.0919950562
 30
0.0
 10
48.4816695969
 20
132.0919950562
 30
0.0
  0
SPLINE
  5
5AE
100
AcDbEntity
  8
3_AXES_OTHER
100
AcDbSpline
 62
9
  6
CONTINUOUS
 70
0
 71
3
 72
9
 73
5
 74
0
 42
0.0000001
 43
0.0000001
 44
0.0000000001
 40
0.0
 40
0.0
 40
0.0
 40
0.0
 40
0.240109831
 40
1.0
 40
1.0
 40
1.0
 40
1.0
 10
45.4276685793
 20
136.4369888111
 30
0.0
 10
45.1688484184
 20
136.4646057535
 30
0.0
 10
44.0922609167
 20
136.5920491289
 30
0.0
 10
43.0214956159
 20
136.7668729055
 30
0.0
 10
42.2122753549
 20
136.9209270653
 30
0.0
  0
SPLINE
  5
5AF
100
AcDbEntity
  8
3_AXES_OTHER
100
AcDbSpline
 62
9
  6
CONTINUOUS
 70
0
 71
3
 72
9
 73
5
 74
0
 42
0.0000001
 43
0.0000001
 44
0.0000000001
 40
0.0
 40
0.0
 40
0.0
 40
0.0
 40
0.478370495
 40
1.0
 40
1.0
 40
1.0
 40
1.0
 10
42.2122753549
 20
136.9209270653
 30
0.0
 10
41.1839145064
 20
137.1166998037
 30
0.0
 10
39.0476076266
 20
137.5977847097
 30
0.0
 10
36.9406074568
 20
138.1922085446
 30
0.0
 10
35.8489655801
 20
138.5258674247
 30
0.0
  0
SPLINE
  5
5B0
100
AcDbEntity
  8
3_AXES_OTHER
100
AcDbSpline
 62
9
  6
CONTINUOUS
 70
0
 71
3
 72
12
 73
8
 74
0
 42
0.0000001
 43
0.0000001
 44
0.0000000001
 40
0.0
 40
0.0
 40
0.0
 40
0.0
 40
0.203047864
 40
0.3154169872
 40
0.435568435
 40
0.7004858638
 40
1.0
 40
1.0
 40
1.0
 40
1.0
 10
46.3926098654
 20
137.8098237788
 30
0.0
 10
46.1259990072
 20
138.2435480139
 30
0.0
 10
45.6503189297
 20
138.8802542501
 30
0.0
 10
44.9170487688
 20
139.6898459895
 30
0.0
 10
44.0275858666
 20
140.5652326489
 30
0.0
 10
42.7133494
 20
141.6731370987
 30
0.0
 10
41.5636213771
 20
142.5003586589
 30
0.0
 10
40.9417125199
 20
142.9213301118
 30
0.0
  0
LINE
  5
5B1
100
AcDbEntity
  8
3_AXES_OTHER
100
AcDbLine
 62
7
  6
CONTINUOUS
 10
51.7152737904
 20
135.0052172725
 11
51.7146016085
 21
134.9986292739
  0
SPLINE
  5
5B2
100
AcDbEntity
  8
3_AXES_OTHER
100
AcDbSpline
 62
9
  6
CONTINUOUS
 70
0
 71
3
 72
9
 73
5
 74
0
 42
0.0000001
 43
0.0000001
 44
0.0000000001
 40
0.0
 40
0.0
 40
0.0
 40
0.0
 40
0.2381286368
 40
1.0
 40
1.0
 40
1.0
 40
1.0
 10
46.3926098654
 20
132.8494825961
 30
0.0
 10
46.2877468918
 20
132.613242792
 30
0.0
 10
45.8157061801
 20
131.6352732645
 30
0.0
 10
45.2245926813
 20
130.7170498086
 30
0.0
 10
44.7305335815
 20
130.0539193776
 30
0.0
  0
SPLINE
  5
5B3
100
AcDbEntity
  8
3_AXES_OTHER
100
AcDbSpline
 62
9
  6
CONTINUOUS
 70
0
 71
3
 72
11
 73
7
 74
0
 42
0.0000001
 43
0.0000001
 44
0.0000000001
 40
0.0
 40
0.0
 40
0.0
 40
0.0
 40
0.2238583699
 40
0.4642961155
 40
0.7226505665
 40
1.0
 40
1.0
 40
1.0
 40
1.0
 10
44.7305335815
 20
130.0539193776
 30
0.0
 10
44.3880989954
 20
129.5943006907
 30
0.0
 10
43.6322938796
 20
128.674465789
 30
0.0
 10
42.3464788456
 20
127.3418435888
 30
0.0
 10
40.8704160977
 20
126.0093290086
 30
0.0
 10
39.7985981518
 20
125.1521719524
 30
0.0
 10
39.2330801766
 20
124.7226921443
 30
0.0
  0
SPLINE
  5
5B4
100
AcDbEntity
  8
3_AXES_OTHER
100
AcDbSpline
 62
9
  6
CONTINUOUS
 70
0
 71
3
 72
12
 73
8
 74
0
 42
0.0000001
 43
0.0000001
 44
0.0000000001
 40
0.0
 40
0.0
 40
0.0
 40
0.0
 40
0.203047864
 40
0.3154169872
 40
0.4355684349
 40
0.7004858638
 40
1.0
 40
1.0
 40
1.0
 40
1.0
 10
50.5707293283
 20
137.8098237788
 30
0.0
 10
50.8373401866
 20
138.243548014
 30
0.0
 10
51.3130202642
 20
138.8802542504
 30
0.0
 10
52.0462904253
 20
139.6898459899
 30
0.0
 10
52.9357533278
 20
140.5652326494
 30
0.0
 10
54.2499897947
 20
141.6731370995
 30
0.0
 10
55.399717818
 20
142.5003586598
 30
0.0
 10
56.0216266754
 20
142.9213301128
 30
0.0
  0
ENDSEC
  0
SECTION
  2
OBJECTS
  0
DICTIONARY
  5
C
100
AcDbDictionary
280
0
281
1
  3
ACAD_GROUP
350
D
  3
ACAD_MLINESTYLE
350
17
  3
ACAD_LAYOUT
350
1A
  3
ACAD_PLOTSETTINGS
350
19
  3
ACAD_PLOTSTYLENAME
350
E
  0
DICTIONARY
  5
D
102
{ACAD_REACTORS
330
C
102
}
100
AcDbDictionary
280
0
281
1
  0
ACDBDICTIONARYWDFLT
  5
E
102
{ACAD_REACTORS
330
C
102
}
100
AcDbDictionary
281
1
  3
Normal
350
F
100
AcDbDictionaryWithDefault
340
F
  0
DICTIONARY
  5
17
102
{ACAD_REACTORS
330
C
102
}
100
AcDbDictionary
280
0
281
1
  3
Standard
350
18
  0
DICTIONARY
  5
19
102
{ACAD_REACTORS
330
C
102
}
100
AcDbDictionary
281
1
  0
DICTIONARY
  5
1A
102
{ACAD_REACTORS
330
C
102
}
100
AcDbDictionary
281
1
  3
Model
350
5B5
  3
Layout1
350
5B6
  0
ACDBPLACEHOLDER
  5
F
102
{ACAD_REACTORS
330
E
102
}
  0
MLINESTYLE
  5
18
102
{ACAD_REACTORS
330
17
102
}
100
AcDbMlineStyle
  2
STANDARD
 70
0
  3

 62
256
 51
90.0
 52
90.0
 71
2
 49
0.5
 62
256
  6
BYLAYER
 49
-0.5
 62
256
  6
BYLAYER
  0
LAYOUT
  5
5B5
102
{ACAD_REACTORS
330
1A
102
}
100
AcDbPlotSettings
  1

  2
none_device
  4
ANSI_B_(17.00_x_11.00_Inches)
  6

 40
0.0
 41
0.0
 42
0.0
 43
0.0
 44
431.8
 45
279.4
 46
0.0
 47
0.0
 48
0.0
 49
0.0
140
0.0
141
0.0
142
1.0
143
1.0
 70
1024
 72
0
 73
0
 74
0
  7

 75
0
147
1.0
148
0.0
149
0.0
100
AcDbLayout
  1
Model
 70
0
 71
0
 10
0.0
 20
0.0
 11
17.0
 21
11.0
 12
0.0
 22
0.0
 32
0.0
 14
0.0
 24
0.0
 34
0.0
 15
0.0
 25
0.0
 35
0.0
146
0.0
 13
0.0
 23
0.0
 33
0.0
 16
1.0
 26
0.0
 36
0.0
 17
0.0
 27
1.0
 37
0.0
 76
0
330
212
345
0
346
0
  0
LAYOUT
  5
5B6
102
{ACAD_REACTORS
330
1A
102
}
100
AcDbPlotSettings
  1

  2
none_device
  4
ANSI_B_(17.00_x_11.00_Inches)
  6

 40
0.0
 41
0.0
 42
0.0
 43
0.0
 44
431.8
 45
279.4
 46
0.0
 47
0.0
 48
0.0
 49
0.0
140
0.0
141
0.0
142
1.0
143
1.0
 70
0
 72
0
 73
0
 74
0
  7

 75
0
147
1.0
148
0.0
149
0.0
100
AcDbLayout
  1
Layout1
 70
0
 71
1
 10
0.0
 20
0.0
 11
17.0
 21
11.0
 12
0.0
 22
0.0
 32
0.0
 14
0.0
 24
0.0
 34
0.0
 15
0.0
 25
0.0
 35
0.0
146
0.0
 13
0.0
 23
0.0
 33
0.0
 16
1.0
 26
0.0
 36
0.0
 17
0.0
 27
1.0
 37
0.0
 76
0
330
213
345
0
346
0
  0
ENDSEC
  0
EOF
