999
DXF file: wp-001155-2d-A.dxf
999
Pro/ENGINEER 2016130 by Parametric Technology Corporation
  0
SECTION
  2
HEADER
  9
$ACADVER
  1
AC1015
  9
$DWGCODEPAGE
  3
ANSI_1252
  9
$EXTMAX
 10
136.0
 20
88.0
 30
0.0
  9
$EXTMIN
 10
0.0
 20
0.0
 30
0.0
  9
$LIMMIN
 10
0.0
 20
0.0
  9
$LIMMAX
 10
136.0
 20
88.0
  9
$VIEWCTR
 10
68.0
 20
44.0
  9
$VIEWSIZE
 40
88.0
  9
$CLAYER
  8
0
  9
$LTSCALE
 40
7.48
  9
$CELTYPE
  6
BYLAYER
  9
$DIMSCALE
 40
1.0
  9
$DIMASZ
 40
0.75
  9
$DIMEXO
 40
0.0625
  9
$DIMDLI
 40
5.168
  9
$DIMEXE
 40
0.125
  9
$DIMCEN
 40
1.224
  9
$DIMLFAC
 40
1.0
  9
$DIMBLK
  1
_FILLED
  9
$DIMALT
 70
0
  9
$DIMALTF
 40
25.4
  9
$DIMTXT
 40
0.625
  9
$DIMTOL
 70
1
  9
$DIMLIM
 70
0
  9
$DIMTFAC
 40
1.0
  9
$DIMTP
 40
0.01
  9
$DIMTM
 40
0.01
  9
$DIMGAP
 40
0.09
  9
$DIMDSEP
 70
46
  9
$AUNITS
 70
0
  9
$PDMODE
 70
3
  9
$PDSIZE
 40
0.3125
  9
$HANDSEED
  5
65E
  9
$TILEMODE
 70
1
  9
$MEASUREMENT
 70
0
  9
$INSUNITS
 70
1
  0
ENDSEC
  0
SECTION
  2
CLASSES
  0
CLASS
  1
ACDBDICTIONARYWDFLT
  2
AcDbDictionaryWithDefault
  3
AutoCAD 2000
 90
0
280
0
281
0
  0
CLASS
  1
ACDBPLACEHOLDER
  2
AcDbPlaceHolder
  3
AutoCAD 2000
 90
0
280
0
281
0
  0
CLASS
  1
LAYOUT
  2
AcDbLayout
  3
AutoCAD 2000
 90
0
280
0
281
0
  0
ENDSEC
  0
SECTION
  2
TABLES
  0
TABLE
  2
VPORT
  5
8
100
AcDbSymbolTable
 70
2
  0
VPORT
  5
1F4
100
AcDbSymbolTableRecord
100
AcDbViewportTableRecord
  2
*ACTIVE
 70
0
 10
0.0
 20
0.0
 11
1.0
 21
1.0
 12
68.0
 22
44.0
 13
0.0
 23
0.0
 14
1.0
 24
1.0
 15
0.0
 25
0.0
 16
0.0
 26
0.0
 36
1.0
 17
0.0
 27
0.0
 37
0.0
 40
88.0
 41
1.5454545455
 42
50.0
 43
0.0
 44
0.0
 50
0.0
 51
0.0
 71
0
 72
100
 73
1
 74
1
 75
0
 76
0
 77
0
 78
0
  0
ENDTAB
  0
TABLE
  2
LTYPE
  5
5
100
AcDbSymbolTable
 70
6
  0
LTYPE
  5
14
100
AcDbSymbolTableRecord
100
AcDbLinetypeTableRecord
  2
BYBLOCK
 70
0
  3

 72
65
 73
0
 40
0.0
  0
LTYPE
  5
15
100
AcDbSymbolTableRecord
100
AcDbLinetypeTableRecord
  2
BYLAYER
 70
0
  3

 72
65
 73
0
 40
0.0
  0
LTYPE
  5
16
100
AcDbSymbolTableRecord
100
AcDbLinetypeTableRecord
  2
CONTINUOUS
 70
64
  3
Solid line
 72
65
 73
0
 40
0.0
  0
LTYPE
  5
1F5
100
AcDbSymbolTableRecord
100
AcDbLinetypeTableRecord
  2
CENTER
 70
64
  3
____ _ ____ _ ____ _ ____ _ ____ _ ____ _ ____
 72
65
 73
4
 40
0.6
 49
0.375
 74
0
 49
-0.075
 74
0
 49
0.075
 74
0
 49
-0.075
 74
0
  0
LTYPE
  5
1F6
100
AcDbSymbolTableRecord
100
AcDbLinetypeTableRecord
  2
HIDDEN
 70
64
  3
- - - - - - - - - - - - - - - - - - - -
 72
65
 73
2
 40
0.2
 49
0.1
 74
0
 49
-0.1
 74
0
  0
LTYPE
  5
1F7
100
AcDbSymbolTableRecord
100
AcDbLinetypeTableRecord
  2
PHANTOM
 70
64
  3
_____ _ _ _____ _ _ _____ _ _ _____
 72
65
 73
6
 40
0.8
 49
0.45
 74
0
 49
-0.05
 74
0
 49
0.1
 74
0
 49
-0.05
 74
0
 49
0.1
 74
0
 49
-0.05
 74
0
  0
LTYPE
  5
1F8
100
AcDbSymbolTableRecord
100
AcDbLinetypeTableRecord
  2
DOT
 70
64
  3
. . . . . . . . . . . . . . . . . . . .
 72
65
 73
2
 40
0.2
 49
0.1
 74
0
 49
-0.1
 74
0
  0
LTYPE
  5
1F9
100
AcDbSymbolTableRecord
100
AcDbLinetypeTableRecord
  2
DASHED
 70
64
  3
- - - - - - - - - - - - - - - - - - - -
 72
65
 73
2
 40
0.2
 49
0.1
 74
0
 49
-0.1
 74
0
  0
ENDTAB
  0
TABLE
  2
LAYER
  5
2
100
AcDbSymbolTable
 70
36
  0
LAYER
  5
10
100
AcDbSymbolTableRecord
100
AcDbLayerTableRecord
  2
0
 70
0
 62
7
  6
CONTINUOUS
370
-3
390
F
  0
LAYER
  5
1FA
100
AcDbSymbolTableRecord
100
AcDbLayerTableRecord
  2
DEFAULT_1
 70
0
 62
7
  6
CENTER
370
-3
390
F
  0
LAYER
  5
1FB
100
AcDbSymbolTableRecord
100
AcDbLayerTableRecord
  2
DEFAULT_2
 70
0
 62
8
  6
HIDDEN
370
-3
390
F
  0
LAYER
  5
1FC
100
AcDbSymbolTableRecord
100
AcDbLayerTableRecord
  2
DEFAULT_3
 70
0
 62
7
  6
PHANTOM
370
-3
390
F
  0
LAYER
  5
1FD
100
AcDbSymbolTableRecord
100
AcDbLayerTableRecord
  2
1_ALL_PLANES
 70
0
 62
7
  6
CONTINUOUS
370
-3
390
F
  0
LAYER
  5
1FE
100
AcDbSymbolTableRecord
100
AcDbLayerTableRecord
  2
1__DEF_PLANES
 70
0
 62
7
  6
CONTINUOUS
370
-3
390
F
  0
LAYER
  5
1FF
100
AcDbSymbolTableRecord
100
AcDbLayerTableRecord
  2
2_ALL_CSYS
 70
0
 62
7
  6
CONTINUOUS
370
-3
390
F
  0
LAYER
  5
200
100
AcDbSymbolTableRecord
100
AcDbLayerTableRecord
  2
2__DEF_CSYS
 70
0
 62
7
  6
CONTINUOUS
370
-3
390
F
  0
LAYER
  5
201
100
AcDbSymbolTableRecord
100
AcDbLayerTableRecord
  2
3_ALL_AXES
 70
0
 62
7
  6
CONTINUOUS
370
-3
390
F
  0
LAYER
  5
202
100
AcDbSymbolTableRecord
100
AcDbLayerTableRecord
  2
3_AXES_OTHER
 70
0
 62
7
  6
CONTINUOUS
370
-3
390
F
  0
LAYER
  5
203
100
AcDbSymbolTableRecord
100
AcDbLayerTableRecord
  2
3_HOLES
 70
0
 62
7
  6
CONTINUOUS
370
-3
390
F
  0
LAYER
  5
204
100
AcDbSymbolTableRecord
100
AcDbLayerTableRecord
  2
4_ALL_POINTS
 70
0
 62
7
  6
CONTINUOUS
370
-3
390
F
  0
LAYER
  5
205
100
AcDbSymbolTableRecord
100
AcDbLayerTableRecord
  2
5_ALL_CURVES
 70
0
 62
7
  6
CONTINUOUS
370
-3
390
F
  0
LAYER
  5
206
100
AcDbSymbolTableRecord
100
AcDbLayerTableRecord
  2
6_ALL_SURFS
 70
0
 62
7
  6
CONTINUOUS
370
-3
390
F
  0
LAYER
  5
207
100
AcDbSymbolTableRecord
100
AcDbLayerTableRecord
  2
6_COPYGEOM
 70
0
 62
7
  6
CONTINUOUS
370
-3
390
F
  0
LAYER
  5
208
100
AcDbSymbolTableRecord
100
AcDbLayerTableRecord
  2
7_ALL_ROUNDS
 70
0
 62
7
  6
CONTINUOUS
370
-3
390
F
  0
LAYER
  5
209
100
AcDbSymbolTableRecord
100
AcDbLayerTableRecord
  2
7_MERGES
 70
0
 62
7
  6
CONTINUOUS
370
-3
390
F
  0
LAYER
  5
20A
100
AcDbSymbolTableRecord
100
AcDbLayerTableRecord
  2
8_GDT
 70
0
 62
7
  6
CONTINUOUS
370
-3
390
F
  0
LAYER
  5
20B
100
AcDbSymbolTableRecord
100
AcDbLayerTableRecord
  2
8_SET_DATUMS
 70
0
 62
7
  6
CONTINUOUS
370
-3
390
F
  0
LAYER
  5
20C
100
AcDbSymbolTableRecord
100
AcDbLayerTableRecord
  2
9_COSMETICS
 70
0
 62
7
  6
CONTINUOUS
370
-3
390
F
  0
LAYER
  5
20D
100
AcDbSymbolTableRecord
100
AcDbLayerTableRecord
  2
9_THREADS
 70
0
 62
7
  6
CONTINUOUS
370
-3
390
F
  0
ENDTAB
  0
TABLE
  2
STYLE
  5
3
100
AcDbSymbolTable
 70
1
  0
STYLE
  5
11
100
AcDbSymbolTableRecord
100
AcDbTextStyleTableRecord
  2
STANDARD
 70
0
 40
0.0
 41
0.8
 50
0.0
 71
0
 42
0.2
  3
txt
  4

  0
STYLE
  5
20E
100
AcDbSymbolTableRecord
100
AcDbTextStyleTableRecord
  2
TEXTSTYLE_1
 70
0
 40
0.0
 41
0.8
 50
0.0
 71
0
 42
0.2
  3
gdt
  4

  0
ENDTAB
  0
TABLE
  2
VIEW
  5
6
100
AcDbSymbolTable
 70
0
  0
ENDTAB
  0
TABLE
  2
UCS
  5
7
100
AcDbSymbolTable
 70
0
  0
ENDTAB
  0
TABLE
  2
APPID
  5
9
100
AcDbSymbolTable
 70
1
  0
APPID
  5
20F
100
AcDbSymbolTableRecord
100
AcDbRegAppTableRecord
  2
ACAD
 70
0
  0
ENDTAB
  0
TABLE
  2
BLOCK_RECORD
  5
1
100
AcDbSymbolTable
 70
0
  0
BLOCK_RECORD
  5
210
100
AcDbSymbolTableRecord
100
AcDbBlockTableRecord
  2
*Model_Space
  0
BLOCK_RECORD
  5
211
100
AcDbSymbolTableRecord
100
AcDbBlockTableRecord
  2
*Paper_Space
  0
BLOCK_RECORD
  5
212
100
AcDbSymbolTableRecord
100
AcDbBlockTableRecord
  2
_FILLED
  0
BLOCK_RECORD
  5
213
100
AcDbSymbolTableRecord
100
AcDbBlockTableRecord
  2
*D0
  0
BLOCK_RECORD
  5
214
100
AcDbSymbolTableRecord
100
AcDbBlockTableRecord
  2
*D1
  0
BLOCK_RECORD
  5
215
100
AcDbSymbolTableRecord
100
AcDbBlockTableRecord
  2
*D2
  0
BLOCK_RECORD
  5
216
100
AcDbSymbolTableRecord
100
AcDbBlockTableRecord
  2
*D3
  0
BLOCK_RECORD
  5
217
100
AcDbSymbolTableRecord
100
AcDbBlockTableRecord
  2
*D4
  0
BLOCK_RECORD
  5
218
100
AcDbSymbolTableRecord
100
AcDbBlockTableRecord
  2
*D5
  0
BLOCK_RECORD
  5
219
100
AcDbSymbolTableRecord
100
AcDbBlockTableRecord
  2
*D6
  0
BLOCK_RECORD
  5
21A
100
AcDbSymbolTableRecord
100
AcDbBlockTableRecord
  2
*D7
  0
BLOCK_RECORD
  5
21B
100
AcDbSymbolTableRecord
100
AcDbBlockTableRecord
  2
*D8
  0
BLOCK_RECORD
  5
21C
100
AcDbSymbolTableRecord
100
AcDbBlockTableRecord
  2
*D9
  0
BLOCK_RECORD
  5
21D
100
AcDbSymbolTableRecord
100
AcDbBlockTableRecord
  2
*D10
  0
BLOCK_RECORD
  5
21E
100
AcDbSymbolTableRecord
100
AcDbBlockTableRecord
  2
*D11
  0
BLOCK_RECORD
  5
21F
100
AcDbSymbolTableRecord
100
AcDbBlockTableRecord
  2
*D12
  0
BLOCK_RECORD
  5
220
100
AcDbSymbolTableRecord
100
AcDbBlockTableRecord
  2
*D13
  0
BLOCK_RECORD
  5
221
100
AcDbSymbolTableRecord
100
AcDbBlockTableRecord
  2
*D14
  0
BLOCK_RECORD
  5
222
100
AcDbSymbolTableRecord
100
AcDbBlockTableRecord
  2
*D15
  0
BLOCK_RECORD
  5
223
100
AcDbSymbolTableRecord
100
AcDbBlockTableRecord
  2
123_BL1
  0
BLOCK_RECORD
  5
224
100
AcDbSymbolTableRecord
100
AcDbBlockTableRecord
  2
RD010411_BL0
  0
ENDTAB
  0
TABLE
  2
DIMSTYLE
  5
A
100
AcDbSymbolTable
 70
1
100
AcDbDimStyleTable
 71
0
  0
DIMSTYLE
105
225
100
AcDbSymbolTableRecord
100
AcDbDimStyleTableRecord
  2
STANDARD
 70
0
  3

  4

 40
1.0
 41
0.75
 42
0.0625
 43
0.38
 44
0.125
 45
0.0
 46
0.0
 47
0.01
 48
0.01
140
0.625
141
0.09
142
0.0
143
25.4
144
1.0
145
0.0
146
1.0
147
0.09
 71
1.0
 72
0.0
 73
1
 74
1
 75
0
 76
0
 77
0
 78
4
170
0
171
2
172
0
173
0
174
0
175
0
176
0
177
0
178
0
270
2
271
3
272
3
273
2
274
2
275
0
280
0
281
0
282
0
283
1
284
4
285
0
286
0
287
3
288
0
340
11
278
46
341
212
342
212
343
212
344
212
  0
DIMSTYLE
105
226
100
AcDbSymbolTableRecord
100
AcDbDimStyleTableRecord
  2
DIMSTYLE_1
 70
0
  3

  4

 40
1.0
 41
0.75
 42
0.0625
 43
0.38
 44
0.125
 45
0.0
 46
0.0
 47
0.01
 48
0.01
140
0.625
141
0.09
142
0.0
143
25.4
144
1.0
145
0.0
146
1.0
147
0.078125
 71
0.0
 72
0.0
 73
1
 74
1
 75
0
 76
0
 77
0
 78
4
170
0
171
2
172
0
173
0
174
0
175
0
176
0
177
0
178
0
270
2
271
1
272
1
273
2
274
2
275
0
280
0
281
0
282
0
283
1
284
4
285
0
286
0
287
3
288
0
340
11
278
46
341
212
342
212
343
212
344
212
  0
ENDTAB
  0
ENDSEC
  0
SECTION
  2
BLOCKS
  0
BLOCK
  5
20
100
AcDbEntity
  8
0
100
AcDbBlockBegin
  2
*Model_Space
 70
0
 10
0.0
 20
0.0
 30
0.0
  3
*Model_Space
  1

  0
ENDBLK
  5
21
100
AcDbEntity
  8
0
100
AcDbBlockEnd
  0
BLOCK
  5
1C
100
AcDbEntity
  8
0
100
AcDbBlockBegin
  2
*Paper_Space
 70
0
 10
0.0
 20
0.0
 30
0.0
  3
*Paper_Space
  1

  0
ENDBLK
  5
1D
100
AcDbEntity
  8
0
100
AcDbBlockEnd
  0
BLOCK
  5
227
100
AcDbEntity
  8
0
100
AcDbBlockBegin
 62
2
  6
CONTINUOUS
  2
123_BL1
 70
64
 10
8.1156859368
 20
9.204799167
  3
123_BL1
  1

  0
LINE
  5
228
100
AcDbEntity
  8
0
100
AcDbLine
 62
2
  6
CONTINUOUS
 10
8.1156859368
 20
9.204799167
 11
8.5134759202
 21
9.204799167
  0
LINE
  5
229
100
AcDbEntity
  8
0
100
AcDbLine
 62
2
  6
CONTINUOUS
 10
8.1156859368
 20
9.204799167
 11
8.1156859368
 21
9.6025891504
  0
LINE
  5
22A
100
AcDbEntity
  8
0
100
AcDbLine
 62
2
  6
CONTINUOUS
 10
8.1156859368
 20
9.204799167
 11
7.7178959534
 21
9.204799167
  0
LINE
  5
22B
100
AcDbEntity
  8
0
100
AcDbLine
 62
2
  6
CONTINUOUS
 10
8.1156859368
 20
9.204799167
 11
8.1156859368
 21
8.8070091836
  0
ARC
  5
22C
100
AcDbEntity
  8
0
100
AcDbCircle
 62
2
  6
CONTINUOUS
 10
8.1156859368
 20
9.204799167
 40
0.3977899834
100
AcDbArc
 50
90.0
 51
180.0
  0
ARC
  5
22D
100
AcDbEntity
  8
0
100
AcDbCircle
 62
2
  6
CONTINUOUS
 10
8.1156859368
 20
9.204799167
 40
0.3977899834
100
AcDbArc
 50
180.0
 51
270.0
  0
ARC
  5
22E
100
AcDbEntity
  8
0
100
AcDbCircle
 62
2
  6
CONTINUOUS
 10
8.1156859368
 20
9.204799167
 40
0.3977899834
100
AcDbArc
 50
270.0
 51
90.0
  0
ENDBLK
  5
22F
100
AcDbEntity
  8
0
  6
BYBLOCK
 62
0
100
AcDbBlockEnd
  0
BLOCK
  5
230
100
AcDbEntity
  8
0
100
AcDbBlockBegin
 62
7
  6
CONTINUOUS
  2
RD010411_BL0
 70
64
 10
115.5552811952
 20
10.8044426607
  3
RD010411_BL0
  1

  0
ARC
  5
231
100
AcDbEntity
  8
0
100
AcDbCircle
 62
7
  6
CONTINUOUS
 10
118.1639274738
 20
11.2059504908
 40
0.0494860531
100
AcDbArc
 50
270.0
 51
360.0
  0
LINE
  5
232
100
AcDbEntity
  8
0
100
AcDbLine
 62
7
  6
CONTINUOUS
 10
118.2134135269
 20
11.2059504908
 11
118.2134135269
 21
11.3049566076
  0
ARC
  5
233
100
AcDbEntity
  8
0
100
AcDbCircle
 62
7
  6
CONTINUOUS
 10
118.1639274738
 20
11.3049566076
 40
0.0494860531
100
AcDbArc
 50
0.0
 51
90.0
  0
LINE
  5
234
100
AcDbEntity
  8
0
100
AcDbLine
 62
7
  6
CONTINUOUS
 10
118.1639274738
 20
11.3544426607
 11
116.8335541449
 21
11.3544426607
  0
SPLINE
  5
235
100
AcDbEntity
  8
0
100
AcDbSpline
 62
7
  6
CONTINUOUS
 70
0
 71
3
 72
13
 73
9
 74
0
 42
0.0000001
 43
0.0000001
 44
0.0000000001
 40
0.0
 40
0.0
 40
0.0
 40
0.0
 40
0.1310616762
 40
0.2699656353
 40
0.4157607805
 40
0.5899807757
 40
0.76586761
 40
0.9948829976
 40
0.9948829976
 40
0.9948829976
 40
0.9948829976
 10
116.8335541449
 20
11.3544426607
 30
0.0
 10
116.8055884869
 20
11.35235976
 30
0.0
 10
116.7479838022
 20
11.3480693253
 30
0.0
 10
116.6699179828
 20
11.2996952938
 30
0.0
 10
116.6138760403
 20
11.2184840077
 30
0.0
 10
116.5774346737
 20
11.1191804813
 30
0.0
 10
116.5569086712
 20
10.9977902902
 30
0.0
 10
116.5550187813
 20
10.9120138494
 30
0.0
 10
116.5540392955
 20
10.8634917519
 30
0.0
  0
LINE
  5
236
100
AcDbEntity
  8
0
100
AcDbLine
 62
7
  6
CONTINUOUS
 10
116.5540392955
 20
10.8634917519
 11
116.5541261489
 21
10.8559620363
  0
SPLINE
  5
237
100
AcDbEntity
  8
0
100
AcDbSpline
 62
7
  6
CONTINUOUS
 70
0
 71
3
 72
13
 73
9
 74
0
 42
0.0000001
 43
0.0000001
 44
0.0000000001
 40
0.0
 40
0.0
 40
0.0
 40
0.0
 40
0.2222860645
 40
0.3981728988
 40
0.572392894
 40
0.7181880393
 40
0.8570919984
 40
0.9881536746
 40
0.9881536746
 40
0.9881536746
 40
0.9881536746
 10
116.5541261489
 20
10.8559620363
 30
0.0
 10
116.5550863306
 20
10.8088663218
 30
0.0
 10
116.5571467585
 20
10.724531122
 30
0.0
 10
116.577434657
 20
10.6045480629
 30
0.0
 10
116.6138764598
 20
10.5052556427
 30
0.0
 10
116.6699166543
 20
10.4240098907
 30
0.0
 10
116.7479884318
 20
10.3757514937
 30
0.0
 10
116.8055790723
 20
10.3711887768
 30
0.0
 10
116.8335541449
 20
10.3691051757
 30
0.0
  0
LINE
  5
238
100
AcDbEntity
  8
0
100
AcDbLine
 62
7
  6
CONTINUOUS
 10
116.8335541449
 20
10.3691051757
 11
118.164035482
 21
10.3720090866
  0
ARC
  5
239
100
AcDbEntity
  8
0
100
AcDbCircle
 62
7
  6
CONTINUOUS
 10
118.1639274738
 20
10.4214950217
 40
0.0494860529
100
AcDbArc
 50
270.125053868
 51
360.0
  0
LINE
  5
23A
100
AcDbEntity
  8
0
100
AcDbLine
 62
7
  6
CONTINUOUS
 10
118.2134135269
 20
10.4214950217
 11
118.2134135269
 21
10.5166357387
  0
ARC
  5
23B
100
AcDbEntity
  8
0
100
AcDbCircle
 62
7
  6
CONTINUOUS
 10
118.1639274738
 20
10.5166357387
 40
0.0494860531
100
AcDbArc
 50
0.0
 51
90.0
  0
LINE
  5
23C
100
AcDbEntity
  8
0
100
AcDbLine
 62
7
  6
CONTINUOUS
 10
118.1639274738
 20
10.5661217918
 11
117.023615701
 21
10.5661217918
  0
LINE
  5
23D
100
AcDbEntity
  8
0
100
AcDbLine
 62
7
  6
CONTINUOUS
 10
116.9741296479
 20
10.6156078448
 11
116.9741296479
 21
11.1069783847
  0
ARC
  5
23E
100
AcDbEntity
  8
0
100
AcDbCircle
 62
7
  6
CONTINUOUS
 10
117.0236157014
 20
11.1069783847
 40
0.0494860531
100
AcDbArc
 50
90.0
 51
180.0
  0
LINE
  5
23F
100
AcDbEntity
  8
0
100
AcDbLine
 62
7
  6
CONTINUOUS
 10
117.023615701
 20
11.1564644378
 11
118.1639274738
 21
11.1564644378
  0
LINE
  5
240
100
AcDbEntity
  8
0
100
AcDbLine
 62
7
  6
CONTINUOUS
 10
114.990338532
 20
10.7618524023
 11
115.9407862689
 21
10.7618524023
  0
ARC
  5
241
100
AcDbEntity
  8
0
100
AcDbCircle
 62
7
  6
CONTINUOUS
 10
115.9407862688
 20
10.7123663494
 40
0.0494860531
100
AcDbArc
 50
0.0
 51
90.0
  0
LINE
  5
242
100
AcDbEntity
  8
0
100
AcDbLine
 62
7
  6
CONTINUOUS
 10
115.990272322
 20
10.7123663492
 11
115.990272322
 21
10.6113209404
  0
LINE
  5
243
100
AcDbEntity
  8
0
100
AcDbLine
 62
7
  6
CONTINUOUS
 10
115.9407862689
 20
10.5618348873
 11
114.8328657094
 21
10.5618348873
  0
ARC
  5
244
100
AcDbEntity
  8
0
100
AcDbCircle
 62
7
  6
CONTINUOUS
 10
114.8328657094
 20
10.5123488342
 40
0.0494860531
100
AcDbArc
 50
90.0
 51
180.0
  0
LINE
  5
245
100
AcDbEntity
  8
0
100
AcDbLine
 62
7
  6
CONTINUOUS
 10
114.7833796563
 20
10.5123488342
 11
114.7833796563
 21
10.4185907294
  0
ARC
  5
246
100
AcDbEntity
  8
0
100
AcDbCircle
 62
7
  6
CONTINUOUS
 10
114.8328657094
 20
10.4185907294
 40
0.0494860531
100
AcDbArc
 50
180.0
 51
270.0
  0
LINE
  5
247
100
AcDbEntity
  8
0
100
AcDbLine
 62
7
  6
CONTINUOUS
 10
114.8328657094
 20
10.3691046763
 11
116.2082925776
 21
10.3691046763
  0
SPLINE
  5
248
100
AcDbEntity
  8
0
100
AcDbSpline
 62
7
  6
CONTINUOUS
 70
0
 71
3
 72
13
 73
9
 74
0
 42
0.0000001
 43
0.0000001
 44
0.0000000001
 40
0.0
 40
0.0
 40
0.0
 40
0.0
 40
0.1604571392
 40
0.3334692485
 40
0.4767982758
 40
0.6242014838
 40
0.7505998515
 40
1.0
 40
1.0
 40
1.0
 40
1.0
 10
116.2082925776
 20
10.3691046763
 30
0.0
 10
116.2314824463
 20
10.3702212271
 30
0.0
 10
116.2796766744
 20
10.372541692
 30
0.0
 10
116.3444842596
 20
10.4006781737
 30
0.0
 10
116.3933189103
 20
10.4479732508
 30
0.0
 10
116.4208391566
 20
10.5021952295
 30
0.0
 10
116.4419385189
 20
10.5749345696
 30
0.0
 10
116.4427947319
 20
10.6293692409
 30
0.0
 10
116.4433629605
 20
10.665495022
 30
0.0
  0
SPLINE
  5
249
100
AcDbEntity
  8
0
100
AcDbSpline
 62
7
  6
CONTINUOUS
 70
0
 71
3
 72
13
 73
9
 74
0
 42
0.0000001
 43
0.0000001
 44
0.0000000001
 40
0.0
 40
0.0
 40
0.0
 40
0.0
 40
0.2494001485
 40
0.3757985162
 40
0.5232017242
 40
0.6665307515
 40
0.8395428608
 40
1.0
 40
1.0
 40
1.0
 40
1.0
 10
116.4433629605
 20
10.665495022
 30
0.0
 10
116.4427947319
 20
10.7016208038
 30
0.0
 10
116.4419385189
 20
10.7560554744
 30
0.0
 10
116.4208391566
 20
10.8287948152
 30
0.0
 10
116.3933189103
 20
10.8830167939
 30
0.0
 10
116.3444842596
 20
10.9303118703
 30
0.0
 10
116.2796766744
 20
10.9584483519
 30
0.0
 10
116.2314824463
 20
10.9607688176
 30
0.0
 10
116.2082925776
 20
10.9618853676
 30
0.0
  0
LINE
  5
24A
100
AcDbEntity
  8
0
100
AcDbLine
 62
7
  6
CONTINUOUS
 10
116.2082925776
 20
10.9618853676
 11
115.2705136799
 21
10.9618853676
  0
LINE
  5
24B
100
AcDbEntity
  8
0
100
AcDbLine
 62
7
  6
CONTINUOUS
 10
115.2210276269
 20
11.0113714207
 11
115.2210276269
 21
11.1050039977
  0
ARC
  5
24C
100
AcDbEntity
  8
0
100
AcDbCircle
 62
7
  6
CONTINUOUS
 10
115.2705136795
 20
11.1050039977
 40
0.0494860531
100
AcDbArc
 50
90.0
 51
180.0
  0
LINE
  5
24D
100
AcDbEntity
  8
0
100
AcDbLine
 62
7
  6
CONTINUOUS
 10
115.2705136799
 20
11.1544900508
 11
116.3799380787
 21
11.1544900508
  0
ARC
  5
24E
100
AcDbEntity
  8
0
100
AcDbCircle
 62
7
  6
CONTINUOUS
 10
116.3799380787
 20
11.2039761039
 40
0.0494860531
100
AcDbArc
 50
270.0
 51
360.0
  0
LINE
  5
24F
100
AcDbEntity
  8
0
100
AcDbLine
 62
7
  6
CONTINUOUS
 10
116.4294241318
 20
11.2039761039
 11
116.4294241318
 21
11.3049566076
  0
ARC
  5
250
100
AcDbEntity
  8
0
100
AcDbCircle
 62
7
  6
CONTINUOUS
 10
116.3799380787
 20
11.3049566076
 40
0.0494860531
100
AcDbArc
 50
0.0
 51
90.0
  0
LINE
  5
251
100
AcDbEntity
  8
0
100
AcDbLine
 62
7
  6
CONTINUOUS
 10
116.3799380787
 20
11.3544426607
 11
114.990338532
 21
11.3544426607
  0
SPLINE
  5
252
100
AcDbEntity
  8
0
100
AcDbSpline
 62
7
  6
CONTINUOUS
 70
0
 71
3
 72
13
 73
9
 74
0
 42
0.0000001
 43
0.0000001
 44
0.0000000001
 40
0.0
 40
0.0
 40
0.0
 40
0.0
 40
0.1133740464
 40
0.2392044088
 40
0.3655787964
 40
0.4912154373
 40
0.7445390876
 40
1.0
 40
1.0
 40
1.0
 40
1.0
 10
114.990338532
 20
11.3544426607
 30
0.0
 10
114.9744640275
 20
11.3536607674
 30
0.0
 10
114.9409708999
 20
11.3520110736
 30
0.0
 10
114.8912201718
 20
11.3371470423
 30
0.0
 10
114.8467132972
 20
11.3071319338
 30
0.0
 10
114.801249128
 20
11.2518429589
 30
0.0
 10
114.7726401885
 20
11.1650466243
 30
0.0
 10
114.7695375447
 20
11.0938802129
 30
0.0
 10
114.767979707
 20
11.0581475315
 30
0.0
  0
SPLINE
  5
253
100
AcDbEntity
  8
0
100
AcDbSpline
 62
7
  6
CONTINUOUS
 70
0
 71
3
 72
13
 73
9
 74
0
 42
0.0000001
 43
0.0000001
 44
0.0000000001
 40
0.0
 40
0.0
 40
0.0
 40
0.0
 40
0.2554609124
 40
0.5087845627
 40
0.6344212036
 40
0.7607955912
 40
0.8866259536
 40
1.0
 40
1.0
 40
1.0
 40
1.0
 10
114.767979707
 20
11.0581475315
 30
0.0
 10
114.7695375447
 20
11.0224148501
 30
0.0
 10
114.7726401885
 20
10.951248438
 30
0.0
 10
114.801249128
 20
10.8644521042
 30
0.0
 10
114.8467132972
 20
10.8091631292
 30
0.0
 10
114.8912201718
 20
10.7791480207
 30
0.0
 10
114.9409708999
 20
10.7642839894
 30
0.0
 10
114.9744640275
 20
10.7626342957
 30
0.0
 10
114.990338532
 20
10.7618524023
 30
0.0
  0
LINE
  5
254
100
AcDbEntity
  8
0
100
AcDbLine
 62
7
  6
CONTINUOUS
 10
113.1618832232
 20
10.3691046763
 11
113.9307932107
 21
10.3691046763
  0
LINE
  5
255
100
AcDbEntity
  8
0
100
AcDbLine
 62
7
  6
CONTINUOUS
 10
113.9307932107
 20
10.3691046763
 11
113.9307932107
 21
10.273475758
  0
ARC
  5
256
100
AcDbEntity
  8
0
100
AcDbCircle
 62
7
  6
CONTINUOUS
 10
113.949826308
 20
10.273475758
 40
0.0190330973
100
AcDbArc
 50
180.0
 51
270.0
  0
LINE
  5
257
100
AcDbEntity
  8
0
100
AcDbLine
 62
7
  6
CONTINUOUS
 10
113.949826308
 20
10.2544426607
 11
114.2461909917
 21
10.2544426607
  0
ARC
  5
258
100
AcDbEntity
  8
0
100
AcDbCircle
 62
7
  6
CONTINUOUS
 10
114.2461909917
 20
10.273475758
 40
0.0190330973
100
AcDbArc
 50
270.0
 51
360.0
  0
LINE
  5
259
100
AcDbEntity
  8
0
100
AcDbLine
 62
7
  6
CONTINUOUS
 10
114.2652240891
 20
10.273475758
 11
114.2652240891
 21
10.3691046763
  0
LINE
  5
25A
100
AcDbEntity
  8
0
100
AcDbLine
 62
7
  6
CONTINUOUS
 10
114.2652240891
 20
10.3691046763
 11
114.4164205705
 21
10.3691046763
  0
SPLINE
  5
25B
100
AcDbEntity
  8
0
100
AcDbSpline
 62
7
  6
CONTINUOUS
 70
0
 71
3
 72
12
 73
8
 74
0
 42
0.0000001
 43
0.0000001
 44
0.0000000001
 40
0.0
 40
0.0
 40
0.0
 40
0.0
 40
0.2415790084
 40
0.4893269843
 40
0.7378634303
 40
0.8656387112
 40
1.0
 40
1.0
 40
1.0
 40
1.0
 10
114.4164205705
 20
10.3691046763
 30
0.0
 10
114.4435315892
 20
10.3699475273
 30
0.0
 10
114.4984459349
 20
10.3716547527
 30
0.0
 10
114.5788073498
 20
10.4003137705
 30
0.0
 10
114.6276124192
 20
10.4544144118
 30
0.0
 10
114.6491143126
 20
10.5084709602
 30
0.0
 10
114.6495018082
 20
10.538083023
 30
0.0
 10
114.6497004239
 20
10.5532610457
 30
0.0
  0
LINE
  5
25C
100
AcDbEntity
  8
0
100
AcDbLine
 62
7
  6
CONTINUOUS
 10
114.6497004239
 20
10.5532610457
 11
114.6497004239
 21
11.1691306077
  0
SPLINE
  5
25D
100
AcDbEntity
  8
0
100
AcDbSpline
 62
7
  6
CONTINUOUS
 70
0
 71
3
 72
12
 73
8
 74
0
 42
0.0000001
 43
0.0000001
 44
0.0000000001
 40
0.0
 40
0.0
 40
0.0
 40
0.0
 40
0.1343612888
 40
0.2621365697
 40
0.5106730157
 40
0.7584209916
 40
1.0
 40
1.0
 40
1.0
 40
1.0
 10
114.6497004239
 20
11.1691306077
 30
0.0
 10
114.6495018082
 20
11.1843086311
 30
0.0
 10
114.6491143126
 20
11.213920694
 30
0.0
 10
114.6276124192
 20
11.2679772424
 30
0.0
 10
114.5788073498
 20
11.3220778836
 30
0.0
 10
114.4984459349
 20
11.3507369007
 30
0.0
 10
114.4435315892
 20
11.3524441261
 30
0.0
 10
114.4164205705
 20
11.3532869771
 30
0.0
  0
LINE
  5
25E
100
AcDbEntity
  8
0
100
AcDbLine
 62
7
  6
CONTINUOUS
 10
114.4164205705
 20
11.3532869771
 11
113.1618832232
 21
11.3532869771
  0
SPLINE
  5
25F
100
AcDbEntity
  8
0
100
AcDbSpline
 62
7
  6
CONTINUOUS
 70
0
 71
3
 72
12
 73
8
 74
0
 42
0.0000001
 43
0.0000001
 44
0.0000000001
 40
0.0
 40
0.0
 40
0.0
 40
0.0
 40
0.1341799809
 40
0.290831959
 40
0.5815217441
 40
0.760783857
 40
1.0
 40
1.0
 40
1.0
 40
1.0
 10
113.1618832232
 20
11.3532869771
 30
0.0
 10
113.1345195363
 20
11.3486102634
 30
0.0
 10
113.0752093879
 20
11.3384735951
 30
0.0
 10
112.9753702716
 20
11.2638840233
 30
0.0
 10
112.9280813993
 20
11.138394559
 30
0.0
 10
112.900413103
 20
10.9961406855
 30
0.0
 10
112.8983361307
 20
10.9100990589
 30
0.0
 10
112.8971488636
 20
10.8609147924
 30
0.0
  0
SPLINE
  5
260
100
AcDbEntity
  8
0
100
AcDbSpline
 62
7
  6
CONTINUOUS
 70
0
 71
3
 72
12
 73
8
 74
0
 42
0.0000001
 43
0.0000001
 44
0.0000000001
 40
0.0
 40
0.0
 40
0.0
 40
0.0
 40
0.2392679579
 40
0.4185688994
 40
0.7093216488
 40
0.8660075581
 40
1.0
 40
1.0
 40
1.0
 40
1.0
 10
112.8971488636
 20
10.8609147924
 30
0.0
 10
112.898336605
 20
10.8117324428
 30
0.0
 10
112.9004144063
 20
10.7256941698
 30
0.0
 10
112.9280767324
 20
10.5834161563
 30
0.0
 10
112.975394497
 20
10.458043521
 30
0.0
 10
113.0751296666
 20
10.3832117416
 30
0.0
 10
113.1345106768
 20
10.373555748
 30
0.0
 10
113.1618832232
 20
10.3691046763
 30
0.0
  0
LINE
  5
261
100
AcDbEntity
  8
0
100
AcDbLine
 62
7
  6
CONTINUOUS
 10
114.3962846064
 20
10.6224898337
 11
114.3962846064
 21
11.115941827
  0
ARC
  5
262
100
AcDbEntity
  8
0
100
AcDbCircle
 62
7
  6
CONTINUOUS
 10
113.3580848588
 20
10.6224898337
 40
0.0494860531
100
AcDbArc
 50
180.0
 51
270.0
  0
LINE
  5
263
100
AcDbEntity
  8
0
100
AcDbLine
 62
7
  6
CONTINUOUS
 10
113.3580848588
 20
10.5730037806
 11
113.9264644311
 21
10.5730037806
  0
LINE
  5
264
100
AcDbEntity
  8
0
100
AcDbLine
 62
7
  6
CONTINUOUS
 10
113.9264644311
 20
10.5730037806
 11
113.9264644311
 21
10.6683363985
  0
ARC
  5
265
100
AcDbEntity
  8
0
100
AcDbCircle
 62
7
  6
CONTINUOUS
 10
113.9454975288
 20
10.6683363985
 40
0.0190330973
100
AcDbArc
 50
90.0
 51
180.0
  0
LINE
  5
266
100
AcDbEntity
  8
0
100
AcDbLine
 62
7
  6
CONTINUOUS
 10
113.9454975285
 20
10.6873694958
 11
114.2403518712
 21
10.6873694958
  0
ARC
  5
267
100
AcDbEntity
  8
0
100
AcDbCircle
 62
7
  6
CONTINUOUS
 10
114.2403518705
 20
10.6683363992
 40
0.0190330973
100
AcDbArc
 50
0.0
 51
90.0
  0
LINE
  5
268
100
AcDbEntity
  8
0
100
AcDbLine
 62
7
  6
CONTINUOUS
 10
114.2593849685
 20
10.5730037806
 11
114.3467985533
 21
10.5730037806
  0
ARC
  5
269
100
AcDbEntity
  8
0
100
AcDbCircle
 62
7
  6
CONTINUOUS
 10
114.3467985533
 20
10.6224898337
 40
0.0494860531
100
AcDbArc
 50
270.0
 51
360.0
  0
LINE
  5
26A
100
AcDbEntity
  8
0
100
AcDbLine
 62
7
  6
CONTINUOUS
 10
114.2593849685
 20
10.5730037806
 11
114.2593849685
 21
10.6683363985
  0
LINE
  5
26B
100
AcDbEntity
  8
0
100
AcDbLine
 62
7
  6
CONTINUOUS
 10
113.3085988057
 20
10.6224898337
 11
113.3085988057
 21
11.115941827
  0
ARC
  5
26C
100
AcDbEntity
  8
0
100
AcDbCircle
 62
7
  6
CONTINUOUS
 10
113.3580848595
 20
11.115941827
 40
0.0494860531
100
AcDbArc
 50
90.0
 51
180.0
  0
LINE
  5
26D
100
AcDbEntity
  8
0
100
AcDbLine
 62
7
  6
CONTINUOUS
 10
113.3580848588
 20
11.16542788
 11
114.3467985533
 21
11.16542788
  0
ARC
  5
26E
100
AcDbEntity
  8
0
100
AcDbCircle
 62
7
  6
CONTINUOUS
 10
114.3467985538
 20
11.1159418265
 40
0.0494860531
100
AcDbArc
 50
0.0000000277
 51
90.0000000277
  0
ARC
  5
26F
100
AcDbEntity
  8
0
100
AcDbCircle
 62
7
  6
CONTINUOUS
 10
115.2705136799
 20
11.0113714207
 40
0.0494860531
100
AcDbArc
 50
180.0
 51
270.0
  0
ARC
  5
270
100
AcDbEntity
  8
0
100
AcDbCircle
 62
7
  6
CONTINUOUS
 10
115.9407862689
 20
10.6113209404
 40
0.0494860531
100
AcDbArc
 50
270.0
 51
360.0
  0
ARC
  5
271
100
AcDbEntity
  8
0
100
AcDbCircle
 62
7
  6
CONTINUOUS
 10
117.023615701
 20
10.6156078448
 40
0.0494860531
100
AcDbArc
 50
180.0
 51
270.0
  0
ENDBLK
  5
272
100
AcDbEntity
  8
0
  6
BYBLOCK
 62
0
100
AcDbBlockEnd
  0
BLOCK
  5
273
100
AcDbEntity
  8
0
100
AcDbBlockBegin
  2
_FILLED
 70
64
 10
0.0
 20
0.0
  3
_FILLED
  1

  0
SOLID
  5
274
100
AcDbEntity
  8
0
  6
BYBLOCK
 62
0
100
AcDbTrace
 10
0.0
 20
0.0
 11
-1.0
 21
0.1666666667
 12
-1.0
 22
-0.1666666667
 13
-1.0
 23
-0.1666666667
  0
ENDBLK
  5
275
100
AcDbEntity
  8
0
  6
BYBLOCK
 62
0
100
AcDbBlockEnd
  0
BLOCK
  5
276
100
AcDbEntity
  8
0
100
AcDbBlockBegin
 62
2
  6
CONTINUOUS
  2
*D0
 70
65
 10
0.0
 20
0.0
  3
*D0
  1

  0
MTEXT
  5
277
100
AcDbEntity
  8
0
100
AcDbMText
 62
2
  6
CONTINUOUS
  7
STANDARD
 71
2
 72
1
 10
67.6261715239
 20
76.7983340341
 30
0.0
 11
1.0
 21
0.0
 31
0.0
 44
0.9
  1
297.0\P[11.69]
 40
0.625
 41
3.8839285714
  0
LINE
  5
278
100
AcDbEntity
  8
0
100
AcDbLine
 62
2
  6
CONTINUOUS
 10
65.1722681508
 20
70.6393773412
 11
68.2601000954
 21
70.6393773412
  0
LINE
  5
279
100
AcDbEntity
  8
0
100
AcDbLine
 62
2
  6
CONTINUOUS
 10
65.1722681508
 20
82.332290727
 11
68.2601000954
 21
82.332290727
  0
LINE
  5
27A
100
AcDbEntity
  8
0
100
AcDbLine
 62
2
  6
CONTINUOUS
 10
67.7601000954
 20
70.6393773412
 11
67.7601000954
 21
74.9233340341
  0
LINE
  5
27B
100
AcDbEntity
  8
0
100
AcDbLine
 62
2
  6
CONTINUOUS
 10
67.7601000954
 20
82.332290727
 11
67.7601000954
 21
77.1108340341
  0
INSERT
  5
27C
100
AcDbEntity
  8
0
100
AcDbBlockReference
 62
2
  6
CONTINUOUS
  2
_FILLED
 10
67.7601000954
 20
70.6393773412
 41
0.75
 42
0.75
 43
0.75
 50
270.0
  0
INSERT
  5
27D
100
AcDbEntity
  8
0
100
AcDbBlockReference
 62
2
  6
CONTINUOUS
  2
_FILLED
 10
67.7601000954
 20
82.332290727
 41
0.75
 42
0.75
 43
0.75
 50
90.0
  0
ENDBLK
  5
27E
100
AcDbEntity
  8
0
  6
BYBLOCK
 62
0
100
AcDbBlockEnd
  0
BLOCK
  5
27F
100
AcDbEntity
  8
0
100
AcDbBlockBegin
 62
2
  6
CONTINUOUS
  2
*D1
 70
65
 10
0.0
 20
0.0
  3
*D1
  1

  0
MTEXT
  5
280
100
AcDbEntity
  8
0
100
AcDbMText
 62
2
  6
CONTINUOUS
  7
STANDARD
 71
2
 72
1
 10
71.8073572268
 20
76.6337080499
 30
0.0
 11
1.0
 21
0.0
 31
0.0
 44
0.9
  1
305.4\P[12.02]
 40
0.625
 41
4.0848214286
  0
LINE
  5
281
100
AcDbEntity
  8
0
100
AcDbLine
 62
2
  6
CONTINUOUS
 10
65.1722681508
 20
82.332290727
 11
72.5528929411
 21
82.332290727
  0
LINE
  5
282
100
AcDbEntity
  8
0
100
AcDbLine
 62
2
  6
CONTINUOUS
 10
64.9222681508
 20
70.3101253727
 11
72.5528929411
 21
70.3101253727
  0
LINE
  5
283
100
AcDbEntity
  8
0
100
AcDbLine
 62
2
  6
CONTINUOUS
 10
72.0528929411
 20
82.332290727
 11
72.0528929411
 21
76.9462080499
  0
LINE
  5
284
100
AcDbEntity
  8
0
100
AcDbLine
 62
2
  6
CONTINUOUS
 10
72.0528929411
 20
70.3101253727
 11
72.0528929411
 21
74.7587080499
  0
INSERT
  5
285
100
AcDbEntity
  8
0
100
AcDbBlockReference
 62
2
  6
CONTINUOUS
  2
_FILLED
 10
72.0528929411
 20
82.332290727
 41
0.75
 42
0.75
 43
0.75
 50
90.0
  0
INSERT
  5
286
100
AcDbEntity
  8
0
100
AcDbBlockReference
 62
2
  6
CONTINUOUS
  2
_FILLED
 10
72.0528929411
 20
70.3101253727
 41
0.75
 42
0.75
 43
0.75
 50
270.0
  0
ENDBLK
  5
287
100
AcDbEntity
  8
0
  6
BYBLOCK
 62
0
100
AcDbBlockEnd
  0
BLOCK
  5
288
100
AcDbEntity
  8
0
100
AcDbBlockBegin
 62
2
  6
CONTINUOUS
  2
*D2
 70
65
 10
0.0
 20
0.0
  3
*D2
  1

  0
MTEXT
  5
289
100
AcDbEntity
  8
0
100
AcDbMText
 62
2
  6
CONTINUOUS
  7
STANDARD
 71
2
 72
1
 10
49.9594531902
 20
68.2248973984
 30
0.0
 11
1.0
 21
0.0
 31
0.0
 44
0.9
  1
767.1\P[30.20]
 40
0.625
 41
4.21875
  0
LINE
  5
28A
100
AcDbEntity
  8
0
100
AcDbLine
 62
2
  6
CONTINUOUS
 10
35.1716382295
 20
70.6393773412
 11
35.1716382295
 21
67.4123973984
  0
LINE
  5
28B
100
AcDbEntity
  8
0
100
AcDbLine
 62
2
  6
CONTINUOUS
 10
65.3722681508
 20
75.7891411207
 11
65.3722681508
 21
67.4123973984
  0
LINE
  5
28C
100
AcDbEntity
  8
0
100
AcDbLine
 62
2
  6
CONTINUOUS
 10
35.1716382295
 20
67.9123973984
 11
48.5532031902
 21
67.9123973984
  0
LINE
  5
28D
100
AcDbEntity
  8
0
100
AcDbLine
 62
2
  6
CONTINUOUS
 10
65.3722681508
 20
67.9123973984
 11
51.9907031902
 21
67.9123973984
  0
INSERT
  5
28E
100
AcDbEntity
  8
0
100
AcDbBlockReference
 62
2
  6
CONTINUOUS
  2
_FILLED
 10
35.1716382295
 20
67.9123973984
 41
0.75
 42
0.75
 43
0.75
 50
180.0
  0
INSERT
  5
28F
100
AcDbEntity
  8
0
100
AcDbBlockReference
 62
2
  6
CONTINUOUS
  2
_FILLED
 10
65.3722681508
 20
67.9123973984
 41
0.75
 42
0.75
 43
0.75
  0
ENDBLK
  5
290
100
AcDbEntity
  8
0
  6
BYBLOCK
 62
0
100
AcDbBlockEnd
  0
BLOCK
  5
291
100
AcDbEntity
  8
0
100
AcDbBlockBegin
 62
2
  6
CONTINUOUS
  2
*D3
 70
65
 10
0.0
 20
0.0
  3
*D3
  1

  0
MTEXT
  5
292
100
AcDbEntity
  8
0
100
AcDbMText
 62
2
  6
CONTINUOUS
  7
STANDARD
 71
2
 72
1
 10
71.6381814422
 20
47.2501892483
 30
0.0
 11
1.0
 21
0.0
 31
0.0
 44
0.9
  1
704.0\P[27.71]
 40
0.625
 41
4.0848214286
  0
LINE
  5
293
100
AcDbEntity
  8
0
100
AcDbLine
 62
2
  6
CONTINUOUS
 10
65.1722681508
 20
60.7951301932
 11
72.3390742994
 21
60.7951301932
  0
LINE
  5
294
100
AcDbEntity
  8
0
100
AcDbLine
 62
2
  6
CONTINUOUS
 10
63.4751027965
 20
33.0802483034
 11
72.3390742994
 21
33.0802483034
  0
LINE
  5
295
100
AcDbEntity
  8
0
100
AcDbLine
 62
2
  6
CONTINUOUS
 10
71.8390742994
 20
60.7951301932
 11
71.8390742994
 21
47.5626892483
  0
LINE
  5
296
100
AcDbEntity
  8
0
100
AcDbLine
 62
2
  6
CONTINUOUS
 10
71.8390742994
 20
33.0802483034
 11
71.8390742994
 21
45.3751892483
  0
INSERT
  5
297
100
AcDbEntity
  8
0
100
AcDbBlockReference
 62
2
  6
CONTINUOUS
  2
_FILLED
 10
71.8390742994
 20
60.7951301932
 41
0.75
 42
0.75
 43
0.75
 50
90.0
  0
INSERT
  5
298
100
AcDbEntity
  8
0
100
AcDbBlockReference
 62
2
  6
CONTINUOUS
  2
_FILLED
 10
71.8390742994
 20
33.0802483034
 41
0.75
 42
0.75
 43
0.75
 50
270.0
  0
ENDBLK
  5
299
100
AcDbEntity
  8
0
  6
BYBLOCK
 62
0
100
AcDbBlockEnd
  0
BLOCK
  5
29A
100
AcDbEntity
  8
0
100
AcDbBlockBegin
 62
2
  6
CONTINUOUS
  2
*D4
 70
65
 10
0.0
 20
0.0
  3
*D4
  1

  0
MTEXT
  5
29B
100
AcDbEntity
  8
0
100
AcDbMText
 62
2
  6
CONTINUOUS
  7
STANDARD
 71
2
 72
1
 10
21.4661980493
 20
63.8650248083
 30
0.0
 11
1.0
 21
0.0
 31
0.0
 44
0.9
  1
145.0\P[5.71]
 40
0.625
 41
3.28125
  0
LINE
  5
29C
100
AcDbEntity
  8
0
100
AcDbLine
 62
2
  6
CONTINUOUS
 10
24.3428501865
 20
60.7703857628
 11
24.3428501865
 21
64.0525248083
  0
LINE
  5
29D
100
AcDbEntity
  8
0
100
AcDbLine
 62
2
  6
CONTINUOUS
 10
18.6341887692
 20
47.2145002719
 11
18.6341887692
 21
64.0525248083
  0
LINE
  5
29E
100
AcDbEntity
  8
0
100
AcDbLine
 62
2
  6
CONTINUOUS
 10
24.3428501865
 20
63.5525248083
 11
22.8947694778
 21
63.5525248083
  0
LINE
  5
29F
100
AcDbEntity
  8
0
100
AcDbLine
 62
2
  6
CONTINUOUS
 10
18.6341887692
 20
63.5525248083
 11
20.0822694778
 21
63.5525248083
  0
INSERT
  5
2A0
100
AcDbEntity
  8
0
100
AcDbBlockReference
 62
2
  6
CONTINUOUS
  2
_FILLED
 10
24.3428501865
 20
63.5525248083
 41
0.75
 42
0.75
 43
0.75
  0
INSERT
  5
2A1
100
AcDbEntity
  8
0
100
AcDbBlockReference
 62
2
  6
CONTINUOUS
  2
_FILLED
 10
18.6341887692
 20
63.5525248083
 41
0.75
 42
0.75
 43
0.75
 50
180.0
  0
ENDBLK
  5
2A2
100
AcDbEntity
  8
0
  6
BYBLOCK
 62
0
100
AcDbBlockEnd
  0
BLOCK
  5
2A3
100
AcDbEntity
  8
0
100
AcDbBlockBegin
 62
2
  6
CONTINUOUS
  2
*D5
 70
65
 10
0.0
 20
0.0
  3
*D5
  1

  0
MTEXT
  5
2A4
100
AcDbEntity
  8
0
100
AcDbMText
 62
2
  6
CONTINUOUS
  7
STANDARD
 71
2
 72
1
 10
27.1615422137
 20
39.8888112956
 30
0.0
 11
1.0
 21
0.0
 31
0.0
 44
0.9
  1
330.0\P[12.99]
 40
0.625
 41
4.0848214286
  0
LINE
  5
2A5
100
AcDbEntity
  8
0
100
AcDbLine
 62
2
  6
CONTINUOUS
 10
19.9025972304
 20
46.0723742877
 11
27.9070779279
 21
46.0723742877
  0
LINE
  5
2A6
100
AcDbEntity
  8
0
100
AcDbLine
 62
2
  6
CONTINUOUS
 10
22.8437493991
 20
33.0802483034
 11
27.9070779279
 21
33.0802483034
  0
LINE
  5
2A7
100
AcDbEntity
  8
0
100
AcDbLine
 62
2
  6
CONTINUOUS
 10
27.4070779279
 20
46.0723742877
 11
27.4070779279
 21
40.2013112956
  0
LINE
  5
2A8
100
AcDbEntity
  8
0
100
AcDbLine
 62
2
  6
CONTINUOUS
 10
27.4070779279
 20
33.0802483034
 11
27.4070779279
 21
38.0138112956
  0
INSERT
  5
2A9
100
AcDbEntity
  8
0
100
AcDbBlockReference
 62
2
  6
CONTINUOUS
  2
_FILLED
 10
27.4070779279
 20
46.0723742877
 41
0.75
 42
0.75
 43
0.75
 50
90.0
  0
INSERT
  5
2AA
100
AcDbEntity
  8
0
100
AcDbBlockReference
 62
2
  6
CONTINUOUS
  2
_FILLED
 10
27.4070779279
 20
33.0802483034
 41
0.75
 42
0.75
 43
0.75
 50
270.0
  0
ENDBLK
  5
2AB
100
AcDbEntity
  8
0
  6
BYBLOCK
 62
0
100
AcDbBlockEnd
  0
BLOCK
  5
2AC
100
AcDbEntity
  8
0
100
AcDbBlockBegin
 62
2
  6
CONTINUOUS
  2
*D6
 70
65
 10
0.0
 20
0.0
  3
*D6
  1

  0
MTEXT
  5
2AD
100
AcDbEntity
  8
0
100
AcDbMText
 62
2
  6
CONTINUOUS
  7
STANDARD
 71
2
 72
1
 10
91.8590149385
 20
46.7754648389
 30
0.0
 11
1.0
 21
0.0
 31
0.0
 44
0.9
  1
177.5\P[6.99]
 40
0.625
 41
3.5491071429
  0
LINE
  5
2AE
100
AcDbEntity
  8
0
100
AcDbLine
 62
2
  6
CONTINUOUS
 10
88.0002583765
 20
49.9579648389
 11
92.4706220813
 21
49.9579648389
  0
LINE
  5
2AF
100
AcDbEntity
  8
0
100
AcDbLine
 62
2
  6
CONTINUOUS
 10
88.0002583765
 20
42.9679648389
 11
92.4706220813
 21
42.9679648389
  0
LINE
  5
2B0
100
AcDbEntity
  8
0
100
AcDbLine
 62
2
  6
CONTINUOUS
 10
91.9706220813
 20
49.9579648389
 11
91.9706220813
 21
47.0879648389
  0
LINE
  5
2B1
100
AcDbEntity
  8
0
100
AcDbLine
 62
2
  6
CONTINUOUS
 10
91.9706220813
 20
42.9679648389
 11
91.9706220813
 21
44.9004648389
  0
INSERT
  5
2B2
100
AcDbEntity
  8
0
100
AcDbBlockReference
 62
2
  6
CONTINUOUS
  2
_FILLED
 10
91.9706220813
 20
49.9579648389
 41
0.75
 42
0.75
 43
0.75
 50
90.0
  0
INSERT
  5
2B3
100
AcDbEntity
  8
0
100
AcDbBlockReference
 62
2
  6
CONTINUOUS
  2
_FILLED
 10
91.9706220813
 20
42.9679648389
 41
0.75
 42
0.75
 43
0.75
 50
270.0
  0
ENDBLK
  5
2B4
100
AcDbEntity
  8
0
  6
BYBLOCK
 62
0
100
AcDbBlockEnd
  0
BLOCK
  5
2B5
100
AcDbEntity
  8
0
100
AcDbBlockBegin
 62
2
  6
CONTINUOUS
  2
*D7
 70
65
 10
0.0
 20
0.0
  3
*D7
  1

  0
MTEXT
  5
2B6
100
AcDbEntity
  8
0
100
AcDbMText
 62
2
  6
CONTINUOUS
  7
STANDARD
 71
1
 72
1
 10
91.8423395189
 20
31.3850106302
 30
0.0
 11
1.0
 21
0.0
 31
0.0
 44
0.9
  1
38.4\P[1.51]
 40
0.625
 41
3.0803571429
  0
LINE
  5
2B7
100
AcDbEntity
  8
0
100
AcDbLine
 62
2
  6
CONTINUOUS
 10
89.4571087702
 20
33.6333979097
 11
89.4571087702
 21
30.5725106302
  0
LINE
  5
2B8
100
AcDbEntity
  8
0
100
AcDbLine
 62
2
  6
CONTINUOUS
 10
87.9471087702
 20
42.9148152326
 11
87.9471087702
 21
30.5725106302
  0
LINE
  5
2B9
100
AcDbEntity
  8
0
100
AcDbLine
 62
2
  6
CONTINUOUS
 10
89.4571087702
 20
31.0725106302
 11
91.5298395189
 21
31.0725106302
  0
LINE
  5
2BA
100
AcDbEntity
  8
0
100
AcDbLine
 62
2
  6
CONTINUOUS
 10
87.9471087702
 20
31.0725106302
 11
85.9471087702
 21
31.0725106302
  0
INSERT
  5
2BB
100
AcDbEntity
  8
0
100
AcDbBlockReference
 62
2
  6
CONTINUOUS
  2
_FILLED
 10
89.4571087702
 20
31.0725106302
 41
0.75
 42
0.75
 43
0.75
 50
180.0
  0
INSERT
  5
2BC
100
AcDbEntity
  8
0
100
AcDbBlockReference
 62
2
  6
CONTINUOUS
  2
_FILLED
 10
87.9471087702
 20
31.0725106302
 41
0.75
 42
0.75
 43
0.75
  0
ENDBLK
  5
2BD
100
AcDbEntity
  8
0
  6
BYBLOCK
 62
0
100
AcDbBlockEnd
  0
BLOCK
  5
2BE
100
AcDbEntity
  8
0
100
AcDbBlockBegin
 62
2
  6
CONTINUOUS
  2
*D8
 70
65
 10
0.0
 20
0.0
  3
*D8
  1

  0
MTEXT
  5
2BF
100
AcDbEntity
  8
0
100
AcDbMText
 62
2
  6
CONTINUOUS
  7
STANDARD
 71
3
 72
1
 10
81.3659441204
 20
31.3850106302
 30
0.0
 11
1.0
 21
0.0
 31
0.0
 44
0.9
  1
126.5\P[4.98]
 40
0.625
 41
3.5491071429
  0
LINE
  5
2C0
100
AcDbEntity
  8
0
100
AcDbLine
 62
2
  6
CONTINUOUS
 10
87.9471087702
 20
42.9148152326
 11
87.9471087702
 21
30.5725106302
  0
LINE
  5
2C1
100
AcDbEntity
  8
0
100
AcDbLine
 62
2
  6
CONTINUOUS
 10
82.9671087702
 20
42.9148152326
 11
82.9671087702
 21
30.5725106302
  0
LINE
  5
2C2
100
AcDbEntity
  8
0
100
AcDbLine
 62
2
  6
CONTINUOUS
 10
87.9471087702
 20
31.0725106302
 11
85.4571087702
 21
31.0725106302
  0
LINE
  5
2C3
100
AcDbEntity
  8
0
100
AcDbLine
 62
2
  6
CONTINUOUS
 10
82.9671087702
 20
31.0725106302
 11
85.4571087702
 21
31.0725106302
  0
LINE
  5
2C4
100
AcDbEntity
  8
0
100
AcDbLine
 62
2
  6
CONTINUOUS
 10
85.4571087702
 20
31.0725106302
 11
81.9016584061
 21
31.0725106302
  0
INSERT
  5
2C5
100
AcDbEntity
  8
0
100
AcDbBlockReference
 62
2
  6
CONTINUOUS
  2
_FILLED
 10
87.9471087702
 20
31.0725106302
 41
0.75
 42
0.75
 43
0.75
  0
INSERT
  5
2C6
100
AcDbEntity
  8
0
100
AcDbBlockReference
 62
2
  6
CONTINUOUS
  2
_FILLED
 10
82.9671087702
 20
31.0725106302
 41
0.75
 42
0.75
 43
0.75
 50
180.0
  0
ENDBLK
  5
2C7
100
AcDbEntity
  8
0
  6
BYBLOCK
 62
0
100
AcDbBlockEnd
  0
BLOCK
  5
2C8
100
AcDbEntity
  8
0
100
AcDbBlockBegin
 62
2
  6
CONTINUOUS
  2
*D9
 70
65
 10
0.0
 20
0.0
  3
*D9
  1

  0
MTEXT
  5
2C9
100
AcDbEntity
  8
0
100
AcDbMText
 62
2
  6
CONTINUOUS
  7
STANDARD
 71
2
 72
1
 10
69.7448757411
 20
11.9792680266
 30
0.0
 11
1.0
 21
0.0
 31
0.0
 44
0.9
  1
48.5\P[1.91]
 40
0.625
 41
3.1473214286
  0
LINE
  5
2CA
100
AcDbEntity
  8
0
100
AcDbLine
 62
2
  6
CONTINUOUS
 10
65.1722681508
 20
13.1910831919
 11
70.4011257411
 21
13.1910831919
  0
LINE
  5
2CB
100
AcDbEntity
  8
0
100
AcDbLine
 62
2
  6
CONTINUOUS
 10
64.0719531902
 20
15.1005320108
 11
70.4011257411
 21
15.1005320108
  0
LINE
  5
2CC
100
AcDbEntity
  8
0
100
AcDbLine
 62
2
  6
CONTINUOUS
 10
69.9011257411
 20
13.1910831919
 11
69.9011257411
 21
14.1458076014
  0
LINE
  5
2CD
100
AcDbEntity
  8
0
100
AcDbLine
 62
2
  6
CONTINUOUS
 10
69.9011257411
 20
14.1458076014
 11
69.9011257411
 21
12.2917680266
  0
LINE
  5
2CE
100
AcDbEntity
  8
0
100
AcDbLine
 62
2
  6
CONTINUOUS
 10
69.9011257411
 20
15.1005320108
 11
69.9011257411
 21
14.1458076014
  0
INSERT
  5
2CF
100
AcDbEntity
  8
0
100
AcDbBlockReference
 62
2
  6
CONTINUOUS
  2
_FILLED
 10
69.9011257411
 20
13.1910831919
 41
0.75
 42
0.75
 43
0.75
 50
270.0
  0
INSERT
  5
2D0
100
AcDbEntity
  8
0
100
AcDbBlockReference
 62
2
  6
CONTINUOUS
  2
_FILLED
 10
69.9011257411
 20
15.1005320108
 41
0.75
 42
0.75
 43
0.75
 50
90.0
  0
ENDBLK
  5
2D1
100
AcDbEntity
  8
0
  6
BYBLOCK
 62
0
100
AcDbBlockEnd
  0
BLOCK
  5
2D2
100
AcDbEntity
  8
0
100
AcDbBlockBegin
 62
2
  6
CONTINUOUS
  2
*D10
 70
65
 10
0.0
 20
0.0
  3
*D10
  1

  0
MTEXT
  5
2D3
100
AcDbEntity
  8
0
100
AcDbMText
 62
2
  6
CONTINUOUS
  7
STANDARD
 71
2
 72
1
 10
69.8788043125
 20
19.3500398848
 30
0.0
 11
1.0
 21
0.0
 31
0.0
 44
0.9
  1
200.0\P[7.87]
 40
0.625
 41
3.5491071429
  0
LINE
  5
2D4
100
AcDbEntity
  8
0
100
AcDbLine
 62
2
  6
CONTINUOUS
 10
64.0719531902
 20
15.1005320108
 11
70.4011257411
 21
15.1005320108
  0
LINE
  5
2D5
100
AcDbEntity
  8
0
100
AcDbLine
 62
2
  6
CONTINUOUS
 10
64.0719531902
 20
22.9745477589
 11
70.4011257411
 21
22.9745477589
  0
LINE
  5
2D6
100
AcDbEntity
  8
0
100
AcDbLine
 62
2
  6
CONTINUOUS
 10
69.9011257411
 20
15.1005320108
 11
69.9011257411
 21
17.4750398848
  0
LINE
  5
2D7
100
AcDbEntity
  8
0
100
AcDbLine
 62
2
  6
CONTINUOUS
 10
69.9011257411
 20
22.9745477589
 11
69.9011257411
 21
19.6625398848
  0
INSERT
  5
2D8
100
AcDbEntity
  8
0
100
AcDbBlockReference
 62
2
  6
CONTINUOUS
  2
_FILLED
 10
69.9011257411
 20
15.1005320108
 41
0.75
 42
0.75
 43
0.75
 50
270.0
  0
INSERT
  5
2D9
100
AcDbEntity
  8
0
100
AcDbBlockReference
 62
2
  6
CONTINUOUS
  2
_FILLED
 10
69.9011257411
 20
22.9745477589
 41
0.75
 42
0.75
 43
0.75
 50
90.0
  0
ENDBLK
  5
2DA
100
AcDbEntity
  8
0
  6
BYBLOCK
 62
0
100
AcDbBlockEnd
  0
BLOCK
  5
2DB
100
AcDbEntity
  8
0
100
AcDbBlockBegin
 62
2
  6
CONTINUOUS
  2
*D11
 70
65
 10
0.0
 20
0.0
  3
*D11
  1

  0
MTEXT
  5
2DC
100
AcDbEntity
  8
0
100
AcDbMText
 62
2
  6
CONTINUOUS
  7
STANDARD
 71
2
 72
1
 10
91.9036577956
 20
38.6131813743
 30
0.0
 11
1.0
 21
0.0
 31
0.0
 44
0.9
  1
237.1\P[9.33]
 40
0.625
 41
3.4151785714
  0
LINE
  5
2DD
100
AcDbEntity
  8
0
100
AcDbLine
 62
2
  6
CONTINUOUS
 10
89.4571087702
 20
33.6333979097
 11
92.4706220813
 21
33.6333979097
  0
LINE
  5
2DE
100
AcDbEntity
  8
0
100
AcDbLine
 62
2
  6
CONTINUOUS
 10
88.0002583765
 20
42.9679648389
 11
92.4706220813
 21
42.9679648389
  0
LINE
  5
2DF
100
AcDbEntity
  8
0
100
AcDbLine
 62
2
  6
CONTINUOUS
 10
91.9706220813
 20
33.6333979097
 11
91.9706220813
 21
36.7381813743
  0
LINE
  5
2E0
100
AcDbEntity
  8
0
100
AcDbLine
 62
2
  6
CONTINUOUS
 10
91.9706220813
 20
42.9679648389
 11
91.9706220813
 21
38.9256813743
  0
INSERT
  5
2E1
100
AcDbEntity
  8
0
100
AcDbBlockReference
 62
2
  6
CONTINUOUS
  2
_FILLED
 10
91.9706220813
 20
33.6333979097
 41
0.75
 42
0.75
 43
0.75
 50
270.0
  0
INSERT
  5
2E2
100
AcDbEntity
  8
0
100
AcDbBlockReference
 62
2
  6
CONTINUOUS
  2
_FILLED
 10
91.9706220813
 20
42.9679648389
 41
0.75
 42
0.75
 43
0.75
 50
90.0
  0
ENDBLK
  5
2E3
100
AcDbEntity
  8
0
  6
BYBLOCK
 62
0
100
AcDbBlockEnd
  0
BLOCK
  5
2E4
100
AcDbEntity
  8
0
100
AcDbBlockBegin
 62
2
  6
CONTINUOUS
  2
*D12
 70
65
 10
0.0
 20
0.0
  3
*D12
  1

  0
MTEXT
  5
2E5
100
AcDbEntity
  8
0
100
AcDbMText
 62
2
  6
CONTINUOUS
  7
STANDARD
 71
1
 72
1
 10
66.7438260755
 20
9.0765924753
 30
0.0
 11
1.0
 21
0.0
 31
0.0
 44
0.9
  1
63.5\P[2.50]
 40
0.625
 41
3.4821428571
  0
LINE
  5
2E6
100
AcDbEntity
  8
0
100
AcDbLine
 62
2
  6
CONTINUOUS
 10
65.1722681508
 20
13.1910831919
 11
65.1722681508
 21
8.2640924753
  0
LINE
  5
2E7
100
AcDbEntity
  8
0
100
AcDbLine
 62
2
  6
CONTINUOUS
 10
62.6719531902
 20
13.7005320108
 11
62.6719531902
 21
8.2640924753
  0
LINE
  5
2E8
100
AcDbEntity
  8
0
100
AcDbLine
 62
2
  6
CONTINUOUS
 10
65.1722681508
 20
8.7640924753
 11
63.9221106705
 21
8.7640924753
  0
LINE
  5
2E9
100
AcDbEntity
  8
0
100
AcDbLine
 62
2
  6
CONTINUOUS
 10
63.9221106705
 20
8.7640924753
 11
66.4313260755
 21
8.7640924753
  0
LINE
  5
2EA
100
AcDbEntity
  8
0
100
AcDbLine
 62
2
  6
CONTINUOUS
 10
62.6719531902
 20
8.7640924753
 11
63.9221106705
 21
8.7640924753
  0
INSERT
  5
2EB
100
AcDbEntity
  8
0
100
AcDbBlockReference
 62
2
  6
CONTINUOUS
  2
_FILLED
 10
65.1722681508
 20
8.7640924753
 41
0.75
 42
0.75
 43
0.75
  0
INSERT
  5
2EC
100
AcDbEntity
  8
0
100
AcDbBlockReference
 62
2
  6
CONTINUOUS
  2
_FILLED
 10
62.6719531902
 20
8.7640924753
 41
0.75
 42
0.75
 43
0.75
 50
180.0
  0
ENDBLK
  5
2ED
100
AcDbEntity
  8
0
  6
BYBLOCK
 62
0
100
AcDbBlockEnd
  0
BLOCK
  5
2EE
100
AcDbEntity
  8
0
100
AcDbBlockBegin
 62
2
  6
CONTINUOUS
  2
*D13
 70
65
 10
0.0
 20
0.0
  3
*D13
  1

  0
MTEXT
  5
2EF
100
AcDbEntity
  8
0
100
AcDbMText
 62
2
  6
CONTINUOUS
  7
STANDARD
 71
2
 72
1
 10
49.8817746187
 20
9.0765924753
 30
0.0
 11
1.0
 21
0.0
 31
0.0
 44
0.9
  1
635.0\P[25.00]
 40
0.625
 41
4.21875
  0
LINE
  5
2F0
100
AcDbEntity
  8
0
100
AcDbLine
 62
2
  6
CONTINUOUS
 10
62.6719531902
 20
13.7005320108
 11
62.6719531902
 21
8.2640924753
  0
LINE
  5
2F1
100
AcDbEntity
  8
0
100
AcDbLine
 62
2
  6
CONTINUOUS
 10
37.6719531902
 20
13.7005320108
 11
37.6719531902
 21
8.2640924753
  0
LINE
  5
2F2
100
AcDbEntity
  8
0
100
AcDbLine
 62
2
  6
CONTINUOUS
 10
62.6719531902
 20
8.7640924753
 11
51.8907031902
 21
8.7640924753
  0
LINE
  5
2F3
100
AcDbEntity
  8
0
100
AcDbLine
 62
2
  6
CONTINUOUS
 10
37.6719531902
 20
8.7640924753
 11
48.4532031902
 21
8.7640924753
  0
INSERT
  5
2F4
100
AcDbEntity
  8
0
100
AcDbBlockReference
 62
2
  6
CONTINUOUS
  2
_FILLED
 10
62.6719531902
 20
8.7640924753
 41
0.75
 42
0.75
 43
0.75
  0
INSERT
  5
2F5
100
AcDbEntity
  8
0
100
AcDbBlockReference
 62
2
  6
CONTINUOUS
  2
_FILLED
 10
37.6719531902
 20
8.7640924753
 41
0.75
 42
0.75
 43
0.75
 50
180.0
  0
ENDBLK
  5
2F6
100
AcDbEntity
  8
0
  6
BYBLOCK
 62
0
100
AcDbBlockEnd
  0
BLOCK
  5
2F7
100
AcDbEntity
  8
0
100
AcDbBlockBegin
 62
2
  6
CONTINUOUS
  2
*D14
 70
65
 10
0.0
 20
0.0
  3
*D14
  1

  0
MTEXT
  5
2F8
100
AcDbEntity
  8
0
100
AcDbMText
 62
2
  6
CONTINUOUS
  7
STANDARD
 71
2
 72
1
 10
49.9264174759
 20
63.4530909216
 30
0.0
 11
1.0
 21
0.0
 31
0.0
 44
0.9
  1
762.0\P[30.00]
 40
0.625
 41
4.21875
  0
LINE
  5
2F9
100
AcDbEntity
  8
0
100
AcDbLine
 62
2
  6
CONTINUOUS
 10
65.1722681508
 20
60.7951301932
 11
65.1722681508
 21
63.6405909216
  0
LINE
  5
2FA
100
AcDbEntity
  8
0
100
AcDbLine
 62
2
  6
CONTINUOUS
 10
35.1716382295
 20
60.7951301932
 11
35.1716382295
 21
63.6405909216
  0
LINE
  5
2FB
100
AcDbEntity
  8
0
100
AcDbLine
 62
2
  6
CONTINUOUS
 10
65.1722681508
 20
63.1405909216
 11
51.8907031902
 21
63.1405909216
  0
LINE
  5
2FC
100
AcDbEntity
  8
0
100
AcDbLine
 62
2
  6
CONTINUOUS
 10
35.1716382295
 20
63.1405909216
 11
48.4532031902
 21
63.1405909216
  0
INSERT
  5
2FD
100
AcDbEntity
  8
0
100
AcDbBlockReference
 62
2
  6
CONTINUOUS
  2
_FILLED
 10
65.1722681508
 20
63.1405909216
 41
0.75
 42
0.75
 43
0.75
  0
INSERT
  5
2FE
100
AcDbEntity
  8
0
100
AcDbBlockReference
 62
2
  6
CONTINUOUS
  2
_FILLED
 10
35.1716382295
 20
63.1405909216
 41
0.75
 42
0.75
 43
0.75
 50
180.0
  0
ENDBLK
  5
2FF
100
AcDbEntity
  8
0
  6
BYBLOCK
 62
0
100
AcDbBlockEnd
  0
BLOCK
  5
300
100
AcDbEntity
  8
0
100
AcDbBlockBegin
 62
2
  6
CONTINUOUS
  2
*D15
 70
65
 10
0.0
 20
0.0
  3
*D15
  1

  0
MTEXT
  5
301
100
AcDbEntity
  8
0
100
AcDbMText
 62
2
  6
CONTINUOUS
  7
STANDARD
 71
2
 72
1
 10
67.6943406727
 20
47.5267640515
 30
0.0
 11
1.0
 21
0.0
 31
0.0
 44
0.9
  1
689.9\P[27.16]
 40
0.625
 41
4.0848214286
  0
LINE
  5
302
100
AcDbEntity
  8
0
100
AcDbLine
 62
2
  6
CONTINUOUS
 10
65.1722681508
 20
60.7951301932
 11
68.3952335298
 21
60.7951301932
  0
LINE
  5
303
100
AcDbEntity
  8
0
100
AcDbLine
 62
2
  6
CONTINUOUS
 10
65.1722681508
 20
33.6333979097
 11
68.3952335298
 21
33.6333979097
  0
LINE
  5
304
100
AcDbEntity
  8
0
100
AcDbLine
 62
2
  6
CONTINUOUS
 10
67.8952335298
 20
60.7951301932
 11
67.8952335298
 21
47.8392640515
  0
LINE
  5
305
100
AcDbEntity
  8
0
100
AcDbLine
 62
2
  6
CONTINUOUS
 10
67.8952335298
 20
33.6333979097
 11
67.8952335298
 21
45.6517640515
  0
INSERT
  5
306
100
AcDbEntity
  8
0
100
AcDbBlockReference
 62
2
  6
CONTINUOUS
  2
_FILLED
 10
67.8952335298
 20
60.7951301932
 41
0.75
 42
0.75
 43
0.75
 50
90.0
  0
INSERT
  5
307
100
AcDbEntity
  8
0
100
AcDbBlockReference
 62
2
  6
CONTINUOUS
  2
_FILLED
 10
67.8952335298
 20
33.6333979097
 41
0.75
 42
0.75
 43
0.75
 50
270.0
  0
ENDBLK
  5
308
100
AcDbEntity
  8
0
  6
BYBLOCK
 62
0
100
AcDbBlockEnd
  0
ENDSEC
  0
SECTION
  2
ENTITIES
  0
MTEXT
  5
309
100
AcDbEntity
  8
0
100
AcDbMText
 62
2
  6
CONTINUOUS
  7
STANDARD
 71
1
 72
1
 10
9.8516309789
 20
1.4596667342
 30
0.0
 11
1.0
 21
0.0
 31
0.0
 44
0.9
  1
8
 40
0.625
 41
0.7366071429
  0
MTEXT
  5
30A
100
AcDbEntity
  8
0
100
AcDbMText
 62
2
  6
CONTINUOUS
  7
STANDARD
 71
1
 72
1
 10
26.1016309789
 20
1.4596667342
 30
0.0
 11
1.0
 21
0.0
 31
0.0
 44
0.9
  1
7
 40
0.625
 41
0.7366071429
  0
MTEXT
  5
30B
100
AcDbEntity
  8
0
100
AcDbMText
 62
2
  6
CONTINUOUS
  7
STANDARD
 71
1
 72
1
 10
42.3516309789
 20
1.4596667342
 30
0.0
 11
1.0
 21
0.0
 31
0.0
 44
0.9
  1
6
 40
0.625
 41
0.7366071429
  0
MTEXT
  5
30C
100
AcDbEntity
  8
0
100
AcDbMText
 62
2
  6
CONTINUOUS
  7
STANDARD
 71
1
 72
1
 10
58.6016309789
 20
1.4596667342
 30
0.0
 11
1.0
 21
0.0
 31
0.0
 44
0.9
  1
5
 40
0.625
 41
0.6696428571
  0
MTEXT
  5
30D
100
AcDbEntity
  8
0
100
AcDbMText
 62
2
  6
CONTINUOUS
  7
STANDARD
 71
1
 72
1
 10
74.8516309789
 20
1.4596667342
 30
0.0
 11
1.0
 21
0.0
 31
0.0
 44
0.9
  1
4
 40
0.625
 41
0.7366071429
  0
MTEXT
  5
30E
100
AcDbEntity
  8
0
100
AcDbMText
 62
2
  6
CONTINUOUS
  7
STANDARD
 71
1
 72
1
 10
91.1016309789
 20
1.4596667342
 30
0.0
 11
1.0
 21
0.0
 31
0.0
 44
0.9
  1
3
 40
0.625
 41
0.6696428571
  0
MTEXT
  5
30F
100
AcDbEntity
  8
0
100
AcDbMText
 62
2
  6
CONTINUOUS
  7
STANDARD
 71
1
 72
1
 10
107.3516309789
 20
1.4596667342
 30
0.0
 11
1.0
 21
0.0
 31
0.0
 44
0.9
  1
2
 40
0.625
 41
0.7366071429
  0
MTEXT
  5
310
100
AcDbEntity
  8
0
100
AcDbMText
 62
2
  6
CONTINUOUS
  7
STANDARD
 71
1
 72
1
 10
123.6016309789
 20
1.4596667342
 30
0.0
 11
1.0
 21
0.0
 31
0.0
 44
0.9
  1
1
 40
0.625
 41
0.5357142857
  0
MTEXT
  5
311
100
AcDbEntity
  8
0
100
AcDbMText
 62
2
  6
CONTINUOUS
  7
STANDARD
 71
1
 72
1
 10
9.8516309789
 20
87.4596667342
 30
0.0
 11
1.0
 21
0.0
 31
0.0
 44
0.9
  1
8
 40
0.625
 41
0.9151785714
  0
MTEXT
  5
312
100
AcDbEntity
  8
0
100
AcDbMText
 62
2
  6
CONTINUOUS
  7
STANDARD
 71
1
 72
1
 10
26.1016309789
 20
87.4596667342
 30
0.0
 11
1.0
 21
0.0
 31
0.0
 44
0.9
  1
7
 40
0.625
 41
0.7366071429
  0
MTEXT
  5
313
100
AcDbEntity
  8
0
100
AcDbMText
 62
2
  6
CONTINUOUS
  7
STANDARD
 71
1
 72
1
 10
42.3516309789
 20
87.4596667342
 30
0.0
 11
1.0
 21
0.0
 31
0.0
 44
0.9
  1
6
 40
0.625
 41
0.7366071429
  0
MTEXT
  5
314
100
AcDbEntity
  8
0
100
AcDbMText
 62
2
  6
CONTINUOUS
  7
STANDARD
 71
1
 72
1
 10
58.6016309789
 20
87.4596667342
 30
0.0
 11
1.0
 21
0.0
 31
0.0
 44
0.9
  1
5
 40
0.625
 41
0.6696428571
  0
MTEXT
  5
315
100
AcDbEntity
  8
0
100
AcDbMText
 62
2
  6
CONTINUOUS
  7
STANDARD
 71
1
 72
1
 10
74.8516309789
 20
87.4596667342
 30
0.0
 11
1.0
 21
0.0
 31
0.0
 44
0.9
  1
4
 40
0.625
 41
0.7366071429
  0
MTEXT
  5
316
100
AcDbEntity
  8
0
100
AcDbMText
 62
2
  6
CONTINUOUS
  7
STANDARD
 71
1
 72
1
 10
91.1016309789
 20
87.4596667342
 30
0.0
 11
1.0
 21
0.0
 31
0.0
 44
0.9
  1
3
 40
0.625
 41
0.6696428571
  0
MTEXT
  5
317
100
AcDbEntity
  8
0
100
AcDbMText
 62
2
  6
CONTINUOUS
  7
STANDARD
 71
1
 72
1
 10
107.3516309789
 20
87.4596667342
 30
0.0
 11
1.0
 21
0.0
 31
0.0
 44
0.9
  1
2
 40
0.625
 41
0.7366071429
  0
MTEXT
  5
318
100
AcDbEntity
  8
0
100
AcDbMText
 62
2
  6
CONTINUOUS
  7
STANDARD
 71
1
 72
1
 10
123.6016309789
 20
87.4596667342
 30
0.0
 11
1.0
 21
0.0
 31
0.0
 44
0.9
  1
1
 40
0.625
 41
0.5357142857
  0
MTEXT
  5
319
100
AcDbEntity
  8
0
100
AcDbMText
 62
2
  6
CONTINUOUS
  7
STANDARD
 71
1
 72
1
 10
0.7928772371
 20
12.8779597969
 30
0.0
 11
1.0
 21
0.0
 31
0.0
 44
0.9
  1
A
 40
0.625
 41
0.8035714286
  0
MTEXT
  5
31A
100
AcDbEntity
  8
0
100
AcDbMText
 62
2
  6
CONTINUOUS
  7
STANDARD
 71
1
 72
1
 10
0.7928772371
 20
33.8779597969
 30
0.0
 11
1.0
 21
0.0
 31
0.0
 44
0.9
  1
B
 40
0.625
 41
0.7366071429
  0
MTEXT
  5
31B
100
AcDbEntity
  8
0
100
AcDbMText
 62
2
  6
CONTINUOUS
  7
STANDARD
 71
1
 72
1
 10
0.7928772371
 20
54.8779597969
 30
0.0
 11
1.0
 21
0.0
 31
0.0
 44
0.9
  1
C
 40
0.625
 41
0.78125
  0
MTEXT
  5
31C
100
AcDbEntity
  8
0
100
AcDbMText
 62
2
  6
CONTINUOUS
  7
STANDARD
 71
1
 72
1
 10
0.7928772371
 20
75.8779597969
 30
0.0
 11
1.0
 21
0.0
 31
0.0
 44
0.9
  1
D
 40
0.625
 41
0.8482142857
  0
MTEXT
  5
31D
100
AcDbEntity
  8
0
100
AcDbMText
 62
2
  6
CONTINUOUS
  7
STANDARD
 71
1
 72
1
 10
132.7928772371
 20
12.8779597969
 30
0.0
 11
1.0
 21
0.0
 31
0.0
 44
0.9
  1
A
 40
0.625
 41
0.8035714286
  0
MTEXT
  5
31E
100
AcDbEntity
  8
0
100
AcDbMText
 62
2
  6
CONTINUOUS
  7
STANDARD
 71
1
 72
1
 10
132.7928772371
 20
33.8779597969
 30
0.0
 11
1.0
 21
0.0
 31
0.0
 44
0.9
  1
B
 40
0.625
 41
0.7366071429
  0
MTEXT
  5
31F
100
AcDbEntity
  8
0
100
AcDbMText
 62
2
  6
CONTINUOUS
  7
STANDARD
 71
1
 72
1
 10
132.7928772371
 20
54.8779597969
 30
0.0
 11
1.0
 21
0.0
 31
0.0
 44
0.9
  1
C
 40
0.625
 41
0.78125
  0
MTEXT
  5
320
100
AcDbEntity
  8
0
100
AcDbMText
 62
2
  6
CONTINUOUS
  7
STANDARD
 71
1
 72
1
 10
132.7928772371
 20
75.8779597969
 30
0.0
 11
1.0
 21
0.0
 31
0.0
 44
0.9
  1
D
 40
0.625
 41
0.8482142857
  0
MTEXT
  5
321
100
AcDbEntity
  8
0
100
AcDbMText
 62
5
  6
CONTINUOUS
  7
STANDARD
 71
1
 72
1
 10
2.2651584424
 20
85.8247284615
 30
0.0
 11
1.0
 21
0.0
 31
0.0
 44
0.9
  1
THIS DOCUMENT CONTAINS PROPRIETARY INFORMATION\PWHICH IS THE PROPERTY OF QSC, LLC, THAT MAY NOT BE\PDISCLOSED, REPRODUCED OR USED WITHOUT EXPRESS\PWRITTEN CONSENT FROM QSC, LLC.
 40
0.3
 41
17.775
  0
MTEXT
  5
322
100
AcDbEntity
  8
0
100
AcDbMText
 62
2
  6
CONTINUOUS
  7
STANDARD
 71
2
 72
1
 10
96.9972564215
 20
11.9130298612
 30
0.0
 11
1.0
 21
0.0
 31
0.0
 44
0.9
  1
UNLESS OTHERWISE SPECIFIED\PDIMENSIONS IN MILLIMETERS [IN]
 40
0.4
 41
13.1428571429
  0
MTEXT
  5
323
100
AcDbEntity
  8
0
100
AcDbMText
 62
2
  6
CONTINUOUS
  7
STANDARD
 71
2
 72
1
 10
96.9397891167
 20
10.3679419945
 30
0.0
 11
1.0
 21
0.0
 31
0.0
 44
0.9
  1
TOLERANCES ARE:
 40
0.36
 41
6.1842857143
  0
MTEXT
  5
324
100
AcDbEntity
  8
0
100
AcDbMText
 62
2
  6
CONTINUOUS
  7
STANDARD
 71
2
 72
1
 10
93.9971065635
 20
9.454822291
 30
0.0
 11
1.0
 21
0.0
 31
0.0
 44
0.9
  1
DECIMALS\P.X\Fgdt;{\Fgdt;`}\Ftxt;.5[.02]
 40
0.36
 41
3.7157142857
  0
MTEXT
  5
325
100
AcDbEntity
  8
0
100
AcDbMText
 62
2
  6
CONTINUOUS
  7
STANDARD
 71
2
 72
1
 10
97.5
 20
9.43
 30
0.0
 11
1.0
 21
0.0
 31
0.0
 44
0.9
  1
DECIMALS\P.XX\Fgdt;{\Fgdt;`}\Ftxt;.25[.010]
 40
0.36
 41
4.9114285714
  0
MTEXT
  5
326
100
AcDbEntity
  8
0
100
AcDbMText
 62
2
  6
CONTINUOUS
  7
STANDARD
 71
2
 72
1
 10
100.5171879775
 20
9.4500027785
 30
0.0
 11
1.0
 21
0.0
 31
0.0
 44
0.9
  1
ANGLES\P\Fgdt;{\Fgdt;`}\Ftxt; 1/2
 40
0.36
 41
2.5714285714
  0
MTEXT
  5
327
100
AcDbEntity
  8
0
100
AcDbMText
 62
2
  6
CONTINUOUS
  7
STANDARD
 71
2
 72
1
 10
97.0
 20
7.93
 30
0.0
 11
1.0
 21
0.0
 31
0.0
 44
0.9
  1
DEBURR EDGES .25 [.010] R MAX
 40
0.36
 41
11.7642857143
  0
MTEXT
  5
328
100
AcDbEntity
  8
0
100
AcDbMText
 62
2
  6
CONTINUOUS
  7
STANDARD
 71
2
 72
1
 10
93.8356979232
 20
6.7448796703
 30
0.0
 11
1.0
 21
0.0
 31
0.0
 44
0.9
  1
MATERIAL
 40
0.36
 41
3.4585714286
  0
MTEXT
  5
329
100
AcDbEntity
  8
0
100
AcDbMText
 62
2
  6
CONTINUOUS
  7
STANDARD
 71
2
 72
1
 10
93.4525588641
 20
4.3085865078
 30
0.0
 11
1.0
 21
0.0
 31
0.0
 44
0.9
  1
FINISH
 40
0.36
 41
2.4557142857
  0
MTEXT
  5
32A
100
AcDbEntity
  8
0
100
AcDbMText
 62
2
  6
CONTINUOUS
  7
STANDARD
 71
2
 72
1
 10
121.0791692592
 20
2.7236102469
 30
0.0
 11
1.0
 21
0.0
 31
0.0
 44
0.9
  1
DO NOT SCALE DRAWING
 40
0.5
 41
12.4642857143
  0
MTEXT
  5
32B
100
AcDbEntity
  8
0
100
AcDbMText
 62
2
  6
CONTINUOUS
  7
STANDARD
 71
2
 72
1
 10
102.8841465771
 20
12.0357444726
 30
0.0
 11
1.0
 21
0.0
 31
0.0
 44
0.9
  1
DESIGNER
 40
0.36
 41
3.4071428571
  0
MTEXT
  5
32C
100
AcDbEntity
  8
0
100
AcDbMText
 62
2
  6
CONTINUOUS
  7
STANDARD
 71
2
 72
1
 10
102.7433651965
 20
9.9863999415
 30
0.0
 11
1.0
 21
0.0
 31
0.0
 44
0.9
  1
ENGINEER
 40
0.36
 41
3.3042857143
  0
MTEXT
  5
32D
100
AcDbEntity
  8
0
100
AcDbMText
 62
2
  6
CONTINUOUS
  7
STANDARD
 71
2
 72
1
 10
104.2793711084
 20
7.8985005175
 30
0.0
 11
1.0
 21
0.0
 31
0.0
 44
0.9
  1
TECHNICAL DIRECTOR
 40
0.36
 41
7.6885714286
  0
MTEXT
  5
32E
100
AcDbEntity
  8
0
100
AcDbMText
 62
2
  6
CONTINUOUS
  7
STANDARD
 71
2
 72
1
 10
104.8126451159
 20
5.8092477111
 30
0.0
 11
1.0
 21
0.0
 31
0.0
 44
0.9
  1
MANUFACTURING ENGINEER
 40
0.36
 41
9.3085714286
  0
MTEXT
  5
32F
100
AcDbEntity
  8
0
100
AcDbMText
 62
2
  6
CONTINUOUS
  7
STANDARD
 71
2
 72
1
 10
103.8260940015
 20
2.7040098754
 30
0.0
 11
1.0
 21
0.0
 31
0.0
 44
0.9
  1
MODEL INFO:
 40
0.36
 41
4.41
  0
MTEXT
  5
330
100
AcDbEntity
  8
0
100
AcDbMText
 62
2
  6
CONTINUOUS
  7
STANDARD
 71
2
 72
1
 10
103.4554035731
 20
3.673444166
 30
0.0
 11
1.0
 21
0.0
 31
0.0
 44
0.9
  1
DRAWING INFO:
 40
0.36
 41
5.6057142857
  0
MTEXT
  5
331
100
AcDbEntity
  8
0
100
AcDbMText
 62
2
  6
CONTINUOUS
  7
STANDARD
 71
2
 72
1
 10
112.9574583256
 20
2.6680813209
 30
0.0
 11
1.0
 21
0.0
 31
0.0
 44
0.9
  1
SCALE:
 40
0.36
 41
2.3657142857
  0
MTEXT
  5
332
100
AcDbEntity
  8
0
100
AcDbMText
 62
2
  6
CONTINUOUS
  7
STANDARD
 71
2
 72
1
 10
126.4649709371
 20
2.6747235461
 30
0.0
 11
1.0
 21
0.0
 31
0.0
 44
0.9
  1
SHEET
 40
0.36
 41
2.1857142857
  0
MTEXT
  5
333
100
AcDbEntity
  8
0
100
AcDbMText
 62
2
  6
CONTINUOUS
  7
STANDARD
 71
2
 72
1
 10
112.9679178031
 20
4.8413186693
 30
0.0
 11
1.0
 21
0.0
 31
0.0
 44
0.9
  1
SIZE
 40
0.36
 41
1.6842857143
  0
MTEXT
  5
334
100
AcDbEntity
  8
0
100
AcDbMText
 62
2
  6
CONTINUOUS
  7
STANDARD
 71
2
 72
1
 10
115.9347904347
 20
4.8456657724
 30
0.0
 11
1.0
 21
0.0
 31
0.0
 44
0.9
  1
CAGE CODE
 40
0.36
 41
3.9985714286
  0
MTEXT
  5
335
100
AcDbEntity
  8
0
100
AcDbMText
 62
2
  6
CONTINUOUS
  7
STANDARD
 71
2
 72
1
 10
119.7637989921
 20
4.8373318629
 30
0.0
 11
1.0
 21
0.0
 31
0.0
 44
0.9
  1
DRAWING NO.
 40
0.36
 41
4.9885714286
  0
MTEXT
  5
336
100
AcDbEntity
  8
0
100
AcDbMText
 62
2
  6
CONTINUOUS
  7
STANDARD
 71
2
 72
1
 10
131.0485306378
 20
4.8426956267
 30
0.0
 11
1.0
 21
0.0
 31
0.0
 44
0.9
  1
REV
 40
0.36
 41
1.3628571429
  0
MTEXT
  5
337
100
AcDbEntity
  8
0
100
AcDbMText
 62
2
  6
CONTINUOUS
  7
STANDARD
 71
2
 72
1
 10
121.6685660019
 20
11.9740712106
 30
0.0
 11
1.0
 21
0.0
 31
0.0
 44
0.9
  1
QSC, LLC
 40
0.625
 41
5.7589285714
  0
MTEXT
  5
338
100
AcDbEntity
  8
0
100
AcDbMText
 62
2
  6
CONTINUOUS
  7
STANDARD
 71
1
 72
1
 10
119.6485296552
 20
11.0171606556
 30
0.0
 11
1.0
 21
0.0
 31
0.0
 44
0.9
  1
1675 MACARTHUR BOULEVARD\PCOSTA MESA, CA  92626
 40
0.5
 41
14.3392857143
  0
MTEXT
  5
339
100
AcDbEntity
  8
0
100
AcDbMText
 62
2
  6
CONTINUOUS
  7
STANDARD
 71
1
 72
1
 10
114.5204339557
 20
3.9851059671
 30
0.0
 11
1.0
 21
0.0
 31
0.0
 44
0.9
  1
00PW4
 40
0.625
 41
4.3973214286
  0
INSERT
  5
33A
100
AcDbEntity
  8
0
100
AcDbBlockReference
 62
7
  6
CONTINUOUS
  2
RD010411_BL0
 10
115.5552811952
 20
10.8044426607
  0
DIMENSION
  5
33B
100
AcDbEntity
  8
0
100
AcDbDimension
 62
2
  6
CONTINUOUS
  2
*D0
 10
67.7601000954
 20
82.332290727
 11
67.7601000954
 21
76.0170840341
 70
160
 71
2
 42
297.0
  3
DIMSTYLE_1
100
AcDbAlignedDimension
 13
65.1097681508
 23
70.6393773412
 14
65.1097681508
 24
82.332290727
 50
90.0
100
AcDbRotatedDimension
  0
DIMENSION
  5
33C
100
AcDbEntity
  8
0
100
AcDbDimension
 62
2
  6
CONTINUOUS
  2
*D1
 10
72.0528929411
 20
70.3101253727
 11
72.0528929411
 21
75.8524580499
 70
160
 71
2
 42
305.363
  3
DIMSTYLE_1
100
AcDbAlignedDimension
 13
65.1097681508
 23
82.332290727
 14
64.8597681508
 24
70.3101253727
 50
270.0
100
AcDbRotatedDimension
  0
DIMENSION
  5
33D
100
AcDbEntity
  8
0
100
AcDbDimension
 62
2
  6
CONTINUOUS
  2
*D2
 10
65.3722681508
 20
67.9123973984
 11
50.2719531902
 21
67.4436473984
 70
160
 71
2
 42
767.096
  3
DIMSTYLE_1
100
AcDbAlignedDimension
 13
35.1716382295
 23
70.7018773412
 14
65.3722681508
 24
75.8516411207
100
AcDbRotatedDimension
  0
DIMENSION
  5
33E
100
AcDbEntity
  8
0
100
AcDbDimension
 62
2
  6
CONTINUOUS
  2
*D3
 10
71.8390742994
 20
33.0802483034
 11
71.8390742994
 21
46.4689392483
 70
160
 71
2
 42
703.958
  3
DIMSTYLE_1
100
AcDbAlignedDimension
 13
65.1097681508
 23
60.7951301932
 14
63.4126027965
 24
33.0802483034
 50
270.0
100
AcDbRotatedDimension
  0
DIMENSION
  5
33F
100
AcDbEntity
  8
0
100
AcDbDimension
 62
2
  6
CONTINUOUS
  2
*D4
 10
18.6341887692
 20
63.5525248083
 11
21.4885194778
 21
63.0837748083
 70
160
 71
2
 42
145.0
  3
DIMSTYLE_1
100
AcDbAlignedDimension
 13
24.3428501865
 23
60.7078857628
 14
18.6341887692
 24
47.1520002719
 50
180.0
100
AcDbRotatedDimension
  0
DIMENSION
  5
340
100
AcDbEntity
  8
0
100
AcDbDimension
 62
2
  6
CONTINUOUS
  2
*D5
 10
27.4070779279
 20
33.0802483034
 11
27.4070779279
 21
39.1075612956
 70
160
 71
2
 42
330.0
  3
DIMSTYLE_1
100
AcDbAlignedDimension
 13
19.8400972304
 23
46.0723742877
 14
22.7812493991
 24
33.0802483034
 50
270.0
100
AcDbRotatedDimension
  0
DIMENSION
  5
341
100
AcDbEntity
  8
0
100
AcDbDimension
 62
2
  6
CONTINUOUS
  2
*D6
 10
91.9706220813
 20
42.9679648389
 11
91.9706220813
 21
45.9942148389
 70
160
 71
2
 42
177.546
  3
DIMSTYLE_1
100
AcDbAlignedDimension
 13
87.9377583765
 23
49.9579648389
 14
87.9377583765
 24
42.9679648389
 50
270.0
100
AcDbRotatedDimension
  0
DIMENSION
  5
342
100
AcDbEntity
  8
0
100
AcDbDimension
 62
2
  6
CONTINUOUS
  2
*D7
 10
87.9471087702
 20
31.0725106302
 11
92.8691252332
 21
30.6037606302
 70
160
 71
1
 42
38.354
  3
DIMSTYLE_1
100
AcDbAlignedDimension
 13
89.4571087702
 23
33.6958979097
 14
87.9471087702
 24
42.9773152326
 50
180.0
100
AcDbRotatedDimension
  0
DIMENSION
  5
343
100
AcDbEntity
  8
0
100
AcDbDimension
 62
2
  6
CONTINUOUS
  2
*D8
 10
82.9671087702
 20
31.0725106302
 11
80.4061226918
 21
30.6037606302
 70
160
 71
3
 42
126.492
  3
DIMSTYLE_1
100
AcDbAlignedDimension
 13
87.9471087702
 23
42.9773152326
 14
82.9671087702
 24
42.9773152326
 50
180.0
100
AcDbRotatedDimension
  0
DIMENSION
  5
344
100
AcDbEntity
  8
0
100
AcDbDimension
 62
2
  6
CONTINUOUS
  2
*D9
 10
69.9011257411
 20
15.1005320108
 11
69.9011257411
 21
11.1980180266
 70
160
 71
2
 42
48.5
  3
DIMSTYLE_1
100
AcDbAlignedDimension
 13
65.1097681508
 23
13.1910831919
 14
64.0094531902
 24
15.1005320108
 50
90.0
100
AcDbRotatedDimension
  0
DIMENSION
  5
345
100
AcDbEntity
  8
0
100
AcDbDimension
 62
2
  6
CONTINUOUS
  2
*D10
 10
69.9011257411
 20
22.9745477589
 11
69.9011257411
 21
18.5687898848
 70
160
 71
2
 42
200.0
  3
DIMSTYLE_1
100
AcDbAlignedDimension
 13
64.0094531902
 23
15.1005320108
 14
64.0094531902
 24
22.9745477589
 50
90.0
100
AcDbRotatedDimension
  0
DIMENSION
  5
346
100
AcDbEntity
  8
0
100
AcDbDimension
 62
2
  6
CONTINUOUS
  2
*D11
 10
91.9706220813
 20
42.9679648389
 11
91.9706220813
 21
37.8319313743
 70
160
 71
2
 42
237.098
  3
DIMSTYLE_1
100
AcDbAlignedDimension
 13
89.3946087702
 23
33.6333979097
 14
87.9377583765
 24
42.9679648389
 50
90.0
100
AcDbRotatedDimension
  0
DIMENSION
  5
347
100
AcDbEntity
  8
0
100
AcDbDimension
 62
2
  6
CONTINUOUS
  2
*D12
 10
62.6719531902
 20
8.7640924753
 11
67.9045403612
 21
8.2953424753
 70
160
 71
1
 42
63.508
  3
DIMSTYLE_1
100
AcDbAlignedDimension
 13
65.1722681508
 23
13.2535831919
 14
62.6719531902
 24
13.7630320108
 50
180.0
100
AcDbRotatedDimension
  0
DIMENSION
  5
348
100
AcDbEntity
  8
0
100
AcDbDimension
 62
2
  6
CONTINUOUS
  2
*D13
 10
37.6719531902
 20
8.7640924753
 11
50.1719531902
 21
8.2953424753
 70
160
 71
2
 42
635.0
  3
DIMSTYLE_1
100
AcDbAlignedDimension
 13
62.6719531902
 23
13.7630320108
 14
37.6719531902
 24
13.7630320108
 50
180.0
100
AcDbRotatedDimension
  0
DIMENSION
  5
349
100
AcDbEntity
  8
0
100
AcDbDimension
 62
2
  6
CONTINUOUS
  2
*D14
 10
35.1716382295
 20
63.1405909216
 11
50.1719531902
 21
62.6718409216
 70
160
 71
2
 42
762.016
  3
DIMSTYLE_1
100
AcDbAlignedDimension
 13
65.1722681508
 23
60.7326301932
 14
35.1716382295
 24
60.7326301932
 50
180.0
100
AcDbRotatedDimension
  0
DIMENSION
  5
34A
100
AcDbEntity
  8
0
100
AcDbDimension
 62
2
  6
CONTINUOUS
  2
*D15
 10
67.8952335298
 20
33.6333979097
 11
67.8952335298
 21
46.7455140515
 70
160
 71
2
 42
689.908
  3
DIMSTYLE_1
100
AcDbAlignedDimension
 13
65.1097681508
 23
60.7951301932
 14
65.1097681508
 24
33.6333979097
 50
270.0
100
AcDbRotatedDimension
  0
LWPOLYLINE
  5
34B
100
AcDbEntity
  8
0
100
AcDbPolyline
 62
2
  6
CONTINUOUS
 90
2
 70
0
 43
0.08
 10
132.0240748452
 20
85.9845149829
 10
91.6940748452
 20
85.9845149829
  0
LWPOLYLINE
  5
34C
100
AcDbEntity
  8
0
100
AcDbPolyline
 62
2
  6
CONTINUOUS
 90
2
 70
0
 43
0.08
 10
131.9840748452
 20
85.9845149829
 10
131.9840748452
 20
79.7345149829
  0
LWPOLYLINE
  5
34D
100
AcDbEntity
  8
0
100
AcDbPolyline
 62
2
  6
CONTINUOUS
 90
2
 70
0
 43
0.08
 10
131.9840748452
 20
84.7345149829
 10
91.7340748452
 20
84.7345149829
  0
LWPOLYLINE
  5
34E
100
AcDbEntity
  8
0
100
AcDbPolyline
 62
2
  6
CONTINUOUS
 90
2
 70
0
 43
0.08
 10
131.9840748452
 20
83.4845149829
 10
91.7340748452
 20
83.4845149829
  0
LWPOLYLINE
  5
34F
100
AcDbEntity
  8
0
100
AcDbPolyline
 62
2
  6
CONTINUOUS
 90
2
 70
0
 43
0.08
 10
131.9840748452
 20
82.2345149829
 10
91.7340748452
 20
82.2345149829
  0
LWPOLYLINE
  5
350
100
AcDbEntity
  8
0
100
AcDbPolyline
 62
2
  6
CONTINUOUS
 90
2
 70
0
 43
0.08
 10
131.9840748452
 20
80.9845149829
 10
91.7340748452
 20
80.9845149829
  0
LWPOLYLINE
  5
351
100
AcDbEntity
  8
0
100
AcDbPolyline
 62
2
  6
CONTINUOUS
 90
2
 70
0
 43
0.08
 10
132.0240748452
 20
79.7345149829
 10
91.6940748452
 20
79.7345149829
  0
LWPOLYLINE
  5
352
100
AcDbEntity
  8
0
100
AcDbPolyline
 62
2
  6
CONTINUOUS
 90
2
 70
0
 43
0.08
 10
128.9840748452
 20
84.7345149829
 10
128.9840748452
 20
79.7345149829
  0
LWPOLYLINE
  5
353
100
AcDbEntity
  8
0
100
AcDbPolyline
 62
2
  6
CONTINUOUS
 90
2
 70
0
 43
0.08
 10
124.4840748452
 20
84.7345149829
 10
124.4840748452
 20
79.7345149829
  0
LWPOLYLINE
  5
354
100
AcDbEntity
  8
0
100
AcDbPolyline
 62
2
  6
CONTINUOUS
 90
2
 70
0
 43
0.08
 10
122.4840748452
 20
84.7345149829
 10
122.4840748452
 20
79.7345149829
  0
LWPOLYLINE
  5
355
100
AcDbEntity
  8
0
100
AcDbPolyline
 62
2
  6
CONTINUOUS
 90
2
 70
0
 43
0.08
 10
96.9840748452
 20
84.7345149829
 10
96.9840748452
 20
79.7345149829
  0
LWPOLYLINE
  5
356
100
AcDbEntity
  8
0
100
AcDbPolyline
 62
2
  6
CONTINUOUS
 90
2
 70
0
 43
0.08
 10
93.7340748452
 20
84.7345149829
 10
93.7340748452
 20
79.7345149829
  0
LWPOLYLINE
  5
357
100
AcDbEntity
  8
0
100
AcDbPolyline
 62
2
  6
CONTINUOUS
 90
2
 70
0
 43
0.08
 10
91.7340748452
 20
85.9845149829
 10
91.7340748452
 20
79.7345149829
  0
MTEXT
  5
358
100
AcDbEntity
  8
0
100
AcDbMText
 62
2
  6
CONTINUOUS
  7
STANDARD
 71
2
 72
1
 10
111.8590748452
 20
85.6720149829
 30
0.0
 11
1.0
 21
0.0
 31
0.0
 44
0.9
  1
REVISIONS
 40
0.625
 41
6.3392857143
  0
MTEXT
  5
359
100
AcDbEntity
  8
0
100
AcDbMText
 62
2
  6
CONTINUOUS
  7
STANDARD
 71
2
 72
1
 10
130.4840748452
 20
84.4215149829
 30
0.0
 11
1.0
 21
0.0
 31
0.0
 44
0.9
  1
ISSUED
 40
0.624
 41
4.3234285714
  0
MTEXT
  5
35A
100
AcDbEntity
  8
0
100
AcDbMText
 62
2
  6
CONTINUOUS
  7
STANDARD
 71
2
 72
1
 10
126.7340748452
 20
84.4215149829
 30
0.0
 11
1.0
 21
0.0
 31
0.0
 44
0.9
  1
EFF DATE
 40
0.624
 41
5.8611428571
  0
MTEXT
  5
35B
100
AcDbEntity
  8
0
100
AcDbMText
 62
2
  6
CONTINUOUS
  7
STANDARD
 71
2
 72
1
 10
123.4840748452
 20
84.4220149829
 30
0.0
 11
1.0
 21
0.0
 31
0.0
 44
0.9
  1
BY
 40
0.625
 41
1.5401785714
  0
MTEXT
  5
35C
100
AcDbEntity
  8
0
100
AcDbMText
 62
2
  6
CONTINUOUS
  7
STANDARD
 71
2
 72
1
 10
109.7340748452
 20
84.4215149829
 30
0.0
 11
1.0
 21
0.0
 31
0.0
 44
0.9
  1
DESCRIPTION
 40
0.624
 41
7.9782857143
  0
MTEXT
  5
35D
100
AcDbEntity
  8
0
100
AcDbMText
 62
2
  6
CONTINUOUS
  7
STANDARD
 71
2
 72
1
 10
95.3590748452
 20
84.4220149829
 30
0.0
 11
1.0
 21
0.0
 31
0.0
 44
0.9
  1
ECO
 40
0.625
 41
2.1875
  0
MTEXT
  5
35E
100
AcDbEntity
  8
0
100
AcDbMText
 62
2
  6
CONTINUOUS
  7
STANDARD
 71
2
 72
1
 10
92.7340748452
 20
84.4215149829
 30
0.0
 11
1.0
 21
0.0
 31
0.0
 44
0.9
  1
REV
 40
0.624
 41
2.184
  0
MTEXT
  5
35F
100
AcDbEntity
  8
0
100
AcDbMText
 62
2
  6
CONTINUOUS
  7
STANDARD
 71
2
 72
1
 10
130.4840748452
 20
83.1720149829
 30
0.0
 11
1.0
 21
0.0
 31
0.0
 44
0.9
  1
-
 40
0.625
 41
0.6696428571
  0
MTEXT
  5
360
100
AcDbEntity
  8
0
100
AcDbMText
 62
2
  6
CONTINUOUS
  7
STANDARD
 71
2
 72
1
 10
126.7340748452
 20
83.1720149829
 30
0.0
 11
1.0
 21
0.0
 31
0.0
 44
0.9
  1
-
 40
0.625
 41
0.6696428571
  0
MTEXT
  5
361
100
AcDbEntity
  8
0
100
AcDbMText
 62
2
  6
CONTINUOUS
  7
STANDARD
 71
2
 72
1
 10
109.7340748452
 20
83.1720149829
 30
0.0
 11
1.0
 21
0.0
 31
0.0
 44
0.9
  1
RELEASE
 40
0.625
 41
5.0669642857
  0
MTEXT
  5
362
100
AcDbEntity
  8
0
100
AcDbMText
 62
2
  6
CONTINUOUS
  7
STANDARD
 71
2
 72
1
 10
95.3590748452
 20
83.1720149829
 30
0.0
 11
1.0
 21
0.0
 31
0.0
 44
0.9
  1
-
 40
0.625
 41
0.6696428571
  0
MTEXT
  5
363
100
AcDbEntity
  8
0
100
AcDbMText
 62
2
  6
CONTINUOUS
  7
STANDARD
 71
2
 72
1
 10
92.7340748452
 20
83.1720149829
 30
0.0
 11
1.0
 21
0.0
 31
0.0
 44
0.9
  1
A
 40
0.625
 41
0.9821428571
  0
LINE
  5
364
100
AcDbEntity
  8
0
100
AcDbLine
 62
2
  6
CONTINUOUS
 10
92.5
 20
7.0
 11
101.5
 21
7.0
  0
LINE
  5
365
100
AcDbEntity
  8
0
100
AcDbLine
 62
2
  6
CONTINUOUS
 10
92.5
 20
7.0
 11
92.5
 21
4.5
  0
LINE
  5
366
100
AcDbEntity
  8
0
100
AcDbLine
 62
2
  6
CONTINUOUS
 10
92.5
 20
4.5
 11
101.5
 21
4.5
  0
LINE
  5
367
100
AcDbEntity
  8
0
100
AcDbLine
 62
2
  6
CONTINUOUS
 10
101.5
 20
7.0
 11
101.5
 21
4.5
  0
LINE
  5
368
100
AcDbEntity
  8
0
100
AcDbLine
 62
2
  6
CONTINUOUS
 10
92.5
 20
4.5
 11
101.5
 21
4.5
  0
LINE
  5
369
100
AcDbEntity
  8
0
100
AcDbLine
 62
2
  6
CONTINUOUS
 10
92.5
 20
4.5
 11
92.5
 21
2.0
  0
LINE
  5
36A
100
AcDbEntity
  8
0
100
AcDbLine
 62
2
  6
CONTINUOUS
 10
92.5
 20
2.0
 11
101.5
 21
2.0
  0
LINE
  5
36B
100
AcDbEntity
  8
0
100
AcDbLine
 62
2
  6
CONTINUOUS
 10
101.5
 20
4.5
 11
101.5
 21
2.0
  0
LINE
  5
36C
100
AcDbEntity
  8
0
100
AcDbLine
 62
2
  6
CONTINUOUS
 10
101.5
 20
11.0
 11
108.5
 21
11.0
  0
LINE
  5
36D
100
AcDbEntity
  8
0
100
AcDbLine
 62
2
  6
CONTINUOUS
 10
101.5
 20
11.0
 11
101.5
 21
9.28125
  0
LINE
  5
36E
100
AcDbEntity
  8
0
100
AcDbLine
 62
2
  6
CONTINUOUS
 10
101.5
 20
9.28125
 11
108.5
 21
9.28125
  0
LINE
  5
36F
100
AcDbEntity
  8
0
100
AcDbLine
 62
2
  6
CONTINUOUS
 10
108.5
 20
11.0
 11
108.5
 21
9.28125
  0
MTEXT
  5
370
100
AcDbEntity
  8
0
100
AcDbMText
 62
2
  6
CONTINUOUS
  7
STANDARD
 71
1
 72
1
 10
101.75
 20
10.21875
 30
0.0
 11
1.0
 21
0.0
 31
0.0
 44
0.9
  1
ENG. SERVICES
 40
0.625
 41
9.3080357143
  0
LINE
  5
371
100
AcDbEntity
  8
0
100
AcDbLine
 62
2
  6
CONTINUOUS
 10
101.5
 20
9.25
 11
108.5
 21
9.25
  0
LINE
  5
372
100
AcDbEntity
  8
0
100
AcDbLine
 62
2
  6
CONTINUOUS
 10
101.5
 20
9.25
 11
101.5
 21
7.49
  0
LINE
  5
373
100
AcDbEntity
  8
0
100
AcDbLine
 62
2
  6
CONTINUOUS
 10
101.5
 20
7.49
 11
108.5
 21
7.49
  0
LINE
  5
374
100
AcDbEntity
  8
0
100
AcDbLine
 62
2
  6
CONTINUOUS
 10
108.5
 20
9.25
 11
108.5
 21
7.49
  0
MTEXT
  5
375
100
AcDbEntity
  8
0
100
AcDbMText
 62
2
  6
CONTINUOUS
  7
STANDARD
 71
1
 72
1
 10
101.75
 20
8.4275
 30
0.0
 11
1.0
 21
0.0
 31
0.0
 44
0.9
  1
NA
 40
0.625
 41
1.71875
  0
LINE
  5
376
100
AcDbEntity
  8
0
100
AcDbLine
 62
2
  6
CONTINUOUS
 10
101.5
 20
7.5
 11
108.5
 21
7.5
  0
LINE
  5
377
100
AcDbEntity
  8
0
100
AcDbLine
 62
2
  6
CONTINUOUS
 10
101.5
 20
7.5
 11
101.5
 21
5.78125
  0
LINE
  5
378
100
AcDbEntity
  8
0
100
AcDbLine
 62
2
  6
CONTINUOUS
 10
101.5
 20
5.78125
 11
108.5
 21
5.78125
  0
LINE
  5
379
100
AcDbEntity
  8
0
100
AcDbLine
 62
2
  6
CONTINUOUS
 10
108.5
 20
7.5
 11
108.5
 21
5.78125
  0
MTEXT
  5
37A
100
AcDbEntity
  8
0
100
AcDbMText
 62
2
  6
CONTINUOUS
  7
STANDARD
 71
1
 72
1
 10
101.75
 20
6.71875
 30
0.0
 11
1.0
 21
0.0
 31
0.0
 44
0.9
  1
NA
 40
0.625
 41
1.71875
  0
LINE
  5
37B
100
AcDbEntity
  8
0
100
AcDbLine
 62
2
  6
CONTINUOUS
 10
101.5
 20
5.75
 11
108.5
 21
5.75
  0
LINE
  5
37C
100
AcDbEntity
  8
0
100
AcDbLine
 62
2
  6
CONTINUOUS
 10
101.5
 20
5.75
 11
101.5
 21
3.99
  0
LINE
  5
37D
100
AcDbEntity
  8
0
100
AcDbLine
 62
2
  6
CONTINUOUS
 10
101.5
 20
3.99
 11
108.5
 21
3.99
  0
LINE
  5
37E
100
AcDbEntity
  8
0
100
AcDbLine
 62
2
  6
CONTINUOUS
 10
108.5
 20
5.75
 11
108.5
 21
3.99
  0
MTEXT
  5
37F
100
AcDbEntity
  8
0
100
AcDbMText
 62
2
  6
CONTINUOUS
  7
STANDARD
 71
1
 72
1
 10
101.75
 20
4.9275
 30
0.0
 11
1.0
 21
0.0
 31
0.0
 44
0.9
  1
NA
 40
0.625
 41
1.5401785714
  0
LINE
  5
380
100
AcDbEntity
  8
0
100
AcDbLine
 62
2
  6
CONTINUOUS
 10
108.5
 20
11.0
 11
112.0
 21
11.0
  0
LINE
  5
381
100
AcDbEntity
  8
0
100
AcDbLine
 62
2
  6
CONTINUOUS
 10
108.5
 20
11.0
 11
108.5
 21
9.24
  0
LINE
  5
382
100
AcDbEntity
  8
0
100
AcDbLine
 62
2
  6
CONTINUOUS
 10
108.5
 20
9.24
 11
112.0
 21
9.24
  0
LINE
  5
383
100
AcDbEntity
  8
0
100
AcDbLine
 62
2
  6
CONTINUOUS
 10
112.0
 20
11.0
 11
112.0
 21
9.24
  0
MTEXT
  5
384
100
AcDbEntity
  8
0
100
AcDbMText
 62
2
  6
CONTINUOUS
  7
STANDARD
 71
2
 72
1
 10
110.25
 20
10.0325
 30
0.0
 11
1.0
 21
0.0
 31
0.0
 44
0.9
  1
12/11/13
 40
0.48
 41
3.8228571429
  0
LINE
  5
385
100
AcDbEntity
  8
0
100
AcDbLine
 62
2
  6
CONTINUOUS
 10
108.5
 20
9.25
 11
112.0
 21
9.25
  0
LINE
  5
386
100
AcDbEntity
  8
0
100
AcDbLine
 62
2
  6
CONTINUOUS
 10
108.5
 20
9.25
 11
108.5
 21
7.49
  0
LINE
  5
387
100
AcDbEntity
  8
0
100
AcDbLine
 62
2
  6
CONTINUOUS
 10
108.5
 20
7.49
 11
112.0
 21
7.49
  0
LINE
  5
388
100
AcDbEntity
  8
0
100
AcDbLine
 62
2
  6
CONTINUOUS
 10
112.0
 20
9.25
 11
112.0
 21
7.49
  0
MTEXT
  5
389
100
AcDbEntity
  8
0
100
AcDbMText
 62
2
  6
CONTINUOUS
  7
STANDARD
 71
2
 72
1
 10
110.25
 20
8.2825
 30
0.0
 11
1.0
 21
0.0
 31
0.0
 44
0.9
  1
-
 40
0.48
 41
0.5142857143
  0
LINE
  5
38A
100
AcDbEntity
  8
0
100
AcDbLine
 62
2
  6
CONTINUOUS
 10
108.5
 20
7.5
 11
112.0
 21
7.5
  0
LINE
  5
38B
100
AcDbEntity
  8
0
100
AcDbLine
 62
2
  6
CONTINUOUS
 10
108.5
 20
7.5
 11
108.5
 21
5.74
  0
LINE
  5
38C
100
AcDbEntity
  8
0
100
AcDbLine
 62
2
  6
CONTINUOUS
 10
108.5
 20
5.74
 11
112.0
 21
5.74
  0
LINE
  5
38D
100
AcDbEntity
  8
0
100
AcDbLine
 62
2
  6
CONTINUOUS
 10
112.0
 20
7.5
 11
112.0
 21
5.74
  0
MTEXT
  5
38E
100
AcDbEntity
  8
0
100
AcDbMText
 62
2
  6
CONTINUOUS
  7
STANDARD
 71
2
 72
1
 10
110.25
 20
6.5325
 30
0.0
 11
1.0
 21
0.0
 31
0.0
 44
0.9
  1
-
 40
0.48
 41
0.5142857143
  0
LINE
  5
38F
100
AcDbEntity
  8
0
100
AcDbLine
 62
2
  6
CONTINUOUS
 10
108.5
 20
5.75
 11
112.0
 21
5.75
  0
LINE
  5
390
100
AcDbEntity
  8
0
100
AcDbLine
 62
2
  6
CONTINUOUS
 10
108.5
 20
5.75
 11
108.5
 21
4.03125
  0
LINE
  5
391
100
AcDbEntity
  8
0
100
AcDbLine
 62
2
  6
CONTINUOUS
 10
108.5
 20
4.03125
 11
112.0
 21
4.03125
  0
LINE
  5
392
100
AcDbEntity
  8
0
100
AcDbLine
 62
2
  6
CONTINUOUS
 10
112.0
 20
5.75
 11
112.0
 21
4.03125
  0
MTEXT
  5
393
100
AcDbEntity
  8
0
100
AcDbMText
 62
2
  6
CONTINUOUS
  7
STANDARD
 71
2
 72
1
 10
110.25
 20
4.82375
 30
0.0
 11
1.0
 21
0.0
 31
0.0
 44
0.9
  1
-
 40
0.48
 41
0.5142857143
  0
LINE
  5
394
100
AcDbEntity
  8
0
100
AcDbLine
 62
2
  6
CONTINUOUS
 10
101.5
 20
4.0
 11
112.0
 21
4.0
  0
LINE
  5
395
100
AcDbEntity
  8
0
100
AcDbLine
 62
2
  6
CONTINUOUS
 10
101.5
 20
4.0
 11
101.5
 21
3.0
  0
LINE
  5
396
100
AcDbEntity
  8
0
100
AcDbLine
 62
2
  6
CONTINUOUS
 10
101.5
 20
3.0
 11
112.0
 21
3.0
  0
LINE
  5
397
100
AcDbEntity
  8
0
100
AcDbLine
 62
2
  6
CONTINUOUS
 10
112.0
 20
4.0
 11
112.0
 21
3.0
  0
MTEXT
  5
398
100
AcDbEntity
  8
0
100
AcDbMText
 62
2
  6
CONTINUOUS
  7
STANDARD
 71
3
 72
1
 10
111.75
 20
3.7525
 30
0.0
 11
1.0
 21
0.0
 31
0.0
 44
0.9
  1
WP-001155-2D.2.0
 40
0.44
 41
8.1242857143
  0
LINE
  5
399
100
AcDbEntity
  8
0
100
AcDbLine
 62
2
  6
CONTINUOUS
 10
101.5
 20
3.0
 11
112.0
 21
3.0
  0
LINE
  5
39A
100
AcDbEntity
  8
0
100
AcDbLine
 62
2
  6
CONTINUOUS
 10
101.5
 20
3.0
 11
101.5
 21
2.0
  0
LINE
  5
39B
100
AcDbEntity
  8
0
100
AcDbLine
 62
2
  6
CONTINUOUS
 10
101.5
 20
2.0
 11
112.0
 21
2.0
  0
LINE
  5
39C
100
AcDbEntity
  8
0
100
AcDbLine
 62
2
  6
CONTINUOUS
 10
112.0
 20
3.0
 11
112.0
 21
2.0
  0
MTEXT
  5
39D
100
AcDbEntity
  8
0
100
AcDbMText
 62
2
  6
CONTINUOUS
  7
STANDARD
 71
3
 72
1
 10
111.75
 20
2.7525
 30
0.0
 11
1.0
 21
0.0
 31
0.0
 44
0.9
  1
WP-001155-3D.2.0
 40
0.44
 41
8.0771428571
  0
LINE
  5
39E
100
AcDbEntity
  8
0
100
AcDbLine
 62
2
  6
CONTINUOUS
 10
112.0
 20
9.5
 11
132.0
 21
9.5
  0
LINE
  5
39F
100
AcDbEntity
  8
0
100
AcDbLine
 62
2
  6
CONTINUOUS
 10
112.0
 20
9.5
 11
112.0
 21
5.0
  0
LINE
  5
3A0
100
AcDbEntity
  8
0
100
AcDbLine
 62
2
  6
CONTINUOUS
 10
112.0
 20
5.0
 11
132.0
 21
5.0
  0
LINE
  5
3A1
100
AcDbEntity
  8
0
100
AcDbLine
 62
2
  6
CONTINUOUS
 10
132.0
 20
9.5
 11
132.0
 21
5.0
  0
MTEXT
  5
3A2
100
AcDbEntity
  8
0
100
AcDbMText
 62
2
  6
CONTINUOUS
  7
STANDARD
 71
2
 72
1
 10
122.0
 20
8.47
 30
0.0
 11
1.0
 21
0.0
 31
0.0
 44
1.02
  1
SPEAKER, FINISHED,\PDCS, SC-1150
 40
0.8
 41
16.0
  0
LINE
  5
3A3
100
AcDbEntity
  8
0
100
AcDbLine
 62
2
  6
CONTINUOUS
 10
112.0043692118
 20
4.99176187
 11
114.0043692118
 21
4.99176187
  0
LINE
  5
3A4
100
AcDbEntity
  8
0
100
AcDbLine
 62
2
  6
CONTINUOUS
 10
112.0043692118
 20
4.99176187
 11
112.0043692118
 21
2.99176187
  0
LINE
  5
3A5
100
AcDbEntity
  8
0
100
AcDbLine
 62
2
  6
CONTINUOUS
 10
112.0043692118
 20
2.99176187
 11
114.0043692118
 21
2.99176187
  0
LINE
  5
3A6
100
AcDbEntity
  8
0
100
AcDbLine
 62
2
  6
CONTINUOUS
 10
114.0043692118
 20
4.99176187
 11
114.0043692118
 21
2.99176187
  0
MTEXT
  5
3A7
100
AcDbEntity
  8
0
100
AcDbMText
 62
2
  6
CONTINUOUS
  7
STANDARD
 71
2
 72
1
 10
113.0043692118
 20
4.10426187
 30
0.0
 11
1.0
 21
0.0
 31
0.0
 44
0.9
  1
D
 40
0.8
 41
1.0857142857
  0
LINE
  5
3A8
100
AcDbEntity
  8
0
100
AcDbLine
 62
2
  6
CONTINUOUS
 10
118.0020699904
 20
4.9798983565
 11
130.0020699904
 21
4.9798983565
  0
LINE
  5
3A9
100
AcDbEntity
  8
0
100
AcDbLine
 62
2
  6
CONTINUOUS
 10
118.0020699904
 20
4.9798983565
 11
118.0020699904
 21
2.9798983565
  0
LINE
  5
3AA
100
AcDbEntity
  8
0
100
AcDbLine
 62
2
  6
CONTINUOUS
 10
118.0020699904
 20
2.9798983565
 11
130.0020699904
 21
2.9798983565
  0
LINE
  5
3AB
100
AcDbEntity
  8
0
100
AcDbLine
 62
2
  6
CONTINUOUS
 10
130.0020699904
 20
4.9798983565
 11
130.0020699904
 21
2.9798983565
  0
MTEXT
  5
3AC
100
AcDbEntity
  8
0
100
AcDbMText
 62
2
  6
CONTINUOUS
  7
STANDARD
 71
2
 72
1
 10
124.0020699904
 20
4.2123983565
 30
0.0
 11
1.0
 21
0.0
 31
0.0
 44
0.9
  1
WP-001155-2D
 40
0.92
 41
12.9785714286
  0
LINE
  5
3AD
100
AcDbEntity
  8
0
100
AcDbLine
 62
2
  6
CONTINUOUS
 10
129.9947995851
 20
4.9931512905
 11
131.9947995851
 21
4.9931512905
  0
LINE
  5
3AE
100
AcDbEntity
  8
0
100
AcDbLine
 62
2
  6
CONTINUOUS
 10
129.9947995851
 20
4.9931512905
 11
129.9947995851
 21
2.9931512905
  0
LINE
  5
3AF
100
AcDbEntity
  8
0
100
AcDbLine
 62
2
  6
CONTINUOUS
 10
129.9947995851
 20
2.9931512905
 11
131.9947995851
 21
2.9931512905
  0
LINE
  5
3B0
100
AcDbEntity
  8
0
100
AcDbLine
 62
2
  6
CONTINUOUS
 10
131.9947995851
 20
4.9931512905
 11
131.9947995851
 21
2.9931512905
  0
MTEXT
  5
3B1
100
AcDbEntity
  8
0
100
AcDbMText
 62
2
  6
CONTINUOUS
  7
STANDARD
 71
2
 72
1
 10
130.9947995851
 20
4.0256512905
 30
0.0
 11
1.0
 21
0.0
 31
0.0
 44
0.9
  1
2
 40
0.72
 41
0.8485714286
  0
LINE
  5
3B2
100
AcDbEntity
  8
0
100
AcDbLine
 62
2
  6
CONTINUOUS
 10
125.5024824775
 20
2.9717155345
 11
132.0024824775
 21
2.9717155345
  0
LINE
  5
3B3
100
AcDbEntity
  8
0
100
AcDbLine
 62
2
  6
CONTINUOUS
 10
125.5024824775
 20
2.9717155345
 11
125.5024824775
 21
1.9717155345
  0
LINE
  5
3B4
100
AcDbEntity
  8
0
100
AcDbLine
 62
2
  6
CONTINUOUS
 10
125.5024824775
 20
1.9717155345
 11
132.0024824775
 21
1.9717155345
  0
LINE
  5
3B5
100
AcDbEntity
  8
0
100
AcDbLine
 62
2
  6
CONTINUOUS
 10
132.0024824775
 20
2.9717155345
 11
132.0024824775
 21
1.9717155345
  0
MTEXT
  5
3B6
100
AcDbEntity
  8
0
100
AcDbMText
 62
2
  6
CONTINUOUS
  7
STANDARD
 71
3
 72
1
 10
131.7524824775
 20
2.8442155345
 30
0.0
 11
1.0
 21
0.0
 31
0.0
 44
0.9
  1
1 OF 1
 40
0.56
 41
3.54
  0
LINE
  5
3B7
100
AcDbEntity
  8
0
100
AcDbLine
 62
2
  6
CONTINUOUS
 10
111.9930392484
 20
2.9952928676
 11
116.7450392484
 21
2.9952928676
  0
LINE
  5
3B8
100
AcDbEntity
  8
0
100
AcDbLine
 62
2
  6
CONTINUOUS
 10
111.9930392484
 20
2.9952928676
 11
111.9930392484
 21
1.9796678676
  0
LINE
  5
3B9
100
AcDbEntity
  8
0
100
AcDbLine
 62
2
  6
CONTINUOUS
 10
111.9930392484
 20
1.9796678676
 11
116.7450392484
 21
1.9796678676
  0
LINE
  5
3BA
100
AcDbEntity
  8
0
100
AcDbLine
 62
2
  6
CONTINUOUS
 10
116.7450392484
 20
2.9952928676
 11
116.7450392484
 21
1.9796678676
  0
MTEXT
  5
3BB
100
AcDbEntity
  8
0
100
AcDbMText
 62
2
  6
CONTINUOUS
  7
STANDARD
 71
1
 72
1
 10
2.9881507964
 20
12.3350618719
 30
0.0
 11
1.0
 21
0.0
 31
0.0
 44
0.9
  3
4. PARTS ARE SYMMETRICAL ABOUT CENTER LINES\P   UNLESS OTHERWISE NOTED.\P \P3. SYMBOL    INDICATES CENTER OF BALANCE.\P  \P2. TOLERANCES (MM): X \Fgdt;{\Fgdt;`}\Ftxt; 5, ANGLES: \Fgdt;{\Fgdt;`}\Ftxt; 1\Fgdt;{\Fgdt;~}\Ftxt;.\P \P1. NET WEIGHT APPROX. 
  1
32.2 / 71.0 [KG/LBS].\P \PNOTE: UNLESS OTHERWISE SPECIFIED 
 40
0.625
 41
31.6071428571
  0
INSERT
  5
3BC
100
AcDbEntity
  8
0
100
AcDbBlockReference
 62
2
  6
CONTINUOUS
  2
123_BL1
 10
8.1156859368
 20
9.204799167
  0
LINE
  5
3BD
100
AcDbEntity
  8
DEFAULT_3
100
AcDbLine
 62
7
  6
PHANTOM
 10
0.0
 20
-0.0
 11
0.0
 21
88.0
  0
LWPOLYLINE
  5
3BE
100
AcDbEntity
  8
0
100
AcDbPolyline
 62
7
  6
CONTINUOUS
 90
2
 70
0
 43
0.0800000033
 10
1.0498508885
 20
43.3253804427
 10
1.0498508885
 20
44.6746195573
  0
LWPOLYLINE
  5
3BF
100
AcDbEntity
  8
0
100
AcDbPolyline
 62
7
  6
CONTINUOUS
 90
2
 70
0
 43
0.120000001
 10
2.0
 20
86.0
 10
2.0
 20
2.0
  0
LWPOLYLINE
  5
3C0
100
AcDbEntity
  8
0
100
AcDbPolyline
 62
7
  6
CONTINUOUS
 90
2
 70
0
 43
0.120000001
 10
14.25
 20
86.0
 10
14.25
 20
84.0
  0
LWPOLYLINE
  5
3C1
100
AcDbEntity
  8
0
100
AcDbPolyline
 62
7
  6
CONTINUOUS
 90
2
 70
0
 43
0.0800000033
 10
18.25
 20
2.0
 10
18.25
 20
-0.0
  0
LWPOLYLINE
  5
3C2
100
AcDbEntity
  8
0
100
AcDbPolyline
 62
7
  6
CONTINUOUS
 90
2
 70
0
 43
0.0800000033
 10
18.25
 20
86.0
 10
18.25
 20
88.0
  0
LINE
  5
3C3
100
AcDbEntity
  8
0
100
AcDbLine
 62
7
  6
CONTINUOUS
 10
101.4928516619
 20
4.4820555597
 11
92.4848129034
 21
1.9805617833
  0
LINE
  5
3C4
100
AcDbEntity
  8
0
100
AcDbLine
 62
7
  6
CONTINUOUS
 10
101.5061574798
 20
6.996855154
 11
92.4981187213
 21
4.4953613776
  0
LINE
  5
3C5
100
AcDbEntity
  8
DEFAULT_3
100
AcDbLine
 62
7
  6
PHANTOM
 10
0.0
 20
-0.0
 11
136.0
 21
-0.0
  0
LWPOLYLINE
  5
3C6
100
AcDbEntity
  8
0
100
AcDbPolyline
 62
7
  6
CONTINUOUS
 90
2
 70
0
 43
0.0800000033
 10
66.3253804427
 20
1.0498508885
 10
67.6746195573
 20
1.0498508885
  0
LWPOLYLINE
  5
3C7
100
AcDbEntity
  8
0
100
AcDbPolyline
 62
7
  6
CONTINUOUS
 90
2
 70
0
 43
0.0800000033
 10
2.0
 20
44.0
 10
1.0498508885
 20
43.3253804427
  0
LWPOLYLINE
  5
3C8
100
AcDbEntity
  8
0
100
AcDbPolyline
 62
7
  6
CONTINUOUS
 90
2
 70
0
 43
0.120000001
 10
2.0
 20
2.0
 10
132.0
 20
2.0
  0
LWPOLYLINE
  5
3C9
100
AcDbEntity
  8
0
100
AcDbPolyline
 62
7
  6
CONTINUOUS
 90
2
 70
0
 43
0.0800000033
 10
101.5
 20
3.0
 10
132.0
 20
3.0
  0
LWPOLYLINE
  5
3CA
100
AcDbEntity
  8
0
100
AcDbPolyline
 62
7
  6
CONTINUOUS
 90
2
 70
0
 43
0.0800000033
 10
101.5
 20
4.0
 10
112.0
 20
4.0
  0
LWPOLYLINE
  5
3CB
100
AcDbEntity
  8
0
100
AcDbPolyline
 62
7
  6
CONTINUOUS
 90
2
 70
0
 43
0.0800000033
 10
101.5
 20
4.5
 10
92.5
 20
4.5
  0
LWPOLYLINE
  5
3CC
100
AcDbEntity
  8
0
100
AcDbPolyline
 62
7
  6
CONTINUOUS
 90
2
 70
0
 43
0.0800000033
 10
112.0
 20
5.0
 10
132.0
 20
5.0
  0
LWPOLYLINE
  5
3CD
100
AcDbEntity
  8
0
100
AcDbPolyline
 62
7
  6
CONTINUOUS
 90
2
 70
0
 43
0.0800000033
 10
101.5262776669
 20
6.0469413799
 10
112.0262776669
 20
6.0469413799
  0
LWPOLYLINE
  5
3CE
100
AcDbEntity
  8
0
100
AcDbPolyline
 62
7
  6
CONTINUOUS
 90
2
 70
0
 43
0.0800000033
 10
2.0
 20
44.0
 10
1.0498508885
 20
44.6746195573
  0
LWPOLYLINE
  5
3CF
100
AcDbEntity
  8
0
100
AcDbPolyline
 62
7
  6
CONTINUOUS
 90
2
 70
0
 43
0.0800000033
 10
34.5
 20
2.0
 10
34.5
 20
-0.0
  0
LWPOLYLINE
  5
3D0
100
AcDbEntity
  8
0
100
AcDbPolyline
 62
7
  6
CONTINUOUS
 90
2
 70
0
 43
0.0800000033
 10
34.5
 20
86.0
 10
34.5
 20
88.0
  0
LWPOLYLINE
  5
3D1
100
AcDbEntity
  8
0
100
AcDbPolyline
 62
7
  6
CONTINUOUS
 90
2
 70
0
 43
0.0800000033
 10
92.5
 20
7.0
 10
101.5
 20
7.0
  0
LWPOLYLINE
  5
3D2
100
AcDbEntity
  8
0
100
AcDbPolyline
 62
7
  6
CONTINUOUS
 90
2
 70
0
 43
0.0800000033
 10
101.5317724285
 20
8.1036761417
 10
112.0317724285
 20
8.1036761417
  0
LWPOLYLINE
  5
3D3
100
AcDbEntity
  8
0
100
AcDbPolyline
 62
7
  6
CONTINUOUS
 90
2
 70
0
 43
0.0800000033
 10
112.0
 20
9.5
 10
132.0
 20
9.5
  0
LWPOLYLINE
  5
3D4
100
AcDbEntity
  8
0
100
AcDbPolyline
 62
7
  6
CONTINUOUS
 90
2
 70
0
 43
0.0800000033
 10
101.5
 20
10.2301193141
 10
112.0
 20
10.2301193141
  0
LWPOLYLINE
  5
3D5
100
AcDbEntity
  8
0
100
AcDbPolyline
 62
7
  6
CONTINUOUS
 90
2
 70
0
 43
0.0800000033
 10
92.5
 20
12.25
 10
132.0
 20
12.25
  0
LWPOLYLINE
  5
3D6
100
AcDbEntity
  8
0
100
AcDbPolyline
 62
7
  6
CONTINUOUS
 90
2
 70
0
 43
0.0800000033
 10
67.0
 20
86.0
 10
67.6746195573
 20
86.9501491115
  0
LWPOLYLINE
  5
3D7
100
AcDbEntity
  8
0
100
AcDbPolyline
 62
7
  6
CONTINUOUS
 90
2
 70
0
 43
0.0800000033
 10
67.0
 20
2.0
 10
67.6746195573
 20
1.0498508885
  0
LWPOLYLINE
  5
3D8
100
AcDbEntity
  8
0
100
AcDbPolyline
 62
7
  6
CONTINUOUS
 90
2
 70
0
 43
0.0800000033
 10
2.0
 20
23.0
 10
0.0
 20
23.0
  0
LWPOLYLINE
  5
3D9
100
AcDbEntity
  8
0
100
AcDbPolyline
 62
7
  6
CONTINUOUS
 90
2
 70
0
 43
0.0800000033
 10
132.0263754034
 20
23.0033641637
 10
134.0263754034
 20
23.0033641637
  0
LWPOLYLINE
  5
3DA
100
AcDbEntity
  8
0
100
AcDbPolyline
 62
7
  6
CONTINUOUS
 90
2
 70
0
 43
0.0800000033
 10
50.75
 20
2.0
 10
50.75
 20
-0.0
  0
LWPOLYLINE
  5
3DB
100
AcDbEntity
  8
0
100
AcDbPolyline
 62
7
  6
CONTINUOUS
 90
2
 70
0
 43
0.0800000033
 10
50.75
 20
86.0
 10
50.75
 20
88.0
  0
LINE
  5
3DC
100
AcDbEntity
  8
0
100
AcDbLine
 62
7
  6
CONTINUOUS
 10
92.5443466341
 20
12.2087884372
 11
101.4670033149
 21
7.0509657989
  0
LWPOLYLINE
  5
3DD
100
AcDbEntity
  8
0
100
AcDbPolyline
 62
7
  6
CONTINUOUS
 90
2
 70
0
 43
0.0800000033
 10
67.0
 20
2.0
 10
67.0
 20
-0.0
  0
LWPOLYLINE
  5
3DE
100
AcDbEntity
  8
0
100
AcDbPolyline
 62
7
  6
CONTINUOUS
 90
2
 70
0
 43
0.0800000033
 10
67.0
 20
86.0
 10
67.0
 20
88.0
  0
LWPOLYLINE
  5
3DF
100
AcDbEntity
  8
0
100
AcDbPolyline
 62
7
  6
CONTINUOUS
 90
2
 70
0
 43
0.0800000033
 10
2.0
 20
44.0
 10
-0.0
 20
44.0
  0
LWPOLYLINE
  5
3E0
100
AcDbEntity
  8
0
100
AcDbPolyline
 62
7
  6
CONTINUOUS
 90
2
 70
0
 43
0.0800000033
 10
132.0043173838
 20
44.0054391926
 10
134.0043173838
 20
44.0054391926
  0
LWPOLYLINE
  5
3E1
100
AcDbEntity
  8
0
100
AcDbPolyline
 62
7
  6
CONTINUOUS
 90
2
 70
0
 43
0.0800000033
 10
83.25
 20
2.0
 10
83.25
 20
-0.0
  0
LWPOLYLINE
  5
3E2
100
AcDbEntity
  8
0
100
AcDbPolyline
 62
7
  6
CONTINUOUS
 90
2
 70
0
 43
0.0800000033
 10
83.25
 20
86.0
 10
83.25
 20
88.0
  0
LWPOLYLINE
  5
3E3
100
AcDbEntity
  8
0
100
AcDbPolyline
 62
7
  6
CONTINUOUS
 90
2
 70
0
 43
0.0800000033
 10
67.0
 20
2.0
 10
66.3253804427
 20
1.0498508885
  0
LWPOLYLINE
  5
3E4
100
AcDbEntity
  8
0
100
AcDbPolyline
 62
7
  6
CONTINUOUS
 90
2
 70
0
 43
0.0800000033
 10
2.0
 20
65.0
 10
0.0
 20
65.0
  0
LWPOLYLINE
  5
3E5
100
AcDbEntity
  8
0
100
AcDbPolyline
 62
7
  6
CONTINUOUS
 90
2
 70
0
 43
0.0800000033
 10
132.0
 20
65.0
 10
134.0
 20
65.0
  0
LWPOLYLINE
  5
3E6
100
AcDbEntity
  8
0
100
AcDbPolyline
 62
7
  6
CONTINUOUS
 90
2
 70
0
 43
0.0800000033
 10
67.0
 20
86.0
 10
66.3253804427
 20
86.9501491115
  0
LWPOLYLINE
  5
3E7
100
AcDbEntity
  8
0
100
AcDbPolyline
 62
7
  6
CONTINUOUS
 90
2
 70
0
 43
0.0800000033
 10
92.5
 20
2.0
 10
92.5
 20
12.25
  0
LWPOLYLINE
  5
3E8
100
AcDbEntity
  8
0
100
AcDbPolyline
 62
7
  6
CONTINUOUS
 90
2
 70
0
 43
0.0800000033
 10
99.5
 20
2.0
 10
99.5
 20
-0.0
  0
LWPOLYLINE
  5
3E9
100
AcDbEntity
  8
0
100
AcDbPolyline
 62
7
  6
CONTINUOUS
 90
2
 70
0
 43
0.0800000033
 10
99.5
 20
86.0
 10
99.5
 20
88.0
  0
LWPOLYLINE
  5
3EA
100
AcDbEntity
  8
0
100
AcDbPolyline
 62
7
  6
CONTINUOUS
 90
2
 70
0
 43
0.0800000033
 10
101.5
 20
2.0
 10
101.5
 20
12.25
  0
LWPOLYLINE
  5
3EB
100
AcDbEntity
  8
0
100
AcDbPolyline
 62
7
  6
CONTINUOUS
 90
2
 70
0
 43
0.0800000033
 10
132.0043173838
 20
44.0054391926
 10
132.9544664953
 20
44.6800587499
  0
LWPOLYLINE
  5
3EC
100
AcDbEntity
  8
0
100
AcDbPolyline
 62
7
  6
CONTINUOUS
 90
2
 70
0
 43
0.0800000033
 10
132.0043173838
 20
44.0054391926
 10
132.9544664953
 20
43.3308196353
  0
LWPOLYLINE
  5
3ED
100
AcDbEntity
  8
0
100
AcDbPolyline
 62
7
  6
CONTINUOUS
 90
2
 70
0
 43
0.120000001
 10
14.25
 20
84.0
 10
2.0
 20
84.0
  0
LWPOLYLINE
  5
3EE
100
AcDbEntity
  8
0
100
AcDbPolyline
 62
7
  6
CONTINUOUS
 90
2
 70
0
 43
0.120000001
 10
132.0
 20
86.0
 10
2.0
 20
86.0
  0
LWPOLYLINE
  5
3EF
100
AcDbEntity
  8
0
100
AcDbPolyline
 62
7
  6
CONTINUOUS
 90
2
 70
0
 43
0.0800000033
 10
66.3253804427
 20
86.9501491115
 10
67.6746195573
 20
86.9501491115
  0
LWPOLYLINE
  5
3F0
100
AcDbEntity
  8
0
100
AcDbPolyline
 62
7
  6
CONTINUOUS
 90
2
 70
0
 43
0.0800000033
 10
112.0
 20
2.0
 10
112.0
 20
12.25
  0
LWPOLYLINE
  5
3F1
100
AcDbEntity
  8
0
100
AcDbPolyline
 62
7
  6
CONTINUOUS
 90
2
 70
0
 43
0.0800000033
 10
114.0
 20
3.0
 10
114.0
 20
5.0
  0
LWPOLYLINE
  5
3F2
100
AcDbEntity
  8
0
100
AcDbPolyline
 62
7
  6
CONTINUOUS
 90
2
 70
0
 43
0.0800000033
 10
115.75
 20
2.0
 10
115.75
 20
-0.0
  0
LWPOLYLINE
  5
3F3
100
AcDbEntity
  8
0
100
AcDbPolyline
 62
7
  6
CONTINUOUS
 90
2
 70
0
 43
0.0800000033
 10
115.75
 20
86.0
 10
115.75
 20
88.0
  0
LINE
  5
3F4
100
AcDbEntity
  8
0
100
AcDbLine
 62
7
  6
CONTINUOUS
 10
101.5046516554
 20
12.2087884372
 11
92.5443466341
 21
6.9756691181
  0
LINE
  5
3F5
100
AcDbEntity
  8
DEFAULT_3
100
AcDbLine
 62
7
  6
PHANTOM
 10
0.0
 20
88.0
 11
136.0
 21
88.0
  0
LWPOLYLINE
  5
3F6
100
AcDbEntity
  8
0
100
AcDbPolyline
 62
7
  6
CONTINUOUS
 90
2
 70
0
 43
0.0800000033
 10
116.7345158662
 20
2.0190006222
 10
116.7345158662
 20
3.0190006222
  0
LWPOLYLINE
  5
3F7
100
AcDbEntity
  8
0
100
AcDbPolyline
 62
7
  6
CONTINUOUS
 90
2
 70
0
 43
0.0800000033
 10
118.0
 20
3.0
 10
118.0
 20
5.0
  0
LWPOLYLINE
  5
3F8
100
AcDbEntity
  8
0
100
AcDbPolyline
 62
7
  6
CONTINUOUS
 90
2
 70
0
 43
0.0800000033
 10
125.5
 20
2.0
 10
125.5
 20
3.0
  0
LWPOLYLINE
  5
3F9
100
AcDbEntity
  8
0
100
AcDbPolyline
 62
7
  6
CONTINUOUS
 90
2
 70
0
 43
0.0800000033
 10
130.0
 20
3.0
 10
130.0
 20
5.0
  0
LWPOLYLINE
  5
3FA
100
AcDbEntity
  8
0
100
AcDbPolyline
 62
7
  6
CONTINUOUS
 90
2
 70
0
 43
0.120000001
 10
132.0
 20
86.0
 10
132.0
 20
2.0
  0
LWPOLYLINE
  5
3FB
100
AcDbEntity
  8
0
100
AcDbPolyline
 62
7
  6
CONTINUOUS
 90
2
 70
0
 43
0.0800000033
 10
132.9544664953
 20
43.3308196353
 10
132.9544664953
 20
44.6800587499
  0
LINE
  5
3FC
100
AcDbEntity
  8
DEFAULT_3
100
AcDbLine
 62
7
  6
PHANTOM
 10
136.0
 20
-0.0
 11
136.0
 21
88.0
  0
LINE
  5
3FD
100
AcDbEntity
  8
3_AXES_OTHER
100
AcDbLine
 62
7
  6
CONTINUOUS
 10
41.5753390169
 20
60.2951301932
 11
35.6716382295
 21
54.3916656263
  0
LINE
  5
3FE
100
AcDbEntity
  8
7_ALL_ROUNDS
100
AcDbLine
 62
7
  6
CONTINUOUS
 10
35.1716382295
 20
60.5451301932
 11
35.1716382295
 21
33.8833979097
  0
LINE
  5
3FF
100
AcDbEntity
  8
7_ALL_ROUNDS
100
AcDbLine
 62
7
  6
CONTINUOUS
 10
35.4216382295
 20
33.6333979097
 11
35.4216382295
 21
60.7951301932
  0
LINE
  5
400
100
AcDbEntity
  8
3_AXES_OTHER
100
AcDbLine
 62
7
  6
CONTINUOUS
 10
35.6716382295
 20
60.2951301932
 11
35.6716382295
 21
34.1333979097
  0
LINE
  5
401
100
AcDbEntity
  8
3_AXES_OTHER
100
AcDbLine
 62
7
  6
CONTINUOUS
 10
42.1922435642
 20
60.2951301932
 11
35.6716382295
 21
53.7747857628
  0
LINE
  5
402
100
AcDbEntity
  8
7_ALL_ROUNDS
100
AcDbLine
 62
7
  6
CONTINUOUS
 10
63.2251027965
 20
33.0802483034
 11
62.1188035839
 21
33.0802483034
  0
LINE
  5
403
100
AcDbEntity
  8
7_ALL_ROUNDS
100
AcDbLine
 62
7
  6
CONTINUOUS
 10
38.2251027965
 20
33.0802483034
 11
37.1188035839
 21
33.0802483034
  0
LINE
  5
404
100
AcDbEntity
  8
3_ALL_AXES
100
AcDbLine
 62
7
  6
CONTINUOUS
 10
36.9219531902
 20
33.6333979097
 11
36.9219531902
 21
33.2770986971
  0
LINE
  5
405
100
AcDbEntity
  8
7_ALL_ROUNDS
100
AcDbLine
 62
7
  6
CONTINUOUS
 10
36.9219531902
 20
33.6333979097
 11
36.9219531902
 21
33.2770986971
  0
LINE
  5
406
100
AcDbEntity
  8
7_ALL_ROUNDS
100
AcDbLine
 62
7
  6
CONTINUOUS
 10
63.4219531902
 20
33.2770986971
 11
61.9219531902
 21
33.2770986971
  0
LINE
  5
407
100
AcDbEntity
  8
7_ALL_ROUNDS
100
AcDbLine
 62
7
  6
CONTINUOUS
 10
38.4219531902
 20
33.2770986971
 11
36.9219531902
 21
33.2770986971
  0
LINE
  5
408
100
AcDbEntity
  8
7_ALL_ROUNDS
100
AcDbLine
 62
7
  6
CONTINUOUS
 10
64.9222681508
 20
33.6333979097
 11
35.4216382295
 21
33.6333979097
  0
LINE
  5
409
100
AcDbEntity
  8
7_ALL_ROUNDS
100
AcDbLine
 62
7
  6
CONTINUOUS
 10
65.1722681508
 20
33.8833979097
 11
35.1716382295
 21
33.8833979097
  0
LINE
  5
40A
100
AcDbEntity
  8
3_AXES_OTHER
100
AcDbLine
 62
7
  6
CONTINUOUS
 10
35.6716382295
 20
34.1333979097
 11
64.6722681508
 21
34.1333979097
  0
LINE
  5
40B
100
AcDbEntity
  8
3_ALL_AXES
100
AcDbLine
 62
7
  6
CONTINUOUS
 10
38.4219531902
 20
33.6333979097
 11
38.4219531902
 21
33.2770986971
  0
LINE
  5
40C
100
AcDbEntity
  8
7_ALL_ROUNDS
100
AcDbLine
 62
7
  6
CONTINUOUS
 10
38.4219531902
 20
33.6333979097
 11
38.4219531902
 21
33.2770986971
  0
LINE
  5
40D
100
AcDbEntity
  8
7_ALL_ROUNDS
100
AcDbLine
 62
7
  6
CONTINUOUS
 10
50.4809644213
 20
55.2728422117
 11
54.6129132209
 21
58.9609658717
  0
LINE
  5
40E
100
AcDbEntity
  8
7_ALL_ROUNDS
100
AcDbLine
 62
7
  6
CONTINUOUS
 10
49.862941959
 20
54.6548197494
 11
45.7321218418
 21
51.1057852623
  0
LINE
  5
40F
100
AcDbEntity
  8
3_AXES_OTHER
100
AcDbLine
 62
7
  6
CONTINUOUS
 10
45.1128980721
 20
34.1333979097
 11
45.1128980721
 21
36.4465807679
  0
LINE
  5
410
100
AcDbEntity
  8
3_AXES_OTHER
100
AcDbLine
 62
7
  6
CONTINUOUS
 10
45.1128980721
 20
48.1000575713
 11
45.1128980721
 21
60.2951301932
  0
LINE
  5
411
100
AcDbEntity
  8
7_ALL_ROUNDS
100
AcDbLine
 62
7
  6
CONTINUOUS
 10
45.2763232689
 20
59.0153860987
 11
45.2763232689
 21
51.0524333428
  0
LINE
  5
412
100
AcDbEntity
  8
7_ALL_ROUNDS
100
AcDbLine
 62
7
  6
CONTINUOUS
 10
45.6700240563
 20
51.2492837365
 11
45.6700240563
 21
58.818535705
  0
LINE
  5
413
100
AcDbEntity
  8
3_ALL_AXES
100
AcDbLine
 62
7
  6
CENTER
 10
50.1719531902
 20
42.2733191696
 11
42.7563232689
 21
42.2733191696
  0
LINE
  5
414
100
AcDbEntity
  8
3_ALL_AXES
100
AcDbLine
 62
7
  6
CENTER
 10
50.1719531902
 20
42.2733191696
 11
57.5875831114
 21
42.2733191696
  0
LINE
  5
415
100
AcDbEntity
  8
7_ALL_ROUNDS
100
AcDbLine
 62
7
  6
CONTINUOUS
 10
65.3722681508
 20
42.9679648389
 11
65.1722681508
 21
42.9679648389
  0
LINE
  5
416
100
AcDbEntity
  8
7_ALL_ROUNDS
100
AcDbLine
 62
7
  6
CONTINUOUS
 10
65.3722681508
 20
43.1648152326
 11
65.1722681508
 21
43.1648152326
  0
LINE
  5
417
100
AcDbEntity
  8
3_ALL_AXES
100
AcDbLine
 62
7
  6
CENTER
 10
50.1719531902
 20
46.0723742877
 11
49.3924851599
 21
46.0723742877
  0
LINE
  5
418
100
AcDbEntity
  8
3_ALL_AXES
100
AcDbLine
 62
7
  6
CENTER
 10
50.1719531902
 20
46.0723742877
 11
50.9514212204
 21
46.0723742877
  0
LINE
  5
419
100
AcDbEntity
  8
3_ALL_AXES
100
AcDbLine
 62
7
  6
CENTER
 10
50.1719531902
 20
46.0723742877
 11
50.1719531902
 21
45.2929062574
  0
LINE
  5
41A
100
AcDbEntity
  8
3_ALL_AXES
100
AcDbLine
 62
7
  6
CENTER
 10
50.1719531902
 20
42.2733191696
 11
50.1719531902
 21
34.8576892483
  0
LINE
  5
41B
100
AcDbEntity
  8
3_ALL_AXES
100
AcDbLine
 62
7
  6
CENTER
 10
50.1719531902
 20
46.0723742877
 11
50.1719531902
 21
46.8518423179
  0
LINE
  5
41C
100
AcDbEntity
  8
3_ALL_AXES
100
AcDbLine
 62
7
  6
CENTER
 10
50.1719531902
 20
42.2733191696
 11
50.1719531902
 21
45.2929062574
  0
LINE
  5
41D
100
AcDbEntity
  8
3_ALL_AXES
100
AcDbLine
 62
7
  6
CENTER
 10
50.1719531902
 20
46.8518423179
 11
50.1719531902
 21
49.6889490908
  0
LINE
  5
41E
100
AcDbEntity
  8
7_ALL_ROUNDS
100
AcDbLine
 62
7
  6
CONTINUOUS
 10
65.3722681508
 20
49.7611144452
 11
65.1722681508
 21
49.7611144452
  0
LINE
  5
41F
100
AcDbEntity
  8
7_ALL_ROUNDS
100
AcDbLine
 62
7
  6
CONTINUOUS
 10
65.3722681508
 20
49.9579648389
 11
65.1722681508
 21
49.9579648389
  0
LINE
  5
420
100
AcDbEntity
  8
7_ALL_ROUNDS
100
AcDbLine
 62
7
  6
CONTINUOUS
 10
45.6700240563
 20
50.6587325554
 11
54.673882324
 21
50.6587325554
  0
LINE
  5
421
100
AcDbEntity
  8
7_ALL_ROUNDS
100
AcDbLine
 62
7
  6
CONTINUOUS
 10
54.4770319303
 20
51.0524333428
 11
45.86687445
 21
51.0524333428
  0
LINE
  5
422
100
AcDbEntity
  8
7_ALL_ROUNDS
100
AcDbLine
 62
7
  6
CONTINUOUS
 10
54.673882324
 20
58.818535705
 11
54.673882324
 21
51.2492837365
  0
LINE
  5
423
100
AcDbEntity
  8
7_ALL_ROUNDS
100
AcDbLine
 62
7
  6
CONTINUOUS
 10
55.0675831114
 20
51.0524333428
 11
55.0675831114
 21
59.0153860987
  0
LINE
  5
424
100
AcDbEntity
  8
3_AXES_OTHER
100
AcDbLine
 62
7
  6
CONTINUOUS
 10
55.2310083083
 20
60.2951301932
 11
55.2310083083
 21
48.1000575713
  0
LINE
  5
425
100
AcDbEntity
  8
3_AXES_OTHER
100
AcDbLine
 62
7
  6
CONTINUOUS
 10
55.2310083083
 20
36.4465807679
 11
55.2310083083
 21
34.1333979097
  0
LINE
  5
426
100
AcDbEntity
  8
7_ALL_ROUNDS
100
AcDbLine
 62
7
  6
CONTINUOUS
 10
50.4809644213
 20
54.6548197494
 11
54.6117845385
 21
51.1057852623
  0
LINE
  5
427
100
AcDbEntity
  8
7_ALL_ROUNDS
100
AcDbLine
 62
7
  6
CONTINUOUS
 10
49.862941959
 20
55.2728422117
 11
45.7309931594
 21
58.9609658717
  0
LINE
  5
428
100
AcDbEntity
  8
3_ALL_AXES
100
AcDbLine
 62
7
  6
CONTINUOUS
 10
61.9219531902
 20
33.6333979097
 11
61.9219531902
 21
33.2770986971
  0
LINE
  5
429
100
AcDbEntity
  8
7_ALL_ROUNDS
100
AcDbLine
 62
7
  6
CONTINUOUS
 10
61.9219531902
 20
33.6333979097
 11
61.9219531902
 21
33.2770986971
  0
LINE
  5
42A
100
AcDbEntity
  8
7_ALL_ROUNDS
100
AcDbLine
 62
7
  6
CONTINUOUS
 10
45.86687445
 20
59.0153860987
 11
54.4770319303
 21
59.0153860987
  0
LINE
  5
42B
100
AcDbEntity
  8
7_ALL_ROUNDS
100
AcDbLine
 62
7
  6
CONTINUOUS
 10
54.673882324
 20
59.4090868861
 11
45.6700240563
 21
59.4090868861
  0
LINE
  5
42C
100
AcDbEntity
  8
3_ALL_AXES
100
AcDbLine
 62
7
  6
CONTINUOUS
 10
63.4219531902
 20
33.6333979097
 11
63.4219531902
 21
33.2770986971
  0
LINE
  5
42D
100
AcDbEntity
  8
7_ALL_ROUNDS
100
AcDbLine
 62
7
  6
CONTINUOUS
 10
63.4219531902
 20
33.6333979097
 11
63.4219531902
 21
33.2770986971
  0
LINE
  5
42E
100
AcDbEntity
  8
3_AXES_OTHER
100
AcDbLine
 62
7
  6
CONTINUOUS
 10
64.6722681508
 20
60.2951301932
 11
35.6716382295
 21
60.2951301932
  0
LINE
  5
42F
100
AcDbEntity
  8
7_ALL_ROUNDS
100
AcDbLine
 62
7
  6
CONTINUOUS
 10
35.1716382295
 20
60.5451301932
 11
65.1722681508
 21
60.5451301932
  0
LINE
  5
430
100
AcDbEntity
  8
7_ALL_ROUNDS
100
AcDbLine
 62
7
  6
CONTINUOUS
 10
35.4216382295
 20
60.7951301932
 11
64.9222681508
 21
60.7951301932
  0
LINE
  5
431
100
AcDbEntity
  8
3_AXES_OTHER
100
AcDbLine
 62
7
  6
CONTINUOUS
 10
64.6722681508
 20
34.1333979097
 11
64.6722681508
 21
60.2951301932
  0
LINE
  5
432
100
AcDbEntity
  8
7_ALL_ROUNDS
100
AcDbLine
 62
7
  6
CONTINUOUS
 10
64.9222681508
 20
60.7951301932
 11
64.9222681508
 21
33.6333979097
  0
LINE
  5
433
100
AcDbEntity
  8
7_ALL_ROUNDS
100
AcDbLine
 62
7
  6
CONTINUOUS
 10
65.1722681508
 20
60.5451301932
 11
65.1722681508
 21
33.8833979097
  0
LINE
  5
434
100
AcDbEntity
  8
3_AXES_OTHER
100
AcDbLine
 62
7
  6
CONTINUOUS
 10
64.6722681508
 20
53.7747857628
 11
58.1516628161
 21
60.2951301932
  0
LINE
  5
435
100
AcDbEntity
  8
7_ALL_ROUNDS
100
AcDbLine
 62
7
  6
CONTINUOUS
 10
65.3722681508
 20
49.9579648389
 11
65.3722681508
 21
42.9679648389
  0
LINE
  5
436
100
AcDbEntity
  8
3_AXES_OTHER
100
AcDbLine
 62
7
  6
CONTINUOUS
 10
65.3772681508
 20
48.19101602
 11
65.3772681508
 21
47.49101602
  0
LINE
  5
437
100
AcDbEntity
  8
3_AXES_OTHER
100
AcDbLine
 62
7
  6
CONTINUOUS
 10
64.6722681508
 20
54.3916656263
 11
58.7685673634
 21
60.2951301932
  0
LINE
  5
438
100
AcDbEntity
  8
7_ALL_ROUNDS
100
AcDbLine
 62
7
  6
CONTINUOUS
 10
22.6572117051
 20
33.0802483034
 11
21.5509997928
 21
33.0802483034
  0
LINE
  5
439
100
AcDbEntity
  8
7_ALL_ROUNDS
100
AcDbLine
 62
7
  6
CONTINUOUS
 10
14.783195957
 20
33.0802483034
 11
13.6769840448
 21
33.0802483034
  0
LINE
  5
43A
100
AcDbEntity
  8
7_ALL_ROUNDS
100
AcDbLine
 62
7
  6
CONTINUOUS
 10
22.8541493991
 20
33.2770986971
 11
21.3541493991
 21
33.2770986971
  0
LINE
  5
43B
100
AcDbEntity
  8
7_ALL_ROUNDS
100
AcDbLine
 62
7
  6
CONTINUOUS
 10
14.9801336511
 20
33.2770986971
 11
13.4801336511
 21
33.2770986971
  0
LINE
  5
43C
100
AcDbEntity
  8
7_ALL_ROUNDS
100
AcDbLine
 62
7
  6
CONTINUOUS
 10
23.763598218
 20
33.6333979097
 11
12.5706848322
 21
33.6333979097
  0
LINE
  5
43D
100
AcDbEntity
  8
7_ALL_ROUNDS
100
AcDbLine
 62
7
  6
CONTINUOUS
 10
24.013598218
 20
33.8833979097
 11
12.3206848322
 21
33.8833979097
  0
LINE
  5
43E
100
AcDbEntity
  8
3_AXES_OTHER
100
AcDbLine
 62
7
  6
CONTINUOUS
 10
24.013598218
 20
34.1333979097
 11
24.3428501865
 21
34.1333979097
  0
LINE
  5
43F
100
AcDbEntity
  8
7_ALL_ROUNDS
100
AcDbLine
 62
7
  6
CONTINUOUS
 10
12.3206848322
 20
60.5451301932
 11
12.3206848322
 21
33.8833979097
  0
LINE
  5
440
100
AcDbEntity
  8
7_ALL_ROUNDS
100
AcDbLine
 62
7
  6
CONTINUOUS
 10
12.5706848322
 20
33.6333979097
 11
12.5706848322
 21
60.7951301932
  0
LINE
  5
441
100
AcDbEntity
  8
3_ALL_AXES
100
AcDbLine
 62
7
  6
CONTINUOUS
 10
13.4801336511
 20
33.6333979097
 11
13.4801336511
 21
33.2770986971
  0
LINE
  5
442
100
AcDbEntity
  8
3_ALL_AXES
100
AcDbLine
 62
7
  6
CONTINUOUS
 10
14.9801336511
 20
33.6333979097
 11
14.9801336511
 21
33.2770986971
  0
LINE
  5
443
100
AcDbEntity
  8
3_ALL_AXES
100
AcDbLine
 62
7
  6
CENTER
 10
18.6341887692
 20
45.1802483034
 11
18.6341887692
 21
46.9645002719
  0
LINE
  5
444
100
AcDbEntity
  8
3_ALL_AXES
100
AcDbLine
 62
7
  6
CENTER
 10
19.7495988239
 20
46.0723742877
 11
17.6354930037
 21
46.0723742877
  0
LINE
  5
445
100
AcDbEntity
  8
3_ALL_AXES
100
AcDbLine
 62
7
  6
CONTINUOUS
 10
21.3541493991
 20
33.6333979097
 11
21.3541493991
 21
33.2770986971
  0
LINE
  5
446
100
AcDbEntity
  8
3_ALL_AXES
100
AcDbLine
 62
7
  6
CONTINUOUS
 10
22.8541493991
 20
33.6333979097
 11
22.8541493991
 21
33.2770986971
  0
LINE
  5
447
100
AcDbEntity
  8
7_ALL_ROUNDS
100
AcDbLine
 62
7
  6
CONTINUOUS
 10
23.763598218
 20
60.7951301932
 11
23.763598218
 21
33.6333979097
  0
LINE
  5
448
100
AcDbEntity
  8
7_ALL_ROUNDS
100
AcDbLine
 62
7
  6
CONTINUOUS
 10
24.013598218
 20
60.5451301932
 11
24.013598218
 21
33.8833979097
  0
LINE
  5
449
100
AcDbEntity
  8
3_AXES_OTHER
100
AcDbLine
 62
7
  6
CONTINUOUS
 10
24.3428501865
 20
60.2951301932
 11
24.3428501865
 21
34.1333979097
  0
LINE
  5
44A
100
AcDbEntity
  8
3_AXES_OTHER
100
AcDbLine
 62
7
  6
CONTINUOUS
 10
24.013598218
 20
53.7747857628
 11
24.3428501865
 21
53.7747857628
  0
LINE
  5
44B
100
AcDbEntity
  8
3_AXES_OTHER
100
AcDbLine
 62
7
  6
CONTINUOUS
 10
24.013598218
 20
60.2951301932
 11
24.3428501865
 21
60.2951301932
  0
LINE
  5
44C
100
AcDbEntity
  8
7_ALL_ROUNDS
100
AcDbLine
 62
7
  6
CONTINUOUS
 10
12.3206848322
 20
60.5451301932
 11
24.013598218
 21
60.5451301932
  0
LINE
  5
44D
100
AcDbEntity
  8
7_ALL_ROUNDS
100
AcDbLine
 62
7
  6
CONTINUOUS
 10
12.5706848322
 20
60.7951301932
 11
23.763598218
 21
60.7951301932
  0
LINE
  5
44E
100
AcDbEntity
  8
7_ALL_ROUNDS
100
AcDbLine
 62
7
  6
CONTINUOUS
 10
88.1007222573
 20
33.0802483034
 11
86.994510345
 21
33.0802483034
  0
LINE
  5
44F
100
AcDbEntity
  8
7_ALL_ROUNDS
100
AcDbLine
 62
7
  6
CONTINUOUS
 10
80.2267065093
 20
33.0802483034
 11
79.120494597
 21
33.0802483034
  0
LINE
  5
450
100
AcDbEntity
  8
7_ALL_ROUNDS
100
AcDbLine
 62
7
  6
CONTINUOUS
 10
88.2976599513
 20
33.2770986971
 11
86.7976599513
 21
33.2770986971
  0
LINE
  5
451
100
AcDbEntity
  8
7_ALL_ROUNDS
100
AcDbLine
 62
7
  6
CONTINUOUS
 10
80.4236442033
 20
33.2770986971
 11
78.9236442033
 21
33.2770986971
  0
LINE
  5
452
100
AcDbEntity
  8
7_ALL_ROUNDS
100
AcDbLine
 62
7
  6
CONTINUOUS
 10
89.2071087702
 20
33.6333979097
 11
78.0141953844
 21
33.6333979097
  0
LINE
  5
453
100
AcDbEntity
  8
7_ALL_ROUNDS
100
AcDbLine
 62
7
  6
CONTINUOUS
 10
89.4571087702
 20
33.8833979097
 11
77.7641953844
 21
33.8833979097
  0
LINE
  5
454
100
AcDbEntity
  8
3_AXES_OTHER
100
AcDbLine
 62
7
  6
CONTINUOUS
 10
77.7641953844
 20
34.1333979097
 11
77.4349434159
 21
34.1333979097
  0
LINE
  5
455
100
AcDbEntity
  8
3_AXES_OTHER
100
AcDbLine
 62
7
  6
CONTINUOUS
 10
77.4349434159
 20
34.1333979097
 11
77.4349434159
 21
60.2951301932
  0
LINE
  5
456
100
AcDbEntity
  8
7_ALL_ROUNDS
100
AcDbLine
 62
7
  6
CONTINUOUS
 10
77.7641953844
 20
60.5451301932
 11
77.7641953844
 21
33.8833979097
  0
LINE
  5
457
100
AcDbEntity
  8
7_ALL_ROUNDS
100
AcDbLine
 62
7
  6
CONTINUOUS
 10
78.0141953844
 20
33.6333979097
 11
78.0141953844
 21
60.7951301932
  0
LINE
  5
458
100
AcDbEntity
  8
3_ALL_AXES
100
AcDbLine
 62
7
  6
CONTINUOUS
 10
78.9236442033
 20
33.6333979097
 11
78.9236442033
 21
33.2770986971
  0
LINE
  5
459
100
AcDbEntity
  8
7_ALL_ROUNDS
100
AcDbLine
 62
7
  6
CONTINUOUS
 10
83.1639591639
 20
42.9679648389
 11
87.7502583765
 21
42.9679648389
  0
LINE
  5
45A
100
AcDbEntity
  8
7_ALL_ROUNDS
100
AcDbLine
 62
7
  6
CONTINUOUS
 10
83.8539591639
 20
43.6579648389
 11
87.0602583765
 21
43.6579648389
  0
LINE
  5
45B
100
AcDbEntity
  8
3_ALL_AXES
100
AcDbLine
 62
7
  6
CONTINUOUS
 10
80.4236442033
 20
33.6333979097
 11
80.4236442033
 21
33.2770986971
  0
LINE
  5
45C
100
AcDbEntity
  8
7_ALL_ROUNDS
100
AcDbLine
 62
7
  6
CONTINUOUS
 10
82.9671087702
 20
49.7611144452
 11
82.9671087702
 21
43.1648152326
  0
LINE
  5
45D
100
AcDbEntity
  8
7_ALL_ROUNDS
100
AcDbLine
 62
7
  6
CONTINUOUS
 10
83.6571087702
 20
49.0711144452
 11
83.6571087702
 21
43.8548152326
  0
LINE
  5
45E
100
AcDbEntity
  8
3_AXES_OTHER
100
AcDbLine
 62
7
  6
CONTINUOUS
 10
83.8631087702
 20
47.49101602
 11
86.9881087702
 21
47.49101602
  0
LINE
  5
45F
100
AcDbEntity
  8
3_AXES_OTHER
100
AcDbLine
 62
7
  6
CONTINUOUS
 10
83.9881087702
 20
47.59101602
 11
84.3631087702
 21
47.59101602
  0
LINE
  5
460
100
AcDbEntity
  8
3_AXES_OTHER
100
AcDbLine
 62
7
  6
CONTINUOUS
 10
84.4881087702
 20
47.59101602
 11
84.8631087702
 21
47.59101602
  0
LINE
  5
461
100
AcDbEntity
  8
3_AXES_OTHER
100
AcDbLine
 62
7
  6
CONTINUOUS
 10
84.9881087702
 20
47.59101602
 11
85.3631087702
 21
47.59101602
  0
LINE
  5
462
100
AcDbEntity
  8
3_AXES_OTHER
100
AcDbLine
 62
7
  6
CONTINUOUS
 10
85.4881087702
 20
47.59101602
 11
85.8631087702
 21
47.59101602
  0
LINE
  5
463
100
AcDbEntity
  8
3_AXES_OTHER
100
AcDbLine
 62
7
  6
CONTINUOUS
 10
85.9881087702
 20
47.59101602
 11
86.3631087702
 21
47.59101602
  0
LINE
  5
464
100
AcDbEntity
  8
3_AXES_OTHER
100
AcDbLine
 62
7
  6
CONTINUOUS
 10
86.4881087702
 20
47.59101602
 11
86.8631087702
 21
47.59101602
  0
LINE
  5
465
100
AcDbEntity
  8
3_AXES_OTHER
100
AcDbLine
 62
7
  6
CONTINUOUS
 10
86.8631087702
 20
48.09101602
 11
86.4881087702
 21
48.09101602
  0
LINE
  5
466
100
AcDbEntity
  8
3_AXES_OTHER
100
AcDbLine
 62
7
  6
CONTINUOUS
 10
86.3631087702
 20
48.09101602
 11
85.9881087702
 21
48.09101602
  0
LINE
  5
467
100
AcDbEntity
  8
3_AXES_OTHER
100
AcDbLine
 62
7
  6
CONTINUOUS
 10
85.8631087702
 20
48.09101602
 11
85.4881087702
 21
48.09101602
  0
LINE
  5
468
100
AcDbEntity
  8
3_AXES_OTHER
100
AcDbLine
 62
7
  6
CONTINUOUS
 10
85.3631087702
 20
48.09101602
 11
84.9881087702
 21
48.09101602
  0
LINE
  5
469
100
AcDbEntity
  8
3_AXES_OTHER
100
AcDbLine
 62
7
  6
CONTINUOUS
 10
84.8631087702
 20
48.09101602
 11
84.4881087702
 21
48.09101602
  0
LINE
  5
46A
100
AcDbEntity
  8
3_AXES_OTHER
100
AcDbLine
 62
7
  6
CONTINUOUS
 10
84.3631087702
 20
48.09101602
 11
83.9881087702
 21
48.09101602
  0
LINE
  5
46B
100
AcDbEntity
  8
3_AXES_OTHER
100
AcDbLine
 62
7
  6
CONTINUOUS
 10
83.8631087702
 20
48.19101602
 11
83.8631087702
 21
47.49101602
  0
LINE
  5
46C
100
AcDbEntity
  8
3_AXES_OTHER
100
AcDbLine
 62
7
  6
CONTINUOUS
 10
83.9881087702
 20
47.49101602
 11
83.9881087702
 21
48.19101602
  0
LINE
  5
46D
100
AcDbEntity
  8
3_AXES_OTHER
100
AcDbLine
 62
7
  6
CONTINUOUS
 10
84.3631087702
 20
48.19101602
 11
84.3631087702
 21
47.49101602
  0
LINE
  5
46E
100
AcDbEntity
  8
3_AXES_OTHER
100
AcDbLine
 62
7
  6
CONTINUOUS
 10
84.4881087702
 20
47.49101602
 11
84.4881087702
 21
48.19101602
  0
LINE
  5
46F
100
AcDbEntity
  8
3_AXES_OTHER
100
AcDbLine
 62
7
  6
CONTINUOUS
 10
86.9881087702
 20
48.19101602
 11
83.8631087702
 21
48.19101602
  0
LINE
  5
470
100
AcDbEntity
  8
3_AXES_OTHER
100
AcDbLine
 62
7
  6
CONTINUOUS
 10
84.8631087702
 20
48.19101602
 11
84.8631087702
 21
47.49101602
  0
LINE
  5
471
100
AcDbEntity
  8
3_AXES_OTHER
100
AcDbLine
 62
7
  6
CONTINUOUS
 10
84.9881087702
 20
47.49101602
 11
84.9881087702
 21
48.19101602
  0
LINE
  5
472
100
AcDbEntity
  8
3_AXES_OTHER
100
AcDbLine
 62
7
  6
CONTINUOUS
 10
85.3631087702
 20
48.19101602
 11
85.3631087702
 21
47.49101602
  0
LINE
  5
473
100
AcDbEntity
  8
3_AXES_OTHER
100
AcDbLine
 62
7
  6
CONTINUOUS
 10
85.4881087702
 20
47.49101602
 11
85.4881087702
 21
48.19101602
  0
LINE
  5
474
100
AcDbEntity
  8
7_ALL_ROUNDS
100
AcDbLine
 62
7
  6
CONTINUOUS
 10
87.0602583765
 20
49.2679648389
 11
83.8539591639
 21
49.2679648389
  0
LINE
  5
475
100
AcDbEntity
  8
7_ALL_ROUNDS
100
AcDbLine
 62
7
  6
CONTINUOUS
 10
87.7502583765
 20
49.9579648389
 11
83.1639591639
 21
49.9579648389
  0
LINE
  5
476
100
AcDbEntity
  8
3_AXES_OTHER
100
AcDbLine
 62
7
  6
CONTINUOUS
 10
85.8631087702
 20
48.19101602
 11
85.8631087702
 21
47.49101602
  0
LINE
  5
477
100
AcDbEntity
  8
3_AXES_OTHER
100
AcDbLine
 62
7
  6
CONTINUOUS
 10
85.9881087702
 20
47.49101602
 11
85.9881087702
 21
48.19101602
  0
LINE
  5
478
100
AcDbEntity
  8
3_AXES_OTHER
100
AcDbLine
 62
7
  6
CONTINUOUS
 10
86.3631087702
 20
48.19101602
 11
86.3631087702
 21
47.49101602
  0
LINE
  5
479
100
AcDbEntity
  8
3_AXES_OTHER
100
AcDbLine
 62
7
  6
CONTINUOUS
 10
86.4881087702
 20
47.49101602
 11
86.4881087702
 21
48.19101602
  0
LINE
  5
47A
100
AcDbEntity
  8
3_ALL_AXES
100
AcDbLine
 62
7
  6
CONTINUOUS
 10
86.7976599513
 20
33.6333979097
 11
86.7976599513
 21
33.2770986971
  0
LINE
  5
47B
100
AcDbEntity
  8
3_AXES_OTHER
100
AcDbLine
 62
7
  6
CONTINUOUS
 10
86.8631087702
 20
48.19101602
 11
86.8631087702
 21
47.49101602
  0
LINE
  5
47C
100
AcDbEntity
  8
3_AXES_OTHER
100
AcDbLine
 62
7
  6
CONTINUOUS
 10
86.9881087702
 20
47.49101602
 11
86.9881087702
 21
48.19101602
  0
LINE
  5
47D
100
AcDbEntity
  8
7_ALL_ROUNDS
100
AcDbLine
 62
7
  6
CONTINUOUS
 10
87.2571087702
 20
43.8548152326
 11
87.2571087702
 21
49.0711144452
  0
LINE
  5
47E
100
AcDbEntity
  8
7_ALL_ROUNDS
100
AcDbLine
 62
7
  6
CONTINUOUS
 10
87.9471087702
 20
43.1648152326
 11
87.9471087702
 21
49.7611144452
  0
LINE
  5
47F
100
AcDbEntity
  8
3_ALL_AXES
100
AcDbLine
 62
7
  6
CONTINUOUS
 10
88.2976599513
 20
33.6333979097
 11
88.2976599513
 21
33.2770986971
  0
LINE
  5
480
100
AcDbEntity
  8
7_ALL_ROUNDS
100
AcDbLine
 62
7
  6
CONTINUOUS
 10
89.2071087702
 20
60.7951301932
 11
89.2071087702
 21
33.6333979097
  0
LINE
  5
481
100
AcDbEntity
  8
7_ALL_ROUNDS
100
AcDbLine
 62
7
  6
CONTINUOUS
 10
89.4571087702
 20
60.5451301932
 11
89.4571087702
 21
33.8833979097
  0
LINE
  5
482
100
AcDbEntity
  8
3_AXES_OTHER
100
AcDbLine
 62
7
  6
CONTINUOUS
 10
77.7641953844
 20
53.7747857628
 11
77.4349434159
 21
53.7747857628
  0
LINE
  5
483
100
AcDbEntity
  8
3_AXES_OTHER
100
AcDbLine
 62
7
  6
CONTINUOUS
 10
77.7641953844
 20
60.2951301932
 11
77.4349434159
 21
60.2951301932
  0
LINE
  5
484
100
AcDbEntity
  8
7_ALL_ROUNDS
100
AcDbLine
 62
7
  6
CONTINUOUS
 10
77.7641953844
 20
60.5451301932
 11
89.4571087702
 21
60.5451301932
  0
LINE
  5
485
100
AcDbEntity
  8
7_ALL_ROUNDS
100
AcDbLine
 62
7
  6
CONTINUOUS
 10
78.0141953844
 20
60.7951301932
 11
89.2071087702
 21
60.7951301932
  0
LINE
  5
486
100
AcDbEntity
  8
7_ALL_ROUNDS
100
AcDbLine
 62
7
  6
CONTINUOUS
 10
105.4759635998
 20
75.0551479284
 11
97.5614115951
 21
70.4857064738
  0
LINE
  5
487
100
AcDbEntity
  8
7_ALL_ROUNDS
100
AcDbLine
 62
7
  6
CONTINUOUS
 10
105.6009630402
 20
75.0427668586
 11
97.6864110355
 21
70.4733254041
  0
LINE
  5
488
100
AcDbEntity
  8
7_ALL_ROUNDS
100
AcDbLine
 62
7
  6
CONTINUOUS
 10
105.4759518512
 20
75.0551411441
 11
105.4769986732
 21
75.055735709
  0
LINE
  5
489
100
AcDbEntity
  8
7_ALL_ROUNDS
100
AcDbLine
 62
7
  6
CONTINUOUS
 10
97.4364110355
 20
70.2691997998
 11
97.4364110355
 21
48.4998309455
  0
LINE
  5
48A
100
AcDbEntity
  8
3_AXES_OTHER
100
AcDbLine
 62
7
  6
CONTINUOUS
 10
97.4535971771
 20
64.4026607892
 11
97.4535971771
 21
48.3654201314
  0
LINE
  5
48B
100
AcDbEntity
  8
7_ALL_ROUNDS
100
AcDbLine
 62
7
  6
CONTINUOUS
 10
97.5096350762
 20
70.1671387613
 11
97.5096350762
 21
64.4350126212
  0
LINE
  5
48C
100
AcDbEntity
  8
3_AXES_OTHER
100
AcDbLine
 62
7
  6
CONTINUOUS
 10
97.6864125075
 20
69.8609529684
 11
97.6864125075
 21
64.5370759805
  0
LINE
  5
48D
100
AcDbEntity
  8
3_AXES_OTHER
100
AcDbLine
 62
7
  6
CONTINUOUS
 10
101.8609764037
 20
67.4508219036
 11
97.7015846174
 21
65.0495194495
  0
LINE
  5
48E
100
AcDbEntity
  8
3_AXES_OTHER
100
AcDbLine
 62
7
  6
CONTINUOUS
 10
102.2971959534
 20
67.1989761267
 11
97.4535971771
 21
64.4026607892
  0
LINE
  5
48F
100
AcDbEntity
  8
3_AXES_OTHER
100
AcDbLine
 62
7
  6
CONTINUOUS
 10
97.7015846174
 20
65.0495194495
 11
97.7015846174
 21
64.5458355499
  0
LINE
  5
490
100
AcDbEntity
  8
3_AXES_OTHER
100
AcDbLine
 62
7
  6
CONTINUOUS
 10
104.3624191598
 20
66.0066459267
 11
104.1296038294
 21
65.8722307354
  0
LINE
  5
491
100
AcDbEntity
  8
7_ALL_ROUNDS
100
AcDbLine
 62
7
  6
CONTINUOUS
 10
118.4215954716
 20
36.2399639522
 11
97.5614131564
 21
48.2833233701
  0
LINE
  5
492
100
AcDbEntity
  8
3_AXES_OTHER
100
AcDbLine
 62
7
  6
CONTINUOUS
 10
97.4535971771
 20
48.3654201314
 11
104.1296038294
 21
44.5111130896
  0
LINE
  5
493
100
AcDbEntity
  8
3_AXES_OTHER
100
AcDbLine
 62
7
  6
CONTINUOUS
 10
111.2842179776
 20
40.3804881325
 11
117.9602246298
 21
36.5261810908
  0
LINE
  5
494
100
AcDbEntity
  8
7_ALL_ROUNDS
100
AcDbLine
 62
7
  6
CONTINUOUS
 10
118.3698173915
 20
36.3544104891
 11
118.0162594741
 21
36.5585326301
  0
LINE
  5
495
100
AcDbEntity
  8
7_ALL_ROUNDS
100
AcDbLine
 62
7
  6
CONTINUOUS
 10
111.2842179776
 20
40.4451906723
 11
104.1856386737
 21
44.5434646289
  0
LINE
  5
496
100
AcDbEntity
  8
3_AXES_OTHER
100
AcDbLine
 62
7
  6
CONTINUOUS
 10
104.3624191598
 20
44.6455282809
 11
111.2842179776
 21
40.6493162766
  0
LINE
  5
497
100
AcDbEntity
  8
3_AXES_OTHER
100
AcDbLine
 62
7
  6
CONTINUOUS
 10
104.8255721731
 20
44.9129282017
 11
111.2842179776
 21
41.184111665
  0
LINE
  5
498
100
AcDbEntity
  8
7_ALL_ROUNDS
100
AcDbLine
 62
7
  6
CONTINUOUS
 10
104.7442845248
 20
65.1819195162
 11
105.0226718623
 21
65.342645561
  0
LINE
  5
499
100
AcDbEntity
  8
7_ALL_ROUNDS
100
AcDbLine
 62
7
  6
CONTINUOUS
 10
104.9411340372
 20
65.1624217685
 11
105.2195213747
 21
65.3231478134
  0
LINE
  5
49A
100
AcDbEntity
  8
7_ALL_ROUNDS
100
AcDbLine
 62
7
  6
CONTINUOUS
 10
105.0803300677
 20
64.7605996877
 11
104.9411340372
 21
64.6802353017
  0
LINE
  5
49B
100
AcDbEntity
  8
3_AXES_OTHER
100
AcDbLine
 62
7
  6
CONTINUOUS
 10
104.1296038294
 20
44.5111130896
 11
104.1296038294
 21
46.3998324846
  0
LINE
  5
49C
100
AcDbEntity
  8
3_AXES_OTHER
100
AcDbLine
 62
7
  6
CONTINUOUS
 10
104.1296038294
 20
55.9149244625
 11
104.1296038294
 21
65.8722307354
  0
LINE
  5
49D
100
AcDbEntity
  8
7_ALL_ROUNDS
100
AcDbLine
 62
7
  6
CONTINUOUS
 10
104.6627443817
 20
65.0016888305
 11
104.6627443817
 21
58.4999186578
  0
LINE
  5
49E
100
AcDbEntity
  8
3_AXES_OTHER
100
AcDbLine
 62
7
  6
CONTINUOUS
 10
104.8255721731
 20
65.739250459
 11
104.8255721731
 21
65.2288506817
  0
LINE
  5
49F
100
AcDbEntity
  8
3_AXES_OTHER
100
AcDbLine
 62
7
  6
CONTINUOUS
 10
104.8255721731
 20
58.1175645174
 11
104.8255721731
 21
56.3167395746
  0
LINE
  5
4A0
100
AcDbEntity
  8
3_AXES_OTHER
100
AcDbLine
 62
7
  6
CONTINUOUS
 10
104.8255721731
 20
44.9129282017
 11
104.8255721731
 21
46.3255294359
  0
LINE
  5
4A1
100
AcDbEntity
  8
7_ALL_ROUNDS
100
AcDbLine
 62
7
  6
CONTINUOUS
 10
104.9411340372
 20
58.4999227736
 11
104.9411340372
 21
64.6802353017
  0
LINE
  5
4A2
100
AcDbEntity
  8
7_ALL_ROUNDS
100
AcDbLine
 62
7
  6
CONTINUOUS
 10
105.2195213747
 20
58.6606488184
 11
105.2195213747
 21
64.6802407558
  0
LINE
  5
4A3
100
AcDbEntity
  8
7_ALL_ROUNDS
100
AcDbLine
 62
7
  6
CONTINUOUS
 10
105.2195213747
 20
58.6606488184
 11
104.9411340372
 21
58.4999227736
  0
LINE
  5
4A4
100
AcDbEntity
  8
7_ALL_ROUNDS
100
AcDbLine
 62
7
  6
CONTINUOUS
 10
105.3587162025
 20
58.4195576429
 11
105.080328865
 21
58.2588315981
  0
LINE
  5
4A5
100
AcDbEntity
  8
3_AXES_OTHER
100
AcDbLine
 62
7
  6
CONTINUOUS
 10
111.5170333079
 20
61.8760209695
 11
111.2842179776
 21
61.7416057782
  0
LINE
  5
4A6
100
AcDbEntity
  8
7_ALL_ROUNDS
100
AcDbLine
 62
7
  6
CONTINUOUS
 10
110.7730119517
 20
61.2240989022
 11
105.3017694594
 21
58.540265522
  0
LINE
  5
4A7
100
AcDbEntity
  8
3_AXES_OTHER
100
AcDbLine
 62
7
  6
CONTINUOUS
 10
104.8255721731
 20
56.3167395746
 11
104.1296038294
 21
55.9149244625
  0
LINE
  5
4A8
100
AcDbEntity
  8
3_ALL_AXES
100
AcDbLine
 62
7
  6
CONTINUOUS
 10
104.614126524
 20
56.0562324926
 11
104.3047685952
 21
55.8776256753
  0
LINE
  5
4A9
100
AcDbEntity
  8
3_AXES_OTHER
100
AcDbLine
 62
7
  6
CONTINUOUS
 10
113.5822565142
 20
60.6836907695
 11
113.3494411839
 21
60.5492755782
  0
LINE
  5
4AA
100
AcDbEntity
  8
3_AXES_OTHER
100
AcDbLine
 62
7
  6
CONTINUOUS
 10
103.8475191509
 20
55.7739168685
 11
104.1296038294
 21
55.9149244625
  0
LINE
  5
4AB
100
AcDbEntity
  8
7_ALL_ROUNDS
100
AcDbLine
 62
7
  6
CONTINUOUS
 10
122.4077869295
 20
45.7829454175
 11
122.2663649844
 21
45.8645935684
  0
LINE
  5
4AC
100
AcDbEntity
  8
7_ALL_ROUNDS
100
AcDbLine
 62
7
  6
CONTINUOUS
 10
122.3670167876
 20
45.8730608009
 11
122.2255948426
 21
45.9547089519
  0
LINE
  5
4AD
100
AcDbEntity
  8
7_ALL_ROUNDS
100
AcDbLine
 62
7
  6
CONTINUOUS
 10
122.994112104
 20
46.6377701351
 11
122.8549166531
 21
46.7181328481
  0
LINE
  5
4AE
100
AcDbEntity
  8
7_ALL_ROUNDS
100
AcDbLine
 62
7
  6
CONTINUOUS
 10
104.9411340372
 20
58.0177363068
 11
111.2842179776
 21
54.3556379341
  0
LINE
  5
4AF
100
AcDbEntity
  8
7_ALL_ROUNDS
100
AcDbLine
 62
7
  6
CONTINUOUS
 10
111.2100216451
 20
60.9717969459
 11
111.2842179776
 21
59.7593779941
  0
LINE
  5
4B0
100
AcDbEntity
  8
3_AXES_OTHER
100
AcDbLine
 62
7
  6
CONTINUOUS
 10
111.2842179776
 20
61.7416057782
 11
111.2842179776
 21
51.7842995054
  0
LINE
  5
4B1
100
AcDbEntity
  8
3_AXES_OTHER
100
AcDbLine
 62
7
  6
CONTINUOUS
 10
111.2842179776
 20
42.2692075274
 11
111.2842179776
 21
40.3804881325
  0
LINE
  5
4B2
100
AcDbEntity
  8
7_ALL_ROUNDS
100
AcDbLine
 62
7
  6
CONTINUOUS
 10
111.1686549544
 20
54.7438144118
 11
105.080328865
 21
58.2588315981
  0
LINE
  5
4B3
100
AcDbEntity
  8
7_ALL_ROUNDS
100
AcDbLine
 62
7
  6
CONTINUOUS
 10
111.2842179776
 20
54.9985449916
 11
105.3587162025
 21
58.4195576429
  0
LINE
  5
4B4
100
AcDbEntity
  8
7_ALL_ROUNDS
100
AcDbLine
 62
7
  6
CONTINUOUS
 10
125.2612985805
 20
47.9467230442
 11
124.6779330573
 21
48.2835216667
  0
LINE
  5
4B5
100
AcDbEntity
  8
7_ALL_ROUNDS
100
AcDbLine
 62
7
  6
CONTINUOUS
 10
125.4004922492
 20
48.1878148889
 11
124.817126726
 21
48.5246135114
  0
LINE
  5
4B6
100
AcDbEntity
  8
7_ALL_ROUNDS
100
AcDbLine
 62
7
  6
CONTINUOUS
 10
111.2842179776
 20
54.810534356
 11
111.1686549544
 21
54.7438144118
  0
LINE
  5
4B7
100
AcDbEntity
  8
7_ALL_ROUNDS
100
AcDbLine
 62
7
  6
CONTINUOUS
 10
118.5465933508
 20
58.4299659862
 11
126.4611453555
 21
62.9994074408
  0
LINE
  5
4B8
100
AcDbEntity
  8
7_ALL_ROUNDS
100
AcDbLine
 62
7
  6
CONTINUOUS
 10
118.7233707821
 20
58.1237801933
 11
126.6379227868
 21
62.6932216478
  0
LINE
  5
4B9
100
AcDbEntity
  8
3_AXES_OTHER
100
AcDbLine
 62
7
  6
CONTINUOUS
 10
122.8549184353
 20
49.8552978579
 11
123.0041173744
 21
49.7691597589
  0
LINE
  5
4BA
100
AcDbEntity
  8
3_AXES_OTHER
100
AcDbLine
 62
7
  6
CONTINUOUS
 10
123.092505354
 20
50.1263708441
 11
123.357669293
 21
49.9732818359
  0
LINE
  5
4BB
100
AcDbEntity
  8
3_AXES_OTHER
100
AcDbLine
 62
7
  6
CONTINUOUS
 10
122.8549184353
 20
50.4268495499
 11
123.0041173744
 21
50.3407114509
  0
LINE
  5
4BC
100
AcDbEntity
  8
3_AXES_OTHER
100
AcDbLine
 62
7
  6
CONTINUOUS
 10
122.8549184353
 20
50.5289097385
 11
123.092505354
 21
50.3917419702
  0
LINE
  5
4BD
100
AcDbEntity
  8
3_AXES_OTHER
100
AcDbLine
 62
7
  6
CONTINUOUS
 10
123.4460572726
 20
50.330492921
 11
123.7112212116
 21
50.1774039128
  0
LINE
  5
4BE
100
AcDbEntity
  8
3_AXES_OTHER
100
AcDbLine
 62
7
  6
CONTINUOUS
 10
122.894512423
 20
50.7305809804
 11
123.0677543057
 21
50.6305619955
  0
LINE
  5
4BF
100
AcDbEntity
  8
3_AXES_OTHER
100
AcDbLine
 62
7
  6
CONTINUOUS
 10
122.894512423
 20
50.8122312221
 11
123.357669293
 21
50.5448335279
  0
LINE
  5
4C0
100
AcDbEntity
  8
3_AXES_OTHER
100
AcDbLine
 62
7
  6
CONTINUOUS
 10
122.9829004026
 20
50.8632617413
 11
123.4460572726
 21
50.5958640471
  0
LINE
  5
4C1
100
AcDbEntity
  8
3_ALL_AXES
100
AcDbLine
 62
7
  6
CONTINUOUS
 10
123.3562231095
 20
50.67092678
 11
123.4627349917
 21
50.6094335073
  0
LINE
  5
4C2
100
AcDbEntity
  8
7_ALL_ROUNDS
100
AcDbLine
 62
7
  6
CONTINUOUS
 10
122.3670167876
 20
51.2589550521
 11
122.2255948426
 21
51.3406032031
  0
LINE
  5
4C3
100
AcDbEntity
  8
3_AXES_OTHER
100
AcDbLine
 62
7
  6
CONTINUOUS
 10
123.7996091912
 20
50.534614998
 11
124.0647731302
 21
50.3815259898
  0
LINE
  5
4C4
100
AcDbEntity
  8
3_AXES_OTHER
100
AcDbLine
 62
7
  6
CONTINUOUS
 10
123.2480643416
 20
50.9347030573
 11
123.4213062243
 21
50.8346840725
  0
LINE
  5
4C5
100
AcDbEntity
  8
3_AXES_OTHER
100
AcDbLine
 62
7
  6
CONTINUOUS
 10
123.2480643416
 20
51.016353299
 11
123.7112212116
 21
50.7489556048
  0
LINE
  5
4C6
100
AcDbEntity
  8
7_ALL_ROUNDS
100
AcDbLine
 62
7
  6
CONTINUOUS
 10
122.5062104563
 20
51.5000468968
 11
122.3647885113
 21
51.5816950477
  0
LINE
  5
4C7
100
AcDbEntity
  8
3_AXES_OTHER
100
AcDbLine
 62
7
  6
CONTINUOUS
 10
123.3364523213
 20
51.0673838183
 11
123.7996091912
 21
50.799986124
  0
LINE
  5
4C8
100
AcDbEntity
  8
3_ALL_AXES
100
AcDbLine
 62
7
  6
CONTINUOUS
 10
123.7212668574
 20
50.8816836281
 11
123.8277787396
 21
50.8201903554
  0
LINE
  5
4C9
100
AcDbEntity
  8
3_AXES_OTHER
100
AcDbLine
 62
7
  6
CONTINUOUS
 10
124.1531611098
 20
50.7387370749
 11
124.4183250488
 21
50.5856480667
  0
LINE
  5
4CA
100
AcDbEntity
  8
3_AXES_OTHER
100
AcDbLine
 62
7
  6
CONTINUOUS
 10
123.6016162602
 20
51.1388251342
 11
123.7748581429
 21
51.0388061494
  0
LINE
  5
4CB
100
AcDbEntity
  8
3_AXES_OTHER
100
AcDbLine
 62
7
  6
CONTINUOUS
 10
123.6016162602
 20
51.220475376
 11
124.0647731302
 21
50.9530776817
  0
LINE
  5
4CC
100
AcDbEntity
  8
3_AXES_OTHER
100
AcDbLine
 62
7
  6
CONTINUOUS
 10
123.6900042399
 20
51.2715058952
 11
124.1531611098
 21
51.004108201
  0
LINE
  5
4CD
100
AcDbEntity
  8
3_ALL_AXES
100
AcDbLine
 62
7
  6
CONTINUOUS
 10
124.0863106053
 20
51.0924404762
 11
124.1928224875
 21
51.0309472035
  0
LINE
  5
4CE
100
AcDbEntity
  8
3_AXES_OTHER
100
AcDbLine
 62
7
  6
CONTINUOUS
 10
124.5067130284
 20
50.9428591518
 11
124.7718769674
 21
50.7897701436
  0
LINE
  5
4CF
100
AcDbEntity
  8
3_AXES_OTHER
100
AcDbLine
 62
7
  6
CONTINUOUS
 10
123.9551681788
 20
51.3429472112
 11
124.1284100615
 21
51.2429282263
  0
LINE
  5
4D0
100
AcDbEntity
  8
3_AXES_OTHER
100
AcDbLine
 62
7
  6
CONTINUOUS
 10
123.9551681788
 20
51.4245974529
 11
124.4183250488
 21
51.1571997587
  0
LINE
  5
4D1
100
AcDbEntity
  8
3_AXES_OTHER
100
AcDbLine
 62
7
  6
CONTINUOUS
 10
124.0435561585
 20
51.4756279721
 11
124.5067130284
 21
51.2082302779
  0
LINE
  5
4D2
100
AcDbEntity
  8
3_ALL_AXES
100
AcDbLine
 62
7
  6
CONTINUOUS
 10
124.4513543532
 20
51.3031973242
 11
124.5578662354
 21
51.2417040515
  0
LINE
  5
4D3
100
AcDbEntity
  8
3_AXES_OTHER
100
AcDbLine
 62
7
  6
CONTINUOUS
 10
124.860264947
 20
51.1469812288
 11
125.125428886
 21
50.9938922206
  0
LINE
  5
4D4
100
AcDbEntity
  8
3_AXES_OTHER
100
AcDbLine
 62
7
  6
CONTINUOUS
 10
124.3087200974
 20
51.5470692881
 11
124.4819619801
 21
51.4470503033
  0
LINE
  5
4D5
100
AcDbEntity
  8
3_AXES_OTHER
100
AcDbLine
 62
7
  6
CONTINUOUS
 10
124.3087200974
 20
51.6287195298
 11
124.7718769674
 21
51.3613218356
  0
LINE
  5
4D6
100
AcDbEntity
  8
3_AXES_OTHER
100
AcDbLine
 62
7
  6
CONTINUOUS
 10
124.3971080771
 20
51.6797500491
 11
124.860264947
 21
51.4123523549
  0
LINE
  5
4D7
100
AcDbEntity
  8
3_AXES_OTHER
100
AcDbLine
 62
7
  6
CONTINUOUS
 10
124.662272016
 20
51.7511913651
 11
124.8355138987
 21
51.6511723802
  0
LINE
  5
4D8
100
AcDbEntity
  8
3_AXES_OTHER
100
AcDbLine
 62
7
  6
CONTINUOUS
 10
124.662272016
 20
51.8328416068
 11
125.125428886
 21
51.5654439126
  0
LINE
  5
4D9
100
AcDbEntity
  8
3_AXES_OTHER
100
AcDbLine
 62
7
  6
CONTINUOUS
 10
124.6269157938
 20
51.955314258
 11
125.2138168657
 21
51.6164744318
  0
LINE
  5
4DA
100
AcDbEntity
  8
3_AXES_OTHER
100
AcDbLine
 62
7
  6
CONTINUOUS
 10
104.5937069341
 20
46.6677809375
 11
104.1296038294
 21
46.3998324846
  0
LINE
  5
4DB
100
AcDbEntity
  8
7_ALL_ROUNDS
100
AcDbLine
 62
7
  6
CONTINUOUS
 10
125.4004922492
 20
52.4469358044
 11
125.2612967983
 21
52.5272985174
  0
LINE
  5
4DC
100
AcDbEntity
  8
7_ALL_ROUNDS
100
AcDbLine
 62
7
  6
CONTINUOUS
 10
105.080328865
 20
64.7606017708
 11
111.1686549544
 21
61.2455845845
  0
LINE
  5
4DD
100
AcDbEntity
  8
7_ALL_ROUNDS
100
AcDbLine
 62
7
  6
CONTINUOUS
 10
111.2842179776
 20
61.5003233958
 11
104.9411340372
 21
65.1624217685
  0
LINE
  5
4DE
100
AcDbEntity
  8
7_ALL_ROUNDS
100
AcDbLine
 62
7
  6
CONTINUOUS
 10
125.7492002282
 20
53.3723767383
 11
125.6077782831
 21
53.4540248892
  0
LINE
  5
4DF
100
AcDbEntity
  8
3_AXES_OTHER
100
AcDbLine
 62
7
  6
CONTINUOUS
 10
113.3494411839
 20
60.5492755782
 11
111.2842179776
 21
61.7416057782
  0
LINE
  5
4E0
100
AcDbEntity
  8
3_AXES_OTHER
100
AcDbLine
 62
7
  6
CONTINUOUS
 10
104.1296038294
 20
65.8722307354
 11
102.0643806231
 21
67.0645609354
  0
LINE
  5
4E1
100
AcDbEntity
  8
7_ALL_ROUNDS
100
AcDbLine
 62
7
  6
CONTINUOUS
 10
125.847623755
 20
53.3821263219
 11
125.70620181
 21
53.4637744728
  0
LINE
  5
4E2
100
AcDbEntity
  8
7_ALL_ROUNDS
100
AcDbLine
 62
7
  6
CONTINUOUS
 10
111.3536456552
 20
61.7816896273
 11
105.2195213747
 21
65.3231478134
  0
LINE
  5
4E3
100
AcDbEntity
  8
3_AXES_OTHER
100
AcDbLine
 62
7
  6
CONTINUOUS
 10
117.9602246298
 20
52.5634217485
 11
113.3494411839
 21
60.5492755782
  0
LINE
  5
4E4
100
AcDbEntity
  8
3_AXES_OTHER
100
AcDbLine
 62
7
  6
CONTINUOUS
 10
118.1930399602
 20
52.7328745276
 11
113.6126010789
 21
60.6661717233
  0
LINE
  5
4E5
100
AcDbEntity
  8
3_AXES_OTHER
100
AcDbLine
 62
7
  6
CONTINUOUS
 10
118.1930399602
 20
53.2365584272
 11
114.0488202837
 21
60.4143261454
  0
LINE
  5
4E6
100
AcDbEntity
  8
3_AXES_OTHER
100
AcDbLine
 62
7
  6
CONTINUOUS
 10
117.9602246298
 20
36.5261810908
 11
117.9602246298
 21
52.5634217485
  0
LINE
  5
4E7
100
AcDbEntity
  8
3_AXES_OTHER
100
AcDbLine
 62
7
  6
CONTINUOUS
 10
118.1930399602
 20
36.6605962821
 11
118.1930399602
 21
58.0217139278
  0
LINE
  5
4E8
100
AcDbEntity
  8
7_ALL_ROUNDS
100
AcDbLine
 62
7
  6
CONTINUOUS
 10
118.3698173915
 20
58.1237793434
 11
118.3698173915
 21
36.3544104891
  0
LINE
  5
4E9
100
AcDbEntity
  8
7_ALL_ROUNDS
100
AcDbLine
 62
7
  6
CONTINUOUS
 10
118.7233707821
 20
58.1237801933
 11
118.7233707821
 21
36.354411339
  0
LINE
  5
4EA
100
AcDbEntity
  8
3_AXES_OTHER
100
AcDbLine
 62
7
  6
CONTINUOUS
 10
118.1930399602
 20
52.6978369398
 11
117.9602246298
 21
52.5634217485
  0
LINE
  5
4EB
100
AcDbEntity
  8
3_AXES_OTHER
100
AcDbLine
 62
7
  6
CONTINUOUS
 10
104.8255721731
 20
44.9129282017
 11
104.1296038294
 21
44.5111130896
  0
LINE
  5
4EC
100
AcDbEntity
  8
3_AXES_OTHER
100
AcDbLine
 62
7
  6
CONTINUOUS
 10
118.1930399602
 20
58.0217139278
 11
97.6864125075
 21
69.8609529684
  0
LINE
  5
4ED
100
AcDbEntity
  8
7_ALL_ROUNDS
100
AcDbLine
 62
7
  6
CONTINUOUS
 10
97.5096350762
 20
70.1671387613
 11
118.3698173915
 21
58.1237793434
  0
LINE
  5
4EE
100
AcDbEntity
  8
7_ALL_ROUNDS
100
AcDbLine
 62
7
  6
CONTINUOUS
 10
97.6864110355
 20
70.4733254041
 11
118.5465933508
 21
58.4299659862
  0
LINE
  5
4EF
100
AcDbEntity
  8
7_ALL_ROUNDS
100
AcDbLine
 62
7
  6
CONTINUOUS
 10
125.6077782831
 20
53.4540248892
 11
122.3647885113
 21
51.5816950477
  0
LINE
  5
4F0
100
AcDbEntity
  8
7_ALL_ROUNDS
100
AcDbLine
 62
7
  6
CONTINUOUS
 10
125.7492002282
 20
53.3723767383
 11
122.5062104563
 21
51.5000468968
  0
LINE
  5
4F1
100
AcDbEntity
  8
7_ALL_ROUNDS
100
AcDbLine
 62
7
  6
CONTINUOUS
 10
125.2612985805
 20
52.5273016043
 11
122.994112104
 21
51.2183486952
  0
LINE
  5
4F2
100
AcDbEntity
  8
3_AXES_OTHER
100
AcDbLine
 62
7
  6
CONTINUOUS
 10
122.8549184353
 20
50.9322572129
 11
124.6269157938
 21
51.955314258
  0
LINE
  5
4F3
100
AcDbEntity
  8
3_AXES_OTHER
100
AcDbLine
 62
7
  6
CONTINUOUS
 10
124.662272016
 20
51.8328416068
 11
124.3971080771
 21
51.6797500491
  0
LINE
  5
4F4
100
AcDbEntity
  8
3_AXES_OTHER
100
AcDbLine
 62
7
  6
CONTINUOUS
 10
124.3087200974
 20
51.6287195298
 11
124.0435561585
 21
51.4756279721
  0
LINE
  5
4F5
100
AcDbEntity
  8
3_AXES_OTHER
100
AcDbLine
 62
7
  6
CONTINUOUS
 10
123.9551681788
 20
51.4245974529
 11
123.6900042399
 21
51.2715058952
  0
LINE
  5
4F6
100
AcDbEntity
  8
3_AXES_OTHER
100
AcDbLine
 62
7
  6
CONTINUOUS
 10
123.6016162602
 20
51.220475376
 11
123.3364523213
 21
51.0673838183
  0
LINE
  5
4F7
100
AcDbEntity
  8
3_AXES_OTHER
100
AcDbLine
 62
7
  6
CONTINUOUS
 10
123.2480643416
 20
51.016353299
 11
122.9829004026
 21
50.8632617413
  0
LINE
  5
4F8
100
AcDbEntity
  8
3_AXES_OTHER
100
AcDbLine
 62
7
  6
CONTINUOUS
 10
122.894512423
 20
50.8122312221
 11
122.8549184353
 21
50.7893717591
  0
LINE
  5
4F9
100
AcDbEntity
  8
3_AXES_OTHER
100
AcDbLine
 62
7
  6
CONTINUOUS
 10
122.8549184353
 20
50.7077215174
 11
122.894512423
 21
50.7305809804
  0
LINE
  5
4FA
100
AcDbEntity
  8
3_AXES_OTHER
100
AcDbLine
 62
7
  6
CONTINUOUS
 10
123.0536125971
 20
50.8224369604
 11
123.2480643416
 21
50.9347030573
  0
LINE
  5
4FB
100
AcDbEntity
  8
3_AXES_OTHER
100
AcDbLine
 62
7
  6
CONTINUOUS
 10
123.4071645157
 20
51.0265590373
 11
123.6016162602
 21
51.1388251342
  0
LINE
  5
4FC
100
AcDbEntity
  8
3_AXES_OTHER
100
AcDbLine
 62
7
  6
CONTINUOUS
 10
123.7607164343
 20
51.2306811143
 11
123.9551681788
 21
51.3429472112
  0
LINE
  5
4FD
100
AcDbEntity
  8
3_AXES_OTHER
100
AcDbLine
 62
7
  6
CONTINUOUS
 10
124.1142683529
 20
51.4348031912
 11
124.3087200974
 21
51.5470692881
  0
LINE
  5
4FE
100
AcDbEntity
  8
3_AXES_OTHER
100
AcDbLine
 62
7
  6
CONTINUOUS
 10
124.4678202715
 20
51.6389252681
 11
124.662272016
 21
51.7511913651
  0
LINE
  5
4FF
100
AcDbEntity
  8
3_AXES_OTHER
100
AcDbLine
 62
7
  6
CONTINUOUS
 10
124.8355138987
 20
51.6511723802
 11
124.6410621542
 21
51.5389062833
  0
LINE
  5
500
100
AcDbEntity
  8
3_AXES_OTHER
100
AcDbLine
 62
7
  6
CONTINUOUS
 10
124.4819619801
 20
51.4470503033
 11
124.2875102356
 21
51.3347842064
  0
LINE
  5
501
100
AcDbEntity
  8
3_AXES_OTHER
100
AcDbLine
 62
7
  6
CONTINUOUS
 10
124.1284100615
 20
51.2429282263
 11
123.933958317
 21
51.1306621294
  0
LINE
  5
502
100
AcDbEntity
  8
3_AXES_OTHER
100
AcDbLine
 62
7
  6
CONTINUOUS
 10
123.7748581429
 20
51.0388061494
 11
123.5804063984
 21
50.9265400525
  0
LINE
  5
503
100
AcDbEntity
  8
3_AXES_OTHER
100
AcDbLine
 62
7
  6
CONTINUOUS
 10
123.4213062243
 20
50.8346840724
 11
123.2268544797
 21
50.7224179755
  0
LINE
  5
504
100
AcDbEntity
  8
3_AXES_OTHER
100
AcDbLine
 62
7
  6
CONTINUOUS
 10
123.0677543057
 20
50.6305619955
 11
122.8733025611
 21
50.5182958986
  0
LINE
  5
505
100
AcDbEntity
  8
7_ALL_ROUNDS
100
AcDbLine
 62
7
  6
CONTINUOUS
 10
122.2255948426
 20
51.3406032031
 11
122.2255948426
 21
45.9547089519
  0
LINE
  5
506
100
AcDbEntity
  8
7_ALL_ROUNDS
100
AcDbLine
 62
7
  6
CONTINUOUS
 10
122.3670167876
 20
51.2589550521
 11
122.3670167876
 21
45.8730608009
  0
LINE
  5
507
100
AcDbEntity
  8
7_ALL_ROUNDS
100
AcDbLine
 62
7
  6
CONTINUOUS
 10
122.8549184353
 20
50.9772568505
 11
122.8549184353
 21
46.7181359349
  0
LINE
  5
508
100
AcDbEntity
  8
3_AXES_OTHER
100
AcDbLine
 62
7
  6
CONTINUOUS
 10
122.894512423
 20
50.7305809804
 11
122.894512423
 21
50.8122312221
  0
LINE
  5
509
100
AcDbEntity
  8
3_AXES_OTHER
100
AcDbLine
 62
7
  6
CONTINUOUS
 10
123.0041173744
 20
50.3407114509
 11
123.0041173744
 21
49.7691597589
  0
LINE
  5
50A
100
AcDbEntity
  8
3_AXES_OTHER
100
AcDbLine
 62
7
  6
CONTINUOUS
 10
123.0677543057
 20
50.4060316713
 11
123.0677543057
 21
50.6305619955
  0
LINE
  5
50B
100
AcDbEntity
  8
3_AXES_OTHER
100
AcDbLine
 62
7
  6
CONTINUOUS
 10
123.092505354
 20
49.8201902782
 11
123.092505354
 21
50.3917419702
  0
LINE
  5
50C
100
AcDbEntity
  8
3_AXES_OTHER
100
AcDbLine
 62
7
  6
CONTINUOUS
 10
123.2480643416
 20
50.9347030573
 11
123.2480643416
 21
51.016353299
  0
LINE
  5
50D
100
AcDbEntity
  8
3_AXES_OTHER
100
AcDbLine
 62
7
  6
CONTINUOUS
 10
123.357669293
 20
50.5448335279
 11
123.357669293
 21
49.9732818359
  0
LINE
  5
50E
100
AcDbEntity
  8
3_AXES_OTHER
100
AcDbLine
 62
7
  6
CONTINUOUS
 10
123.4213062243
 20
50.6333518763
 11
123.4213062243
 21
50.8346840724
  0
LINE
  5
50F
100
AcDbEntity
  8
3_AXES_OTHER
100
AcDbLine
 62
7
  6
CONTINUOUS
 10
123.4460572726
 20
50.0243123551
 11
123.4460572726
 21
50.5958640471
  0
LINE
  5
510
100
AcDbEntity
  8
3_AXES_OTHER
100
AcDbLine
 62
7
  6
CONTINUOUS
 10
123.6016162602
 20
51.1388251342
 11
123.6016162602
 21
51.220475376
  0
LINE
  5
511
100
AcDbEntity
  8
3_AXES_OTHER
100
AcDbLine
 62
7
  6
CONTINUOUS
 10
125.2138168657
 20
51.6164744318
 11
125.125428886
 21
51.5654439126
  0
LINE
  5
512
100
AcDbEntity
  8
3_AXES_OTHER
100
AcDbLine
 62
7
  6
CONTINUOUS
 10
124.860264947
 20
51.4123523549
 11
124.7718769674
 21
51.3613218356
  0
LINE
  5
513
100
AcDbEntity
  8
3_AXES_OTHER
100
AcDbLine
 62
7
  6
CONTINUOUS
 10
124.5067130284
 20
51.2082302779
 11
124.4183250488
 21
51.1571997587
  0
LINE
  5
514
100
AcDbEntity
  8
3_AXES_OTHER
100
AcDbLine
 62
7
  6
CONTINUOUS
 10
124.1531611098
 20
51.004108201
 11
124.0647731302
 21
50.9530776817
  0
LINE
  5
515
100
AcDbEntity
  8
3_AXES_OTHER
100
AcDbLine
 62
7
  6
CONTINUOUS
 10
123.7996091912
 20
50.799986124
 11
123.7112212116
 21
50.7489556048
  0
LINE
  5
516
100
AcDbEntity
  8
3_AXES_OTHER
100
AcDbLine
 62
7
  6
CONTINUOUS
 10
123.4460572726
 20
50.5958640471
 11
123.357669293
 21
50.5448335279
  0
LINE
  5
517
100
AcDbEntity
  8
3_AXES_OTHER
100
AcDbLine
 62
7
  6
CONTINUOUS
 10
123.092505354
 20
50.3917419702
 11
123.0041173744
 21
50.3407114509
  0
LINE
  5
518
100
AcDbEntity
  8
3_AXES_OTHER
100
AcDbLine
 62
7
  6
CONTINUOUS
 10
123.0041173744
 20
49.7691597589
 11
123.092505354
 21
49.8201902782
  0
LINE
  5
519
100
AcDbEntity
  8
3_AXES_OTHER
100
AcDbLine
 62
7
  6
CONTINUOUS
 10
123.357669293
 20
49.9732818359
 11
123.4460572726
 21
50.0243123551
  0
LINE
  5
51A
100
AcDbEntity
  8
3_AXES_OTHER
100
AcDbLine
 62
7
  6
CONTINUOUS
 10
123.7112212116
 20
50.1774039128
 11
123.7996091912
 21
50.2284344321
  0
LINE
  5
51B
100
AcDbEntity
  8
3_AXES_OTHER
100
AcDbLine
 62
7
  6
CONTINUOUS
 10
124.0647731302
 20
50.3815259898
 11
124.1531611098
 21
50.432556509
  0
LINE
  5
51C
100
AcDbEntity
  8
3_AXES_OTHER
100
AcDbLine
 62
7
  6
CONTINUOUS
 10
124.4183250488
 20
50.5856480667
 11
124.5067130284
 21
50.6366785859
  0
LINE
  5
51D
100
AcDbEntity
  8
3_AXES_OTHER
100
AcDbLine
 62
7
  6
CONTINUOUS
 10
124.7718769674
 20
50.7897701436
 11
124.860264947
 21
50.8408006629
  0
LINE
  5
51E
100
AcDbEntity
  8
3_AXES_OTHER
100
AcDbLine
 62
7
  6
CONTINUOUS
 10
125.125428886
 20
50.9938922206
 11
125.2138168657
 21
51.0449227398
  0
LINE
  5
51F
100
AcDbEntity
  8
3_ALL_AXES
100
AcDbLine
 62
7
  6
CONTINUOUS
 10
112.1486112643
 20
42.9066918535
 11
111.8822740416
 21
42.7529229042
  0
LINE
  5
520
100
AcDbEntity
  8
3_AXES_OTHER
100
AcDbLine
 62
7
  6
CONTINUOUS
 10
111.7448024891
 20
42.5351245318
 11
111.2842179776
 21
42.2692075274
  0
LINE
  5
521
100
AcDbEntity
  8
3_AXES_OTHER
100
AcDbLine
 62
7
  6
CONTINUOUS
 10
123.7112212116
 20
50.7489556048
 11
123.7112212116
 21
50.1774039128
  0
LINE
  5
522
100
AcDbEntity
  8
3_AXES_OTHER
100
AcDbLine
 62
7
  6
CONTINUOUS
 10
123.7748581429
 20
50.850743385
 11
123.7748581429
 21
51.0388061494
  0
LINE
  5
523
100
AcDbEntity
  8
3_AXES_OTHER
100
AcDbLine
 62
7
  6
CONTINUOUS
 10
123.7996091912
 20
50.2284344321
 11
123.7996091912
 21
50.799986124
  0
LINE
  5
524
100
AcDbEntity
  8
3_AXES_OTHER
100
AcDbLine
 62
7
  6
CONTINUOUS
 10
123.9551681788
 20
51.3429472112
 11
123.9551681788
 21
51.4245974529
  0
LINE
  5
525
100
AcDbEntity
  8
3_AXES_OTHER
100
AcDbLine
 62
7
  6
CONTINUOUS
 10
124.0647731302
 20
50.9530776817
 11
124.0647731302
 21
50.3815259898
  0
LINE
  5
526
100
AcDbEntity
  8
3_AXES_OTHER
100
AcDbLine
 62
7
  6
CONTINUOUS
 10
124.1284100615
 20
51.0681348937
 11
124.1284100615
 21
51.2429282263
  0
LINE
  5
527
100
AcDbEntity
  8
3_AXES_OTHER
100
AcDbLine
 62
7
  6
CONTINUOUS
 10
124.1531611098
 20
50.432556509
 11
124.1531611098
 21
51.004108201
  0
LINE
  5
528
100
AcDbEntity
  8
3_AXES_OTHER
100
AcDbLine
 62
7
  6
CONTINUOUS
 10
124.3087200974
 20
51.5470692881
 11
124.3087200974
 21
51.6287195298
  0
LINE
  5
529
100
AcDbEntity
  8
3_AXES_OTHER
100
AcDbLine
 62
7
  6
CONTINUOUS
 10
124.4183250488
 20
51.1571997587
 11
124.4183250488
 21
50.5856480667
  0
LINE
  5
52A
100
AcDbEntity
  8
3_ALL_AXES
100
AcDbLine
 62
7
  6
CONTINUOUS
 10
124.4819619801
 20
51.2855264024
 11
124.4819619801
 21
51.4470503033
  0
LINE
  5
52B
100
AcDbEntity
  8
3_AXES_OTHER
100
AcDbLine
 62
7
  6
CONTINUOUS
 10
124.5067130284
 20
50.6366785859
 11
124.5067130284
 21
51.2082302779
  0
LINE
  5
52C
100
AcDbEntity
  8
3_AXES_OTHER
100
AcDbLine
 62
7
  6
CONTINUOUS
 10
124.662272016
 20
51.7511913651
 11
124.662272016
 21
51.8328416068
  0
LINE
  5
52D
100
AcDbEntity
  8
3_AXES_OTHER
100
AcDbLine
 62
7
  6
CONTINUOUS
 10
124.7718769674
 20
51.3613218356
 11
124.7718769674
 21
50.7897701436
  0
LINE
  5
52E
100
AcDbEntity
  8
7_ALL_ROUNDS
100
AcDbLine
 62
7
  6
CONTINUOUS
 10
124.817126726
 20
48.5246135114
 11
124.817126726
 21
50.815894948
  0
LINE
  5
52F
100
AcDbEntity
  8
7_ALL_ROUNDS
100
AcDbLine
 62
7
  6
CONTINUOUS
 10
124.817126726
 20
51.8454984095
 11
124.817126726
 21
52.2708603953
  0
LINE
  5
530
100
AcDbEntity
  8
3_AXES_OTHER
100
AcDbLine
 62
7
  6
CONTINUOUS
 10
124.8355138987
 20
51.426642056
 11
124.8355138987
 21
51.6511723802
  0
LINE
  5
531
100
AcDbEntity
  8
3_AXES_OTHER
100
AcDbLine
 62
7
  6
CONTINUOUS
 10
124.860264947
 20
50.8408006629
 11
124.860264947
 21
51.4123523549
  0
LINE
  5
532
100
AcDbEntity
  8
3_AXES_OTHER
100
AcDbLine
 62
7
  6
CONTINUOUS
 10
125.125428886
 20
51.5654439126
 11
125.125428886
 21
50.9938922206
  0
LINE
  5
533
100
AcDbEntity
  8
3_AXES_OTHER
100
AcDbLine
 62
7
  6
CONTINUOUS
 10
125.2138168657
 20
51.0449227398
 11
125.2138168657
 21
51.6164744318
  0
LINE
  5
534
100
AcDbEntity
  8
7_ALL_ROUNDS
100
AcDbLine
 62
7
  6
CONTINUOUS
 10
122.8549184353
 20
47.2310099666
 11
124.6779330573
 21
48.2835216667
  0
LINE
  5
535
100
AcDbEntity
  8
3_AXES_OTHER
100
AcDbLine
 62
7
  6
CONTINUOUS
 10
111.5663026561
 20
42.4102151214
 11
111.2842179776
 21
42.2692075274
  0
LINE
  5
536
100
AcDbEntity
  8
7_ALL_ROUNDS
100
AcDbLine
 62
7
  6
CONTINUOUS
 10
125.4004922492
 20
48.1878148889
 11
125.4004922492
 21
52.4469358044
  0
LINE
  5
537
100
AcDbEntity
  8
7_ALL_ROUNDS
100
AcDbLine
 62
7
  6
CONTINUOUS
 10
125.8883938969
 20
47.9061166872
 11
125.8883938969
 21
53.2920109384
  0
LINE
  5
538
100
AcDbEntity
  8
7_ALL_ROUNDS
100
AcDbLine
 62
7
  6
CONTINUOUS
 10
126.6379227868
 20
62.6932216478
 11
126.6379227868
 21
40.9238527935
  0
LINE
  5
539
100
AcDbEntity
  8
7_ALL_ROUNDS
100
AcDbLine
 62
7
  6
CONTINUOUS
 10
126.7111453555
 20
62.7952818365
 11
126.7111453555
 21
41.0259129822
  0
LINE
  5
53A
100
AcDbEntity
  8
7_ALL_ROUNDS
100
AcDbLine
 62
7
  6
CONTINUOUS
 10
122.994112104
 20
46.6377701351
 11
125.2612985805
 21
47.9467230442
  0
LINE
  5
53B
100
AcDbEntity
  8
7_ALL_ROUNDS
100
AcDbLine
 62
7
  6
CONTINUOUS
 10
122.5062104563
 20
45.7926950011
 11
125.7492002282
 21
47.6650248425
  0
LINE
  5
53C
100
AcDbEntity
  8
7_ALL_ROUNDS
100
AcDbLine
 62
7
  6
CONTINUOUS
 10
105.724926375
 20
75.0557363049
 11
105.7259726669
 21
75.0551420462
  0
LINE
  5
53D
100
AcDbEntity
  8
7_ALL_ROUNDS
100
AcDbLine
 62
7
  6
CONTINUOUS
 10
126.4611453555
 20
62.9994074408
 11
105.6009630402
 21
75.0427668586
  0
LINE
  5
53E
100
AcDbEntity
  8
7_ALL_ROUNDS
100
AcDbLine
 62
7
  6
CONTINUOUS
 10
126.5861432346
 20
63.0117894119
 11
105.7259609193
 21
75.0551488298
  0
LINE
  5
53F
100
AcDbEntity
  8
3_AXES_OTHER
100
AcDbLine
 62
7
  6
CONTINUOUS
 10
118.1930399602
 20
36.6605962821
 11
117.9602246298
 21
36.5261810908
  0
LINE
  5
540
100
AcDbEntity
  8
7_ALL_ROUNDS
100
AcDbLine
 62
7
  6
CONTINUOUS
 10
126.6379227868
 20
40.9238527935
 11
118.7233707821
 21
36.354411339
  0
LINE
  5
541
100
AcDbEntity
  8
7_ALL_ROUNDS
100
AcDbLine
 62
7
  6
CONTINUOUS
 10
126.5861447959
 20
40.8094063081
 11
118.6715927912
 21
36.2399648536
  0
LINE
  5
542
100
AcDbEntity
  8
7_ALL_ROUNDS
100
AcDbLine
 62
7
  6
CONTINUOUS
 10
35.1716382295
 20
82.082290727
 11
35.1716382295
 21
70.8893773412
  0
LINE
  5
543
100
AcDbEntity
  8
7_ALL_ROUNDS
100
AcDbLine
 62
7
  6
CONTINUOUS
 10
35.4216382295
 20
70.6393773412
 11
35.4216382295
 21
82.332290727
  0
LINE
  5
544
100
AcDbEntity
  8
3_AXES_OTHER
100
AcDbLine
 62
7
  6
CONTINUOUS
 10
35.6716382295
 20
70.6393773412
 11
35.6716382295
 21
70.3101253727
  0
LINE
  5
545
100
AcDbEntity
  8
3_AXES_OTHER
100
AcDbLine
 62
7
  6
CONTINUOUS
 10
42.1922435642
 20
70.6393773412
 11
42.1922435642
 21
70.3101253727
  0
LINE
  5
546
100
AcDbEntity
  8
3_AXES_OTHER
100
AcDbLine
 62
7
  6
CONTINUOUS
 10
45.1128980721
 20
70.6393773412
 11
45.1128980721
 21
70.3101253727
  0
LINE
  5
547
100
AcDbEntity
  8
3_AXES_OTHER
100
AcDbLine
 62
7
  6
CONTINUOUS
 10
64.6722681508
 20
70.3101253727
 11
55.2310083083
 21
70.3101253727
  0
LINE
  5
548
100
AcDbEntity
  8
3_AXES_OTHER
100
AcDbLine
 62
7
  6
CONTINUOUS
 10
45.1128980721
 20
70.3101253727
 11
35.6716382295
 21
70.3101253727
  0
LINE
  5
549
100
AcDbEntity
  8
7_ALL_ROUNDS
100
AcDbLine
 62
7
  6
CONTINUOUS
 10
35.4216382295
 20
70.6393773412
 11
64.9222681508
 21
70.6393773412
  0
LINE
  5
54A
100
AcDbEntity
  8
7_ALL_ROUNDS
100
AcDbLine
 62
7
  6
CONTINUOUS
 10
35.1716382295
 20
70.8893773412
 11
65.1722681508
 21
70.8893773412
  0
LINE
  5
54B
100
AcDbEntity
  8
7_ALL_ROUNDS
100
AcDbLine
 62
7
  6
CONTINUOUS
 10
65.3722681508
 20
75.842290727
 11
65.1722681508
 21
75.842290727
  0
LINE
  5
54C
100
AcDbEntity
  8
7_ALL_ROUNDS
100
AcDbLine
 62
7
  6
CONTINUOUS
 10
65.3722681508
 20
76.0391411207
 11
65.1722681508
 21
76.0391411207
  0
LINE
  5
54D
100
AcDbEntity
  8
3_AXES_OTHER
100
AcDbLine
 62
7
  6
CONTINUOUS
 10
55.2310083083
 20
70.6393773412
 11
55.2310083083
 21
70.3101253727
  0
LINE
  5
54E
100
AcDbEntity
  8
7_ALL_ROUNDS
100
AcDbLine
 62
7
  6
CONTINUOUS
 10
65.3722681508
 20
80.6254403333
 11
65.1722681508
 21
80.6254403333
  0
LINE
  5
54F
100
AcDbEntity
  8
7_ALL_ROUNDS
100
AcDbLine
 62
7
  6
CONTINUOUS
 10
65.3722681508
 20
80.822290727
 11
65.1722681508
 21
80.822290727
  0
LINE
  5
550
100
AcDbEntity
  8
7_ALL_ROUNDS
100
AcDbLine
 62
7
  6
CONTINUOUS
 10
35.1716382295
 20
82.082290727
 11
65.1722681508
 21
82.082290727
  0
LINE
  5
551
100
AcDbEntity
  8
7_ALL_ROUNDS
100
AcDbLine
 62
7
  6
CONTINUOUS
 10
64.9222681508
 20
82.332290727
 11
35.4216382295
 21
82.332290727
  0
LINE
  5
552
100
AcDbEntity
  8
3_AXES_OTHER
100
AcDbLine
 62
7
  6
CONTINUOUS
 10
58.1516628161
 20
70.6393773412
 11
58.1516628161
 21
70.3101253727
  0
LINE
  5
553
100
AcDbEntity
  8
3_AXES_OTHER
100
AcDbLine
 62
7
  6
CONTINUOUS
 10
64.6722681508
 20
70.6393773412
 11
64.6722681508
 21
70.3101253727
  0
LINE
  5
554
100
AcDbEntity
  8
7_ALL_ROUNDS
100
AcDbLine
 62
7
  6
CONTINUOUS
 10
64.9222681508
 20
70.6393773412
 11
64.9222681508
 21
82.332290727
  0
LINE
  5
555
100
AcDbEntity
  8
7_ALL_ROUNDS
100
AcDbLine
 62
7
  6
CONTINUOUS
 10
65.1722681508
 20
70.8893773412
 11
65.1722681508
 21
82.082290727
  0
LINE
  5
556
100
AcDbEntity
  8
7_ALL_ROUNDS
100
AcDbLine
 62
7
  6
CONTINUOUS
 10
65.3722681508
 20
80.822290727
 11
65.3722681508
 21
75.842290727
  0
LINE
  5
557
100
AcDbEntity
  8
3_AXES_OTHER
100
AcDbLine
 62
7
  6
CONTINUOUS
 10
65.3772681508
 20
79.863290727
 11
65.3772681508
 21
79.738290727
  0
LINE
  5
558
100
AcDbEntity
  8
3_AXES_OTHER
100
AcDbLine
 62
7
  6
CONTINUOUS
 10
65.3772681508
 20
79.363290727
 11
65.3772681508
 21
79.238290727
  0
LINE
  5
559
100
AcDbEntity
  8
3_AXES_OTHER
100
AcDbLine
 62
7
  6
CONTINUOUS
 10
65.3772681508
 20
78.863290727
 11
65.3772681508
 21
78.738290727
  0
LINE
  5
55A
100
AcDbEntity
  8
3_AXES_OTHER
100
AcDbLine
 62
7
  6
CONTINUOUS
 10
65.3772681508
 20
78.363290727
 11
65.3772681508
 21
78.238290727
  0
LINE
  5
55B
100
AcDbEntity
  8
3_AXES_OTHER
100
AcDbLine
 62
7
  6
CONTINUOUS
 10
65.3772681508
 20
77.863290727
 11
65.3772681508
 21
77.738290727
  0
LINE
  5
55C
100
AcDbEntity
  8
3_AXES_OTHER
100
AcDbLine
 62
7
  6
CONTINUOUS
 10
65.3772681508
 20
77.363290727
 11
65.3772681508
 21
77.238290727
  0
LINE
  5
55D
100
AcDbEntity
  8
3_AXES_OTHER
100
AcDbLine
 62
7
  6
CONTINUOUS
 10
65.3772681508
 20
76.863290727
 11
65.3772681508
 21
76.738290727
  0
LINE
  5
55E
100
AcDbEntity
  8
7_ALL_ROUNDS
100
AcDbLine
 62
7
  6
CONTINUOUS
 10
35.1716382295
 20
24.6339965778
 11
35.1716382295
 21
13.4410831919
  0
LINE
  5
55F
100
AcDbEntity
  8
7_ALL_ROUNDS
100
AcDbLine
 62
7
  6
CONTINUOUS
 10
35.4216382295
 20
13.1910831919
 11
35.4216382295
 21
24.8839965778
  0
LINE
  5
560
100
AcDbEntity
  8
3_AXES_OTHER
100
AcDbLine
 62
7
  6
CONTINUOUS
 10
35.6716382295
 20
24.8839965778
 11
35.6716382295
 21
25.2132485463
  0
LINE
  5
561
100
AcDbEntity
  8
3_ALL_AXES
100
AcDbLine
 62
7
  6
CENTER
 10
37.6719531902
 20
22.9745477589
 11
37.6719531902
 21
21.8245477589
  0
LINE
  5
562
100
AcDbEntity
  8
3_ALL_AXES
100
AcDbLine
 62
7
  6
CENTER
 10
37.6719531902
 20
15.1005320108
 11
37.6719531902
 21
13.9505320108
  0
LINE
  5
563
100
AcDbEntity
  8
3_ALL_AXES
100
AcDbLine
 62
7
  6
CENTER
 10
37.6719531902
 20
15.1005320108
 11
37.6719531902
 21
16.2505320108
  0
LINE
  5
564
100
AcDbEntity
  8
3_ALL_AXES
100
AcDbLine
 62
7
  6
CENTER
 10
37.6719531902
 20
22.9745477589
 11
37.6719531902
 21
24.1245477589
  0
LINE
  5
565
100
AcDbEntity
  8
7_ALL_ROUNDS
100
AcDbLine
 62
7
  6
CONTINUOUS
 10
35.4216382295
 20
13.1910831919
 11
64.9222681508
 21
13.1910831919
  0
LINE
  5
566
100
AcDbEntity
  8
7_ALL_ROUNDS
100
AcDbLine
 62
7
  6
CONTINUOUS
 10
35.1716382295
 20
13.4410831919
 11
65.1722681508
 21
13.4410831919
  0
LINE
  5
567
100
AcDbEntity
  8
3_AXES_OTHER
100
AcDbLine
 62
7
  6
CONTINUOUS
 10
45.1128980721
 20
24.8839965778
 11
45.1128980721
 21
25.2132485463
  0
LINE
  5
568
100
AcDbEntity
  8
7_ALL_ROUNDS
100
AcDbLine
 62
7
  6
CONTINUOUS
 10
65.3722681508
 20
14.7010831919
 11
65.1722681508
 21
14.7010831919
  0
LINE
  5
569
100
AcDbEntity
  8
7_ALL_ROUNDS
100
AcDbLine
 62
7
  6
CONTINUOUS
 10
65.3722681508
 20
14.8979335856
 11
65.1722681508
 21
14.8979335856
  0
LINE
  5
56A
100
AcDbEntity
  8
3_ALL_AXES
100
AcDbLine
 62
7
  6
CENTER
 10
62.6719531902
 20
15.1005320108
 11
61.3919184483
 21
15.1005320108
  0
LINE
  5
56B
100
AcDbEntity
  8
3_ALL_AXES
100
AcDbLine
 62
7
  6
CENTER
 10
37.6719531902
 20
15.1005320108
 11
36.5219531902
 21
15.1005320108
  0
LINE
  5
56C
100
AcDbEntity
  8
3_ALL_AXES
100
AcDbLine
 62
7
  6
CENTER
 10
37.6719531902
 20
15.1005320108
 11
38.8219531902
 21
15.1005320108
  0
LINE
  5
56D
100
AcDbEntity
  8
3_ALL_AXES
100
AcDbLine
 62
7
  6
CENTER
 10
62.6719531902
 20
15.1005320108
 11
63.8219531902
 21
15.1005320108
  0
LINE
  5
56E
100
AcDbEntity
  8
7_ALL_ROUNDS
100
AcDbLine
 62
7
  6
CONTINUOUS
 10
65.3722681508
 20
19.4842327982
 11
65.1722681508
 21
19.4842327982
  0
LINE
  5
56F
100
AcDbEntity
  8
7_ALL_ROUNDS
100
AcDbLine
 62
7
  6
CONTINUOUS
 10
65.3722681508
 20
19.6810831919
 11
65.1722681508
 21
19.6810831919
  0
LINE
  5
570
100
AcDbEntity
  8
3_ALL_AXES
100
AcDbLine
 62
7
  6
CENTER
 10
62.6719531902
 20
22.9745477589
 11
61.5219531902
 21
22.9745477589
  0
LINE
  5
571
100
AcDbEntity
  8
3_ALL_AXES
100
AcDbLine
 62
7
  6
CENTER
 10
37.6719531902
 20
22.9745477589
 11
36.5219531902
 21
22.9745477589
  0
LINE
  5
572
100
AcDbEntity
  8
3_ALL_AXES
100
AcDbLine
 62
7
  6
CENTER
 10
37.6719531902
 20
22.9745477589
 11
38.8219531902
 21
22.9745477589
  0
LINE
  5
573
100
AcDbEntity
  8
3_ALL_AXES
100
AcDbLine
 62
7
  6
CENTER
 10
62.6719531902
 20
22.9745477589
 11
63.8219531902
 21
22.9745477589
  0
LINE
  5
574
100
AcDbEntity
  8
7_ALL_ROUNDS
100
AcDbLine
 62
7
  6
CONTINUOUS
 10
35.1716382295
 20
24.6339965778
 11
65.1722681508
 21
24.6339965778
  0
LINE
  5
575
100
AcDbEntity
  8
3_AXES_OTHER
100
AcDbLine
 62
7
  6
CONTINUOUS
 10
55.2310083083
 20
24.8839965778
 11
55.2310083083
 21
25.2132485463
  0
LINE
  5
576
100
AcDbEntity
  8
7_ALL_ROUNDS
100
AcDbLine
 62
7
  6
CONTINUOUS
 10
64.9222681508
 20
24.8839965778
 11
35.4216382295
 21
24.8839965778
  0
LINE
  5
577
100
AcDbEntity
  8
3_AXES_OTHER
100
AcDbLine
 62
7
  6
CONTINUOUS
 10
35.6716382295
 20
25.2132485463
 11
45.1128980721
 21
25.2132485463
  0
LINE
  5
578
100
AcDbEntity
  8
3_AXES_OTHER
100
AcDbLine
 62
7
  6
CONTINUOUS
 10
55.2310083083
 20
25.2132485463
 11
64.6722681508
 21
25.2132485463
  0
LINE
  5
579
100
AcDbEntity
  8
3_ALL_AXES
100
AcDbLine
 62
7
  6
CENTER
 10
62.6719531902
 20
22.9745477589
 11
62.6719531902
 21
21.8245477589
  0
LINE
  5
57A
100
AcDbEntity
  8
3_ALL_AXES
100
AcDbLine
 62
7
  6
CENTER
 10
62.6719531902
 20
15.1005320108
 11
62.6719531902
 21
13.9505320108
  0
LINE
  5
57B
100
AcDbEntity
  8
3_ALL_AXES
100
AcDbLine
 62
7
  6
CENTER
 10
62.6719531902
 20
15.1005320108
 11
62.6719531902
 21
16.444048536
  0
LINE
  5
57C
100
AcDbEntity
  8
3_ALL_AXES
100
AcDbLine
 62
7
  6
CENTER
 10
62.6719531902
 20
22.9745477589
 11
62.6719531902
 21
24.1245477589
  0
LINE
  5
57D
100
AcDbEntity
  8
3_AXES_OTHER
100
AcDbLine
 62
7
  6
CONTINUOUS
 10
64.6722681508
 20
24.8839965778
 11
64.6722681508
 21
25.2132485463
  0
LINE
  5
57E
100
AcDbEntity
  8
7_ALL_ROUNDS
100
AcDbLine
 62
7
  6
CONTINUOUS
 10
64.9222681508
 20
13.1910831919
 11
64.9222681508
 21
24.8839965778
  0
LINE
  5
57F
100
AcDbEntity
  8
7_ALL_ROUNDS
100
AcDbLine
 62
7
  6
CONTINUOUS
 10
65.1722681508
 20
13.4410831919
 11
65.1722681508
 21
24.6339965778
  0
LINE
  5
580
100
AcDbEntity
  8
7_ALL_ROUNDS
100
AcDbLine
 62
7
  6
CONTINUOUS
 10
65.3722681508
 20
19.6810831919
 11
65.3722681508
 21
14.7010831919
  0
LINE
  5
581
100
AcDbEntity
  8
3_AXES_OTHER
100
AcDbLine
 62
7
  6
CONTINUOUS
 10
65.3772681508
 20
18.7850831919
 11
65.3772681508
 21
18.6600831919
  0
LINE
  5
582
100
AcDbEntity
  8
3_AXES_OTHER
100
AcDbLine
 62
7
  6
CONTINUOUS
 10
65.3772681508
 20
18.2850831919
 11
65.3772681508
 21
18.1600831919
  0
LINE
  5
583
100
AcDbEntity
  8
3_AXES_OTHER
100
AcDbLine
 62
7
  6
CONTINUOUS
 10
65.3772681508
 20
17.7850831919
 11
65.3772681508
 21
17.6600831919
  0
LINE
  5
584
100
AcDbEntity
  8
3_AXES_OTHER
100
AcDbLine
 62
7
  6
CONTINUOUS
 10
65.3772681508
 20
17.2850831919
 11
65.3772681508
 21
17.1600831919
  0
LINE
  5
585
100
AcDbEntity
  8
3_AXES_OTHER
100
AcDbLine
 62
7
  6
CONTINUOUS
 10
65.3772681508
 20
16.7850831919
 11
65.3772681508
 21
16.6600831919
  0
LINE
  5
586
100
AcDbEntity
  8
3_AXES_OTHER
100
AcDbLine
 62
7
  6
CONTINUOUS
 10
65.3772681508
 20
16.2850831919
 11
65.3772681508
 21
16.1600831919
  0
LINE
  5
587
100
AcDbEntity
  8
3_AXES_OTHER
100
AcDbLine
 62
7
  6
CONTINUOUS
 10
65.3772681508
 20
15.7850831919
 11
65.3772681508
 21
15.6600831919
  0
ARC
  5
588
100
AcDbEntity
  8
7_ALL_ROUNDS
100
AcDbCircle
 62
7
  6
CONTINUOUS
 10
35.4216382295
 20
33.8833979097
 40
0.25
100
AcDbArc
 50
180.0
 51
270.0
  0
ARC
  5
589
100
AcDbEntity
  8
7_ALL_ROUNDS
100
AcDbCircle
 62
7
  6
CONTINUOUS
 10
38.2251027965
 20
33.2770986971
 40
0.1968503937
100
AcDbArc
 50
270.0
 51
360.0
  0
ARC
  5
58A
100
AcDbEntity
  8
7_ALL_ROUNDS
100
AcDbCircle
 62
7
  6
CONTINUOUS
 10
37.1188035839
 20
33.2770986971
 40
0.1968503937
100
AcDbArc
 50
180.0
 51
270.0
  0
ARC
  5
58B
100
AcDbEntity
  8
7_ALL_ROUNDS
100
AcDbCircle
 62
7
  6
CONTINUOUS
 10
45.6700240563
 20
51.0524333428
 40
0.3937007874
100
AcDbArc
 50
180.0
 51
270.0
  0
ARC
  5
58C
100
AcDbEntity
  8
7_ALL_ROUNDS
100
AcDbCircle
 62
7
  6
CONTINUOUS
 10
45.6700240563
 20
59.0153860987
 40
0.3937007874
100
AcDbArc
 50
90.0
 51
180.0
  0
ARC
  5
58D
100
AcDbEntity
  8
7_ALL_ROUNDS
100
AcDbCircle
 62
7
  6
CONTINUOUS
 10
35.4216382295
 20
60.5451301932
 40
0.25
100
AcDbArc
 50
90.0
 51
180.0
  0
ARC
  5
58E
100
AcDbEntity
  8
7_ALL_ROUNDS
100
AcDbCircle
 62
7
  6
CONTINUOUS
 10
45.86687445
 20
51.2492837365
 40
0.1968503937
100
AcDbArc
 50
180.0
 51
270.0
  0
ARC
  5
58F
100
AcDbEntity
  8
7_ALL_ROUNDS
100
AcDbCircle
 62
7
  6
CONTINUOUS
 10
45.86687445
 20
58.818535705
 40
0.1968503937
100
AcDbArc
 50
90.0
 51
180.0
  0
ARC
  5
590
100
AcDbEntity
  8
3_AXES_OTHER
100
AcDbCircle
 62
7
  6
CONTINUOUS
 10
50.1719531902
 20
42.2733191696
 40
7.7165354331
100
AcDbArc
 50
310.9660899217
 51
49.0339100783
  0
ARC
  5
591
100
AcDbEntity
  8
3_AXES_OTHER
100
AcDbCircle
 62
7
  6
CONTINUOUS
 10
50.1719531902
 20
42.2733191696
 40
7.7165354331
100
AcDbArc
 50
130.9660899217
 51
229.0339100783
  0
CIRCLE
  5
592
100
AcDbEntity
  8
3_ALL_AXES
100
AcDbCircle
 62
7
  6
CONTINUOUS
 10
50.1719531902
 20
42.2733191696
 40
7.5775393701
  0
CIRCLE
  5
593
100
AcDbEntity
  8
3_ALL_AXES
100
AcDbCircle
 62
7
  6
CONTINUOUS
 10
50.1719531902
 20
42.2733191696
 40
7.0156299213
  0
CIRCLE
  5
594
100
AcDbEntity
  8
3_ALL_AXES
100
AcDbCircle
 62
7
  6
CONTINUOUS
 10
50.1719531902
 20
42.2733191696
 40
2.2008070866
  0
CIRCLE
  5
595
100
AcDbEntity
  8
9_COSMETICS
100
AcDbCircle
 62
7
  6
CONTINUOUS
 10
50.1719531902
 20
46.0723742877
 40
0.4921259843
  0
ARC
  5
596
100
AcDbEntity
  8
7_ALL_ROUNDS
100
AcDbCircle
 62
7
  6
CONTINUOUS
 10
64.9222681508
 20
33.8833979097
 40
0.25
100
AcDbArc
 50
270.0
 51
360.0
  0
ARC
  5
597
100
AcDbEntity
  8
7_ALL_ROUNDS
100
AcDbCircle
 62
7
  6
CONTINUOUS
 10
63.2251027965
 20
33.2770986971
 40
0.1968503937
100
AcDbArc
 50
270.0
 51
360.0
  0
ARC
  5
598
100
AcDbEntity
  8
7_ALL_ROUNDS
100
AcDbCircle
 62
7
  6
CONTINUOUS
 10
62.1188035839
 20
33.2770986971
 40
0.1968503937
100
AcDbArc
 50
180.0
 51
270.0
  0
CIRCLE
  5
599
100
AcDbEntity
  8
3_AXES_OTHER
100
AcDbCircle
 62
7
  6
CONTINUOUS
 10
50.1719531902
 20
54.9638309806
 40
0.437007874
  0
ARC
  5
59A
100
AcDbEntity
  8
7_ALL_ROUNDS
100
AcDbCircle
 62
7
  6
CONTINUOUS
 10
54.673882324
 20
59.0153860987
 40
0.3937007874
100
AcDbArc
 50
0.0
 51
90.0
  0
ARC
  5
59B
100
AcDbEntity
  8
7_ALL_ROUNDS
100
AcDbCircle
 62
7
  6
CONTINUOUS
 10
54.673882324
 20
51.0524333428
 40
0.3937007874
100
AcDbArc
 50
270.0
 51
360.0
  0
ARC
  5
59C
100
AcDbEntity
  8
7_ALL_ROUNDS
100
AcDbCircle
 62
7
  6
CONTINUOUS
 10
64.9222681508
 20
60.5451301932
 40
0.25
100
AcDbArc
 50
0.0
 51
90.0
  0
ARC
  5
59D
100
AcDbEntity
  8
7_ALL_ROUNDS
100
AcDbCircle
 62
7
  6
CONTINUOUS
 10
54.4770319303
 20
51.2492837365
 40
0.1968503937
100
AcDbArc
 50
270.0
 51
360.0
  0
ARC
  5
59E
100
AcDbEntity
  8
7_ALL_ROUNDS
100
AcDbCircle
 62
7
  6
CONTINUOUS
 10
54.4770319303
 20
58.818535705
 40
0.1968503937
100
AcDbArc
 50
0.0
 51
90.0
  0
CIRCLE
  5
59F
100
AcDbEntity
  8
9_COSMETICS
100
AcDbCircle
 62
7
  6
CONTINUOUS
 10
18.6341887692
 20
46.0723742877
 40
0.4921259843
  0
ARC
  5
5A0
100
AcDbEntity
  8
7_ALL_ROUNDS
100
AcDbCircle
 62
7
  6
CONTINUOUS
 10
23.763598218
 20
33.8833979097
 40
0.25
100
AcDbArc
 50
270.0
 51
360.0
  0
ARC
  5
5A1
100
AcDbEntity
  8
7_ALL_ROUNDS
100
AcDbCircle
 62
7
  6
CONTINUOUS
 10
12.5706848322
 20
33.8833979097
 40
0.25
100
AcDbArc
 50
180.0
 51
270.0
  0
ARC
  5
5A2
100
AcDbEntity
  8
7_ALL_ROUNDS
100
AcDbCircle
 62
7
  6
CONTINUOUS
 10
23.763598218
 20
60.5451301932
 40
0.25
100
AcDbArc
 50
0.0
 51
90.0
  0
ARC
  5
5A3
100
AcDbEntity
  8
7_ALL_ROUNDS
100
AcDbCircle
 62
7
  6
CONTINUOUS
 10
12.5706848322
 20
60.5451301932
 40
0.25
100
AcDbArc
 50
90.0
 51
180.0
  0
ARC
  5
5A4
100
AcDbEntity
  8
7_ALL_ROUNDS
100
AcDbCircle
 62
7
  6
CONTINUOUS
 10
22.6572990054
 20
33.2770986971
 40
0.1968503937
100
AcDbArc
 50
270.0
 51
360.0
  0
ARC
  5
5A5
100
AcDbEntity
  8
7_ALL_ROUNDS
100
AcDbCircle
 62
7
  6
CONTINUOUS
 10
21.5509997928
 20
33.2770986971
 40
0.1968503937
100
AcDbArc
 50
180.0
 51
270.0
  0
ARC
  5
5A6
100
AcDbEntity
  8
7_ALL_ROUNDS
100
AcDbCircle
 62
7
  6
CONTINUOUS
 10
13.6769840448
 20
33.2770986971
 40
0.1968503937
100
AcDbArc
 50
180.0
 51
270.0
  0
ARC
  5
5A7
100
AcDbEntity
  8
7_ALL_ROUNDS
100
AcDbCircle
 62
7
  6
CONTINUOUS
 10
14.7832832574
 20
33.2770986971
 40
0.1968503937
100
AcDbArc
 50
270.0
 51
360.0
  0
ARC
  5
5A8
100
AcDbEntity
  8
7_ALL_ROUNDS
100
AcDbCircle
 62
7
  6
CONTINUOUS
 10
78.0141953844
 20
33.8833979097
 40
0.25
100
AcDbArc
 50
180.0
 51
270.0
  0
ARC
  5
5A9
100
AcDbEntity
  8
7_ALL_ROUNDS
100
AcDbCircle
 62
7
  6
CONTINUOUS
 10
79.120494597
 20
33.2770986971
 40
0.1968503937
100
AcDbArc
 50
180.0
 51
270.0
  0
ARC
  5
5AA
100
AcDbEntity
  8
7_ALL_ROUNDS
100
AcDbCircle
 62
7
  6
CONTINUOUS
 10
80.2267938096
 20
33.2770986971
 40
0.1968503937
100
AcDbArc
 50
270.0
 51
360.0
  0
ARC
  5
5AB
100
AcDbEntity
  8
7_ALL_ROUNDS
100
AcDbCircle
 62
7
  6
CONTINUOUS
 10
83.1639591639
 20
43.1648152326
 40
0.1968503937
100
AcDbArc
 50
180.0
 51
270.0
  0
ARC
  5
5AC
100
AcDbEntity
  8
7_ALL_ROUNDS
100
AcDbCircle
 62
7
  6
CONTINUOUS
 10
78.0141953844
 20
60.5451301932
 40
0.25
100
AcDbArc
 50
90.0
 51
180.0
  0
ARC
  5
5AD
100
AcDbEntity
  8
7_ALL_ROUNDS
100
AcDbCircle
 62
7
  6
CONTINUOUS
 10
83.1639591639
 20
49.7611144452
 40
0.1968503937
100
AcDbArc
 50
90.0
 51
180.0
  0
ARC
  5
5AE
100
AcDbEntity
  8
7_ALL_ROUNDS
100
AcDbCircle
 62
7
  6
CONTINUOUS
 10
89.2071087702
 20
33.8833979097
 40
0.25
100
AcDbArc
 50
270.0
 51
360.0
  0
ARC
  5
5AF
100
AcDbEntity
  8
7_ALL_ROUNDS
100
AcDbCircle
 62
7
  6
CONTINUOUS
 10
88.1008095576
 20
33.2770986971
 40
0.1968503937
100
AcDbArc
 50
270.0
 51
360.0
  0
ARC
  5
5B0
100
AcDbEntity
  8
7_ALL_ROUNDS
100
AcDbCircle
 62
7
  6
CONTINUOUS
 10
86.994510345
 20
33.2770986971
 40
0.1968503937
100
AcDbArc
 50
180.0
 51
270.0
  0
ARC
  5
5B1
100
AcDbEntity
  8
7_ALL_ROUNDS
100
AcDbCircle
 62
7
  6
CONTINUOUS
 10
87.7502583765
 20
43.1648152326
 40
0.1968503937
100
AcDbArc
 50
270.0
 51
360.0
  0
ARC
  5
5B2
100
AcDbEntity
  8
7_ALL_ROUNDS
100
AcDbCircle
 62
7
  6
CONTINUOUS
 10
87.0602583765
 20
43.8548152326
 40
0.1968503937
100
AcDbArc
 50
270.0
 51
360.0
  0
ARC
  5
5B3
100
AcDbEntity
  8
7_ALL_ROUNDS
100
AcDbCircle
 62
7
  6
CONTINUOUS
 10
83.8539591639
 20
43.8548152326
 40
0.1968503937
100
AcDbArc
 50
180.0
 51
270.0
  0
CIRCLE
  5
5B4
100
AcDbEntity
  8
7_ALL_ROUNDS
100
AcDbCircle
 62
7
  6
CONTINUOUS
 10
84.6756087702
 20
47.84101602
 40
0.135
  0
CIRCLE
  5
5B5
100
AcDbEntity
  8
7_ALL_ROUNDS
100
AcDbCircle
 62
7
  6
CONTINUOUS
 10
84.6756087702
 20
47.84101602
 40
0.0956299213
  0
CIRCLE
  5
5B6
100
AcDbEntity
  8
3_ALL_AXES
100
AcDbCircle
 62
7
  6
CONTINUOUS
 10
84.1756087702
 20
47.84101602
 40
0.0835
  0
ARC
  5
5B7
100
AcDbEntity
  8
7_ALL_ROUNDS
100
AcDbCircle
 62
7
  6
CONTINUOUS
 10
83.8539591639
 20
49.0711144452
 40
0.1968503937
100
AcDbArc
 50
90.0
 51
180.0
  0
CIRCLE
  5
5B8
100
AcDbEntity
  8
7_ALL_ROUNDS
100
AcDbCircle
 62
7
  6
CONTINUOUS
 10
86.2243646757
 20
47.84101602
 40
0.135
  0
CIRCLE
  5
5B9
100
AcDbEntity
  8
7_ALL_ROUNDS
100
AcDbCircle
 62
7
  6
CONTINUOUS
 10
85.7081127072
 20
47.84101602
 40
0.135
  0
CIRCLE
  5
5BA
100
AcDbEntity
  8
7_ALL_ROUNDS
100
AcDbCircle
 62
7
  6
CONTINUOUS
 10
85.1918607387
 20
47.84101602
 40
0.135
  0
CIRCLE
  5
5BB
100
AcDbEntity
  8
7_ALL_ROUNDS
100
AcDbCircle
 62
7
  6
CONTINUOUS
 10
86.2243646757
 20
47.84101602
 40
0.0956299213
  0
CIRCLE
  5
5BC
100
AcDbEntity
  8
7_ALL_ROUNDS
100
AcDbCircle
 62
7
  6
CONTINUOUS
 10
85.7081127072
 20
47.84101602
 40
0.0956299213
  0
CIRCLE
  5
5BD
100
AcDbEntity
  8
7_ALL_ROUNDS
100
AcDbCircle
 62
7
  6
CONTINUOUS
 10
85.1918607387
 20
47.84101602
 40
0.0956299213
  0
ARC
  5
5BE
100
AcDbEntity
  8
7_ALL_ROUNDS
100
AcDbCircle
 62
7
  6
CONTINUOUS
 10
87.7502583765
 20
49.7611144452
 40
0.1968503937
100
AcDbArc
 50
0.0
 51
90.0
  0
ARC
  5
5BF
100
AcDbEntity
  8
7_ALL_ROUNDS
100
AcDbCircle
 62
7
  6
CONTINUOUS
 10
87.0602583765
 20
49.0711144452
 40
0.1968503937
100
AcDbArc
 50
0.0
 51
90.0
  0
CIRCLE
  5
5C0
100
AcDbEntity
  8
3_ALL_AXES
100
AcDbCircle
 62
7
  6
CONTINUOUS
 10
86.6756087702
 20
47.84101602
 40
0.0835
  0
ARC
  5
5C1
100
AcDbEntity
  8
7_ALL_ROUNDS
100
AcDbCircle
 62
7
  6
CONTINUOUS
 10
89.2071087702
 20
60.5451301932
 40
0.25
100
AcDbArc
 50
0.0
 51
90.0
  0
ARC
  5
5C2
100
AcDbEntity
  8
3_AXES_OTHER
100
AcDbCircle
 62
7
  6
CONTINUOUS
 10
110.1751369453
 20
44.7640317669
 40
2.7365909308
100
AcDbArc
 50
310.580674814
 51
317.6166626508
  0
ARC
  5
5C3
100
AcDbEntity
  8
3_AXES_OTHER
100
AcDbCircle
 62
7
  6
CONTINUOUS
 10
105.9299377314
 20
53.8270905362
 40
2.7295964421
100
AcDbArc
 50
130.6673498618
 51
136.8891444691
  0
ARC
  5
5C4
100
AcDbEntity
  8
3_AXES_OTHER
100
AcDbCircle
 62
7
  6
CONTINUOUS
 10
105.8718138546
 20
53.8927613054
 40
2.6419077276
100
AcDbArc
 50
128.6064604672
 51
130.6393326556
  0
ARC
  5
5C5
100
AcDbEntity
  8
3_AXES_OTHER
100
AcDbCircle
 62
7
  6
CONTINUOUS
 10
105.8583268181
 20
53.9095018673
 40
2.620410321
100
AcDbArc
 50
128.1098077734
 51
128.4107889826
  0
ARC
  5
5C6
100
AcDbEntity
  8
3_AXES_OTHER
100
AcDbCircle
 62
7
  6
CONTINUOUS
 10
110.2589446163
 20
44.6680599796
 40
2.6091831241
100
AcDbArc
 50
300.0720896284
 51
310.5538895766
  0
ARC
  5
5C7
100
AcDbEntity
  8
3_ALL_AXES
100
AcDbCircle
 62
7
  6
CONTINUOUS
 10
110.6004081153
 20
44.9694911609
 40
2.5605290583
100
AcDbArc
 50
300.0343426962
 51
310.3705710529
  0
ARC
  5
5C8
100
AcDbEntity
  8
3_ALL_AXES
100
AcDbCircle
 62
7
  6
CONTINUOUS
 10
105.5699392285
 20
53.68667262
 40
2.5299975393
100
AcDbArc
 50
119.9973688367
 51
122.6993475217
  0
ARC
  5
5C9
100
AcDbEntity
  8
3_ALL_AXES
100
AcDbCircle
 62
7
  6
CONTINUOUS
 10
110.727628701
 20
45.4722966196
 40
2.370568646
100
AcDbArc
 50
291.484767903
 51
295.1851883506
  0
ARC
  5
5CA
100
AcDbEntity
  8
3_ALL_AXES
100
AcDbCircle
 62
7
  6
CONTINUOUS
 10
106.0820361855
 20
53.5180838177
 40
2.3702101443
100
AcDbArc
 50
123.6338267041
 51
128.6356109266
  0
ARC
  5
5CB
100
AcDbEntity
  8
7_ALL_ROUNDS
100
AcDbCircle
 62
7
  6
CONTINUOUS
 10
97.6872790555
 20
48.5009914422
 40
0.2514342912
100
AcDbArc
 50
224.9996723244
 51
239.9709670979
  0
ARC
  5
5CC
100
AcDbEntity
  8
7_ALL_ROUNDS
100
AcDbCircle
 62
7
  6
CONTINUOUS
 10
126.46012598
 20
41.0266805442
 40
0.2512637662
100
AcDbArc
 50
300.0294415451
 51
329.362741046
  0
ARC
  5
5CD
100
AcDbEntity
  8
7_ALL_ROUNDS
100
AcDbCircle
 62
7
  6
CONTINUOUS
 10
126.4611352794
 20
62.7952815239
 40
0.2500053088
100
AcDbArc
 50
359.9905319503
 51
59.9985972203
  0
ARC
  5
5CE
100
AcDbEntity
  8
7_ALL_ROUNDS
100
AcDbCircle
 62
7
  6
CONTINUOUS
 10
118.5465933508
 20
36.4564715276
 40
0.25
100
AcDbArc
 50
240.5534575144
 51
299.4468179298
  0
ARC
  5
5CF
100
AcDbEntity
  8
7_ALL_ROUNDS
100
AcDbCircle
 62
7
  6
CONTINUOUS
 10
97.6864110355
 20
70.2691997998
 40
0.25
100
AcDbArc
 50
120.5530351858
 51
179.4472402592
  0
ARC
  5
5D0
100
AcDbEntity
  8
7_ALL_ROUNDS
100
AcDbCircle
 62
7
  6
CONTINUOUS
 10
105.6009630402
 20
74.8386412543
 40
0.25
100
AcDbArc
 50
60.5534575144
 51
119.4468179298
  0
ARC
  5
5D1
100
AcDbEntity
  8
7_ALL_ROUNDS
100
AcDbCircle
 62
7
  6
CONTINUOUS
 10
97.6857603465
 20
48.4991630954
 40
0.2490676629
100
AcDbArc
 50
220.5202428392
 51
224.9493024184
  0
ARC
  5
5D2
100
AcDbEntity
  8
3_AXES_OTHER
100
AcDbCircle
 62
7
  6
CONTINUOUS
 10
111.0912811096
 20
61.1328113468
 40
0.2038087062
100
AcDbArc
 50
331.6874365561
 51
335.6823169828
  0
ARC
  5
5D3
100
AcDbEntity
  8
7_ALL_ROUNDS
100
AcDbCircle
 62
7
  6
CONTINUOUS
 10
123.6949948957
 20
50.7309990199
 40
0.1639122165
100
AcDbArc
 50
309.8651530105
 51
312.4019716598
  0
ARC
  5
5D4
100
AcDbEntity
  8
7_ALL_ROUNDS
100
AcDbCircle
 62
7
  6
CONTINUOUS
 10
124.5626320103
 20
51.1109727007
 40
0.1435683319
100
AcDbArc
 50
121.7170578252
 51
126.3119324834
  0
ARC
  5
5D5
100
AcDbEntity
  8
7_ALL_ROUNDS
100
AcDbCircle
 62
7
  6
CONTINUOUS
 10
64.9222681508
 20
70.8893773412
 40
0.25
100
AcDbArc
 50
270.0
 51
360.0
  0
ARC
  5
5D6
100
AcDbEntity
  8
7_ALL_ROUNDS
100
AcDbCircle
 62
7
  6
CONTINUOUS
 10
64.9222681508
 20
82.082290727
 40
0.25
100
AcDbArc
 50
0.0
 51
90.0
  0
ARC
  5
5D7
100
AcDbEntity
  8
7_ALL_ROUNDS
100
AcDbCircle
 62
7
  6
CONTINUOUS
 10
35.4216382295
 20
70.8893773412
 40
0.25
100
AcDbArc
 50
180.0
 51
270.0
  0
ARC
  5
5D8
100
AcDbEntity
  8
7_ALL_ROUNDS
100
AcDbCircle
 62
7
  6
CONTINUOUS
 10
35.4216382295
 20
82.082290727
 40
0.25
100
AcDbArc
 50
90.0
 51
180.0
  0
CIRCLE
  5
5D9
100
AcDbEntity
  8
7_ALL_ROUNDS
100
AcDbCircle
 62
7
  6
CONTINUOUS
 10
37.6719531902
 20
15.1005320108
 40
0.75
  0
CIRCLE
  5
5DA
100
AcDbEntity
  8
7_ALL_ROUNDS
100
AcDbCircle
 62
7
  6
CONTINUOUS
 10
37.6719531902
 20
15.1005320108
 40
0.5531496063
  0
CIRCLE
  5
5DB
100
AcDbEntity
  8
3_AXES_OTHER
100
AcDbCircle
 62
7
  6
CONTINUOUS
 10
37.6719531902
 20
15.1005320108
 40
0.375
  0
ARC
  5
5DC
100
AcDbEntity
  8
7_ALL_ROUNDS
100
AcDbCircle
 62
7
  6
CONTINUOUS
 10
35.4216382295
 20
13.4410831919
 40
0.25
100
AcDbArc
 50
180.0
 51
270.0
  0
CIRCLE
  5
5DD
100
AcDbEntity
  8
7_ALL_ROUNDS
100
AcDbCircle
 62
7
  6
CONTINUOUS
 10
37.6719531902
 20
22.9745477589
 40
0.75
  0
CIRCLE
  5
5DE
100
AcDbEntity
  8
7_ALL_ROUNDS
100
AcDbCircle
 62
7
  6
CONTINUOUS
 10
37.6719531902
 20
22.9745477589
 40
0.5531496063
  0
CIRCLE
  5
5DF
100
AcDbEntity
  8
3_AXES_OTHER
100
AcDbCircle
 62
7
  6
CONTINUOUS
 10
37.6719531902
 20
22.9745477589
 40
0.375
  0
ARC
  5
5E0
100
AcDbEntity
  8
7_ALL_ROUNDS
100
AcDbCircle
 62
7
  6
CONTINUOUS
 10
35.4216382295
 20
24.6339965778
 40
0.25
100
AcDbArc
 50
90.0
 51
180.0
  0
CIRCLE
  5
5E1
100
AcDbEntity
  8
7_ALL_ROUNDS
100
AcDbCircle
 62
7
  6
CONTINUOUS
 10
62.6719531902
 20
15.1005320108
 40
0.75
  0
CIRCLE
  5
5E2
100
AcDbEntity
  8
7_ALL_ROUNDS
100
AcDbCircle
 62
7
  6
CONTINUOUS
 10
62.6719531902
 20
15.1005320108
 40
0.5531496063
  0
CIRCLE
  5
5E3
100
AcDbEntity
  8
3_AXES_OTHER
100
AcDbCircle
 62
7
  6
CONTINUOUS
 10
62.6719531902
 20
15.1005320108
 40
0.375
  0
ARC
  5
5E4
100
AcDbEntity
  8
7_ALL_ROUNDS
100
AcDbCircle
 62
7
  6
CONTINUOUS
 10
64.9222681508
 20
13.4410831919
 40
0.25
100
AcDbArc
 50
270.0
 51
360.0
  0
CIRCLE
  5
5E5
100
AcDbEntity
  8
7_ALL_ROUNDS
100
AcDbCircle
 62
7
  6
CONTINUOUS
 10
62.6719531902
 20
22.9745477589
 40
0.75
  0
CIRCLE
  5
5E6
100
AcDbEntity
  8
7_ALL_ROUNDS
100
AcDbCircle
 62
7
  6
CONTINUOUS
 10
62.6719531902
 20
22.9745477589
 40
0.5531496063
  0
CIRCLE
  5
5E7
100
AcDbEntity
  8
3_AXES_OTHER
100
AcDbCircle
 62
7
  6
CONTINUOUS
 10
62.6719531902
 20
22.9745477589
 40
0.375
  0
ARC
  5
5E8
100
AcDbEntity
  8
7_ALL_ROUNDS
100
AcDbCircle
 62
7
  6
CONTINUOUS
 10
64.9222681508
 20
24.6339965778
 40
0.25
100
AcDbArc
 50
0.0
 51
90.0
  0
SPLINE
  5
5E9
100
AcDbEntity
  8
7_ALL_ROUNDS
100
AcDbSpline
 62
7
  6
CONTINUOUS
 70
0
 71
3
 72
9
 73
5
 74
0
 42
0.0000001
 43
0.0000001
 44
0.0000000001
 40
0.0
 40
0.0
 40
0.0
 40
0.0
 40
0.2208593884
 40
1.0
 40
1.0
 40
1.0
 40
1.0
 10
104.9819040871
 20
64.7703506321
 30
0.0
 10
104.9883938196
 20
64.7740974607
 30
0.0
 10
105.0210121793
 20
64.7859226146
 30
0.0
 10
105.0574344979
 20
64.7738195407
 30
0.0
 10
105.080328865
 20
64.7606017708
 30
0.0
  0
SPLINE
  5
5EA
100
AcDbEntity
  8
7_ALL_ROUNDS
100
AcDbSpline
 62
7
  6
CONTINUOUS
 70
0
 71
3
 72
9
 73
5
 74
0
 42
0.0000001
 43
0.0000001
 44
0.0000000001
 40
0.0
 40
0.0
 40
0.0
 40
0.0
 40
0.4491752496
 40
1.0
 40
1.0
 40
1.0
 40
1.0
 10
104.7442936842
 20
65.1819036842
 30
0.0
 10
104.7177391075
 20
65.1665724849
 30
0.0
 10
104.6718559458
 20
65.1091637897
 30
0.0
 10
104.6627443817
 20
65.0392903784
 30
0.0
 10
104.6627443817
 20
65.0016888305
 30
0.0
  0
SPLINE
  5
5EB
100
AcDbEntity
  8
7_ALL_ROUNDS
100
AcDbSpline
 62
7
  6
CONTINUOUS
 70
0
 71
3
 72
8
 73
4
 74
0
 42
0.0000001
 43
0.0000001
 44
0.0000000001
 40
0.0
 40
0.0
 40
0.0
 40
0.0
 40
1.0
 40
1.0
 40
1.0
 40
1.0
 10
124.5973577437
 20
51.1638303171
 30
0.0
 10
124.5973577437
 20
51.1847514958
 30
0.0
 10
124.5915289256
 20
51.207288453
 30
0.0
 10
124.5785763317
 20
51.2237178788
 30
0.0
  0
SPLINE
  5
5EC
100
AcDbEntity
  8
7_ALL_ROUNDS
100
AcDbSpline
 62
7
  6
CONTINUOUS
 70
0
 71
3
 72
8
 73
4
 74
0
 42
0.0000001
 43
0.0000001
 44
0.0000000001
 40
0.0
 40
0.0
 40
0.0
 40
0.0
 40
1.0
 40
1.0
 40
1.0
 40
1.0
 10
124.5785763317
 20
51.2237178788
 30
0.0
 10
124.5729155453
 20
51.2308981757
 30
0.0
 10
124.5657846686
 20
51.2371324454
 30
0.0
 10
124.5578662354
 20
51.2417040515
 30
0.0
  0
SPLINE
  5
5ED
100
AcDbEntity
  8
7_ALL_ROUNDS
100
AcDbSpline
 62
7
  6
CONTINUOUS
 70
0
 71
3
 72
8
 73
4
 74
0
 42
0.0000001
 43
0.0000001
 44
0.0000000001
 40
0.0
 40
0.0
 40
0.0
 40
0.0
 40
1.0
 40
1.0
 40
1.0
 40
1.0
 10
124.507173144
 20
51.0109776963
 30
0.0
 10
124.5174473891
 20
51.0165445399
 30
0.0
 10
124.5269822752
 20
51.0235967739
 30
0.0
 10
124.5356129556
 20
51.0314746679
 30
0.0
  0
SPLINE
  5
5EE
100
AcDbEntity
  8
7_ALL_ROUNDS
100
AcDbSpline
 62
7
  6
CONTINUOUS
 70
0
 71
3
 72
8
 73
4
 74
0
 42
0.0000001
 43
0.0000001
 44
0.0000000001
 40
0.0
 40
0.0
 40
0.0
 40
0.0
 40
1.0
 40
1.0
 40
1.0
 40
1.0
 10
124.5356129556
 20
51.0314746679
 30
0.0
 10
124.5480671352
 20
51.0428425674
 30
0.0
 10
124.5589366384
 20
51.0561224873
 30
0.0
 10
124.5679634694
 20
51.0703651011
 30
0.0
  0
SPLINE
  5
5EF
100
AcDbEntity
  8
7_ALL_ROUNDS
100
AcDbSpline
 62
7
  6
CONTINUOUS
 70
0
 71
3
 72
8
 73
4
 74
0
 42
0.0000001
 43
0.0000001
 44
0.0000000001
 40
0.0
 40
0.0
 40
0.0
 40
0.0
 40
1.0
 40
1.0
 40
1.0
 40
1.0
 10
124.5679634694
 20
51.0703651011
 30
0.0
 10
124.5854469846
 20
51.097950746
 30
0.0
 10
124.5973577437
 20
51.1311708452
 30
0.0
 10
124.5973577437
 20
51.1638303171
 30
0.0
  0
SPLINE
  5
5F0
100
AcDbEntity
  8
7_ALL_ROUNDS
100
AcDbSpline
 62
7
  6
CONTINUOUS
 70
0
 71
3
 72
8
 73
4
 74
0
 42
0.0000001
 43
0.0000001
 44
0.0000000001
 40
0.0
 40
0.0
 40
0.0
 40
0.0
 40
1.0
 40
1.0
 40
1.0
 40
1.0
 10
124.2323139958
 20
50.953073469
 30
0.0
 10
124.2323139958
 20
50.9739946478
 30
0.0
 10
124.2264851777
 20
50.9965316049
 30
0.0
 10
124.2135325838
 20
51.0129610307
 30
0.0
  0
SPLINE
  5
5F1
100
AcDbEntity
  8
7_ALL_ROUNDS
100
AcDbSpline
 62
7
  6
CONTINUOUS
 70
0
 71
3
 72
8
 73
4
 74
0
 42
0.0000001
 43
0.0000001
 44
0.0000000001
 40
0.0
 40
0.0
 40
0.0
 40
0.0
 40
1.0
 40
1.0
 40
1.0
 40
1.0
 10
124.2135325838
 20
51.0129610307
 30
0.0
 10
124.2078717974
 20
51.0201413276
 30
0.0
 10
124.2007409207
 20
51.0263755974
 30
0.0
 10
124.1928224875
 20
51.0309472035
 30
0.0
  0
SPLINE
  5
5F2
100
AcDbEntity
  8
7_ALL_ROUNDS
100
AcDbSpline
 62
7
  6
CONTINUOUS
 70
0
 71
3
 72
8
 73
4
 74
0
 42
0.0000001
 43
0.0000001
 44
0.0000000001
 40
0.0
 40
0.0
 40
0.0
 40
0.0
 40
1.0
 40
1.0
 40
1.0
 40
1.0
 10
124.1538904631
 20
50.8074310815
 30
0.0
 10
124.1597520273
 20
50.8114518128
 30
0.0
 10
124.1653193299
 20
50.8159258476
 30
0.0
 10
124.1705692077
 20
50.8207178198
 30
0.0
  0
SPLINE
  5
5F3
100
AcDbEntity
  8
7_ALL_ROUNDS
100
AcDbSpline
 62
7
  6
CONTINUOUS
 70
0
 71
3
 72
8
 73
4
 74
0
 42
0.0000001
 43
0.0000001
 44
0.0000000001
 40
0.0
 40
0.0
 40
0.0
 40
0.0
 40
1.0
 40
1.0
 40
1.0
 40
1.0
 10
124.1705692077
 20
50.8207178198
 30
0.0
 10
124.1830233873
 20
50.8320857193
 30
0.0
 10
124.1938928905
 20
50.8453656392
 30
0.0
 10
124.2029197215
 20
50.859608253
 30
0.0
  0
SPLINE
  5
5F4
100
AcDbEntity
  8
7_ALL_ROUNDS
100
AcDbSpline
 62
7
  6
CONTINUOUS
 70
0
 71
3
 72
8
 73
4
 74
0
 42
0.0000001
 43
0.0000001
 44
0.0000000001
 40
0.0
 40
0.0
 40
0.0
 40
0.0
 40
1.0
 40
1.0
 40
1.0
 40
1.0
 10
124.2029197215
 20
50.859608253
 30
0.0
 10
124.2204032367
 20
50.8871938979
 30
0.0
 10
124.2323139958
 20
50.9204139971
 30
0.0
 10
124.2323139958
 20
50.953073469
 30
0.0
  0
SPLINE
  5
5F5
100
AcDbEntity
  8
7_ALL_ROUNDS
100
AcDbSpline
 62
7
  6
CONTINUOUS
 70
0
 71
3
 72
8
 73
4
 74
0
 42
0.0000001
 43
0.0000001
 44
0.0000000001
 40
0.0
 40
0.0
 40
0.0
 40
0.0
 40
1.0
 40
1.0
 40
1.0
 40
1.0
 10
123.8672702479
 20
50.742316621
 30
0.0
 10
123.8672702479
 20
50.7632377997
 30
0.0
 10
123.8614414298
 20
50.7857747568
 30
0.0
 10
123.8484888359
 20
50.8022041826
 30
0.0
  0
SPLINE
  5
5F6
100
AcDbEntity
  8
7_ALL_ROUNDS
100
AcDbSpline
 62
7
  6
CONTINUOUS
 70
0
 71
3
 72
8
 73
4
 74
0
 42
0.0000001
 43
0.0000001
 44
0.0000000001
 40
0.0
 40
0.0
 40
0.0
 40
0.0
 40
1.0
 40
1.0
 40
1.0
 40
1.0
 10
123.8484888359
 20
50.8022041826
 30
0.0
 10
123.8428280495
 20
50.8093844795
 30
0.0
 10
123.8356971728
 20
50.8156187493
 30
0.0
 10
123.8277787396
 20
50.8201903554
 30
0.0
  0
SPLINE
  5
5F7
100
AcDbEntity
  8
7_ALL_ROUNDS
100
AcDbSpline
 62
7
  6
CONTINUOUS
 70
0
 71
3
 72
8
 73
4
 74
0
 42
0.0000001
 43
0.0000001
 44
0.0000000001
 40
0.0
 40
0.0
 40
0.0
 40
0.0
 40
1.0
 40
1.0
 40
1.0
 40
1.0
 10
123.8055254598
 20
50.6099609718
 30
0.0
 10
123.8179796394
 20
50.6213288712
 30
0.0
 10
123.8288491426
 20
50.6346087911
 30
0.0
 10
123.8378759736
 20
50.6488514049
 30
0.0
  0
SPLINE
  5
5F8
100
AcDbEntity
  8
7_ALL_ROUNDS
100
AcDbSpline
 62
7
  6
CONTINUOUS
 70
0
 71
3
 72
8
 73
4
 74
0
 42
0.0000001
 43
0.0000001
 44
0.0000000001
 40
0.0
 40
0.0
 40
0.0
 40
0.0
 40
1.0
 40
1.0
 40
1.0
 40
1.0
 10
123.8378759736
 20
50.6488514049
 30
0.0
 10
123.8553594888
 20
50.6764370499
 30
0.0
 10
123.8672702479
 20
50.709657149
 30
0.0
 10
123.8672702479
 20
50.742316621
 30
0.0
  0
SPLINE
  5
5F9
100
AcDbEntity
  8
7_ALL_ROUNDS
100
AcDbSpline
 62
7
  6
CONTINUOUS
 70
0
 71
3
 72
8
 73
4
 74
0
 42
0.0000001
 43
0.0000001
 44
0.0000000001
 40
0.0
 40
0.0
 40
0.0
 40
0.0
 40
1.0
 40
1.0
 40
1.0
 40
1.0
 10
123.5022265
 20
50.5315597729
 30
0.0
 10
123.5022265
 20
50.5524809516
 30
0.0
 10
123.4963976819
 20
50.5750179088
 30
0.0
 10
123.483445088
 20
50.5914473346
 30
0.0
  0
SPLINE
  5
5FA
100
AcDbEntity
  8
7_ALL_ROUNDS
100
AcDbSpline
 62
7
  6
CONTINUOUS
 70
0
 71
3
 72
8
 73
4
 74
0
 42
0.0000001
 43
0.0000001
 44
0.0000000001
 40
0.0
 40
0.0
 40
0.0
 40
0.0
 40
1.0
 40
1.0
 40
1.0
 40
1.0
 10
123.483445088
 20
50.5914473346
 30
0.0
 10
123.4777843016
 20
50.5986276315
 30
0.0
 10
123.4706534249
 20
50.6048619012
 30
0.0
 10
123.4627349917
 20
50.6094335073
 30
0.0
  0
SPLINE
  5
5FB
100
AcDbEntity
  8
7_ALL_ROUNDS
100
AcDbSpline
 62
7
  6
CONTINUOUS
 70
0
 71
3
 72
8
 73
4
 74
0
 42
0.0000001
 43
0.0000001
 44
0.0000000001
 40
0.0
 40
0.0
 40
0.0
 40
0.0
 40
1.0
 40
1.0
 40
1.0
 40
1.0
 10
123.4465620612
 20
50.4050328215
 30
0.0
 10
123.4564868122
 20
50.4150144365
 30
0.0
 10
123.4652969638
 20
50.4262053539
 30
0.0
 10
123.4728322257
 20
50.4380945569
 30
0.0
  0
SPLINE
  5
5FC
100
AcDbEntity
  8
7_ALL_ROUNDS
100
AcDbSpline
 62
7
  6
CONTINUOUS
 70
0
 71
3
 72
8
 73
4
 74
0
 42
0.0000001
 43
0.0000001
 44
0.0000000001
 40
0.0
 40
0.0
 40
0.0
 40
0.0
 40
1.0
 40
1.0
 40
1.0
 40
1.0
 10
123.4728322257
 20
50.4380945569
 30
0.0
 10
123.4903157409
 20
50.4656802018
 30
0.0
 10
123.5022265
 20
50.498900301
 30
0.0
 10
123.5022265
 20
50.5315597729
 30
0.0
  0
SPLINE
  5
5FD
100
AcDbEntity
  8
7_ALL_ROUNDS
100
AcDbSpline
 62
7
  6
CONTINUOUS
 70
0
 71
3
 72
9
 73
5
 74
0
 42
0.0000001
 43
0.0000001
 44
0.0000000001
 40
0.0
 40
0.0
 40
0.0
 40
0.0
 40
0.2208589878
 40
1.0
 40
1.0
 40
1.0
 40
1.0
 10
122.4077868973
 20
45.7829454361
 30
0.0
 10
122.4142765697
 20
45.7791987035
 30
0.0
 10
122.4468946501
 20
45.7673739371
 30
0.0
 10
122.4833164369
 20
45.7794772117
 30
0.0
 10
122.5062104563
 20
45.7926950011
 30
0.0
  0
SPLINE
  5
5FE
100
AcDbEntity
  8
7_ALL_ROUNDS
100
AcDbSpline
 62
7
  6
CONTINUOUS
 70
0
 71
3
 72
9
 73
5
 74
0
 42
0.0000001
 43
0.0000001
 44
0.0000000001
 40
0.0
 40
0.0
 40
0.0
 40
0.0
 40
0.5000011283
 40
1.0
 40
1.0
 40
1.0
 40
1.0
 10
104.6627443817
 20
58.4999186578
 30
0.0
 10
104.6627443817
 20
58.4045063786
 30
0.0
 10
104.7279590634
 20
58.2161146271
 30
0.0
 10
104.8585044852
 20
58.0654414216
 30
0.0
 10
104.9411340372
 20
58.0177363068
 30
0.0
  0
SPLINE
  5
5FF
100
AcDbEntity
  8
7_ALL_ROUNDS
100
AcDbSpline
 62
7
  6
CONTINUOUS
 70
0
 71
3
 72
9
 73
5
 74
0
 42
0.0000001
 43
0.0000001
 44
0.0000000001
 40
0.0
 40
0.0
 40
0.0
 40
0.0
 40
0.2208576349
 40
1.0
 40
1.0
 40
1.0
 40
1.0
 10
122.895688545
 20
46.6280205701
 30
0.0
 10
122.8891986627
 20
46.6317674239
 30
0.0
 10
122.8626477488
 20
46.6541037049
 30
0.0
 10
122.8549184353
 20
46.6916991748
 30
0.0
 10
122.8549184353
 20
46.7181359349
 30
0.0
  0
SPLINE
  5
600
100
AcDbEntity
  8
7_ALL_ROUNDS
100
AcDbSpline
 62
7
  6
CONTINUOUS
 70
0
 71
3
 72
8
 73
4
 74
0
 42
0.0000001
 43
0.0000001
 44
0.0000000001
 40
0.0
 40
0.0
 40
0.0
 40
0.0
 40
1.0
 40
1.0
 40
1.0
 40
1.0
 10
97.4364110355
 20
48.4998309455
 30
0.0
 10
97.4364110355
 20
48.4700417126
 30
0.0
 10
97.4419369851
 20
48.4397985076
 30
0.0
 10
97.4523894672
 20
48.4119032748
 30
0.0
  0
SPLINE
  5
601
100
AcDbEntity
  8
7_ALL_ROUNDS
100
AcDbSpline
 62
7
  6
CONTINUOUS
 70
0
 71
3
 72
8
 73
4
 74
0
 42
0.0000001
 43
0.0000001
 44
0.0000000001
 40
0.0
 40
0.0
 40
0.0
 40
0.0
 40
1.0
 40
1.0
 40
1.0
 40
1.0
 10
126.7111453555
 20
41.0259129822
 30
0.0
 10
126.7111453555
 20
40.9819275766
 30
0.0
 10
126.6987217534
 20
40.9364872917
 30
0.0
 10
126.6763160431
 20
40.8986362673
 30
0.0
  0
SPLINE
  5
602
100
AcDbEntity
  8
3_ALL_AXES
100
AcDbSpline
 62
7
  6
CONTINUOUS
 70
0
 71
3
 72
16
 73
12
 74
0
 42
0.0000001
 43
0.0000001
 44
0.0000000001
 40
0.0
 40
0.0
 40
0.0
 40
0.0
 40
0.1287364993
 40
0.2703879952
 40
0.4176057155
 40
0.5620142339
 40
0.695743803
 40
0.813061585
 40
0.9124711405
 40
0.9571209871
 40
1.0
 40
1.0
 40
1.0
 40
1.0
 10
102.7353695372
 20
52.4087346796
 30
0.0
 10
102.7353695372
 20
51.761094407
 30
0.0
 10
102.9165719563
 20
50.3992928464
 30
0.0
 10
103.5927040902
 20
48.399738856
 30
0.0
 10
104.6350292314
 20
46.4734726418
 30
0.0
 10
105.9584373339
 20
44.7786093633
 30
0.0
 10
107.4587967081
 20
43.4514440766
 30
0.0
 10
109.019671691
 20
42.5951642195
 30
0.0
 10
110.3447251516
 20
42.3363550259
 30
0.0
 10
111.2833458994
 20
42.4738450066
 30
0.0
 10
111.6951817789
 20
42.6449304726
 30
0.0
 10
111.8820015586
 20
42.7527757294
 30
0.0
  0
SPLINE
  5
603
100
AcDbEntity
  8
3_ALL_AXES
100
AcDbSpline
 62
7
  6
CONTINUOUS
 70
0
 71
3
 72
11
 73
7
 74
0
 42
0.0000001
 43
0.0000001
 44
0.0000000001
 40
0.0
 40
0.0
 40
0.0
 40
0.0
 40
0.289808138
 40
0.549044907
 40
0.7822281941
 40
1.0
 40
1.0
 40
1.0
 40
1.0
 10
113.0543414638
 20
46.4512082372
 30
0.0
 10
113.0543414638
 20
46.0956051065
 30
0.0
 10
113.000652725
 20
45.4195798275
 30
0.0
 10
112.7265402871
 20
44.4908466728
 30
0.0
 10
112.2658602948
 20
43.7371150103
 30
0.0
 10
111.8327244421
 20
43.373172909
 30
0.0
 10
111.6013115098
 20
43.2395670109
 30
0.0
  0
SPLINE
  5
604
100
AcDbEntity
  8
7_ALL_ROUNDS
100
AcDbSpline
 62
7
  6
CONTINUOUS
 70
0
 71
3
 72
9
 73
5
 74
0
 42
0.0000001
 43
0.0000001
 44
0.0000000001
 40
0.0
 40
0.0
 40
0.0
 40
0.0
 40
0.2949656342
 40
1.0
 40
1.0
 40
1.0
 40
1.0
 10
125.8883938969
 20
53.2920109384
 30
0.0
 10
125.8883938969
 20
53.3019656753
 30
0.0
 10
125.8861619127
 20
53.3352639207
 30
0.0
 10
125.8682301644
 20
53.3702294647
 30
0.0
 10
125.8476237872
 20
53.3821263033
 30
0.0
  0
SPLINE
  5
605
100
AcDbEntity
  8
7_ALL_ROUNDS
100
AcDbSpline
 62
7
  6
CONTINUOUS
 70
0
 71
3
 72
9
 73
5
 74
0
 42
0.0000001
 43
0.0000001
 44
0.0000000001
 40
0.0
 40
0.0
 40
0.0
 40
0.0
 40
0.2406935903
 40
1.0
 40
1.0
 40
1.0
 40
1.0
 10
125.7492002282
 20
47.6650248425
 30
0.0
 10
125.7689600303
 20
47.6764331015
 30
0.0
 10
125.841700431
 20
47.7378351759
 30
0.0
 10
125.8883938969
 20
47.8341380115
 30
0.0
 10
125.8883938969
 20
47.9061166872
 30
0.0
  0
SPLINE
  5
606
100
AcDbEntity
  8
3_ALL_AXES
100
AcDbSpline
 62
7
  6
CONTINUOUS
 70
0
 71
3
 72
13
 73
9
 74
0
 42
0.0000001
 43
0.0000001
 44
0.0000000001
 40
0.0
 40
0.0
 40
0.0
 40
0.0
 40
0.0920906982
 40
0.190044731
 40
0.2980821441
 40
0.4182050601
 40
0.6927610006
 40
1.0
 40
1.0
 40
1.0
 40
1.0
 10
104.585731127
 20
55.3909815685
 30
0.0
 10
104.80410091
 20
55.5170570245
 30
0.0
 10
105.3011358574
 20
55.7033720977
 30
0.0
 10
106.1264505858
 20
55.7458204194
 30
0.0
 10
107.0088645529
 20
55.5649054405
 30
0.0
 10
108.2797391922
 20
55.0172054269
 30
0.0
 10
109.8204708057
 20
53.8215129799
 30
0.0
 10
110.8254340643
 20
52.568795311
 30
0.0
 10
111.2822750417
 20
51.8624042524
 30
0.0
  0
SPLINE
  5
607
100
AcDbEntity
  8
3_ALL_AXES
100
AcDbSpline
 62
7
  6
CONTINUOUS
 70
0
 71
3
 72
9
 73
5
 74
0
 42
0.0000001
 43
0.0000001
 44
0.0000000001
 40
0.0
 40
0.0
 40
0.0
 40
0.0
 40
0.2622114496
 40
1.0
 40
1.0
 40
1.0
 40
1.0
 10
112.7972411802
 20
48.419819157
 30
0.0
 10
112.839156245
 20
48.2511942779
 30
0.0
 10
112.9818481941
 20
47.6041663576
 30
0.0
 10
113.0543414638
 20
46.940108881
 30
0.0
 10
113.0543414638
 20
46.4512082372
 30
0.0
  0
SPLINE
  5
608
100
AcDbEntity
  8
3_ALL_AXES
100
AcDbSpline
 62
7
  6
CONTINUOUS
 70
0
 71
3
 72
11
 73
7
 74
0
 42
0.0000001
 43
0.0000001
 44
0.0000000001
 40
0.0
 40
0.0
 40
0.0
 40
0.0
 40
0.2177699886
 40
0.4516853847
 40
0.7111283958
 40
1.0
 40
1.0
 40
1.0
 40
1.0
 10
104.2031567922
 20
55.8157083925
 30
0.0
 10
103.9674725727
 20
55.6644084376
 30
0.0
 10
103.5296514752
 20
55.2647860084
 30
0.0
 10
103.0660573938
 20
54.4634541638
 30
0.0
 10
102.7897707743
 20
53.4876615987
 30
0.0
 10
102.7353695372
 20
52.7802460371
 30
0.0
 10
102.7353695372
 20
52.4087346796
 30
0.0
  0
SPLINE
  5
609
100
AcDbEntity
  8
3_AXES_OTHER
100
AcDbSpline
 62
7
  6
CONTINUOUS
 70
0
 71
3
 72
9
 73
5
 74
0
 42
0.0000001
 43
0.0000001
 44
0.0000000001
 40
0.0
 40
0.0
 40
0.0
 40
0.0
 40
0.5205403906
 40
1.0
 40
1.0
 40
1.0
 40
1.0
 10
111.2842179776
 20
51.7842995054
 30
0.0
 10
111.8126822118
 20
50.9493752353
 30
0.0
 10
112.6552489517
 20
49.2304980346
 30
0.0
 10
113.0868043013
 20
47.3549277914
 30
0.0
 10
113.146460491
 20
46.446750749
 30
0.0
  0
SPLINE
  5
60A
100
AcDbEntity
  8
3_AXES_OTHER
100
AcDbSpline
 62
7
  6
CONTINUOUS
 70
0
 71
3
 72
10
 73
6
 74
0
 42
0.0000001
 43
0.0000001
 44
0.0000000001
 40
0.0
 40
0.0
 40
0.0
 40
0.0
 40
0.2869688544
 40
0.5486913112
 40
1.0
 40
1.0
 40
1.0
 40
1.0
 10
113.146460491
 20
46.446750749
 30
0.0
 10
113.1698629529
 20
46.0904829628
 30
0.0
 10
113.1695547857
 20
45.4038822554
 30
0.0
 10
112.9735147762
 20
44.1750062587
 30
0.0
 10
112.575269385
 20
43.3338595186
 30
0.0
 10
112.1965236914
 20
42.9193297463
 30
0.0
  0
SPLINE
  5
60B
100
AcDbEntity
  8
7_ALL_ROUNDS
100
AcDbSpline
 62
7
  6
CONTINUOUS
 70
0
 71
3
 72
8
 73
4
 74
0
 42
0.0000001
 43
0.0000001
 44
0.0000000001
 40
0.0
 40
0.0
 40
0.0
 40
0.0
 40
1.0
 40
1.0
 40
1.0
 40
1.0
 10
111.2864358746
 20
54.7508937487
 30
0.0
 10
111.2811085156
 20
54.7442069315
 30
0.0
 10
111.274483843
 20
54.7383402928
 30
0.0
 10
111.2670797323
 20
54.7340655505
 30
0.0
  0
SPLINE
  5
60C
100
AcDbEntity
  8
7_ALL_ROUNDS
100
AcDbSpline
 62
7
  6
CONTINUOUS
 70
0
 71
3
 72
9
 73
5
 74
0
 42
0.0000001
 43
0.0000001
 44
0.0000000001
 40
0.0
 40
0.0
 40
0.0
 40
0.0
 40
0.2289216311
 40
1.0
 40
1.0
 40
1.0
 40
1.0
 10
111.1686549544
 20
61.2455845845
 30
0.0
 10
111.1810203332
 20
61.2384455912
 30
0.0
 10
111.2313554776
 20
61.2010896504
 30
0.0
 10
111.2680028162
 20
61.1469276161
 30
0.0
 10
111.2864357928
 20
61.1025068293
 30
0.0
  0
SPLINE
  5
60D
100
AcDbEntity
  8
7_ALL_ROUNDS
100
AcDbSpline
 62
7
  6
CONTINUOUS
 70
0
 71
3
 72
9
 73
5
 74
0
 42
0.0000001
 43
0.0000001
 44
0.0000000001
 40
0.0
 40
0.0
 40
0.0
 40
0.0
 40
0.2406960175
 40
1.0
 40
1.0
 40
1.0
 40
1.0
 10
122.8549184353
 20
50.9772568505
 30
0.0
 10
122.8549184353
 20
51.0000736971
 30
0.0
 10
122.8717237501
 20
51.0937696719
 30
0.0
 10
122.9317768582
 20
51.1823596391
 30
0.0
 10
122.994112104
 20
51.2183486952
 30
0.0
  0
SPLINE
  5
60E
100
AcDbEntity
  8
7_ALL_ROUNDS
100
AcDbSpline
 62
7
  6
CONTINUOUS
 70
0
 71
3
 72
9
 73
5
 74
0
 42
0.0000001
 43
0.0000001
 44
0.0000000001
 40
0.0
 40
0.0
 40
0.0
 40
0.0
 40
0.2949638736
 40
1.0
 40
1.0
 40
1.0
 40
1.0
 10
125.2612985805
 20
52.5273016043
 30
0.0
 10
125.2699192688
 20
52.5322787313
 30
0.0
 10
125.2998713268
 20
52.5469942669
 30
0.0
 10
125.3391164951
 20
52.5489475848
 30
0.0
 10
125.3597221395
 20
52.5370511693
 30
0.0
  0
SPLINE
  5
60F
100
AcDbEntity
  8
7_ALL_ROUNDS
100
AcDbSpline
 62
7
  6
CONTINUOUS
 70
0
 71
3
 72
9
 73
5
 74
0
 42
0.0000001
 43
0.0000001
 44
0.0000000001
 40
0.0
 40
0.0
 40
0.0
 40
0.0
 40
0.2406935903
 40
1.0
 40
1.0
 40
1.0
 40
1.0
 10
124.6779330573
 20
48.2835216667
 30
0.0
 10
124.6976928594
 20
48.2949299256
 30
0.0
 10
124.7704332601
 20
48.356332
 30
0.0
 10
124.817126726
 20
48.4526348356
 30
0.0
 10
124.817126726
 20
48.5246135114
 30
0.0
  0
SPLINE
  5
610
100
AcDbEntity
  8
7_ALL_ROUNDS
100
AcDbSpline
 62
7
  6
CONTINUOUS
 70
0
 71
3
 72
9
 73
5
 74
0
 42
0.0000001
 43
0.0000001
 44
0.0000000001
 40
0.0
 40
0.0
 40
0.0
 40
0.0
 40
0.2209379312
 40
1.0
 40
1.0
 40
1.0
 40
1.0
 10
126.5861374275
 20
63.0117793534
 30
0.0
 10
126.5778923775
 20
63.016539529
 30
0.0
 10
126.5364829522
 20
63.0316056882
 30
0.0
 10
126.490218586
 20
63.016192778
 30
0.0
 10
126.4611453555
 20
62.9994074408
 30
0.0
  0
SPLINE
  5
611
100
AcDbEntity
  8
7_ALL_ROUNDS
100
AcDbSpline
 62
7
  6
CONTINUOUS
 70
0
 71
3
 72
8
 73
4
 74
0
 42
0.0000001
 43
0.0000001
 44
0.0000000001
 40
0.0
 40
0.0
 40
0.0
 40
0.0
 40
1.0
 40
1.0
 40
1.0
 40
1.0
 10
126.711133741
 20
41.0259129822
 30
0.0
 10
126.7111337414
 20
41.0170060241
 30
0.0
 10
126.709662356
 20
41.0080027762
 30
0.0
 10
126.7069325895
 20
40.9995244346
 30
0.0
  0
SPLINE
  5
612
100
AcDbEntity
  8
7_ALL_ROUNDS
100
AcDbSpline
 62
7
  6
CONTINUOUS
 70
0
 71
3
 72
9
 73
5
 74
0
 42
0.0000001
 43
0.0000001
 44
0.0000000001
 40
0.0
 40
0.0
 40
0.0
 40
0.0
 40
0.2221113142
 40
1.0
 40
1.0
 40
1.0
 40
1.0
 10
126.7069325895
 20
40.9995244346
 30
0.0
 10
126.7045770483
 20
40.9922083936
 30
0.0
 10
126.6897469644
 20
40.9605739349
 30
0.0
 10
126.6612344187
 20
40.9373116902
 30
0.0
 10
126.6379227868
 20
40.9238527935
 30
0.0
  0
SPLINE
  5
613
100
AcDbEntity
  8
7_ALL_ROUNDS
100
AcDbSpline
 62
7
  6
CONTINUOUS
 70
0
 71
3
 72
8
 73
4
 74
0
 42
0.0000001
 43
0.0000001
 44
0.0000000001
 40
0.0
 40
0.0
 40
0.0
 40
0.0
 40
1.0
 40
1.0
 40
1.0
 40
1.0
 10
97.5614074606
 20
48.2833406342
 30
0.0
 10
97.5468991854
 20
48.2917207488
 30
0.0
 10
97.5348397023
 20
48.3051139225
 30
0.0
 10
97.526851122
 20
48.3198414122
 30
0.0
  0
SPLINE
  5
614
100
AcDbEntity
  8
7_ALL_ROUNDS
100
AcDbSpline
 62
7
  6
CONTINUOUS
 70
0
 71
3
 72
9
 73
5
 74
0
 42
0.0000001
 43
0.0000001
 44
0.0000000001
 40
0.0
 40
0.0
 40
0.0
 40
0.0
 40
0.2209636693
 40
1.0
 40
1.0
 40
1.0
 40
1.0
 10
118.6715984879
 20
36.2399821184
 30
0.0
 10
118.6798430123
 20
36.2447443112
 30
0.0
 10
118.7135901328
 20
36.2730746448
 30
0.0
 10
118.7233707821
 20
36.3208435812
 30
0.0
 10
118.7233707821
 20
36.354411339
 30
0.0
  0
SPLINE
  5
615
100
AcDbEntity
  8
7_ALL_ROUNDS
100
AcDbSpline
 62
7
  6
CONTINUOUS
 70
0
 71
3
 72
9
 73
5
 74
0
 42
0.0000001
 43
0.0000001
 44
0.0000000001
 40
0.0
 40
0.0
 40
0.0
 40
0.0
 40
0.2209619903
 40
1.0
 40
1.0
 40
1.0
 40
1.0
 10
97.4364231389
 20
70.269186233
 30
0.0
 10
97.436425081
 20
70.2596654612
 30
0.0
 10
97.4440864442
 20
70.216275444
 30
0.0
 10
97.4805649895
 20
70.183922004
 30
0.0
 10
97.5096350762
 20
70.1671387613
 30
0.0
  0
SPLINE
  5
616
100
AcDbEntity
  8
7_ALL_ROUNDS
100
AcDbSpline
 62
7
  6
CONTINUOUS
 70
0
 71
3
 72
9
 73
5
 74
0
 42
0.0000001
 43
0.0000001
 44
0.0000000001
 40
0.0
 40
0.0
 40
0.0
 40
0.0
 40
0.449176705
 40
1.0
 40
1.0
 40
1.0
 40
1.0
 10
105.0226810217
 20
65.3426297291
 30
0.0
 10
105.0492349771
 20
65.3579605697
 30
0.0
 10
105.1218917853
 20
65.3689921529
 30
0.0
 10
105.1869582483
 20
65.3419477179
 30
0.0
 10
105.2195213747
 20
65.3231478134
 30
0.0
  0
SPLINE
  5
617
100
AcDbEntity
  8
7_ALL_ROUNDS
100
AcDbSpline
 62
7
  6
CONTINUOUS
 70
0
 71
3
 72
9
 73
5
 74
0
 42
0.0000001
 43
0.0000001
 44
0.0000000001
 40
0.0
 40
0.0
 40
0.0
 40
0.0
 40
0.2208593884
 40
1.0
 40
1.0
 40
1.0
 40
1.0
 10
111.2670797323
 20
54.7340655505
 30
0.0
 10
111.2605899998
 20
54.7303187219
 30
0.0
 10
111.2279716402
 20
54.7184935679
 30
0.0
 10
111.1915493215
 20
54.7305966418
 30
0.0
 10
111.1686549544
 20
54.7438144118
 30
0.0
  0
SPLINE
  5
618
100
AcDbEntity
  8
3_AXES_OTHER
100
AcDbSpline
 62
7
  6
CONTINUOUS
 70
0
 71
3
 72
9
 73
5
 74
0
 42
0.0000001
 43
0.0000001
 44
0.0000000001
 40
0.0
 40
0.0
 40
0.0
 40
0.0
 40
0.2295419805
 40
1.0
 40
1.0
 40
1.0
 40
1.0
 10
110.682511399
 20
61.5262501387
 30
0.0
 10
110.6826545435
 20
61.5019658492
 30
0.0
 10
110.6925570698
 20
61.3962867861
 30
0.0
 10
110.732255946
 20
61.2946899829
 30
0.0
 10
110.7730119517
 20
61.2240989022
 30
0.0
  0
SPLINE
  5
619
100
AcDbEntity
  8
3_AXES_OTHER
100
AcDbSpline
 62
7
  6
CONTINUOUS
 70
0
 71
3
 72
8
 73
4
 74
0
 42
0.0000001
 43
0.0000001
 44
0.0000000001
 40
0.0
 40
0.0
 40
0.0
 40
0.0
 40
1.0
 40
1.0
 40
1.0
 40
1.0
 10
111.2100216451
 20
60.9717969459
 30
0.0
 10
111.235555895
 20
60.9865395734
 30
0.0
 10
111.2567139481
 20
61.0101971031
 30
0.0
 10
111.2707088686
 20
61.0361486962
 30
0.0
  0
SPLINE
  5
61A
100
AcDbEntity
  8
3_AXES_OTHER
100
AcDbSpline
 62
7
  6
CONTINUOUS
 70
0
 71
3
 72
11
 73
7
 74
0
 42
0.0000001
 43
0.0000001
 44
0.0000000001
 40
0.0
 40
0.0
 40
0.0
 40
0.0
 40
0.3073965263
 40
0.5848895051
 40
0.8135110311
 40
1.0
 40
1.0
 40
1.0
 40
1.0
 10
110.7730119517
 20
61.2240989022
 30
0.0
 10
110.8010678529
 20
61.1755049255
 30
0.0
 10
110.8647707737
 20
61.088399674
 30
0.0
 10
110.9797351598
 20
60.9920497435
 30
0.0
 10
111.0998062674
 20
60.9426906359
 30
0.0
 10
111.1805411936
 20
60.9547759126
 30
0.0
 10
111.2100216451
 20
60.9717969459
 30
0.0
  0
SPLINE
  5
61B
100
AcDbEntity
  8
7_ALL_ROUNDS
100
AcDbSpline
 62
7
  6
CONTINUOUS
 70
0
 71
3
 72
9
 73
5
 74
0
 42
0.0000001
 43
0.0000001
 44
0.0000000001
 40
0.0
 40
0.0
 40
0.0
 40
0.0
 40
0.7283626656
 40
1.0
 40
1.0
 40
1.0
 40
1.0
 10
105.2195213747
 20
58.6606488184
 30
0.0
 10
105.2195213747
 20
58.6245077299
 30
0.0
 10
105.2503050214
 20
58.5757989989
 30
0.0
 10
105.2903084478
 20
58.5473589264
 30
0.0
 10
105.3017694594
 20
58.540265522
 30
0.0
  0
SPLINE
  5
61C
100
AcDbEntity
  8
7_ALL_ROUNDS
100
AcDbSpline
 62
7
  6
CONTINUOUS
 70
0
 71
3
 72
9
 73
5
 74
0
 42
0.0000001
 43
0.0000001
 44
0.0000000001
 40
0.0
 40
0.0
 40
0.0
 40
0.0
 40
0.2706204425
 40
1.0
 40
1.0
 40
1.0
 40
1.0
 10
105.3017694594
 20
58.540265522
 30
0.0
 10
105.3020330841
 20
58.5279709556
 30
0.0
 10
105.3056813367
 20
58.4831849503
 30
0.0
 10
105.3300124216
 20
58.4361294037
 30
0.0
 10
105.3587162025
 20
58.4195576429
 30
0.0
  0
SPLINE
  5
61D
100
AcDbEntity
  8
7_ALL_ROUNDS
100
AcDbSpline
 62
7
  6
CONTINUOUS
 70
0
 71
3
 72
9
 73
5
 74
0
 42
0.0000001
 43
0.0000001
 44
0.0000000001
 40
0.0
 40
0.0
 40
0.0
 40
0.0
 40
0.2208576349
 40
1.0
 40
1.0
 40
1.0
 40
1.0
 10
122.2663649523
 20
45.864593587
 30
0.0
 10
122.25987507
 20
45.8683404408
 30
0.0
 10
122.2333241561
 20
45.8906767218
 30
0.0
 10
122.2255948426
 20
45.9282721918
 30
0.0
 10
122.2255948426
 20
45.9547089519
 30
0.0
  0
SPLINE
  5
61E
100
AcDbEntity
  8
7_ALL_ROUNDS
100
AcDbSpline
 62
7
  6
CONTINUOUS
 70
0
 71
3
 72
9
 73
5
 74
0
 42
0.0000001
 43
0.0000001
 44
0.0000000001
 40
0.0
 40
0.0
 40
0.0
 40
0.0
 40
0.550823295
 40
1.0
 40
1.0
 40
1.0
 40
1.0
 10
104.9411340372
 20
65.1624217685
 30
0.0
 10
104.9085709108
 20
65.181221673
 30
0.0
 10
104.8435044478
 20
65.2082661081
 30
0.0
 10
104.7708476396
 20
65.1972345249
 30
0.0
 10
104.7442936842
 20
65.1819036842
 30
0.0
  0
SPLINE
  5
61F
100
AcDbEntity
  8
7_ALL_ROUNDS
100
AcDbSpline
 62
7
  6
CONTINUOUS
 70
0
 71
3
 72
8
 73
4
 74
0
 42
0.0000001
 43
0.0000001
 44
0.0000000001
 40
0.0
 40
0.0
 40
0.0
 40
0.0
 40
1.0
 40
1.0
 40
1.0
 40
1.0
 10
124.5578662351
 20
51.241704051
 30
0.0
 10
124.5487565802
 20
51.2469567182
 30
0.0
 10
124.5373626739
 20
51.2487530223
 30
0.0
 10
124.5268982043
 20
51.2477180341
 30
0.0
  0
SPLINE
  5
620
100
AcDbEntity
  8
7_ALL_ROUNDS
100
AcDbSpline
 62
7
  6
CONTINUOUS
 70
0
 71
3
 72
8
 73
4
 74
0
 42
0.0000001
 43
0.0000001
 44
0.0000000001
 40
0.0
 40
0.0
 40
0.0
 40
0.0
 40
1.0
 40
1.0
 40
1.0
 40
1.0
 10
124.5268982043
 20
51.2477180341
 30
0.0
 10
124.5128511444
 20
51.2463287099
 30
0.0
 10
124.4991696789
 20
51.2405083445
 30
0.0
 10
124.4871545594
 20
51.2330997671
 30
0.0
  0
SPLINE
  5
621
100
AcDbEntity
  8
3_ALL_AXES
100
AcDbSpline
 62
7
  6
CONTINUOUS
 70
0
 71
3
 72
9
 73
5
 74
0
 42
0.0000001
 43
0.0000001
 44
0.0000000001
 40
0.0
 40
0.0
 40
0.0
 40
0.0
 40
0.2138199781
 40
1.0
 40
1.0
 40
1.0
 40
1.0
 10
124.4513543803
 20
51.3031973203
 30
0.0
 10
124.4461655882
 20
51.3062655165
 30
0.0
 10
124.4184543406
 20
51.3151475227
 30
0.0
 10
124.3889737312
 20
51.3012628618
 30
0.0
 10
124.3711015776
 20
51.2881542927
 30
0.0
  0
SPLINE
  5
622
100
AcDbEntity
  8
7_ALL_ROUNDS
100
AcDbSpline
 62
7
  6
CONTINUOUS
 70
0
 71
3
 72
8
 73
4
 74
0
 42
0.0000001
 43
0.0000001
 44
0.0000000001
 40
0.0
 40
0.0
 40
0.0
 40
0.0
 40
1.0
 40
1.0
 40
1.0
 40
1.0
 10
124.1928224872
 20
51.0309472029
 30
0.0
 10
124.1837128323
 20
51.0361998702
 30
0.0
 10
124.172318926
 20
51.0379961742
 30
0.0
 10
124.1618544564
 20
51.036961186
 30
0.0
  0
SPLINE
  5
623
100
AcDbEntity
  8
7_ALL_ROUNDS
100
AcDbSpline
 62
7
  6
CONTINUOUS
 70
0
 71
3
 72
8
 73
4
 74
0
 42
0.0000001
 43
0.0000001
 44
0.0000000001
 40
0.0
 40
0.0
 40
0.0
 40
0.0
 40
1.0
 40
1.0
 40
1.0
 40
1.0
 10
124.1618544564
 20
51.036961186
 30
0.0
 10
124.1479020218
 20
51.0355812207
 30
0.0
 10
124.1343090123
 20
51.0298278704
 30
0.0
 10
124.1223587136
 20
51.0224954017
 30
0.0
  0
SPLINE
  5
624
100
AcDbEntity
  8
3_ALL_AXES
100
AcDbSpline
 62
7
  6
CONTINUOUS
 70
0
 71
3
 72
9
 73
5
 74
0
 42
0.0000001
 43
0.0000001
 44
0.0000000001
 40
0.0
 40
0.0
 40
0.0
 40
0.0
 40
0.2193657342
 40
1.0
 40
1.0
 40
1.0
 40
1.0
 10
124.0863106271
 20
51.092440463
 30
0.0
 10
124.0816773188
 20
51.0951120527
 30
0.0
 10
124.0581248975
 20
51.1034224187
 30
0.0
 10
124.0320691753
 20
51.0939423899
 30
0.0
 10
124.0158468097
 20
51.0839886612
 30
0.0
  0
SPLINE
  5
625
100
AcDbEntity
  8
7_ALL_ROUNDS
100
AcDbSpline
 62
7
  6
CONTINUOUS
 70
0
 71
3
 72
9
 73
5
 74
0
 42
0.0000001
 43
0.0000001
 44
0.0000000001
 40
0.0
 40
0.0
 40
0.0
 40
0.0
 40
0.2208589878
 40
1.0
 40
1.0
 40
1.0
 40
1.0
 10
125.8476237872
 20
53.3821263033
 30
0.0
 10
125.8411341148
 20
53.3858730359
 30
0.0
 10
125.8085160344
 20
53.3976978023
 30
0.0
 10
125.7720942476
 20
53.3855945277
 30
0.0
 10
125.7492002282
 20
53.3723767383
 30
0.0
  0
SPLINE
  5
626
100
AcDbEntity
  8
7_ALL_ROUNDS
100
AcDbSpline
 62
7
  6
CONTINUOUS
 70
0
 71
3
 72
8
 73
4
 74
0
 42
0.0000001
 43
0.0000001
 44
0.0000000001
 40
0.0
 40
0.0
 40
0.0
 40
0.0
 40
1.0
 40
1.0
 40
1.0
 40
1.0
 10
123.8277787393
 20
50.8201903549
 30
0.0
 10
123.8186690845
 20
50.8254430221
 30
0.0
 10
123.8072751781
 20
50.8272393262
 30
0.0
 10
123.7968107085
 20
50.826204338
 30
0.0
  0
SPLINE
  5
627
100
AcDbEntity
  8
7_ALL_ROUNDS
100
AcDbSpline
 62
7
  6
CONTINUOUS
 70
0
 71
3
 72
8
 73
4
 74
0
 42
0.0000001
 43
0.0000001
 44
0.0000000001
 40
0.0
 40
0.0
 40
0.0
 40
0.0
 40
1.0
 40
1.0
 40
1.0
 40
1.0
 10
123.7968107085
 20
50.826204338
 30
0.0
 10
123.78769303
 20
50.8253025541
 30
0.0
 10
123.7787088912
 20
50.8224948357
 30
0.0
 10
123.7703666453
 20
50.8187064046
 30
0.0
  0
SPLINE
  5
628
100
AcDbEntity
  8
3_ALL_AXES
100
AcDbSpline
 62
7
  6
CONTINUOUS
 70
0
 71
3
 72
9
 73
5
 74
0
 42
0.0000001
 43
0.0000001
 44
0.0000000001
 40
0.0
 40
0.0
 40
0.0
 40
0.0
 40
0.7120193598
 40
1.0
 40
1.0
 40
1.0
 40
1.0
 10
123.7212668792
 20
50.8816836149
 30
0.0
 10
123.7092207406
 20
50.8886294812
 30
0.0
 10
123.6871300922
 20
50.8893595114
 30
0.0
 10
123.6689755196
 20
50.8825251457
 30
0.0
 10
123.6638547703
 20
50.8801996805
 30
0.0
  0
SPLINE
  5
629
100
AcDbEntity
  8
7_ALL_ROUNDS
100
AcDbSpline
 62
7
  6
CONTINUOUS
 70
0
 71
3
 72
9
 73
5
 74
0
 42
0.0000001
 43
0.0000001
 44
0.0000000001
 40
0.0
 40
0.0
 40
0.0
 40
0.0
 40
0.2208576349
 40
1.0
 40
1.0
 40
1.0
 40
1.0
 10
125.3597221395
 20
52.5370511693
 30
0.0
 10
125.3662120218
 20
52.5333043155
 30
0.0
 10
125.3927629358
 20
52.5109680345
 30
0.0
 10
125.4004922492
 20
52.4733725645
 30
0.0
 10
125.4004922492
 20
52.4469358044
 30
0.0
  0
SPLINE
  5
62A
100
AcDbEntity
  8
7_ALL_ROUNDS
100
AcDbSpline
 62
7
  6
CONTINUOUS
 70
0
 71
3
 72
8
 73
4
 74
0
 42
0.0000001
 43
0.0000001
 44
0.0000000001
 40
0.0
 40
0.0
 40
0.0
 40
0.0
 40
1.0
 40
1.0
 40
1.0
 40
1.0
 10
123.4627349914
 20
50.6094335068
 30
0.0
 10
123.4536253366
 20
50.614686174
 30
0.0
 10
123.4422314302
 20
50.6164824781
 30
0.0
 10
123.4317669606
 20
50.6154474899
 30
0.0
  0
SPLINE
  5
62B
100
AcDbEntity
  8
7_ALL_ROUNDS
100
AcDbSpline
 62
7
  6
CONTINUOUS
 70
0
 71
3
 72
9
 73
5
 74
0
 42
0.0000001
 43
0.0000001
 44
0.0000000001
 40
0.0
 40
0.0
 40
0.0
 40
0.0
 40
0.4906274625
 40
1.0
 40
1.0
 40
1.0
 40
1.0
 10
123.4317669606
 20
50.6154474899
 30
0.0
 10
123.4298068655
 20
50.6152536267
 30
0.0
 10
123.4258281919
 20
50.6146774598
 30
0.0
 10
123.4219108611
 20
50.6137789676
 30
0.0
 10
123.4199358995
 20
50.6132486911
 30
0.0
  0
SPLINE
  5
62C
100
AcDbEntity
  8
3_ALL_AXES
100
AcDbSpline
 62
7
  6
CONTINUOUS
 70
0
 71
3
 72
8
 73
4
 74
0
 42
0.0000001
 43
0.0000001
 44
0.0000000001
 40
0.0
 40
0.0
 40
0.0
 40
0.0
 40
1.0
 40
1.0
 40
1.0
 40
1.0
 10
123.3562231313
 20
50.6709267669
 30
0.0
 10
123.3438150882
 20
50.6780813091
 30
0.0
 10
123.327256983
 20
50.6784561177
 30
0.0
 10
123.3134239793
 20
50.6747419537
 30
0.0
  0
LINE
  5
62D
100
AcDbEntity
  8
3_AXES_OTHER
100
AcDbLine
 62
7
  6
CONTINUOUS
 10
104.2302780933
 20
55.962793761
 11
104.2233487287
 21
55.9572804188
  0
SPLINE
  5
62E
100
AcDbEntity
  8
3_AXES_OTHER
100
AcDbSpline
 62
7
  6
CONTINUOUS
 70
0
 71
3
 72
9
 73
5
 74
0
 42
0.0000001
 43
0.0000001
 44
0.0000000001
 40
0.0
 40
0.0
 40
0.0
 40
0.0
 40
0.2462822571
 40
1.0
 40
1.0
 40
1.0
 40
1.0
 10
103.9372427782
 20
55.6925297767
 30
0.0
 10
103.9093473745
 20
55.6627580551
 30
0.0
 10
103.7987214821
 20
55.5394167314
 30
0.0
 10
103.6988134193
 20
55.4065417836
 30
0.0
 10
103.6297919063
 20
55.3024950797
 30
0.0
  0
SPLINE
  5
62F
100
AcDbEntity
  8
3_ALL_AXES
100
AcDbSpline
 62
7
  6
CONTINUOUS
 70
0
 71
3
 72
11
 73
7
 74
0
 42
0.0000001
 43
0.0000001
 44
0.0000000001
 40
0.0
 40
0.0
 40
0.0
 40
0.0
 40
0.2183132599
 40
0.4538305896
 40
0.7134847969
 40
1.0
 40
1.0
 40
1.0
 40
1.0
 10
104.602159424
 20
55.3695321424
 30
0.0
 10
104.4128761987
 20
55.2182700206
 30
0.0
 10
104.0667285112
 20
54.8411369855
 30
0.0
 10
103.7028106106
 20
54.1294262014
 30
0.0
 10
103.4853700904
 20
53.2836879525
 30
0.0
 10
103.4420591018
 20
52.6759401625
 30
0.0
 10
103.4420591018
 20
52.3579471595
 30
0.0
  0
SPLINE
  5
630
100
AcDbEntity
  8
3_ALL_AXES
100
AcDbSpline
 62
7
  6
CONTINUOUS
 70
0
 71
3
 72
16
 73
12
 74
0
 42
0.0000001
 43
0.0000001
 44
0.0000000001
 40
0.0
 40
0.0
 40
0.0
 40
0.0
 40
0.0428789198
 40
0.087527949
 40
0.1869354526
 40
0.3042519325
 40
0.4379803511
 40
0.5823894491
 40
0.7296087396
 40
0.8712608516
 40
1.0
 40
1.0
 40
1.0
 40
1.0
 10
111.6013115098
 20
43.2395670109
 30
0.0
 10
111.4283481176
 20
43.1397068643
 30
0.0
 10
111.0470796013
 20
42.981237351
 30
0.0
 10
110.1780658799
 20
42.8538481116
 30
0.0
 10
108.9512431987
 20
43.0933810317
 30
0.0
 10
107.5060813144
 20
43.8861359654
 30
0.0
 10
106.1169199945
 20
45.1148577664
 30
0.0
 10
104.891579791
 20
46.6840457191
 30
0.0
 10
103.9265121258
 20
48.4675131699
 30
0.0
 10
103.3004787082
 20
50.3188424804
 30
0.0
 10
103.1327011731
 20
51.5797011418
 30
0.0
 10
103.1327011731
 20
52.1793403422
 30
0.0
  0
SPLINE
  5
631
100
AcDbEntity
  8
3_ALL_AXES
100
AcDbSpline
 62
7
  6
CONTINUOUS
 70
0
 71
3
 72
18
 73
14
 74
0
 42
0.0000001
 43
0.0000001
 44
0.0000000001
 40
0.0
 40
0.0
 40
0.0
 40
0.0
 40
0.1139763862
 40
0.1626455383
 40
0.208104037
 40
0.253560998
 40
0.302233836
 40
0.3563483729
 40
0.4168400305
 40
0.5551764629
 40
0.7084188618
 40
0.8616592228
 40
1.0
 40
1.0
 40
1.0
 40
1.0
 10
108.1067790846
 20
51.1198618728
 30
0.0
 10
108.1067790846
 20
51.3300352681
 30
0.0
 10
108.1513788843
 20
51.6395339901
 30
0.0
 10
108.3542413434
 20
51.9712990785
 30
0.0
 10
108.5551244792
 20
52.1402952829
 30
0.0
 10
108.801849469
 20
52.2297520561
 30
0.0
 10
109.0790375382
 20
52.2368133001
 30
0.0
 10
109.3743737883
 20
52.1655675555
 30
0.0
 10
109.797741099
 20
51.9637985488
 30
0.0
 10
110.3017854263
 20
51.5389594252
 30
0.0
 10
110.7900592352
 20
50.8721022603
 30
0.0
 10
111.1235091957
 20
50.1160722373
 30
0.0
 10
111.2192032728
 20
49.5780451147
 30
0.0
 10
111.2192032728
 20
49.3229435816
 30
0.0
  0
SPLINE
  5
632
100
AcDbEntity
  8
3_ALL_AXES
100
AcDbSpline
 62
7
  6
CONTINUOUS
 70
0
 71
3
 72
15
 73
11
 74
0
 42
0.0000001
 43
0.0000001
 44
0.0000000001
 40
0.0
 40
0.0
 40
0.0
 40
0.0
 40
0.1269871728
 40
0.2665000856
 40
0.4118815661
 40
0.5554631653
 40
0.6898755505
 40
0.8094094322
 40
0.9117084356
 40
1.0
 40
1.0
 40
1.0
 40
1.0
 10
103.4420591018
 20
52.3579471595
 30
0.0
 10
103.4420591018
 20
51.7813872052
 30
0.0
 10
103.5972619192
 20
50.5700093305
 30
0.0
 10
104.1807228292
 20
48.7844962086
 30
0.0
 10
105.0843793182
 20
47.0518290773
 30
0.0
 10
106.2398749778
 20
45.504857975
 30
0.0
 10
107.5604232857
 20
44.2590251187
 30
0.0
 10
108.9530843117
 20
43.4079632869
 30
0.0
 10
110.3293500703
 20
43.0149396995
 30
0.0
 10
111.2228551852
 20
43.119595393
 30
0.0
 10
111.5958586228
 20
43.2664470082
 30
0.0
  0
SPLINE
  5
633
100
AcDbEntity
  8
3_ALL_AXES
100
AcDbSpline
 62
7
  6
CONTINUOUS
 70
0
 71
3
 72
18
 73
14
 74
0
 42
0.0000001
 43
0.0000001
 44
0.0000000001
 40
0.0
 40
0.0
 40
0.0
 40
0.0
 40
0.1383407772
 40
0.2915811382
 40
0.4448235371
 40
0.5831599695
 40
0.6436516271
 40
0.697766164
 40
0.746439002
 40
0.791895963
 40
0.8373544617
 40
0.8860236138
 40
1.0
 40
1.0
 40
1.0
 40
1.0
 10
108.1067790846
 20
51.1198618728
 30
0.0
 10
108.1067790846
 20
50.8647603397
 30
0.0
 10
108.2024731617
 20
50.3267332171
 30
0.0
 10
108.5359231222
 20
49.5707031941
 30
0.0
 10
109.0241969311
 20
48.9038460292
 30
0.0
 10
109.5282412584
 20
48.4790069056
 30
0.0
 10
109.9516085691
 20
48.2772378989
 30
0.0
 10
110.2469448192
 20
48.2059921543
 30
0.0
 10
110.5241328884
 20
48.2130533983
 30
0.0
 10
110.7708578782
 20
48.3025101715
 30
0.0
 10
110.971741014
 20
48.4715063759
 30
0.0
 10
111.1746034731
 20
48.8032714643
 30
0.0
 10
111.2192032728
 20
49.1127701862
 30
0.0
 10
111.2192032728
 20
49.3229435816
 30
0.0
  0
SPLINE
  5
634
100
AcDbEntity
  8
3_ALL_AXES
100
AcDbSpline
 62
7
  6
CONTINUOUS
 70
0
 71
3
 72
13
 73
9
 74
0
 42
0.0000001
 43
0.0000001
 44
0.0000000001
 40
0.0
 40
0.0
 40
0.0
 40
0.0
 40
0.3074837383
 40
0.580736099
 40
0.700422531
 40
0.8084870131
 40
0.9069940909
 40
1.0
 40
1.0
 40
1.0
 40
1.0
 10
111.2944325041
 20
52.4289854689
 30
0.0
 10
110.8006028626
 20
53.1388876844
 30
0.0
 10
109.7323848957
 20
54.3912056123
 30
0.0
 10
108.1200181353
 20
55.572033117
 30
0.0
 10
106.8050591786
 20
56.0985621119
 30
0.0
 10
105.8944674872
 20
56.2632242272
 30
0.0
 10
105.0440102715
 20
56.2045064068
 30
0.0
 10
104.5315761396
 20
56.0085445055
 30
0.0
 10
104.3050410782
 20
55.8777728501
 30
0.0
  0
SPLINE
  5
635
100
AcDbEntity
  8
3_ALL_AXES
100
AcDbSpline
 62
7
  6
CONTINUOUS
 70
0
 71
3
 72
11
 73
7
 74
0
 42
0.0000001
 43
0.0000001
 44
0.0000000001
 40
0.0
 40
0.0
 40
0.0
 40
0.0
 40
0.289808138
 40
0.549044907
 40
0.7822281941
 40
1.0
 40
1.0
 40
1.0
 40
1.0
 10
103.1327011731
 20
52.1793403422
 30
0.0
 10
103.1327011731
 20
52.5349434729
 30
0.0
 10
103.1863899118
 20
53.2109687519
 30
0.0
 10
103.4605023497
 20
54.1397019066
 30
0.0
 10
103.921182342
 20
54.8934335692
 30
0.0
 10
104.3543181948
 20
55.2573756705
 30
0.0
 10
104.585731127
 20
55.3909815685
 30
0.0
  0
SPLINE
  5
636
100
AcDbEntity
  8
3_AXES_OTHER
100
AcDbSpline
 62
7
  6
CONTINUOUS
 70
0
 71
3
 72
14
 73
10
 74
0
 42
0.0000001
 43
0.0000001
 44
0.0000000001
 40
0.0
 40
0.0
 40
0.0
 40
0.0
 40
0.304791731
 40
0.4492041083
 40
0.5833481275
 40
0.7049095699
 40
0.8132401731
 40
0.9100595221
 40
1.0
 40
1.0
 40
1.0
 40
1.0
 10
104.1296038294
 20
46.3998324846
 30
0.0
 10
103.5726233934
 20
47.2798096974
 30
0.0
 10
102.8959463333
 20
48.6796127736
 30
0.0
 10
102.3808652806
 20
50.6096726755
 30
0.0
 10
102.2183799705
 20
51.972811526
 30
0.0
 10
102.2806878398
 20
53.2222186531
 30
0.0
 10
102.5700519294
 20
54.3112462958
 30
0.0
 10
103.0846472824
 20
55.1952983542
 30
0.0
 10
103.5813983092
 20
55.6202210834
 30
0.0
 10
103.8474436064
 20
55.774047652
 30
0.0
  0
SPLINE
  5
637
100
AcDbEntity
  8
7_ALL_ROUNDS
100
AcDbSpline
 62
7
  6
CONTINUOUS
 70
0
 71
3
 72
9
 73
5
 74
0
 42
0.0000001
 43
0.0000001
 44
0.0000000001
 40
0.0
 40
0.0
 40
0.0
 40
0.0
 40
0.2406935903
 40
1.0
 40
1.0
 40
1.0
 40
1.0
 10
122.5062104563
 20
51.5000468968
 30
0.0
 10
122.4864506542
 20
51.4886386379
 30
0.0
 10
122.4137102535
 20
51.4272365635
 30
0.0
 10
122.3670167876
 20
51.3309337279
 30
0.0
 10
122.3670167876
 20
51.2589550521
 30
0.0
  0
SPLINE
  5
638
100
AcDbEntity
  8
7_ALL_ROUNDS
100
AcDbSpline
 62
7
  6
CONTINUOUS
 70
0
 71
3
 72
9
 73
5
 74
0
 42
0.0000001
 43
0.0000001
 44
0.0000000001
 40
0.0
 40
0.0
 40
0.0
 40
0.0
 40
0.2949656342
 40
1.0
 40
1.0
 40
1.0
 40
1.0
 10
122.3670167876
 20
45.8730608009
 30
0.0
 10
122.3670167876
 20
45.863106064
 30
0.0
 10
122.3692487718
 20
45.8298078187
 30
0.0
 10
122.3871805201
 20
45.7948422747
 30
0.0
 10
122.4077868973
 20
45.7829454361
 30
0.0
  0
SPLINE
  5
639
100
AcDbEntity
  8
3_ALL_AXES
100
AcDbSpline
 62
7
  6
CONTINUOUS
 70
0
 71
3
 72
13
 73
9
 74
0
 42
0.0000001
 43
0.0000001
 44
0.0000000001
 40
0.0
 40
0.0
 40
0.0
 40
0.0
 40
0.3073724903
 40
0.5790202798
 40
0.6982622042
 40
0.8064738952
 40
0.9057707025
 40
1.0
 40
1.0
 40
1.0
 40
1.0
 10
111.2925548982
 20
53.0357597233
 30
0.0
 10
110.8023822673
 20
53.6812204268
 30
0.0
 10
109.7605931517
 20
54.8128457577
 30
0.0
 10
108.2158009026
 20
55.862153365
 30
0.0
 10
106.9722592941
 20
56.3131630279
 30
0.0
 10
106.1134091065
 20
56.4426558281
 30
0.0
 10
105.3123899872
 20
56.3698441722
 30
0.0
 10
104.829304307
 20
56.1804652079
 30
0.0
 10
104.6141263896
 20
56.0562324151
 30
0.0
  0
SPLINE
  5
63A
100
AcDbEntity
  8
7_ALL_ROUNDS
100
AcDbSpline
 62
7
  6
CONTINUOUS
 70
0
 71
3
 72
8
 73
4
 74
0
 42
0.0000001
 43
0.0000001
 44
0.0000000001
 40
0.0
 40
0.0
 40
0.0
 40
0.0
 40
1.0
 40
1.0
 40
1.0
 40
1.0
 10
123.4465373898
 20
50.4167698565
 30
0.0
 10
123.4535414882
 20
50.4238142041
 30
0.0
 10
123.4598292554
 20
50.4316262541
 30
0.0
 10
123.4653370689
 20
50.4398933103
 30
0.0
  0
SPLINE
  5
63B
100
AcDbEntity
  8
7_ALL_ROUNDS
100
AcDbSpline
 62
7
  6
CONTINUOUS
 70
0
 71
3
 72
9
 73
5
 74
0
 42
0.0000001
 43
0.0000001
 44
0.0000000001
 40
0.0
 40
0.0
 40
0.0
 40
0.0
 40
0.7716853864
 40
1.0
 40
1.0
 40
1.0
 40
1.0
 10
123.4653370689
 20
50.4398933103
 30
0.0
 10
123.4767987218
 20
50.4570968935
 30
0.0
 10
123.4879404192
 20
50.4826131106
 30
0.0
 10
123.4906953868
 20
50.5093711748
 30
0.0
 10
123.4906953868
 20
50.5154873022
 30
0.0
  0
SPLINE
  5
63C
100
AcDbEntity
  8
7_ALL_ROUNDS
100
AcDbSpline
 62
7
  6
CONTINUOUS
 70
0
 71
3
 72
9
 73
5
 74
0
 42
0.0000001
 43
0.0000001
 44
0.0000000001
 40
0.0
 40
0.0
 40
0.0
 40
0.0
 40
0.5406613003
 40
1.0
 40
1.0
 40
1.0
 40
1.0
 10
123.4906953868
 20
50.5154873022
 30
0.0
 10
123.4906953868
 20
50.5286619505
 30
0.0
 10
123.48574452
 20
50.5565669802
 30
0.0
 10
123.457618485
 20
50.5648638155
 30
0.0
 10
123.4465473026
 20
50.5632169005
 30
0.0
  0
SPLINE
  5
63D
100
AcDbEntity
  8
7_ALL_ROUNDS
100
AcDbSpline
 62
7
  6
CONTINUOUS
 70
0
 71
3
 72
8
 73
4
 74
0
 42
0.0000001
 43
0.0000001
 44
0.0000000001
 40
0.0
 40
0.0
 40
0.0
 40
0.0
 40
1.0
 40
1.0
 40
1.0
 40
1.0
 10
123.8032988675
 20
50.6198787865
 30
0.0
 10
123.8137428689
 20
50.6286892274
 30
0.0
 10
123.8228048595
 20
50.639278883
 30
0.0
 10
123.8303808168
 20
50.6506501584
 30
0.0
  0
SPLINE
  5
63E
100
AcDbEntity
  8
7_ALL_ROUNDS
100
AcDbSpline
 62
7
  6
CONTINUOUS
 70
0
 71
3
 72
9
 73
5
 74
0
 42
0.0000001
 43
0.0000001
 44
0.0000000001
 40
0.0
 40
0.0
 40
0.0
 40
0.0
 40
0.7716853864
 40
1.0
 40
1.0
 40
1.0
 40
1.0
 10
123.8303808168
 20
50.6506501584
 30
0.0
 10
123.8418424697
 20
50.6678537416
 30
0.0
 10
123.8529841671
 20
50.6933699587
 30
0.0
 10
123.8557391347
 20
50.7201280228
 30
0.0
 10
123.8557391347
 20
50.7262441503
 30
0.0
  0
SPLINE
  5
63F
100
AcDbEntity
  8
7_ALL_ROUNDS
100
AcDbSpline
 62
7
  6
CONTINUOUS
 70
0
 71
3
 72
9
 73
5
 74
0
 42
0.0000001
 43
0.0000001
 44
0.0000000001
 40
0.0
 40
0.0
 40
0.0
 40
0.0
 40
0.5279686878
 40
1.0
 40
1.0
 40
1.0
 40
1.0
 10
123.8557391347
 20
50.7262441503
 30
0.0
 10
123.8557391347
 20
50.7405255498
 30
0.0
 10
123.8487109459
 20
50.7727992365
 30
0.0
 10
123.8152083308
 20
50.7758209547
 30
0.0
 10
123.803033401
 20
50.7719737716
 30
0.0
  0
SPLINE
  5
640
100
AcDbEntity
  8
7_ALL_ROUNDS
100
AcDbSpline
 62
7
  6
CONTINUOUS
 70
0
 71
3
 72
9
 73
5
 74
0
 42
0.0000001
 43
0.0000001
 44
0.0000000001
 40
0.0
 40
0.0
 40
0.0
 40
0.0
 40
0.2406941623
 40
1.0
 40
1.0
 40
1.0
 40
1.0
 10
105.080328865
 20
58.2588315981
 30
0.0
 10
105.0605689274
 20
58.2702397453
 30
0.0
 10
104.9878280542
 20
58.3316412897
 30
0.0
 10
104.9411340372
 20
58.4279441293
 30
0.0
 10
104.9411340372
 20
58.4999227736
 30
0.0
  0
SPLINE
  5
641
100
AcDbEntity
  8
7_ALL_ROUNDS
100
AcDbSpline
 62
7
  6
CONTINUOUS
 70
0
 71
3
 72
8
 73
4
 74
0
 42
0.0000001
 43
0.0000001
 44
0.0000000001
 40
0.0
 40
0.0
 40
0.0
 40
0.0
 40
1.0
 40
1.0
 40
1.0
 40
1.0
 10
124.1531611018
 20
50.819884654
 30
0.0
 10
124.1585312711
 20
50.8229850747
 30
0.0
 10
124.1636029332
 20
50.8266372926
 30
0.0
 10
124.1683426154
 20
50.8306356346
 30
0.0
  0
SPLINE
  5
642
100
AcDbEntity
  8
7_ALL_ROUNDS
100
AcDbSpline
 62
7
  6
CONTINUOUS
 70
0
 71
3
 72
8
 73
4
 74
0
 42
0.0000001
 43
0.0000001
 44
0.0000000001
 40
0.0
 40
0.0
 40
0.0
 40
0.0
 40
1.0
 40
1.0
 40
1.0
 40
1.0
 10
124.1683426154
 20
50.8306356346
 30
0.0
 10
124.1787866168
 20
50.8394460755
 30
0.0
 10
124.1878486074
 20
50.850035731
 30
0.0
 10
124.1954245647
 20
50.8614070065
 30
0.0
  0
SPLINE
  5
643
100
AcDbEntity
  8
7_ALL_ROUNDS
100
AcDbSpline
 62
7
  6
CONTINUOUS
 70
0
 71
3
 72
9
 73
5
 74
0
 42
0.0000001
 43
0.0000001
 44
0.0000000001
 40
0.0
 40
0.0
 40
0.0
 40
0.0
 40
0.7716853864
 40
1.0
 40
1.0
 40
1.0
 40
1.0
 10
124.1954245647
 20
50.8614070065
 30
0.0
 10
124.2068862176
 20
50.8786105897
 30
0.0
 10
124.218027915
 20
50.9041268068
 30
0.0
 10
124.2207828826
 20
50.9308848709
 30
0.0
 10
124.2207828826
 20
50.9370009984
 30
0.0
  0
SPLINE
  5
644
100
AcDbEntity
  8
7_ALL_ROUNDS
100
AcDbSpline
 62
7
  6
CONTINUOUS
 70
0
 71
3
 72
9
 73
5
 74
0
 42
0.0000001
 43
0.0000001
 44
0.0000000001
 40
0.0
 40
0.0
 40
0.0
 40
0.0
 40
0.5279686878
 40
1.0
 40
1.0
 40
1.0
 40
1.0
 10
124.2207828826
 20
50.9370009984
 30
0.0
 10
124.2207828826
 20
50.9512823979
 30
0.0
 10
124.2137546938
 20
50.9835560846
 30
0.0
 10
124.1802520787
 20
50.9865778027
 30
0.0
 10
124.1680771489
 20
50.9827306197
 30
0.0
  0
SPLINE
  5
645
100
AcDbEntity
  8
7_ALL_ROUNDS
100
AcDbSpline
 62
7
  6
CONTINUOUS
 70
0
 71
3
 72
8
 73
4
 74
0
 42
0.0000001
 43
0.0000001
 44
0.0000000001
 40
0.0
 40
0.0
 40
0.0
 40
0.0
 40
1.0
 40
1.0
 40
1.0
 40
1.0
 10
124.1680771489
 20
50.9827306197
 30
0.0
 10
124.1628804179
 20
50.9810884931
 30
0.0
 10
124.1578808006
 20
50.9787600234
 30
0.0
 10
124.1531610422
 20
50.9760348676
 30
0.0
  0
SPLINE
  5
646
100
AcDbEntity
  8
7_ALL_ROUNDS
100
AcDbSpline
 62
7
  6
CONTINUOUS
 70
0
 71
3
 72
9
 73
5
 74
0
 42
0.0000001
 43
0.0000001
 44
0.0000000001
 40
0.0
 40
0.0
 40
0.0
 40
0.0
 40
0.2182926102
 40
1.0
 40
1.0
 40
1.0
 40
1.0
 10
124.5032917957
 20
51.0239475126
 30
0.0
 10
124.5085370202
 20
51.0256049627
 30
0.0
 10
124.5315369898
 20
51.0363810164
 30
0.0
 10
124.5495463582
 20
51.0557703419
 30
0.0
 10
124.5604683126
 20
51.0721638545
 30
0.0
  0
SPLINE
  5
647
100
AcDbEntity
  8
7_ALL_ROUNDS
100
AcDbSpline
 62
7
  6
CONTINUOUS
 70
0
 71
3
 72
9
 73
5
 74
0
 42
0.0000001
 43
0.0000001
 44
0.0000000001
 40
0.0
 40
0.0
 40
0.0
 40
0.0
 40
0.7716853864
 40
1.0
 40
1.0
 40
1.0
 40
1.0
 10
124.5604683126
 20
51.0721638545
 30
0.0
 10
124.5719299655
 20
51.0893674377
 30
0.0
 10
124.5830716629
 20
51.1148836548
 30
0.0
 10
124.5858266305
 20
51.141641719
 30
0.0
 10
124.5858266305
 20
51.1477578464
 30
0.0
  0
SPLINE
  5
648
100
AcDbEntity
  8
7_ALL_ROUNDS
100
AcDbSpline
 62
7
  6
CONTINUOUS
 70
0
 71
3
 72
9
 73
5
 74
0
 42
0.0000001
 43
0.0000001
 44
0.0000000001
 40
0.0
 40
0.0
 40
0.0
 40
0.0
 40
0.5279686878
 40
1.0
 40
1.0
 40
1.0
 40
1.0
 10
124.5858266305
 20
51.1477578464
 30
0.0
 10
124.5858266305
 20
51.1620392459
 30
0.0
 10
124.5787984417
 20
51.1943129326
 30
0.0
 10
124.5452958266
 20
51.1973346508
 30
0.0
 10
124.5331208968
 20
51.1934874677
 30
0.0
  0
SPLINE
  5
649
100
AcDbEntity
  8
7_ALL_ROUNDS
100
AcDbSpline
 62
7
  6
CONTINUOUS
 70
0
 71
3
 72
8
 73
4
 74
0
 42
0.0000001
 43
0.0000001
 44
0.0000000001
 40
0.0
 40
0.0
 40
0.0
 40
0.0
 40
1.0
 40
1.0
 40
1.0
 40
1.0
 10
124.5331208968
 20
51.1934874677
 30
0.0
 10
124.5235021066
 20
51.1904480049
 30
0.0
 10
124.5145503752
 20
51.1851256562
 30
0.0
 10
124.5065891491
 20
51.1789306308
 30
0.0
  0
SPLINE
  5
64A
100
AcDbEntity
  8
7_ALL_ROUNDS
100
AcDbSpline
 62
7
  6
CONTINUOUS
 70
0
 71
3
 72
9
 73
5
 74
0
 42
0.0000001
 43
0.0000001
 44
0.0000000001
 40
0.0
 40
0.0
 40
0.0
 40
0.0
 40
0.2949645658
 40
1.0
 40
1.0
 40
1.0
 40
1.0
 10
104.9411340372
 20
64.6802353017
 30
0.0
 10
104.9411340372
 20
64.6901899949
 30
0.0
 10
104.9433660422
 20
64.7234882336
 30
0.0
 10
104.961297779
 20
64.7584536386
 30
0.0
 10
104.9819040871
 20
64.7703506321
 30
0.0
  0
SPLINE
  5
64B
100
AcDbEntity
  8
7_ALL_ROUNDS
100
AcDbSpline
 62
7
  6
CONTINUOUS
 70
0
 71
3
 72
9
 73
5
 74
0
 42
0.0000001
 43
0.0000001
 44
0.0000000001
 40
0.0
 40
0.0
 40
0.0
 40
0.0
 40
0.2208302547
 40
1.0
 40
1.0
 40
1.0
 40
1.0
 10
105.4770046234
 20
75.0557252896
 30
0.0
 10
105.4852410111
 20
75.0603263726
 30
0.0
 10
105.5264525034
 20
75.0747355681
 30
0.0
 10
105.5721345944
 20
75.0594105931
 30
0.0
 10
105.6009630402
 20
75.0427668586
 30
0.0
  0
SPLINE
  5
64C
100
AcDbEntity
  8
7_ALL_ROUNDS
100
AcDbSpline
 62
7
  6
CONTINUOUS
 70
0
 71
3
 72
9
 73
5
 74
0
 42
0.0000001
 43
0.0000001
 44
0.0000000001
 40
0.0
 40
0.0
 40
0.0
 40
0.0
 40
0.2949638736
 40
1.0
 40
1.0
 40
1.0
 40
1.0
 10
125.6077782831
 20
53.4540248892
 30
0.0
 10
125.6163989715
 20
53.4590020162
 30
0.0
 10
125.6463510294
 20
53.4737175518
 30
0.0
 10
125.6855961977
 20
53.4756708697
 30
0.0
 10
125.7062018422
 20
53.4637744542
 30
0.0
  0
SPLINE
  5
64D
100
AcDbEntity
  8
7_ALL_ROUNDS
100
AcDbSpline
 62
7
  6
CONTINUOUS
 70
0
 71
3
 72
9
 73
5
 74
0
 42
0.0000001
 43
0.0000001
 44
0.0000000001
 40
0.0
 40
0.0
 40
0.0
 40
0.0
 40
0.2406960175
 40
1.0
 40
1.0
 40
1.0
 40
1.0
 10
122.2255948426
 20
51.3406032031
 30
0.0
 10
122.2255948426
 20
51.3634200497
 30
0.0
 10
122.2424001574
 20
51.4571160244
 30
0.0
 10
122.3024532655
 20
51.5457059916
 30
0.0
 10
122.3647885113
 20
51.5816950477
 30
0.0
  0
SPLINE
  5
64E
100
AcDbEntity
  8
7_ALL_ROUNDS
100
AcDbSpline
 62
7
  6
CONTINUOUS
 70
0
 71
3
 72
9
 73
5
 74
0
 42
0.0000001
 43
0.0000001
 44
0.0000000001
 40
0.0
 40
0.0
 40
0.0
 40
0.0
 40
0.2406960175
 40
1.0
 40
1.0
 40
1.0
 40
1.0
 10
125.4004922492
 20
48.1878148889
 30
0.0
 10
125.4004922492
 20
48.1649980422
 30
0.0
 10
125.3836869344
 20
48.0713020675
 30
0.0
 10
125.3236338263
 20
47.9827121003
 30
0.0
 10
125.2612985805
 20
47.9467230442
 30
0.0
  0
SPLINE
  5
64F
100
AcDbEntity
  8
7_ALL_ROUNDS
100
AcDbSpline
 62
7
  6
CONTINUOUS
 70
0
 71
3
 72
9
 73
5
 74
0
 42
0.0000001
 43
0.0000001
 44
0.0000000001
 40
0.0
 40
0.0
 40
0.0
 40
0.0
 40
0.2949638736
 40
1.0
 40
1.0
 40
1.0
 40
1.0
 10
122.994112104
 20
46.6377701351
 30
0.0
 10
122.9854914157
 20
46.6327930081
 30
0.0
 10
122.9555393578
 20
46.6180774725
 30
0.0
 10
122.9162941895
 20
46.6161241545
 30
0.0
 10
122.895688545
 20
46.6280205701
 30
0.0
  0
SPLINE
  5
650
100
AcDbEntity
  8
7_ALL_ROUNDS
100
AcDbSpline
 62
7
  6
CONTINUOUS
 70
0
 71
3
 72
9
 73
5
 74
0
 42
0.0000001
 43
0.0000001
 44
0.0000000001
 40
0.0
 40
0.0
 40
0.0
 40
0.0
 40
0.5000011283
 40
1.0
 40
1.0
 40
1.0
 40
1.0
 10
118.7233707821
 20
58.1237801933
 30
0.0
 10
118.7233707821
 20
58.1843669906
 30
0.0
 10
118.6819594592
 20
58.3039957528
 30
0.0
 10
118.5990631163
 20
58.3996732383
 30
0.0
 10
118.5465933508
 20
58.4299659862
 30
0.0
  0
SPLINE
  5
651
100
AcDbEntity
  8
7_ALL_ROUNDS
100
AcDbSpline
 62
7
  6
CONTINUOUS
 70
0
 71
3
 72
9
 73
5
 74
0
 42
0.0000001
 43
0.0000001
 44
0.0000000001
 40
0.0
 40
0.0
 40
0.0
 40
0.0
 40
0.4999757121
 40
1.0
 40
1.0
 40
1.0
 40
1.0
 10
118.5465933508
 20
58.4299659862
 30
0.0
 10
118.4941262766
 20
58.3996742876
 30
0.0
 10
118.4112304251
 20
58.3039974595
 30
0.0
 10
118.3698173915
 20
58.1843688979
 30
0.0
 10
118.3698173915
 20
58.1237793434
 30
0.0
  0
SPLINE
  5
652
100
AcDbEntity
  8
7_ALL_ROUNDS
100
AcDbSpline
 62
7
  6
CONTINUOUS
 70
0
 71
3
 72
9
 73
5
 74
0
 42
0.0000001
 43
0.0000001
 44
0.0000000001
 40
0.0
 40
0.0
 40
0.0
 40
0.0
 40
0.5000231597
 40
1.0
 40
1.0
 40
1.0
 40
1.0
 10
118.3698173915
 20
58.1237793434
 30
0.0
 10
118.4222896142
 20
58.0934851769
 30
0.0
 10
118.5465975473
 20
58.0695369144
 30
0.0
 10
118.6709036385
 20
58.0934884546
 30
0.0
 10
118.7233707821
 20
58.1237801933
 30
0.0
  0
SPLINE
  5
653
100
AcDbEntity
  8
7_ALL_ROUNDS
100
AcDbSpline
 62
7
  6
CONTINUOUS
 70
0
 71
3
 72
9
 73
5
 74
0
 42
0.0000001
 43
0.0000001
 44
0.0000000001
 40
0.0
 40
0.0
 40
0.0
 40
0.0
 40
0.2948876506
 40
1.0
 40
1.0
 40
1.0
 40
1.0
 10
105.6009630402
 20
75.0427668586
 30
0.0
 10
105.6118170328
 20
75.0490333768
 30
0.0
 10
105.6495340071
 20
75.0676024926
 30
0.0
 10
105.6987577495
 20
75.0703411042
 30
0.0
 10
105.7249204248
 20
75.0557258855
 30
0.0
  0
SPLINE
  5
654
100
AcDbEntity
  8
7_ALL_ROUNDS
100
AcDbSpline
 62
7
  6
CONTINUOUS
 70
0
 71
3
 72
9
 73
5
 74
0
 42
0.0000001
 43
0.0000001
 44
0.0000000001
 40
0.0
 40
0.0
 40
0.0
 40
0.0
 40
0.2953370352
 40
1.0
 40
1.0
 40
1.0
 40
1.0
 10
97.6864110355
 20
70.4733254041
 30
0.0
 10
97.6754493378
 20
70.479654
 30
0.0
 10
97.6374242706
 20
70.4983777578
 30
0.0
 10
97.5875865635
 20
70.500797423
 30
0.0
 10
97.5614293994
 20
70.4857027771
 30
0.0
  0
SPLINE
  5
655
100
AcDbEntity
  8
7_ALL_ROUNDS
100
AcDbSpline
 62
7
  6
CONTINUOUS
 70
0
 71
3
 72
9
 73
5
 74
0
 42
0.0000001
 43
0.0000001
 44
0.0000000001
 40
0.0
 40
0.0
 40
0.0
 40
0.0
 40
0.5000016719
 40
1.0
 40
1.0
 40
1.0
 40
1.0
 10
97.5096350762
 20
70.1671387613
 30
0.0
 10
97.5096350762
 20
70.2277255972
 30
0.0
 10
97.551045988
 20
70.3473543063
 30
0.0
 10
97.6339415691
 20
70.4430323244
 30
0.0
 10
97.6864110355
 20
70.4733254041
 30
0.0
  0
SPLINE
  5
656
100
AcDbEntity
  8
7_ALL_ROUNDS
100
AcDbSpline
 62
7
  6
CONTINUOUS
 70
0
 71
3
 72
9
 73
5
 74
0
 42
0.0000001
 43
0.0000001
 44
0.0000000001
 40
0.0
 40
0.0
 40
0.0
 40
0.0
 40
0.4999994563
 40
1.0
 40
1.0
 40
1.0
 40
1.0
 10
118.7233707821
 20
36.354411339
 30
0.0
 10
118.6709012463
 20
36.3241182192
 30
0.0
 10
118.5465942598
 20
36.300167508
 30
0.0
 10
118.4222872598
 20
36.3241176819
 30
0.0
 10
118.3698173915
 20
36.3544104891
 30
0.0
  0
SPLINE
  5
657
100
AcDbEntity
  8
7_ALL_ROUNDS
100
AcDbSpline
 62
7
  6
CONTINUOUS
 70
0
 71
3
 72
9
 73
5
 74
0
 42
0.0000001
 43
0.0000001
 44
0.0000000001
 40
0.0
 40
0.0
 40
0.0
 40
0.0
 40
0.2953393093
 40
1.0
 40
1.0
 40
1.0
 40
1.0
 10
118.3698173915
 20
36.3544104891
 30
0.0
 10
118.3698173915
 20
36.3417526425
 30
0.0
 10
118.3726142933
 20
36.2994589727
 30
0.0
 10
118.3954380392
 20
36.2550867024
 30
0.0
 10
118.4215897759
 20
36.2399812163
 30
0.0
  0
SPLINE
  5
658
100
AcDbEntity
  8
7_ALL_ROUNDS
100
AcDbSpline
 62
7
  6
CONTINUOUS
 70
0
 71
3
 72
9
 73
5
 74
0
 42
0.0000001
 43
0.0000001
 44
0.0000000001
 40
0.0
 40
0.0
 40
0.0
 40
0.0
 40
0.2953324046
 40
1.0
 40
1.0
 40
1.0
 40
1.0
 10
126.6379227868
 20
62.6932216478
 30
0.0
 10
126.6488819558
 20
62.6995488893
 30
0.0
 10
126.6841002864
 20
62.7231148366
 30
0.0
 10
126.7111195974
 20
62.7650464809
 30
0.0
 10
126.7111332452
 20
62.7952404009
 30
0.0
  0
SPLINE
  5
659
100
AcDbEntity
  8
7_ALL_ROUNDS
100
AcDbSpline
 62
7
  6
CONTINUOUS
 70
0
 71
3
 72
9
 73
5
 74
0
 42
0.0000001
 43
0.0000001
 44
0.0000000001
 40
0.0
 40
0.0
 40
0.0
 40
0.0
 40
0.4999762558
 40
1.0
 40
1.0
 40
1.0
 40
1.0
 10
126.4611453555
 20
62.9994074408
 30
0.0
 10
126.5136127288
 20
62.9691160739
 30
0.0
 10
126.596509342
 20
62.8734397785
 30
0.0
 10
126.6379227868
 20
62.7538111637
 30
0.0
 10
126.6379227868
 20
62.6932216478
 30
0.0
  0
SPLINE
  5
65A
100
AcDbEntity
  8
7_ALL_ROUNDS
100
AcDbSpline
 62
7
  6
CONTINUOUS
 70
0
 71
3
 72
8
 73
4
 74
0
 42
0.0000001
 43
0.0000001
 44
0.0000000001
 40
0.0
 40
0.0
 40
0.0
 40
0.0
 40
1.0
 40
1.0
 40
1.0
 40
1.0
 10
97.4507770576
 20
48.4516063397
 30
0.0
 10
97.4420027387
 20
48.4658999419
 30
0.0
 10
97.4364226507
 20
48.4830590721
 30
0.0
 10
97.43642265
 20
48.4998309455
 30
0.0
  0
SPLINE
  5
65B
100
AcDbEntity
  8
7_ALL_ROUNDS
100
AcDbSpline
 62
7
  6
CONTINUOUS
 70
0
 71
3
 72
9
 73
5
 74
0
 42
0.0000001
 43
0.0000001
 44
0.0000000001
 40
0.0
 40
0.0
 40
0.0
 40
0.0
 40
0.2953382362
 40
1.0
 40
1.0
 40
1.0
 40
1.0
 10
126.6379227868
 20
40.9238527935
 30
0.0
 10
126.6379227868
 20
40.9111950042
 30
0.0
 10
126.6351258587
 20
40.8689013482
 30
0.0
 10
126.6123021374
 20
40.8245292563
 30
0.0
 10
126.5861504926
 20
40.8094235729
 30
0.0
  0
ENDSEC
  0
SECTION
  2
OBJECTS
  0
DICTIONARY
  5
C
100
AcDbDictionary
280
0
281
1
  3
ACAD_GROUP
350
D
  3
ACAD_MLINESTYLE
350
17
  3
ACAD_LAYOUT
350
1A
  3
ACAD_PLOTSETTINGS
350
19
  3
ACAD_PLOTSTYLENAME
350
E
  0
DICTIONARY
  5
D
102
{ACAD_REACTORS
330
C
102
}
100
AcDbDictionary
280
0
281
1
  0
ACDBDICTIONARYWDFLT
  5
E
102
{ACAD_REACTORS
330
C
102
}
100
AcDbDictionary
281
1
  3
Normal
350
F
100
AcDbDictionaryWithDefault
340
F
  0
DICTIONARY
  5
17
102
{ACAD_REACTORS
330
C
102
}
100
AcDbDictionary
280
0
281
1
  3
Standard
350
18
  0
DICTIONARY
  5
19
102
{ACAD_REACTORS
330
C
102
}
100
AcDbDictionary
281
1
  0
DICTIONARY
  5
1A
102
{ACAD_REACTORS
330
C
102
}
100
AcDbDictionary
281
1
  3
Model
350
65C
  3
Layout1
350
65D
  0
ACDBPLACEHOLDER
  5
F
102
{ACAD_REACTORS
330
E
102
}
  0
MLINESTYLE
  5
18
102
{ACAD_REACTORS
330
17
102
}
100
AcDbMlineStyle
  2
STANDARD
 70
0
  3

 62
256
 51
90.0
 52
90.0
 71
2
 49
0.5
 62
256
  6
BYLAYER
 49
-0.5
 62
256
  6
BYLAYER
  0
LAYOUT
  5
65C
102
{ACAD_REACTORS
330
1A
102
}
100
AcDbPlotSettings
  1

  2
none_device
  4
ANSI_D_(34.00_x_22.00_Inches)
  6

 40
0.0
 41
0.0
 42
0.0
 43
0.0
 44
863.6
 45
558.8
 46
0.0
 47
0.0
 48
0.0
 49
0.0
140
0.0
141
0.0
142
1.0
143
1.0
 70
1024
 72
0
 73
0
 74
0
  7

 75
0
147
1.0
148
0.0
149
0.0
100
AcDbLayout
  1
Model
 70
0
 71
0
 10
0.0
 20
0.0
 11
34.0
 21
22.0
 12
0.0
 22
0.0
 32
0.0
 14
0.0
 24
0.0
 34
0.0
 15
0.0
 25
0.0
 35
0.0
146
0.0
 13
0.0
 23
0.0
 33
0.0
 16
1.0
 26
0.0
 36
0.0
 17
0.0
 27
1.0
 37
0.0
 76
0
330
210
345
0
346
0
  0
LAYOUT
  5
65D
102
{ACAD_REACTORS
330
1A
102
}
100
AcDbPlotSettings
  1

  2
none_device
  4
ANSI_D_(34.00_x_22.00_Inches)
  6

 40
0.0
 41
0.0
 42
0.0
 43
0.0
 44
863.6
 45
558.8
 46
0.0
 47
0.0
 48
0.0
 49
0.0
140
0.0
141
0.0
142
1.0
143
1.0
 70
0
 72
0
 73
0
 74
0
  7

 75
0
147
1.0
148
0.0
149
0.0
100
AcDbLayout
  1
Layout1
 70
0
 71
1
 10
0.0
 20
0.0
 11
34.0
 21
22.0
 12
0.0
 22
0.0
 32
0.0
 14
0.0
 24
0.0
 34
0.0
 15
0.0
 25
0.0
 35
0.0
146
0.0
 13
0.0
 23
0.0
 33
0.0
 16
1.0
 26
0.0
 36
0.0
 17
0.0
 27
1.0
 37
0.0
 76
0
330
211
345
0
346
0
  0
ENDSEC
  0
EOF
