999
DXF file: wp-001125-2d-A1.dxf
999
Pro/ENGINEER 2016130 by Parametric Technology Corporation
  0
SECTION
  2
HEADER
  9
$ACADVER
  1
AC1015
  9
$DWGCODEPAGE
  3
ANSI_1252
  9
$EXTMAX
 10
136.0
 20
88.0
 30
0.0
  9
$EXTMIN
 10
0.0
 20
0.0
 30
0.0
  9
$LIMMIN
 10
0.0
 20
0.0
  9
$LIMMAX
 10
136.0
 20
88.0
  9
$VIEWCTR
 10
68.0
 20
44.0
  9
$VIEWSIZE
 40
88.0
  9
$CLAYER
  8
0
  9
$LTSCALE
 40
7.48
  9
$CELTYPE
  6
BYLAYER
  9
$DIMSCALE
 40
1.0
  9
$DIMASZ
 40
0.75
  9
$DIMEXO
 40
0.0625
  9
$DIMDLI
 40
5.168
  9
$DIMEXE
 40
0.125
  9
$DIMCEN
 40
1.224
  9
$DIMLFAC
 40
1.0
  9
$DIMBLK
  1
_FILLED
  9
$DIMALT
 70
0
  9
$DIMALTF
 40
25.4
  9
$DIMTXT
 40
0.625
  9
$DIMTOL
 70
1
  9
$DIMLIM
 70
0
  9
$DIMTFAC
 40
1.0
  9
$DIMTP
 40
0.01
  9
$DIMTM
 40
0.01
  9
$DIMGAP
 40
0.09
  9
$DIMDSEP
 70
46
  9
$AUNITS
 70
0
  9
$PDMODE
 70
3
  9
$PDSIZE
 40
0.3125
  9
$HANDSEED
  5
62F
  9
$TILEMODE
 70
1
  9
$MEASUREMENT
 70
0
  9
$INSUNITS
 70
1
  0
ENDSEC
  0
SECTION
  2
CLASSES
  0
CLASS
  1
ACDBDICTIONARYWDFLT
  2
AcDbDictionaryWithDefault
  3
AutoCAD 2000
 90
0
280
0
281
0
  0
CLASS
  1
ACDBPLACEHOLDER
  2
AcDbPlaceHolder
  3
AutoCAD 2000
 90
0
280
0
281
0
  0
CLASS
  1
LAYOUT
  2
AcDbLayout
  3
AutoCAD 2000
 90
0
280
0
281
0
  0
ENDSEC
  0
SECTION
  2
TABLES
  0
TABLE
  2
VPORT
  5
8
100
AcDbSymbolTable
 70
2
  0
VPORT
  5
1F4
100
AcDbSymbolTableRecord
100
AcDbViewportTableRecord
  2
*ACTIVE
 70
0
 10
0.0
 20
0.0
 11
1.0
 21
1.0
 12
68.0
 22
44.0
 13
0.0
 23
0.0
 14
1.0
 24
1.0
 15
0.0
 25
0.0
 16
0.0
 26
0.0
 36
1.0
 17
0.0
 27
0.0
 37
0.0
 40
88.0
 41
1.5454545455
 42
50.0
 43
0.0
 44
0.0
 50
0.0
 51
0.0
 71
0
 72
100
 73
1
 74
1
 75
0
 76
0
 77
0
 78
0
  0
ENDTAB
  0
TABLE
  2
LTYPE
  5
5
100
AcDbSymbolTable
 70
6
  0
LTYPE
  5
14
100
AcDbSymbolTableRecord
100
AcDbLinetypeTableRecord
  2
BYBLOCK
 70
0
  3

 72
65
 73
0
 40
0.0
  0
LTYPE
  5
15
100
AcDbSymbolTableRecord
100
AcDbLinetypeTableRecord
  2
BYLAYER
 70
0
  3

 72
65
 73
0
 40
0.0
  0
LTYPE
  5
16
100
AcDbSymbolTableRecord
100
AcDbLinetypeTableRecord
  2
CONTINUOUS
 70
64
  3
Solid line
 72
65
 73
0
 40
0.0
  0
LTYPE
  5
1F5
100
AcDbSymbolTableRecord
100
AcDbLinetypeTableRecord
  2
CENTER
 70
64
  3
____ _ ____ _ ____ _ ____ _ ____ _ ____ _ ____
 72
65
 73
4
 40
0.6
 49
0.375
 74
0
 49
-0.075
 74
0
 49
0.075
 74
0
 49
-0.075
 74
0
  0
LTYPE
  5
1F6
100
AcDbSymbolTableRecord
100
AcDbLinetypeTableRecord
  2
HIDDEN
 70
64
  3
- - - - - - - - - - - - - - - - - - - -
 72
65
 73
2
 40
0.2
 49
0.1
 74
0
 49
-0.1
 74
0
  0
LTYPE
  5
1F7
100
AcDbSymbolTableRecord
100
AcDbLinetypeTableRecord
  2
PHANTOM
 70
64
  3
_____ _ _ _____ _ _ _____ _ _ _____
 72
65
 73
6
 40
0.8
 49
0.45
 74
0
 49
-0.05
 74
0
 49
0.1
 74
0
 49
-0.05
 74
0
 49
0.1
 74
0
 49
-0.05
 74
0
  0
LTYPE
  5
1F8
100
AcDbSymbolTableRecord
100
AcDbLinetypeTableRecord
  2
DOT
 70
64
  3
. . . . . . . . . . . . . . . . . . . .
 72
65
 73
2
 40
0.2
 49
0.1
 74
0
 49
-0.1
 74
0
  0
LTYPE
  5
1F9
100
AcDbSymbolTableRecord
100
AcDbLinetypeTableRecord
  2
DASHED
 70
64
  3
- - - - - - - - - - - - - - - - - - - -
 72
65
 73
2
 40
0.2
 49
0.1
 74
0
 49
-0.1
 74
0
  0
ENDTAB
  0
TABLE
  2
LAYER
  5
2
100
AcDbSymbolTable
 70
36
  0
LAYER
  5
10
100
AcDbSymbolTableRecord
100
AcDbLayerTableRecord
  2
0
 70
0
 62
7
  6
CONTINUOUS
370
-3
390
F
  0
LAYER
  5
1FA
100
AcDbSymbolTableRecord
100
AcDbLayerTableRecord
  2
DEFAULT_1
 70
0
 62
7
  6
CENTER
370
-3
390
F
  0
LAYER
  5
1FB
100
AcDbSymbolTableRecord
100
AcDbLayerTableRecord
  2
DEFAULT_2
 70
0
 62
8
  6
HIDDEN
370
-3
390
F
  0
LAYER
  5
1FC
100
AcDbSymbolTableRecord
100
AcDbLayerTableRecord
  2
DEFAULT_3
 70
0
 62
7
  6
PHANTOM
370
-3
390
F
  0
LAYER
  5
1FD
100
AcDbSymbolTableRecord
100
AcDbLayerTableRecord
  2
1_ALL_PLANES
 70
0
 62
7
  6
CONTINUOUS
370
-3
390
F
  0
LAYER
  5
1FE
100
AcDbSymbolTableRecord
100
AcDbLayerTableRecord
  2
1__DEF_PLANES
 70
0
 62
7
  6
CONTINUOUS
370
-3
390
F
  0
LAYER
  5
1FF
100
AcDbSymbolTableRecord
100
AcDbLayerTableRecord
  2
2_ALL_CSYS
 70
0
 62
7
  6
CONTINUOUS
370
-3
390
F
  0
LAYER
  5
200
100
AcDbSymbolTableRecord
100
AcDbLayerTableRecord
  2
2__DEF_CSYS
 70
0
 62
7
  6
CONTINUOUS
370
-3
390
F
  0
LAYER
  5
201
100
AcDbSymbolTableRecord
100
AcDbLayerTableRecord
  2
3_ALL_AXES
 70
0
 62
7
  6
CONTINUOUS
370
-3
390
F
  0
LAYER
  5
202
100
AcDbSymbolTableRecord
100
AcDbLayerTableRecord
  2
3_AXES_OTHER
 70
0
 62
7
  6
CONTINUOUS
370
-3
390
F
  0
LAYER
  5
203
100
AcDbSymbolTableRecord
100
AcDbLayerTableRecord
  2
3_HOLES
 70
0
 62
7
  6
CONTINUOUS
370
-3
390
F
  0
LAYER
  5
204
100
AcDbSymbolTableRecord
100
AcDbLayerTableRecord
  2
4_ALL_POINTS
 70
0
 62
7
  6
CONTINUOUS
370
-3
390
F
  0
LAYER
  5
205
100
AcDbSymbolTableRecord
100
AcDbLayerTableRecord
  2
5_ALL_CURVES
 70
0
 62
7
  6
CONTINUOUS
370
-3
390
F
  0
LAYER
  5
206
100
AcDbSymbolTableRecord
100
AcDbLayerTableRecord
  2
6_ALL_SURFS
 70
0
 62
7
  6
CONTINUOUS
370
-3
390
F
  0
LAYER
  5
207
100
AcDbSymbolTableRecord
100
AcDbLayerTableRecord
  2
6_COPYGEOM
 70
0
 62
7
  6
CONTINUOUS
370
-3
390
F
  0
LAYER
  5
208
100
AcDbSymbolTableRecord
100
AcDbLayerTableRecord
  2
7_ALL_ROUNDS
 70
0
 62
7
  6
CONTINUOUS
370
-3
390
F
  0
LAYER
  5
209
100
AcDbSymbolTableRecord
100
AcDbLayerTableRecord
  2
7_MERGES
 70
0
 62
7
  6
CONTINUOUS
370
-3
390
F
  0
LAYER
  5
20A
100
AcDbSymbolTableRecord
100
AcDbLayerTableRecord
  2
8_GDT
 70
0
 62
7
  6
CONTINUOUS
370
-3
390
F
  0
LAYER
  5
20B
100
AcDbSymbolTableRecord
100
AcDbLayerTableRecord
  2
8_SET_DATUMS
 70
0
 62
7
  6
CONTINUOUS
370
-3
390
F
  0
LAYER
  5
20C
100
AcDbSymbolTableRecord
100
AcDbLayerTableRecord
  2
9_COSMETICS
 70
0
 62
7
  6
CONTINUOUS
370
-3
390
F
  0
LAYER
  5
20D
100
AcDbSymbolTableRecord
100
AcDbLayerTableRecord
  2
9_THREADS
 70
0
 62
7
  6
CONTINUOUS
370
-3
390
F
  0
ENDTAB
  0
TABLE
  2
STYLE
  5
3
100
AcDbSymbolTable
 70
1
  0
STYLE
  5
11
100
AcDbSymbolTableRecord
100
AcDbTextStyleTableRecord
  2
STANDARD
 70
0
 40
0.0
 41
0.8
 50
0.0
 71
0
 42
0.2
  3
txt
  4

  0
STYLE
  5
20E
100
AcDbSymbolTableRecord
100
AcDbTextStyleTableRecord
  2
TEXTSTYLE_1
 70
0
 40
0.0
 41
0.8
 50
0.0
 71
0
 42
0.2
  3
gdt
  4

  0
ENDTAB
  0
TABLE
  2
VIEW
  5
6
100
AcDbSymbolTable
 70
0
  0
ENDTAB
  0
TABLE
  2
UCS
  5
7
100
AcDbSymbolTable
 70
0
  0
ENDTAB
  0
TABLE
  2
APPID
  5
9
100
AcDbSymbolTable
 70
1
  0
APPID
  5
20F
100
AcDbSymbolTableRecord
100
AcDbRegAppTableRecord
  2
ACAD
 70
0
  0
ENDTAB
  0
TABLE
  2
BLOCK_RECORD
  5
1
100
AcDbSymbolTable
 70
0
  0
BLOCK_RECORD
  5
210
100
AcDbSymbolTableRecord
100
AcDbBlockTableRecord
  2
*Model_Space
  0
BLOCK_RECORD
  5
211
100
AcDbSymbolTableRecord
100
AcDbBlockTableRecord
  2
*Paper_Space
  0
BLOCK_RECORD
  5
212
100
AcDbSymbolTableRecord
100
AcDbBlockTableRecord
  2
_FILLED
  0
BLOCK_RECORD
  5
213
100
AcDbSymbolTableRecord
100
AcDbBlockTableRecord
  2
*D0
  0
BLOCK_RECORD
  5
214
100
AcDbSymbolTableRecord
100
AcDbBlockTableRecord
  2
*D1
  0
BLOCK_RECORD
  5
215
100
AcDbSymbolTableRecord
100
AcDbBlockTableRecord
  2
*D2
  0
BLOCK_RECORD
  5
216
100
AcDbSymbolTableRecord
100
AcDbBlockTableRecord
  2
*D3
  0
BLOCK_RECORD
  5
217
100
AcDbSymbolTableRecord
100
AcDbBlockTableRecord
  2
*D4
  0
BLOCK_RECORD
  5
218
100
AcDbSymbolTableRecord
100
AcDbBlockTableRecord
  2
*D5
  0
BLOCK_RECORD
  5
219
100
AcDbSymbolTableRecord
100
AcDbBlockTableRecord
  2
*D6
  0
BLOCK_RECORD
  5
21A
100
AcDbSymbolTableRecord
100
AcDbBlockTableRecord
  2
*D7
  0
BLOCK_RECORD
  5
21B
100
AcDbSymbolTableRecord
100
AcDbBlockTableRecord
  2
*D8
  0
BLOCK_RECORD
  5
21C
100
AcDbSymbolTableRecord
100
AcDbBlockTableRecord
  2
*D9
  0
BLOCK_RECORD
  5
21D
100
AcDbSymbolTableRecord
100
AcDbBlockTableRecord
  2
*D10
  0
BLOCK_RECORD
  5
21E
100
AcDbSymbolTableRecord
100
AcDbBlockTableRecord
  2
*D11
  0
BLOCK_RECORD
  5
21F
100
AcDbSymbolTableRecord
100
AcDbBlockTableRecord
  2
*D12
  0
BLOCK_RECORD
  5
220
100
AcDbSymbolTableRecord
100
AcDbBlockTableRecord
  2
*D13
  0
BLOCK_RECORD
  5
221
100
AcDbSymbolTableRecord
100
AcDbBlockTableRecord
  2
*D14
  0
BLOCK_RECORD
  5
222
100
AcDbSymbolTableRecord
100
AcDbBlockTableRecord
  2
123_BL1
  0
BLOCK_RECORD
  5
223
100
AcDbSymbolTableRecord
100
AcDbBlockTableRecord
  2
RD010411_BL0
  0
ENDTAB
  0
TABLE
  2
DIMSTYLE
  5
A
100
AcDbSymbolTable
 70
1
100
AcDbDimStyleTable
 71
0
  0
DIMSTYLE
105
224
100
AcDbSymbolTableRecord
100
AcDbDimStyleTableRecord
  2
STANDARD
 70
0
  3

  4

 40
1.0
 41
0.75
 42
0.0625
 43
0.38
 44
0.125
 45
0.0
 46
0.0
 47
0.01
 48
0.01
140
0.625
141
0.09
142
0.0
143
25.4
144
1.0
145
0.0
146
1.0
147
0.09
 71
1.0
 72
0.0
 73
1
 74
1
 75
0
 76
0
 77
0
 78
4
170
0
171
2
172
0
173
0
174
0
175
0
176
0
177
0
178
0
270
2
271
3
272
3
273
2
274
2
275
0
280
0
281
0
282
0
283
1
284
4
285
0
286
0
287
3
288
0
340
11
278
46
341
212
342
212
343
212
344
212
  0
DIMSTYLE
105
225
100
AcDbSymbolTableRecord
100
AcDbDimStyleTableRecord
  2
DIMSTYLE_1
 70
0
  3

  4

 40
1.0
 41
0.75
 42
0.0625
 43
0.38
 44
0.125
 45
0.0
 46
0.0
 47
0.01
 48
0.01
140
0.625
141
0.09
142
0.0
143
25.4
144
1.0
145
0.0
146
1.0
147
0.078125
 71
0.0
 72
0.0
 73
1
 74
1
 75
0
 76
0
 77
0
 78
4
170
0
171
2
172
0
173
0
174
0
175
0
176
0
177
0
178
0
270
2
271
1
272
1
273
2
274
2
275
0
280
0
281
0
282
0
283
1
284
4
285
0
286
0
287
3
288
0
340
11
278
46
341
212
342
212
343
212
344
212
  0
ENDTAB
  0
ENDSEC
  0
SECTION
  2
BLOCKS
  0
BLOCK
  5
20
100
AcDbEntity
  8
0
100
AcDbBlockBegin
  2
*Model_Space
 70
0
 10
0.0
 20
0.0
 30
0.0
  3
*Model_Space
  1

  0
ENDBLK
  5
21
100
AcDbEntity
  8
0
100
AcDbBlockEnd
  0
BLOCK
  5
1C
100
AcDbEntity
  8
0
100
AcDbBlockBegin
  2
*Paper_Space
 70
0
 10
0.0
 20
0.0
 30
0.0
  3
*Paper_Space
  1

  0
ENDBLK
  5
1D
100
AcDbEntity
  8
0
100
AcDbBlockEnd
  0
BLOCK
  5
226
100
AcDbEntity
  8
0
100
AcDbBlockBegin
 62
2
  6
CONTINUOUS
  2
123_BL1
 70
64
 10
8.1156859368
 20
9.204799167
  3
123_BL1
  1

  0
LINE
  5
227
100
AcDbEntity
  8
0
100
AcDbLine
 62
2
  6
CONTINUOUS
 10
8.1156859368
 20
9.204799167
 11
8.5134759202
 21
9.204799167
  0
LINE
  5
228
100
AcDbEntity
  8
0
100
AcDbLine
 62
2
  6
CONTINUOUS
 10
8.1156859368
 20
9.204799167
 11
8.1156859368
 21
9.6025891504
  0
LINE
  5
229
100
AcDbEntity
  8
0
100
AcDbLine
 62
2
  6
CONTINUOUS
 10
8.1156859368
 20
9.204799167
 11
7.7178959534
 21
9.204799167
  0
LINE
  5
22A
100
AcDbEntity
  8
0
100
AcDbLine
 62
2
  6
CONTINUOUS
 10
8.1156859368
 20
9.204799167
 11
8.1156859368
 21
8.8070091836
  0
ARC
  5
22B
100
AcDbEntity
  8
0
100
AcDbCircle
 62
2
  6
CONTINUOUS
 10
8.1156859368
 20
9.204799167
 40
0.3977899834
100
AcDbArc
 50
90.0
 51
180.0
  0
ARC
  5
22C
100
AcDbEntity
  8
0
100
AcDbCircle
 62
2
  6
CONTINUOUS
 10
8.1156859368
 20
9.204799167
 40
0.3977899834
100
AcDbArc
 50
180.0
 51
270.0
  0
ARC
  5
22D
100
AcDbEntity
  8
0
100
AcDbCircle
 62
2
  6
CONTINUOUS
 10
8.1156859368
 20
9.204799167
 40
0.3977899834
100
AcDbArc
 50
270.0
 51
90.0
  0
ENDBLK
  5
22E
100
AcDbEntity
  8
0
  6
BYBLOCK
 62
0
100
AcDbBlockEnd
  0
BLOCK
  5
22F
100
AcDbEntity
  8
0
100
AcDbBlockBegin
 62
7
  6
CONTINUOUS
  2
RD010411_BL0
 70
64
 10
115.5552811952
 20
10.8044426607
  3
RD010411_BL0
  1

  0
ARC
  5
230
100
AcDbEntity
  8
0
100
AcDbCircle
 62
7
  6
CONTINUOUS
 10
118.1639274738
 20
11.2059504908
 40
0.0494860531
100
AcDbArc
 50
270.0
 51
360.0
  0
LINE
  5
231
100
AcDbEntity
  8
0
100
AcDbLine
 62
7
  6
CONTINUOUS
 10
118.2134135269
 20
11.2059504908
 11
118.2134135269
 21
11.3049566076
  0
ARC
  5
232
100
AcDbEntity
  8
0
100
AcDbCircle
 62
7
  6
CONTINUOUS
 10
118.1639274738
 20
11.3049566076
 40
0.0494860531
100
AcDbArc
 50
0.0
 51
90.0
  0
LINE
  5
233
100
AcDbEntity
  8
0
100
AcDbLine
 62
7
  6
CONTINUOUS
 10
118.1639274738
 20
11.3544426607
 11
116.8335541449
 21
11.3544426607
  0
SPLINE
  5
234
100
AcDbEntity
  8
0
100
AcDbSpline
 62
7
  6
CONTINUOUS
 70
0
 71
3
 72
13
 73
9
 74
0
 42
0.0000001
 43
0.0000001
 44
0.0000000001
 40
0.0
 40
0.0
 40
0.0
 40
0.0
 40
0.1310616762
 40
0.2699656353
 40
0.4157607805
 40
0.5899807757
 40
0.76586761
 40
0.9948829976
 40
0.9948829976
 40
0.9948829976
 40
0.9948829976
 10
116.8335541449
 20
11.3544426607
 30
0.0
 10
116.8055884869
 20
11.35235976
 30
0.0
 10
116.7479838022
 20
11.3480693253
 30
0.0
 10
116.6699179828
 20
11.2996952938
 30
0.0
 10
116.6138760403
 20
11.2184840077
 30
0.0
 10
116.5774346737
 20
11.1191804813
 30
0.0
 10
116.5569086712
 20
10.9977902902
 30
0.0
 10
116.5550187813
 20
10.9120138494
 30
0.0
 10
116.5540392955
 20
10.8634917519
 30
0.0
  0
LINE
  5
235
100
AcDbEntity
  8
0
100
AcDbLine
 62
7
  6
CONTINUOUS
 10
116.5540392955
 20
10.8634917519
 11
116.5541261489
 21
10.8559620363
  0
SPLINE
  5
236
100
AcDbEntity
  8
0
100
AcDbSpline
 62
7
  6
CONTINUOUS
 70
0
 71
3
 72
13
 73
9
 74
0
 42
0.0000001
 43
0.0000001
 44
0.0000000001
 40
0.0
 40
0.0
 40
0.0
 40
0.0
 40
0.2222860645
 40
0.3981728988
 40
0.572392894
 40
0.7181880393
 40
0.8570919984
 40
0.9881536746
 40
0.9881536746
 40
0.9881536746
 40
0.9881536746
 10
116.5541261489
 20
10.8559620363
 30
0.0
 10
116.5550863306
 20
10.8088663218
 30
0.0
 10
116.5571467585
 20
10.724531122
 30
0.0
 10
116.577434657
 20
10.6045480629
 30
0.0
 10
116.6138764598
 20
10.5052556427
 30
0.0
 10
116.6699166543
 20
10.4240098907
 30
0.0
 10
116.7479884318
 20
10.3757514937
 30
0.0
 10
116.8055790723
 20
10.3711887768
 30
0.0
 10
116.8335541449
 20
10.3691051757
 30
0.0
  0
LINE
  5
237
100
AcDbEntity
  8
0
100
AcDbLine
 62
7
  6
CONTINUOUS
 10
116.8335541449
 20
10.3691051757
 11
118.164035482
 21
10.3720090866
  0
ARC
  5
238
100
AcDbEntity
  8
0
100
AcDbCircle
 62
7
  6
CONTINUOUS
 10
118.1639274738
 20
10.4214950217
 40
0.0494860529
100
AcDbArc
 50
270.125053868
 51
360.0
  0
LINE
  5
239
100
AcDbEntity
  8
0
100
AcDbLine
 62
7
  6
CONTINUOUS
 10
118.2134135269
 20
10.4214950217
 11
118.2134135269
 21
10.5166357387
  0
ARC
  5
23A
100
AcDbEntity
  8
0
100
AcDbCircle
 62
7
  6
CONTINUOUS
 10
118.1639274738
 20
10.5166357387
 40
0.0494860531
100
AcDbArc
 50
0.0
 51
90.0
  0
LINE
  5
23B
100
AcDbEntity
  8
0
100
AcDbLine
 62
7
  6
CONTINUOUS
 10
118.1639274738
 20
10.5661217918
 11
117.023615701
 21
10.5661217918
  0
LINE
  5
23C
100
AcDbEntity
  8
0
100
AcDbLine
 62
7
  6
CONTINUOUS
 10
116.9741296479
 20
10.6156078448
 11
116.9741296479
 21
11.1069783847
  0
ARC
  5
23D
100
AcDbEntity
  8
0
100
AcDbCircle
 62
7
  6
CONTINUOUS
 10
117.0236157014
 20
11.1069783847
 40
0.0494860531
100
AcDbArc
 50
90.0
 51
180.0
  0
LINE
  5
23E
100
AcDbEntity
  8
0
100
AcDbLine
 62
7
  6
CONTINUOUS
 10
117.023615701
 20
11.1564644378
 11
118.1639274738
 21
11.1564644378
  0
LINE
  5
23F
100
AcDbEntity
  8
0
100
AcDbLine
 62
7
  6
CONTINUOUS
 10
114.990338532
 20
10.7618524023
 11
115.9407862689
 21
10.7618524023
  0
ARC
  5
240
100
AcDbEntity
  8
0
100
AcDbCircle
 62
7
  6
CONTINUOUS
 10
115.9407862688
 20
10.7123663494
 40
0.0494860531
100
AcDbArc
 50
0.0
 51
90.0
  0
LINE
  5
241
100
AcDbEntity
  8
0
100
AcDbLine
 62
7
  6
CONTINUOUS
 10
115.990272322
 20
10.7123663492
 11
115.990272322
 21
10.6113209404
  0
LINE
  5
242
100
AcDbEntity
  8
0
100
AcDbLine
 62
7
  6
CONTINUOUS
 10
115.9407862689
 20
10.5618348873
 11
114.8328657094
 21
10.5618348873
  0
ARC
  5
243
100
AcDbEntity
  8
0
100
AcDbCircle
 62
7
  6
CONTINUOUS
 10
114.8328657094
 20
10.5123488342
 40
0.0494860531
100
AcDbArc
 50
90.0
 51
180.0
  0
LINE
  5
244
100
AcDbEntity
  8
0
100
AcDbLine
 62
7
  6
CONTINUOUS
 10
114.7833796563
 20
10.5123488342
 11
114.7833796563
 21
10.4185907294
  0
ARC
  5
245
100
AcDbEntity
  8
0
100
AcDbCircle
 62
7
  6
CONTINUOUS
 10
114.8328657094
 20
10.4185907294
 40
0.0494860531
100
AcDbArc
 50
180.0
 51
270.0
  0
LINE
  5
246
100
AcDbEntity
  8
0
100
AcDbLine
 62
7
  6
CONTINUOUS
 10
114.8328657094
 20
10.3691046763
 11
116.2082925776
 21
10.3691046763
  0
SPLINE
  5
247
100
AcDbEntity
  8
0
100
AcDbSpline
 62
7
  6
CONTINUOUS
 70
0
 71
3
 72
13
 73
9
 74
0
 42
0.0000001
 43
0.0000001
 44
0.0000000001
 40
0.0
 40
0.0
 40
0.0
 40
0.0
 40
0.1604571392
 40
0.3334692485
 40
0.4767982758
 40
0.6242014838
 40
0.7505998515
 40
1.0
 40
1.0
 40
1.0
 40
1.0
 10
116.2082925776
 20
10.3691046763
 30
0.0
 10
116.2314824463
 20
10.3702212271
 30
0.0
 10
116.2796766744
 20
10.372541692
 30
0.0
 10
116.3444842596
 20
10.4006781737
 30
0.0
 10
116.3933189103
 20
10.4479732508
 30
0.0
 10
116.4208391566
 20
10.5021952295
 30
0.0
 10
116.4419385189
 20
10.5749345696
 30
0.0
 10
116.4427947319
 20
10.6293692409
 30
0.0
 10
116.4433629605
 20
10.665495022
 30
0.0
  0
SPLINE
  5
248
100
AcDbEntity
  8
0
100
AcDbSpline
 62
7
  6
CONTINUOUS
 70
0
 71
3
 72
13
 73
9
 74
0
 42
0.0000001
 43
0.0000001
 44
0.0000000001
 40
0.0
 40
0.0
 40
0.0
 40
0.0
 40
0.2494001485
 40
0.3757985162
 40
0.5232017242
 40
0.6665307515
 40
0.8395428608
 40
1.0
 40
1.0
 40
1.0
 40
1.0
 10
116.4433629605
 20
10.665495022
 30
0.0
 10
116.4427947319
 20
10.7016208038
 30
0.0
 10
116.4419385189
 20
10.7560554744
 30
0.0
 10
116.4208391566
 20
10.8287948152
 30
0.0
 10
116.3933189103
 20
10.8830167939
 30
0.0
 10
116.3444842596
 20
10.9303118703
 30
0.0
 10
116.2796766744
 20
10.9584483519
 30
0.0
 10
116.2314824463
 20
10.9607688176
 30
0.0
 10
116.2082925776
 20
10.9618853676
 30
0.0
  0
LINE
  5
249
100
AcDbEntity
  8
0
100
AcDbLine
 62
7
  6
CONTINUOUS
 10
116.2082925776
 20
10.9618853676
 11
115.2705136799
 21
10.9618853676
  0
LINE
  5
24A
100
AcDbEntity
  8
0
100
AcDbLine
 62
7
  6
CONTINUOUS
 10
115.2210276269
 20
11.0113714207
 11
115.2210276269
 21
11.1050039977
  0
ARC
  5
24B
100
AcDbEntity
  8
0
100
AcDbCircle
 62
7
  6
CONTINUOUS
 10
115.2705136795
 20
11.1050039977
 40
0.0494860531
100
AcDbArc
 50
90.0
 51
180.0
  0
LINE
  5
24C
100
AcDbEntity
  8
0
100
AcDbLine
 62
7
  6
CONTINUOUS
 10
115.2705136799
 20
11.1544900508
 11
116.3799380787
 21
11.1544900508
  0
ARC
  5
24D
100
AcDbEntity
  8
0
100
AcDbCircle
 62
7
  6
CONTINUOUS
 10
116.3799380787
 20
11.2039761039
 40
0.0494860531
100
AcDbArc
 50
270.0
 51
360.0
  0
LINE
  5
24E
100
AcDbEntity
  8
0
100
AcDbLine
 62
7
  6
CONTINUOUS
 10
116.4294241318
 20
11.2039761039
 11
116.4294241318
 21
11.3049566076
  0
ARC
  5
24F
100
AcDbEntity
  8
0
100
AcDbCircle
 62
7
  6
CONTINUOUS
 10
116.3799380787
 20
11.3049566076
 40
0.0494860531
100
AcDbArc
 50
0.0
 51
90.0
  0
LINE
  5
250
100
AcDbEntity
  8
0
100
AcDbLine
 62
7
  6
CONTINUOUS
 10
116.3799380787
 20
11.3544426607
 11
114.990338532
 21
11.3544426607
  0
SPLINE
  5
251
100
AcDbEntity
  8
0
100
AcDbSpline
 62
7
  6
CONTINUOUS
 70
0
 71
3
 72
13
 73
9
 74
0
 42
0.0000001
 43
0.0000001
 44
0.0000000001
 40
0.0
 40
0.0
 40
0.0
 40
0.0
 40
0.1133740464
 40
0.2392044088
 40
0.3655787964
 40
0.4912154373
 40
0.7445390876
 40
1.0
 40
1.0
 40
1.0
 40
1.0
 10
114.990338532
 20
11.3544426607
 30
0.0
 10
114.9744640275
 20
11.3536607674
 30
0.0
 10
114.9409708999
 20
11.3520110736
 30
0.0
 10
114.8912201718
 20
11.3371470423
 30
0.0
 10
114.8467132972
 20
11.3071319338
 30
0.0
 10
114.801249128
 20
11.2518429589
 30
0.0
 10
114.7726401885
 20
11.1650466243
 30
0.0
 10
114.7695375447
 20
11.0938802129
 30
0.0
 10
114.767979707
 20
11.0581475315
 30
0.0
  0
SPLINE
  5
252
100
AcDbEntity
  8
0
100
AcDbSpline
 62
7
  6
CONTINUOUS
 70
0
 71
3
 72
13
 73
9
 74
0
 42
0.0000001
 43
0.0000001
 44
0.0000000001
 40
0.0
 40
0.0
 40
0.0
 40
0.0
 40
0.2554609124
 40
0.5087845627
 40
0.6344212036
 40
0.7607955912
 40
0.8866259536
 40
1.0
 40
1.0
 40
1.0
 40
1.0
 10
114.767979707
 20
11.0581475315
 30
0.0
 10
114.7695375447
 20
11.0224148501
 30
0.0
 10
114.7726401885
 20
10.951248438
 30
0.0
 10
114.801249128
 20
10.8644521042
 30
0.0
 10
114.8467132972
 20
10.8091631292
 30
0.0
 10
114.8912201718
 20
10.7791480207
 30
0.0
 10
114.9409708999
 20
10.7642839894
 30
0.0
 10
114.9744640275
 20
10.7626342957
 30
0.0
 10
114.990338532
 20
10.7618524023
 30
0.0
  0
LINE
  5
253
100
AcDbEntity
  8
0
100
AcDbLine
 62
7
  6
CONTINUOUS
 10
113.1618832232
 20
10.3691046763
 11
113.9307932107
 21
10.3691046763
  0
LINE
  5
254
100
AcDbEntity
  8
0
100
AcDbLine
 62
7
  6
CONTINUOUS
 10
113.9307932107
 20
10.3691046763
 11
113.9307932107
 21
10.273475758
  0
ARC
  5
255
100
AcDbEntity
  8
0
100
AcDbCircle
 62
7
  6
CONTINUOUS
 10
113.949826308
 20
10.273475758
 40
0.0190330973
100
AcDbArc
 50
180.0
 51
270.0
  0
LINE
  5
256
100
AcDbEntity
  8
0
100
AcDbLine
 62
7
  6
CONTINUOUS
 10
113.949826308
 20
10.2544426607
 11
114.2461909917
 21
10.2544426607
  0
ARC
  5
257
100
AcDbEntity
  8
0
100
AcDbCircle
 62
7
  6
CONTINUOUS
 10
114.2461909917
 20
10.273475758
 40
0.0190330973
100
AcDbArc
 50
270.0
 51
360.0
  0
LINE
  5
258
100
AcDbEntity
  8
0
100
AcDbLine
 62
7
  6
CONTINUOUS
 10
114.2652240891
 20
10.273475758
 11
114.2652240891
 21
10.3691046763
  0
LINE
  5
259
100
AcDbEntity
  8
0
100
AcDbLine
 62
7
  6
CONTINUOUS
 10
114.2652240891
 20
10.3691046763
 11
114.4164205705
 21
10.3691046763
  0
SPLINE
  5
25A
100
AcDbEntity
  8
0
100
AcDbSpline
 62
7
  6
CONTINUOUS
 70
0
 71
3
 72
12
 73
8
 74
0
 42
0.0000001
 43
0.0000001
 44
0.0000000001
 40
0.0
 40
0.0
 40
0.0
 40
0.0
 40
0.2415790084
 40
0.4893269843
 40
0.7378634303
 40
0.8656387112
 40
1.0
 40
1.0
 40
1.0
 40
1.0
 10
114.4164205705
 20
10.3691046763
 30
0.0
 10
114.4435315892
 20
10.3699475273
 30
0.0
 10
114.4984459349
 20
10.3716547527
 30
0.0
 10
114.5788073498
 20
10.4003137705
 30
0.0
 10
114.6276124192
 20
10.4544144118
 30
0.0
 10
114.6491143126
 20
10.5084709602
 30
0.0
 10
114.6495018082
 20
10.538083023
 30
0.0
 10
114.6497004239
 20
10.5532610457
 30
0.0
  0
LINE
  5
25B
100
AcDbEntity
  8
0
100
AcDbLine
 62
7
  6
CONTINUOUS
 10
114.6497004239
 20
10.5532610457
 11
114.6497004239
 21
11.1691306077
  0
SPLINE
  5
25C
100
AcDbEntity
  8
0
100
AcDbSpline
 62
7
  6
CONTINUOUS
 70
0
 71
3
 72
12
 73
8
 74
0
 42
0.0000001
 43
0.0000001
 44
0.0000000001
 40
0.0
 40
0.0
 40
0.0
 40
0.0
 40
0.1343612888
 40
0.2621365697
 40
0.5106730157
 40
0.7584209916
 40
1.0
 40
1.0
 40
1.0
 40
1.0
 10
114.6497004239
 20
11.1691306077
 30
0.0
 10
114.6495018082
 20
11.1843086311
 30
0.0
 10
114.6491143126
 20
11.213920694
 30
0.0
 10
114.6276124192
 20
11.2679772424
 30
0.0
 10
114.5788073498
 20
11.3220778836
 30
0.0
 10
114.4984459349
 20
11.3507369007
 30
0.0
 10
114.4435315892
 20
11.3524441261
 30
0.0
 10
114.4164205705
 20
11.3532869771
 30
0.0
  0
LINE
  5
25D
100
AcDbEntity
  8
0
100
AcDbLine
 62
7
  6
CONTINUOUS
 10
114.4164205705
 20
11.3532869771
 11
113.1618832232
 21
11.3532869771
  0
SPLINE
  5
25E
100
AcDbEntity
  8
0
100
AcDbSpline
 62
7
  6
CONTINUOUS
 70
0
 71
3
 72
12
 73
8
 74
0
 42
0.0000001
 43
0.0000001
 44
0.0000000001
 40
0.0
 40
0.0
 40
0.0
 40
0.0
 40
0.1341799809
 40
0.290831959
 40
0.5815217441
 40
0.760783857
 40
1.0
 40
1.0
 40
1.0
 40
1.0
 10
113.1618832232
 20
11.3532869771
 30
0.0
 10
113.1345195363
 20
11.3486102634
 30
0.0
 10
113.0752093879
 20
11.3384735951
 30
0.0
 10
112.9753702716
 20
11.2638840233
 30
0.0
 10
112.9280813993
 20
11.138394559
 30
0.0
 10
112.900413103
 20
10.9961406855
 30
0.0
 10
112.8983361307
 20
10.9100990589
 30
0.0
 10
112.8971488636
 20
10.8609147924
 30
0.0
  0
SPLINE
  5
25F
100
AcDbEntity
  8
0
100
AcDbSpline
 62
7
  6
CONTINUOUS
 70
0
 71
3
 72
12
 73
8
 74
0
 42
0.0000001
 43
0.0000001
 44
0.0000000001
 40
0.0
 40
0.0
 40
0.0
 40
0.0
 40
0.2392679579
 40
0.4185688994
 40
0.7093216488
 40
0.8660075581
 40
1.0
 40
1.0
 40
1.0
 40
1.0
 10
112.8971488636
 20
10.8609147924
 30
0.0
 10
112.898336605
 20
10.8117324428
 30
0.0
 10
112.9004144063
 20
10.7256941698
 30
0.0
 10
112.9280767324
 20
10.5834161563
 30
0.0
 10
112.975394497
 20
10.458043521
 30
0.0
 10
113.0751296666
 20
10.3832117416
 30
0.0
 10
113.1345106768
 20
10.373555748
 30
0.0
 10
113.1618832232
 20
10.3691046763
 30
0.0
  0
LINE
  5
260
100
AcDbEntity
  8
0
100
AcDbLine
 62
7
  6
CONTINUOUS
 10
114.3962846064
 20
10.6224898337
 11
114.3962846064
 21
11.115941827
  0
ARC
  5
261
100
AcDbEntity
  8
0
100
AcDbCircle
 62
7
  6
CONTINUOUS
 10
113.3580848588
 20
10.6224898337
 40
0.0494860531
100
AcDbArc
 50
180.0
 51
270.0
  0
LINE
  5
262
100
AcDbEntity
  8
0
100
AcDbLine
 62
7
  6
CONTINUOUS
 10
113.3580848588
 20
10.5730037806
 11
113.9264644311
 21
10.5730037806
  0
LINE
  5
263
100
AcDbEntity
  8
0
100
AcDbLine
 62
7
  6
CONTINUOUS
 10
113.9264644311
 20
10.5730037806
 11
113.9264644311
 21
10.6683363985
  0
ARC
  5
264
100
AcDbEntity
  8
0
100
AcDbCircle
 62
7
  6
CONTINUOUS
 10
113.9454975288
 20
10.6683363985
 40
0.0190330973
100
AcDbArc
 50
90.0
 51
180.0
  0
LINE
  5
265
100
AcDbEntity
  8
0
100
AcDbLine
 62
7
  6
CONTINUOUS
 10
113.9454975285
 20
10.6873694958
 11
114.2403518712
 21
10.6873694958
  0
ARC
  5
266
100
AcDbEntity
  8
0
100
AcDbCircle
 62
7
  6
CONTINUOUS
 10
114.2403518705
 20
10.6683363992
 40
0.0190330973
100
AcDbArc
 50
0.0
 51
90.0
  0
LINE
  5
267
100
AcDbEntity
  8
0
100
AcDbLine
 62
7
  6
CONTINUOUS
 10
114.2593849685
 20
10.5730037806
 11
114.3467985533
 21
10.5730037806
  0
ARC
  5
268
100
AcDbEntity
  8
0
100
AcDbCircle
 62
7
  6
CONTINUOUS
 10
114.3467985533
 20
10.6224898337
 40
0.0494860531
100
AcDbArc
 50
270.0
 51
360.0
  0
LINE
  5
269
100
AcDbEntity
  8
0
100
AcDbLine
 62
7
  6
CONTINUOUS
 10
114.2593849685
 20
10.5730037806
 11
114.2593849685
 21
10.6683363985
  0
LINE
  5
26A
100
AcDbEntity
  8
0
100
AcDbLine
 62
7
  6
CONTINUOUS
 10
113.3085988057
 20
10.6224898337
 11
113.3085988057
 21
11.115941827
  0
ARC
  5
26B
100
AcDbEntity
  8
0
100
AcDbCircle
 62
7
  6
CONTINUOUS
 10
113.3580848595
 20
11.115941827
 40
0.0494860531
100
AcDbArc
 50
90.0
 51
180.0
  0
LINE
  5
26C
100
AcDbEntity
  8
0
100
AcDbLine
 62
7
  6
CONTINUOUS
 10
113.3580848588
 20
11.16542788
 11
114.3467985533
 21
11.16542788
  0
ARC
  5
26D
100
AcDbEntity
  8
0
100
AcDbCircle
 62
7
  6
CONTINUOUS
 10
114.3467985538
 20
11.1159418265
 40
0.0494860531
100
AcDbArc
 50
0.0000000277
 51
90.0000000277
  0
ARC
  5
26E
100
AcDbEntity
  8
0
100
AcDbCircle
 62
7
  6
CONTINUOUS
 10
115.2705136799
 20
11.0113714207
 40
0.0494860531
100
AcDbArc
 50
180.0
 51
270.0
  0
ARC
  5
26F
100
AcDbEntity
  8
0
100
AcDbCircle
 62
7
  6
CONTINUOUS
 10
115.9407862689
 20
10.6113209404
 40
0.0494860531
100
AcDbArc
 50
270.0
 51
360.0
  0
ARC
  5
270
100
AcDbEntity
  8
0
100
AcDbCircle
 62
7
  6
CONTINUOUS
 10
117.023615701
 20
10.6156078448
 40
0.0494860531
100
AcDbArc
 50
180.0
 51
270.0
  0
ENDBLK
  5
271
100
AcDbEntity
  8
0
  6
BYBLOCK
 62
0
100
AcDbBlockEnd
  0
BLOCK
  5
272
100
AcDbEntity
  8
0
100
AcDbBlockBegin
  2
_FILLED
 70
64
 10
0.0
 20
0.0
  3
_FILLED
  1

  0
SOLID
  5
273
100
AcDbEntity
  8
0
  6
BYBLOCK
 62
0
100
AcDbTrace
 10
0.0
 20
0.0
 11
-1.0
 21
0.1666666667
 12
-1.0
 22
-0.1666666667
 13
-1.0
 23
-0.1666666667
  0
ENDBLK
  5
274
100
AcDbEntity
  8
0
  6
BYBLOCK
 62
0
100
AcDbBlockEnd
  0
BLOCK
  5
275
100
AcDbEntity
  8
0
100
AcDbBlockBegin
 62
2
  6
CONTINUOUS
  2
*D0
 70
65
 10
0.0
 20
0.0
  3
*D0
  1

  0
MTEXT
  5
276
100
AcDbEntity
  8
0
100
AcDbMText
 62
2
  6
CONTINUOUS
  7
STANDARD
 71
2
 72
1
 10
63.776368202
 20
76.6585213412
 30
0.0
 11
1.0
 21
0.0
 31
0.0
 44
0.9
  1
297.0\P[11.69]
 40
0.625
 41
3.8839285714
  0
LINE
  5
277
100
AcDbEntity
  8
0
100
AcDbLine
 62
2
  6
CONTINUOUS
 10
59.8448143061
 20
82.1924780341
 11
64.4102967734
 21
82.1924780341
  0
LINE
  5
278
100
AcDbEntity
  8
0
100
AcDbLine
 62
2
  6
CONTINUOUS
 10
59.8448143061
 20
70.4995646482
 11
64.4102967734
 21
70.4995646482
  0
LINE
  5
279
100
AcDbEntity
  8
0
100
AcDbLine
 62
2
  6
CONTINUOUS
 10
63.9102967734
 20
82.1924780341
 11
63.9102967734
 21
76.9710213412
  0
LINE
  5
27A
100
AcDbEntity
  8
0
100
AcDbLine
 62
2
  6
CONTINUOUS
 10
63.9102967734
 20
70.4995646482
 11
63.9102967734
 21
74.7835213412
  0
INSERT
  5
27B
100
AcDbEntity
  8
0
100
AcDbBlockReference
 62
2
  6
CONTINUOUS
  2
_FILLED
 10
63.9102967734
 20
82.1924780341
 41
0.75
 42
0.75
 43
0.75
 50
90.0
  0
INSERT
  5
27C
100
AcDbEntity
  8
0
100
AcDbBlockReference
 62
2
  6
CONTINUOUS
  2
_FILLED
 10
63.9102967734
 20
70.4995646482
 41
0.75
 42
0.75
 43
0.75
 50
270.0
  0
ENDBLK
  5
27D
100
AcDbEntity
  8
0
  6
BYBLOCK
 62
0
100
AcDbBlockEnd
  0
BLOCK
  5
27E
100
AcDbEntity
  8
0
100
AcDbBlockBegin
 62
2
  6
CONTINUOUS
  2
*D1
 70
65
 10
0.0
 20
0.0
  3
*D1
  1

  0
MTEXT
  5
27F
100
AcDbEntity
  8
0
100
AcDbMText
 62
2
  6
CONTINUOUS
  7
STANDARD
 71
2
 72
1
 10
49.9358519889
 20
68.3412733617
 30
0.0
 11
1.0
 21
0.0
 31
0.0
 44
0.9
  1
502.2\P[19.77]
 40
0.625
 41
4.0848214286
  0
LINE
  5
280
100
AcDbEntity
  8
0
100
AcDbLine
 62
2
  6
CONTINUOUS
 10
40.2733182431
 20
70.4995646482
 11
40.2733182431
 21
67.5287733617
  0
LINE
  5
281
100
AcDbEntity
  8
0
100
AcDbLine
 62
2
  6
CONTINUOUS
 10
60.0448143061
 20
75.6453914199
 11
60.0448143061
 21
67.5287733617
  0
LINE
  5
282
100
AcDbEntity
  8
0
100
AcDbLine
 62
2
  6
CONTINUOUS
 10
40.2733182431
 20
68.0287733617
 11
48.4849591318
 21
68.0287733617
  0
LINE
  5
283
100
AcDbEntity
  8
0
100
AcDbLine
 62
2
  6
CONTINUOUS
 10
60.0448143061
 20
68.0287733617
 11
51.8331734175
 21
68.0287733617
  0
INSERT
  5
284
100
AcDbEntity
  8
0
100
AcDbBlockReference
 62
2
  6
CONTINUOUS
  2
_FILLED
 10
40.2733182431
 20
68.0287733617
 41
0.75
 42
0.75
 43
0.75
 50
180.0
  0
INSERT
  5
285
100
AcDbEntity
  8
0
100
AcDbBlockReference
 62
2
  6
CONTINUOUS
  2
_FILLED
 10
60.0448143061
 20
68.0287733617
 41
0.75
 42
0.75
 43
0.75
  0
ENDBLK
  5
286
100
AcDbEntity
  8
0
  6
BYBLOCK
 62
0
100
AcDbBlockEnd
  0
BLOCK
  5
287
100
AcDbEntity
  8
0
100
AcDbBlockBegin
 62
2
  6
CONTINUOUS
  2
*D2
 70
65
 10
0.0
 20
0.0
  3
*D2
  1

  0
MTEXT
  5
288
100
AcDbEntity
  8
0
100
AcDbMText
 62
2
  6
CONTINUOUS
  7
STANDARD
 71
2
 72
1
 10
66.959388236
 20
46.4152865239
 30
0.0
 11
1.0
 21
0.0
 31
0.0
 44
0.9
  1
709.2\P[27.92]
 40
0.625
 41
4.2857142857
  0
LINE
  5
289
100
AcDbEntity
  8
0
100
AcDbLine
 62
2
  6
CONTINUOUS
 10
59.8448143061
 20
60.0632195948
 11
67.7272453789
 21
60.0632195948
  0
LINE
  5
28A
100
AcDbEntity
  8
0
100
AcDbLine
 62
2
  6
CONTINUOUS
 10
57.8622158809
 20
32.1423534531
 11
67.7272453789
 21
32.1423534531
  0
LINE
  5
28B
100
AcDbEntity
  8
0
100
AcDbLine
 62
2
  6
CONTINUOUS
 10
67.2272453789
 20
60.0632195948
 11
67.2272453789
 21
46.7277865239
  0
LINE
  5
28C
100
AcDbEntity
  8
0
100
AcDbLine
 62
2
  6
CONTINUOUS
 10
67.2272453789
 20
32.1423534531
 11
67.2272453789
 21
44.5402865239
  0
INSERT
  5
28D
100
AcDbEntity
  8
0
100
AcDbBlockReference
 62
2
  6
CONTINUOUS
  2
_FILLED
 10
67.2272453789
 20
60.0632195948
 41
0.75
 42
0.75
 43
0.75
 50
90.0
  0
INSERT
  5
28E
100
AcDbEntity
  8
0
100
AcDbBlockReference
 62
2
  6
CONTINUOUS
  2
_FILLED
 10
67.2272453789
 20
32.1423534531
 41
0.75
 42
0.75
 43
0.75
 50
270.0
  0
ENDBLK
  5
28F
100
AcDbEntity
  8
0
  6
BYBLOCK
 62
0
100
AcDbBlockEnd
  0
BLOCK
  5
290
100
AcDbEntity
  8
0
100
AcDbBlockBegin
 62
2
  6
CONTINUOUS
  2
*D3
 70
65
 10
0.0
 20
0.0
  3
*D3
  1

  0
MTEXT
  5
291
100
AcDbEntity
  8
0
100
AcDbMText
 62
2
  6
CONTINUOUS
  7
STANDARD
 71
1
 72
1
 10
89.9775440751
 20
30.3371867265
 30
0.0
 11
1.0
 21
0.0
 31
0.0
 44
0.9
  1
38.5\P[1.51]
 40
0.625
 41
3.0803571429
  0
LINE
  5
292
100
AcDbEntity
  8
0
100
AcDbLine
 62
2
  6
CONTINUOUS
 10
87.7370939031
 20
32.8923534531
 11
87.7370939031
 21
29.5246867265
  0
LINE
  5
293
100
AcDbEntity
  8
0
100
AcDbLine
 62
2
  6
CONTINUOUS
 10
86.2231568952
 20
40.936329831
 11
86.2231568952
 21
29.5246867265
  0
LINE
  5
294
100
AcDbEntity
  8
0
100
AcDbLine
 62
2
  6
CONTINUOUS
 10
87.7370939031
 20
30.0246867265
 11
89.6650440751
 21
30.0246867265
  0
LINE
  5
295
100
AcDbEntity
  8
0
100
AcDbLine
 62
2
  6
CONTINUOUS
 10
86.2231568952
 20
30.0246867265
 11
84.2231568952
 21
30.0246867265
  0
INSERT
  5
296
100
AcDbEntity
  8
0
100
AcDbBlockReference
 62
2
  6
CONTINUOUS
  2
_FILLED
 10
87.7370939031
 20
30.0246867265
 41
0.75
 42
0.75
 43
0.75
 50
180.0
  0
INSERT
  5
297
100
AcDbEntity
  8
0
100
AcDbBlockReference
 62
2
  6
CONTINUOUS
  2
_FILLED
 10
86.2231568952
 20
30.0246867265
 41
0.75
 42
0.75
 43
0.75
  0
ENDBLK
  5
298
100
AcDbEntity
  8
0
  6
BYBLOCK
 62
0
100
AcDbBlockEnd
  0
BLOCK
  5
299
100
AcDbEntity
  8
0
100
AcDbBlockBegin
 62
2
  6
CONTINUOUS
  2
*D4
 70
65
 10
0.0
 20
0.0
  3
*D4
  1

  0
MTEXT
  5
29A
100
AcDbEntity
  8
0
100
AcDbMText
 62
2
  6
CONTINUOUS
  7
STANDARD
 71
3
 72
1
 10
79.9941755727
 20
30.3371867265
 30
0.0
 11
1.0
 21
0.0
 31
0.0
 44
0.9
  1
126.5\P[4.98]
 40
0.625
 41
3.5491071429
  0
LINE
  5
29B
100
AcDbEntity
  8
0
100
AcDbLine
 62
2
  6
CONTINUOUS
 10
86.2231568952
 20
40.936329831
 11
86.2231568952
 21
29.5246867265
  0
LINE
  5
29C
100
AcDbEntity
  8
0
100
AcDbLine
 62
2
  6
CONTINUOUS
 10
81.2431568952
 20
40.936329831
 11
81.2431568952
 21
29.5246867265
  0
LINE
  5
29D
100
AcDbEntity
  8
0
100
AcDbLine
 62
2
  6
CONTINUOUS
 10
86.2231568952
 20
30.0246867265
 11
83.7331568952
 21
30.0246867265
  0
LINE
  5
29E
100
AcDbEntity
  8
0
100
AcDbLine
 62
2
  6
CONTINUOUS
 10
81.2431568952
 20
30.0246867265
 11
83.7331568952
 21
30.0246867265
  0
LINE
  5
29F
100
AcDbEntity
  8
0
100
AcDbLine
 62
2
  6
CONTINUOUS
 10
83.7331568952
 20
30.0246867265
 11
80.5298898584
 21
30.0246867265
  0
INSERT
  5
2A0
100
AcDbEntity
  8
0
100
AcDbBlockReference
 62
2
  6
CONTINUOUS
  2
_FILLED
 10
86.2231568952
 20
30.0246867265
 41
0.75
 42
0.75
 43
0.75
  0
INSERT
  5
2A1
100
AcDbEntity
  8
0
100
AcDbBlockReference
 62
2
  6
CONTINUOUS
  2
_FILLED
 10
81.2431568952
 20
30.0246867265
 41
0.75
 42
0.75
 43
0.75
 50
180.0
  0
ENDBLK
  5
2A2
100
AcDbEntity
  8
0
  6
BYBLOCK
 62
0
100
AcDbBlockEnd
  0
BLOCK
  5
2A3
100
AcDbEntity
  8
0
100
AcDbBlockBegin
 62
2
  6
CONTINUOUS
  2
*D5
 70
65
 10
0.0
 20
0.0
  3
*D5
  1

  0
MTEXT
  5
2A4
100
AcDbEntity
  8
0
100
AcDbMText
 62
2
  6
CONTINUOUS
  7
STANDARD
 71
2
 72
1
 10
91.3878806169
 20
37.2534164452
 30
0.0
 11
1.0
 21
0.0
 31
0.0
 44
0.9
  1
205.7\P[8.10]
 40
0.625
 41
3.4151785714
  0
LINE
  5
2A5
100
AcDbEntity
  8
0
100
AcDbLine
 62
2
  6
CONTINUOUS
 10
87.7370939031
 20
32.8923534531
 11
91.8878806169
 21
32.8923534531
  0
LINE
  5
2A6
100
AcDbEntity
  8
0
100
AcDbLine
 62
2
  6
CONTINUOUS
 10
86.2763065015
 20
40.9894794373
 11
91.8878806169
 21
40.9894794373
  0
LINE
  5
2A7
100
AcDbEntity
  8
0
100
AcDbLine
 62
2
  6
CONTINUOUS
 10
91.3878806169
 20
32.8923534531
 11
91.3878806169
 21
35.3784164452
  0
LINE
  5
2A8
100
AcDbEntity
  8
0
100
AcDbLine
 62
2
  6
CONTINUOUS
 10
91.3878806169
 20
40.9894794373
 11
91.3878806169
 21
37.5659164452
  0
INSERT
  5
2A9
100
AcDbEntity
  8
0
100
AcDbBlockReference
 62
2
  6
CONTINUOUS
  2
_FILLED
 10
91.3878806169
 20
32.8923534531
 41
0.75
 42
0.75
 43
0.75
 50
270.0
  0
INSERT
  5
2AA
100
AcDbEntity
  8
0
100
AcDbBlockReference
 62
2
  6
CONTINUOUS
  2
_FILLED
 10
91.3878806169
 20
40.9894794373
 41
0.75
 42
0.75
 43
0.75
 50
90.0
  0
ENDBLK
  5
2AB
100
AcDbEntity
  8
0
  6
BYBLOCK
 62
0
100
AcDbBlockEnd
  0
BLOCK
  5
2AC
100
AcDbEntity
  8
0
100
AcDbBlockBegin
 62
2
  6
CONTINUOUS
  2
*D6
 70
65
 10
0.0
 20
0.0
  3
*D6
  1

  0
MTEXT
  5
2AD
100
AcDbEntity
  8
0
100
AcDbMText
 62
2
  6
CONTINUOUS
  7
STANDARD
 71
2
 72
1
 10
91.2926781957
 20
44.7969794373
 30
0.0
 11
1.0
 21
0.0
 31
0.0
 44
0.9
  1
177.5\P[6.99]
 40
0.625
 41
3.5491071429
  0
LINE
  5
2AE
100
AcDbEntity
  8
0
100
AcDbLine
 62
2
  6
CONTINUOUS
 10
86.2763065015
 20
47.9794794373
 11
91.9042853386
 21
47.9794794373
  0
LINE
  5
2AF
100
AcDbEntity
  8
0
100
AcDbLine
 62
2
  6
CONTINUOUS
 10
86.2763065015
 20
40.9894794373
 11
91.9042853386
 21
40.9894794373
  0
LINE
  5
2B0
100
AcDbEntity
  8
0
100
AcDbLine
 62
2
  6
CONTINUOUS
 10
91.4042853386
 20
47.9794794373
 11
91.4042853386
 21
45.1094794373
  0
LINE
  5
2B1
100
AcDbEntity
  8
0
100
AcDbLine
 62
2
  6
CONTINUOUS
 10
91.4042853386
 20
40.9894794373
 11
91.4042853386
 21
42.9219794373
  0
INSERT
  5
2B2
100
AcDbEntity
  8
0
100
AcDbBlockReference
 62
2
  6
CONTINUOUS
  2
_FILLED
 10
91.4042853386
 20
47.9794794373
 41
0.75
 42
0.75
 43
0.75
 50
90.0
  0
INSERT
  5
2B3
100
AcDbEntity
  8
0
100
AcDbBlockReference
 62
2
  6
CONTINUOUS
  2
_FILLED
 10
91.4042853386
 20
40.9894794373
 41
0.75
 42
0.75
 43
0.75
 50
270.0
  0
ENDBLK
  5
2B4
100
AcDbEntity
  8
0
  6
BYBLOCK
 62
0
100
AcDbBlockEnd
  0
BLOCK
  5
2B5
100
AcDbEntity
  8
0
100
AcDbBlockBegin
 62
2
  6
CONTINUOUS
  2
*D7
 70
65
 10
0.0
 20
0.0
  3
*D7
  1

  0
MTEXT
  5
2B6
100
AcDbEntity
  8
0
100
AcDbMText
 62
2
  6
CONTINUOUS
  7
STANDARD
 71
2
 72
1
 10
28.7019099158
 20
39.0887117208
 30
0.0
 11
1.0
 21
0.0
 31
0.0
 44
0.9
  1
337.0\P[13.27]
 40
0.625
 41
4.0178571429
  0
LINE
  5
2B7
100
AcDbEntity
  8
0
100
AcDbLine
 62
2
  6
CONTINUOUS
 10
21.682859925
 20
45.4100699885
 11
29.4251242015
 21
45.4100699885
  0
LINE
  5
2B8
100
AcDbEntity
  8
0
100
AcDbLine
 62
2
  6
CONTINUOUS
 10
24.5401373986
 20
32.1423534531
 11
29.4251242015
 21
32.1423534531
  0
LINE
  5
2B9
100
AcDbEntity
  8
0
100
AcDbLine
 62
2
  6
CONTINUOUS
 10
28.9251242015
 20
45.4100699885
 11
28.9251242015
 21
39.4012117208
  0
LINE
  5
2BA
100
AcDbEntity
  8
0
100
AcDbLine
 62
2
  6
CONTINUOUS
 10
28.9251242015
 20
32.1423534531
 11
28.9251242015
 21
37.2137117208
  0
INSERT
  5
2BB
100
AcDbEntity
  8
0
100
AcDbBlockReference
 62
2
  6
CONTINUOUS
  2
_FILLED
 10
28.9251242015
 20
45.4100699885
 41
0.75
 42
0.75
 43
0.75
 50
90.0
  0
INSERT
  5
2BC
100
AcDbEntity
  8
0
100
AcDbBlockReference
 62
2
  6
CONTINUOUS
  2
_FILLED
 10
28.9251242015
 20
32.1423534531
 41
0.75
 42
0.75
 43
0.75
 50
270.0
  0
ENDBLK
  5
2BD
100
AcDbEntity
  8
0
  6
BYBLOCK
 62
0
100
AcDbBlockEnd
  0
BLOCK
  5
2BE
100
AcDbEntity
  8
0
100
AcDbBlockBegin
 62
2
  6
CONTINUOUS
  2
*D8
 70
65
 10
0.0
 20
0.0
  3
*D8
  1

  0
MTEXT
  5
2BF
100
AcDbEntity
  8
0
100
AcDbMText
 62
2
  6
CONTINUOUS
  7
STANDARD
 71
2
 72
1
 10
22.6857715381
 20
63.5427695496
 30
0.0
 11
1.0
 21
0.0
 31
0.0
 44
0.9
  1
147.0\P[5.79]
 40
0.625
 41
3.4821428571
  0
LINE
  5
2C0
100
AcDbEntity
  8
0
100
AcDbLine
 62
2
  6
CONTINUOUS
 10
25.6464366112
 20
60.0632195948
 11
25.6464366112
 21
63.7302695496
  0
LINE
  5
2C1
100
AcDbEntity
  8
0
100
AcDbLine
 62
2
  6
CONTINUOUS
 10
19.8590350364
 20
46.5521959727
 11
19.8590350364
 21
63.7302695496
  0
LINE
  5
2C2
100
AcDbEntity
  8
0
100
AcDbLine
 62
2
  6
CONTINUOUS
 10
25.6464366112
 20
63.2302695496
 11
24.2259501095
 21
63.2302695496
  0
LINE
  5
2C3
100
AcDbEntity
  8
0
100
AcDbLine
 62
2
  6
CONTINUOUS
 10
19.8590350364
 20
63.2302695496
 11
21.2795215381
 21
63.2302695496
  0
INSERT
  5
2C4
100
AcDbEntity
  8
0
100
AcDbBlockReference
 62
2
  6
CONTINUOUS
  2
_FILLED
 10
25.6464366112
 20
63.2302695496
 41
0.75
 42
0.75
 43
0.75
  0
INSERT
  5
2C5
100
AcDbEntity
  8
0
100
AcDbBlockReference
 62
2
  6
CONTINUOUS
  2
_FILLED
 10
19.8590350364
 20
63.2302695496
 41
0.75
 42
0.75
 43
0.75
 50
180.0
  0
ENDBLK
  5
2C6
100
AcDbEntity
  8
0
  6
BYBLOCK
 62
0
100
AcDbBlockEnd
  0
BLOCK
  5
2C7
100
AcDbEntity
  8
0
100
AcDbBlockBegin
 62
2
  6
CONTINUOUS
  2
*D9
 70
65
 10
0.0
 20
0.0
  3
*D9
  1

  0
MTEXT
  5
2C8
100
AcDbEntity
  8
0
100
AcDbMText
 62
2
  6
CONTINUOUS
  7
STANDARD
 71
2
 72
1
 10
62.7160434962
 20
46.7902865239
 30
0.0
 11
1.0
 21
0.0
 31
0.0
 44
0.9
  1
690.1\P[27.17]
 40
0.625
 41
4.0848214286
  0
LINE
  5
2C9
100
AcDbEntity
  8
0
100
AcDbLine
 62
2
  6
CONTINUOUS
 10
59.8448143061
 20
32.8923534531
 11
63.483900639
 21
32.8923534531
  0
LINE
  5
2CA
100
AcDbEntity
  8
0
100
AcDbLine
 62
2
  6
CONTINUOUS
 10
59.8448143061
 20
60.0632195948
 11
63.483900639
 21
60.0632195948
  0
LINE
  5
2CB
100
AcDbEntity
  8
0
100
AcDbLine
 62
2
  6
CONTINUOUS
 10
62.983900639
 20
32.8923534531
 11
62.983900639
 21
44.9152865239
  0
LINE
  5
2CC
100
AcDbEntity
  8
0
100
AcDbLine
 62
2
  6
CONTINUOUS
 10
62.983900639
 20
60.0632195948
 11
62.983900639
 21
47.1027865239
  0
INSERT
  5
2CD
100
AcDbEntity
  8
0
100
AcDbBlockReference
 62
2
  6
CONTINUOUS
  2
_FILLED
 10
62.983900639
 20
32.8923534531
 41
0.75
 42
0.75
 43
0.75
 50
270.0
  0
INSERT
  5
2CE
100
AcDbEntity
  8
0
100
AcDbBlockReference
 62
2
  6
CONTINUOUS
  2
_FILLED
 10
62.983900639
 20
60.0632195948
 41
0.75
 42
0.75
 43
0.75
 50
90.0
  0
ENDBLK
  5
2CF
100
AcDbEntity
  8
0
  6
BYBLOCK
 62
0
100
AcDbBlockEnd
  0
BLOCK
  5
2D0
100
AcDbEntity
  8
0
100
AcDbBlockBegin
 62
2
  6
CONTINUOUS
  2
*D10
 70
65
 10
0.0
 20
0.0
  3
*D10
  1

  0
MTEXT
  5
2D1
100
AcDbEntity
  8
0
100
AcDbMText
 62
2
  6
CONTINUOUS
  7
STANDARD
 71
2
 72
1
 10
49.8135305603
 20
63.1448450329
 30
0.0
 11
1.0
 21
0.0
 31
0.0
 44
0.9
  1
497.1\P[19.57]
 40
0.625
 41
4.0178571429
  0
LINE
  5
2D2
100
AcDbEntity
  8
0
100
AcDbLine
 62
2
  6
CONTINUOUS
 10
40.2733182431
 20
60.0632195948
 11
40.2733182431
 21
63.3323450329
  0
LINE
  5
2D3
100
AcDbEntity
  8
0
100
AcDbLine
 62
2
  6
CONTINUOUS
 10
59.8448143061
 20
60.0632195948
 11
59.8448143061
 21
63.3323450329
  0
LINE
  5
2D4
100
AcDbEntity
  8
0
100
AcDbLine
 62
2
  6
CONTINUOUS
 10
40.2733182431
 20
62.8323450329
 11
48.4072805603
 21
62.8323450329
  0
LINE
  5
2D5
100
AcDbEntity
  8
0
100
AcDbLine
 62
2
  6
CONTINUOUS
 10
59.8448143061
 20
62.8323450329
 11
51.7108519889
 21
62.8323450329
  0
INSERT
  5
2D6
100
AcDbEntity
  8
0
100
AcDbBlockReference
 62
2
  6
CONTINUOUS
  2
_FILLED
 10
40.2733182431
 20
62.8323450329
 41
0.75
 42
0.75
 43
0.75
 50
180.0
  0
INSERT
  5
2D7
100
AcDbEntity
  8
0
100
AcDbBlockReference
 62
2
  6
CONTINUOUS
  2
_FILLED
 10
59.8448143061
 20
62.8323450329
 41
0.75
 42
0.75
 43
0.75
  0
ENDBLK
  5
2D8
100
AcDbEntity
  8
0
  6
BYBLOCK
 62
0
100
AcDbBlockEnd
  0
BLOCK
  5
2D9
100
AcDbEntity
  8
0
100
AcDbBlockBegin
 62
2
  6
CONTINUOUS
  2
*D11
 70
65
 10
0.0
 20
0.0
  3
*D11
  1

  0
MTEXT
  5
2DA
100
AcDbEntity
  8
0
100
AcDbMText
 62
2
  6
CONTINUOUS
  7
STANDARD
 71
2
 72
1
 10
63.7110744581
 20
15.5291690134
 30
0.0
 11
1.0
 21
0.0
 31
0.0
 44
0.9
  1
48.5\P[1.91]
 40
0.625
 41
3.1473214286
  0
LINE
  5
2DB
100
AcDbEntity
  8
0
100
AcDbLine
 62
2
  6
CONTINUOUS
 10
59.8448143061
 20
16.649460379
 11
64.3673244581
 21
16.649460379
  0
LINE
  5
2DC
100
AcDbEntity
  8
0
100
AcDbLine
 62
2
  6
CONTINUOUS
 10
58.4590662746
 20
18.5589091979
 11
64.3673244581
 21
18.5589091979
  0
LINE
  5
2DD
100
AcDbEntity
  8
0
100
AcDbLine
 62
2
  6
CONTINUOUS
 10
63.8673244581
 20
16.649460379
 11
63.8673244581
 21
17.6041847885
  0
LINE
  5
2DE
100
AcDbEntity
  8
0
100
AcDbLine
 62
2
  6
CONTINUOUS
 10
63.8673244581
 20
17.6041847885
 11
63.8673244581
 21
15.8416690134
  0
LINE
  5
2DF
100
AcDbEntity
  8
0
100
AcDbLine
 62
2
  6
CONTINUOUS
 10
63.8673244581
 20
18.5589091979
 11
63.8673244581
 21
17.6041847885
  0
INSERT
  5
2E0
100
AcDbEntity
  8
0
100
AcDbBlockReference
 62
2
  6
CONTINUOUS
  2
_FILLED
 10
63.8673244581
 20
16.649460379
 41
0.75
 42
0.75
 43
0.75
 50
270.0
  0
INSERT
  5
2E1
100
AcDbEntity
  8
0
100
AcDbBlockReference
 62
2
  6
CONTINUOUS
  2
_FILLED
 10
63.8673244581
 20
18.5589091979
 41
0.75
 42
0.75
 43
0.75
 50
90.0
  0
ENDBLK
  5
2E2
100
AcDbEntity
  8
0
  6
BYBLOCK
 62
0
100
AcDbBlockEnd
  0
BLOCK
  5
2E3
100
AcDbEntity
  8
0
100
AcDbBlockBegin
 62
2
  6
CONTINUOUS
  2
*D12
 70
65
 10
0.0
 20
0.0
  3
*D12
  1

  0
MTEXT
  5
2E4
100
AcDbEntity
  8
0
100
AcDbMText
 62
2
  6
CONTINUOUS
  7
STANDARD
 71
2
 72
1
 10
63.8450030295
 20
22.8084170719
 30
0.0
 11
1.0
 21
0.0
 31
0.0
 44
0.9
  1
200.0\P[7.87]
 40
0.625
 41
3.5491071429
  0
LINE
  5
2E5
100
AcDbEntity
  8
0
100
AcDbLine
 62
2
  6
CONTINUOUS
 10
58.4590662746
 20
18.5589091979
 11
64.3673244581
 21
18.5589091979
  0
LINE
  5
2E6
100
AcDbEntity
  8
0
100
AcDbLine
 62
2
  6
CONTINUOUS
 10
58.4590662746
 20
26.432924946
 11
64.3673244581
 21
26.432924946
  0
LINE
  5
2E7
100
AcDbEntity
  8
0
100
AcDbLine
 62
2
  6
CONTINUOUS
 10
63.8673244581
 20
18.5589091979
 11
63.8673244581
 21
20.9334170719
  0
LINE
  5
2E8
100
AcDbEntity
  8
0
100
AcDbLine
 62
2
  6
CONTINUOUS
 10
63.8673244581
 20
26.432924946
 11
63.8673244581
 21
23.1209170719
  0
INSERT
  5
2E9
100
AcDbEntity
  8
0
100
AcDbBlockReference
 62
2
  6
CONTINUOUS
  2
_FILLED
 10
63.8673244581
 20
18.5589091979
 41
0.75
 42
0.75
 43
0.75
 50
270.0
  0
INSERT
  5
2EA
100
AcDbEntity
  8
0
100
AcDbBlockReference
 62
2
  6
CONTINUOUS
  2
_FILLED
 10
63.8673244581
 20
26.432924946
 41
0.75
 42
0.75
 43
0.75
 50
90.0
  0
ENDBLK
  5
2EB
100
AcDbEntity
  8
0
  6
BYBLOCK
 62
0
100
AcDbBlockEnd
  0
BLOCK
  5
2EC
100
AcDbEntity
  8
0
100
AcDbBlockBegin
 62
2
  6
CONTINUOUS
  2
*D13
 70
65
 10
0.0
 20
0.0
  3
*D13
  1

  0
MTEXT
  5
2ED
100
AcDbEntity
  8
0
100
AcDbMText
 62
2
  6
CONTINUOUS
  7
STANDARD
 71
1
 72
1
 10
60.5573936474
 20
13.4437234124
 30
0.0
 11
1.0
 21
0.0
 31
0.0
 44
0.9
  1
70.8\P[2.79]
 40
0.625
 41
3.5491071429
  0
LINE
  5
2EE
100
AcDbEntity
  8
0
100
AcDbLine
 62
2
  6
CONTINUOUS
 10
59.8448143061
 20
16.649460379
 11
59.8448143061
 21
12.6312234124
  0
LINE
  5
2EF
100
AcDbEntity
  8
0
100
AcDbLine
 62
2
  6
CONTINUOUS
 10
57.0590662746
 20
17.1589091979
 11
57.0590662746
 21
12.6312234124
  0
LINE
  5
2F0
100
AcDbEntity
  8
0
100
AcDbLine
 62
2
  6
CONTINUOUS
 10
59.8448143061
 20
13.1312234124
 11
58.4519402904
 21
13.1312234124
  0
LINE
  5
2F1
100
AcDbEntity
  8
0
100
AcDbLine
 62
2
  6
CONTINUOUS
 10
58.4519402904
 20
13.1312234124
 11
60.2448936474
 21
13.1312234124
  0
LINE
  5
2F2
100
AcDbEntity
  8
0
100
AcDbLine
 62
2
  6
CONTINUOUS
 10
57.0590662746
 20
13.1312234124
 11
58.4519402904
 21
13.1312234124
  0
INSERT
  5
2F3
100
AcDbEntity
  8
0
100
AcDbBlockReference
 62
2
  6
CONTINUOUS
  2
_FILLED
 10
59.8448143061
 20
13.1312234124
 41
0.75
 42
0.75
 43
0.75
  0
INSERT
  5
2F4
100
AcDbEntity
  8
0
100
AcDbBlockReference
 62
2
  6
CONTINUOUS
  2
_FILLED
 10
57.0590662746
 20
13.1312234124
 41
0.75
 42
0.75
 43
0.75
 50
180.0
  0
ENDBLK
  5
2F5
100
AcDbEntity
  8
0
  6
BYBLOCK
 62
0
100
AcDbBlockEnd
  0
BLOCK
  5
2F6
100
AcDbEntity
  8
0
100
AcDbBlockBegin
 62
2
  6
CONTINUOUS
  2
*D14
 70
65
 10
0.0
 20
0.0
  3
*D14
  1

  0
MTEXT
  5
2F7
100
AcDbEntity
  8
0
100
AcDbMText
 62
2
  6
CONTINUOUS
  7
STANDARD
 71
2
 72
1
 10
49.7912091318
 20
13.4437234124
 30
0.0
 11
1.0
 21
0.0
 31
0.0
 44
0.9
  1
355.6\P[14.00]
 40
0.625
 41
4.0848214286
  0
LINE
  5
2F8
100
AcDbEntity
  8
0
100
AcDbLine
 62
2
  6
CONTINUOUS
 10
57.0590662746
 20
17.1589091979
 11
57.0590662746
 21
12.6312234124
  0
LINE
  5
2F9
100
AcDbEntity
  8
0
100
AcDbLine
 62
2
  6
CONTINUOUS
 10
43.0590662746
 20
17.1589091979
 11
43.0590662746
 21
12.6312234124
  0
LINE
  5
2FA
100
AcDbEntity
  8
0
100
AcDbLine
 62
2
  6
CONTINUOUS
 10
57.0590662746
 20
13.1312234124
 11
51.7331734175
 21
13.1312234124
  0
LINE
  5
2FB
100
AcDbEntity
  8
0
100
AcDbLine
 62
2
  6
CONTINUOUS
 10
43.0590662746
 20
13.1312234124
 11
48.3849591318
 21
13.1312234124
  0
INSERT
  5
2FC
100
AcDbEntity
  8
0
100
AcDbBlockReference
 62
2
  6
CONTINUOUS
  2
_FILLED
 10
57.0590662746
 20
13.1312234124
 41
0.75
 42
0.75
 43
0.75
  0
INSERT
  5
2FD
100
AcDbEntity
  8
0
100
AcDbBlockReference
 62
2
  6
CONTINUOUS
  2
_FILLED
 10
43.0590662746
 20
13.1312234124
 41
0.75
 42
0.75
 43
0.75
 50
180.0
  0
ENDBLK
  5
2FE
100
AcDbEntity
  8
0
  6
BYBLOCK
 62
0
100
AcDbBlockEnd
  0
ENDSEC
  0
SECTION
  2
ENTITIES
  0
MTEXT
  5
2FF
100
AcDbEntity
  8
0
100
AcDbMText
 62
2
  6
CONTINUOUS
  7
STANDARD
 71
1
 72
1
 10
9.8516309789
 20
1.4596667342
 30
0.0
 11
1.0
 21
0.0
 31
0.0
 44
0.9
  1
8
 40
0.625
 41
0.7366071429
  0
MTEXT
  5
300
100
AcDbEntity
  8
0
100
AcDbMText
 62
2
  6
CONTINUOUS
  7
STANDARD
 71
1
 72
1
 10
26.1016309789
 20
1.4596667342
 30
0.0
 11
1.0
 21
0.0
 31
0.0
 44
0.9
  1
7
 40
0.625
 41
0.7366071429
  0
MTEXT
  5
301
100
AcDbEntity
  8
0
100
AcDbMText
 62
2
  6
CONTINUOUS
  7
STANDARD
 71
1
 72
1
 10
42.3516309789
 20
1.4596667342
 30
0.0
 11
1.0
 21
0.0
 31
0.0
 44
0.9
  1
6
 40
0.625
 41
0.7366071429
  0
MTEXT
  5
302
100
AcDbEntity
  8
0
100
AcDbMText
 62
2
  6
CONTINUOUS
  7
STANDARD
 71
1
 72
1
 10
58.6016309789
 20
1.4596667342
 30
0.0
 11
1.0
 21
0.0
 31
0.0
 44
0.9
  1
5
 40
0.625
 41
0.6696428571
  0
MTEXT
  5
303
100
AcDbEntity
  8
0
100
AcDbMText
 62
2
  6
CONTINUOUS
  7
STANDARD
 71
1
 72
1
 10
74.8516309789
 20
1.4596667342
 30
0.0
 11
1.0
 21
0.0
 31
0.0
 44
0.9
  1
4
 40
0.625
 41
0.7366071429
  0
MTEXT
  5
304
100
AcDbEntity
  8
0
100
AcDbMText
 62
2
  6
CONTINUOUS
  7
STANDARD
 71
1
 72
1
 10
91.1016309789
 20
1.4596667342
 30
0.0
 11
1.0
 21
0.0
 31
0.0
 44
0.9
  1
3
 40
0.625
 41
0.6696428571
  0
MTEXT
  5
305
100
AcDbEntity
  8
0
100
AcDbMText
 62
2
  6
CONTINUOUS
  7
STANDARD
 71
1
 72
1
 10
107.3516309789
 20
1.4596667342
 30
0.0
 11
1.0
 21
0.0
 31
0.0
 44
0.9
  1
2
 40
0.625
 41
0.7366071429
  0
MTEXT
  5
306
100
AcDbEntity
  8
0
100
AcDbMText
 62
2
  6
CONTINUOUS
  7
STANDARD
 71
1
 72
1
 10
123.6016309789
 20
1.4596667342
 30
0.0
 11
1.0
 21
0.0
 31
0.0
 44
0.9
  1
1
 40
0.625
 41
0.5357142857
  0
MTEXT
  5
307
100
AcDbEntity
  8
0
100
AcDbMText
 62
2
  6
CONTINUOUS
  7
STANDARD
 71
1
 72
1
 10
9.8516309789
 20
87.4596667342
 30
0.0
 11
1.0
 21
0.0
 31
0.0
 44
0.9
  1
8
 40
0.625
 41
0.9151785714
  0
MTEXT
  5
308
100
AcDbEntity
  8
0
100
AcDbMText
 62
2
  6
CONTINUOUS
  7
STANDARD
 71
1
 72
1
 10
26.1016309789
 20
87.4596667342
 30
0.0
 11
1.0
 21
0.0
 31
0.0
 44
0.9
  1
7
 40
0.625
 41
0.7366071429
  0
MTEXT
  5
309
100
AcDbEntity
  8
0
100
AcDbMText
 62
2
  6
CONTINUOUS
  7
STANDARD
 71
1
 72
1
 10
42.3516309789
 20
87.4596667342
 30
0.0
 11
1.0
 21
0.0
 31
0.0
 44
0.9
  1
6
 40
0.625
 41
0.7366071429
  0
MTEXT
  5
30A
100
AcDbEntity
  8
0
100
AcDbMText
 62
2
  6
CONTINUOUS
  7
STANDARD
 71
1
 72
1
 10
58.6016309789
 20
87.4596667342
 30
0.0
 11
1.0
 21
0.0
 31
0.0
 44
0.9
  1
5
 40
0.625
 41
0.6696428571
  0
MTEXT
  5
30B
100
AcDbEntity
  8
0
100
AcDbMText
 62
2
  6
CONTINUOUS
  7
STANDARD
 71
1
 72
1
 10
74.8516309789
 20
87.4596667342
 30
0.0
 11
1.0
 21
0.0
 31
0.0
 44
0.9
  1
4
 40
0.625
 41
0.7366071429
  0
MTEXT
  5
30C
100
AcDbEntity
  8
0
100
AcDbMText
 62
2
  6
CONTINUOUS
  7
STANDARD
 71
1
 72
1
 10
91.1016309789
 20
87.4596667342
 30
0.0
 11
1.0
 21
0.0
 31
0.0
 44
0.9
  1
3
 40
0.625
 41
0.6696428571
  0
MTEXT
  5
30D
100
AcDbEntity
  8
0
100
AcDbMText
 62
2
  6
CONTINUOUS
  7
STANDARD
 71
1
 72
1
 10
107.3516309789
 20
87.4596667342
 30
0.0
 11
1.0
 21
0.0
 31
0.0
 44
0.9
  1
2
 40
0.625
 41
0.7366071429
  0
MTEXT
  5
30E
100
AcDbEntity
  8
0
100
AcDbMText
 62
2
  6
CONTINUOUS
  7
STANDARD
 71
1
 72
1
 10
123.6016309789
 20
87.4596667342
 30
0.0
 11
1.0
 21
0.0
 31
0.0
 44
0.9
  1
1
 40
0.625
 41
0.5357142857
  0
MTEXT
  5
30F
100
AcDbEntity
  8
0
100
AcDbMText
 62
2
  6
CONTINUOUS
  7
STANDARD
 71
1
 72
1
 10
0.7928772371
 20
12.8779597969
 30
0.0
 11
1.0
 21
0.0
 31
0.0
 44
0.9
  1
A
 40
0.625
 41
0.8035714286
  0
MTEXT
  5
310
100
AcDbEntity
  8
0
100
AcDbMText
 62
2
  6
CONTINUOUS
  7
STANDARD
 71
1
 72
1
 10
0.7928772371
 20
33.8779597969
 30
0.0
 11
1.0
 21
0.0
 31
0.0
 44
0.9
  1
B
 40
0.625
 41
0.7366071429
  0
MTEXT
  5
311
100
AcDbEntity
  8
0
100
AcDbMText
 62
2
  6
CONTINUOUS
  7
STANDARD
 71
1
 72
1
 10
0.7928772371
 20
54.8779597969
 30
0.0
 11
1.0
 21
0.0
 31
0.0
 44
0.9
  1
C
 40
0.625
 41
0.78125
  0
MTEXT
  5
312
100
AcDbEntity
  8
0
100
AcDbMText
 62
2
  6
CONTINUOUS
  7
STANDARD
 71
1
 72
1
 10
0.7928772371
 20
75.8779597969
 30
0.0
 11
1.0
 21
0.0
 31
0.0
 44
0.9
  1
D
 40
0.625
 41
0.8482142857
  0
MTEXT
  5
313
100
AcDbEntity
  8
0
100
AcDbMText
 62
2
  6
CONTINUOUS
  7
STANDARD
 71
1
 72
1
 10
132.7928772371
 20
12.8779597969
 30
0.0
 11
1.0
 21
0.0
 31
0.0
 44
0.9
  1
A
 40
0.625
 41
0.8035714286
  0
MTEXT
  5
314
100
AcDbEntity
  8
0
100
AcDbMText
 62
2
  6
CONTINUOUS
  7
STANDARD
 71
1
 72
1
 10
132.7928772371
 20
33.8779597969
 30
0.0
 11
1.0
 21
0.0
 31
0.0
 44
0.9
  1
B
 40
0.625
 41
0.7366071429
  0
MTEXT
  5
315
100
AcDbEntity
  8
0
100
AcDbMText
 62
2
  6
CONTINUOUS
  7
STANDARD
 71
1
 72
1
 10
132.7928772371
 20
54.8779597969
 30
0.0
 11
1.0
 21
0.0
 31
0.0
 44
0.9
  1
C
 40
0.625
 41
0.78125
  0
MTEXT
  5
316
100
AcDbEntity
  8
0
100
AcDbMText
 62
2
  6
CONTINUOUS
  7
STANDARD
 71
1
 72
1
 10
132.7928772371
 20
75.8779597969
 30
0.0
 11
1.0
 21
0.0
 31
0.0
 44
0.9
  1
D
 40
0.625
 41
0.8482142857
  0
MTEXT
  5
317
100
AcDbEntity
  8
0
100
AcDbMText
 62
5
  6
CONTINUOUS
  7
STANDARD
 71
1
 72
1
 10
2.2651584424
 20
85.8247284615
 30
0.0
 11
1.0
 21
0.0
 31
0.0
 44
0.9
  1
THIS DOCUMENT CONTAINS PROPRIETARY INFORMATION\PWHICH IS THE PROPERTY OF QSC, LLC, THAT MAY NOT BE\PDISCLOSED, REPRODUCED OR USED WITHOUT EXPRESS\PWRITTEN CONSENT FROM QSC, LLC.
 40
0.3
 41
17.775
  0
MTEXT
  5
318
100
AcDbEntity
  8
0
100
AcDbMText
 62
2
  6
CONTINUOUS
  7
STANDARD
 71
2
 72
1
 10
96.9972564215
 20
11.9130298612
 30
0.0
 11
1.0
 21
0.0
 31
0.0
 44
0.9
  1
UNLESS OTHERWISE SPECIFIED\PDIMENSIONS IN MILLIMETERS [IN]
 40
0.4
 41
13.1428571429
  0
MTEXT
  5
319
100
AcDbEntity
  8
0
100
AcDbMText
 62
2
  6
CONTINUOUS
  7
STANDARD
 71
2
 72
1
 10
96.9397891167
 20
10.3679419945
 30
0.0
 11
1.0
 21
0.0
 31
0.0
 44
0.9
  1
TOLERANCES ARE:
 40
0.36
 41
6.1842857143
  0
MTEXT
  5
31A
100
AcDbEntity
  8
0
100
AcDbMText
 62
2
  6
CONTINUOUS
  7
STANDARD
 71
2
 72
1
 10
93.9971065635
 20
9.454822291
 30
0.0
 11
1.0
 21
0.0
 31
0.0
 44
0.9
  1
DECIMALS\P.X\Fgdt;{\Fgdt;`}\Ftxt;.5[.02]
 40
0.36
 41
3.7157142857
  0
MTEXT
  5
31B
100
AcDbEntity
  8
0
100
AcDbMText
 62
2
  6
CONTINUOUS
  7
STANDARD
 71
2
 72
1
 10
97.5
 20
9.43
 30
0.0
 11
1.0
 21
0.0
 31
0.0
 44
0.9
  1
DECIMALS\P.XX\Fgdt;{\Fgdt;`}\Ftxt;.25[.010]
 40
0.36
 41
4.9114285714
  0
MTEXT
  5
31C
100
AcDbEntity
  8
0
100
AcDbMText
 62
2
  6
CONTINUOUS
  7
STANDARD
 71
2
 72
1
 10
100.5171879775
 20
9.4500027785
 30
0.0
 11
1.0
 21
0.0
 31
0.0
 44
0.9
  1
ANGLES\P\Fgdt;{\Fgdt;`}\Ftxt; 1/2
 40
0.36
 41
2.5714285714
  0
MTEXT
  5
31D
100
AcDbEntity
  8
0
100
AcDbMText
 62
2
  6
CONTINUOUS
  7
STANDARD
 71
2
 72
1
 10
97.0
 20
7.93
 30
0.0
 11
1.0
 21
0.0
 31
0.0
 44
0.9
  1
DEBURR EDGES .25 [.010] R MAX
 40
0.36
 41
11.7642857143
  0
MTEXT
  5
31E
100
AcDbEntity
  8
0
100
AcDbMText
 62
2
  6
CONTINUOUS
  7
STANDARD
 71
2
 72
1
 10
93.8356979232
 20
6.7448796703
 30
0.0
 11
1.0
 21
0.0
 31
0.0
 44
0.9
  1
MATERIAL
 40
0.36
 41
3.4585714286
  0
MTEXT
  5
31F
100
AcDbEntity
  8
0
100
AcDbMText
 62
2
  6
CONTINUOUS
  7
STANDARD
 71
2
 72
1
 10
93.4525588641
 20
4.3085865078
 30
0.0
 11
1.0
 21
0.0
 31
0.0
 44
0.9
  1
FINISH
 40
0.36
 41
2.4557142857
  0
MTEXT
  5
320
100
AcDbEntity
  8
0
100
AcDbMText
 62
2
  6
CONTINUOUS
  7
STANDARD
 71
2
 72
1
 10
121.0791692592
 20
2.7236102469
 30
0.0
 11
1.0
 21
0.0
 31
0.0
 44
0.9
  1
DO NOT SCALE DRAWING
 40
0.5
 41
12.4642857143
  0
MTEXT
  5
321
100
AcDbEntity
  8
0
100
AcDbMText
 62
2
  6
CONTINUOUS
  7
STANDARD
 71
2
 72
1
 10
102.8841465771
 20
12.0357444726
 30
0.0
 11
1.0
 21
0.0
 31
0.0
 44
0.9
  1
DESIGNER
 40
0.36
 41
3.4071428571
  0
MTEXT
  5
322
100
AcDbEntity
  8
0
100
AcDbMText
 62
2
  6
CONTINUOUS
  7
STANDARD
 71
2
 72
1
 10
102.7433651965
 20
9.9863999415
 30
0.0
 11
1.0
 21
0.0
 31
0.0
 44
0.9
  1
ENGINEER
 40
0.36
 41
3.3042857143
  0
MTEXT
  5
323
100
AcDbEntity
  8
0
100
AcDbMText
 62
2
  6
CONTINUOUS
  7
STANDARD
 71
2
 72
1
 10
104.2793711084
 20
7.8985005175
 30
0.0
 11
1.0
 21
0.0
 31
0.0
 44
0.9
  1
TECHNICAL DIRECTOR
 40
0.36
 41
7.6885714286
  0
MTEXT
  5
324
100
AcDbEntity
  8
0
100
AcDbMText
 62
2
  6
CONTINUOUS
  7
STANDARD
 71
2
 72
1
 10
104.8126451159
 20
5.8092477111
 30
0.0
 11
1.0
 21
0.0
 31
0.0
 44
0.9
  1
MANUFACTURING ENGINEER
 40
0.36
 41
9.3085714286
  0
MTEXT
  5
325
100
AcDbEntity
  8
0
100
AcDbMText
 62
2
  6
CONTINUOUS
  7
STANDARD
 71
2
 72
1
 10
103.8260940015
 20
2.7040098754
 30
0.0
 11
1.0
 21
0.0
 31
0.0
 44
0.9
  1
MODEL INFO:
 40
0.36
 41
4.41
  0
MTEXT
  5
326
100
AcDbEntity
  8
0
100
AcDbMText
 62
2
  6
CONTINUOUS
  7
STANDARD
 71
2
 72
1
 10
103.4554035731
 20
3.673444166
 30
0.0
 11
1.0
 21
0.0
 31
0.0
 44
0.9
  1
DRAWING INFO:
 40
0.36
 41
5.6057142857
  0
MTEXT
  5
327
100
AcDbEntity
  8
0
100
AcDbMText
 62
2
  6
CONTINUOUS
  7
STANDARD
 71
2
 72
1
 10
112.9574583256
 20
2.6680813209
 30
0.0
 11
1.0
 21
0.0
 31
0.0
 44
0.9
  1
SCALE:
 40
0.36
 41
2.3657142857
  0
MTEXT
  5
328
100
AcDbEntity
  8
0
100
AcDbMText
 62
2
  6
CONTINUOUS
  7
STANDARD
 71
2
 72
1
 10
126.4649709371
 20
2.6747235461
 30
0.0
 11
1.0
 21
0.0
 31
0.0
 44
0.9
  1
SHEET
 40
0.36
 41
2.1857142857
  0
MTEXT
  5
329
100
AcDbEntity
  8
0
100
AcDbMText
 62
2
  6
CONTINUOUS
  7
STANDARD
 71
2
 72
1
 10
112.9679178031
 20
4.8413186693
 30
0.0
 11
1.0
 21
0.0
 31
0.0
 44
0.9
  1
SIZE
 40
0.36
 41
1.6842857143
  0
MTEXT
  5
32A
100
AcDbEntity
  8
0
100
AcDbMText
 62
2
  6
CONTINUOUS
  7
STANDARD
 71
2
 72
1
 10
115.9347904347
 20
4.8456657724
 30
0.0
 11
1.0
 21
0.0
 31
0.0
 44
0.9
  1
CAGE CODE
 40
0.36
 41
3.9985714286
  0
MTEXT
  5
32B
100
AcDbEntity
  8
0
100
AcDbMText
 62
2
  6
CONTINUOUS
  7
STANDARD
 71
2
 72
1
 10
119.7637989921
 20
4.8373318629
 30
0.0
 11
1.0
 21
0.0
 31
0.0
 44
0.9
  1
DRAWING NO.
 40
0.36
 41
4.9885714286
  0
MTEXT
  5
32C
100
AcDbEntity
  8
0
100
AcDbMText
 62
2
  6
CONTINUOUS
  7
STANDARD
 71
2
 72
1
 10
131.0485306378
 20
4.8426956267
 30
0.0
 11
1.0
 21
0.0
 31
0.0
 44
0.9
  1
REV
 40
0.36
 41
1.3628571429
  0
MTEXT
  5
32D
100
AcDbEntity
  8
0
100
AcDbMText
 62
2
  6
CONTINUOUS
  7
STANDARD
 71
2
 72
1
 10
121.6685660019
 20
11.9740712106
 30
0.0
 11
1.0
 21
0.0
 31
0.0
 44
0.9
  1
QSC, LLC
 40
0.625
 41
5.7589285714
  0
MTEXT
  5
32E
100
AcDbEntity
  8
0
100
AcDbMText
 62
2
  6
CONTINUOUS
  7
STANDARD
 71
1
 72
1
 10
119.6485296552
 20
11.0171606556
 30
0.0
 11
1.0
 21
0.0
 31
0.0
 44
0.9
  1
1675 MACARTHUR BOULEVARD\PCOSTA MESA, CA  92626
 40
0.5
 41
14.3392857143
  0
MTEXT
  5
32F
100
AcDbEntity
  8
0
100
AcDbMText
 62
2
  6
CONTINUOUS
  7
STANDARD
 71
1
 72
1
 10
114.5204339557
 20
3.9851059671
 30
0.0
 11
1.0
 21
0.0
 31
0.0
 44
0.9
  1
00PW4
 40
0.625
 41
4.3973214286
  0
INSERT
  5
330
100
AcDbEntity
  8
0
100
AcDbBlockReference
 62
7
  6
CONTINUOUS
  2
RD010411_BL0
 10
115.5552811952
 20
10.8044426607
  0
DIMENSION
  5
331
100
AcDbEntity
  8
0
100
AcDbDimension
 62
2
  6
CONTINUOUS
  2
*D0
 10
63.9102967734
 20
70.4995646482
 11
63.9102967734
 21
75.8772713412
 70
160
 71
2
 42
297.0
  3
DIMSTYLE_1
100
AcDbAlignedDimension
 13
59.7823143061
 23
82.1924780341
 14
59.7823143061
 24
70.4995646482
 50
270.0
100
AcDbRotatedDimension
  0
DIMENSION
  5
332
100
AcDbEntity
  8
0
100
AcDbDimension
 62
2
  6
CONTINUOUS
  2
*D1
 10
60.0448143061
 20
68.0287733617
 11
50.1590662746
 21
67.5600233617
 70
160
 71
2
 42
502.196
  3
DIMSTYLE_1
100
AcDbAlignedDimension
 13
40.2733182431
 23
70.5620646482
 14
60.0448143061
 24
75.7078914199
100
AcDbRotatedDimension
  0
DIMENSION
  5
333
100
AcDbEntity
  8
0
100
AcDbDimension
 62
2
  6
CONTINUOUS
  2
*D2
 10
67.2272453789
 20
32.1423534531
 11
67.2272453789
 21
45.6340365239
 70
160
 71
2
 42
709.19
  3
DIMSTYLE_1
100
AcDbAlignedDimension
 13
59.7823143061
 23
60.0632195948
 14
57.7997158809
 24
32.1423534531
 50
270.0
100
AcDbRotatedDimension
  0
DIMENSION
  5
334
100
AcDbEntity
  8
0
100
AcDbDimension
 62
2
  6
CONTINUOUS
  2
*D3
 10
86.2231568952
 20
30.0246867265
 11
91.0043297894
 21
29.5559367265
 70
160
 71
1
 42
38.454
  3
DIMSTYLE_1
100
AcDbAlignedDimension
 13
87.7370939031
 23
32.9548534531
 14
86.2231568952
 24
40.998829831
 50
180.0
100
AcDbRotatedDimension
  0
DIMENSION
  5
335
100
AcDbEntity
  8
0
100
AcDbDimension
 62
2
  6
CONTINUOUS
  2
*D4
 10
81.2431568952
 20
30.0246867265
 11
79.0343541442
 21
29.5559367265
 70
160
 71
3
 42
126.492
  3
DIMSTYLE_1
100
AcDbAlignedDimension
 13
86.2231568952
 23
40.998829831
 14
81.2431568952
 24
40.998829831
 50
180.0
100
AcDbRotatedDimension
  0
DIMENSION
  5
336
100
AcDbEntity
  8
0
100
AcDbDimension
 62
2
  6
CONTINUOUS
  2
*D5
 10
91.3878806169
 20
40.9894794373
 11
91.3878806169
 21
36.4721664452
 70
160
 71
2
 42
205.667
  3
DIMSTYLE_1
100
AcDbAlignedDimension
 13
87.6745939031
 23
32.8923534531
 14
86.2138065015
 24
40.9894794373
 50
90.0
100
AcDbRotatedDimension
  0
DIMENSION
  5
337
100
AcDbEntity
  8
0
100
AcDbDimension
 62
2
  6
CONTINUOUS
  2
*D6
 10
91.4042853386
 20
40.9894794373
 11
91.4042853386
 21
44.0157294373
 70
160
 71
2
 42
177.546
  3
DIMSTYLE_1
100
AcDbAlignedDimension
 13
86.2138065015
 23
47.9794794373
 14
86.2138065015
 24
40.9894794373
 50
270.0
100
AcDbRotatedDimension
  0
DIMENSION
  5
338
100
AcDbEntity
  8
0
100
AcDbDimension
 62
2
  6
CONTINUOUS
  2
*D7
 10
28.9251242015
 20
32.1423534531
 11
28.9251242015
 21
38.3074617208
 70
160
 71
2
 42
337.0
  3
DIMSTYLE_1
100
AcDbAlignedDimension
 13
21.620359925
 23
45.4100699885
 14
24.4776373986
 24
32.1423534531
 50
270.0
100
AcDbRotatedDimension
  0
DIMENSION
  5
339
100
AcDbEntity
  8
0
100
AcDbDimension
 62
2
  6
CONTINUOUS
  2
*D8
 10
19.8590350364
 20
63.2302695496
 11
22.7527358238
 21
62.7615195496
 70
160
 71
2
 42
147.0
  3
DIMSTYLE_1
100
AcDbAlignedDimension
 13
25.6464366112
 23
60.0007195948
 14
19.8590350364
 24
46.4896959727
 50
180.0
100
AcDbRotatedDimension
  0
DIMENSION
  5
33A
100
AcDbEntity
  8
0
100
AcDbDimension
 62
2
  6
CONTINUOUS
  2
*D9
 10
62.983900639
 20
60.0632195948
 11
62.983900639
 21
46.0090365239
 70
160
 71
2
 42
690.14
  3
DIMSTYLE_1
100
AcDbAlignedDimension
 13
59.7823143061
 23
32.8923534531
 14
59.7823143061
 24
60.0632195948
 50
90.0
100
AcDbRotatedDimension
  0
DIMENSION
  5
33B
100
AcDbEntity
  8
0
100
AcDbDimension
 62
2
  6
CONTINUOUS
  2
*D10
 10
59.8448143061
 20
62.8323450329
 11
50.0590662746
 21
62.3635950329
 70
160
 71
2
 42
497.116
  3
DIMSTYLE_1
100
AcDbAlignedDimension
 13
40.2733182431
 23
60.0007195948
 14
59.8448143061
 24
60.0007195948
100
AcDbRotatedDimension
  0
DIMENSION
  5
33C
100
AcDbEntity
  8
0
100
AcDbDimension
 62
2
  6
CONTINUOUS
  2
*D11
 10
63.8673244581
 20
18.5589091979
 11
63.8673244581
 21
14.7479190134
 70
160
 71
2
 42
48.5
  3
DIMSTYLE_1
100
AcDbAlignedDimension
 13
59.7823143061
 23
16.649460379
 14
58.3965662746
 24
18.5589091979
 50
90.0
100
AcDbRotatedDimension
  0
DIMENSION
  5
33D
100
AcDbEntity
  8
0
100
AcDbDimension
 62
2
  6
CONTINUOUS
  2
*D12
 10
63.8673244581
 20
26.432924946
 11
63.8673244581
 21
22.0271670719
 70
160
 71
2
 42
200.0
  3
DIMSTYLE_1
100
AcDbAlignedDimension
 13
58.3965662746
 23
18.5589091979
 14
58.3965662746
 24
26.432924946
 50
90.0
100
AcDbRotatedDimension
  0
DIMENSION
  5
33E
100
AcDbEntity
  8
0
100
AcDbDimension
 62
2
  6
CONTINUOUS
  2
*D13
 10
57.0590662746
 20
13.1312234124
 11
61.7404293617
 21
12.6624734124
 70
160
 71
1
 42
70.758
  3
DIMSTYLE_1
100
AcDbAlignedDimension
 13
59.8448143061
 23
16.711960379
 14
57.0590662746
 24
17.2214091979
 50
180.0
100
AcDbRotatedDimension
  0
DIMENSION
  5
33F
100
AcDbEntity
  8
0
100
AcDbDimension
 62
2
  6
CONTINUOUS
  2
*D14
 10
43.0590662746
 20
13.1312234124
 11
50.0590662746
 21
12.6624734124
 70
160
 71
2
 42
355.6
  3
DIMSTYLE_1
100
AcDbAlignedDimension
 13
57.0590662746
 23
17.2214091979
 14
43.0590662746
 24
17.2214091979
 50
180.0
100
AcDbRotatedDimension
  0
LWPOLYLINE
  5
340
100
AcDbEntity
  8
0
100
AcDbPolyline
 62
2
  6
CONTINUOUS
 90
2
 70
0
 43
0.08
 10
132.0240748452
 20
85.9845149829
 10
91.6940748452
 20
85.9845149829
  0
LWPOLYLINE
  5
341
100
AcDbEntity
  8
0
100
AcDbPolyline
 62
2
  6
CONTINUOUS
 90
2
 70
0
 43
0.08
 10
131.9840748452
 20
85.9845149829
 10
131.9840748452
 20
78.7970149829
  0
LWPOLYLINE
  5
342
100
AcDbEntity
  8
0
100
AcDbPolyline
 62
2
  6
CONTINUOUS
 90
2
 70
0
 43
0.08
 10
131.9840748452
 20
84.7345149829
 10
91.7340748452
 20
84.7345149829
  0
LWPOLYLINE
  5
343
100
AcDbEntity
  8
0
100
AcDbPolyline
 62
2
  6
CONTINUOUS
 90
2
 70
0
 43
0.08
 10
131.9840748452
 20
83.4845149829
 10
91.7340748452
 20
83.4845149829
  0
LWPOLYLINE
  5
344
100
AcDbEntity
  8
0
100
AcDbPolyline
 62
2
  6
CONTINUOUS
 90
2
 70
0
 43
0.08
 10
131.9840748452
 20
82.2345149829
 10
91.7340748452
 20
82.2345149829
  0
LWPOLYLINE
  5
345
100
AcDbEntity
  8
0
100
AcDbPolyline
 62
2
  6
CONTINUOUS
 90
2
 70
0
 43
0.08
 10
131.9840748452
 20
80.0470149829
 10
91.7340748452
 20
80.0470149829
  0
LWPOLYLINE
  5
346
100
AcDbEntity
  8
0
100
AcDbPolyline
 62
2
  6
CONTINUOUS
 90
2
 70
0
 43
0.08
 10
132.0240748452
 20
78.7970149829
 10
91.6940748452
 20
78.7970149829
  0
LWPOLYLINE
  5
347
100
AcDbEntity
  8
0
100
AcDbPolyline
 62
2
  6
CONTINUOUS
 90
2
 70
0
 43
0.08
 10
128.9840748452
 20
84.7345149829
 10
128.9840748452
 20
78.7970149829
  0
LWPOLYLINE
  5
348
100
AcDbEntity
  8
0
100
AcDbPolyline
 62
2
  6
CONTINUOUS
 90
2
 70
0
 43
0.08
 10
124.4840748452
 20
84.7345149829
 10
124.4840748452
 20
78.7970149829
  0
LWPOLYLINE
  5
349
100
AcDbEntity
  8
0
100
AcDbPolyline
 62
2
  6
CONTINUOUS
 90
2
 70
0
 43
0.08
 10
122.4840748452
 20
84.7345149829
 10
122.4840748452
 20
78.7970149829
  0
LWPOLYLINE
  5
34A
100
AcDbEntity
  8
0
100
AcDbPolyline
 62
2
  6
CONTINUOUS
 90
2
 70
0
 43
0.08
 10
96.9840748452
 20
84.7345149829
 10
96.9840748452
 20
78.7970149829
  0
LWPOLYLINE
  5
34B
100
AcDbEntity
  8
0
100
AcDbPolyline
 62
2
  6
CONTINUOUS
 90
2
 70
0
 43
0.08
 10
93.7340748452
 20
84.7345149829
 10
93.7340748452
 20
78.7970149829
  0
LWPOLYLINE
  5
34C
100
AcDbEntity
  8
0
100
AcDbPolyline
 62
2
  6
CONTINUOUS
 90
2
 70
0
 43
0.08
 10
91.7340748452
 20
85.9845149829
 10
91.7340748452
 20
78.7970149829
  0
MTEXT
  5
34D
100
AcDbEntity
  8
0
100
AcDbMText
 62
2
  6
CONTINUOUS
  7
STANDARD
 71
2
 72
1
 10
111.8590748452
 20
85.6720149829
 30
0.0
 11
1.0
 21
0.0
 31
0.0
 44
0.9
  1
REVISIONS
 40
0.625
 41
6.3392857143
  0
MTEXT
  5
34E
100
AcDbEntity
  8
0
100
AcDbMText
 62
2
  6
CONTINUOUS
  7
STANDARD
 71
2
 72
1
 10
130.4840748452
 20
84.4215149829
 30
0.0
 11
1.0
 21
0.0
 31
0.0
 44
0.9
  1
ISSUED
 40
0.624
 41
4.3234285714
  0
MTEXT
  5
34F
100
AcDbEntity
  8
0
100
AcDbMText
 62
2
  6
CONTINUOUS
  7
STANDARD
 71
2
 72
1
 10
126.7340748452
 20
84.4215149829
 30
0.0
 11
1.0
 21
0.0
 31
0.0
 44
0.9
  1
EFF DATE
 40
0.624
 41
5.8611428571
  0
MTEXT
  5
350
100
AcDbEntity
  8
0
100
AcDbMText
 62
2
  6
CONTINUOUS
  7
STANDARD
 71
2
 72
1
 10
123.4840748452
 20
84.4220149829
 30
0.0
 11
1.0
 21
0.0
 31
0.0
 44
0.9
  1
BY
 40
0.625
 41
1.5401785714
  0
MTEXT
  5
351
100
AcDbEntity
  8
0
100
AcDbMText
 62
2
  6
CONTINUOUS
  7
STANDARD
 71
2
 72
1
 10
109.7340748452
 20
84.4215149829
 30
0.0
 11
1.0
 21
0.0
 31
0.0
 44
0.9
  1
DESCRIPTION
 40
0.624
 41
7.9782857143
  0
MTEXT
  5
352
100
AcDbEntity
  8
0
100
AcDbMText
 62
2
  6
CONTINUOUS
  7
STANDARD
 71
2
 72
1
 10
95.3590748452
 20
84.4220149829
 30
0.0
 11
1.0
 21
0.0
 31
0.0
 44
0.9
  1
ECO
 40
0.625
 41
2.1875
  0
MTEXT
  5
353
100
AcDbEntity
  8
0
100
AcDbMText
 62
2
  6
CONTINUOUS
  7
STANDARD
 71
2
 72
1
 10
92.7340748452
 20
84.4215149829
 30
0.0
 11
1.0
 21
0.0
 31
0.0
 44
0.9
  1
REV
 40
0.624
 41
2.184
  0
MTEXT
  5
354
100
AcDbEntity
  8
0
100
AcDbMText
 62
2
  6
CONTINUOUS
  7
STANDARD
 71
2
 72
1
 10
130.4840748452
 20
83.1720149829
 30
0.0
 11
1.0
 21
0.0
 31
0.0
 44
0.9
  1
-
 40
0.625
 41
0.6696428571
  0
MTEXT
  5
355
100
AcDbEntity
  8
0
100
AcDbMText
 62
2
  6
CONTINUOUS
  7
STANDARD
 71
2
 72
1
 10
126.7340748452
 20
83.1720149829
 30
0.0
 11
1.0
 21
0.0
 31
0.0
 44
0.9
  1
-
 40
0.625
 41
0.6696428571
  0
MTEXT
  5
356
100
AcDbEntity
  8
0
100
AcDbMText
 62
2
  6
CONTINUOUS
  7
STANDARD
 71
2
 72
1
 10
109.7340748452
 20
83.1720149829
 30
0.0
 11
1.0
 21
0.0
 31
0.0
 44
0.9
  1
RELEASE
 40
0.625
 41
5.0669642857
  0
MTEXT
  5
357
100
AcDbEntity
  8
0
100
AcDbMText
 62
2
  6
CONTINUOUS
  7
STANDARD
 71
2
 72
1
 10
95.3590748452
 20
83.1720149829
 30
0.0
 11
1.0
 21
0.0
 31
0.0
 44
0.9
  1
-
 40
0.625
 41
0.6696428571
  0
MTEXT
  5
358
100
AcDbEntity
  8
0
100
AcDbMText
 62
2
  6
CONTINUOUS
  7
STANDARD
 71
2
 72
1
 10
92.7340748452
 20
83.1720149829
 30
0.0
 11
1.0
 21
0.0
 31
0.0
 44
0.9
  1
A
 40
0.625
 41
0.9821428571
  0
MTEXT
  5
359
100
AcDbEntity
  8
0
100
AcDbMText
 62
2
  6
CONTINUOUS
  7
STANDARD
 71
2
 72
1
 10
126.7340748452
 20
81.4532649829
 30
0.0
 11
1.0
 21
0.0
 31
0.0
 44
0.9
  1
30-SEP-16
 40
0.625
 41
6.3392857143
  0
MTEXT
  5
35A
100
AcDbEntity
  8
0
100
AcDbMText
 62
2
  6
CONTINUOUS
  7
STANDARD
 71
2
 72
1
 10
123.4840748452
 20
81.4532649829
 30
0.0
 11
1.0
 21
0.0
 31
0.0
 44
0.9
  1
SS
 40
0.625
 41
1.6517857143
  0
MTEXT
  5
35B
100
AcDbEntity
  8
0
100
AcDbMText
 62
2
  6
CONTINUOUS
  7
STANDARD
 71
1
 72
1
 10
97.2340748452
 20
81.9220149829
 30
0.0
 11
1.0
 21
0.0
 31
0.0
 44
0.9
  1
TITLE BLOCK DESCRIPTION CHANGED, WAS SB-1120, NOW \PSC-1120
 40
0.625
 41
37.03125
  0
MTEXT
  5
35C
100
AcDbEntity
  8
0
100
AcDbMText
 62
2
  6
CONTINUOUS
  7
STANDARD
 71
1
 72
1
 10
93.9840748452
 20
81.4532649829
 30
0.0
 11
1.0
 21
0.0
 31
0.0
 44
0.9
  1
  -
 40
0.625
 41
2.3214285714
  0
MTEXT
  5
35D
100
AcDbEntity
  8
0
100
AcDbMText
 62
2
  6
CONTINUOUS
  7
STANDARD
 71
2
 72
1
 10
92.7340748452
 20
81.4532649829
 30
0.0
 11
1.0
 21
0.0
 31
0.0
 44
0.9
  1
A1
 40
0.625
 41
1.5178571429
  0
LINE
  5
35E
100
AcDbEntity
  8
0
100
AcDbLine
 62
2
  6
CONTINUOUS
 10
92.5
 20
7.0
 11
101.5
 21
7.0
  0
LINE
  5
35F
100
AcDbEntity
  8
0
100
AcDbLine
 62
2
  6
CONTINUOUS
 10
92.5
 20
7.0
 11
92.5
 21
4.5
  0
LINE
  5
360
100
AcDbEntity
  8
0
100
AcDbLine
 62
2
  6
CONTINUOUS
 10
92.5
 20
4.5
 11
101.5
 21
4.5
  0
LINE
  5
361
100
AcDbEntity
  8
0
100
AcDbLine
 62
2
  6
CONTINUOUS
 10
101.5
 20
7.0
 11
101.5
 21
4.5
  0
LINE
  5
362
100
AcDbEntity
  8
0
100
AcDbLine
 62
2
  6
CONTINUOUS
 10
92.5
 20
4.5
 11
101.5
 21
4.5
  0
LINE
  5
363
100
AcDbEntity
  8
0
100
AcDbLine
 62
2
  6
CONTINUOUS
 10
92.5
 20
4.5
 11
92.5
 21
2.0
  0
LINE
  5
364
100
AcDbEntity
  8
0
100
AcDbLine
 62
2
  6
CONTINUOUS
 10
92.5
 20
2.0
 11
101.5
 21
2.0
  0
LINE
  5
365
100
AcDbEntity
  8
0
100
AcDbLine
 62
2
  6
CONTINUOUS
 10
101.5
 20
4.5
 11
101.5
 21
2.0
  0
LINE
  5
366
100
AcDbEntity
  8
0
100
AcDbLine
 62
2
  6
CONTINUOUS
 10
101.4988439426
 20
12.2469856578
 11
111.9988439426
 21
12.2469856578
  0
LINE
  5
367
100
AcDbEntity
  8
0
100
AcDbLine
 62
2
  6
CONTINUOUS
 10
101.4988439426
 20
12.2469856578
 11
101.4988439426
 21
10.2069856578
  0
LINE
  5
368
100
AcDbEntity
  8
0
100
AcDbLine
 62
2
  6
CONTINUOUS
 10
101.4988439426
 20
10.2069856578
 11
111.9988439426
 21
10.2069856578
  0
LINE
  5
369
100
AcDbEntity
  8
0
100
AcDbLine
 62
2
  6
CONTINUOUS
 10
111.9988439426
 20
12.2469856578
 11
111.9988439426
 21
10.2069856578
  0
MTEXT
  5
36A
100
AcDbEntity
  8
0
100
AcDbMText
 62
2
  6
CONTINUOUS
  7
STANDARD
 71
1
 72
1
 10
101.7488439426
 20
11.1444856578
 30
0.0
 11
1.0
 21
0.0
 31
0.0
 44
0.9
  1
ENGINEERING SERVICES
 40
0.625
 41
14.2633928571
  0
LINE
  5
36B
100
AcDbEntity
  8
0
100
AcDbLine
 62
2
  6
CONTINUOUS
 10
101.5
 20
10.1845461537
 11
112.0
 21
10.1845461537
  0
LINE
  5
36C
100
AcDbEntity
  8
0
100
AcDbLine
 62
2
  6
CONTINUOUS
 10
101.5
 20
10.1845461537
 11
101.5
 21
8.1445461537
  0
LINE
  5
36D
100
AcDbEntity
  8
0
100
AcDbLine
 62
2
  6
CONTINUOUS
 10
101.5
 20
8.1445461537
 11
112.0
 21
8.1445461537
  0
LINE
  5
36E
100
AcDbEntity
  8
0
100
AcDbLine
 62
2
  6
CONTINUOUS
 10
112.0
 20
10.1845461537
 11
112.0
 21
8.1445461537
  0
MTEXT
  5
36F
100
AcDbEntity
  8
0
100
AcDbMText
 62
2
  6
CONTINUOUS
  7
STANDARD
 71
1
 72
1
 10
101.75
 20
9.0820461537
 30
0.0
 11
1.0
 21
0.0
 31
0.0
 44
0.9
  1
N/A
 40
0.625
 41
2.4330357143
  0
LINE
  5
370
100
AcDbEntity
  8
0
100
AcDbLine
 62
2
  6
CONTINUOUS
 10
101.5
 20
8.0951980462
 11
112.0
 21
8.0951980462
  0
LINE
  5
371
100
AcDbEntity
  8
0
100
AcDbLine
 62
2
  6
CONTINUOUS
 10
101.5
 20
8.0951980462
 11
101.5
 21
6.0551980462
  0
LINE
  5
372
100
AcDbEntity
  8
0
100
AcDbLine
 62
2
  6
CONTINUOUS
 10
101.5
 20
6.0551980462
 11
112.0
 21
6.0551980462
  0
LINE
  5
373
100
AcDbEntity
  8
0
100
AcDbLine
 62
2
  6
CONTINUOUS
 10
112.0
 20
8.0951980462
 11
112.0
 21
6.0551980462
  0
MTEXT
  5
374
100
AcDbEntity
  8
0
100
AcDbMText
 62
2
  6
CONTINUOUS
  7
STANDARD
 71
1
 72
1
 10
101.75
 20
6.9926980462
 30
0.0
 11
1.0
 21
0.0
 31
0.0
 44
0.9
  1
N/A
 40
0.625
 41
2.4330357143
  0
LINE
  5
375
100
AcDbEntity
  8
0
100
AcDbLine
 62
2
  6
CONTINUOUS
 10
101.5
 20
5.9998624083
 11
112.0
 21
5.9998624083
  0
LINE
  5
376
100
AcDbEntity
  8
0
100
AcDbLine
 62
2
  6
CONTINUOUS
 10
101.5
 20
5.9998624083
 11
101.5
 21
3.9598624083
  0
LINE
  5
377
100
AcDbEntity
  8
0
100
AcDbLine
 62
2
  6
CONTINUOUS
 10
101.5
 20
3.9598624083
 11
112.0
 21
3.9598624083
  0
LINE
  5
378
100
AcDbEntity
  8
0
100
AcDbLine
 62
2
  6
CONTINUOUS
 10
112.0
 20
5.9998624083
 11
112.0
 21
3.9598624083
  0
MTEXT
  5
379
100
AcDbEntity
  8
0
100
AcDbMText
 62
2
  6
CONTINUOUS
  7
STANDARD
 71
1
 72
1
 10
101.75
 20
4.8973624083
 30
0.0
 11
1.0
 21
0.0
 31
0.0
 44
0.9
  1
N/A
 40
0.625
 41
2.4330357143
  0
LINE
  5
37A
100
AcDbEntity
  8
0
100
AcDbLine
 62
2
  6
CONTINUOUS
 10
101.5
 20
4.0
 11
112.0
 21
4.0
  0
LINE
  5
37B
100
AcDbEntity
  8
0
100
AcDbLine
 62
2
  6
CONTINUOUS
 10
101.5
 20
4.0
 11
101.5
 21
3.0
  0
LINE
  5
37C
100
AcDbEntity
  8
0
100
AcDbLine
 62
2
  6
CONTINUOUS
 10
101.5
 20
3.0
 11
112.0
 21
3.0
  0
LINE
  5
37D
100
AcDbEntity
  8
0
100
AcDbLine
 62
2
  6
CONTINUOUS
 10
112.0
 20
4.0
 11
112.0
 21
3.0
  0
MTEXT
  5
37E
100
AcDbEntity
  8
0
100
AcDbMText
 62
2
  6
CONTINUOUS
  7
STANDARD
 71
3
 72
1
 10
111.75
 20
3.7525
 30
0.0
 11
1.0
 21
0.0
 31
0.0
 44
0.9
  1
WP-001125-2D.A1.0
 40
0.44
 41
8.5957142857
  0
LINE
  5
37F
100
AcDbEntity
  8
0
100
AcDbLine
 62
2
  6
CONTINUOUS
 10
101.5
 20
3.0
 11
112.0
 21
3.0
  0
LINE
  5
380
100
AcDbEntity
  8
0
100
AcDbLine
 62
2
  6
CONTINUOUS
 10
101.5
 20
3.0
 11
101.5
 21
2.0
  0
LINE
  5
381
100
AcDbEntity
  8
0
100
AcDbLine
 62
2
  6
CONTINUOUS
 10
101.5
 20
2.0
 11
112.0
 21
2.0
  0
LINE
  5
382
100
AcDbEntity
  8
0
100
AcDbLine
 62
2
  6
CONTINUOUS
 10
112.0
 20
3.0
 11
112.0
 21
2.0
  0
MTEXT
  5
383
100
AcDbEntity
  8
0
100
AcDbMText
 62
2
  6
CONTINUOUS
  7
STANDARD
 71
3
 72
1
 10
111.75
 20
2.7525
 30
0.0
 11
1.0
 21
0.0
 31
0.0
 44
0.9
  1
WP-001125-3D.A1.0
 40
0.44
 41
8.5485714286
  0
LINE
  5
384
100
AcDbEntity
  8
0
100
AcDbLine
 62
2
  6
CONTINUOUS
 10
112.0
 20
9.5
 11
132.0
 21
9.5
  0
LINE
  5
385
100
AcDbEntity
  8
0
100
AcDbLine
 62
2
  6
CONTINUOUS
 10
112.0
 20
9.5
 11
112.0
 21
5.0
  0
LINE
  5
386
100
AcDbEntity
  8
0
100
AcDbLine
 62
2
  6
CONTINUOUS
 10
112.0
 20
5.0
 11
132.0
 21
5.0
  0
LINE
  5
387
100
AcDbEntity
  8
0
100
AcDbLine
 62
2
  6
CONTINUOUS
 10
132.0
 20
9.5
 11
132.0
 21
5.0
  0
MTEXT
  5
388
100
AcDbEntity
  8
0
100
AcDbMText
 62
2
  6
CONTINUOUS
  7
STANDARD
 71
2
 72
1
 10
122.0
 20
8.47
 30
0.0
 11
1.0
 21
0.0
 31
0.0
 44
1.02
  1
SPEAKER, FINISHED, 12"\PTOP BOX, SC-1120
 40
0.8
 41
19.5714285714
  0
LINE
  5
389
100
AcDbEntity
  8
0
100
AcDbLine
 62
2
  6
CONTINUOUS
 10
112.0043692118
 20
4.99176187
 11
114.0043692118
 21
4.99176187
  0
LINE
  5
38A
100
AcDbEntity
  8
0
100
AcDbLine
 62
2
  6
CONTINUOUS
 10
112.0043692118
 20
4.99176187
 11
112.0043692118
 21
2.99176187
  0
LINE
  5
38B
100
AcDbEntity
  8
0
100
AcDbLine
 62
2
  6
CONTINUOUS
 10
112.0043692118
 20
2.99176187
 11
114.0043692118
 21
2.99176187
  0
LINE
  5
38C
100
AcDbEntity
  8
0
100
AcDbLine
 62
2
  6
CONTINUOUS
 10
114.0043692118
 20
4.99176187
 11
114.0043692118
 21
2.99176187
  0
MTEXT
  5
38D
100
AcDbEntity
  8
0
100
AcDbMText
 62
2
  6
CONTINUOUS
  7
STANDARD
 71
2
 72
1
 10
113.0043692118
 20
4.10426187
 30
0.0
 11
1.0
 21
0.0
 31
0.0
 44
0.9
  1
D
 40
0.8
 41
1.3142857143
  0
LINE
  5
38E
100
AcDbEntity
  8
0
100
AcDbLine
 62
2
  6
CONTINUOUS
 10
118.0020699904
 20
4.9798983565
 11
130.0020699904
 21
4.9798983565
  0
LINE
  5
38F
100
AcDbEntity
  8
0
100
AcDbLine
 62
2
  6
CONTINUOUS
 10
118.0020699904
 20
4.9798983565
 11
118.0020699904
 21
2.9798983565
  0
LINE
  5
390
100
AcDbEntity
  8
0
100
AcDbLine
 62
2
  6
CONTINUOUS
 10
118.0020699904
 20
2.9798983565
 11
130.0020699904
 21
2.9798983565
  0
LINE
  5
391
100
AcDbEntity
  8
0
100
AcDbLine
 62
2
  6
CONTINUOUS
 10
130.0020699904
 20
4.9798983565
 11
130.0020699904
 21
2.9798983565
  0
MTEXT
  5
392
100
AcDbEntity
  8
0
100
AcDbMText
 62
2
  6
CONTINUOUS
  7
STANDARD
 71
2
 72
1
 10
124.0020699904
 20
4.2123983565
 30
0.0
 11
1.0
 21
0.0
 31
0.0
 44
0.9
  1
WP-001125-2D
 40
0.92
 41
13.34
  0
LINE
  5
393
100
AcDbEntity
  8
0
100
AcDbLine
 62
2
  6
CONTINUOUS
 10
129.9947995851
 20
4.9931512905
 11
131.9947995851
 21
4.9931512905
  0
LINE
  5
394
100
AcDbEntity
  8
0
100
AcDbLine
 62
2
  6
CONTINUOUS
 10
129.9947995851
 20
4.9931512905
 11
129.9947995851
 21
2.9931512905
  0
LINE
  5
395
100
AcDbEntity
  8
0
100
AcDbLine
 62
2
  6
CONTINUOUS
 10
129.9947995851
 20
2.9931512905
 11
131.9947995851
 21
2.9931512905
  0
LINE
  5
396
100
AcDbEntity
  8
0
100
AcDbLine
 62
2
  6
CONTINUOUS
 10
131.9947995851
 20
4.9931512905
 11
131.9947995851
 21
2.9931512905
  0
MTEXT
  5
397
100
AcDbEntity
  8
0
100
AcDbMText
 62
2
  6
CONTINUOUS
  7
STANDARD
 71
2
 72
1
 10
130.9947995851
 20
4.0256512905
 30
0.0
 11
1.0
 21
0.0
 31
0.0
 44
0.9
  1
A1
 40
0.72
 41
1.7485714286
  0
LINE
  5
398
100
AcDbEntity
  8
0
100
AcDbLine
 62
2
  6
CONTINUOUS
 10
125.5024824775
 20
2.9717155345
 11
132.0024824775
 21
2.9717155345
  0
LINE
  5
399
100
AcDbEntity
  8
0
100
AcDbLine
 62
2
  6
CONTINUOUS
 10
125.5024824775
 20
2.9717155345
 11
125.5024824775
 21
1.9717155345
  0
LINE
  5
39A
100
AcDbEntity
  8
0
100
AcDbLine
 62
2
  6
CONTINUOUS
 10
125.5024824775
 20
1.9717155345
 11
132.0024824775
 21
1.9717155345
  0
LINE
  5
39B
100
AcDbEntity
  8
0
100
AcDbLine
 62
2
  6
CONTINUOUS
 10
132.0024824775
 20
2.9717155345
 11
132.0024824775
 21
1.9717155345
  0
MTEXT
  5
39C
100
AcDbEntity
  8
0
100
AcDbMText
 62
2
  6
CONTINUOUS
  7
STANDARD
 71
3
 72
1
 10
131.7524824775
 20
2.8442155345
 30
0.0
 11
1.0
 21
0.0
 31
0.0
 44
0.9
  1
1 OF 1
 40
0.56
 41
3.7
  0
LINE
  5
39D
100
AcDbEntity
  8
0
100
AcDbLine
 62
2
  6
CONTINUOUS
 10
111.9930392484
 20
2.9952928676
 11
116.7450392484
 21
2.9952928676
  0
LINE
  5
39E
100
AcDbEntity
  8
0
100
AcDbLine
 62
2
  6
CONTINUOUS
 10
111.9930392484
 20
2.9952928676
 11
111.9930392484
 21
1.9796678676
  0
LINE
  5
39F
100
AcDbEntity
  8
0
100
AcDbLine
 62
2
  6
CONTINUOUS
 10
111.9930392484
 20
1.9796678676
 11
116.7450392484
 21
1.9796678676
  0
LINE
  5
3A0
100
AcDbEntity
  8
0
100
AcDbLine
 62
2
  6
CONTINUOUS
 10
116.7450392484
 20
2.9952928676
 11
116.7450392484
 21
1.9796678676
  0
MTEXT
  5
3A1
100
AcDbEntity
  8
0
100
AcDbMText
 62
2
  6
CONTINUOUS
  7
STANDARD
 71
3
 72
1
 10
116.4950392484
 20
2.7721678676
 30
0.0
 11
1.0
 21
0.0
 31
0.0
 44
0.9
  1
0.250
 40
0.48
 41
2.76
  0
MTEXT
  5
3A2
100
AcDbEntity
  8
0
100
AcDbMText
 62
2
  6
CONTINUOUS
  7
STANDARD
 71
1
 72
1
 10
2.9881507964
 20
12.3350618719
 30
0.0
 11
1.0
 21
0.0
 31
0.0
 44
0.9
  3
4. PARTS ARE SYMMETRICAL ABOUT CENTER LINES\P   UNLESS OTHERWISE NOTED.\P \P3. SYMBOL    INDICATES CENTER OF BALANCE.\P  \P2. TOLERANCES (MM): X \Fgdt;{\Fgdt;`}\Ftxt; 5, ANGLES: \Fgdt;{\Fgdt;`}\Ftxt; 1\Fgdt;{\Fgdt;~}\Ftxt;.\P \P1. NET WEIGHT APPROX. 
  1
23.1 / 51.0 [KG/LBS].\P \PNOTE: UNLESS OTHERWISE SPECIFIED 
 40
0.625
 41
31.6071428571
  0
INSERT
  5
3A3
100
AcDbEntity
  8
0
100
AcDbBlockReference
 62
2
  6
CONTINUOUS
  2
123_BL1
 10
8.1156859368
 20
9.204799167
  0
LINE
  5
3A4
100
AcDbEntity
  8
DEFAULT_3
100
AcDbLine
 62
7
  6
PHANTOM
 10
0.0
 20
-0.0
 11
0.0
 21
88.0
  0
LWPOLYLINE
  5
3A5
100
AcDbEntity
  8
0
100
AcDbPolyline
 62
7
  6
CONTINUOUS
 90
2
 70
0
 43
0.0800000033
 10
1.0498508885
 20
43.3253804427
 10
1.0498508885
 20
44.6746195573
  0
LWPOLYLINE
  5
3A6
100
AcDbEntity
  8
0
100
AcDbPolyline
 62
7
  6
CONTINUOUS
 90
2
 70
0
 43
0.120000001
 10
2.0
 20
86.0
 10
2.0
 20
2.0
  0
LWPOLYLINE
  5
3A7
100
AcDbEntity
  8
0
100
AcDbPolyline
 62
7
  6
CONTINUOUS
 90
2
 70
0
 43
0.120000001
 10
14.25
 20
86.0
 10
14.25
 20
84.0
  0
LWPOLYLINE
  5
3A8
100
AcDbEntity
  8
0
100
AcDbPolyline
 62
7
  6
CONTINUOUS
 90
2
 70
0
 43
0.0800000033
 10
18.25
 20
2.0
 10
18.25
 20
-0.0
  0
LWPOLYLINE
  5
3A9
100
AcDbEntity
  8
0
100
AcDbPolyline
 62
7
  6
CONTINUOUS
 90
2
 70
0
 43
0.0800000033
 10
18.25
 20
86.0
 10
18.25
 20
88.0
  0
LINE
  5
3AA
100
AcDbEntity
  8
0
100
AcDbLine
 62
7
  6
CONTINUOUS
 10
101.4928516619
 20
4.4820555597
 11
92.4848129034
 21
1.9805617833
  0
LINE
  5
3AB
100
AcDbEntity
  8
0
100
AcDbLine
 62
7
  6
CONTINUOUS
 10
101.5061574798
 20
6.996855154
 11
92.4981187213
 21
4.4953613776
  0
LINE
  5
3AC
100
AcDbEntity
  8
DEFAULT_3
100
AcDbLine
 62
7
  6
PHANTOM
 10
0.0
 20
-0.0
 11
136.0
 21
-0.0
  0
LWPOLYLINE
  5
3AD
100
AcDbEntity
  8
0
100
AcDbPolyline
 62
7
  6
CONTINUOUS
 90
2
 70
0
 43
0.0800000033
 10
66.3253804427
 20
1.0498508885
 10
67.6746195573
 20
1.0498508885
  0
LWPOLYLINE
  5
3AE
100
AcDbEntity
  8
0
100
AcDbPolyline
 62
7
  6
CONTINUOUS
 90
2
 70
0
 43
0.0800000033
 10
2.0
 20
44.0
 10
1.0498508885
 20
43.3253804427
  0
LWPOLYLINE
  5
3AF
100
AcDbEntity
  8
0
100
AcDbPolyline
 62
7
  6
CONTINUOUS
 90
2
 70
0
 43
0.120000001
 10
2.0
 20
2.0
 10
132.0
 20
2.0
  0
LWPOLYLINE
  5
3B0
100
AcDbEntity
  8
0
100
AcDbPolyline
 62
7
  6
CONTINUOUS
 90
2
 70
0
 43
0.0800000033
 10
101.5
 20
3.0
 10
132.0
 20
3.0
  0
LWPOLYLINE
  5
3B1
100
AcDbEntity
  8
0
100
AcDbPolyline
 62
7
  6
CONTINUOUS
 90
2
 70
0
 43
0.0800000033
 10
101.5
 20
4.0
 10
112.0
 20
4.0
  0
LWPOLYLINE
  5
3B2
100
AcDbEntity
  8
0
100
AcDbPolyline
 62
7
  6
CONTINUOUS
 90
2
 70
0
 43
0.0800000033
 10
101.5
 20
4.5
 10
92.5
 20
4.5
  0
LWPOLYLINE
  5
3B3
100
AcDbEntity
  8
0
100
AcDbPolyline
 62
7
  6
CONTINUOUS
 90
2
 70
0
 43
0.0800000033
 10
112.0
 20
5.0
 10
132.0
 20
5.0
  0
LWPOLYLINE
  5
3B4
100
AcDbEntity
  8
0
100
AcDbPolyline
 62
7
  6
CONTINUOUS
 90
2
 70
0
 43
0.0800000033
 10
101.5262776669
 20
6.0469413799
 10
112.0262776669
 20
6.0469413799
  0
LWPOLYLINE
  5
3B5
100
AcDbEntity
  8
0
100
AcDbPolyline
 62
7
  6
CONTINUOUS
 90
2
 70
0
 43
0.0800000033
 10
2.0
 20
44.0
 10
1.0498508885
 20
44.6746195573
  0
LWPOLYLINE
  5
3B6
100
AcDbEntity
  8
0
100
AcDbPolyline
 62
7
  6
CONTINUOUS
 90
2
 70
0
 43
0.0800000033
 10
34.5
 20
2.0
 10
34.5
 20
-0.0
  0
LWPOLYLINE
  5
3B7
100
AcDbEntity
  8
0
100
AcDbPolyline
 62
7
  6
CONTINUOUS
 90
2
 70
0
 43
0.0800000033
 10
34.5
 20
86.0
 10
34.5
 20
88.0
  0
LWPOLYLINE
  5
3B8
100
AcDbEntity
  8
0
100
AcDbPolyline
 62
7
  6
CONTINUOUS
 90
2
 70
0
 43
0.0800000033
 10
92.5
 20
7.0
 10
101.5
 20
7.0
  0
LWPOLYLINE
  5
3B9
100
AcDbEntity
  8
0
100
AcDbPolyline
 62
7
  6
CONTINUOUS
 90
2
 70
0
 43
0.0800000033
 10
101.5317724285
 20
8.1036761417
 10
112.0317724285
 20
8.1036761417
  0
LWPOLYLINE
  5
3BA
100
AcDbEntity
  8
0
100
AcDbPolyline
 62
7
  6
CONTINUOUS
 90
2
 70
0
 43
0.0800000033
 10
112.0
 20
9.5
 10
132.0
 20
9.5
  0
LWPOLYLINE
  5
3BB
100
AcDbEntity
  8
0
100
AcDbPolyline
 62
7
  6
CONTINUOUS
 90
2
 70
0
 43
0.0800000033
 10
101.5
 20
10.2301193141
 10
112.0
 20
10.2301193141
  0
LWPOLYLINE
  5
3BC
100
AcDbEntity
  8
0
100
AcDbPolyline
 62
7
  6
CONTINUOUS
 90
2
 70
0
 43
0.0800000033
 10
92.5
 20
12.25
 10
132.0
 20
12.25
  0
LWPOLYLINE
  5
3BD
100
AcDbEntity
  8
0
100
AcDbPolyline
 62
7
  6
CONTINUOUS
 90
2
 70
0
 43
0.0800000033
 10
67.0
 20
86.0
 10
67.6746195573
 20
86.9501491115
  0
LWPOLYLINE
  5
3BE
100
AcDbEntity
  8
0
100
AcDbPolyline
 62
7
  6
CONTINUOUS
 90
2
 70
0
 43
0.0800000033
 10
67.0
 20
2.0
 10
67.6746195573
 20
1.0498508885
  0
LWPOLYLINE
  5
3BF
100
AcDbEntity
  8
0
100
AcDbPolyline
 62
7
  6
CONTINUOUS
 90
2
 70
0
 43
0.0800000033
 10
2.0
 20
23.0
 10
0.0
 20
23.0
  0
LWPOLYLINE
  5
3C0
100
AcDbEntity
  8
0
100
AcDbPolyline
 62
7
  6
CONTINUOUS
 90
2
 70
0
 43
0.0800000033
 10
132.0263754034
 20
23.0033641637
 10
134.0263754034
 20
23.0033641637
  0
LWPOLYLINE
  5
3C1
100
AcDbEntity
  8
0
100
AcDbPolyline
 62
7
  6
CONTINUOUS
 90
2
 70
0
 43
0.0800000033
 10
50.75
 20
2.0
 10
50.75
 20
-0.0
  0
LWPOLYLINE
  5
3C2
100
AcDbEntity
  8
0
100
AcDbPolyline
 62
7
  6
CONTINUOUS
 90
2
 70
0
 43
0.0800000033
 10
50.75
 20
86.0
 10
50.75
 20
88.0
  0
LINE
  5
3C3
100
AcDbEntity
  8
0
100
AcDbLine
 62
7
  6
CONTINUOUS
 10
92.5443466341
 20
12.2087884372
 11
101.4670033149
 21
7.0509657989
  0
LWPOLYLINE
  5
3C4
100
AcDbEntity
  8
0
100
AcDbPolyline
 62
7
  6
CONTINUOUS
 90
2
 70
0
 43
0.0800000033
 10
67.0
 20
2.0
 10
67.0
 20
-0.0
  0
LWPOLYLINE
  5
3C5
100
AcDbEntity
  8
0
100
AcDbPolyline
 62
7
  6
CONTINUOUS
 90
2
 70
0
 43
0.0800000033
 10
67.0
 20
86.0
 10
67.0
 20
88.0
  0
LWPOLYLINE
  5
3C6
100
AcDbEntity
  8
0
100
AcDbPolyline
 62
7
  6
CONTINUOUS
 90
2
 70
0
 43
0.0800000033
 10
2.0
 20
44.0
 10
-0.0
 20
44.0
  0
LWPOLYLINE
  5
3C7
100
AcDbEntity
  8
0
100
AcDbPolyline
 62
7
  6
CONTINUOUS
 90
2
 70
0
 43
0.0800000033
 10
132.0043173838
 20
44.0054391926
 10
134.0043173838
 20
44.0054391926
  0
LWPOLYLINE
  5
3C8
100
AcDbEntity
  8
0
100
AcDbPolyline
 62
7
  6
CONTINUOUS
 90
2
 70
0
 43
0.0800000033
 10
83.25
 20
2.0
 10
83.25
 20
-0.0
  0
LWPOLYLINE
  5
3C9
100
AcDbEntity
  8
0
100
AcDbPolyline
 62
7
  6
CONTINUOUS
 90
2
 70
0
 43
0.0800000033
 10
83.25
 20
86.0
 10
83.25
 20
88.0
  0
LWPOLYLINE
  5
3CA
100
AcDbEntity
  8
0
100
AcDbPolyline
 62
7
  6
CONTINUOUS
 90
2
 70
0
 43
0.0800000033
 10
67.0
 20
2.0
 10
66.3253804427
 20
1.0498508885
  0
LWPOLYLINE
  5
3CB
100
AcDbEntity
  8
0
100
AcDbPolyline
 62
7
  6
CONTINUOUS
 90
2
 70
0
 43
0.0800000033
 10
2.0
 20
65.0
 10
0.0
 20
65.0
  0
LWPOLYLINE
  5
3CC
100
AcDbEntity
  8
0
100
AcDbPolyline
 62
7
  6
CONTINUOUS
 90
2
 70
0
 43
0.0800000033
 10
132.0
 20
65.0
 10
134.0
 20
65.0
  0
LWPOLYLINE
  5
3CD
100
AcDbEntity
  8
0
100
AcDbPolyline
 62
7
  6
CONTINUOUS
 90
2
 70
0
 43
0.0800000033
 10
67.0
 20
86.0
 10
66.3253804427
 20
86.9501491115
  0
LWPOLYLINE
  5
3CE
100
AcDbEntity
  8
0
100
AcDbPolyline
 62
7
  6
CONTINUOUS
 90
2
 70
0
 43
0.0800000033
 10
92.5
 20
2.0
 10
92.5
 20
12.25
  0
LWPOLYLINE
  5
3CF
100
AcDbEntity
  8
0
100
AcDbPolyline
 62
7
  6
CONTINUOUS
 90
2
 70
0
 43
0.0800000033
 10
99.5
 20
2.0
 10
99.5
 20
-0.0
  0
LWPOLYLINE
  5
3D0
100
AcDbEntity
  8
0
100
AcDbPolyline
 62
7
  6
CONTINUOUS
 90
2
 70
0
 43
0.0800000033
 10
99.5
 20
86.0
 10
99.5
 20
88.0
  0
LWPOLYLINE
  5
3D1
100
AcDbEntity
  8
0
100
AcDbPolyline
 62
7
  6
CONTINUOUS
 90
2
 70
0
 43
0.0800000033
 10
101.5
 20
2.0
 10
101.5
 20
12.25
  0
LWPOLYLINE
  5
3D2
100
AcDbEntity
  8
0
100
AcDbPolyline
 62
7
  6
CONTINUOUS
 90
2
 70
0
 43
0.0800000033
 10
132.0043173838
 20
44.0054391926
 10
132.9544664953
 20
44.6800587499
  0
LWPOLYLINE
  5
3D3
100
AcDbEntity
  8
0
100
AcDbPolyline
 62
7
  6
CONTINUOUS
 90
2
 70
0
 43
0.0800000033
 10
132.0043173838
 20
44.0054391926
 10
132.9544664953
 20
43.3308196353
  0
LWPOLYLINE
  5
3D4
100
AcDbEntity
  8
0
100
AcDbPolyline
 62
7
  6
CONTINUOUS
 90
2
 70
0
 43
0.120000001
 10
14.25
 20
84.0
 10
2.0
 20
84.0
  0
LWPOLYLINE
  5
3D5
100
AcDbEntity
  8
0
100
AcDbPolyline
 62
7
  6
CONTINUOUS
 90
2
 70
0
 43
0.120000001
 10
132.0
 20
86.0
 10
2.0
 20
86.0
  0
LWPOLYLINE
  5
3D6
100
AcDbEntity
  8
0
100
AcDbPolyline
 62
7
  6
CONTINUOUS
 90
2
 70
0
 43
0.0800000033
 10
66.3253804427
 20
86.9501491115
 10
67.6746195573
 20
86.9501491115
  0
LWPOLYLINE
  5
3D7
100
AcDbEntity
  8
0
100
AcDbPolyline
 62
7
  6
CONTINUOUS
 90
2
 70
0
 43
0.0800000033
 10
112.0
 20
2.0
 10
112.0
 20
12.25
  0
LWPOLYLINE
  5
3D8
100
AcDbEntity
  8
0
100
AcDbPolyline
 62
7
  6
CONTINUOUS
 90
2
 70
0
 43
0.0800000033
 10
114.0
 20
3.0
 10
114.0
 20
5.0
  0
LWPOLYLINE
  5
3D9
100
AcDbEntity
  8
0
100
AcDbPolyline
 62
7
  6
CONTINUOUS
 90
2
 70
0
 43
0.0800000033
 10
115.75
 20
2.0
 10
115.75
 20
-0.0
  0
LWPOLYLINE
  5
3DA
100
AcDbEntity
  8
0
100
AcDbPolyline
 62
7
  6
CONTINUOUS
 90
2
 70
0
 43
0.0800000033
 10
115.75
 20
86.0
 10
115.75
 20
88.0
  0
LINE
  5
3DB
100
AcDbEntity
  8
0
100
AcDbLine
 62
7
  6
CONTINUOUS
 10
101.5046516554
 20
12.2087884372
 11
92.5443466341
 21
6.9756691181
  0
LINE
  5
3DC
100
AcDbEntity
  8
DEFAULT_3
100
AcDbLine
 62
7
  6
PHANTOM
 10
0.0
 20
88.0
 11
136.0
 21
88.0
  0
LWPOLYLINE
  5
3DD
100
AcDbEntity
  8
0
100
AcDbPolyline
 62
7
  6
CONTINUOUS
 90
2
 70
0
 43
0.0800000033
 10
116.7345158662
 20
2.0190006222
 10
116.7345158662
 20
3.0190006222
  0
LWPOLYLINE
  5
3DE
100
AcDbEntity
  8
0
100
AcDbPolyline
 62
7
  6
CONTINUOUS
 90
2
 70
0
 43
0.0800000033
 10
118.0
 20
3.0
 10
118.0
 20
5.0
  0
LWPOLYLINE
  5
3DF
100
AcDbEntity
  8
0
100
AcDbPolyline
 62
7
  6
CONTINUOUS
 90
2
 70
0
 43
0.0800000033
 10
125.5
 20
2.0
 10
125.5
 20
3.0
  0
LWPOLYLINE
  5
3E0
100
AcDbEntity
  8
0
100
AcDbPolyline
 62
7
  6
CONTINUOUS
 90
2
 70
0
 43
0.0800000033
 10
130.0
 20
3.0
 10
130.0
 20
5.0
  0
LWPOLYLINE
  5
3E1
100
AcDbEntity
  8
0
100
AcDbPolyline
 62
7
  6
CONTINUOUS
 90
2
 70
0
 43
0.120000001
 10
132.0
 20
86.0
 10
132.0
 20
2.0
  0
LWPOLYLINE
  5
3E2
100
AcDbEntity
  8
0
100
AcDbPolyline
 62
7
  6
CONTINUOUS
 90
2
 70
0
 43
0.0800000033
 10
132.9544664953
 20
43.3308196353
 10
132.9544664953
 20
44.6800587499
  0
LINE
  5
3E3
100
AcDbEntity
  8
DEFAULT_3
100
AcDbLine
 62
7
  6
PHANTOM
 10
136.0
 20
-0.0
 11
136.0
 21
88.0
  0
LINE
  5
3E4
100
AcDbEntity
  8
7_ALL_ROUNDS
100
AcDbLine
 62
7
  6
CONTINUOUS
 10
57.6122158809
 20
32.1423534531
 11
56.5059166683
 21
32.1423534531
  0
LINE
  5
3E5
100
AcDbEntity
  8
7_ALL_ROUNDS
100
AcDbLine
 62
7
  6
CONTINUOUS
 10
43.6122158809
 20
32.1423534531
 11
42.5059166683
 21
32.1423534531
  0
LINE
  5
3E6
100
AcDbEntity
  8
7_ALL_ROUNDS
100
AcDbLine
 62
7
  6
CONTINUOUS
 10
57.8090662746
 20
32.3392038468
 11
56.3090662746
 21
32.3392038468
  0
LINE
  5
3E7
100
AcDbEntity
  8
7_ALL_ROUNDS
100
AcDbLine
 62
7
  6
CONTINUOUS
 10
43.8090662746
 20
32.3392038468
 11
42.3090662746
 21
32.3392038468
  0
LINE
  5
3E8
100
AcDbEntity
  8
7_ALL_ROUNDS
100
AcDbLine
 62
7
  6
CONTINUOUS
 10
59.5948143061
 20
32.8923534531
 11
40.5233182431
 21
32.8923534531
  0
LINE
  5
3E9
100
AcDbEntity
  8
7_ALL_ROUNDS
100
AcDbLine
 62
7
  6
CONTINUOUS
 10
59.8448143061
 20
33.1423534531
 11
40.2733182431
 21
33.1423534531
  0
LINE
  5
3EA
100
AcDbEntity
  8
3_AXES_OTHER
100
AcDbLine
 62
7
  6
CONTINUOUS
 10
40.7733182431
 20
33.3923534531
 11
59.3448143061
 21
33.3923534531
  0
LINE
  5
3EB
100
AcDbEntity
  8
7_ALL_ROUNDS
100
AcDbLine
 62
7
  6
CONTINUOUS
 10
46.2993418652
 20
59.5632195948
 11
40.7733182431
 21
54.0382195948
  0
LINE
  5
3EC
100
AcDbEntity
  8
7_ALL_ROUNDS
100
AcDbLine
 62
7
  6
CONTINUOUS
 10
46.6529280089
 20
59.5632195948
 11
40.7733182431
 21
53.6846989482
  0
LINE
  5
3ED
100
AcDbEntity
  8
7_ALL_ROUNDS
100
AcDbLine
 62
7
  6
CONTINUOUS
 10
40.2733182431
 20
59.8132195948
 11
40.2733182431
 21
33.1423534531
  0
LINE
  5
3EE
100
AcDbEntity
  8
7_ALL_ROUNDS
100
AcDbLine
 62
7
  6
CONTINUOUS
 10
40.5233182431
 20
32.8923534531
 11
40.5233182431
 21
60.0632195948
  0
LINE
  5
3EF
100
AcDbEntity
  8
3_AXES_OTHER
100
AcDbLine
 62
7
  6
CONTINUOUS
 10
40.7733182431
 20
59.5632195948
 11
40.7733182431
 21
33.3923534531
  0
LINE
  5
3F0
100
AcDbEntity
  8
3_ALL_AXES
100
AcDbLine
 62
7
  6
CONTINUOUS
 10
42.3090662746
 20
32.8923534531
 11
42.3090662746
 21
32.3392038468
  0
LINE
  5
3F1
100
AcDbEntity
  8
7_ALL_ROUNDS
100
AcDbLine
 62
7
  6
CONTINUOUS
 10
42.3090662746
 20
32.8923534531
 11
42.3090662746
 21
32.3392038468
  0
LINE
  5
3F2
100
AcDbEntity
  8
3_ALL_AXES
100
AcDbLine
 62
7
  6
CONTINUOUS
 10
43.8090662746
 20
32.8923534531
 11
43.8090662746
 21
32.3392038468
  0
LINE
  5
3F3
100
AcDbEntity
  8
7_ALL_ROUNDS
100
AcDbLine
 62
7
  6
CONTINUOUS
 10
43.8090662746
 20
32.8923534531
 11
43.8090662746
 21
32.3392038468
  0
LINE
  5
3F4
100
AcDbEntity
  8
3_ALL_AXES
100
AcDbLine
 62
7
  6
CENTER
 10
50.0590662746
 20
40.4581802247
 11
44.0921371408
 21
40.4581802247
  0
LINE
  5
3F5
100
AcDbEntity
  8
3_ALL_AXES
100
AcDbLine
 62
7
  6
CENTER
 10
50.0590662746
 20
40.4581802247
 11
56.0259954085
 21
40.4581802247
  0
LINE
  5
3F6
100
AcDbEntity
  8
7_ALL_ROUNDS
100
AcDbLine
 62
7
  6
CONTINUOUS
 10
60.0448143061
 20
40.9894794373
 11
59.8448143061
 21
40.9894794373
  0
LINE
  5
3F7
100
AcDbEntity
  8
7_ALL_ROUNDS
100
AcDbLine
 62
7
  6
CONTINUOUS
 10
60.0448143061
 20
41.186329831
 11
59.8448143061
 21
41.186329831
  0
LINE
  5
3F8
100
AcDbEntity
  8
7_ALL_ROUNDS
100
AcDbLine
 62
7
  6
CONTINUOUS
 10
44.769735566
 20
56.7134873113
 11
44.769735566
 21
47.9631329806
  0
LINE
  5
3F9
100
AcDbEntity
  8
7_ALL_ROUNDS
100
AcDbLine
 62
7
  6
CONTINUOUS
 10
45.1634363534
 20
48.1599833743
 11
45.1634363534
 21
56.5166369176
  0
LINE
  5
3FA
100
AcDbEntity
  8
7_ALL_ROUNDS
100
AcDbLine
 62
7
  6
CONTINUOUS
 10
50.3680775058
 20
52.5772308259
 11
54.8940297478
 21
56.6587777297
  0
LINE
  5
3FB
100
AcDbEntity
  8
7_ALL_ROUNDS
100
AcDbLine
 62
7
  6
CONTINUOUS
 10
49.7500550435
 20
51.9592083636
 11
45.2251201572
 21
48.0168747775
  0
LINE
  5
3FC
100
AcDbEntity
  8
3_ALL_AXES
100
AcDbLine
 62
7
  6
CENTER
 10
50.0590662746
 20
45.4100699885
 11
49.3480660213
 21
45.4100699885
  0
LINE
  5
3FD
100
AcDbEntity
  8
3_ALL_AXES
100
AcDbLine
 62
7
  6
CENTER
 10
50.0590662746
 20
45.4100699885
 11
50.7700665279
 21
45.4100699885
  0
LINE
  5
3FE
100
AcDbEntity
  8
3_ALL_AXES
100
AcDbLine
 62
7
  6
CENTER
 10
50.0590662746
 20
45.4100699885
 11
50.0590662746
 21
44.6990697352
  0
LINE
  5
3FF
100
AcDbEntity
  8
3_ALL_AXES
100
AcDbLine
 62
7
  6
CENTER
 10
50.0590662746
 20
40.4581802247
 11
50.0590662746
 21
34.4912510909
  0
LINE
  5
400
100
AcDbEntity
  8
3_ALL_AXES
100
AcDbLine
 62
7
  6
CENTER
 10
50.0590662746
 20
45.4100699885
 11
50.0590662746
 21
46.1210702418
  0
LINE
  5
401
100
AcDbEntity
  8
3_ALL_AXES
100
AcDbLine
 62
7
  6
CENTER
 10
50.0590662746
 20
40.4581802247
 11
50.0590662746
 21
44.6990697352
  0
LINE
  5
402
100
AcDbEntity
  8
3_ALL_AXES
100
AcDbLine
 62
7
  6
CENTER
 10
50.0590662746
 20
46.1210702418
 11
50.0590662746
 21
46.4251093586
  0
LINE
  5
403
100
AcDbEntity
  8
7_ALL_ROUNDS
100
AcDbLine
 62
7
  6
CONTINUOUS
 10
45.1634363534
 20
47.5694321932
 11
54.9546961959
 21
47.5694321932
  0
LINE
  5
404
100
AcDbEntity
  8
7_ALL_ROUNDS
100
AcDbLine
 62
7
  6
CONTINUOUS
 10
60.0448143061
 20
47.7826290436
 11
59.8448143061
 21
47.7826290436
  0
LINE
  5
405
100
AcDbEntity
  8
7_ALL_ROUNDS
100
AcDbLine
 62
7
  6
CONTINUOUS
 10
54.7578458022
 20
47.9631329806
 11
45.3602867471
 21
47.9631329806
  0
LINE
  5
406
100
AcDbEntity
  8
7_ALL_ROUNDS
100
AcDbLine
 62
7
  6
CONTINUOUS
 10
60.0448143061
 20
47.9794794373
 11
59.8448143061
 21
47.9794794373
  0
LINE
  5
407
100
AcDbEntity
  8
7_ALL_ROUNDS
100
AcDbLine
 62
7
  6
CONTINUOUS
 10
54.9546961959
 20
56.5166369176
 11
54.9546961959
 21
48.1599833743
  0
LINE
  5
408
100
AcDbEntity
  8
7_ALL_ROUNDS
100
AcDbLine
 62
7
  6
CONTINUOUS
 10
50.3680775058
 20
51.9592083636
 11
54.893012392
 21
48.0168747775
  0
LINE
  5
409
100
AcDbEntity
  8
7_ALL_ROUNDS
100
AcDbLine
 62
7
  6
CONTINUOUS
 10
49.7500550435
 20
52.5772308259
 11
45.2241028015
 21
56.6587777297
  0
LINE
  5
40A
100
AcDbEntity
  8
7_ALL_ROUNDS
100
AcDbLine
 62
7
  6
CONTINUOUS
 10
55.3483969833
 20
47.9631329806
 11
55.3483969833
 21
56.7134873113
  0
LINE
  5
40B
100
AcDbEntity
  8
3_ALL_AXES
100
AcDbLine
 62
7
  6
CONTINUOUS
 10
56.3090662746
 20
32.8923534531
 11
56.3090662746
 21
32.3392038468
  0
LINE
  5
40C
100
AcDbEntity
  8
7_ALL_ROUNDS
100
AcDbLine
 62
7
  6
CONTINUOUS
 10
56.3090662746
 20
32.8923534531
 11
56.3090662746
 21
32.3392038468
  0
LINE
  5
40D
100
AcDbEntity
  8
3_ALL_AXES
100
AcDbLine
 62
7
  6
CONTINUOUS
 10
57.8090662746
 20
32.8923534531
 11
57.8090662746
 21
32.3392038468
  0
LINE
  5
40E
100
AcDbEntity
  8
7_ALL_ROUNDS
100
AcDbLine
 62
7
  6
CONTINUOUS
 10
57.8090662746
 20
32.8923534531
 11
57.8090662746
 21
32.3392038468
  0
LINE
  5
40F
100
AcDbEntity
  8
3_AXES_OTHER
100
AcDbLine
 62
7
  6
CONTINUOUS
 10
59.3448143061
 20
33.3923534531
 11
59.3448143061
 21
59.5632195948
  0
LINE
  5
410
100
AcDbEntity
  8
7_ALL_ROUNDS
100
AcDbLine
 62
7
  6
CONTINUOUS
 10
59.5948143061
 20
60.0632195948
 11
59.5948143061
 21
32.8923534531
  0
LINE
  5
411
100
AcDbEntity
  8
7_ALL_ROUNDS
100
AcDbLine
 62
7
  6
CONTINUOUS
 10
45.3602867471
 20
56.7134873113
 11
54.7578458022
 21
56.7134873113
  0
LINE
  5
412
100
AcDbEntity
  8
7_ALL_ROUNDS
100
AcDbLine
 62
7
  6
CONTINUOUS
 10
59.8448143061
 20
59.8132195948
 11
59.8448143061
 21
33.1423534531
  0
LINE
  5
413
100
AcDbEntity
  8
7_ALL_ROUNDS
100
AcDbLine
 62
7
  6
CONTINUOUS
 10
60.0448143061
 20
47.9794794373
 11
60.0448143061
 21
40.9894794373
  0
LINE
  5
414
100
AcDbEntity
  8
3_AXES_OTHER
100
AcDbLine
 62
7
  6
CONTINUOUS
 10
60.0498143061
 20
46.3794794373
 11
60.0498143061
 21
45.6794794373
  0
LINE
  5
415
100
AcDbEntity
  8
7_ALL_ROUNDS
100
AcDbLine
 62
7
  6
CONTINUOUS
 10
54.9546961959
 20
57.1071880987
 11
45.1634363534
 21
57.1071880987
  0
LINE
  5
416
100
AcDbEntity
  8
7_ALL_ROUNDS
100
AcDbLine
 62
7
  6
CONTINUOUS
 10
59.3448143061
 20
53.6846989482
 11
53.4652045404
 21
59.5632195948
  0
LINE
  5
417
100
AcDbEntity
  8
7_ALL_ROUNDS
100
AcDbLine
 62
7
  6
CONTINUOUS
 10
59.3448143061
 20
54.0382195948
 11
53.8187906841
 21
59.5632195948
  0
LINE
  5
418
100
AcDbEntity
  8
3_AXES_OTHER
100
AcDbLine
 62
7
  6
CONTINUOUS
 10
59.3448143061
 20
59.5632195948
 11
40.7733182431
 21
59.5632195948
  0
LINE
  5
419
100
AcDbEntity
  8
7_ALL_ROUNDS
100
AcDbLine
 62
7
  6
CONTINUOUS
 10
40.2733182431
 20
59.8132195948
 11
59.8448143061
 21
59.8132195948
  0
LINE
  5
41A
100
AcDbEntity
  8
7_ALL_ROUNDS
100
AcDbLine
 62
7
  6
CONTINUOUS
 10
40.5233182431
 20
60.0632195948
 11
59.5948143061
 21
60.0632195948
  0
LINE
  5
41B
100
AcDbEntity
  8
7_ALL_ROUNDS
100
AcDbLine
 62
7
  6
CONTINUOUS
 10
86.3807073251
 20
32.1423534531
 11
85.2745828432
 21
32.1423534531
  0
LINE
  5
41C
100
AcDbEntity
  8
7_ALL_ROUNDS
100
AcDbLine
 62
7
  6
CONTINUOUS
 10
78.5066915771
 20
32.1423534531
 11
77.4005670952
 21
32.1423534531
  0
LINE
  5
41D
100
AcDbEntity
  8
7_ALL_ROUNDS
100
AcDbLine
 62
7
  6
CONTINUOUS
 10
86.5776450842
 20
32.3392038468
 11
85.0776450842
 21
32.3392038468
  0
LINE
  5
41E
100
AcDbEntity
  8
7_ALL_ROUNDS
100
AcDbLine
 62
7
  6
CONTINUOUS
 10
78.7036293362
 20
32.3392038468
 11
77.2036293362
 21
32.3392038468
  0
LINE
  5
41F
100
AcDbEntity
  8
7_ALL_ROUNDS
100
AcDbLine
 62
7
  6
CONTINUOUS
 10
87.4870939031
 20
32.8923534531
 11
76.2941805173
 21
32.8923534531
  0
LINE
  5
420
100
AcDbEntity
  8
7_ALL_ROUNDS
100
AcDbLine
 62
7
  6
CONTINUOUS
 10
87.7370939031
 20
33.1423534531
 11
76.0441805173
 21
33.1423534531
  0
LINE
  5
421
100
AcDbEntity
  8
7_ALL_ROUNDS
100
AcDbLine
 62
7
  6
CONTINUOUS
 10
81.4400072889
 20
40.9894794373
 11
86.0263065015
 21
40.9894794373
  0
LINE
  5
422
100
AcDbEntity
  8
7_ALL_ROUNDS
100
AcDbLine
 62
7
  6
CONTINUOUS
 10
76.0441805173
 20
59.8132195948
 11
76.0441805173
 21
33.1423534531
  0
LINE
  5
423
100
AcDbEntity
  8
7_ALL_ROUNDS
100
AcDbLine
 62
7
  6
CONTINUOUS
 10
76.2941805173
 20
32.8923534531
 11
76.2941805173
 21
60.0632195948
  0
LINE
  5
424
100
AcDbEntity
  8
7_ALL_ROUNDS
100
AcDbLine
 62
7
  6
CONTINUOUS
 10
82.1300072889
 20
41.6794794373
 11
85.3363065015
 21
41.6794794373
  0
LINE
  5
425
100
AcDbEntity
  8
3_ALL_AXES
100
AcDbLine
 62
7
  6
CONTINUOUS
 10
77.2036293362
 20
32.8923534531
 11
77.2036293362
 21
32.3392038468
  0
LINE
  5
426
100
AcDbEntity
  8
3_ALL_AXES
100
AcDbLine
 62
7
  6
CONTINUOUS
 10
78.7036293362
 20
32.8923534531
 11
78.7036293362
 21
32.3392038468
  0
LINE
  5
427
100
AcDbEntity
  8
3_AXES_OTHER
100
AcDbLine
 62
7
  6
CONTINUOUS
 10
81.9331568952
 20
45.0482589649
 11
85.5331568952
 21
45.0482589649
  0
LINE
  5
428
100
AcDbEntity
  8
3_AXES_OTHER
100
AcDbLine
 62
7
  6
CONTINUOUS
 10
82.1391568952
 20
45.6794794373
 11
82.2641568952
 21
45.6794794373
  0
LINE
  5
429
100
AcDbEntity
  8
3_AXES_OTHER
100
AcDbLine
 62
7
  6
CONTINUOUS
 10
82.6391568952
 20
45.6794794373
 11
82.7641568952
 21
45.6794794373
  0
LINE
  5
42A
100
AcDbEntity
  8
3_AXES_OTHER
100
AcDbLine
 62
7
  6
CONTINUOUS
 10
83.1391568952
 20
45.6794794373
 11
83.2641568952
 21
45.6794794373
  0
LINE
  5
42B
100
AcDbEntity
  8
3_AXES_OTHER
100
AcDbLine
 62
7
  6
CONTINUOUS
 10
83.6391568952
 20
45.6794794373
 11
83.7641568952
 21
45.6794794373
  0
LINE
  5
42C
100
AcDbEntity
  8
3_AXES_OTHER
100
AcDbLine
 62
7
  6
CONTINUOUS
 10
84.1391568952
 20
45.6794794373
 11
84.2641568952
 21
45.6794794373
  0
LINE
  5
42D
100
AcDbEntity
  8
3_AXES_OTHER
100
AcDbLine
 62
7
  6
CONTINUOUS
 10
84.6391568952
 20
45.6794794373
 11
84.7641568952
 21
45.6794794373
  0
LINE
  5
42E
100
AcDbEntity
  8
3_AXES_OTHER
100
AcDbLine
 62
7
  6
CONTINUOUS
 10
85.1391568952
 20
45.6794794373
 11
85.2641568952
 21
45.6794794373
  0
LINE
  5
42F
100
AcDbEntity
  8
3_AXES_OTHER
100
AcDbLine
 62
7
  6
CONTINUOUS
 10
82.2641568952
 20
45.7794794373
 11
82.6391568952
 21
45.7794794373
  0
LINE
  5
430
100
AcDbEntity
  8
3_AXES_OTHER
100
AcDbLine
 62
7
  6
CONTINUOUS
 10
82.7641568952
 20
45.7794794373
 11
83.1391568952
 21
45.7794794373
  0
LINE
  5
431
100
AcDbEntity
  8
3_AXES_OTHER
100
AcDbLine
 62
7
  6
CONTINUOUS
 10
83.2641568952
 20
45.7794794373
 11
83.6391568952
 21
45.7794794373
  0
LINE
  5
432
100
AcDbEntity
  8
3_AXES_OTHER
100
AcDbLine
 62
7
  6
CONTINUOUS
 10
83.7641568952
 20
45.7794794373
 11
84.1391568952
 21
45.7794794373
  0
LINE
  5
433
100
AcDbEntity
  8
3_AXES_OTHER
100
AcDbLine
 62
7
  6
CONTINUOUS
 10
84.2641568952
 20
45.7794794373
 11
84.6391568952
 21
45.7794794373
  0
LINE
  5
434
100
AcDbEntity
  8
3_AXES_OTHER
100
AcDbLine
 62
7
  6
CONTINUOUS
 10
84.7641568952
 20
45.7794794373
 11
85.1391568952
 21
45.7794794373
  0
LINE
  5
435
100
AcDbEntity
  8
7_ALL_ROUNDS
100
AcDbLine
 62
7
  6
CONTINUOUS
 10
81.2431568952
 20
47.7826290436
 11
81.2431568952
 21
41.186329831
  0
LINE
  5
436
100
AcDbEntity
  8
7_ALL_ROUNDS
100
AcDbLine
 62
7
  6
CONTINUOUS
 10
81.9331568952
 20
47.0926290436
 11
81.9331568952
 21
41.876329831
  0
LINE
  5
437
100
AcDbEntity
  8
3_AXES_OTHER
100
AcDbLine
 62
7
  6
CONTINUOUS
 10
85.1391568952
 20
46.2794794373
 11
84.7641568952
 21
46.2794794373
  0
LINE
  5
438
100
AcDbEntity
  8
3_AXES_OTHER
100
AcDbLine
 62
7
  6
CONTINUOUS
 10
84.6391568952
 20
46.2794794373
 11
84.2641568952
 21
46.2794794373
  0
LINE
  5
439
100
AcDbEntity
  8
3_AXES_OTHER
100
AcDbLine
 62
7
  6
CONTINUOUS
 10
84.1391568952
 20
46.2794794373
 11
83.7641568952
 21
46.2794794373
  0
LINE
  5
43A
100
AcDbEntity
  8
3_AXES_OTHER
100
AcDbLine
 62
7
  6
CONTINUOUS
 10
83.6391568952
 20
46.2794794373
 11
83.2641568952
 21
46.2794794373
  0
LINE
  5
43B
100
AcDbEntity
  8
3_AXES_OTHER
100
AcDbLine
 62
7
  6
CONTINUOUS
 10
83.1391568952
 20
46.2794794373
 11
82.7641568952
 21
46.2794794373
  0
LINE
  5
43C
100
AcDbEntity
  8
3_AXES_OTHER
100
AcDbLine
 62
7
  6
CONTINUOUS
 10
82.6391568952
 20
46.2794794373
 11
82.2641568952
 21
46.2794794373
  0
LINE
  5
43D
100
AcDbEntity
  8
3_AXES_OTHER
100
AcDbLine
 62
7
  6
CONTINUOUS
 10
85.2641568952
 20
46.3794794373
 11
85.1391568952
 21
46.3794794373
  0
LINE
  5
43E
100
AcDbEntity
  8
3_AXES_OTHER
100
AcDbLine
 62
7
  6
CONTINUOUS
 10
84.7641568952
 20
46.3794794373
 11
84.6391568952
 21
46.3794794373
  0
LINE
  5
43F
100
AcDbEntity
  8
3_AXES_OTHER
100
AcDbLine
 62
7
  6
CONTINUOUS
 10
84.2641568952
 20
46.3794794373
 11
84.1391568952
 21
46.3794794373
  0
LINE
  5
440
100
AcDbEntity
  8
3_AXES_OTHER
100
AcDbLine
 62
7
  6
CONTINUOUS
 10
83.7641568952
 20
46.3794794373
 11
83.6391568952
 21
46.3794794373
  0
LINE
  5
441
100
AcDbEntity
  8
3_AXES_OTHER
100
AcDbLine
 62
7
  6
CONTINUOUS
 10
83.2641568952
 20
46.3794794373
 11
83.1391568952
 21
46.3794794373
  0
LINE
  5
442
100
AcDbEntity
  8
3_AXES_OTHER
100
AcDbLine
 62
7
  6
CONTINUOUS
 10
82.7641568952
 20
46.3794794373
 11
82.6391568952
 21
46.3794794373
  0
LINE
  5
443
100
AcDbEntity
  8
3_AXES_OTHER
100
AcDbLine
 62
7
  6
CONTINUOUS
 10
82.2641568952
 20
46.3794794373
 11
82.1391568952
 21
46.3794794373
  0
LINE
  5
444
100
AcDbEntity
  8
3_AXES_OTHER
100
AcDbLine
 62
7
  6
CONTINUOUS
 10
85.5331568952
 20
47.0167629019
 11
81.9331568952
 21
47.0167629019
  0
LINE
  5
445
100
AcDbEntity
  8
3_AXES_OTHER
100
AcDbLine
 62
7
  6
CONTINUOUS
 10
82.1391568952
 20
46.3794794373
 11
82.1391568952
 21
45.6794794373
  0
LINE
  5
446
100
AcDbEntity
  8
3_AXES_OTHER
100
AcDbLine
 62
7
  6
CONTINUOUS
 10
82.2641568952
 20
45.6794794373
 11
82.2641568952
 21
46.3794794373
  0
LINE
  5
447
100
AcDbEntity
  8
3_AXES_OTHER
100
AcDbLine
 62
7
  6
CONTINUOUS
 10
82.6391568952
 20
46.3794794373
 11
82.6391568952
 21
45.6794794373
  0
LINE
  5
448
100
AcDbEntity
  8
3_AXES_OTHER
100
AcDbLine
 62
7
  6
CONTINUOUS
 10
82.7641568952
 20
45.6794794373
 11
82.7641568952
 21
46.3794794373
  0
LINE
  5
449
100
AcDbEntity
  8
7_ALL_ROUNDS
100
AcDbLine
 62
7
  6
CONTINUOUS
 10
85.3363065015
 20
47.2894794373
 11
82.1300072889
 21
47.2894794373
  0
LINE
  5
44A
100
AcDbEntity
  8
7_ALL_ROUNDS
100
AcDbLine
 62
7
  6
CONTINUOUS
 10
86.0263065015
 20
47.9794794373
 11
81.4400072889
 21
47.9794794373
  0
LINE
  5
44B
100
AcDbEntity
  8
3_AXES_OTHER
100
AcDbLine
 62
7
  6
CONTINUOUS
 10
83.1391568952
 20
46.3794794373
 11
83.1391568952
 21
45.6794794373
  0
LINE
  5
44C
100
AcDbEntity
  8
3_AXES_OTHER
100
AcDbLine
 62
7
  6
CONTINUOUS
 10
83.2641568952
 20
45.6794794373
 11
83.2641568952
 21
46.3794794373
  0
LINE
  5
44D
100
AcDbEntity
  8
3_AXES_OTHER
100
AcDbLine
 62
7
  6
CONTINUOUS
 10
83.6391568952
 20
46.3794794373
 11
83.6391568952
 21
45.6794794373
  0
LINE
  5
44E
100
AcDbEntity
  8
3_AXES_OTHER
100
AcDbLine
 62
7
  6
CONTINUOUS
 10
83.7641568952
 20
45.6794794373
 11
83.7641568952
 21
46.3794794373
  0
LINE
  5
44F
100
AcDbEntity
  8
3_AXES_OTHER
100
AcDbLine
 62
7
  6
CONTINUOUS
 10
84.1391568952
 20
46.3794794373
 11
84.1391568952
 21
45.6794794373
  0
LINE
  5
450
100
AcDbEntity
  8
3_AXES_OTHER
100
AcDbLine
 62
7
  6
CONTINUOUS
 10
84.2641568952
 20
45.6794794373
 11
84.2641568952
 21
46.3794794373
  0
LINE
  5
451
100
AcDbEntity
  8
3_AXES_OTHER
100
AcDbLine
 62
7
  6
CONTINUOUS
 10
84.6391568952
 20
46.3794794373
 11
84.6391568952
 21
45.6794794373
  0
LINE
  5
452
100
AcDbEntity
  8
3_AXES_OTHER
100
AcDbLine
 62
7
  6
CONTINUOUS
 10
84.7641568952
 20
45.6794794373
 11
84.7641568952
 21
46.3794794373
  0
LINE
  5
453
100
AcDbEntity
  8
3_ALL_AXES
100
AcDbLine
 62
7
  6
CONTINUOUS
 10
85.0776450842
 20
32.8923534531
 11
85.0776450842
 21
32.3392038468
  0
LINE
  5
454
100
AcDbEntity
  8
3_AXES_OTHER
100
AcDbLine
 62
7
  6
CONTINUOUS
 10
85.1391568952
 20
46.3794794373
 11
85.1391568952
 21
45.6794794373
  0
LINE
  5
455
100
AcDbEntity
  8
3_AXES_OTHER
100
AcDbLine
 62
7
  6
CONTINUOUS
 10
85.2641568952
 20
45.6794794373
 11
85.2641568952
 21
46.3794794373
  0
LINE
  5
456
100
AcDbEntity
  8
7_ALL_ROUNDS
100
AcDbLine
 62
7
  6
CONTINUOUS
 10
85.5331568952
 20
41.876329831
 11
85.5331568952
 21
47.0926290436
  0
LINE
  5
457
100
AcDbEntity
  8
7_ALL_ROUNDS
100
AcDbLine
 62
7
  6
CONTINUOUS
 10
86.2231568952
 20
41.186329831
 11
86.2231568952
 21
47.7826290436
  0
LINE
  5
458
100
AcDbEntity
  8
3_ALL_AXES
100
AcDbLine
 62
7
  6
CONTINUOUS
 10
86.5776450842
 20
32.8923534531
 11
86.5776450842
 21
32.3392038468
  0
LINE
  5
459
100
AcDbEntity
  8
7_ALL_ROUNDS
100
AcDbLine
 62
7
  6
CONTINUOUS
 10
87.4870939031
 20
60.0632195948
 11
87.4870939031
 21
32.8923534531
  0
LINE
  5
45A
100
AcDbEntity
  8
7_ALL_ROUNDS
100
AcDbLine
 62
7
  6
CONTINUOUS
 10
87.7370939031
 20
59.8132195948
 11
87.7370939031
 21
33.1423534531
  0
LINE
  5
45B
100
AcDbEntity
  8
7_ALL_ROUNDS
100
AcDbLine
 62
7
  6
CONTINUOUS
 10
76.0441805173
 20
59.8132195948
 11
87.7370939031
 21
59.8132195948
  0
LINE
  5
45C
100
AcDbEntity
  8
7_ALL_ROUNDS
100
AcDbLine
 62
7
  6
CONTINUOUS
 10
76.2941805173
 20
60.0632195948
 11
87.4870939031
 21
60.0632195948
  0
LINE
  5
45D
100
AcDbEntity
  8
7_ALL_ROUNDS
100
AcDbLine
 62
7
  6
CONTINUOUS
 10
24.2900500333
 20
32.1423534531
 11
23.1839255513
 21
32.1423534531
  0
LINE
  5
45E
100
AcDbEntity
  8
7_ALL_ROUNDS
100
AcDbLine
 62
7
  6
CONTINUOUS
 10
16.4160342852
 20
32.1423534531
 11
15.3099098033
 21
32.1423534531
  0
LINE
  5
45F
100
AcDbEntity
  8
7_ALL_ROUNDS
100
AcDbLine
 62
7
  6
CONTINUOUS
 10
24.4869877923
 20
32.3392038468
 11
22.9869877923
 21
32.3392038468
  0
LINE
  5
460
100
AcDbEntity
  8
7_ALL_ROUNDS
100
AcDbLine
 62
7
  6
CONTINUOUS
 10
16.6129720443
 20
32.3392038468
 11
15.1129720443
 21
32.3392038468
  0
LINE
  5
461
100
AcDbEntity
  8
7_ALL_ROUNDS
100
AcDbLine
 62
7
  6
CONTINUOUS
 10
25.3964366112
 20
32.8923534531
 11
14.2035232254
 21
32.8923534531
  0
LINE
  5
462
100
AcDbEntity
  8
7_ALL_ROUNDS
100
AcDbLine
 62
7
  6
CONTINUOUS
 10
25.6464366112
 20
33.1423534531
 11
13.9535232254
 21
33.1423534531
  0
LINE
  5
463
100
AcDbEntity
  8
7_ALL_ROUNDS
100
AcDbLine
 62
7
  6
CONTINUOUS
 10
13.9535232254
 20
59.8132195948
 11
13.9535232254
 21
33.1423534531
  0
LINE
  5
464
100
AcDbEntity
  8
7_ALL_ROUNDS
100
AcDbLine
 62
7
  6
CONTINUOUS
 10
14.2035232254
 20
32.8923534531
 11
14.2035232254
 21
60.0632195948
  0
LINE
  5
465
100
AcDbEntity
  8
3_ALL_AXES
100
AcDbLine
 62
7
  6
CONTINUOUS
 10
15.1129720443
 20
32.8923534531
 11
15.1129720443
 21
32.3392038468
  0
LINE
  5
466
100
AcDbEntity
  8
3_ALL_AXES
100
AcDbLine
 62
7
  6
CONTINUOUS
 10
16.6129720443
 20
32.8923534531
 11
16.6129720443
 21
32.3392038468
  0
LINE
  5
467
100
AcDbEntity
  8
3_ALL_AXES
100
AcDbLine
 62
7
  6
CENTER
 10
19.8590350364
 20
44.5179440042
 11
19.8590350364
 21
46.3021959727
  0
LINE
  5
468
100
AcDbEntity
  8
3_ALL_AXES
100
AcDbLine
 62
7
  6
CENTER
 10
19.6870997413
 20
45.4100699885
 11
21.432859925
 21
45.4100699885
  0
LINE
  5
469
100
AcDbEntity
  8
3_ALL_AXES
100
AcDbLine
 62
7
  6
CONTINUOUS
 10
22.9869877923
 20
32.8923534531
 11
22.9869877923
 21
32.3392038468
  0
LINE
  5
46A
100
AcDbEntity
  8
3_ALL_AXES
100
AcDbLine
 62
7
  6
CONTINUOUS
 10
24.4869877923
 20
32.8923534531
 11
24.4869877923
 21
32.3392038468
  0
LINE
  5
46B
100
AcDbEntity
  8
7_ALL_ROUNDS
100
AcDbLine
 62
7
  6
CONTINUOUS
 10
25.3964366112
 20
60.0632195948
 11
25.3964366112
 21
32.8923534531
  0
LINE
  5
46C
100
AcDbEntity
  8
7_ALL_ROUNDS
100
AcDbLine
 62
7
  6
CONTINUOUS
 10
25.6464366112
 20
59.8132195948
 11
25.6464366112
 21
33.1423534531
  0
LINE
  5
46D
100
AcDbEntity
  8
7_ALL_ROUNDS
100
AcDbLine
 62
7
  6
CONTINUOUS
 10
13.9535232254
 20
59.8132195948
 11
25.6464366112
 21
59.8132195948
  0
LINE
  5
46E
100
AcDbEntity
  8
7_ALL_ROUNDS
100
AcDbLine
 62
7
  6
CONTINUOUS
 10
14.2035232254
 20
60.0632195948
 11
25.3964366112
 21
60.0632195948
  0
LINE
  5
46F
100
AcDbEntity
  8
7_ALL_ROUNDS
100
AcDbLine
 62
7
  6
CONTINUOUS
 10
40.2733182431
 20
81.9424780341
 11
40.2733182431
 21
70.7495646482
  0
LINE
  5
470
100
AcDbEntity
  8
7_ALL_ROUNDS
100
AcDbLine
 62
7
  6
CONTINUOUS
 10
40.5233182431
 20
70.4995646482
 11
40.5233182431
 21
82.1924780341
  0
LINE
  5
471
100
AcDbEntity
  8
7_ALL_ROUNDS
100
AcDbLine
 62
7
  6
CONTINUOUS
 10
40.5233182431
 20
70.4995646482
 11
59.5948143061
 21
70.4995646482
  0
LINE
  5
472
100
AcDbEntity
  8
7_ALL_ROUNDS
100
AcDbLine
 62
7
  6
CONTINUOUS
 10
40.2733182431
 20
70.7495646482
 11
59.8448143061
 21
70.7495646482
  0
LINE
  5
473
100
AcDbEntity
  8
7_ALL_ROUNDS
100
AcDbLine
 62
7
  6
CONTINUOUS
 10
60.0448143061
 20
75.6985410262
 11
59.8448143061
 21
75.6985410262
  0
LINE
  5
474
100
AcDbEntity
  8
7_ALL_ROUNDS
100
AcDbLine
 62
7
  6
CONTINUOUS
 10
60.0448143061
 20
75.8953914199
 11
59.8448143061
 21
75.8953914199
  0
LINE
  5
475
100
AcDbEntity
  8
7_ALL_ROUNDS
100
AcDbLine
 62
7
  6
CONTINUOUS
 10
60.0448143061
 20
80.4816906325
 11
59.8448143061
 21
80.4816906325
  0
LINE
  5
476
100
AcDbEntity
  8
7_ALL_ROUNDS
100
AcDbLine
 62
7
  6
CONTINUOUS
 10
60.0448143061
 20
80.6785410262
 11
59.8448143061
 21
80.6785410262
  0
LINE
  5
477
100
AcDbEntity
  8
7_ALL_ROUNDS
100
AcDbLine
 62
7
  6
CONTINUOUS
 10
40.2733182431
 20
81.9424780341
 11
59.8448143061
 21
81.9424780341
  0
LINE
  5
478
100
AcDbEntity
  8
7_ALL_ROUNDS
100
AcDbLine
 62
7
  6
CONTINUOUS
 10
59.5948143061
 20
82.1924780341
 11
40.5233182431
 21
82.1924780341
  0
LINE
  5
479
100
AcDbEntity
  8
7_ALL_ROUNDS
100
AcDbLine
 62
7
  6
CONTINUOUS
 10
59.5948143061
 20
70.4995646482
 11
59.5948143061
 21
82.1924780341
  0
LINE
  5
47A
100
AcDbEntity
  8
7_ALL_ROUNDS
100
AcDbLine
 62
7
  6
CONTINUOUS
 10
59.8448143061
 20
70.7495646482
 11
59.8448143061
 21
81.9424780341
  0
LINE
  5
47B
100
AcDbEntity
  8
7_ALL_ROUNDS
100
AcDbLine
 62
7
  6
CONTINUOUS
 10
60.0448143061
 20
80.6785410262
 11
60.0448143061
 21
75.6985410262
  0
LINE
  5
47C
100
AcDbEntity
  8
3_AXES_OTHER
100
AcDbLine
 62
7
  6
CONTINUOUS
 10
60.0498143061
 20
79.7195410262
 11
60.0498143061
 21
79.5945410262
  0
LINE
  5
47D
100
AcDbEntity
  8
3_AXES_OTHER
100
AcDbLine
 62
7
  6
CONTINUOUS
 10
60.0498143061
 20
79.2195410262
 11
60.0498143061
 21
79.0945410262
  0
LINE
  5
47E
100
AcDbEntity
  8
3_AXES_OTHER
100
AcDbLine
 62
7
  6
CONTINUOUS
 10
60.0498143061
 20
78.7195410262
 11
60.0498143061
 21
78.5945410262
  0
LINE
  5
47F
100
AcDbEntity
  8
3_AXES_OTHER
100
AcDbLine
 62
7
  6
CONTINUOUS
 10
60.0498143061
 20
78.2195410262
 11
60.0498143061
 21
78.0945410262
  0
LINE
  5
480
100
AcDbEntity
  8
3_AXES_OTHER
100
AcDbLine
 62
7
  6
CONTINUOUS
 10
60.0498143061
 20
77.7195410262
 11
60.0498143061
 21
77.5945410262
  0
LINE
  5
481
100
AcDbEntity
  8
3_AXES_OTHER
100
AcDbLine
 62
7
  6
CONTINUOUS
 10
60.0498143061
 20
77.2195410262
 11
60.0498143061
 21
77.0945410262
  0
LINE
  5
482
100
AcDbEntity
  8
3_AXES_OTHER
100
AcDbLine
 62
7
  6
CONTINUOUS
 10
60.0498143061
 20
76.7195410262
 11
60.0498143061
 21
76.5945410262
  0
LINE
  5
483
100
AcDbEntity
  8
7_ALL_ROUNDS
100
AcDbLine
 62
7
  6
CONTINUOUS
 10
110.396918609
 20
75.879184177
 11
102.4823666043
 21
71.3097427224
  0
LINE
  5
484
100
AcDbEntity
  8
7_ALL_ROUNDS
100
AcDbLine
 62
7
  6
CONTINUOUS
 10
110.5219180494
 20
75.8668031072
 11
102.6073660446
 21
71.2973616526
  0
LINE
  5
485
100
AcDbEntity
  8
7_ALL_ROUNDS
100
AcDbLine
 62
7
  6
CONTINUOUS
 10
110.3969068604
 20
75.8791773927
 11
110.3979536823
 21
75.8797719575
  0
LINE
  5
486
100
AcDbEntity
  8
7_ALL_ROUNDS
100
AcDbLine
 62
7
  6
CONTINUOUS
 10
115.9680085048
 20
41.3141398587
 11
102.4823681655
 21
49.0999018013
  0
LINE
  5
487
100
AcDbEntity
  8
7_ALL_ROUNDS
100
AcDbLine
 62
7
  6
CONTINUOUS
 10
115.9162304246
 20
41.4285863956
 11
102.4305900853
 21
49.2143483382
  0
LINE
  5
488
100
AcDbEntity
  8
3_AXES_OTHER
100
AcDbLine
 62
7
  6
CONTINUOUS
 10
102.6073675166
 20
49.3164137539
 11
115.7394529933
 21
41.7347721886
  0
LINE
  5
489
100
AcDbEntity
  8
3_AXES_OTHER
100
AcDbLine
 62
7
  6
CONTINUOUS
 10
102.975061512
 20
49.5287007139
 11
115.7394529933
 21
42.1593425733
  0
LINE
  5
48A
100
AcDbEntity
  8
7_ALL_ROUNDS
100
AcDbLine
 62
7
  6
CONTINUOUS
 10
102.3573660446
 20
71.0932360484
 11
102.3573660446
 21
49.3164093767
  0
LINE
  5
48B
100
AcDbEntity
  8
7_ALL_ROUNDS
100
AcDbLine
 62
7
  6
CONTINUOUS
 10
102.4305900853
 20
70.9911750099
 11
102.4305900853
 21
49.2143483382
  0
LINE
  5
48C
100
AcDbEntity
  8
7_ALL_ROUNDS
100
AcDbLine
 62
7
  6
CONTINUOUS
 10
105.7433135411
 20
67.0388301194
 11
105.8825072098
 21
67.1191931418
  0
LINE
  5
48D
100
AcDbEntity
  8
7_ALL_ROUNDS
100
AcDbLine
 62
7
  6
CONTINUOUS
 10
105.9401630535
 20
67.0193323717
 11
106.0793567223
 21
67.0996953942
  0
LINE
  5
48E
100
AcDbEntity
  8
7_ALL_ROUNDS
100
AcDbLine
 62
7
  6
CONTINUOUS
 10
106.514781097
 20
68.4290939697
 11
103.1518374713
 21
66.4881613608
  0
LINE
  5
48F
100
AcDbEntity
  8
7_ALL_ROUNDS
100
AcDbLine
 62
7
  6
CONTINUOUS
 10
106.7648349941
 20
68.2847285509
 11
102.975061512
 21
66.0974498599
  0
LINE
  5
490
100
AcDbEntity
  8
3_AXES_OTHER
100
AcDbLine
 62
7
  6
CONTINUOUS
 10
102.6073675166
 20
70.684989217
 11
102.6073675166
 21
49.3164137539
  0
LINE
  5
491
100
AcDbEntity
  8
7_ALL_ROUNDS
100
AcDbLine
 62
7
  6
CONTINUOUS
 10
102.975061512
 20
66.0974498599
 11
102.975061512
 21
49.5287007139
  0
LINE
  5
492
100
AcDbEntity
  8
7_ALL_ROUNDS
100
AcDbLine
 62
7
  6
CONTINUOUS
 10
106.0793567223
 20
66.6175089273
 11
105.9401630535
 21
66.5371459049
  0
LINE
  5
493
100
AcDbEntity
  8
7_ALL_ROUNDS
100
AcDbLine
 62
7
  6
CONTINUOUS
 10
105.661773398
 20
66.8585994337
 11
105.661773398
 21
59.7139139719
  0
LINE
  5
494
100
AcDbEntity
  8
7_ALL_ROUNDS
100
AcDbLine
 62
7
  6
CONTINUOUS
 10
105.9401630535
 20
59.7139180877
 11
105.9401630535
 21
66.5371459049
  0
LINE
  5
495
100
AcDbEntity
  8
7_ALL_ROUNDS
100
AcDbLine
 62
7
  6
CONTINUOUS
 10
106.0793567223
 20
59.7942811101
 11
106.0793567223
 21
66.6175089273
  0
LINE
  5
496
100
AcDbEntity
  8
7_ALL_ROUNDS
100
AcDbLine
 62
7
  6
CONTINUOUS
 10
106.0793567223
 20
59.7942811101
 11
105.9401630535
 21
59.7139180877
  0
LINE
  5
497
100
AcDbEntity
  8
7_ALL_ROUNDS
100
AcDbLine
 62
7
  6
CONTINUOUS
 10
106.2185515501
 20
59.5531899346
 11
106.0793578813
 21
59.4728269122
  0
LINE
  5
498
100
AcDbEntity
  8
7_ALL_ROUNDS
100
AcDbLine
 62
7
  6
CONTINUOUS
 10
112.8636581096
 20
63.0221410659
 11
113.0028517784
 21
63.1025040883
  0
LINE
  5
499
100
AcDbEntity
  8
7_ALL_ROUNDS
100
AcDbLine
 62
7
  6
CONTINUOUS
 10
111.9112369548
 20
62.5184544882
 11
106.1577876058
 21
59.6723503117
  0
LINE
  5
49A
100
AcDbEntity
  8
7_ALL_ROUNDS
100
AcDbLine
 62
7
  6
CONTINUOUS
 10
119.9514160892
 20
49.845140541
 11
119.8099941442
 21
49.9267886919
  0
LINE
  5
49B
100
AcDbEntity
  8
7_ALL_ROUNDS
100
AcDbLine
 62
7
  6
CONTINUOUS
 10
119.9106459473
 20
49.9352559245
 11
119.7692240023
 21
50.0169040754
  0
LINE
  5
49C
100
AcDbEntity
  8
7_ALL_ROUNDS
100
AcDbLine
 62
7
  6
CONTINUOUS
 10
113.1420477652
 20
62.5399587149
 11
113.2812414339
 21
62.6203217373
  0
LINE
  5
49D
100
AcDbEntity
  8
7_ALL_ROUNDS
100
AcDbLine
 62
7
  6
CONTINUOUS
 10
116.0930063839
 20
63.5115997101
 11
124.0075583886
 21
68.0810411646
  0
LINE
  5
49E
100
AcDbEntity
  8
7_ALL_ROUNDS
100
AcDbLine
 62
7
  6
CONTINUOUS
 10
120.5377412638
 20
50.6999652586
 11
120.3985458129
 21
50.7803279716
  0
LINE
  5
49F
100
AcDbEntity
  8
7_ALL_ROUNDS
100
AcDbLine
 62
7
  6
CONTINUOUS
 10
105.9401630535
 20
59.2317316209
 11
112.8636581096
 21
55.2345403151
  0
LINE
  5
4A0
100
AcDbEntity
  8
7_ALL_ROUNDS
100
AcDbLine
 62
7
  6
CONTINUOUS
 10
112.7244632818
 20
55.6363603129
 11
106.0793578813
 21
59.4728269122
  0
LINE
  5
4A1
100
AcDbEntity
  8
7_ALL_ROUNDS
100
AcDbLine
 62
7
  6
CONTINUOUS
 10
112.8636569506
 20
55.7167233353
 11
106.2185515501
 21
59.5531899346
  0
LINE
  5
4A2
100
AcDbEntity
  8
7_ALL_ROUNDS
100
AcDbLine
 62
7
  6
CONTINUOUS
 10
116.2697838152
 20
63.2054139171
 11
124.1843358199
 21
67.7748553717
  0
LINE
  5
4A3
100
AcDbEntity
  8
7_ALL_ROUNDS
100
AcDbLine
 62
7
  6
CONTINUOUS
 10
112.3482466482
 20
62.2661525319
 11
112.8636581096
 21
57.0461039956
  0
LINE
  5
4A4
100
AcDbEntity
  8
7_ALL_ROUNDS
100
AcDbLine
 62
7
  6
CONTINUOUS
 10
112.8636581096
 20
62.5399545991
 11
112.8636581096
 21
55.7167267819
  0
LINE
  5
4A5
100
AcDbEntity
  8
7_ALL_ROUNDS
100
AcDbLine
 62
7
  6
CONTINUOUS
 10
113.1420477652
 20
55.3952732531
 11
113.1420477652
 21
62.5399587149
  0
LINE
  5
4A6
100
AcDbEntity
  8
7_ALL_ROUNDS
100
AcDbLine
 62
7
  6
CONTINUOUS
 10
113.2812414339
 20
55.4756362755
 11
113.2812414339
 21
62.6203217373
  0
LINE
  5
4A7
100
AcDbEntity
  8
7_ALL_ROUNDS
100
AcDbLine
 62
7
  6
CONTINUOUS
 10
122.8049277402
 20
52.0089181677
 11
122.221562217
 21
52.3457167902
  0
LINE
  5
4A8
100
AcDbEntity
  8
7_ALL_ROUNDS
100
AcDbLine
 62
7
  6
CONTINUOUS
 10
122.944121409
 20
52.2500100124
 11
122.3607558857
 21
52.5868086349
  0
LINE
  5
4A9
100
AcDbEntity
  8
3_AXES_OTHER
100
AcDbLine
 62
7
  6
CONTINUOUS
 10
120.398547595
 20
54.0538070956
 11
120.5477465341
 21
53.9676689966
  0
LINE
  5
4AA
100
AcDbEntity
  8
3_AXES_OTHER
100
AcDbLine
 62
7
  6
CONTINUOUS
 10
120.6361345138
 20
54.3248800818
 11
120.9012984527
 21
54.1717910736
  0
LINE
  5
4AB
100
AcDbEntity
  8
3_AXES_OTHER
100
AcDbLine
 62
7
  6
CONTINUOUS
 10
120.398547595
 20
54.6253587876
 11
120.5477465341
 21
54.5392206886
  0
LINE
  5
4AC
100
AcDbEntity
  8
3_AXES_OTHER
100
AcDbLine
 62
7
  6
CONTINUOUS
 10
120.398547595
 20
54.7274189762
 11
120.6361345138
 21
54.5902512078
  0
LINE
  5
4AD
100
AcDbEntity
  8
3_AXES_OTHER
100
AcDbLine
 62
7
  6
CONTINUOUS
 10
120.9896864324
 20
54.5290021587
 11
121.2548503713
 21
54.3759131505
  0
LINE
  5
4AE
100
AcDbEntity
  8
3_AXES_OTHER
100
AcDbLine
 62
7
  6
CONTINUOUS
 10
120.5487179539
 20
54.8652503646
 11
120.6113556264
 21
54.8290873057
  0
LINE
  5
4AF
100
AcDbEntity
  8
3_AXES_OTHER
100
AcDbLine
 62
7
  6
CONTINUOUS
 10
120.5487179539
 20
54.9469006063
 11
120.9012984527
 21
54.7433427655
  0
LINE
  5
4B0
100
AcDbEntity
  8
7_ALL_ROUNDS
100
AcDbLine
 62
7
  6
CONTINUOUS
 10
119.9106459473
 20
55.3211501757
 11
119.7692240023
 21
55.4027983266
  0
LINE
  5
4B1
100
AcDbEntity
  8
3_AXES_OTHER
100
AcDbLine
 62
7
  6
CONTINUOUS
 10
120.6371059336
 20
54.9979311256
 11
120.9896864324
 21
54.7943732848
  0
LINE
  5
4B2
100
AcDbEntity
  8
3_ALL_AXES
100
AcDbLine
 62
7
  6
CONTINUOUS
 10
120.8998940271
 20
54.8694922717
 11
121.0064059093
 21
54.807998999
  0
LINE
  5
4B3
100
AcDbEntity
  8
3_AXES_OTHER
100
AcDbLine
 62
7
  6
CONTINUOUS
 10
121.343238351
 20
54.7331242356
 11
121.6084022899
 21
54.5800352274
  0
LINE
  5
4B4
100
AcDbEntity
  8
3_AXES_OTHER
100
AcDbLine
 62
7
  6
CONTINUOUS
 10
120.9022698725
 20
55.0693724416
 11
120.964907545
 21
55.0332093826
  0
LINE
  5
4B5
100
AcDbEntity
  8
7_ALL_ROUNDS
100
AcDbLine
 62
7
  6
CONTINUOUS
 10
120.0498396161
 20
55.5622420203
 11
119.908417671
 21
55.6438901712
  0
LINE
  5
4B6
100
AcDbEntity
  8
3_AXES_OTHER
100
AcDbLine
 62
7
  6
CONTINUOUS
 10
120.9022698725
 20
55.1510226833
 11
121.2548503713
 21
54.9474648425
  0
LINE
  5
4B7
100
AcDbEntity
  8
3_AXES_OTHER
100
AcDbLine
 62
7
  6
CONTINUOUS
 10
120.9906578522
 20
55.2020532025
 11
121.343238351
 21
54.9984953617
  0
LINE
  5
4B8
100
AcDbEntity
  8
3_ALL_AXES
100
AcDbLine
 62
7
  6
CONTINUOUS
 10
121.264937775
 20
55.0802491198
 11
121.3714496572
 21
55.0187558471
  0
LINE
  5
4B9
100
AcDbEntity
  8
3_AXES_OTHER
100
AcDbLine
 62
7
  6
CONTINUOUS
 10
121.6967902696
 20
54.9372463126
 11
121.9619542085
 21
54.7841573044
  0
LINE
  5
4BA
100
AcDbEntity
  8
3_AXES_OTHER
100
AcDbLine
 62
7
  6
CONTINUOUS
 10
121.2558217911
 20
55.2734945185
 11
121.3184594636
 21
55.2373314595
  0
LINE
  5
4BB
100
AcDbEntity
  8
3_AXES_OTHER
100
AcDbLine
 62
7
  6
CONTINUOUS
 10
121.2558217911
 20
55.3551447602
 11
121.6084022899
 21
55.1515869194
  0
LINE
  5
4BC
100
AcDbEntity
  8
3_AXES_OTHER
100
AcDbLine
 62
7
  6
CONTINUOUS
 10
121.3442097708
 20
55.4061752794
 11
121.6967902696
 21
55.2026174387
  0
LINE
  5
4BD
100
AcDbEntity
  8
3_ALL_AXES
100
AcDbLine
 62
7
  6
CONTINUOUS
 10
121.6299815229
 20
55.2910059678
 11
121.7364934051
 21
55.2295126951
  0
LINE
  5
4BE
100
AcDbEntity
  8
3_AXES_OTHER
100
AcDbLine
 62
7
  6
CONTINUOUS
 10
122.0503421882
 20
55.1413683895
 11
122.3155061271
 21
54.9882793813
  0
LINE
  5
4BF
100
AcDbEntity
  8
3_AXES_OTHER
100
AcDbLine
 62
7
  6
CONTINUOUS
 10
121.6093737098
 20
55.4776165954
 11
121.6720113823
 21
55.4414535365
  0
LINE
  5
4C0
100
AcDbEntity
  8
3_AXES_OTHER
100
AcDbLine
 62
7
  6
CONTINUOUS
 10
121.6093737098
 20
55.5592668371
 11
121.9619542085
 21
55.3557089964
  0
LINE
  5
4C1
100
AcDbEntity
  8
3_AXES_OTHER
100
AcDbLine
 62
7
  6
CONTINUOUS
 10
115.7394529933
 20
41.7347721886
 11
115.7394529933
 21
63.1033476517
  0
LINE
  5
4C2
100
AcDbEntity
  8
7_ALL_ROUNDS
100
AcDbLine
 62
7
  6
CONTINUOUS
 10
115.9162304246
 20
63.2054130673
 11
115.9162304246
 21
41.4285863956
  0
LINE
  5
4C3
100
AcDbEntity
  8
7_ALL_ROUNDS
100
AcDbLine
 62
7
  6
CONTINUOUS
 10
112.8636569506
 20
55.7167233353
 11
112.7244632818
 21
55.6363603129
  0
LINE
  5
4C4
100
AcDbEntity
  8
3_AXES_OTHER
100
AcDbLine
 62
7
  6
CONTINUOUS
 10
102.6073675166
 20
49.3164137539
 11
102.975061512
 21
49.5287007139
  0
LINE
  5
4C5
100
AcDbEntity
  8
7_ALL_ROUNDS
100
AcDbLine
 62
7
  6
CONTINUOUS
 10
113.1420477652
 20
55.3952732531
 11
113.2812414339
 21
55.4756362755
  0
LINE
  5
4C6
100
AcDbEntity
  8
7_ALL_ROUNDS
100
AcDbLine
 62
7
  6
CONTINUOUS
 10
113.060507622
 20
55.2150425674
 11
113.1997012908
 21
55.2954055899
  0
LINE
  5
4C7
100
AcDbEntity
  8
3_AXES_OTHER
100
AcDbLine
 62
7
  6
CONTINUOUS
 10
121.6977616894
 20
55.6102973564
 11
122.0503421882
 21
55.4067395156
  0
LINE
  5
4C8
100
AcDbEntity
  8
3_ALL_AXES
100
AcDbLine
 62
7
  6
CONTINUOUS
 10
121.9950252708
 20
55.5017628159
 11
122.101537153
 21
55.4402695432
  0
LINE
  5
4C9
100
AcDbEntity
  8
3_AXES_OTHER
100
AcDbLine
 62
7
  6
CONTINUOUS
 10
122.4038941068
 20
55.3454904664
 11
122.6690580457
 21
55.1924014582
  0
LINE
  5
4CA
100
AcDbEntity
  8
3_AXES_OTHER
100
AcDbLine
 62
7
  6
CONTINUOUS
 10
121.9629256284
 20
55.6817386724
 11
122.0255633009
 21
55.6455756134
  0
LINE
  5
4CB
100
AcDbEntity
  8
3_AXES_OTHER
100
AcDbLine
 62
7
  6
CONTINUOUS
 10
121.9629256284
 20
55.7633889141
 11
122.3155061271
 21
55.5598310733
  0
LINE
  5
4CC
100
AcDbEntity
  8
3_AXES_OTHER
100
AcDbLine
 62
7
  6
CONTINUOUS
 10
122.051313608
 20
55.8144194333
 11
122.4038941068
 21
55.6108615925
  0
LINE
  5
4CD
100
AcDbEntity
  8
3_AXES_OTHER
100
AcDbLine
 62
7
  6
CONTINUOUS
 10
122.316477547
 20
55.8858607493
 11
122.3791152195
 21
55.8496976903
  0
LINE
  5
4CE
100
AcDbEntity
  8
3_AXES_OTHER
100
AcDbLine
 62
7
  6
CONTINUOUS
 10
122.316477547
 20
55.967510991
 11
122.6690580457
 21
55.7639531502
  0
LINE
  5
4CF
100
AcDbEntity
  8
3_AXES_OTHER
100
AcDbLine
 62
7
  6
CONTINUOUS
 10
122.4048655266
 20
56.0185415102
 11
122.7574460254
 21
55.8149836695
  0
LWPOLYLINE
  5
4D0
100
AcDbEntity
  8
3_AXES_OTHER
100
AcDbPolyline
 62
7
  6
CONTINUOUS
 90
8
 70
0
 10
112.1413261522
 20
62.9958199216
 10
112.1411479673
 20
62.9959515658
 10
112.1420184694
 20
62.9953019375
 10
112.1458643907
 20
62.99239832
 10
112.1539394981
 20
62.9861934734
 10
112.1673140686
 20
62.9756630541
 10
112.183152469
 20
62.9628073669
 10
112.1996165052
 20
62.9489728037
  0
LWPOLYLINE
  5
4D1
100
AcDbEntity
  8
3_AXES_OTHER
100
AcDbPolyline
 62
7
  6
CONTINUOUS
 90
9
 70
0
 10
112.1996165052
 20
62.9489728037
 10
112.2148046623
 20
62.9357224179
 10
112.2279860517
 20
62.923769706
 10
112.2394665974
 20
62.9129416441
 10
112.2494622944
 20
62.9031246754
 10
112.2582749646
 20
62.8940969382
 10
112.2662311132
 20
62.8855711921
 10
112.2734954046
 20
62.8773917326
 10
112.2790812446
 20
62.870774749
  0
LINE
  5
4D2
100
AcDbEntity
  8
3_AXES_OTHER
100
AcDbLine
 62
7
  6
CONTINUOUS
 10
112.3482466482
 20
62.7707693662
 11
112.2790474408
 21
62.8707241597
  0
LINE
  5
4D3
100
AcDbEntity
  8
7_ALL_ROUNDS
100
AcDbLine
 62
7
  6
CONTINUOUS
 10
115.7394529933
 20
59.1525907935
 11
112.3173735066
 21
65.0790414683
  0
LINE
  5
4D4
100
AcDbEntity
  8
7_ALL_ROUNDS
100
AcDbLine
 62
7
  6
CONTINUOUS
 10
115.7394529933
 20
59.8494477265
 11
112.9209793222
 21
64.730557372
  0
LINE
  5
4D5
100
AcDbEntity
  8
7_ALL_ROUNDS
100
AcDbLine
 62
7
  6
CONTINUOUS
 10
116.2697838152
 20
63.2054139171
 11
116.2697838152
 21
41.4285872455
  0
LINE
  5
4D6
100
AcDbEntity
  8
7_ALL_ROUNDS
100
AcDbLine
 62
7
  6
CONTINUOUS
 10
112.3482466482
 20
62.7707693662
 11
112.7245318714
 21
62.776676916
  0
LINE
  5
4D7
100
AcDbEntity
  8
7_ALL_ROUNDS
100
AcDbLine
 62
7
  6
CONTINUOUS
 10
122.944121409
 20
56.5091309279
 11
122.8049259581
 21
56.5894936409
  0
LINE
  5
4D8
100
AcDbEntity
  8
7_ALL_ROUNDS
100
AcDbLine
 62
7
  6
CONTINUOUS
 10
106.0793578813
 20
66.617512374
 11
112.7244632818
 21
62.7810457746
  0
LINE
  5
4D9
100
AcDbEntity
  8
7_ALL_ROUNDS
100
AcDbLine
 62
7
  6
CONTINUOUS
 10
112.8636581096
 20
63.0221410659
 11
105.9401630535
 21
67.0193323717
  0
LINE
  5
4DA
100
AcDbEntity
  8
7_ALL_ROUNDS
100
AcDbLine
 62
7
  6
CONTINUOUS
 10
113.0028517784
 20
63.1025040883
 11
106.0793567223
 21
67.0996953942
  0
LINE
  5
4DB
100
AcDbEntity
  8
7_ALL_ROUNDS
100
AcDbLine
 62
7
  6
CONTINUOUS
 10
123.2928293879
 20
57.4345718618
 11
123.1514074429
 21
57.5162200127
  0
LINE
  5
4DC
100
AcDbEntity
  8
7_ALL_ROUNDS
100
AcDbLine
 62
7
  6
CONTINUOUS
 10
123.3912529148
 20
57.4443214454
 11
123.2498309698
 21
57.5259695963
  0
LINE
  5
4DD
100
AcDbEntity
  8
7_ALL_ROUNDS
100
AcDbLine
 62
7
  6
CONTINUOUS
 10
111.9112369548
 20
63.0230713225
 11
108.4938730142
 21
65.2235229483
  0
LINE
  5
4DE
100
AcDbEntity
  8
3_AXES_OTHER
100
AcDbLine
 62
7
  6
CONTINUOUS
 10
115.7394529933
 20
63.1033476517
 11
102.6073675166
 21
70.684989217
  0
LINE
  5
4DF
100
AcDbEntity
  8
7_ALL_ROUNDS
100
AcDbLine
 62
7
  6
CONTINUOUS
 10
102.4305900853
 20
70.9911750099
 11
115.9162304246
 21
63.2054130673
  0
LINE
  5
4E0
100
AcDbEntity
  8
7_ALL_ROUNDS
100
AcDbLine
 62
7
  6
CONTINUOUS
 10
119.7692240023
 20
55.4027983266
 11
119.7692240023
 21
50.0169040754
  0
LINE
  5
4E1
100
AcDbEntity
  8
7_ALL_ROUNDS
100
AcDbLine
 62
7
  6
CONTINUOUS
 10
119.9106459473
 20
55.3211501757
 11
119.9106459473
 21
49.9352559245
  0
LINE
  5
4E2
100
AcDbEntity
  8
7_ALL_ROUNDS
100
AcDbLine
 62
7
  6
CONTINUOUS
 10
123.1514074429
 20
57.5162200127
 11
119.908417671
 21
55.6438901712
  0
LINE
  5
4E3
100
AcDbEntity
  8
7_ALL_ROUNDS
100
AcDbLine
 62
7
  6
CONTINUOUS
 10
123.2928293879
 20
57.4345718618
 11
120.0498396161
 21
55.5622420203
  0
LINE
  5
4E4
100
AcDbEntity
  8
7_ALL_ROUNDS
100
AcDbLine
 62
7
  6
CONTINUOUS
 10
122.8049277402
 20
56.5894967278
 11
120.5377412638
 21
55.2805438187
  0
LINE
  5
4E5
100
AcDbEntity
  8
3_AXES_OTHER
100
AcDbLine
 62
7
  6
CONTINUOUS
 10
122.4048655266
 20
56.0185415102
 11
122.316477547
 21
55.967510991
  0
LINE
  5
4E6
100
AcDbEntity
  8
3_AXES_OTHER
100
AcDbLine
 62
7
  6
CONTINUOUS
 10
122.051313608
 20
55.8144194333
 11
121.9629256284
 21
55.7633889141
  0
LINE
  5
4E7
100
AcDbEntity
  8
3_AXES_OTHER
100
AcDbLine
 62
7
  6
CONTINUOUS
 10
121.6977616894
 20
55.6102973564
 11
121.6093737098
 21
55.5592668371
  0
LINE
  5
4E8
100
AcDbEntity
  8
3_AXES_OTHER
100
AcDbLine
 62
7
  6
CONTINUOUS
 10
121.3442097708
 20
55.4061752794
 11
121.2558217911
 21
55.3551447602
  0
LINE
  5
4E9
100
AcDbEntity
  8
3_AXES_OTHER
100
AcDbLine
 62
7
  6
CONTINUOUS
 10
120.9906578522
 20
55.2020532025
 11
120.9022698725
 21
55.1510226833
  0
LINE
  5
4EA
100
AcDbEntity
  8
3_AXES_OTHER
100
AcDbLine
 62
7
  6
CONTINUOUS
 10
120.6371059336
 20
54.9979311256
 11
120.5487179539
 21
54.9469006063
  0
LINE
  5
4EB
100
AcDbEntity
  8
3_AXES_OTHER
100
AcDbLine
 62
7
  6
CONTINUOUS
 10
122.316477547
 20
55.8858607493
 11
122.1220258024
 21
55.7735946524
  0
LINE
  5
4EC
100
AcDbEntity
  8
3_AXES_OTHER
100
AcDbLine
 62
7
  6
CONTINUOUS
 10
121.9629256284
 20
55.6817386724
 11
121.7684738838
 21
55.5694725755
  0
LINE
  5
4ED
100
AcDbEntity
  8
3_AXES_OTHER
100
AcDbLine
 62
7
  6
CONTINUOUS
 10
121.6093737098
 20
55.4776165954
 11
121.4149219652
 21
55.3653504985
  0
LINE
  5
4EE
100
AcDbEntity
  8
3_AXES_OTHER
100
AcDbLine
 62
7
  6
CONTINUOUS
 10
121.2558217911
 20
55.2734945185
 11
121.0613700466
 21
55.1612284216
  0
LINE
  5
4EF
100
AcDbEntity
  8
3_AXES_OTHER
100
AcDbLine
 62
7
  6
CONTINUOUS
 10
120.9022698725
 20
55.0693724416
 11
120.707818128
 21
54.9571063447
  0
LINE
  5
4F0
100
AcDbEntity
  8
3_AXES_OTHER
100
AcDbLine
 62
7
  6
CONTINUOUS
 10
120.5487179539
 20
54.8652503646
 11
120.398547595
 21
54.778549985
  0
LINE
  5
4F1
100
AcDbEntity
  8
3_AXES_OTHER
100
AcDbLine
 62
7
  6
CONTINUOUS
 10
122.3791152195
 20
55.8496976903
 11
122.184663475
 21
55.7374315934
  0
LINE
  5
4F2
100
AcDbEntity
  8
3_AXES_OTHER
100
AcDbLine
 62
7
  6
CONTINUOUS
 10
122.0255633009
 20
55.6455756134
 11
121.8311115563
 21
55.5333095165
  0
LINE
  5
4F3
100
AcDbEntity
  8
3_AXES_OTHER
100
AcDbLine
 62
7
  6
CONTINUOUS
 10
121.6720113823
 20
55.4414535365
 11
121.4775596377
 21
55.3291874396
  0
LINE
  5
4F4
100
AcDbEntity
  8
3_AXES_OTHER
100
AcDbLine
 62
7
  6
CONTINUOUS
 10
121.3184594636
 20
55.2373314595
 11
121.1240077191
 21
55.1250653626
  0
LINE
  5
4F5
100
AcDbEntity
  8
3_AXES_OTHER
100
AcDbLine
 62
7
  6
CONTINUOUS
 10
120.964907545
 20
55.0332093826
 11
120.7704558005
 21
54.9209432857
  0
LINE
  5
4F6
100
AcDbEntity
  8
3_AXES_OTHER
100
AcDbLine
 62
7
  6
CONTINUOUS
 10
120.6113556264
 20
54.8290873057
 11
120.4169038819
 21
54.7168212088
  0
LINE
  5
4F7
100
AcDbEntity
  8
7_ALL_ROUNDS
100
AcDbLine
 62
7
  6
CONTINUOUS
 10
102.6073660446
 20
71.2973616526
 11
116.0930063839
 21
63.5115997101
  0
LINE
  5
4F8
100
AcDbEntity
  8
7_ALL_ROUNDS
100
AcDbLine
 62
7
  6
CONTINUOUS
 10
120.398547595
 20
55.039451974
 11
120.398547595
 21
50.7803310584
  0
LINE
  5
4F9
100
AcDbEntity
  8
3_AXES_OTHER
100
AcDbLine
 62
7
  6
CONTINUOUS
 10
120.5477465341
 20
54.5392206886
 11
120.5477465341
 21
53.9676689966
  0
LINE
  5
4FA
100
AcDbEntity
  8
3_AXES_OTHER
100
AcDbLine
 62
7
  6
CONTINUOUS
 10
120.5487179539
 20
54.9469006063
 11
120.5487179539
 21
54.8652503646
  0
LINE
  5
4FB
100
AcDbEntity
  8
3_AXES_OTHER
100
AcDbLine
 62
7
  6
CONTINUOUS
 10
120.6113556264
 20
54.6045569815
 11
120.6113556264
 21
54.8290873057
  0
LINE
  5
4FC
100
AcDbEntity
  8
3_AXES_OTHER
100
AcDbLine
 62
7
  6
CONTINUOUS
 10
120.6361345138
 20
54.0186995159
 11
120.6361345138
 21
54.5902512078
  0
LINE
  5
4FD
100
AcDbEntity
  8
3_AXES_OTHER
100
AcDbLine
 62
7
  6
CONTINUOUS
 10
120.9012984527
 20
54.7433427655
 11
120.9012984527
 21
54.1717910736
  0
LINE
  5
4FE
100
AcDbEntity
  8
3_AXES_OTHER
100
AcDbLine
 62
7
  6
CONTINUOUS
 10
120.9022698725
 20
55.1510226833
 11
120.9022698725
 21
55.0693724416
  0
LINE
  5
4FF
100
AcDbEntity
  8
3_AXES_OTHER
100
AcDbLine
 62
7
  6
CONTINUOUS
 10
120.964907545
 20
54.8319575488
 11
120.964907545
 21
55.0332093826
  0
LINE
  5
500
100
AcDbEntity
  8
3_AXES_OTHER
100
AcDbLine
 62
7
  6
CONTINUOUS
 10
120.9896864324
 20
54.2228215928
 11
120.9896864324
 21
54.7943732848
  0
LINE
  5
501
100
AcDbEntity
  8
3_AXES_OTHER
100
AcDbLine
 62
7
  6
CONTINUOUS
 10
121.2548503713
 20
54.9474648425
 11
121.2548503713
 21
54.3759131505
  0
LINE
  5
502
100
AcDbEntity
  8
3_AXES_OTHER
100
AcDbLine
 62
7
  6
CONTINUOUS
 10
121.2558217911
 20
55.3551447602
 11
121.2558217911
 21
55.2734945185
  0
LINE
  5
503
100
AcDbEntity
  8
3_AXES_OTHER
100
AcDbLine
 62
7
  6
CONTINUOUS
 10
121.3184594636
 20
55.0493490575
 11
121.3184594636
 21
55.2373314595
  0
LINE
  5
504
100
AcDbEntity
  8
3_AXES_OTHER
100
AcDbLine
 62
7
  6
CONTINUOUS
 10
121.343238351
 20
54.4269436697
 11
121.343238351
 21
54.9984953617
  0
LINE
  5
505
100
AcDbEntity
  8
3_AXES_OTHER
100
AcDbLine
 62
7
  6
CONTINUOUS
 10
121.6084022899
 20
55.1515869194
 11
121.6084022899
 21
54.5800352274
  0
LINE
  5
506
100
AcDbEntity
  8
3_AXES_OTHER
100
AcDbLine
 62
7
  6
CONTINUOUS
 10
121.6093737098
 20
55.5592668371
 11
121.6093737098
 21
55.4776165954
  0
LINE
  5
507
100
AcDbEntity
  8
3_AXES_OTHER
100
AcDbLine
 62
7
  6
CONTINUOUS
 10
121.6720113823
 20
55.2667405662
 11
121.6720113823
 21
55.4414535365
  0
LINE
  5
508
100
AcDbEntity
  8
3_AXES_OTHER
100
AcDbLine
 62
7
  6
CONTINUOUS
 10
122.7574460254
 20
55.8149836695
 11
122.6690580457
 21
55.7639531502
  0
LINE
  5
509
100
AcDbEntity
  8
3_AXES_OTHER
100
AcDbLine
 62
7
  6
CONTINUOUS
 10
122.4038941068
 20
55.6108615925
 11
122.3155061271
 21
55.5598310733
  0
LINE
  5
50A
100
AcDbEntity
  8
3_AXES_OTHER
100
AcDbLine
 62
7
  6
CONTINUOUS
 10
122.0503421882
 20
55.4067395156
 11
121.9619542085
 21
55.3557089964
  0
LINE
  5
50B
100
AcDbEntity
  8
3_AXES_OTHER
100
AcDbLine
 62
7
  6
CONTINUOUS
 10
121.6967902696
 20
55.2026174387
 11
121.6084022899
 21
55.1515869194
  0
LINE
  5
50C
100
AcDbEntity
  8
3_AXES_OTHER
100
AcDbLine
 62
7
  6
CONTINUOUS
 10
121.343238351
 20
54.9984953617
 11
121.2548503713
 21
54.9474648425
  0
LINE
  5
50D
100
AcDbEntity
  8
3_AXES_OTHER
100
AcDbLine
 62
7
  6
CONTINUOUS
 10
120.9896864324
 20
54.7943732848
 11
120.9012984527
 21
54.7433427655
  0
LINE
  5
50E
100
AcDbEntity
  8
3_AXES_OTHER
100
AcDbLine
 62
7
  6
CONTINUOUS
 10
120.6361345138
 20
54.5902512078
 11
120.5477465341
 21
54.5392206886
  0
LINE
  5
50F
100
AcDbEntity
  8
3_AXES_OTHER
100
AcDbLine
 62
7
  6
CONTINUOUS
 10
120.5477465341
 20
53.9676689966
 11
120.6361345138
 21
54.0186995159
  0
LINE
  5
510
100
AcDbEntity
  8
3_AXES_OTHER
100
AcDbLine
 62
7
  6
CONTINUOUS
 10
120.9012984527
 20
54.1717910736
 11
120.9896864324
 21
54.2228215928
  0
LINE
  5
511
100
AcDbEntity
  8
3_AXES_OTHER
100
AcDbLine
 62
7
  6
CONTINUOUS
 10
121.2548503713
 20
54.3759131505
 11
121.343238351
 21
54.4269436697
  0
LINE
  5
512
100
AcDbEntity
  8
3_AXES_OTHER
100
AcDbLine
 62
7
  6
CONTINUOUS
 10
121.6084022899
 20
54.5800352274
 11
121.6967902696
 21
54.6310657467
  0
LINE
  5
513
100
AcDbEntity
  8
3_AXES_OTHER
100
AcDbLine
 62
7
  6
CONTINUOUS
 10
121.9619542085
 20
54.7841573044
 11
122.0503421882
 21
54.8351878236
  0
LINE
  5
514
100
AcDbEntity
  8
3_AXES_OTHER
100
AcDbLine
 62
7
  6
CONTINUOUS
 10
122.3155061271
 20
54.9882793813
 11
122.4038941068
 21
55.0393099005
  0
LINE
  5
515
100
AcDbEntity
  8
3_AXES_OTHER
100
AcDbLine
 62
7
  6
CONTINUOUS
 10
122.6690580457
 20
55.1924014582
 11
122.7574460254
 21
55.2434319775
  0
LINE
  5
516
100
AcDbEntity
  8
3_AXES_OTHER
100
AcDbLine
 62
7
  6
CONTINUOUS
 10
120.398547595
 20
53.7732554932
 11
122.5950764588
 21
55.0414144542
  0
LINE
  5
517
100
AcDbEntity
  8
3_AXES_OTHER
100
AcDbLine
 62
7
  6
CONTINUOUS
 10
121.6967902696
 20
54.6310657467
 11
121.6967902696
 21
55.2026174387
  0
LINE
  5
518
100
AcDbEntity
  8
3_AXES_OTHER
100
AcDbLine
 62
7
  6
CONTINUOUS
 10
121.9619542085
 20
55.3557089964
 11
121.9619542085
 21
54.7841573044
  0
LINE
  5
519
100
AcDbEntity
  8
3_AXES_OTHER
100
AcDbLine
 62
7
  6
CONTINUOUS
 10
121.9629256284
 20
55.7633889141
 11
121.9629256284
 21
55.6817386724
  0
LINE
  5
51A
100
AcDbEntity
  8
3_AXES_OTHER
100
AcDbLine
 62
7
  6
CONTINUOUS
 10
122.0255633009
 20
55.4841320749
 11
122.0255633009
 21
55.6455756134
  0
LINE
  5
51B
100
AcDbEntity
  8
3_AXES_OTHER
100
AcDbLine
 62
7
  6
CONTINUOUS
 10
122.0503421882
 20
54.8351878236
 11
122.0503421882
 21
55.4067395156
  0
LINE
  5
51C
100
AcDbEntity
  8
3_AXES_OTHER
100
AcDbLine
 62
7
  6
CONTINUOUS
 10
122.3155061271
 20
55.5598310733
 11
122.3155061271
 21
54.9882793813
  0
LINE
  5
51D
100
AcDbEntity
  8
3_AXES_OTHER
100
AcDbLine
 62
7
  6
CONTINUOUS
 10
122.316477547
 20
55.967510991
 11
122.316477547
 21
55.8858607493
  0
LINE
  5
51E
100
AcDbEntity
  8
7_ALL_ROUNDS
100
AcDbLine
 62
7
  6
CONTINUOUS
 10
122.3607558857
 20
52.5868086349
 11
122.3607558857
 21
54.9061302157
  0
LINE
  5
51F
100
AcDbEntity
  8
3_AXES_OTHER
100
AcDbLine
 62
7
  6
CONTINUOUS
 10
122.3791152195
 20
55.6251673661
 11
122.3791152195
 21
55.8496976903
  0
LINE
  5
520
100
AcDbEntity
  8
3_AXES_OTHER
100
AcDbLine
 62
7
  6
CONTINUOUS
 10
122.4038941068
 20
55.0393099005
 11
122.4038941068
 21
55.6108615925
  0
LINE
  5
521
100
AcDbEntity
  8
3_AXES_OTHER
100
AcDbLine
 62
7
  6
CONTINUOUS
 10
122.5950764588
 20
55.0414144542
 11
122.5950764588
 21
55.2351137811
  0
LINE
  5
522
100
AcDbEntity
  8
3_AXES_OTHER
100
AcDbLine
 62
7
  6
CONTINUOUS
 10
122.5950764588
 20
55.9087256617
 11
122.5950764588
 21
56.4683397572
  0
LINE
  5
523
100
AcDbEntity
  8
3_AXES_OTHER
100
AcDbLine
 62
7
  6
CONTINUOUS
 10
122.6690580457
 20
55.7639531502
 11
122.6690580457
 21
55.1924014582
  0
LINE
  5
524
100
AcDbEntity
  8
3_AXES_OTHER
100
AcDbLine
 62
7
  6
CONTINUOUS
 10
122.7574460254
 20
55.2434319775
 11
122.7574460254
 21
55.8149836695
  0
LINE
  5
525
100
AcDbEntity
  8
7_ALL_ROUNDS
100
AcDbLine
 62
7
  6
CONTINUOUS
 10
122.944121409
 20
52.2500100124
 11
122.944121409
 21
56.5091309279
  0
LINE
  5
526
100
AcDbEntity
  8
7_ALL_ROUNDS
100
AcDbLine
 62
7
  6
CONTINUOUS
 10
123.4320230567
 20
51.9683118107
 11
123.4320230567
 21
57.3542060619
  0
LINE
  5
527
100
AcDbEntity
  8
7_ALL_ROUNDS
100
AcDbLine
 62
7
  6
CONTINUOUS
 10
124.1843358199
 20
67.7748553717
 11
124.1843358199
 21
45.9980287
  0
LINE
  5
528
100
AcDbEntity
  8
7_ALL_ROUNDS
100
AcDbLine
 62
7
  6
CONTINUOUS
 10
124.2575583886
 20
67.8769155603
 11
124.2575583886
 21
46.1000888887
  0
LINE
  5
529
100
AcDbEntity
  8
7_ALL_ROUNDS
100
AcDbLine
 62
7
  6
CONTINUOUS
 10
120.398547595
 20
51.2932050901
 11
122.221562217
 21
52.3457167902
  0
LINE
  5
52A
100
AcDbEntity
  8
7_ALL_ROUNDS
100
AcDbLine
 62
7
  6
CONTINUOUS
 10
120.5377412638
 20
50.6999652586
 11
122.8049277402
 21
52.0089181677
  0
LINE
  5
52B
100
AcDbEntity
  8
7_ALL_ROUNDS
100
AcDbLine
 62
7
  6
CONTINUOUS
 10
120.0498396161
 20
49.8548901246
 11
123.2928293879
 21
51.7272199661
  0
LINE
  5
52C
100
AcDbEntity
  8
7_ALL_ROUNDS
100
AcDbLine
 62
7
  6
CONTINUOUS
 10
110.6458813842
 20
75.8797725535
 11
110.646927676
 21
75.8791782948
  0
LINE
  5
52D
100
AcDbEntity
  8
7_ALL_ROUNDS
100
AcDbLine
 62
7
  6
CONTINUOUS
 10
124.0075583886
 20
68.0810411646
 11
110.5219180494
 21
75.8668031072
  0
LINE
  5
52E
100
AcDbEntity
  8
7_ALL_ROUNDS
100
AcDbLine
 62
7
  6
CONTINUOUS
 10
124.1325562677
 20
68.0934231358
 11
110.6469159285
 21
75.8791850783
  0
LINE
  5
52F
100
AcDbEntity
  8
7_ALL_ROUNDS
100
AcDbLine
 62
7
  6
CONTINUOUS
 10
124.1843358199
 20
45.9980287
 11
116.2697838152
 21
41.4285872455
  0
LINE
  5
530
100
AcDbEntity
  8
7_ALL_ROUNDS
100
AcDbLine
 62
7
  6
CONTINUOUS
 10
124.132557829
 20
45.8835822146
 11
116.2180058243
 21
41.3141407601
  0
LINE
  5
531
100
AcDbEntity
  8
7_ALL_ROUNDS
100
AcDbLine
 62
7
  6
CONTINUOUS
 10
40.2733182431
 20
28.0923737649
 11
40.2733182431
 21
16.899460379
  0
LINE
  5
532
100
AcDbEntity
  8
7_ALL_ROUNDS
100
AcDbLine
 62
7
  6
CONTINUOUS
 10
40.5233182431
 20
16.649460379
 11
40.5233182431
 21
28.3423737649
  0
LINE
  5
533
100
AcDbEntity
  8
7_ALL_ROUNDS
100
AcDbLine
 62
7
  6
CONTINUOUS
 10
40.5233182431
 20
16.649460379
 11
59.5948143061
 21
16.649460379
  0
LINE
  5
534
100
AcDbEntity
  8
7_ALL_ROUNDS
100
AcDbLine
 62
7
  6
CONTINUOUS
 10
40.2733182431
 20
16.899460379
 11
59.8448143061
 21
16.899460379
  0
LINE
  5
535
100
AcDbEntity
  8
3_ALL_AXES
100
AcDbLine
 62
7
  6
CENTER
 10
43.0590662746
 20
26.432924946
 11
43.0590662746
 21
25.282924946
  0
LINE
  5
536
100
AcDbEntity
  8
3_ALL_AXES
100
AcDbLine
 62
7
  6
CENTER
 10
43.0590662746
 20
18.5589091979
 11
43.0590662746
 21
17.4089091979
  0
LINE
  5
537
100
AcDbEntity
  8
3_ALL_AXES
100
AcDbLine
 62
7
  6
CENTER
 10
43.0590662746
 20
18.5589091979
 11
43.0590662746
 21
19.7089091979
  0
LINE
  5
538
100
AcDbEntity
  8
3_ALL_AXES
100
AcDbLine
 62
7
  6
CENTER
 10
43.0590662746
 20
26.432924946
 11
43.0590662746
 21
27.582924946
  0
LINE
  5
539
100
AcDbEntity
  8
7_ALL_ROUNDS
100
AcDbLine
 62
7
  6
CONTINUOUS
 10
60.0448143061
 20
18.1633973869
 11
59.8448143061
 21
18.1633973869
  0
LINE
  5
53A
100
AcDbEntity
  8
7_ALL_ROUNDS
100
AcDbLine
 62
7
  6
CONTINUOUS
 10
60.0448143061
 20
18.3602477806
 11
59.8448143061
 21
18.3602477806
  0
LINE
  5
53B
100
AcDbEntity
  8
3_ALL_AXES
100
AcDbLine
 62
7
  6
CENTER
 10
57.0590662746
 20
18.5589091979
 11
55.9090662746
 21
18.5589091979
  0
LINE
  5
53C
100
AcDbEntity
  8
3_ALL_AXES
100
AcDbLine
 62
7
  6
CENTER
 10
43.0590662746
 20
18.5589091979
 11
41.9090662746
 21
18.5589091979
  0
LINE
  5
53D
100
AcDbEntity
  8
3_ALL_AXES
100
AcDbLine
 62
7
  6
CENTER
 10
43.0590662746
 20
18.5589091979
 11
44.2090662746
 21
18.5589091979
  0
LINE
  5
53E
100
AcDbEntity
  8
3_ALL_AXES
100
AcDbLine
 62
7
  6
CENTER
 10
57.0590662746
 20
18.5589091979
 11
58.2090662746
 21
18.5589091979
  0
LINE
  5
53F
100
AcDbEntity
  8
7_ALL_ROUNDS
100
AcDbLine
 62
7
  6
CONTINUOUS
 10
60.0448143061
 20
22.9465469932
 11
59.8448143061
 21
22.9465469932
  0
LINE
  5
540
100
AcDbEntity
  8
7_ALL_ROUNDS
100
AcDbLine
 62
7
  6
CONTINUOUS
 10
60.0448143061
 20
23.1433973869
 11
59.8448143061
 21
23.1433973869
  0
LINE
  5
541
100
AcDbEntity
  8
3_ALL_AXES
100
AcDbLine
 62
7
  6
CENTER
 10
57.0590662746
 20
26.432924946
 11
55.9090662746
 21
26.432924946
  0
LINE
  5
542
100
AcDbEntity
  8
3_ALL_AXES
100
AcDbLine
 62
7
  6
CENTER
 10
43.0590662746
 20
26.432924946
 11
41.9090662746
 21
26.432924946
  0
LINE
  5
543
100
AcDbEntity
  8
3_ALL_AXES
100
AcDbLine
 62
7
  6
CENTER
 10
43.0590662746
 20
26.432924946
 11
44.2090662746
 21
26.432924946
  0
LINE
  5
544
100
AcDbEntity
  8
3_ALL_AXES
100
AcDbLine
 62
7
  6
CENTER
 10
57.0590662746
 20
26.432924946
 11
58.2090662746
 21
26.432924946
  0
LINE
  5
545
100
AcDbEntity
  8
7_ALL_ROUNDS
100
AcDbLine
 62
7
  6
CONTINUOUS
 10
40.2733182431
 20
28.0923737649
 11
59.8448143061
 21
28.0923737649
  0
LINE
  5
546
100
AcDbEntity
  8
7_ALL_ROUNDS
100
AcDbLine
 62
7
  6
CONTINUOUS
 10
59.5948143061
 20
28.3423737649
 11
40.5233182431
 21
28.3423737649
  0
LINE
  5
547
100
AcDbEntity
  8
3_ALL_AXES
100
AcDbLine
 62
7
  6
CENTER
 10
57.0590662746
 20
26.432924946
 11
57.0590662746
 21
25.282924946
  0
LINE
  5
548
100
AcDbEntity
  8
3_ALL_AXES
100
AcDbLine
 62
7
  6
CENTER
 10
57.0590662746
 20
18.5589091979
 11
57.0590662746
 21
17.4089091979
  0
LINE
  5
549
100
AcDbEntity
  8
3_ALL_AXES
100
AcDbLine
 62
7
  6
CENTER
 10
57.0590662746
 20
18.5589091979
 11
57.0590662746
 21
19.7089091979
  0
LINE
  5
54A
100
AcDbEntity
  8
3_ALL_AXES
100
AcDbLine
 62
7
  6
CENTER
 10
57.0590662746
 20
26.432924946
 11
57.0590662746
 21
27.582924946
  0
LINE
  5
54B
100
AcDbEntity
  8
7_ALL_ROUNDS
100
AcDbLine
 62
7
  6
CONTINUOUS
 10
59.5948143061
 20
16.649460379
 11
59.5948143061
 21
28.3423737649
  0
LINE
  5
54C
100
AcDbEntity
  8
7_ALL_ROUNDS
100
AcDbLine
 62
7
  6
CONTINUOUS
 10
59.8448143061
 20
16.899460379
 11
59.8448143061
 21
28.0923737649
  0
LINE
  5
54D
100
AcDbEntity
  8
7_ALL_ROUNDS
100
AcDbLine
 62
7
  6
CONTINUOUS
 10
60.0448143061
 20
23.1433973869
 11
60.0448143061
 21
18.1633973869
  0
LINE
  5
54E
100
AcDbEntity
  8
3_AXES_OTHER
100
AcDbLine
 62
7
  6
CONTINUOUS
 10
60.0498143061
 20
22.2473973869
 11
60.0498143061
 21
22.1223973869
  0
LINE
  5
54F
100
AcDbEntity
  8
3_AXES_OTHER
100
AcDbLine
 62
7
  6
CONTINUOUS
 10
60.0498143061
 20
21.7473973869
 11
60.0498143061
 21
21.6223973869
  0
LINE
  5
550
100
AcDbEntity
  8
3_AXES_OTHER
100
AcDbLine
 62
7
  6
CONTINUOUS
 10
60.0498143061
 20
21.2473973869
 11
60.0498143061
 21
21.1223973869
  0
LINE
  5
551
100
AcDbEntity
  8
3_AXES_OTHER
100
AcDbLine
 62
7
  6
CONTINUOUS
 10
60.0498143061
 20
20.7473973869
 11
60.0498143061
 21
20.6223973869
  0
LINE
  5
552
100
AcDbEntity
  8
3_AXES_OTHER
100
AcDbLine
 62
7
  6
CONTINUOUS
 10
60.0498143061
 20
20.2473973869
 11
60.0498143061
 21
20.1223973869
  0
LINE
  5
553
100
AcDbEntity
  8
3_AXES_OTHER
100
AcDbLine
 62
7
  6
CONTINUOUS
 10
60.0498143061
 20
19.7473973869
 11
60.0498143061
 21
19.6223973869
  0
LINE
  5
554
100
AcDbEntity
  8
3_AXES_OTHER
100
AcDbLine
 62
7
  6
CONTINUOUS
 10
60.0498143061
 20
19.2473973869
 11
60.0498143061
 21
19.1223973869
  0
ARC
  5
555
100
AcDbEntity
  8
7_ALL_ROUNDS
100
AcDbCircle
 62
7
  6
CONTINUOUS
 10
40.5233182431
 20
33.1423534531
 40
0.25
100
AcDbArc
 50
180.0
 51
270.0
  0
ARC
  5
556
100
AcDbEntity
  8
7_ALL_ROUNDS
100
AcDbCircle
 62
7
  6
CONTINUOUS
 10
43.6122158809
 20
32.3392038468
 40
0.1968503937
100
AcDbArc
 50
270.0
 51
360.0
  0
ARC
  5
557
100
AcDbEntity
  8
7_ALL_ROUNDS
100
AcDbCircle
 62
7
  6
CONTINUOUS
 10
42.5059166683
 20
32.3392038468
 40
0.1968503937
100
AcDbArc
 50
180.0
 51
270.0
  0
ARC
  5
558
100
AcDbEntity
  8
7_ALL_ROUNDS
100
AcDbCircle
 62
7
  6
CONTINUOUS
 10
45.1634363534
 20
47.9631329806
 40
0.3937007874
100
AcDbArc
 50
180.0
 51
270.0
  0
ARC
  5
559
100
AcDbEntity
  8
7_ALL_ROUNDS
100
AcDbCircle
 62
7
  6
CONTINUOUS
 10
45.1634363534
 20
56.7134873113
 40
0.3937007874
100
AcDbArc
 50
90.0
 51
180.0
  0
ARC
  5
55A
100
AcDbEntity
  8
7_ALL_ROUNDS
100
AcDbCircle
 62
7
  6
CONTINUOUS
 10
40.5233182431
 20
59.8132195948
 40
0.25
100
AcDbArc
 50
90.0
 51
180.0
  0
ARC
  5
55B
100
AcDbEntity
  8
7_ALL_ROUNDS
100
AcDbCircle
 62
7
  6
CONTINUOUS
 10
45.3602867471
 20
48.1599833743
 40
0.1968503937
100
AcDbArc
 50
180.0
 51
270.0
  0
ARC
  5
55C
100
AcDbEntity
  8
7_ALL_ROUNDS
100
AcDbCircle
 62
7
  6
CONTINUOUS
 10
45.3602867471
 20
56.5166369176
 40
0.1968503937
100
AcDbArc
 50
90.0
 51
180.0
  0
ARC
  5
55D
100
AcDbEntity
  8
3_ALL_AXES
100
AcDbCircle
 62
7
  6
CONTINUOUS
 10
50.0590662746
 20
40.4581802247
 40
6.0787401575
100
AcDbArc
 50
0.0
 51
359.938093418
  0
CIRCLE
  5
55E
100
AcDbEntity
  8
3_ALL_AXES
100
AcDbCircle
 62
7
  6
CONTINUOUS
 10
50.0590662746
 20
40.4581802247
 40
6.0
  0
CIRCLE
  5
55F
100
AcDbEntity
  8
3_ALL_AXES
100
AcDbCircle
 62
7
  6
CONTINUOUS
 10
50.0590662746
 20
40.4581802247
 40
5.5669291339
  0
CIRCLE
  5
560
100
AcDbEntity
  8
3_ALL_AXES
100
AcDbCircle
 62
7
  6
CONTINUOUS
 10
50.0590662746
 20
40.4581802247
 40
2.0676574803
  0
CIRCLE
  5
561
100
AcDbEntity
  8
9_COSMETICS
100
AcDbCircle
 62
7
  6
CONTINUOUS
 10
50.0590662746
 20
45.4100699885
 40
0.4921259843
  0
ARC
  5
562
100
AcDbEntity
  8
7_ALL_ROUNDS
100
AcDbCircle
 62
7
  6
CONTINUOUS
 10
59.5948143061
 20
33.1423534531
 40
0.25
100
AcDbArc
 50
270.0
 51
360.0
  0
ARC
  5
563
100
AcDbEntity
  8
7_ALL_ROUNDS
100
AcDbCircle
 62
7
  6
CONTINUOUS
 10
57.6122158809
 20
32.3392038468
 40
0.1968503937
100
AcDbArc
 50
270.0
 51
360.0
  0
ARC
  5
564
100
AcDbEntity
  8
7_ALL_ROUNDS
100
AcDbCircle
 62
7
  6
CONTINUOUS
 10
56.5059166683
 20
32.3392038468
 40
0.1968503937
100
AcDbArc
 50
180.0
 51
270.0
  0
CIRCLE
  5
565
100
AcDbEntity
  8
3_AXES_OTHER
100
AcDbCircle
 62
7
  6
CONTINUOUS
 10
50.0590662746
 20
52.2682195948
 40
0.437007874
  0
ARC
  5
566
100
AcDbEntity
  8
7_ALL_ROUNDS
100
AcDbCircle
 62
7
  6
CONTINUOUS
 10
54.9546961959
 20
56.7134873113
 40
0.3937007874
100
AcDbArc
 50
0.0
 51
90.0
  0
ARC
  5
567
100
AcDbEntity
  8
7_ALL_ROUNDS
100
AcDbCircle
 62
7
  6
CONTINUOUS
 10
54.9546961959
 20
47.9631329806
 40
0.3937007874
100
AcDbArc
 50
270.0
 51
360.0
  0
ARC
  5
568
100
AcDbEntity
  8
7_ALL_ROUNDS
100
AcDbCircle
 62
7
  6
CONTINUOUS
 10
59.5948143061
 20
59.8132195948
 40
0.25
100
AcDbArc
 50
0.0
 51
90.0
  0
ARC
  5
569
100
AcDbEntity
  8
7_ALL_ROUNDS
100
AcDbCircle
 62
7
  6
CONTINUOUS
 10
54.7578458022
 20
48.1599833743
 40
0.1968503937
100
AcDbArc
 50
270.0
 51
360.0
  0
ARC
  5
56A
100
AcDbEntity
  8
7_ALL_ROUNDS
100
AcDbCircle
 62
7
  6
CONTINUOUS
 10
54.7578458022
 20
56.5166369176
 40
0.1968503937
100
AcDbArc
 50
0.0
 51
90.0
  0
ARC
  5
56B
100
AcDbEntity
  8
7_ALL_ROUNDS
100
AcDbCircle
 62
7
  6
CONTINUOUS
 10
76.2941805173
 20
33.1423534531
 40
0.25
100
AcDbArc
 50
180.0
 51
270.0
  0
ARC
  5
56C
100
AcDbEntity
  8
7_ALL_ROUNDS
100
AcDbCircle
 62
7
  6
CONTINUOUS
 10
77.4004797299
 20
32.3392038468
 40
0.1968503937
100
AcDbArc
 50
180.0
 51
270.0
  0
ARC
  5
56D
100
AcDbEntity
  8
7_ALL_ROUNDS
100
AcDbCircle
 62
7
  6
CONTINUOUS
 10
78.5067789425
 20
32.3392038468
 40
0.1968503937
100
AcDbArc
 50
270.0
 51
360.0
  0
ARC
  5
56E
100
AcDbEntity
  8
7_ALL_ROUNDS
100
AcDbCircle
 62
7
  6
CONTINUOUS
 10
81.4400072889
 20
41.186329831
 40
0.1968503937
100
AcDbArc
 50
180.0
 51
270.0
  0
ARC
  5
56F
100
AcDbEntity
  8
7_ALL_ROUNDS
100
AcDbCircle
 62
7
  6
CONTINUOUS
 10
76.2941805173
 20
59.8132195948
 40
0.25
100
AcDbArc
 50
90.0
 51
180.0
  0
ARC
  5
570
100
AcDbEntity
  8
7_ALL_ROUNDS
100
AcDbCircle
 62
7
  6
CONTINUOUS
 10
81.4400072889
 20
47.7826290436
 40
0.1968503937
100
AcDbArc
 50
90.0
 51
180.0
  0
ARC
  5
571
100
AcDbEntity
  8
7_ALL_ROUNDS
100
AcDbCircle
 62
7
  6
CONTINUOUS
 10
82.1300072889
 20
41.876329831
 40
0.1968503937
100
AcDbArc
 50
180.0
 51
270.0
  0
CIRCLE
  5
572
100
AcDbEntity
  8
7_ALL_ROUNDS
100
AcDbCircle
 62
7
  6
CONTINUOUS
 10
82.9517553204
 20
46.0294794373
 40
0.135
  0
CIRCLE
  5
573
100
AcDbEntity
  8
7_ALL_ROUNDS
100
AcDbCircle
 62
7
  6
CONTINUOUS
 10
82.9517553204
 20
46.0294794373
 40
0.0956299213
  0
CIRCLE
  5
574
100
AcDbEntity
  8
3_ALL_AXES
100
AcDbCircle
 62
7
  6
CONTINUOUS
 10
82.4517553204
 20
46.0294794373
 40
0.0835
  0
CIRCLE
  5
575
100
AcDbEntity
  8
7_ALL_ROUNDS
100
AcDbCircle
 62
7
  6
CONTINUOUS
 10
84.5005112259
 20
46.0294794373
 40
0.135
  0
CIRCLE
  5
576
100
AcDbEntity
  8
7_ALL_ROUNDS
100
AcDbCircle
 62
7
  6
CONTINUOUS
 10
83.9842592574
 20
46.0294794373
 40
0.135
  0
CIRCLE
  5
577
100
AcDbEntity
  8
7_ALL_ROUNDS
100
AcDbCircle
 62
7
  6
CONTINUOUS
 10
83.4680072889
 20
46.0294794373
 40
0.135
  0
CIRCLE
  5
578
100
AcDbEntity
  8
7_ALL_ROUNDS
100
AcDbCircle
 62
7
  6
CONTINUOUS
 10
84.5005112259
 20
46.0294794373
 40
0.0956299213
  0
CIRCLE
  5
579
100
AcDbEntity
  8
7_ALL_ROUNDS
100
AcDbCircle
 62
7
  6
CONTINUOUS
 10
83.9842592574
 20
46.0294794373
 40
0.0956299213
  0
CIRCLE
  5
57A
100
AcDbEntity
  8
7_ALL_ROUNDS
100
AcDbCircle
 62
7
  6
CONTINUOUS
 10
83.4680072889
 20
46.0294794373
 40
0.0956299213
  0
ARC
  5
57B
100
AcDbEntity
  8
7_ALL_ROUNDS
100
AcDbCircle
 62
7
  6
CONTINUOUS
 10
87.4870939031
 20
33.1423534531
 40
0.25
100
AcDbArc
 50
270.0
 51
360.0
  0
ARC
  5
57C
100
AcDbEntity
  8
7_ALL_ROUNDS
100
AcDbCircle
 62
7
  6
CONTINUOUS
 10
86.3807946905
 20
32.3392038468
 40
0.1968503937
100
AcDbArc
 50
270.0
 51
360.0
  0
ARC
  5
57D
100
AcDbEntity
  8
7_ALL_ROUNDS
100
AcDbCircle
 62
7
  6
CONTINUOUS
 10
85.2744954779
 20
32.3392038468
 40
0.1968503937
100
AcDbArc
 50
180.0
 51
270.0
  0
ARC
  5
57E
100
AcDbEntity
  8
7_ALL_ROUNDS
100
AcDbCircle
 62
7
  6
CONTINUOUS
 10
86.0263065015
 20
41.186329831
 40
0.1968503937
100
AcDbArc
 50
270.0
 51
360.0
  0
ARC
  5
57F
100
AcDbEntity
  8
7_ALL_ROUNDS
100
AcDbCircle
 62
7
  6
CONTINUOUS
 10
85.3363065015
 20
41.876329831
 40
0.1968503937
100
AcDbArc
 50
270.0
 51
360.0
  0
CIRCLE
  5
580
100
AcDbEntity
  8
3_ALL_AXES
100
AcDbCircle
 62
7
  6
CONTINUOUS
 10
84.9517553204
 20
46.0294794373
 40
0.0835
  0
ARC
  5
581
100
AcDbEntity
  8
7_ALL_ROUNDS
100
AcDbCircle
 62
7
  6
CONTINUOUS
 10
87.4870939031
 20
59.8132195948
 40
0.25
100
AcDbArc
 50
0.0
 51
90.0
  0
ARC
  5
582
100
AcDbEntity
  8
7_ALL_ROUNDS
100
AcDbCircle
 62
7
  6
CONTINUOUS
 10
86.0263065015
 20
47.7826290436
 40
0.1968503937
100
AcDbArc
 50
0.0
 51
90.0
  0
ARC
  5
583
100
AcDbEntity
  8
7_ALL_ROUNDS
100
AcDbCircle
 62
7
  6
CONTINUOUS
 10
82.1300072889
 20
47.0926290436
 40
0.1968503937
100
AcDbArc
 50
90.0
 51
180.0
  0
ARC
  5
584
100
AcDbEntity
  8
7_ALL_ROUNDS
100
AcDbCircle
 62
7
  6
CONTINUOUS
 10
85.3363065015
 20
47.0926290436
 40
0.1968503937
100
AcDbArc
 50
0.0
 51
90.0
  0
CIRCLE
  5
585
100
AcDbEntity
  8
9_COSMETICS
100
AcDbCircle
 62
7
  6
CONTINUOUS
 10
19.8590350364
 20
45.4100699885
 40
0.4921259843
  0
ARC
  5
586
100
AcDbEntity
  8
7_ALL_ROUNDS
100
AcDbCircle
 62
7
  6
CONTINUOUS
 10
25.3964366112
 20
33.1423534531
 40
0.25
100
AcDbArc
 50
270.0
 51
360.0
  0
ARC
  5
587
100
AcDbEntity
  8
7_ALL_ROUNDS
100
AcDbCircle
 62
7
  6
CONTINUOUS
 10
14.2035232254
 20
33.1423534531
 40
0.25
100
AcDbArc
 50
180.0
 51
270.0
  0
ARC
  5
588
100
AcDbEntity
  8
7_ALL_ROUNDS
100
AcDbCircle
 62
7
  6
CONTINUOUS
 10
25.3964366112
 20
59.8132195948
 40
0.25
100
AcDbArc
 50
0.0
 51
90.0
  0
ARC
  5
589
100
AcDbEntity
  8
7_ALL_ROUNDS
100
AcDbCircle
 62
7
  6
CONTINUOUS
 10
14.2035232254
 20
59.8132195948
 40
0.25
100
AcDbArc
 50
90.0
 51
180.0
  0
ARC
  5
58A
100
AcDbEntity
  8
7_ALL_ROUNDS
100
AcDbCircle
 62
7
  6
CONTINUOUS
 10
24.2901373986
 20
32.3392038468
 40
0.1968503937
100
AcDbArc
 50
270.0
 51
360.0
  0
ARC
  5
58B
100
AcDbEntity
  8
7_ALL_ROUNDS
100
AcDbCircle
 62
7
  6
CONTINUOUS
 10
23.183838186
 20
32.3392038468
 40
0.1968503937
100
AcDbArc
 50
180.0
 51
270.0
  0
ARC
  5
58C
100
AcDbEntity
  8
7_ALL_ROUNDS
100
AcDbCircle
 62
7
  6
CONTINUOUS
 10
15.309822438
 20
32.3392038468
 40
0.1968503937
100
AcDbArc
 50
180.0
 51
270.0
  0
ARC
  5
58D
100
AcDbEntity
  8
7_ALL_ROUNDS
100
AcDbCircle
 62
7
  6
CONTINUOUS
 10
16.4161216506
 20
32.3392038468
 40
0.1968503937
100
AcDbArc
 50
270.0
 51
360.0
  0
ARC
  5
58E
100
AcDbEntity
  8
7_ALL_ROUNDS
100
AcDbCircle
 62
7
  6
CONTINUOUS
 10
59.5948143061
 20
70.7495646482
 40
0.25
100
AcDbArc
 50
270.0
 51
360.0
  0
ARC
  5
58F
100
AcDbEntity
  8
7_ALL_ROUNDS
100
AcDbCircle
 62
7
  6
CONTINUOUS
 10
59.5948143061
 20
81.9424780341
 40
0.25
100
AcDbArc
 50
0.0
 51
90.0
  0
ARC
  5
590
100
AcDbEntity
  8
7_ALL_ROUNDS
100
AcDbCircle
 62
7
  6
CONTINUOUS
 10
40.5233182431
 20
70.7495646482
 40
0.25
100
AcDbArc
 50
180.0
 51
270.0
  0
ARC
  5
591
100
AcDbEntity
  8
7_ALL_ROUNDS
100
AcDbCircle
 62
7
  6
CONTINUOUS
 10
40.5233182431
 20
81.9424780341
 40
0.25
100
AcDbArc
 50
90.0
 51
180.0
  0
ARC
  5
592
100
AcDbEntity
  8
3_ALL_AXES
100
AcDbCircle
 62
7
  6
CONTINUOUS
 10
110.6291362015
 20
53.8330950576
 40
5.5450485582
100
AcDbArc
 50
178.9043481484
 51
180.0027383492
  0
ARC
  5
593
100
AcDbEntity
  8
3_ALL_AXES
100
AcDbCircle
 62
7
  6
CONTINUOUS
 10
111.3640313538
 20
48.4880878192
 40
2.5879049405
100
AcDbArc
 50
270.8386590313
 51
272.5614382521
  0
ARC
  5
594
100
AcDbEntity
  8
3_ALL_AXES
100
AcDbCircle
 62
7
  6
CONTINUOUS
 10
107.417621036
 20
54.954129551
 40
2.0318152423
100
AcDbArc
 50
119.9989088836
 51
123.9255326662
  0
ARC
  5
595
100
AcDbEntity
  8
3_ALL_AXES
100
AcDbCircle
 62
7
  6
CONTINUOUS
 10
111.4645411049
 20
47.9444483357
 40
2.0316360954
100
AcDbArc
 50
295.8301527054
 51
296.202252536
  0
ARC
  5
596
100
AcDbEntity
  8
3_ALL_AXES
100
AcDbCircle
 62
7
  6
CONTINUOUS
 10
111.4660319766
 20
47.9414272988
 40
2.028267216
100
AcDbArc
 50
296.2021463447
 51
299.9953391828
  0
ARC
  5
597
100
AcDbEntity
  8
3_ALL_AXES
100
AcDbCircle
 62
7
  6
CONTINUOUS
 10
111.4388041811
 20
47.9884249959
 40
2.0038422421
100
AcDbArc
 50
299.9976994587
 51
303.0425167149
  0
ARC
  5
598
100
AcDbEntity
  8
3_ALL_AXES
100
AcDbCircle
 62
7
  6
CONTINUOUS
 10
107.4416916524
 20
54.9122182774
 40
2.0014067168
100
AcDbArc
 50
116.7717966624
 51
119.9958448462
  0
ARC
  5
599
100
AcDbEntity
  8
3_ALL_AXES
100
AcDbCircle
 62
7
  6
CONTINUOUS
 10
107.6964353083
 20
54.7046586958
 40
1.8754935463
100
AcDbArc
 50
123.1747768704
 51
127.5480459267
  0
ARC
  5
59A
100
AcDbEntity
  8
3_ALL_AXES
100
AcDbCircle
 62
7
  6
CONTINUOUS
 10
111.3882472617
 20
48.3104893815
 40
1.875025723
100
AcDbArc
 50
292.5426648261
 51
295.4750197007
  0
ARC
  5
59B
100
AcDbEntity
  8
3_AXES_OTHER
100
AcDbCircle
 62
7
  6
CONTINUOUS
 10
111.9107094711
 20
62.6228306836
 40
0.4373928874
100
AcDbArc
 50
55.6802292833
 51
59.949181207
  0
ARC
  5
59C
100
AcDbEntity
  8
7_ALL_ROUNDS
100
AcDbCircle
 62
7
  6
CONTINUOUS
 10
124.006578341
 20
46.1005834262
 40
0.2510841859
100
AcDbArc
 50
324.22672544
 51
359.9375085153
  0
ARC
  5
59D
100
AcDbEntity
  8
7_ALL_ROUNDS
100
AcDbCircle
 62
7
  6
CONTINUOUS
 10
116.0930063839
 20
41.5306474341
 40
0.25
100
AcDbArc
 50
240.5534575144
 51
299.4468179298
  0
ARC
  5
59E
100
AcDbEntity
  8
7_ALL_ROUNDS
100
AcDbCircle
 62
7
  6
CONTINUOUS
 10
102.6073660446
 20
71.0932360484
 40
0.25
100
AcDbArc
 50
120.5530351858
 51
179.4472402592
  0
ARC
  5
59F
100
AcDbEntity
  8
7_ALL_ROUNDS
100
AcDbCircle
 62
7
  6
CONTINUOUS
 10
110.5219180494
 20
75.6626775029
 40
0.25
100
AcDbArc
 50
60.5534575144
 51
119.4468179298
  0
ARC
  5
5A0
100
AcDbEntity
  8
7_ALL_ROUNDS
100
AcDbCircle
 62
7
  6
CONTINUOUS
 10
124.0075613119
 20
67.876916713
 40
0.2499975402
100
AcDbArc
 50
359.983204486
 51
60.0010093997
  0
ARC
  5
5A1
100
AcDbEntity
  8
7_ALL_ROUNDS
100
AcDbCircle
 62
7
  6
CONTINUOUS
 10
121.238616578
 20
54.9296207544
 40
0.163987233
100
AcDbArc
 50
309.8525462962
 51
312.4671022019
  0
ARC
  5
5A2
100
AcDbEntity
  8
7_ALL_ROUNDS
100
AcDbCircle
 62
7
  6
CONTINUOUS
 10
122.1063733617
 20
55.3094337415
 40
0.143694278
100
AcDbArc
 50
121.7440701566
 51
126.3393654073
  0
CIRCLE
  5
5A3
100
AcDbEntity
  8
7_ALL_ROUNDS
100
AcDbCircle
 62
7
  6
CONTINUOUS
 10
43.0590662746
 20
18.5589091979
 40
0.75
  0
CIRCLE
  5
5A4
100
AcDbEntity
  8
7_ALL_ROUNDS
100
AcDbCircle
 62
7
  6
CONTINUOUS
 10
43.0590662746
 20
18.5589091979
 40
0.5531496063
  0
CIRCLE
  5
5A5
100
AcDbEntity
  8
3_AXES_OTHER
100
AcDbCircle
 62
7
  6
CONTINUOUS
 10
43.0590662746
 20
18.5589091979
 40
0.375
  0
ARC
  5
5A6
100
AcDbEntity
  8
7_ALL_ROUNDS
100
AcDbCircle
 62
7
  6
CONTINUOUS
 10
40.5233182431
 20
16.899460379
 40
0.25
100
AcDbArc
 50
180.0
 51
270.0
  0
CIRCLE
  5
5A7
100
AcDbEntity
  8
7_ALL_ROUNDS
100
AcDbCircle
 62
7
  6
CONTINUOUS
 10
43.0590662746
 20
26.432924946
 40
0.75
  0
CIRCLE
  5
5A8
100
AcDbEntity
  8
7_ALL_ROUNDS
100
AcDbCircle
 62
7
  6
CONTINUOUS
 10
43.0590662746
 20
26.432924946
 40
0.5531496063
  0
CIRCLE
  5
5A9
100
AcDbEntity
  8
3_AXES_OTHER
100
AcDbCircle
 62
7
  6
CONTINUOUS
 10
43.0590662746
 20
26.432924946
 40
0.375
  0
ARC
  5
5AA
100
AcDbEntity
  8
7_ALL_ROUNDS
100
AcDbCircle
 62
7
  6
CONTINUOUS
 10
40.5233182431
 20
28.0923737649
 40
0.25
100
AcDbArc
 50
90.0
 51
180.0
  0
CIRCLE
  5
5AB
100
AcDbEntity
  8
7_ALL_ROUNDS
100
AcDbCircle
 62
7
  6
CONTINUOUS
 10
57.0590662746
 20
18.5589091979
 40
0.75
  0
CIRCLE
  5
5AC
100
AcDbEntity
  8
7_ALL_ROUNDS
100
AcDbCircle
 62
7
  6
CONTINUOUS
 10
57.0590662746
 20
18.5589091979
 40
0.5531496063
  0
CIRCLE
  5
5AD
100
AcDbEntity
  8
3_AXES_OTHER
100
AcDbCircle
 62
7
  6
CONTINUOUS
 10
57.0590662746
 20
18.5589091979
 40
0.375
  0
ARC
  5
5AE
100
AcDbEntity
  8
7_ALL_ROUNDS
100
AcDbCircle
 62
7
  6
CONTINUOUS
 10
59.5948143061
 20
16.899460379
 40
0.25
100
AcDbArc
 50
270.0
 51
360.0
  0
CIRCLE
  5
5AF
100
AcDbEntity
  8
7_ALL_ROUNDS
100
AcDbCircle
 62
7
  6
CONTINUOUS
 10
57.0590662746
 20
26.432924946
 40
0.75
  0
CIRCLE
  5
5B0
100
AcDbEntity
  8
7_ALL_ROUNDS
100
AcDbCircle
 62
7
  6
CONTINUOUS
 10
57.0590662746
 20
26.432924946
 40
0.5531496063
  0
CIRCLE
  5
5B1
100
AcDbEntity
  8
3_AXES_OTHER
100
AcDbCircle
 62
7
  6
CONTINUOUS
 10
57.0590662746
 20
26.432924946
 40
0.375
  0
ARC
  5
5B2
100
AcDbEntity
  8
7_ALL_ROUNDS
100
AcDbCircle
 62
7
  6
CONTINUOUS
 10
59.5948143061
 20
28.0923737649
 40
0.25
100
AcDbArc
 50
0.0
 51
90.0
  0
SPLINE
  5
5B3
100
AcDbEntity
  8
7_ALL_ROUNDS
100
AcDbSpline
 62
7
  6
CONTINUOUS
 70
0
 71
3
 72
9
 73
5
 74
0
 42
0.0000001
 43
0.0000001
 44
0.0000000001
 40
0.0
 40
0.0
 40
0.0
 40
0.0
 40
0.2209383361
 40
1.0
 40
1.0
 40
1.0
 40
1.0
 10
105.9809377048
 20
66.6272533318
 30
0.0
 10
105.9874299307
 20
66.6310015975
 30
0.0
 10
106.020036056
 20
66.6428651066
 30
0.0
 10
106.0564652255
 20
66.6307291559
 30
0.0
 10
106.0793578813
 20
66.617512374
 30
0.0
  0
SPLINE
  5
5B4
100
AcDbEntity
  8
7_ALL_ROUNDS
100
AcDbSpline
 62
7
  6
CONTINUOUS
 70
0
 71
3
 72
9
 73
5
 74
0
 42
0.0000001
 43
0.0000001
 44
0.0000000001
 40
0.0
 40
0.0
 40
0.0
 40
0.0
 40
0.4491752496
 40
1.0
 40
1.0
 40
1.0
 40
1.0
 10
105.7433227005
 20
67.0388142874
 30
0.0
 10
105.7167681238
 20
67.0234830881
 30
0.0
 10
105.6708849621
 20
66.9660743929
 30
0.0
 10
105.661773398
 20
66.8962009816
 30
0.0
 10
105.661773398
 20
66.8585994337
 30
0.0
  0
SPLINE
  5
5B5
100
AcDbEntity
  8
7_ALL_ROUNDS
100
AcDbSpline
 62
7
  6
CONTINUOUS
 70
0
 71
3
 72
8
 73
4
 74
0
 42
0.0000001
 43
0.0000001
 44
0.0000000001
 40
0.0
 40
0.0
 40
0.0
 40
0.0
 40
1.0
 40
1.0
 40
1.0
 40
1.0
 10
122.1410286613
 20
55.3623958084
 30
0.0
 10
122.1410286614
 20
55.3833368448
 30
0.0
 10
122.1351860561
 20
55.4058989973
 30
0.0
 10
122.1222077127
 20
55.4223334004
 30
0.0
  0
SPLINE
  5
5B6
100
AcDbEntity
  8
7_ALL_ROUNDS
100
AcDbSpline
 62
7
  6
CONTINUOUS
 70
0
 71
3
 72
8
 73
4
 74
0
 42
0.0000001
 43
0.0000001
 44
0.0000000001
 40
0.0
 40
0.0
 40
0.0
 40
0.0
 40
1.0
 40
1.0
 40
1.0
 40
1.0
 10
122.1222077127
 20
55.4223334004
 30
0.0
 10
122.1165539946
 20
55.4294926718
 30
0.0
 10
122.1094374997
 20
55.4357083791
 30
0.0
 10
122.101537153
 20
55.4402695432
 30
0.0
  0
SPLINE
  5
5B7
100
AcDbEntity
  8
7_ALL_ROUNDS
100
AcDbSpline
 62
7
  6
CONTINUOUS
 70
0
 71
3
 72
8
 73
4
 74
0
 42
0.0000001
 43
0.0000001
 44
0.0000000001
 40
0.0
 40
0.0
 40
0.0
 40
0.0
 40
1.0
 40
1.0
 40
1.0
 40
1.0
 10
122.050802203
 20
55.20952034
 30
0.0
 10
122.0611472692
 20
55.2151202515
 30
0.0
 10
122.0707434099
 20
55.2222265415
 30
0.0
 10
122.0794228042
 20
55.2301667883
 30
0.0
  0
SPLINE
  5
5B8
100
AcDbEntity
  8
7_ALL_ROUNDS
100
AcDbSpline
 62
7
  6
CONTINUOUS
 70
0
 71
3
 72
8
 73
4
 74
0
 42
0.0000001
 43
0.0000001
 44
0.0000000001
 40
0.0
 40
0.0
 40
0.0
 40
0.0
 40
1.0
 40
1.0
 40
1.0
 40
1.0
 10
122.0794228042
 20
55.2301667883
 30
0.0
 10
122.0918498676
 20
55.2415355482
 30
0.0
 10
122.1026958764
 20
55.2548076916
 30
0.0
 10
122.1117033228
 20
55.2690395753
 30
0.0
  0
SPLINE
  5
5B9
100
AcDbEntity
  8
7_ALL_ROUNDS
100
AcDbSpline
 62
7
  6
CONTINUOUS
 70
0
 71
3
 72
8
 73
4
 74
0
 42
0.0000001
 43
0.0000001
 44
0.0000000001
 40
0.0
 40
0.0
 40
0.0
 40
0.0
 40
1.0
 40
1.0
 40
1.0
 40
1.0
 10
122.1117033228
 20
55.2690395753
 30
0.0
 10
122.1291472073
 20
55.2966011423
 30
0.0
 10
122.1410286613
 20
55.3297778827
 30
0.0
 10
122.1410286613
 20
55.3623958084
 30
0.0
  0
SPLINE
  5
5BA
100
AcDbEntity
  8
7_ALL_ROUNDS
100
AcDbSpline
 62
7
  6
CONTINUOUS
 70
0
 71
3
 72
8
 73
4
 74
0
 42
0.0000001
 43
0.0000001
 44
0.0000000001
 40
0.0
 40
0.0
 40
0.0
 40
0.0
 40
1.0
 40
1.0
 40
1.0
 40
1.0
 10
121.7759849134
 20
55.1516389604
 30
0.0
 10
121.7759849135
 20
55.1725799968
 30
0.0
 10
121.7701423082
 20
55.1951421492
 30
0.0
 10
121.7571639648
 20
55.2115765524
 30
0.0
  0
SPLINE
  5
5BB
100
AcDbEntity
  8
7_ALL_ROUNDS
100
AcDbSpline
 62
7
  6
CONTINUOUS
 70
0
 71
3
 72
8
 73
4
 74
0
 42
0.0000001
 43
0.0000001
 44
0.0000000001
 40
0.0
 40
0.0
 40
0.0
 40
0.0
 40
1.0
 40
1.0
 40
1.0
 40
1.0
 10
121.7571639648
 20
55.2115765524
 30
0.0
 10
121.7515102467
 20
55.2187358237
 30
0.0
 10
121.7443937518
 20
55.2249515311
 30
0.0
 10
121.7364934051
 20
55.2295126951
 30
0.0
  0
SPLINE
  5
5BC
100
AcDbEntity
  8
7_ALL_ROUNDS
100
AcDbSpline
 62
7
  6
CONTINUOUS
 70
0
 71
3
 72
8
 73
4
 74
0
 42
0.0000001
 43
0.0000001
 44
0.0000000001
 40
0.0
 40
0.0
 40
0.0
 40
0.0
 40
1.0
 40
1.0
 40
1.0
 40
1.0
 10
121.6975249272
 20
55.0059712383
 30
0.0
 10
121.7034515351
 20
55.0100337807
 30
0.0
 10
121.7090775381
 20
55.0145599056
 30
0.0
 10
121.7143790563
 20
55.0194099402
 30
0.0
  0
SPLINE
  5
5BD
100
AcDbEntity
  8
7_ALL_ROUNDS
100
AcDbSpline
 62
7
  6
CONTINUOUS
 70
0
 71
3
 72
8
 73
4
 74
0
 42
0.0000001
 43
0.0000001
 44
0.0000000001
 40
0.0
 40
0.0
 40
0.0
 40
0.0
 40
1.0
 40
1.0
 40
1.0
 40
1.0
 10
121.7143790563
 20
55.0194099402
 30
0.0
 10
121.7268061197
 20
55.0307787001
 30
0.0
 10
121.7376521285
 20
55.0440508435
 30
0.0
 10
121.7466595749
 20
55.0582827273
 30
0.0
  0
SPLINE
  5
5BE
100
AcDbEntity
  8
7_ALL_ROUNDS
100
AcDbSpline
 62
7
  6
CONTINUOUS
 70
0
 71
3
 72
8
 73
4
 74
0
 42
0.0000001
 43
0.0000001
 44
0.0000000001
 40
0.0
 40
0.0
 40
0.0
 40
0.0
 40
1.0
 40
1.0
 40
1.0
 40
1.0
 10
121.7466595749
 20
55.0582827273
 30
0.0
 10
121.7641034594
 20
55.0858442942
 30
0.0
 10
121.7759849134
 20
55.1190210346
 30
0.0
 10
121.7759849134
 20
55.1516389604
 30
0.0
  0
SPLINE
  5
5BF
100
AcDbEntity
  8
7_ALL_ROUNDS
100
AcDbSpline
 62
7
  6
CONTINUOUS
 70
0
 71
3
 72
8
 73
4
 74
0
 42
0.0000001
 43
0.0000001
 44
0.0000000001
 40
0.0
 40
0.0
 40
0.0
 40
0.0
 40
1.0
 40
1.0
 40
1.0
 40
1.0
 10
121.4109411655
 20
54.9408821123
 30
0.0
 10
121.4109411656
 20
54.9618231487
 30
0.0
 10
121.4050985603
 20
54.9843853012
 30
0.0
 10
121.3921202169
 20
55.0008197043
 30
0.0
  0
SPLINE
  5
5C0
100
AcDbEntity
  8
7_ALL_ROUNDS
100
AcDbSpline
 62
7
  6
CONTINUOUS
 70
0
 71
3
 72
8
 73
4
 74
0
 42
0.0000001
 43
0.0000001
 44
0.0000000001
 40
0.0
 40
0.0
 40
0.0
 40
0.0
 40
1.0
 40
1.0
 40
1.0
 40
1.0
 10
121.3921202169
 20
55.0008197043
 30
0.0
 10
121.3864664988
 20
55.0079789757
 30
0.0
 10
121.3793500039
 20
55.014194683
 30
0.0
 10
121.3714496572
 20
55.0187558471
 30
0.0
  0
SPLINE
  5
5C1
100
AcDbEntity
  8
7_ALL_ROUNDS
100
AcDbSpline
 62
7
  6
CONTINUOUS
 70
0
 71
3
 72
8
 73
4
 74
0
 42
0.0000001
 43
0.0000001
 44
0.0000000001
 40
0.0
 40
0.0
 40
0.0
 40
0.0
 40
1.0
 40
1.0
 40
1.0
 40
1.0
 10
121.3493353084
 20
54.8086530922
 30
0.0
 10
121.3617623718
 20
54.820021852
 30
0.0
 10
121.3726083806
 20
54.8332939954
 30
0.0
 10
121.381615827
 20
54.8475258792
 30
0.0
  0
SPLINE
  5
5C2
100
AcDbEntity
  8
7_ALL_ROUNDS
100
AcDbSpline
 62
7
  6
CONTINUOUS
 70
0
 71
3
 72
8
 73
4
 74
0
 42
0.0000001
 43
0.0000001
 44
0.0000000001
 40
0.0
 40
0.0
 40
0.0
 40
0.0
 40
1.0
 40
1.0
 40
1.0
 40
1.0
 10
121.381615827
 20
54.8475258792
 30
0.0
 10
121.3990597115
 20
54.8750874462
 30
0.0
 10
121.4109411655
 20
54.9082641865
 30
0.0
 10
121.4109411655
 20
54.9408821123
 30
0.0
  0
SPLINE
  5
5C3
100
AcDbEntity
  8
7_ALL_ROUNDS
100
AcDbSpline
 62
7
  6
CONTINUOUS
 70
0
 71
3
 72
8
 73
4
 74
0
 42
0.0000001
 43
0.0000001
 44
0.0000000001
 40
0.0
 40
0.0
 40
0.0
 40
0.0
 40
1.0
 40
1.0
 40
1.0
 40
1.0
 10
121.0458974176
 20
54.7301252642
 30
0.0
 10
121.0458974177
 20
54.7510663006
 30
0.0
 10
121.0400548124
 20
54.7736284531
 30
0.0
 10
121.027076469
 20
54.7900628562
 30
0.0
  0
SPLINE
  5
5C4
100
AcDbEntity
  8
7_ALL_ROUNDS
100
AcDbSpline
 62
7
  6
CONTINUOUS
 70
0
 71
3
 72
8
 73
4
 74
0
 42
0.0000001
 43
0.0000001
 44
0.0000000001
 40
0.0
 40
0.0
 40
0.0
 40
0.0
 40
1.0
 40
1.0
 40
1.0
 40
1.0
 10
121.027076469
 20
54.7900628562
 30
0.0
 10
121.0214227509
 20
54.7972221276
 30
0.0
 10
121.014306256
 20
54.8034378349
 30
0.0
 10
121.0064059093
 20
54.807998999
 30
0.0
  0
SPLINE
  5
5C5
100
AcDbEntity
  8
7_ALL_ROUNDS
100
AcDbSpline
 62
7
  6
CONTINUOUS
 70
0
 71
3
 72
8
 73
4
 74
0
 42
0.0000001
 43
0.0000001
 44
0.0000000001
 40
0.0
 40
0.0
 40
0.0
 40
0.0
 40
1.0
 40
1.0
 40
1.0
 40
1.0
 10
120.9901769364
 20
54.6035417688
 30
0.0
 10
121.000154769
 20
54.6135680688
 30
0.0
 10
121.0090073589
 20
54.6248166738
 30
0.0
 10
121.0165720791
 20
54.6367690311
 30
0.0
  0
SPLINE
  5
5C6
100
AcDbEntity
  8
7_ALL_ROUNDS
100
AcDbSpline
 62
7
  6
CONTINUOUS
 70
0
 71
3
 72
8
 73
4
 74
0
 42
0.0000001
 43
0.0000001
 44
0.0000000001
 40
0.0
 40
0.0
 40
0.0
 40
0.0
 40
1.0
 40
1.0
 40
1.0
 40
1.0
 10
121.0165720791
 20
54.6367690311
 30
0.0
 10
121.0340159636
 20
54.6643305981
 30
0.0
 10
121.0458974176
 20
54.6975073385
 30
0.0
 10
121.0458974176
 20
54.7301252642
 30
0.0
  0
SPLINE
  5
5C7
100
AcDbEntity
  8
7_ALL_ROUNDS
100
AcDbSpline
 62
7
  6
CONTINUOUS
 70
0
 71
3
 72
9
 73
5
 74
0
 42
0.0000001
 43
0.0000001
 44
0.0000000001
 40
0.0
 40
0.0
 40
0.0
 40
0.0
 40
0.550823295
 40
1.0
 40
1.0
 40
1.0
 40
1.0
 10
112.8636581096
 20
55.2345403151
 30
0.0
 10
112.896221236
 20
55.2157404106
 30
0.0
 10
112.961287699
 20
55.1886959756
 30
0.0
 10
113.0339445073
 20
55.1997275588
 30
0.0
 10
113.0604984627
 20
55.2150583994
 30
0.0
  0
SPLINE
  5
5C8
100
AcDbEntity
  8
7_ALL_ROUNDS
100
AcDbSpline
 62
7
  6
CONTINUOUS
 70
0
 71
3
 72
9
 73
5
 74
0
 42
0.0000001
 43
0.0000001
 44
0.0000000001
 40
0.0
 40
0.0
 40
0.0
 40
0.0
 40
0.5000011283
 40
1.0
 40
1.0
 40
1.0
 40
1.0
 10
105.661773398
 20
59.7139139719
 30
0.0
 10
105.661773398
 20
59.6185016928
 30
0.0
 10
105.7269880797
 20
59.4301099412
 30
0.0
 10
105.8575335015
 20
59.2794367358
 30
0.0
 10
105.9401630535
 20
59.2317316209
 30
0.0
  0
SPLINE
  5
5C9
100
AcDbEntity
  8
7_ALL_ROUNDS
100
AcDbSpline
 62
7
  6
CONTINUOUS
 70
0
 71
3
 72
9
 73
5
 74
0
 42
0.0000001
 43
0.0000001
 44
0.0000000001
 40
0.0
 40
0.0
 40
0.0
 40
0.0
 40
0.2209366086
 40
1.0
 40
1.0
 40
1.0
 40
1.0
 10
120.4393223199
 20
50.6902235891
 30
0.0
 10
120.4328299379
 20
50.6939718824
 30
0.0
 10
120.4062518724
 20
50.7162783692
 30
0.0
 10
120.398547595
 20
50.7538962553
 30
0.0
 10
120.398547595
 20
50.7803310584
 30
0.0
  0
SPLINE
  5
5CA
100
AcDbEntity
  8
7_ALL_ROUNDS
100
AcDbSpline
 62
7
  6
CONTINUOUS
 70
0
 71
3
 72
9
 73
5
 74
0
 42
0.0000001
 43
0.0000001
 44
0.0000000001
 40
0.0
 40
0.0
 40
0.0
 40
0.0
 40
0.2209379297
 40
1.0
 40
1.0
 40
1.0
 40
1.0
 10
119.9514206722
 20
49.8451484551
 30
0.0
 10
119.9579128374
 20
49.841400287
 30
0.0
 10
119.9905186822
 20
49.8295371762
 30
0.0
 10
120.0269473111
 20
49.841673325
 30
0.0
 10
120.0498396161
 20
49.8548901246
 30
0.0
  0
SPLINE
  5
5CB
100
AcDbEntity
  8
7_ALL_ROUNDS
100
AcDbSpline
 62
7
  6
CONTINUOUS
 70
0
 71
3
 72
8
 73
4
 74
0
 42
0.0000001
 43
0.0000001
 44
0.0000000001
 40
0.0
 40
0.0
 40
0.0
 40
0.0
 40
1.0
 40
1.0
 40
1.0
 40
1.0
 10
102.3573660446
 20
49.3164093767
 30
0.0
 10
102.3573660446
 20
49.2651656802
 30
0.0
 10
102.3746378116
 20
49.2116729312
 30
0.0
 10
102.4046325403
 20
49.1701249748
 30
0.0
  0
SPLINE
  5
5CC
100
AcDbEntity
  8
7_ALL_ROUNDS
100
AcDbSpline
 62
7
  6
CONTINUOUS
 70
0
 71
3
 72
8
 73
4
 74
0
 42
0.0000001
 43
0.0000001
 44
0.0000000001
 40
0.0
 40
0.0
 40
0.0
 40
0.0
 40
1.0
 40
1.0
 40
1.0
 40
1.0
 10
102.4046325403
 20
49.1701249748
 30
0.0
 10
102.4250857185
 20
49.1417937383
 30
0.0
 10
102.4521630084
 20
49.1173260501
 30
0.0
 10
102.4824304044
 20
49.0998653457
 30
0.0
  0
SPLINE
  5
5CD
100
AcDbEntity
  8
3_ALL_AXES
100
AcDbSpline
 62
7
  6
CONTINUOUS
 70
0
 71
3
 72
16
 73
12
 74
0
 42
0.0000001
 43
0.0000001
 44
0.0000000001
 40
0.0
 40
0.0
 40
0.0
 40
0.0
 40
0.1287391484
 40
0.2703912604
 40
0.4176105509
 40
0.5620196489
 40
0.6957480675
 40
0.8130645474
 40
0.912472051
 40
0.9571210802
 40
1.0
 40
1.0
 40
1.0
 40
1.0
 10
105.0840876496
 20
53.8328300419
 30
0.0
 10
105.0840876496
 20
53.3199986578
 30
0.0
 10
105.2275765767
 20
52.2416704032
 30
0.0
 10
105.762981173
 20
50.6583520145
 30
0.0
 10
106.5883391317
 20
49.1330713447
 30
0.0
 10
107.6362908202
 20
47.7910496272
 30
0.0
 10
108.8243477748
 20
46.7402058842
 30
0.0
 10
110.0602982744
 20
46.0622155034
 30
0.0
 10
111.109517827
 20
45.8573589849
 30
0.0
 10
111.8527272589
 20
45.9663064985
 30
0.0
 10
112.1788007724
 20
46.1018348959
 30
0.0
 10
112.326724817
 20
46.187238614
 30
0.0
  0
SPLINE
  5
5CE
100
AcDbEntity
  8
3_ALL_AXES
100
AcDbSpline
 62
7
  6
CONTINUOUS
 70
0
 71
3
 72
11
 73
7
 74
0
 42
0.0000001
 43
0.0000001
 44
0.0000000001
 40
0.0
 40
0.0
 40
0.0
 40
0.0
 40
0.289808138
 40
0.549044907
 40
0.7822281941
 40
1.0
 40
1.0
 40
1.0
 40
1.0
 10
113.2631757302
 20
49.1107381648
 30
0.0
 10
113.2631757302
 20
48.8285657226
 30
0.0
 10
113.220573511
 20
48.2921370821
 30
0.0
 10
113.0030642447
 20
47.5551837772
 30
0.0
 10
112.6375129116
 20
46.9570948246
 30
0.0
 10
112.2938179584
 20
46.6683053774
 30
0.0
 10
112.1101909129
 20
46.5622885871
 30
0.0
  0
SPLINE
  5
5CF
100
AcDbEntity
  8
7_ALL_ROUNDS
100
AcDbSpline
 62
7
  6
CONTINUOUS
 70
0
 71
3
 72
8
 73
4
 74
0
 42
0.0000001
 43
0.0000001
 44
0.0000000001
 40
0.0
 40
0.0
 40
0.0
 40
0.0
 40
1.0
 40
1.0
 40
1.0
 40
1.0
 10
124.2102921263
 20
45.9538048103
 30
0.0
 10
124.1898392612
 20
45.925473912
 30
0.0
 10
124.1627624641
 20
45.9010064523
 30
0.0
 10
124.1324955901
 20
45.8835457584
 30
0.0
  0
SPLINE
  5
5D0
100
AcDbEntity
  8
3_ALL_AXES
100
AcDbSpline
 62
7
  6
CONTINUOUS
 70
0
 71
3
 72
9
 73
5
 74
0
 42
0.0000001
 43
0.0000001
 44
0.0000000001
 40
0.0
 40
0.0
 40
0.0
 40
0.0
 40
0.2586238252
 40
1.0
 40
1.0
 40
1.0
 40
1.0
 10
111.4796864852
 20
45.9027685214
 30
0.0
 10
111.5571261991
 20
45.9062385711
 30
0.0
 10
111.8557076614
 20
45.9330670733
 30
0.0
 10
112.1497232431
 20
46.0189744739
 30
0.0
 10
112.3497347938
 20
46.1157938147
 30
0.0
  0
SPLINE
  5
5D1
100
AcDbEntity
  8
7_ALL_ROUNDS
100
AcDbSpline
 62
7
  6
CONTINUOUS
 70
0
 71
3
 72
9
 73
5
 74
0
 42
0.0000001
 43
0.0000001
 44
0.0000000001
 40
0.0
 40
0.0
 40
0.0
 40
0.0
 40
0.2953539594
 40
1.0
 40
1.0
 40
1.0
 40
1.0
 10
123.4320230567
 20
57.3542060619
 30
0.0
 10
123.4320230567
 20
57.3641743047
 30
0.0
 10
123.4298184121
 20
57.3974790228
 30
0.0
 10
123.4118441914
 20
57.4324227765
 30
0.0
 10
123.3912483318
 20
57.4443135313
 30
0.0
  0
SPLINE
  5
5D2
100
AcDbEntity
  8
7_ALL_ROUNDS
100
AcDbSpline
 62
7
  6
CONTINUOUS
 70
0
 71
3
 72
9
 73
5
 74
0
 42
0.0000001
 43
0.0000001
 44
0.0000000001
 40
0.0
 40
0.0
 40
0.0
 40
0.0
 40
0.4999983281
 40
1.0
 40
1.0
 40
1.0
 40
1.0
 10
123.2928293879
 20
51.7272199661
 30
0.0
 10
123.3341439284
 20
51.7510727847
 30
0.0
 10
123.3994160395
 20
51.8264098068
 30
0.0
 10
123.4320230567
 20
51.9206056408
 30
0.0
 10
123.4320230567
 20
51.9683118107
 30
0.0
  0
SPLINE
  5
5D3
100
AcDbEntity
  8
3_ALL_AXES
100
AcDbSpline
 62
7
  6
CONTINUOUS
 70
0
 71
3
 72
9
 73
5
 74
0
 42
0.0000001
 43
0.0000001
 44
0.0000000001
 40
0.0
 40
0.0
 40
0.0
 40
0.0
 40
0.484280389
 40
1.0
 40
1.0
 40
1.0
 40
1.0
 10
106.2836346118
 20
56.6400559932
 30
0.0
 10
106.1159738331
 20
56.5272894557
 30
0.0
 10
105.8038125183
 20
56.2405188129
 30
0.0
 10
105.5826106258
 20
55.8809768187
 30
0.0
 10
105.4906231401
 20
55.6864577832
 30
0.0
  0
SPLINE
  5
5D4
100
AcDbEntity
  8
3_ALL_AXES
100
AcDbSpline
 62
7
  6
CONTINUOUS
 70
0
 71
3
 72
16
 73
12
 74
0
 42
0.0000001
 43
0.0000001
 44
0.0000000001
 40
0.0
 40
0.0
 40
0.0
 40
0.0
 40
0.0428789198
 40
0.087527949
 40
0.1869354526
 40
0.3042519325
 40
0.4379803511
 40
0.5823894491
 40
0.7296087396
 40
0.8712608516
 40
1.0
 40
1.0
 40
1.0
 40
1.0
 10
106.543301088
 20
56.2044824425
 30
0.0
 10
106.6805482002
 20
56.2837218501
 30
0.0
 10
106.9830862239
 20
56.4094680142
 30
0.0
 10
107.6726519304
 20
56.5105518621
 30
0.0
 10
108.6461404129
 20
56.3204815753
 30
0.0
 10
109.792881887
 20
55.691427508
 30
0.0
 10
110.8951866992
 20
54.7164320667
 30
0.0
 10
111.8674988301
 20
53.4712754337
 30
0.0
 10
112.6332837078
 20
52.0560872008
 30
0.0
 10
113.1300436154
 20
50.5870503231
 30
0.0
 10
113.2631757302
 20
49.5865541603
 30
0.0
 10
113.2631757302
 20
49.1107381648
 30
0.0
  0
SPLINE
  5
5D5
100
AcDbEntity
  8
3_ALL_AXES
100
AcDbSpline
 62
7
  6
CONTINUOUS
 70
0
 71
3
 72
11
 73
7
 74
0
 42
0.0000001
 43
0.0000001
 44
0.0000000001
 40
0.0
 40
0.0
 40
0.0
 40
0.0
 40
0.2189766096
 40
0.4526674173
 40
0.7114299874
 40
1.0
 40
1.0
 40
1.0
 40
1.0
 10
106.3267671839
 20
56.5795324156
 30
0.0
 10
106.1344409155
 20
56.4684931424
 30
0.0
 10
105.773952378
 20
56.1687512019
 30
0.0
 10
105.3845663293
 20
55.5500883892
 30
0.0
 10
105.1453406502
 20
54.7877673076
 30
0.0
 10
105.0907116679
 20
54.2317297693
 30
0.0
 10
105.0851014659
 20
53.9391250741
 30
0.0
  0
SPLINE
  5
5D6
100
AcDbEntity
  8
7_ALL_ROUNDS
100
AcDbSpline
 62
7
  6
CONTINUOUS
 70
0
 71
3
 72
9
 73
5
 74
0
 42
0.0000001
 43
0.0000001
 44
0.0000000001
 40
0.0
 40
0.0
 40
0.0
 40
0.0
 40
0.2953528844
 40
1.0
 40
1.0
 40
1.0
 40
1.0
 10
112.8636581096
 20
55.7167267819
 30
0.0
 10
112.8636581096
 20
55.7067585846
 30
0.0
 10
112.8614534444
 20
55.6734538781
 30
0.0
 10
112.8434792446
 20
55.6385102659
 30
0.0
 10
112.8228834584
 20
55.626619355
 30
0.0
  0
SPLINE
  5
5D7
100
AcDbEntity
  8
7_ALL_ROUNDS
100
AcDbSpline
 62
7
  6
CONTINUOUS
 70
0
 71
3
 72
9
 73
5
 74
0
 42
0.0000001
 43
0.0000001
 44
0.0000000001
 40
0.0
 40
0.0
 40
0.0
 40
0.0
 40
0.4999988717
 40
1.0
 40
1.0
 40
1.0
 40
1.0
 10
112.7244632818
 20
62.7810457746
 30
0.0
 10
112.7657780578
 20
62.7571932172
 30
0.0
 10
112.8310507687
 20
62.6818566145
 30
0.0
 10
112.8636581096
 20
62.5876607387
 30
0.0
 10
112.8636581096
 20
62.5399545991
 30
0.0
  0
SPLINE
  5
5D8
100
AcDbEntity
  8
7_ALL_ROUNDS
100
AcDbSpline
 62
7
  6
CONTINUOUS
 70
0
 71
3
 72
9
 73
5
 74
0
 42
0.0000001
 43
0.0000001
 44
0.0000000001
 40
0.0
 40
0.0
 40
0.0
 40
0.0
 40
0.5000016719
 40
1.0
 40
1.0
 40
1.0
 40
1.0
 10
120.398547595
 20
55.039451974
 30
0.0
 10
120.398547595
 20
55.087158144
 30
0.0
 10
120.4311546122
 20
55.1813539779
 30
0.0
 10
120.4964267233
 20
55.256691
 30
0.0
 10
120.5377412638
 20
55.2805438187
 30
0.0
  0
SPLINE
  5
5D9
100
AcDbEntity
  8
7_ALL_ROUNDS
100
AcDbSpline
 62
7
  6
CONTINUOUS
 70
0
 71
3
 72
9
 73
5
 74
0
 42
0.0000001
 43
0.0000001
 44
0.0000000001
 40
0.0
 40
0.0
 40
0.0
 40
0.0
 40
0.2953521684
 40
1.0
 40
1.0
 40
1.0
 40
1.0
 10
122.8049277402
 20
56.5894967278
 30
0.0
 10
122.8135601161
 20
56.5944806026
 30
0.0
 10
122.8435040826
 20
56.6092230354
 30
0.0
 10
122.8827515741
 20
56.6111287193
 30
0.0
 10
122.9033466841
 20
56.5992383973
 30
0.0
  0
SPLINE
  5
5DA
100
AcDbEntity
  8
7_ALL_ROUNDS
100
AcDbSpline
 62
7
  6
CONTINUOUS
 70
0
 71
3
 72
9
 73
5
 74
0
 42
0.0000001
 43
0.0000001
 44
0.0000000001
 40
0.0
 40
0.0
 40
0.0
 40
0.0
 40
0.4999983281
 40
1.0
 40
1.0
 40
1.0
 40
1.0
 10
120.0498396161
 20
55.5622420203
 30
0.0
 10
120.0085250756
 20
55.5383892017
 30
0.0
 10
119.9432529645
 20
55.4630521795
 30
0.0
 10
119.9106459473
 20
55.3688563456
 30
0.0
 10
119.9106459473
 20
55.3211501757
 30
0.0
  0
SPLINE
  5
5DB
100
AcDbEntity
  8
7_ALL_ROUNDS
100
AcDbSpline
 62
7
  6
CONTINUOUS
 70
0
 71
3
 72
9
 73
5
 74
0
 42
0.0000001
 43
0.0000001
 44
0.0000000001
 40
0.0
 40
0.0
 40
0.0
 40
0.0
 40
0.2953539594
 40
1.0
 40
1.0
 40
1.0
 40
1.0
 10
119.9106459473
 20
49.9352559245
 30
0.0
 10
119.9106459473
 20
49.9252876817
 30
0.0
 10
119.9128505919
 20
49.8919829635
 30
0.0
 10
119.9308248126
 20
49.8570392099
 30
0.0
 10
119.9514206722
 20
49.8451484551
 30
0.0
  0
SPLINE
  5
5DC
100
AcDbEntity
  8
7_ALL_ROUNDS
100
AcDbSpline
 62
7
  6
CONTINUOUS
 70
0
 71
3
 72
9
 73
5
 74
0
 42
0.0000001
 43
0.0000001
 44
0.0000000001
 40
0.0
 40
0.0
 40
0.0
 40
0.0
 40
0.2208302547
 40
1.0
 40
1.0
 40
1.0
 40
1.0
 10
110.3979596326
 20
75.8797615381
 30
0.0
 10
110.4061960202
 20
75.8843626211
 30
0.0
 10
110.4474075126
 20
75.8987718167
 30
0.0
 10
110.4930896035
 20
75.8834468416
 30
0.0
 10
110.5219180494
 20
75.8668031072
 30
0.0
  0
SPLINE
  5
5DD
100
AcDbEntity
  8
3_ALL_AXES
100
AcDbSpline
 62
7
  6
CONTINUOUS
 70
0
 71
3
 72
16
 73
12
 74
0
 42
0.0000001
 43
0.0000001
 44
0.0000000001
 40
0.0
 40
0.0
 40
0.0
 40
0.0
 40
0.1287370151
 40
0.2703910167
 40
0.4176104249
 40
0.5620193183
 40
0.6957479735
 40
0.8130641488
 40
0.912471743
 40
0.9571209789
 40
1.0
 40
1.0
 40
1.0
 40
1.0
 10
113.8394405323
 20
49.0255551009
 30
0.0
 10
113.8394405323
 20
49.5451082048
 30
0.0
 10
113.6940700748
 20
50.6375866862
 30
0.0
 10
113.1516487162
 20
52.2416882364
 30
0.0
 10
112.3154415246
 20
53.7869857348
 30
0.0
 10
111.2537424817
 20
55.1466232783
 30
0.0
 10
110.0500993855
 20
56.2112652255
 30
0.0
 10
108.797921917
 20
56.8981424171
 30
0.0
 10
107.7349356537
 20
57.10569052
 30
0.0
 10
106.9819694284
 20
56.9953245052
 30
0.0
 10
106.6516133573
 20
56.8580205928
 30
0.0
 10
106.5017476706
 20
56.7714957624
 30
0.0
  0
SPLINE
  5
5DE
100
AcDbEntity
  8
7_ALL_ROUNDS
100
AcDbSpline
 62
7
  6
CONTINUOUS
 70
0
 71
3
 72
9
 73
5
 74
0
 42
0.0000001
 43
0.0000001
 44
0.0000000001
 40
0.0
 40
0.0
 40
0.0
 40
0.0
 40
0.2209379312
 40
1.0
 40
1.0
 40
1.0
 40
1.0
 10
124.1325504606
 20
68.0934130772
 30
0.0
 10
124.1243054107
 20
68.0981732528
 30
0.0
 10
124.0828959853
 20
68.113239412
 30
0.0
 10
124.0366316191
 20
68.0978265019
 30
0.0
 10
124.0075583886
 20
68.0810411646
 30
0.0
  0
SPLINE
  5
5DF
100
AcDbEntity
  8
7_ALL_ROUNDS
100
AcDbSpline
 62
7
  6
CONTINUOUS
 70
0
 71
3
 72
8
 73
4
 74
0
 42
0.0000001
 43
0.0000001
 44
0.0000000001
 40
0.0
 40
0.0
 40
0.0
 40
0.0
 40
1.0
 40
1.0
 40
1.0
 40
1.0
 10
124.2575467741
 20
46.1000888887
 30
0.0
 10
124.2575467744
 20
46.0921078927
 30
0.0
 10
124.2563737335
 20
46.0840551609
 30
0.0
 10
124.2541646936
 20
46.0763859733
 30
0.0
  0
SPLINE
  5
5E0
100
AcDbEntity
  8
7_ALL_ROUNDS
100
AcDbSpline
 62
7
  6
CONTINUOUS
 70
0
 71
3
 72
9
 73
5
 74
0
 42
0.0000001
 43
0.0000001
 44
0.0000000001
 40
0.0
 40
0.0
 40
0.0
 40
0.0
 40
0.221674783
 40
1.0
 40
1.0
 40
1.0
 40
1.0
 10
124.2541646936
 20
46.0763859733
 30
0.0
 10
124.2519861486
 20
46.0688226558
 30
0.0
 10
124.2375763611
 20
46.0359565584
 30
0.0
 10
124.2082687652
 20
46.01184631
 30
0.0
 10
124.1843358199
 20
45.9980287
 30
0.0
  0
SPLINE
  5
5E1
100
AcDbEntity
  8
7_ALL_ROUNDS
100
AcDbSpline
 62
7
  6
CONTINUOUS
 70
0
 71
3
 72
9
 73
5
 74
0
 42
0.0000001
 43
0.0000001
 44
0.0000000001
 40
0.0
 40
0.0
 40
0.0
 40
0.0
 40
0.4999983281
 40
1.0
 40
1.0
 40
1.0
 40
1.0
 10
122.221562217
 20
52.3457167902
 30
0.0
 10
122.2628767575
 20
52.3695696089
 30
0.0
 10
122.3281488686
 20
52.444906631
 30
0.0
 10
122.3607558857
 20
52.5391024649
 30
0.0
 10
122.3607558857
 20
52.5868086349
 30
0.0
  0
SPLINE
  5
5E2
100
AcDbEntity
  8
7_ALL_ROUNDS
100
AcDbSpline
 62
7
  6
CONTINUOUS
 70
0
 71
3
 72
9
 73
5
 74
0
 42
0.0000001
 43
0.0000001
 44
0.0000000001
 40
0.0
 40
0.0
 40
0.0
 40
0.0
 40
0.2209628329
 40
1.0
 40
1.0
 40
1.0
 40
1.0
 10
102.4823624698
 20
49.0999190654
 30
0.0
 10
102.4741179333
 20
49.1046811862
 30
0.0
 10
102.4403706301
 20
49.1330114212
 30
0.0
 10
102.4305900853
 20
49.1807805077
 30
0.0
 10
102.4305900853
 20
49.2143483382
 30
0.0
  0
SPLINE
  5
5E3
100
AcDbEntity
  8
7_ALL_ROUNDS
100
AcDbSpline
 62
7
  6
CONTINUOUS
 70
0
 71
3
 72
9
 73
5
 74
0
 42
0.0000001
 43
0.0000001
 44
0.0000000001
 40
0.0
 40
0.0
 40
0.0
 40
0.0
 40
0.4491752496
 40
1.0
 40
1.0
 40
1.0
 40
1.0
 10
113.0604984627
 20
55.2150583994
 30
0.0
 10
113.0870530394
 20
55.2303895987
 30
0.0
 10
113.1329362011
 20
55.2877982939
 30
0.0
 10
113.1420477652
 20
55.3576717052
 30
0.0
 10
113.1420477652
 20
55.3952732531
 30
0.0
  0
SPLINE
  5
5E4
100
AcDbEntity
  8
7_ALL_ROUNDS
100
AcDbSpline
 62
7
  6
CONTINUOUS
 70
0
 71
3
 72
9
 73
5
 74
0
 42
0.0000001
 43
0.0000001
 44
0.0000000001
 40
0.0
 40
0.0
 40
0.0
 40
0.0
 40
0.2209636693
 40
1.0
 40
1.0
 40
1.0
 40
1.0
 10
116.218011521
 20
41.3141580249
 30
0.0
 10
116.2262560454
 20
41.3189202177
 30
0.0
 10
116.2600031659
 20
41.3472505513
 30
0.0
 10
116.2697838152
 20
41.3950194877
 30
0.0
 10
116.2697838152
 20
41.4285872455
 30
0.0
  0
SPLINE
  5
5E5
100
AcDbEntity
  8
7_ALL_ROUNDS
100
AcDbSpline
 62
7
  6
CONTINUOUS
 70
0
 71
3
 72
9
 73
5
 74
0
 42
0.0000001
 43
0.0000001
 44
0.0000000001
 40
0.0
 40
0.0
 40
0.0
 40
0.0
 40
0.2209619903
 40
1.0
 40
1.0
 40
1.0
 40
1.0
 10
102.3573781481
 20
71.0932224816
 30
0.0
 10
102.3573800902
 20
71.0837017098
 30
0.0
 10
102.3650414533
 20
71.0403116926
 30
0.0
 10
102.4015199986
 20
71.0079582526
 30
0.0
 10
102.4305900853
 20
70.9911750099
 30
0.0
  0
SPLINE
  5
5E6
100
AcDbEntity
  8
3_AXES_OTHER
100
AcDbSpline
 62
7
  6
CONTINUOUS
 70
0
 71
3
 72
11
 73
7
 74
0
 42
0.0000001
 43
0.0000001
 44
0.0000000001
 40
0.0
 40
0.0
 40
0.0
 40
0.0
 40
0.1864890039
 40
0.4151114247
 40
0.6926046097
 40
1.0
 40
1.0
 40
1.0
 40
1.0
 10
111.9112369548
 20
63.0230713225
 30
0.0
 10
111.8817563221
 20
63.0060501846
 30
0.0
 10
111.8309239396
 20
62.9421726647
 30
0.0
 10
111.8136360545
 20
62.8135075056
 30
0.0
 10
111.8395964536
 20
62.665769767
 30
0.0
 10
111.8831809901
 20
62.5670485747
 30
0.0
 10
111.9112369548
 20
62.5184544882
 30
0.0
  0
SPLINE
  5
5E7
100
AcDbEntity
  8
3_AXES_OTHER
100
AcDbSpline
 62
7
  6
CONTINUOUS
 70
0
 71
3
 72
11
 73
7
 74
0
 42
0.0000001
 43
0.0000001
 44
0.0000000001
 40
0.0
 40
0.0
 40
0.0
 40
0.0
 40
0.1864890039
 40
0.4151114247
 40
0.6926046097
 40
1.0
 40
1.0
 40
1.0
 40
1.0
 10
112.3482466482
 20
62.2661525319
 30
0.0
 10
112.377727281
 20
62.2831736697
 30
0.0
 10
112.4285596635
 20
62.3470511897
 30
0.0
 10
112.4458475486
 20
62.4757163487
 30
0.0
 10
112.4198871495
 20
62.6234540874
 30
0.0
 10
112.3763026129
 20
62.7221752796
 30
0.0
 10
112.3482466482
 20
62.7707693662
 30
0.0
  0
SPLINE
  5
5E8
100
AcDbEntity
  8
3_AXES_OTHER
100
AcDbSpline
 62
7
  6
CONTINUOUS
 70
0
 71
3
 72
11
 73
7
 74
0
 42
0.0000001
 43
0.0000001
 44
0.0000000001
 40
0.0
 40
0.0
 40
0.0
 40
0.0
 40
0.3073965263
 40
0.5848895051
 40
0.8135110311
 40
1.0
 40
1.0
 40
1.0
 40
1.0
 10
111.9112369548
 20
62.5184544882
 30
0.0
 10
111.939292856
 20
62.4698605115
 30
0.0
 10
112.0029957768
 20
62.38275526
 30
0.0
 10
112.1179601629
 20
62.2864053295
 30
0.0
 10
112.2380312705
 20
62.2370462219
 30
0.0
 10
112.3187661967
 20
62.2491314986
 30
0.0
 10
112.3482466482
 20
62.2661525319
 30
0.0
  0
SPLINE
  5
5E9
100
AcDbEntity
  8
7_ALL_ROUNDS
100
AcDbSpline
 62
7
  6
CONTINUOUS
 70
0
 71
3
 72
9
 73
5
 74
0
 42
0.0000001
 43
0.0000001
 44
0.0000000001
 40
0.0
 40
0.0
 40
0.0
 40
0.0
 40
0.449176705
 40
1.0
 40
1.0
 40
1.0
 40
1.0
 10
105.8825163692
 20
67.1191773098
 30
0.0
 10
105.9090703246
 20
67.1345081505
 30
0.0
 10
105.9817271328
 20
67.1455397337
 30
0.0
 10
106.0467935958
 20
67.1184952987
 30
0.0
 10
106.0793567223
 20
67.0996953942
 30
0.0
  0
SPLINE
  5
5EA
100
AcDbEntity
  8
7_ALL_ROUNDS
100
AcDbSpline
 62
7
  6
CONTINUOUS
 70
0
 71
3
 72
9
 73
5
 74
0
 42
0.0000001
 43
0.0000001
 44
0.0000000001
 40
0.0
 40
0.0
 40
0.0
 40
0.0
 40
0.2357216028
 40
1.0
 40
1.0
 40
1.0
 40
1.0
 10
106.0793567223
 20
59.7942811101
 30
0.0
 10
106.0793567223
 20
59.7825981677
 30
0.0
 10
106.0880685469
 20
59.7328105879
 30
0.0
 10
106.1263487107
 20
59.6934797627
 30
0.0
 10
106.1577876058
 20
59.6723503117
 30
0.0
  0
SPLINE
  5
5EB
100
AcDbEntity
  8
7_ALL_ROUNDS
100
AcDbSpline
 62
7
  6
CONTINUOUS
 70
0
 71
3
 72
9
 73
5
 74
0
 42
0.0000001
 43
0.0000001
 44
0.0000000001
 40
0.0
 40
0.0
 40
0.0
 40
0.0
 40
0.2704375214
 40
1.0
 40
1.0
 40
1.0
 40
1.0
 10
106.1577876058
 20
59.6723503117
 30
0.0
 10
106.1585581263
 20
59.6600753885
 30
0.0
 10
106.1642060883
 20
59.6153775204
 30
0.0
 10
106.189817201
 20
59.5697793435
 30
0.0
 10
106.2185515501
 20
59.5531899346
 30
0.0
  0
SPLINE
  5
5EC
100
AcDbEntity
  8
7_ALL_ROUNDS
100
AcDbSpline
 62
7
  6
CONTINUOUS
 70
0
 71
3
 72
9
 73
5
 74
0
 42
0.0000001
 43
0.0000001
 44
0.0000000001
 40
0.0
 40
0.0
 40
0.0
 40
0.0
 40
0.2192029061
 40
1.0
 40
1.0
 40
1.0
 40
1.0
 10
122.1015371527
 20
55.4402695425
 30
0.0
 10
122.0968856141
 20
55.4429516393
 30
0.0
 10
122.0732117987
 20
55.4512833435
 30
0.0
 10
122.0470470417
 20
55.4416781326
 30
0.0
 10
122.0307720784
 20
55.4316323156
 30
0.0
  0
SPLINE
  5
5ED
100
AcDbEntity
  8
3_ALL_AXES
100
AcDbSpline
 62
7
  6
CONTINUOUS
 70
0
 71
3
 72
9
 73
5
 74
0
 42
0.0000001
 43
0.0000001
 44
0.0000000001
 40
0.0
 40
0.0
 40
0.0
 40
0.0
 40
0.2141373085
 40
1.0
 40
1.0
 40
1.0
 40
1.0
 10
121.9950252926
 20
55.5017628027
 30
0.0
 10
121.9897922504
 20
55.5047802021
 30
0.0
 10
121.9621191656
 20
55.5137143248
 30
0.0
 10
121.9325828114
 20
55.4997951388
 30
0.0
 10
121.9147130219
 20
55.4866758188
 30
0.0
  0
SPLINE
  5
5EE
100
AcDbEntity
  8
7_ALL_ROUNDS
100
AcDbSpline
 62
7
  6
CONTINUOUS
 70
0
 71
3
 72
9
 73
5
 74
0
 42
0.0000001
 43
0.0000001
 44
0.0000000001
 40
0.0
 40
0.0
 40
0.0
 40
0.0
 40
0.2209760739
 40
1.0
 40
1.0
 40
1.0
 40
1.0
 10
121.7364934048
 20
55.2295126945
 30
0.0
 10
121.7320392543
 20
55.2320809764
 30
0.0
 10
121.7096666449
 20
55.2401742249
 30
0.0
 10
121.6846921556
 20
55.2318893771
 30
0.0
 10
121.6689946367
 20
55.2228264805
 30
0.0
  0
SPLINE
  5
5EF
100
AcDbEntity
  8
3_ALL_AXES
100
AcDbSpline
 62
7
  6
CONTINUOUS
 70
0
 71
3
 72
9
 73
5
 74
0
 42
0.0000001
 43
0.0000001
 44
0.0000000001
 40
0.0
 40
0.0
 40
0.0
 40
0.0
 40
0.219333998
 40
1.0
 40
1.0
 40
1.0
 40
1.0
 10
121.6299815447
 20
55.2910059546
 30
0.0
 10
121.6253446854
 20
55.2936795919
 30
0.0
 10
121.6017686357
 20
55.3019941283
 30
0.0
 10
121.5756916571
 20
55.2924897649
 30
0.0
 10
121.5594590328
 20
55.2825181181
 30
0.0
  0
SPLINE
  5
5F0
100
AcDbEntity
  8
7_ALL_ROUNDS
100
AcDbSpline
 62
7
  6
CONTINUOUS
 70
0
 71
3
 72
9
 73
5
 74
0
 42
0.0000001
 43
0.0000001
 44
0.0000000001
 40
0.0
 40
0.0
 40
0.0
 40
0.0
 40
0.2209383361
 40
1.0
 40
1.0
 40
1.0
 40
1.0
 10
112.8228834584
 20
55.626619355
 30
0.0
 10
112.8163912324
 20
55.6228710893
 30
0.0
 10
112.7837851072
 20
55.6110075803
 30
0.0
 10
112.7473559376
 20
55.6231435309
 30
0.0
 10
112.7244632818
 20
55.6363603129
 30
0.0
  0
SPLINE
  5
5F1
100
AcDbEntity
  8
7_ALL_ROUNDS
100
AcDbSpline
 62
7
  6
CONTINUOUS
 70
0
 71
3
 72
8
 73
4
 74
0
 42
0.0000001
 43
0.0000001
 44
0.0000000001
 40
0.0
 40
0.0
 40
0.0
 40
0.0
 40
1.0
 40
1.0
 40
1.0
 40
1.0
 10
121.3714496569
 20
55.0187558464
 30
0.0
 10
121.3608447506
 20
55.0248706801
 30
0.0
 10
121.3471537405
 20
55.0261786194
 30
0.0
 10
121.3351041721
 20
55.0240191912
 30
0.0
  0
SPLINE
  5
5F2
100
AcDbEntity
  8
7_ALL_ROUNDS
100
AcDbSpline
 62
7
  6
CONTINUOUS
 70
0
 71
3
 72
8
 73
4
 74
0
 42
0.0000001
 43
0.0000001
 44
0.0000000001
 40
0.0
 40
0.0
 40
0.0
 40
0.0
 40
1.0
 40
1.0
 40
1.0
 40
1.0
 10
121.3351041721
 20
55.0240191912
 30
0.0
 10
121.3278143312
 20
55.0227127637
 30
0.0
 10
121.3206889386
 20
55.0202997785
 30
0.0
 10
121.3139484946
 20
55.0172313995
 30
0.0
  0
SPLINE
  5
5F3
100
AcDbEntity
  8
7_ALL_ROUNDS
100
AcDbSpline
 62
7
  6
CONTINUOUS
 70
0
 71
3
 72
9
 73
5
 74
0
 42
0.0000001
 43
0.0000001
 44
0.0000000001
 40
0.0
 40
0.0
 40
0.0
 40
0.0
 40
0.5000011283
 40
1.0
 40
1.0
 40
1.0
 40
1.0
 10
113.1420477652
 20
62.5399587149
 30
0.0
 10
113.1420477652
 20
62.6353709941
 30
0.0
 10
113.0768330834
 20
62.8237627456
 30
0.0
 10
112.9462876616
 20
62.9744359511
 30
0.0
 10
112.8636581096
 20
63.0221410659
 30
0.0
  0
SPLINE
  5
5F4
100
AcDbEntity
  8
3_ALL_AXES
100
AcDbSpline
 62
7
  6
CONTINUOUS
 70
0
 71
3
 72
9
 73
5
 74
0
 42
0.0000001
 43
0.0000001
 44
0.0000000001
 40
0.0
 40
0.0
 40
0.0
 40
0.0
 40
0.7119496905
 40
1.0
 40
1.0
 40
1.0
 40
1.0
 10
121.2649377968
 20
55.0802491066
 30
0.0
 10
121.2528735465
 20
55.0872054161
 30
0.0
 10
121.2307415001
 20
55.0879206567
 30
0.0
 10
121.2125647002
 20
55.081059075
 30
0.0
 10
121.2074366214
 20
55.0787246761
 30
0.0
  0
SPLINE
  5
5F5
100
AcDbEntity
  8
7_ALL_ROUNDS
100
AcDbSpline
 62
7
  6
CONTINUOUS
 70
0
 71
3
 72
8
 73
4
 74
0
 42
0.0000001
 43
0.0000001
 44
0.0000000001
 40
0.0
 40
0.0
 40
0.0
 40
0.0
 40
1.0
 40
1.0
 40
1.0
 40
1.0
 10
121.006405909
 20
54.8079989983
 30
0.0
 10
120.9972962158
 20
54.8132516859
 30
0.0
 10
120.9859022538
 20
54.8150479815
 30
0.0
 10
120.9754377431
 20
54.8140129682
 30
0.0
  0
SPLINE
  5
5F6
100
AcDbEntity
  8
7_ALL_ROUNDS
100
AcDbSpline
 62
7
  6
CONTINUOUS
 70
0
 71
3
 72
9
 73
5
 74
0
 42
0.0000001
 43
0.0000001
 44
0.0000000001
 40
0.0
 40
0.0
 40
0.0
 40
0.0
 40
0.4905590715
 40
1.0
 40
1.0
 40
1.0
 40
1.0
 10
120.9754377431
 20
54.8140129682
 30
0.0
 10
120.9734633096
 20
54.8138176829
 30
0.0
 10
120.9694550869
 20
54.8132358793
 30
0.0
 10
120.9655092815
 20
54.8123272537
 30
0.0
 10
120.9635199076
 20
54.8117907976
 30
0.0
  0
SPLINE
  5
5F7
100
AcDbEntity
  8
3_ALL_AXES
100
AcDbSpline
 62
7
  6
CONTINUOUS
 70
0
 71
3
 72
8
 73
4
 74
0
 42
0.0000001
 43
0.0000001
 44
0.0000000001
 40
0.0
 40
0.0
 40
0.0
 40
0.0
 40
1.0
 40
1.0
 40
1.0
 40
1.0
 10
120.8998940489
 20
54.8694922585
 30
0.0
 10
120.8874616115
 20
54.8766608667
 30
0.0
 10
120.870864175
 20
54.877020533
 30
0.0
 10
120.8570080118
 20
54.8732840663
 30
0.0
  0
SPLINE
  5
5F8
100
AcDbEntity
  8
3_ALL_AXES
100
AcDbSpline
 62
7
  6
CONTINUOUS
 70
0
 71
3
 72
11
 73
7
 74
0
 42
0.0000001
 43
0.0000001
 44
0.0000000001
 40
0.0
 40
0.0
 40
0.0
 40
0.0
 40
0.2177725679
 40
0.4509537704
 40
0.7101888007
 40
1.0
 40
1.0
 40
1.0
 40
1.0
 10
112.4800226934
 20
46.1848138735
 30
0.0
 10
112.6805551034
 20
46.3005750058
 30
0.0
 10
113.0559166998
 20
46.6158892879
 30
0.0
 10
113.4551425889
 20
47.2689968486
 30
0.0
 10
113.692694476
 20
48.0737574649
 30
0.0
 10
113.7392210908
 20
48.6595519071
 30
0.0
 10
113.7392210908
 20
48.9676937247
 30
0.0
  0
SPLINE
  5
5F9
100
AcDbEntity
  8
3_ALL_AXES
100
AcDbSpline
 62
7
  6
CONTINUOUS
 70
0
 71
3
 72
11
 73
7
 74
0
 42
0.0000001
 43
0.0000001
 44
0.0000000001
 40
0.0
 40
0.0
 40
0.0
 40
0.0
 40
0.2177725905
 40
0.450955131
 40
0.7101915294
 40
1.0
 40
1.0
 40
1.0
 40
1.0
 10
112.58046083
 20
46.2427933762
 30
0.0
 10
112.7809710439
 20
46.3585577826
 30
0.0
 10
113.1562575415
 20
46.6739081789
 30
0.0
 10
113.5554136275
 20
47.3269847472
 30
0.0
 10
113.7929192414
 20
48.1316925315
 30
0.0
 10
113.8394405323
 20
48.7174396194
 30
0.0
 10
113.8394405323
 20
49.0255551009
 30
0.0
  0
SPLINE
  5
5FA
100
AcDbEntity
  8
7_ALL_ROUNDS
100
AcDbSpline
 62
7
  6
CONTINUOUS
 70
0
 71
3
 72
9
 73
5
 74
0
 42
0.0000001
 43
0.0000001
 44
0.0000000001
 40
0.0
 40
0.0
 40
0.0
 40
0.0
 40
0.550823295
 40
1.0
 40
1.0
 40
1.0
 40
1.0
 10
105.9401630535
 20
67.0193323717
 30
0.0
 10
105.9075999271
 20
67.0381322762
 30
0.0
 10
105.8425334641
 20
67.0651767112
 30
0.0
 10
105.7698766559
 20
67.0541451281
 30
0.0
 10
105.7433227005
 20
67.0388142874
 30
0.0
  0
SPLINE
  5
5FB
100
AcDbEntity
  8
3_ALL_AXES
100
AcDbSpline
 62
7
  6
CONTINUOUS
 70
0
 71
3
 72
11
 73
7
 74
0
 42
0.0000001
 43
0.0000001
 44
0.0000000001
 40
0.0
 40
0.0
 40
0.0
 40
0.0
 40
0.218158911
 40
0.4533841503
 40
0.7130239567
 40
1.0
 40
1.0
 40
1.0
 40
1.0
 10
106.5534598613
 20
56.1916298353
 30
0.0
 10
106.3990728994
 20
56.0729767736
 30
0.0
 10
106.1159668466
 20
55.7742598259
 30
0.0
 10
105.8180083035
 20
55.2047830231
 30
0.0
 10
105.6400473213
 20
54.5251196716
 30
0.0
 10
105.6046745206
 20
54.0359286249
 30
0.0
 10
105.6046745206
 20
53.7797919193
 30
0.0
  0
SPLINE
  5
5FC
100
AcDbEntity
  8
3_ALL_AXES
100
AcDbSpline
 62
7
  6
CONTINUOUS
 70
0
 71
3
 72
16
 73
12
 74
0
 42
0.0000001
 43
0.0000001
 44
0.0000000001
 40
0.0
 40
0.0
 40
0.0
 40
0.0
 40
0.0428789198
 40
0.087527949
 40
0.1869354526
 40
0.3042519325
 40
0.4379803511
 40
0.5823894491
 40
0.7296087396
 40
0.8712608516
 40
1.0
 40
1.0
 40
1.0
 40
1.0
 10
112.1101909129
 20
46.5622885871
 30
0.0
 10
111.9729438007
 20
46.4830491794
 30
0.0
 10
111.670405777
 20
46.3573030154
 30
0.0
 10
110.9808400705
 20
46.2562191675
 30
0.0
 10
110.007351588
 20
46.4462894543
 30
0.0
 10
108.8606101139
 20
47.0753435216
 30
0.0
 10
107.7583053017
 20
48.0503389629
 30
0.0
 10
106.7859931708
 20
49.2954955958
 30
0.0
 10
106.0202082931
 20
50.7106838288
 30
0.0
 10
105.5234483855
 20
52.1797207065
 30
0.0
 10
105.3903162707
 20
53.1802168693
 30
0.0
 10
105.3903162707
 20
53.6560328648
 30
0.0
  0
SPLINE
  5
5FD
100
AcDbEntity
  8
3_ALL_AXES
100
AcDbSpline
 62
7
  6
CONTINUOUS
 70
0
 71
3
 72
11
 73
7
 74
0
 42
0.0000001
 43
0.0000001
 44
0.0000000001
 40
0.0
 40
0.0
 40
0.0
 40
0.0
 40
0.2177718059
 40
0.450955093
 40
0.710191862
 40
1.0
 40
1.0
 40
1.0
 40
1.0
 10
112.326724817
 20
46.187238614
 30
0.0
 10
112.5246368518
 20
46.3015028207
 30
0.0
 10
112.8950690362
 20
46.612758208
 30
0.0
 10
113.2890578847
 20
47.2573745897
 30
0.0
 10
113.5234879566
 20
48.0516580669
 30
0.0
 10
113.5694043513
 20
48.6298173654
 30
0.0
 10
113.5694043513
 20
48.9339409877
 30
0.0
  0
SPLINE
  5
5FE
100
AcDbEntity
  8
3_ALL_AXES
100
AcDbSpline
 62
7
  6
CONTINUOUS
 70
0
 71
3
 72
11
 73
7
 74
0
 42
0.0000001
 43
0.0000001
 44
0.0000000001
 40
0.0
 40
0.0
 40
0.0
 40
0.0
 40
0.2177810843
 40
0.451789509
 40
0.711253775
 40
1.0
 40
1.0
 40
1.0
 40
1.0
 10
112.5314216589
 20
46.3086718062
 30
0.0
 10
112.7166050612
 20
46.4291237568
 30
0.0
 10
113.0602864693
 20
46.7461006632
 30
0.0
 10
113.4240151446
 20
47.379246614
 30
0.0
 10
113.6408244454
 20
48.1491072017
 30
0.0
 10
113.6835431597
 20
48.7069429406
 30
0.0
 10
113.6835431597
 20
48.999838666
 30
0.0
  0
SPLINE
  5
5FF
100
AcDbEntity
  8
3_AXES_OTHER
100
AcDbSpline
 62
7
  6
CONTINUOUS
 70
0
 71
3
 72
9
 73
5
 74
0
 42
0.0000001
 43
0.0000001
 44
0.0000000001
 40
0.0
 40
0.0
 40
0.0
 40
0.0
 40
0.550748605
 40
1.0
 40
1.0
 40
1.0
 40
1.0
 10
112.1297418015
 20
63.0014299126
 30
0.0
 10
112.0936005104
 20
63.0222956247
 30
0.0
 10
112.0213773681
 20
63.0522994695
 30
0.0
 10
111.9407174063
 20
63.0400923558
 30
0.0
 10
111.9112369548
 20
63.0230713225
 30
0.0
  0
SPLINE
  5
600
100
AcDbEntity
  8
7_ALL_ROUNDS
100
AcDbSpline
 62
7
  6
CONTINUOUS
 70
0
 71
3
 72
9
 73
5
 74
0
 42
0.0000001
 43
0.0000001
 44
0.0000000001
 40
0.0
 40
0.0
 40
0.0
 40
0.0
 40
0.2209366086
 40
1.0
 40
1.0
 40
1.0
 40
1.0
 10
122.9033466841
 20
56.5992383973
 30
0.0
 10
122.9098390661
 20
56.595490104
 30
0.0
 10
122.9364171316
 20
56.5731836172
 30
0.0
 10
122.944121409
 20
56.5355657311
 30
0.0
 10
122.944121409
 20
56.5091309279
 30
0.0
  0
SPLINE
  5
601
100
AcDbEntity
  8
7_ALL_ROUNDS
100
AcDbSpline
 62
7
  6
CONTINUOUS
 70
0
 71
3
 72
9
 73
5
 74
0
 42
0.0000001
 43
0.0000001
 44
0.0000000001
 40
0.0
 40
0.0
 40
0.0
 40
0.0
 40
0.4999988717
 40
1.0
 40
1.0
 40
1.0
 40
1.0
 10
106.0793578813
 20
59.4728269122
 30
0.0
 10
106.0380431053
 20
59.4966794696
 30
0.0
 10
105.9727703944
 20
59.5720160724
 30
0.0
 10
105.9401630535
 20
59.6662119481
 30
0.0
 10
105.9401630535
 20
59.7139180877
 30
0.0
  0
SPLINE
  5
602
100
AcDbEntity
  8
7_ALL_ROUNDS
100
AcDbSpline
 62
7
  6
CONTINUOUS
 70
0
 71
3
 72
9
 73
5
 74
0
 42
0.0000001
 43
0.0000001
 44
0.0000000001
 40
0.0
 40
0.0
 40
0.0
 40
0.0
 40
0.2209366086
 40
1.0
 40
1.0
 40
1.0
 40
1.0
 10
119.8099987272
 20
49.926796606
 30
0.0
 10
119.8035063452
 20
49.9305448993
 30
0.0
 10
119.7769282797
 20
49.9528513861
 30
0.0
 10
119.7692240023
 20
49.9904692722
 30
0.0
 10
119.7692240023
 20
50.0169040754
 30
0.0
  0
SPLINE
  5
603
100
AcDbEntity
  8
7_ALL_ROUNDS
100
AcDbSpline
 62
7
  6
CONTINUOUS
 70
0
 71
3
 72
9
 73
5
 74
0
 42
0.0000001
 43
0.0000001
 44
0.0000000001
 40
0.0
 40
0.0
 40
0.0
 40
0.0
 40
0.2209379297
 40
1.0
 40
1.0
 40
1.0
 40
1.0
 10
123.3912483318
 20
57.4443135313
 30
0.0
 10
123.3847561665
 20
57.4480616994
 30
0.0
 10
123.3521503218
 20
57.4599248102
 30
0.0
 10
123.3157216929
 20
57.4477886613
 30
0.0
 10
123.2928293879
 20
57.4345718618
 30
0.0
  0
SPLINE
  5
604
100
AcDbEntity
  8
3_ALL_AXES
100
AcDbSpline
 62
7
  6
CONTINUOUS
 70
0
 71
3
 72
18
 73
14
 74
0
 42
0.0000001
 43
0.0000001
 44
0.0000000001
 40
0.0
 40
0.0
 40
0.0
 40
0.0
 40
0.1139763862
 40
0.1626455383
 40
0.208104037
 40
0.253560998
 40
0.302233836
 40
0.3563483729
 40
0.4168400305
 40
0.5551764629
 40
0.7084188618
 40
0.8616592228
 40
1.0
 40
1.0
 40
1.0
 40
1.0
 10
109.3391554692
 20
53.0787682393
 30
0.0
 10
109.3391554692
 20
53.27622607
 30
0.0
 10
109.3810569653
 20
53.5670000099
 30
0.0
 10
109.5716461739
 20
53.8786931933
 30
0.0
 10
109.7603758091
 20
54.0374650676
 30
0.0
 10
109.9921738498
 20
54.1215096744
 30
0.0
 10
110.2525919429
 20
54.1281437106
 30
0.0
 10
110.5300602455
 20
54.0612083588
 30
0.0
 10
110.9278136843
 20
53.8716464483
 30
0.0
 10
111.4013631517
 20
53.4725102417
 30
0.0
 10
111.8600962227
 20
52.845998171
 30
0.0
 10
112.1733723428
 20
52.1357082314
 30
0.0
 10
112.2632768944
 20
51.6302319398
 30
0.0
 10
112.2632768944
 20
51.3905641396
 30
0.0
  0
SPLINE
  5
605
100
AcDbEntity
  8
7_ALL_ROUNDS
100
AcDbSpline
 62
7
  6
CONTINUOUS
 70
0
 71
3
 72
9
 73
5
 74
0
 42
0.0000001
 43
0.0000001
 44
0.0000000001
 40
0.0
 40
0.0
 40
0.0
 40
0.0
 40
0.2953528844
 40
1.0
 40
1.0
 40
1.0
 40
1.0
 10
105.9401630535
 20
66.5371459049
 30
0.0
 10
105.9401630535
 20
66.5471141022
 30
0.0
 10
105.9423677188
 20
66.5804188087
 30
0.0
 10
105.9603419186
 20
66.615362421
 30
0.0
 10
105.9809377048
 20
66.6272533318
 30
0.0
  0
SPLINE
  5
606
100
AcDbEntity
  8
3_ALL_AXES
100
AcDbSpline
 62
7
  6
CONTINUOUS
 70
0
 71
3
 72
16
 73
12
 74
0
 42
0.0000001
 43
0.0000001
 44
0.0000000001
 40
0.0
 40
0.0
 40
0.0
 40
0.0
 40
0.1272023938
 40
0.26697975
 40
0.412590716
 40
0.4852259698
 40
0.5564096566
 40
0.6907445381
 40
0.810007121
 40
0.9119340999
 40
1.0
 40
1.0
 40
1.0
 40
1.0
 10
105.6046745206
 20
53.7797919193
 30
0.0
 10
105.6046745206
 20
53.3200012058
 30
0.0
 10
105.7290689631
 20
52.3538264886
 30
0.0
 10
106.1961553257
 20
50.9306125517
 30
0.0
 10
106.7997352716
 20
49.7785849124
 30
0.0
 10
107.3952288644
 20
48.9171297224
 30
0.0
 10
108.0353282943
 20
48.1406094085
 30
0.0
 10
108.8978919957
 20
47.3332396415
 30
0.0
 10
110.0084781732
 20
46.6636290587
 30
0.0
 10
111.1047342624
 20
46.3619880361
 30
0.0
 10
111.8130798569
 20
46.4566745041
 30
0.0
 10
112.1070782834
 20
46.5787262844
 30
0.0
  0
SPLINE
  5
607
100
AcDbEntity
  8
3_ALL_AXES
100
AcDbSpline
 62
7
  6
CONTINUOUS
 70
0
 71
3
 72
18
 73
14
 74
0
 42
0.0000001
 43
0.0000001
 44
0.0000000001
 40
0.0
 40
0.0
 40
0.0
 40
0.0
 40
0.1383407772
 40
0.2915811382
 40
0.4448235371
 40
0.5831599695
 40
0.6436516271
 40
0.697766164
 40
0.746439002
 40
0.791895963
 40
0.8373544617
 40
0.8860236138
 40
1.0
 40
1.0
 40
1.0
 40
1.0
 10
109.3391554692
 20
53.0787682393
 30
0.0
 10
109.3391554692
 20
52.8391004391
 30
0.0
 10
109.4290600208
 20
52.3336241475
 30
0.0
 10
109.742336141
 20
51.623334208
 30
0.0
 10
110.2010692119
 20
50.9968221372
 30
0.0
 10
110.6746186793
 20
50.5976859307
 30
0.0
 10
111.0723721181
 20
50.4081240201
 30
0.0
 10
111.3498404207
 20
50.3411886683
 30
0.0
 10
111.6102585138
 20
50.3478227045
 30
0.0
 10
111.8420565546
 20
50.4318673113
 30
0.0
 10
112.0307861897
 20
50.5906391856
 30
0.0
 10
112.2213753984
 20
50.902332369
 30
0.0
 10
112.2632768944
 20
51.1931063089
 30
0.0
 10
112.2632768944
 20
51.3905641396
 30
0.0
  0
SPLINE
  5
608
100
AcDbEntity
  8
7_ALL_ROUNDS
100
AcDbSpline
 62
7
  6
CONTINUOUS
 70
0
 71
3
 72
9
 73
5
 74
0
 42
0.0000001
 43
0.0000001
 44
0.0000000001
 40
0.0
 40
0.0
 40
0.0
 40
0.0
 40
0.5508247504
 40
1.0
 40
1.0
 40
1.0
 40
1.0
 10
113.2812414339
 20
55.4756362755
 30
0.0
 10
113.2812414339
 20
55.4380347276
 30
0.0
 10
113.2721298698
 20
55.3681613164
 30
0.0
 10
113.2262467081
 20
55.3107526212
 30
0.0
 10
113.1996921314
 20
55.2954214218
 30
0.0
  0
SPLINE
  5
609
100
AcDbEntity
  8
3_ALL_AXES
100
AcDbSpline
 62
7
  6
CONTINUOUS
 70
0
 71
3
 72
16
 73
12
 74
0
 42
0.0000001
 43
0.0000001
 44
0.0000000001
 40
0.0
 40
0.0
 40
0.0
 40
0.0
 40
0.1287391484
 40
0.2703912604
 40
0.4176105509
 40
0.5620196489
 40
0.6957480675
 40
0.8130645474
 40
0.912472051
 40
0.9571210802
 40
1.0
 40
1.0
 40
1.0
 40
1.0
 10
113.5694043513
 20
48.9339409877
 30
0.0
 10
113.5694043513
 20
49.4467723717
 30
0.0
 10
113.4259154242
 20
50.5251006264
 30
0.0
 10
112.8905108279
 20
52.1084190151
 30
0.0
 10
112.0651528692
 20
53.6336996849
 30
0.0
 10
111.0172011807
 20
54.9757214024
 30
0.0
 10
109.8291442261
 20
56.0265651453
 30
0.0
 10
108.5931937265
 20
56.7045555262
 30
0.0
 10
107.5439741739
 20
56.9094120447
 30
0.0
 10
106.800764742
 20
56.8004645311
 30
0.0
 10
106.4746912285
 20
56.6649361336
 30
0.0
 10
106.3267671839
 20
56.5795324156
 30
0.0
  0
SPLINE
  5
60A
100
AcDbEntity
  8
3_ALL_AXES
100
AcDbSpline
 62
7
  6
CONTINUOUS
 70
0
 71
3
 72
11
 73
7
 74
0
 42
0.0000001
 43
0.0000001
 44
0.0000000001
 40
0.0
 40
0.0
 40
0.0
 40
0.0
 40
0.289808138
 40
0.549044907
 40
0.7822281941
 40
1.0
 40
1.0
 40
1.0
 40
1.0
 10
105.3903162707
 20
53.6560328648
 30
0.0
 10
105.3903162707
 20
53.9382053069
 30
0.0
 10
105.4329184899
 20
54.4746339474
 30
0.0
 10
105.6504277562
 20
55.2115872524
 30
0.0
 10
106.0159790893
 20
55.8096762049
 30
0.0
 10
106.3596740425
 20
56.0984656522
 30
0.0
 10
106.543301088
 20
56.2044824425
 30
0.0
  0
SPLINE
  5
60B
100
AcDbEntity
  8
7_ALL_ROUNDS
100
AcDbSpline
 62
7
  6
CONTINUOUS
 70
0
 71
3
 72
9
 73
5
 74
0
 42
0.0000001
 43
0.0000001
 44
0.0000000001
 40
0.0
 40
0.0
 40
0.0
 40
0.0
 40
0.4999988717
 40
1.0
 40
1.0
 40
1.0
 40
1.0
 10
113.0028517784
 20
63.1025040883
 30
0.0
 10
113.0854813304
 20
63.0547989735
 30
0.0
 10
113.2160267522
 20
62.904125768
 30
0.0
 10
113.2812414339
 20
62.7157340165
 30
0.0
 10
113.2812414339
 20
62.6203217373
 30
0.0
  0
SPLINE
  5
60C
100
AcDbEntity
  8
3_ALL_AXES
100
AcDbSpline
 62
7
  6
CONTINUOUS
 70
0
 71
3
 72
16
 73
12
 74
0
 42
0.0000001
 43
0.0000001
 44
0.0000000001
 40
0.0
 40
0.0
 40
0.0
 40
0.0
 40
0.1280551034
 40
0.2688779943
 40
0.4153869925
 40
0.5594781322
 40
0.6934695373
 40
0.8116252675
 40
0.9120920152
 40
0.9570790172
 40
1.0
 40
1.0
 40
1.0
 40
1.0
 10
113.6835431597
 20
48.999838666
 30
0.0
 10
113.6835431597
 20
49.505197149
 30
0.0
 10
113.5441704495
 20
50.5675130935
 30
0.0
 10
113.0226590126
 20
52.1296266952
 30
0.0
 10
112.2172383539
 20
53.638704841
 30
0.0
 10
111.1919714542
 20
54.9740337891
 30
0.0
 10
110.0256798746
 20
56.0309951779
 30
0.0
 10
108.8072647599
 20
56.7289894363
 30
0.0
 10
107.768218026
 20
56.9663492535
 30
0.0
 10
107.0225471536
 20
56.8922061448
 30
0.0
 10
106.6914090579
 20
56.7753865647
 30
0.0
 10
106.5401817762
 20
56.6990895065
 30
0.0
  0
SPLINE
  5
60D
100
AcDbEntity
  8
7_ALL_ROUNDS
100
AcDbSpline
 62
7
  6
CONTINUOUS
 70
0
 71
3
 72
8
 73
4
 74
0
 42
0.0000001
 43
0.0000001
 44
0.0000000001
 40
0.0
 40
0.0
 40
0.0
 40
0.0
 40
1.0
 40
1.0
 40
1.0
 40
1.0
 10
120.9901676741
 20
54.615294624
 30
0.0
 10
121.0070255207
 20
54.6322351632
 30
0.0
 10
121.020107355
 20
54.6537235859
 30
0.0
 10
121.0276959474
 20
54.6763859363
 30
0.0
  0
SPLINE
  5
60E
100
AcDbEntity
  8
7_ALL_ROUNDS
100
AcDbSpline
 62
7
  6
CONTINUOUS
 70
0
 71
3
 72
8
 73
4
 74
0
 42
0.0000001
 43
0.0000001
 44
0.0000000001
 40
0.0
 40
0.0
 40
0.0
 40
0.0
 40
1.0
 40
1.0
 40
1.0
 40
1.0
 10
121.0276959474
 20
54.6763859363
 30
0.0
 10
121.0317447098
 20
54.688477042
 30
0.0
 10
121.0343663045
 20
54.7013018208
 30
0.0
 10
121.0343663045
 20
54.7140527939
 30
0.0
  0
SPLINE
  5
60F
100
AcDbEntity
  8
7_ALL_ROUNDS
100
AcDbSpline
 62
7
  6
CONTINUOUS
 70
0
 71
3
 72
9
 73
5
 74
0
 42
0.0000001
 43
0.0000001
 44
0.0000000001
 40
0.0
 40
0.0
 40
0.0
 40
0.0
 40
0.5405942659
 40
1.0
 40
1.0
 40
1.0
 40
1.0
 10
121.0343663045
 20
54.7140527939
 30
0.0
 10
121.0343663045
 20
54.7272337768
 30
0.0
 10
121.0294059677
 20
54.7551624319
 30
0.0
 10
121.0012482705
 20
54.7634342057
 30
0.0
 10
120.9901703641
 20
54.7617754041
 30
0.0
  0
SPLINE
  5
610
100
AcDbEntity
  8
7_ALL_ROUNDS
100
AcDbSpline
 62
7
  6
CONTINUOUS
 70
0
 71
3
 72
8
 73
4
 74
0
 42
0.0000001
 43
0.0000001
 44
0.0000000001
 40
0.0
 40
0.0
 40
0.0
 40
0.0
 40
1.0
 40
1.0
 40
1.0
 40
1.0
 10
121.3468796311
 20
54.8183683211
 30
0.0
 10
121.3679579528
 20
54.8361147181
 30
0.0
 10
121.3839905482
 20
54.8610145874
 30
0.0
 10
121.3927396953
 20
54.8871427844
 30
0.0
  0
SPLINE
  5
611
100
AcDbEntity
  8
7_ALL_ROUNDS
100
AcDbSpline
 62
7
  6
CONTINUOUS
 70
0
 71
3
 72
8
 73
4
 74
0
 42
0.0000001
 43
0.0000001
 44
0.0000000001
 40
0.0
 40
0.0
 40
0.0
 40
0.0
 40
1.0
 40
1.0
 40
1.0
 40
1.0
 10
121.3927396953
 20
54.8871427844
 30
0.0
 10
121.3967884577
 20
54.89923389
 30
0.0
 10
121.3994100523
 20
54.9120586689
 30
0.0
 10
121.3994100523
 20
54.924809642
 30
0.0
  0
SPLINE
  5
612
100
AcDbEntity
  8
7_ALL_ROUNDS
100
AcDbSpline
 62
7
  6
CONTINUOUS
 70
0
 71
3
 72
9
 73
5
 74
0
 42
0.0000001
 43
0.0000001
 44
0.0000000001
 40
0.0
 40
0.0
 40
0.0
 40
0.0
 40
0.5281276872
 40
1.0
 40
1.0
 40
1.0
 40
1.0
 10
121.3994100523
 20
54.924809642
 30
0.0
 10
121.3994100523
 20
54.9390786681
 30
0.0
 10
121.3924106959
 20
54.9713007416
 30
0.0
 10
121.3589660105
 20
54.9743917346
 30
0.0
 10
121.3468030656
 20
54.9705704002
 30
0.0
  0
SPLINE
  5
613
100
AcDbEntity
  8
7_ALL_ROUNDS
100
AcDbSpline
 62
7
  6
CONTINUOUS
 70
0
 71
3
 72
9
 73
5
 74
0
 42
0.0000001
 43
0.0000001
 44
0.0000000001
 40
0.0
 40
0.0
 40
0.0
 40
0.0
 40
0.2300423241
 40
1.0
 40
1.0
 40
1.0
 40
1.0
 10
121.6967891778
 20
55.0184254544
 30
0.0
 10
121.7035218683
 20
55.0223075306
 30
0.0
 10
121.7305607096
 20
55.0428771148
 30
0.0
 10
121.749523915
 20
55.0732336191
 30
0.0
 10
121.7577834432
 20
55.0978996324
 30
0.0
  0
SPLINE
  5
614
100
AcDbEntity
  8
7_ALL_ROUNDS
100
AcDbSpline
 62
7
  6
CONTINUOUS
 70
0
 71
3
 72
8
 73
4
 74
0
 42
0.0000001
 43
0.0000001
 44
0.0000000001
 40
0.0
 40
0.0
 40
0.0
 40
0.0
 40
1.0
 40
1.0
 40
1.0
 40
1.0
 10
121.7577834432
 20
55.0978996324
 30
0.0
 10
121.7618322056
 20
55.1099907381
 30
0.0
 10
121.7644538002
 20
55.122815517
 30
0.0
 10
121.7644538002
 20
55.13556649
 30
0.0
  0
SPLINE
  5
615
100
AcDbEntity
  8
7_ALL_ROUNDS
100
AcDbSpline
 62
7
  6
CONTINUOUS
 70
0
 71
3
 72
9
 73
5
 74
0
 42
0.0000001
 43
0.0000001
 44
0.0000000001
 40
0.0
 40
0.0
 40
0.0
 40
0.0
 40
0.5281276872
 40
1.0
 40
1.0
 40
1.0
 40
1.0
 10
121.7644538002
 20
55.13556649
 30
0.0
 10
121.7644538002
 20
55.1498355162
 30
0.0
 10
121.7574544438
 20
55.1820575897
 30
0.0
 10
121.7240097584
 20
55.1851485827
 30
0.0
 10
121.7118468135
 20
55.1813272482
 30
0.0
  0
SPLINE
  5
616
100
AcDbEntity
  8
7_ALL_ROUNDS
100
AcDbSpline
 62
7
  6
CONTINUOUS
 70
0
 71
3
 72
8
 73
4
 74
0
 42
0.0000001
 43
0.0000001
 44
0.0000000001
 40
0.0
 40
0.0
 40
0.0
 40
0.0
 40
1.0
 40
1.0
 40
1.0
 40
1.0
 10
121.7118468135
 20
55.1813272482
 30
0.0
 10
121.7065990362
 20
55.17967851
 30
0.0
 10
121.7015513381
 20
55.1773286376
 30
0.0
 10
121.6967891617
 20
55.1745756063
 30
0.0
  0
SPLINE
  5
617
100
AcDbEntity
  8
7_ALL_ROUNDS
100
AcDbSpline
 62
7
  6
CONTINUOUS
 70
0
 71
3
 72
9
 73
5
 74
0
 42
0.0000001
 43
0.0000001
 44
0.0000000001
 40
0.0
 40
0.0
 40
0.0
 40
0.0
 40
0.2202488526
 40
1.0
 40
1.0
 40
1.0
 40
1.0
 10
122.0502239921
 20
55.2236418721
 30
0.0
 10
122.0580400416
 20
55.2265797153
 30
0.0
 10
122.090970227
 20
55.246243929
 30
0.0
 10
122.1134406657
 20
55.2806248357
 30
0.0
 10
122.1228271911
 20
55.3086564805
 30
0.0
  0
SPLINE
  5
618
100
AcDbEntity
  8
7_ALL_ROUNDS
100
AcDbSpline
 62
7
  6
CONTINUOUS
 70
0
 71
3
 72
8
 73
4
 74
0
 42
0.0000001
 43
0.0000001
 44
0.0000000001
 40
0.0
 40
0.0
 40
0.0
 40
0.0
 40
1.0
 40
1.0
 40
1.0
 40
1.0
 10
122.1228271911
 20
55.3086564805
 30
0.0
 10
122.1268759535
 20
55.3207475862
 30
0.0
 10
122.1294975481
 20
55.333572365
 30
0.0
 10
122.1294975481
 20
55.3463233381
 30
0.0
  0
SPLINE
  5
619
100
AcDbEntity
  8
7_ALL_ROUNDS
100
AcDbSpline
 62
7
  6
CONTINUOUS
 70
0
 71
3
 72
9
 73
5
 74
0
 42
0.0000001
 43
0.0000001
 44
0.0000000001
 40
0.0
 40
0.0
 40
0.0
 40
0.0
 40
0.5281276872
 40
1.0
 40
1.0
 40
1.0
 40
1.0
 10
122.1294975481
 20
55.3463233381
 30
0.0
 10
122.1294975481
 20
55.3605923642
 30
0.0
 10
122.1224981917
 20
55.3928144378
 30
0.0
 10
122.0890535063
 20
55.3959054307
 30
0.0
 10
122.0768905614
 20
55.3920840963
 30
0.0
  0
SPLINE
  5
61A
100
AcDbEntity
  8
7_ALL_ROUNDS
100
AcDbSpline
 62
7
  6
CONTINUOUS
 70
0
 71
3
 72
8
 73
4
 74
0
 42
0.0000001
 43
0.0000001
 44
0.0000000001
 40
0.0
 40
0.0
 40
0.0
 40
0.0
 40
1.0
 40
1.0
 40
1.0
 40
1.0
 10
122.0768905614
 20
55.3920840963
 30
0.0
 10
122.0672192218
 20
55.3890455704
 30
0.0
 10
122.0582195528
 20
55.3836954395
 30
0.0
 10
122.0502217123
 20
55.3774663145
 30
0.0
  0
SPLINE
  5
61B
100
AcDbEntity
  8
3_ALL_AXES
100
AcDbSpline
 62
7
  6
CONTINUOUS
 70
0
 71
3
 72
16
 73
12
 74
0
 42
0.0000001
 43
0.0000001
 44
0.0000000001
 40
0.0
 40
0.0
 40
0.0
 40
0.0
 40
0.1287364993
 40
0.2703879952
 40
0.4176057155
 40
0.5620142339
 40
0.695743803
 40
0.813061585
 40
0.9124711405
 40
0.9571209871
 40
1.0
 40
1.0
 40
1.0
 40
1.0
 10
113.7392210908
 20
48.9676937247
 30
0.0
 10
113.7392210908
 20
49.4872340056
 30
0.0
 10
113.5938595997
 20
50.5796780601
 30
0.0
 10
113.0514630045
 20
52.1837303184
 30
0.0
 10
112.2153045389
 20
53.7289907543
 30
0.0
 10
111.1536599093
 20
55.0886185925
 30
0.0
 10
109.9500640805
 20
56.1532772541
 30
0.0
 10
108.6979223263
 20
56.840189258
 30
0.0
 10
107.6349577822
 20
57.0478072935
 30
0.0
 10
106.8819915021
 20
56.9375121402
 30
0.0
 10
106.5516146902
 20
56.8002665197
 30
0.0
 10
106.4017469242
 20
56.7137525128
 30
0.0
  0
SPLINE
  5
61C
100
AcDbEntity
  8
7_ALL_ROUNDS
100
AcDbSpline
 62
7
  6
CONTINUOUS
 70
0
 71
3
 72
9
 73
5
 74
0
 42
0.0000001
 43
0.0000001
 44
0.0000000001
 40
0.0
 40
0.0
 40
0.0
 40
0.0
 40
0.5000016719
 40
1.0
 40
1.0
 40
1.0
 40
1.0
 10
122.944121409
 20
52.2500100124
 30
0.0
 10
122.944121409
 20
52.2023038424
 30
0.0
 10
122.9115143918
 20
52.1081080085
 30
0.0
 10
122.8462422807
 20
52.0327709864
 30
0.0
 10
122.8049277402
 20
52.0089181677
 30
0.0
  0
SPLINE
  5
61D
100
AcDbEntity
  8
7_ALL_ROUNDS
100
AcDbSpline
 62
7
  6
CONTINUOUS
 70
0
 71
3
 72
9
 73
5
 74
0
 42
0.0000001
 43
0.0000001
 44
0.0000000001
 40
0.0
 40
0.0
 40
0.0
 40
0.0
 40
0.2953521684
 40
1.0
 40
1.0
 40
1.0
 40
1.0
 10
120.5377412638
 20
50.6999652586
 30
0.0
 10
120.5291088879
 20
50.6949813838
 30
0.0
 10
120.4991649214
 20
50.680238951
 30
0.0
 10
120.4599174299
 20
50.6783332671
 30
0.0
 10
120.4393223199
 20
50.6902235891
 30
0.0
  0
SPLINE
  5
61E
100
AcDbEntity
  8
7_ALL_ROUNDS
100
AcDbSpline
 62
7
  6
CONTINUOUS
 70
0
 71
3
 72
9
 73
5
 74
0
 42
0.0000001
 43
0.0000001
 44
0.0000000001
 40
0.0
 40
0.0
 40
0.0
 40
0.0
 40
0.2953521684
 40
1.0
 40
1.0
 40
1.0
 40
1.0
 10
123.1514074429
 20
57.5162200127
 30
0.0
 10
123.1600398187
 20
57.5212038874
 30
0.0
 10
123.1899837853
 20
57.5359463203
 30
0.0
 10
123.2292312767
 20
57.5378520042
 30
0.0
 10
123.2498263867
 20
57.5259616822
 30
0.0
  0
SPLINE
  5
61F
100
AcDbEntity
  8
7_ALL_ROUNDS
100
AcDbSpline
 62
7
  6
CONTINUOUS
 70
0
 71
3
 72
9
 73
5
 74
0
 42
0.0000001
 43
0.0000001
 44
0.0000000001
 40
0.0
 40
0.0
 40
0.0
 40
0.0
 40
0.5000016719
 40
1.0
 40
1.0
 40
1.0
 40
1.0
 10
119.7692240023
 20
55.4027983266
 30
0.0
 10
119.7692240023
 20
55.4505044965
 30
0.0
 10
119.8018310195
 20
55.5447003304
 30
0.0
 10
119.8671031306
 20
55.6200373526
 30
0.0
 10
119.908417671
 20
55.6438901712
 30
0.0
  0
SPLINE
  5
620
100
AcDbEntity
  8
7_ALL_ROUNDS
100
AcDbSpline
 62
7
  6
CONTINUOUS
 70
0
 71
3
 72
9
 73
5
 74
0
 42
0.0000001
 43
0.0000001
 44
0.0000000001
 40
0.0
 40
0.0
 40
0.0
 40
0.0
 40
0.5000011283
 40
1.0
 40
1.0
 40
1.0
 40
1.0
 10
116.2697838152
 20
63.2054139171
 30
0.0
 10
116.2697838152
 20
63.2660007144
 30
0.0
 10
116.2283724923
 20
63.3856294766
 30
0.0
 10
116.1454761494
 20
63.4813069621
 30
0.0
 10
116.0930063839
 20
63.5115997101
 30
0.0
  0
SPLINE
  5
621
100
AcDbEntity
  8
7_ALL_ROUNDS
100
AcDbSpline
 62
7
  6
CONTINUOUS
 70
0
 71
3
 72
9
 73
5
 74
0
 42
0.0000001
 43
0.0000001
 44
0.0000000001
 40
0.0
 40
0.0
 40
0.0
 40
0.0
 40
0.4999757121
 40
1.0
 40
1.0
 40
1.0
 40
1.0
 10
116.0930063839
 20
63.5115997101
 30
0.0
 10
116.0405393097
 20
63.4813080115
 30
0.0
 10
115.9576434582
 20
63.3856311834
 30
0.0
 10
115.9162304246
 20
63.2660026218
 30
0.0
 10
115.9162304246
 20
63.2054130673
 30
0.0
  0
SPLINE
  5
622
100
AcDbEntity
  8
7_ALL_ROUNDS
100
AcDbSpline
 62
7
  6
CONTINUOUS
 70
0
 71
3
 72
9
 73
5
 74
0
 42
0.0000001
 43
0.0000001
 44
0.0000000001
 40
0.0
 40
0.0
 40
0.0
 40
0.0
 40
0.5000231597
 40
1.0
 40
1.0
 40
1.0
 40
1.0
 10
115.9162304246
 20
63.2054130673
 30
0.0
 10
115.9687026473
 20
63.1751189007
 30
0.0
 10
116.0930105805
 20
63.1511706382
 30
0.0
 10
116.2173166716
 20
63.1751221785
 30
0.0
 10
116.2697838152
 20
63.2054139171
 30
0.0
  0
SPLINE
  5
623
100
AcDbEntity
  8
7_ALL_ROUNDS
100
AcDbSpline
 62
7
  6
CONTINUOUS
 70
0
 71
3
 72
9
 73
5
 74
0
 42
0.0000001
 43
0.0000001
 44
0.0000000001
 40
0.0
 40
0.0
 40
0.0
 40
0.0
 40
0.4999994563
 40
1.0
 40
1.0
 40
1.0
 40
1.0
 10
116.2697838152
 20
41.4285872455
 30
0.0
 10
116.2173142794
 20
41.3982941257
 30
0.0
 10
116.0930072929
 20
41.3743434145
 30
0.0
 10
115.9687002929
 20
41.3982935884
 30
0.0
 10
115.9162304246
 20
41.4285863956
 30
0.0
  0
SPLINE
  5
624
100
AcDbEntity
  8
7_ALL_ROUNDS
100
AcDbSpline
 62
7
  6
CONTINUOUS
 70
0
 71
3
 72
9
 73
5
 74
0
 42
0.0000001
 43
0.0000001
 44
0.0000000001
 40
0.0
 40
0.0
 40
0.0
 40
0.0
 40
0.2953393093
 40
1.0
 40
1.0
 40
1.0
 40
1.0
 10
115.9162304246
 20
41.4285863956
 30
0.0
 10
115.9162304246
 20
41.415928549
 30
0.0
 10
115.9190273264
 20
41.3736348792
 30
0.0
 10
115.9418510723
 20
41.329262609
 30
0.0
 10
115.968002809
 20
41.3141571228
 30
0.0
  0
SPLINE
  5
625
100
AcDbEntity
  8
7_ALL_ROUNDS
100
AcDbSpline
 62
7
  6
CONTINUOUS
 70
0
 71
3
 72
9
 73
5
 74
0
 42
0.0000001
 43
0.0000001
 44
0.0000000001
 40
0.0
 40
0.0
 40
0.0
 40
0.0
 40
0.2953549799
 40
1.0
 40
1.0
 40
1.0
 40
1.0
 10
102.4305900853
 20
49.2143483382
 30
0.0
 10
102.4196266587
 20
49.2206779324
 30
0.0
 10
102.3843969607
 20
49.244250243
 30
0.0
 10
102.3573776605
 20
49.2862071254
 30
0.0
 10
102.3573776591
 20
49.3164093767
 30
0.0
  0
SPLINE
  5
626
100
AcDbEntity
  8
7_ALL_ROUNDS
100
AcDbSpline
 62
7
  6
CONTINUOUS
 70
0
 71
3
 72
9
 73
5
 74
0
 42
0.0000001
 43
0.0000001
 44
0.0000000001
 40
0.0
 40
0.0
 40
0.0
 40
0.0
 40
0.2953382362
 40
1.0
 40
1.0
 40
1.0
 40
1.0
 10
124.1843358199
 20
45.9980287
 30
0.0
 10
124.1843358199
 20
45.9853709107
 30
0.0
 10
124.1815388918
 20
45.9430772547
 30
0.0
 10
124.1587151705
 20
45.8987051628
 30
0.0
 10
124.1325635257
 20
45.8835994794
 30
0.0
  0
SPLINE
  5
627
100
AcDbEntity
  8
7_ALL_ROUNDS
100
AcDbSpline
 62
7
  6
CONTINUOUS
 70
0
 71
3
 72
9
 73
5
 74
0
 42
0.0000001
 43
0.0000001
 44
0.0000000001
 40
0.0
 40
0.0
 40
0.0
 40
0.0
 40
0.4999762558
 40
1.0
 40
1.0
 40
1.0
 40
1.0
 10
124.0075583886
 20
68.0810411646
 30
0.0
 10
124.0600257619
 20
68.0507497978
 30
0.0
 10
124.1429223751
 20
67.9550735023
 30
0.0
 10
124.1843358199
 20
67.8354448876
 30
0.0
 10
124.1843358199
 20
67.7748553717
 30
0.0
  0
SPLINE
  5
628
100
AcDbEntity
  8
7_ALL_ROUNDS
100
AcDbSpline
 62
7
  6
CONTINUOUS
 70
0
 71
3
 72
9
 73
5
 74
0
 42
0.0000001
 43
0.0000001
 44
0.0000000001
 40
0.0
 40
0.0
 40
0.0
 40
0.0
 40
0.2953205983
 40
1.0
 40
1.0
 40
1.0
 40
1.0
 10
124.1843358199
 20
67.7748553717
 30
0.0
 10
124.1952921743
 20
67.7811809881
 30
0.0
 10
124.2305030431
 20
67.8047419435
 30
0.0
 10
124.2575215337
 20
67.8466554793
 30
0.0
 10
124.2575462588
 20
67.8768433503
 30
0.0
  0
SPLINE
  5
629
100
AcDbEntity
  8
7_ALL_ROUNDS
100
AcDbSpline
 62
7
  6
CONTINUOUS
 70
0
 71
3
 72
9
 73
5
 74
0
 42
0.0000001
 43
0.0000001
 44
0.0000000001
 40
0.0
 40
0.0
 40
0.0
 40
0.0
 40
0.5000016719
 40
1.0
 40
1.0
 40
1.0
 40
1.0
 10
102.4305900853
 20
70.9911750099
 30
0.0
 10
102.4305900853
 20
71.0517618458
 30
0.0
 10
102.4720009971
 20
71.1713905548
 30
0.0
 10
102.5548965782
 20
71.2670685729
 30
0.0
 10
102.6073660446
 20
71.2973616526
 30
0.0
  0
SPLINE
  5
62A
100
AcDbEntity
  8
7_ALL_ROUNDS
100
AcDbSpline
 62
7
  6
CONTINUOUS
 70
0
 71
3
 72
9
 73
5
 74
0
 42
0.0000001
 43
0.0000001
 44
0.0000000001
 40
0.0
 40
0.0
 40
0.0
 40
0.0
 40
0.2953370352
 40
1.0
 40
1.0
 40
1.0
 40
1.0
 10
102.6073660446
 20
71.2973616526
 30
0.0
 10
102.5964043469
 20
71.3036902486
 30
0.0
 10
102.5583792797
 20
71.3224140063
 30
0.0
 10
102.5085415726
 20
71.3248336716
 30
0.0
 10
102.4823844085
 20
71.3097390257
 30
0.0
  0
SPLINE
  5
62B
100
AcDbEntity
  8
7_ALL_ROUNDS
100
AcDbSpline
 62
7
  6
CONTINUOUS
 70
0
 71
3
 72
9
 73
5
 74
0
 42
0.0000001
 43
0.0000001
 44
0.0000000001
 40
0.0
 40
0.0
 40
0.0
 40
0.0
 40
0.2948876506
 40
1.0
 40
1.0
 40
1.0
 40
1.0
 10
110.5219180494
 20
75.8668031072
 30
0.0
 10
110.532772042
 20
75.8730696254
 30
0.0
 10
110.5704890162
 20
75.8916387411
 30
0.0
 10
110.6197127587
 20
75.8943773528
 30
0.0
 10
110.645875434
 20
75.8797621341
 30
0.0
  0
ELLIPSE
  5
62C
100
AcDbEntity
  8
7_ALL_ROUNDS
100
AcDbEllipse
 62
7
  6
CONTINUOUS
 10
103.1518374713
 20
66.1995108984
 30
0.0
 11
0.0812727525
 21
0.3032581386
 31
0.0
 40
0.5176632803
 41
0.4777136953
 42
2.0485100221
  0
ENDSEC
  0
SECTION
  2
OBJECTS
  0
DICTIONARY
  5
C
100
AcDbDictionary
280
0
281
1
  3
ACAD_GROUP
350
D
  3
ACAD_MLINESTYLE
350
17
  3
ACAD_LAYOUT
350
1A
  3
ACAD_PLOTSETTINGS
350
19
  3
ACAD_PLOTSTYLENAME
350
E
  0
DICTIONARY
  5
D
102
{ACAD_REACTORS
330
C
102
}
100
AcDbDictionary
280
0
281
1
  0
ACDBDICTIONARYWDFLT
  5
E
102
{ACAD_REACTORS
330
C
102
}
100
AcDbDictionary
281
1
  3
Normal
350
F
100
AcDbDictionaryWithDefault
340
F
  0
DICTIONARY
  5
17
102
{ACAD_REACTORS
330
C
102
}
100
AcDbDictionary
280
0
281
1
  3
Standard
350
18
  0
DICTIONARY
  5
19
102
{ACAD_REACTORS
330
C
102
}
100
AcDbDictionary
281
1
  0
DICTIONARY
  5
1A
102
{ACAD_REACTORS
330
C
102
}
100
AcDbDictionary
281
1
  3
Model
350
62D
  3
Layout1
350
62E
  0
ACDBPLACEHOLDER
  5
F
102
{ACAD_REACTORS
330
E
102
}
  0
MLINESTYLE
  5
18
102
{ACAD_REACTORS
330
17
102
}
100
AcDbMlineStyle
  2
STANDARD
 70
0
  3

 62
256
 51
90.0
 52
90.0
 71
2
 49
0.5
 62
256
  6
BYLAYER
 49
-0.5
 62
256
  6
BYLAYER
  0
LAYOUT
  5
62D
102
{ACAD_REACTORS
330
1A
102
}
100
AcDbPlotSettings
  1

  2
none_device
  4
ANSI_D_(34.00_x_22.00_Inches)
  6

 40
0.0
 41
0.0
 42
0.0
 43
0.0
 44
863.6
 45
558.8
 46
0.0
 47
0.0
 48
0.0
 49
0.0
140
0.0
141
0.0
142
1.0
143
1.0
 70
1024
 72
0
 73
0
 74
0
  7

 75
0
147
1.0
148
0.0
149
0.0
100
AcDbLayout
  1
Model
 70
0
 71
0
 10
0.0
 20
0.0
 11
34.0
 21
22.0
 12
0.0
 22
0.0
 32
0.0
 14
0.0
 24
0.0
 34
0.0
 15
0.0
 25
0.0
 35
0.0
146
0.0
 13
0.0
 23
0.0
 33
0.0
 16
1.0
 26
0.0
 36
0.0
 17
0.0
 27
1.0
 37
0.0
 76
0
330
210
345
0
346
0
  0
LAYOUT
  5
62E
102
{ACAD_REACTORS
330
1A
102
}
100
AcDbPlotSettings
  1

  2
none_device
  4
ANSI_D_(34.00_x_22.00_Inches)
  6

 40
0.0
 41
0.0
 42
0.0
 43
0.0
 44
863.6
 45
558.8
 46
0.0
 47
0.0
 48
0.0
 49
0.0
140
0.0
141
0.0
142
1.0
143
1.0
 70
0
 72
0
 73
0
 74
0
  7

 75
0
147
1.0
148
0.0
149
0.0
100
AcDbLayout
  1
Layout1
 70
0
 71
1
 10
0.0
 20
0.0
 11
34.0
 21
22.0
 12
0.0
 22
0.0
 32
0.0
 14
0.0
 24
0.0
 34
0.0
 15
0.0
 25
0.0
 35
0.0
146
0.0
 13
0.0
 23
0.0
 33
0.0
 16
1.0
 26
0.0
 36
0.0
 17
0.0
 27
1.0
 37
0.0
 76
0
330
211
345
0
346
0
  0
ENDSEC
  0
EOF
