999
DXF file: Z:\L&T Project Work\3D speaker files\SC-324-SC-424-SC-424-8-SC-424-8F\dc-sc-324-sc-424-2d-A.dxf
999
Pro/ENGINEER 2016130 by Parametric Technology Corporation
  0
SECTION
  2
HEADER
  9
$ACADVER
  1
AC1015
  9
$DWGCODEPAGE
  3
ANSI_1252
  9
$EXTMAX
 10
283.3333333333
 20
183.3333333333
 30
0.0
  9
$EXTMIN
 10
0.0
 20
0.0
 30
0.0
  9
$LIMMIN
 10
0.0
 20
0.0
  9
$LIMMAX
 10
283.3333333333
 20
183.3333333333
  9
$VIEWCTR
 10
141.6666666667
 20
91.6666666667
  9
$VIEWSIZE
 40
183.3333333333
  9
$CLAYER
  8
0
  9
$LTSCALE
 40
15.5833333333
  9
$CELTYPE
  6
BYLAYER
  9
$DIMSCALE
 40
1.0
  9
$DIMASZ
 40
1.5625
  9
$DIMEXO
 40
0.0625
  9
$DIMDLI
 40
10.7666666667
  9
$DIMEXE
 40
0.125
  9
$DIMCEN
 40
2.55
  9
$DIMLFAC
 40
1.0
  9
$DIMBLK
  1
_FILLED
  9
$DIMALT
 70
0
  9
$DIMALTF
 40
25.4
  9
$DIMTXT
 40
1.3020833333
  9
$DIMTOL
 70
1
  9
$DIMLIM
 70
0
  9
$DIMTFAC
 40
1.0
  9
$DIMTP
 40
0.01
  9
$DIMTM
 40
0.01
  9
$DIMGAP
 40
0.09
  9
$DIMDSEP
 70
46
  9
$AUNITS
 70
0
  9
$PDMODE
 70
3
  9
$PDSIZE
 40
0.3125
  9
$HANDSEED
  5
70C
  9
$TILEMODE
 70
1
  9
$MEASUREMENT
 70
0
  9
$INSUNITS
 70
1
  0
ENDSEC
  0
SECTION
  2
CLASSES
  0
CLASS
  1
ACDBDICTIONARYWDFLT
  2
AcDbDictionaryWithDefault
  3
AutoCAD 2000
 90
0
280
0
281
0
  0
CLASS
  1
ACDBPLACEHOLDER
  2
AcDbPlaceHolder
  3
AutoCAD 2000
 90
0
280
0
281
0
  0
CLASS
  1
LAYOUT
  2
AcDbLayout
  3
AutoCAD 2000
 90
0
280
0
281
0
  0
ENDSEC
  0
SECTION
  2
TABLES
  0
TABLE
  2
VPORT
  5
8
100
AcDbSymbolTable
 70
2
  0
VPORT
  5
1F4
100
AcDbSymbolTableRecord
100
AcDbViewportTableRecord
  2
*ACTIVE
 70
0
 10
0.0
 20
0.0
 11
1.0
 21
1.0
 12
141.6666666667
 22
91.6666666667
 13
0.0
 23
0.0
 14
1.0
 24
1.0
 15
0.0
 25
0.0
 16
0.0
 26
0.0
 36
1.0
 17
0.0
 27
0.0
 37
0.0
 40
183.3333333333
 41
1.5454545455
 42
50.0
 43
0.0
 44
0.0
 50
0.0
 51
0.0
 71
0
 72
100
 73
1
 74
1
 75
0
 76
0
 77
0
 78
0
  0
ENDTAB
  0
TABLE
  2
LTYPE
  5
5
100
AcDbSymbolTable
 70
6
  0
LTYPE
  5
14
100
AcDbSymbolTableRecord
100
AcDbLinetypeTableRecord
  2
BYBLOCK
 70
0
  3

 72
65
 73
0
 40
0.0
  0
LTYPE
  5
15
100
AcDbSymbolTableRecord
100
AcDbLinetypeTableRecord
  2
BYLAYER
 70
0
  3

 72
65
 73
0
 40
0.0
  0
LTYPE
  5
16
100
AcDbSymbolTableRecord
100
AcDbLinetypeTableRecord
  2
CONTINUOUS
 70
64
  3
Solid line
 72
65
 73
0
 40
0.0
  0
LTYPE
  5
1F5
100
AcDbSymbolTableRecord
100
AcDbLinetypeTableRecord
  2
CENTER
 70
64
  3
____ _ ____ _ ____ _ ____ _ ____ _ ____ _ ____
 72
65
 73
4
 40
0.6
 49
0.375
 74
0
 49
-0.075
 74
0
 49
0.075
 74
0
 49
-0.075
 74
0
  0
LTYPE
  5
1F6
100
AcDbSymbolTableRecord
100
AcDbLinetypeTableRecord
  2
HIDDEN
 70
64
  3
- - - - - - - - - - - - - - - - - - - -
 72
65
 73
2
 40
0.2
 49
0.1
 74
0
 49
-0.1
 74
0
  0
LTYPE
  5
1F7
100
AcDbSymbolTableRecord
100
AcDbLinetypeTableRecord
  2
PHANTOM
 70
64
  3
_____ _ _ _____ _ _ _____ _ _ _____
 72
65
 73
6
 40
0.8
 49
0.45
 74
0
 49
-0.05
 74
0
 49
0.1
 74
0
 49
-0.05
 74
0
 49
0.1
 74
0
 49
-0.05
 74
0
  0
LTYPE
  5
1F8
100
AcDbSymbolTableRecord
100
AcDbLinetypeTableRecord
  2
DOT
 70
64
  3
. . . . . . . . . . . . . . . . . . . .
 72
65
 73
2
 40
0.2
 49
0.1
 74
0
 49
-0.1
 74
0
  0
LTYPE
  5
1F9
100
AcDbSymbolTableRecord
100
AcDbLinetypeTableRecord
  2
DASHED
 70
64
  3
- - - - - - - - - - - - - - - - - - - -
 72
65
 73
2
 40
0.2
 49
0.1
 74
0
 49
-0.1
 74
0
  0
ENDTAB
  0
TABLE
  2
LAYER
  5
2
100
AcDbSymbolTable
 70
36
  0
LAYER
  5
10
100
AcDbSymbolTableRecord
100
AcDbLayerTableRecord
  2
0
 70
0
 62
7
  6
CONTINUOUS
370
-3
390
F
  0
LAYER
  5
1FA
100
AcDbSymbolTableRecord
100
AcDbLayerTableRecord
  2
DEFAULT_1
 70
0
 62
7
  6
CENTER
370
-3
390
F
  0
LAYER
  5
1FB
100
AcDbSymbolTableRecord
100
AcDbLayerTableRecord
  2
DEFAULT_2
 70
0
 62
8
  6
HIDDEN
370
-3
390
F
  0
LAYER
  5
1FC
100
AcDbSymbolTableRecord
100
AcDbLayerTableRecord
  2
DEFAULT_3
 70
0
 62
7
  6
PHANTOM
370
-3
390
F
  0
LAYER
  5
1FD
100
AcDbSymbolTableRecord
100
AcDbLayerTableRecord
  2
1_ALL_PLANES
 70
0
 62
7
  6
CONTINUOUS
370
-3
390
F
  0
LAYER
  5
1FE
100
AcDbSymbolTableRecord
100
AcDbLayerTableRecord
  2
1__DEF_PLANES
 70
0
 62
7
  6
CONTINUOUS
370
-3
390
F
  0
LAYER
  5
1FF
100
AcDbSymbolTableRecord
100
AcDbLayerTableRecord
  2
2_ALL_CSYS
 70
0
 62
7
  6
CONTINUOUS
370
-3
390
F
  0
LAYER
  5
200
100
AcDbSymbolTableRecord
100
AcDbLayerTableRecord
  2
2__DEF_CSYS
 70
0
 62
7
  6
CONTINUOUS
370
-3
390
F
  0
LAYER
  5
201
100
AcDbSymbolTableRecord
100
AcDbLayerTableRecord
  2
3_ALL_AXES
 70
0
 62
7
  6
CONTINUOUS
370
-3
390
F
  0
LAYER
  5
202
100
AcDbSymbolTableRecord
100
AcDbLayerTableRecord
  2
3_AXES_OTHER
 70
0
 62
7
  6
CONTINUOUS
370
-3
390
F
  0
LAYER
  5
203
100
AcDbSymbolTableRecord
100
AcDbLayerTableRecord
  2
3_HOLES
 70
0
 62
7
  6
CONTINUOUS
370
-3
390
F
  0
LAYER
  5
204
100
AcDbSymbolTableRecord
100
AcDbLayerTableRecord
  2
4_ALL_POINTS
 70
0
 62
7
  6
CONTINUOUS
370
-3
390
F
  0
LAYER
  5
205
100
AcDbSymbolTableRecord
100
AcDbLayerTableRecord
  2
5_ALL_CURVES
 70
0
 62
7
  6
CONTINUOUS
370
-3
390
F
  0
LAYER
  5
206
100
AcDbSymbolTableRecord
100
AcDbLayerTableRecord
  2
6_ALL_SURFS
 70
0
 62
7
  6
CONTINUOUS
370
-3
390
F
  0
LAYER
  5
207
100
AcDbSymbolTableRecord
100
AcDbLayerTableRecord
  2
6_COPYGEOM
 70
0
 62
7
  6
CONTINUOUS
370
-3
390
F
  0
LAYER
  5
208
100
AcDbSymbolTableRecord
100
AcDbLayerTableRecord
  2
7_ALL_ROUNDS
 70
0
 62
7
  6
CONTINUOUS
370
-3
390
F
  0
LAYER
  5
209
100
AcDbSymbolTableRecord
100
AcDbLayerTableRecord
  2
7_MERGES
 70
0
 62
7
  6
CONTINUOUS
370
-3
390
F
  0
LAYER
  5
20A
100
AcDbSymbolTableRecord
100
AcDbLayerTableRecord
  2
8_GDT
 70
0
 62
7
  6
CONTINUOUS
370
-3
390
F
  0
LAYER
  5
20B
100
AcDbSymbolTableRecord
100
AcDbLayerTableRecord
  2
8_SET_DATUMS
 70
0
 62
7
  6
CONTINUOUS
370
-3
390
F
  0
LAYER
  5
20C
100
AcDbSymbolTableRecord
100
AcDbLayerTableRecord
  2
9_COSMETICS
 70
0
 62
7
  6
CONTINUOUS
370
-3
390
F
  0
LAYER
  5
20D
100
AcDbSymbolTableRecord
100
AcDbLayerTableRecord
  2
9_THREADS
 70
0
 62
7
  6
CONTINUOUS
370
-3
390
F
  0
ENDTAB
  0
TABLE
  2
STYLE
  5
3
100
AcDbSymbolTable
 70
1
  0
STYLE
  5
11
100
AcDbSymbolTableRecord
100
AcDbTextStyleTableRecord
  2
STANDARD
 70
0
 40
0.0
 41
0.8
 50
0.0
 71
0
 42
0.2
  3
txt
  4

  0
STYLE
  5
20E
100
AcDbSymbolTableRecord
100
AcDbTextStyleTableRecord
  2
TEXTSTYLE_1
 70
0
 40
0.0
 41
0.8
 50
0.0
 71
0
 42
0.2
  3
gdt
  4

  0
ENDTAB
  0
TABLE
  2
VIEW
  5
6
100
AcDbSymbolTable
 70
0
  0
ENDTAB
  0
TABLE
  2
UCS
  5
7
100
AcDbSymbolTable
 70
0
  0
ENDTAB
  0
TABLE
  2
APPID
  5
9
100
AcDbSymbolTable
 70
1
  0
APPID
  5
20F
100
AcDbSymbolTableRecord
100
AcDbRegAppTableRecord
  2
ACAD
 70
0
  0
ENDTAB
  0
TABLE
  2
BLOCK_RECORD
  5
1
100
AcDbSymbolTable
 70
0
  0
BLOCK_RECORD
  5
210
100
AcDbSymbolTableRecord
100
AcDbBlockTableRecord
  2
*Model_Space
  0
BLOCK_RECORD
  5
211
100
AcDbSymbolTableRecord
100
AcDbBlockTableRecord
  2
*Paper_Space
  0
BLOCK_RECORD
  5
212
100
AcDbSymbolTableRecord
100
AcDbBlockTableRecord
  2
_FILLED
  0
BLOCK_RECORD
  5
213
100
AcDbSymbolTableRecord
100
AcDbBlockTableRecord
  2
*D0
  0
BLOCK_RECORD
  5
214
100
AcDbSymbolTableRecord
100
AcDbBlockTableRecord
  2
*D1
  0
BLOCK_RECORD
  5
215
100
AcDbSymbolTableRecord
100
AcDbBlockTableRecord
  2
*D2
  0
BLOCK_RECORD
  5
216
100
AcDbSymbolTableRecord
100
AcDbBlockTableRecord
  2
*D3
  0
BLOCK_RECORD
  5
217
100
AcDbSymbolTableRecord
100
AcDbBlockTableRecord
  2
*D4
  0
BLOCK_RECORD
  5
218
100
AcDbSymbolTableRecord
100
AcDbBlockTableRecord
  2
*D5
  0
BLOCK_RECORD
  5
219
100
AcDbSymbolTableRecord
100
AcDbBlockTableRecord
  2
*D6
  0
BLOCK_RECORD
  5
21A
100
AcDbSymbolTableRecord
100
AcDbBlockTableRecord
  2
*D7
  0
BLOCK_RECORD
  5
21B
100
AcDbSymbolTableRecord
100
AcDbBlockTableRecord
  2
*D8
  0
BLOCK_RECORD
  5
21C
100
AcDbSymbolTableRecord
100
AcDbBlockTableRecord
  2
*D9
  0
BLOCK_RECORD
  5
21D
100
AcDbSymbolTableRecord
100
AcDbBlockTableRecord
  2
*D10
  0
BLOCK_RECORD
  5
21E
100
AcDbSymbolTableRecord
100
AcDbBlockTableRecord
  2
RD010411_BL0
  0
ENDTAB
  0
TABLE
  2
DIMSTYLE
  5
A
100
AcDbSymbolTable
 70
1
100
AcDbDimStyleTable
 71
0
  0
DIMSTYLE
105
21F
100
AcDbSymbolTableRecord
100
AcDbDimStyleTableRecord
  2
STANDARD
 70
0
  3

  4

 40
1.0
 41
1.5625
 42
0.0625
 43
0.38
 44
0.125
 45
0.0
 46
0.0
 47
0.01
 48
0.01
140
1.3020833333
141
0.09
142
0.0
143
25.4
144
1.0
145
0.0
146
1.0
147
0.09
 71
1.0
 72
0.0
 73
1
 74
1
 75
0
 76
0
 77
0
 78
4
170
0
171
2
172
0
173
0
174
0
175
0
176
0
177
0
178
0
270
2
271
3
272
3
273
2
274
2
275
0
280
0
281
0
282
0
283
1
284
4
285
0
286
0
287
3
288
0
340
11
278
46
341
212
342
212
343
212
344
212
  0
DIMSTYLE
105
220
100
AcDbSymbolTableRecord
100
AcDbDimStyleTableRecord
  2
DIMSTYLE_1
 70
0
  3

  4

 40
1.0
 41
1.5625
 42
0.0625
 43
0.38
 44
0.125
 45
0.0
 46
0.0
 47
0.01
 48
0.01
140
1.3020833333
141
0.09
142
0.0
143
25.4
144
1.0
145
0.0
146
1.0
147
0.078125
 71
0.0
 72
0.0
 73
1
 74
1
 75
0
 76
0
 77
0
 78
4
170
0
171
2
172
0
173
0
174
0
175
0
176
0
177
0
178
0
270
2
271
1
272
1
273
2
274
2
275
0
280
0
281
0
282
0
283
1
284
4
285
0
286
0
287
3
288
0
340
11
278
46
341
212
342
212
343
212
344
212
  0
ENDTAB
  0
ENDSEC
  0
SECTION
  2
BLOCKS
  0
BLOCK
  5
20
100
AcDbEntity
  8
0
100
AcDbBlockBegin
  2
*Model_Space
 70
0
 10
0.0
 20
0.0
 30
0.0
  3
*Model_Space
  1

  0
ENDBLK
  5
21
100
AcDbEntity
  8
0
100
AcDbBlockEnd
  0
BLOCK
  5
1C
100
AcDbEntity
  8
0
100
AcDbBlockBegin
  2
*Paper_Space
 70
0
 10
0.0
 20
0.0
 30
0.0
  3
*Paper_Space
  1

  0
ENDBLK
  5
1D
100
AcDbEntity
  8
0
100
AcDbBlockEnd
  0
BLOCK
  5
221
100
AcDbEntity
  8
0
100
AcDbBlockBegin
 62
7
  6
CONTINUOUS
  2
RD010411_BL0
 70
64
 10
240.7401691567
 20
22.5092555431
  3
RD010411_BL0
  1

  0
ARC
  5
222
100
AcDbEntity
  8
0
100
AcDbCircle
 62
7
  6
CONTINUOUS
 10
246.1748489037
 20
23.3457301892
 40
0.1030959439
100
AcDbArc
 50
270.0
 51
360.0
  0
LINE
  5
223
100
AcDbEntity
  8
0
100
AcDbLine
 62
7
  6
CONTINUOUS
 10
246.2779448476
 20
23.3457301892
 11
246.2779448476
 21
23.5519929325
  0
ARC
  5
224
100
AcDbEntity
  8
0
100
AcDbCircle
 62
7
  6
CONTINUOUS
 10
246.1748489037
 20
23.5519929325
 40
0.1030959439
100
AcDbArc
 50
0.0
 51
90.0
  0
LINE
  5
225
100
AcDbEntity
  8
0
100
AcDbLine
 62
7
  6
CONTINUOUS
 10
246.1748489037
 20
23.6550888764
 11
243.4032378019
 21
23.6550888764
  0
SPLINE
  5
226
100
AcDbEntity
  8
0
100
AcDbSpline
 62
7
  6
CONTINUOUS
 70
0
 71
3
 72
13
 73
9
 74
0
 42
0.0000001
 43
0.0000001
 44
0.0000000001
 40
0.0
 40
0.0
 40
0.0
 40
0.0
 40
0.1310616762
 40
0.2699656353
 40
0.4157607805
 40
0.5899807757
 40
0.76586761
 40
0.9948829976
 40
0.9948829976
 40
0.9948829976
 40
0.9948829976
 10
243.4032378019
 20
23.6550888764
 30
0.0
 10
243.3449760143
 20
23.6507495
 30
0.0
 10
243.2249662545
 20
23.6418110943
 30
0.0
 10
243.0623291309
 20
23.5410318622
 30
0.0
 10
242.9455750839
 20
23.3718416828
 30
0.0
 10
242.8696555702
 20
23.164959336
 30
0.0
 10
242.826893065
 20
22.9120631045
 30
0.0
 10
242.8229557945
 20
22.7333621863
 30
0.0
 10
242.820915199
 20
22.6322744832
 30
0.0
  0
LINE
  5
227
100
AcDbEntity
  8
0
100
AcDbLine
 62
7
  6
CONTINUOUS
 10
242.820915199
 20
22.6322744832
 11
242.8210961435
 21
22.6165875756
  0
SPLINE
  5
228
100
AcDbEntity
  8
0
100
AcDbSpline
 62
7
  6
CONTINUOUS
 70
0
 71
3
 72
13
 73
9
 74
0
 42
0.0000001
 43
0.0000001
 44
0.0000000001
 40
0.0
 40
0.0
 40
0.0
 40
0.0
 40
0.2222860645
 40
0.3981728988
 40
0.572392894
 40
0.7181880393
 40
0.8570919984
 40
0.9881536746
 40
0.9881536746
 40
0.9881536746
 40
0.9881536746
 10
242.8210961435
 20
22.6165875756
 30
0.0
 10
242.823096522
 20
22.5184715037
 30
0.0
 10
242.8273890802
 20
22.3427731708
 30
0.0
 10
242.8696555353
 20
22.0928084645
 30
0.0
 10
242.9455759578
 20
21.8859492556
 30
0.0
 10
243.0623263631
 20
21.7166872723
 30
0.0
 10
243.2249758995
 20
21.6161489452
 30
0.0
 10
243.3449564007
 20
21.6066432851
 30
0.0
 10
243.4032378019
 20
21.6023024494
 30
0.0
  0
LINE
  5
229
100
AcDbEntity
  8
0
100
AcDbLine
 62
7
  6
CONTINUOUS
 10
243.4032378019
 20
21.6023024494
 11
246.1750739209
 21
21.6083522637
  0
ARC
  5
22A
100
AcDbEntity
  8
0
100
AcDbCircle
 62
7
  6
CONTINUOUS
 10
246.1748489037
 20
21.7114479618
 40
0.1030959436
100
AcDbArc
 50
270.125053868
 51
360.0
  0
LINE
  5
22B
100
AcDbEntity
  8
0
100
AcDbLine
 62
7
  6
CONTINUOUS
 10
246.2779448476
 20
21.7114479618
 11
246.2779448476
 21
21.9096577889
  0
ARC
  5
22C
100
AcDbEntity
  8
0
100
AcDbCircle
 62
7
  6
CONTINUOUS
 10
246.1748489037
 20
21.9096577889
 40
0.1030959439
100
AcDbArc
 50
0.0
 51
90.0
  0
LINE
  5
22D
100
AcDbEntity
  8
0
100
AcDbLine
 62
7
  6
CONTINUOUS
 10
246.1748489037
 20
22.0127537328
 11
243.7991993771
 21
22.0127537328
  0
LINE
  5
22E
100
AcDbEntity
  8
0
100
AcDbLine
 62
7
  6
CONTINUOUS
 10
243.6961034332
 20
22.1158496767
 11
243.6961034332
 21
23.1395383014
  0
ARC
  5
22F
100
AcDbEntity
  8
0
100
AcDbCircle
 62
7
  6
CONTINUOUS
 10
243.799199378
 20
23.1395383014
 40
0.1030959439
100
AcDbArc
 50
90.0
 51
180.0
  0
LINE
  5
230
100
AcDbEntity
  8
0
100
AcDbLine
 62
7
  6
CONTINUOUS
 10
243.7991993771
 20
23.2426342453
 11
246.1748489037
 21
23.2426342453
  0
LINE
  5
231
100
AcDbEntity
  8
0
100
AcDbLine
 62
7
  6
CONTINUOUS
 10
239.5632052751
 20
22.4205258382
 11
241.5433047269
 21
22.4205258382
  0
ARC
  5
232
100
AcDbEntity
  8
0
100
AcDbCircle
 62
7
  6
CONTINUOUS
 10
241.5433047267
 20
22.3174298945
 40
0.1030959439
100
AcDbArc
 50
0.0
 51
90.0
  0
LINE
  5
233
100
AcDbEntity
  8
0
100
AcDbLine
 62
7
  6
CONTINUOUS
 10
241.6464006708
 20
22.3174298943
 11
241.6464006708
 21
22.1069186258
  0
LINE
  5
234
100
AcDbEntity
  8
0
100
AcDbLine
 62
7
  6
CONTINUOUS
 10
241.5433047269
 20
22.0038226819
 11
239.2351368946
 21
22.0038226819
  0
ARC
  5
235
100
AcDbEntity
  8
0
100
AcDbCircle
 62
7
  6
CONTINUOUS
 10
239.2351368946
 20
21.900726738
 40
0.1030959439
100
AcDbArc
 50
90.0
 51
180.0
  0
LINE
  5
236
100
AcDbEntity
  8
0
100
AcDbLine
 62
7
  6
CONTINUOUS
 10
239.1320409507
 20
21.900726738
 11
239.1320409507
 21
21.7053973528
  0
ARC
  5
237
100
AcDbEntity
  8
0
100
AcDbCircle
 62
7
  6
CONTINUOUS
 10
239.2351368946
 20
21.7053973528
 40
0.1030959439
100
AcDbArc
 50
180.0
 51
270.0
  0
LINE
  5
238
100
AcDbEntity
  8
0
100
AcDbLine
 62
7
  6
CONTINUOUS
 10
239.2351368946
 20
21.6023014089
 11
242.1006095367
 21
21.6023014089
  0
SPLINE
  5
239
100
AcDbEntity
  8
0
100
AcDbSpline
 62
7
  6
CONTINUOUS
 70
0
 71
3
 72
13
 73
9
 74
0
 42
0.0000001
 43
0.0000001
 44
0.0000000001
 40
0.0
 40
0.0
 40
0.0
 40
0.0
 40
0.1604571392
 40
0.3334692485
 40
0.4767982758
 40
0.6242014838
 40
0.7505998515
 40
1.0
 40
1.0
 40
1.0
 40
1.0
 10
242.1006095367
 20
21.6023014089
 30
0.0
 10
242.1489217632
 20
21.6046275564
 30
0.0
 10
242.2493264049
 20
21.6094618584
 30
0.0
 10
242.3843422076
 20
21.6680795284
 30
0.0
 10
242.4860810631
 20
21.7666109391
 30
0.0
 10
242.5434149095
 20
21.8795733948
 30
0.0
 10
242.5873719144
 20
22.0311136866
 30
0.0
 10
242.5891556915
 20
22.1445192519
 30
0.0
 10
242.590339501
 20
22.2197812958
 30
0.0
  0
SPLINE
  5
23A
100
AcDbEntity
  8
0
100
AcDbSpline
 62
7
  6
CONTINUOUS
 70
0
 71
3
 72
13
 73
9
 74
0
 42
0.0000001
 43
0.0000001
 44
0.0000000001
 40
0.0
 40
0.0
 40
0.0
 40
0.0
 40
0.2494001485
 40
0.3757985162
 40
0.5232017242
 40
0.6665307515
 40
0.8395428608
 40
1.0
 40
1.0
 40
1.0
 40
1.0
 10
242.590339501
 20
22.2197812958
 30
0.0
 10
242.5891556915
 20
22.2950433412
 30
0.0
 10
242.5873719144
 20
22.4084489049
 30
0.0
 10
242.5434149095
 20
22.5599891983
 30
0.0
 10
242.4860810631
 20
22.672951654
 30
0.0
 10
242.3843422076
 20
22.7714830631
 30
0.0
 10
242.2493264049
 20
22.8301007331
 30
0.0
 10
242.1489217632
 20
22.8349350367
 30
0.0
 10
242.1006095367
 20
22.8372611826
 30
0.0
  0
LINE
  5
23B
100
AcDbEntity
  8
0
100
AcDbLine
 62
7
  6
CONTINUOUS
 10
242.1006095367
 20
22.8372611826
 11
240.1469034999
 21
22.8372611826
  0
LINE
  5
23C
100
AcDbEntity
  8
0
100
AcDbLine
 62
7
  6
CONTINUOUS
 10
240.043807556
 20
22.9403571265
 11
240.043807556
 21
23.1354249953
  0
ARC
  5
23D
100
AcDbEntity
  8
0
100
AcDbCircle
 62
7
  6
CONTINUOUS
 10
240.146903499
 20
23.1354249953
 40
0.1030959439
100
AcDbArc
 50
90.0
 51
180.0
  0
LINE
  5
23E
100
AcDbEntity
  8
0
100
AcDbLine
 62
7
  6
CONTINUOUS
 10
240.1469034999
 20
23.2385209392
 11
242.4582043307
 21
23.2385209392
  0
ARC
  5
23F
100
AcDbEntity
  8
0
100
AcDbCircle
 62
7
  6
CONTINUOUS
 10
242.4582043307
 20
23.3416168831
 40
0.1030959439
100
AcDbArc
 50
270.0
 51
360.0
  0
LINE
  5
240
100
AcDbEntity
  8
0
100
AcDbLine
 62
7
  6
CONTINUOUS
 10
242.5613002746
 20
23.3416168831
 11
242.5613002746
 21
23.5519929325
  0
ARC
  5
241
100
AcDbEntity
  8
0
100
AcDbCircle
 62
7
  6
CONTINUOUS
 10
242.4582043307
 20
23.5519929325
 40
0.1030959439
100
AcDbArc
 50
0.0
 51
90.0
  0
LINE
  5
242
100
AcDbEntity
  8
0
100
AcDbLine
 62
7
  6
CONTINUOUS
 10
242.4582043307
 20
23.6550888764
 11
239.5632052751
 21
23.6550888764
  0
SPLINE
  5
243
100
AcDbEntity
  8
0
100
AcDbSpline
 62
7
  6
CONTINUOUS
 70
0
 71
3
 72
13
 73
9
 74
0
 42
0.0000001
 43
0.0000001
 44
0.0000000001
 40
0.0
 40
0.0
 40
0.0
 40
0.0
 40
0.1133740464
 40
0.2392044088
 40
0.3655787964
 40
0.4912154373
 40
0.7445390876
 40
1.0
 40
1.0
 40
1.0
 40
1.0
 10
239.5632052751
 20
23.6550888764
 30
0.0
 10
239.5301333905
 20
23.653459932
 30
0.0
 10
239.4603560414
 20
23.6500230701
 30
0.0
 10
239.3567086912
 20
23.6190563381
 30
0.0
 10
239.2639860359
 20
23.5565248621
 30
0.0
 10
239.1692690166
 20
23.4413394976
 30
0.0
 10
239.1096670594
 20
23.2605138006
 30
0.0
 10
239.1032032181
 20
23.1122504435
 30
0.0
 10
239.0999577229
 20
23.0378073573
 30
0.0
  0
SPLINE
  5
244
100
AcDbEntity
  8
0
100
AcDbSpline
 62
7
  6
CONTINUOUS
 70
0
 71
3
 72
13
 73
9
 74
0
 42
0.0000001
 43
0.0000001
 44
0.0000000001
 40
0.0
 40
0.0
 40
0.0
 40
0.0
 40
0.2554609124
 40
0.5087845627
 40
0.6344212036
 40
0.7607955912
 40
0.8866259536
 40
1.0
 40
1.0
 40
1.0
 40
1.0
 10
239.0999577229
 20
23.0378073573
 30
0.0
 10
239.1032032181
 20
22.9633642711
 30
0.0
 10
239.1096670594
 20
22.8151009125
 30
0.0
 10
239.1692690166
 20
22.634275217
 30
0.0
 10
239.2639860359
 20
22.5190898525
 30
0.0
 10
239.3567086912
 20
22.4565583765
 30
0.0
 10
239.4603560414
 20
22.4255916445
 30
0.0
 10
239.5301333905
 20
22.4221547826
 30
0.0
 10
239.5632052751
 20
22.4205258382
 30
0.0
  0
LINE
  5
245
100
AcDbEntity
  8
0
100
AcDbLine
 62
7
  6
CONTINUOUS
 10
235.7539233817
 20
21.6023014089
 11
237.3558191889
 21
21.6023014089
  0
LINE
  5
246
100
AcDbEntity
  8
0
100
AcDbLine
 62
7
  6
CONTINUOUS
 10
237.3558191889
 20
21.6023014089
 11
237.3558191889
 21
21.4030744959
  0
ARC
  5
247
100
AcDbEntity
  8
0
100
AcDbCircle
 62
7
  6
CONTINUOUS
 10
237.395471475
 20
21.4030744959
 40
0.0396522861
100
AcDbArc
 50
180.0
 51
270.0
  0
LINE
  5
248
100
AcDbEntity
  8
0
100
AcDbLine
 62
7
  6
CONTINUOUS
 10
237.395471475
 20
21.3634222098
 11
238.0128978995
 21
21.3634222098
  0
ARC
  5
249
100
AcDbEntity
  8
0
100
AcDbCircle
 62
7
  6
CONTINUOUS
 10
238.0128978995
 20
21.4030744959
 40
0.0396522861
100
AcDbArc
 50
270.0
 51
360.0
  0
LINE
  5
24A
100
AcDbEntity
  8
0
100
AcDbLine
 62
7
  6
CONTINUOUS
 10
238.0525501856
 20
21.4030744959
 11
238.0525501856
 21
21.6023014089
  0
LINE
  5
24B
100
AcDbEntity
  8
0
100
AcDbLine
 62
7
  6
CONTINUOUS
 10
238.0525501856
 20
21.6023014089
 11
238.3675428552
 21
21.6023014089
  0
SPLINE
  5
24C
100
AcDbEntity
  8
0
100
AcDbSpline
 62
7
  6
CONTINUOUS
 70
0
 71
3
 72
12
 73
8
 74
0
 42
0.0000001
 43
0.0000001
 44
0.0000000001
 40
0.0
 40
0.0
 40
0.0
 40
0.0
 40
0.2415790084
 40
0.4893269843
 40
0.7378634303
 40
0.8656387112
 40
1.0
 40
1.0
 40
1.0
 40
1.0
 10
238.3675428552
 20
21.6023014089
 30
0.0
 10
238.4240241441
 20
21.6040573485
 30
0.0
 10
238.538429031
 20
21.6076140682
 30
0.0
 10
238.7058486455
 20
21.6673203553
 30
0.0
 10
238.8075258734
 20
21.7800300245
 30
0.0
 10
238.8523214845
 20
21.8926478337
 30
0.0
 10
238.853128767
 20
21.9543396313
 30
0.0
 10
238.8535425497
 20
21.9859605118
 30
0.0
  0
LINE
  5
24D
100
AcDbEntity
  8
0
100
AcDbLine
 62
7
  6
CONTINUOUS
 10
238.8535425497
 20
21.9859605118
 11
238.8535425497
 21
23.2690220994
  0
SPLINE
  5
24E
100
AcDbEntity
  8
0
100
AcDbSpline
 62
7
  6
CONTINUOUS
 70
0
 71
3
 72
12
 73
8
 74
0
 42
0.0000001
 43
0.0000001
 44
0.0000000001
 40
0.0
 40
0.0
 40
0.0
 40
0.0
 40
0.1343612888
 40
0.2621365697
 40
0.5106730157
 40
0.7584209916
 40
1.0
 40
1.0
 40
1.0
 40
1.0
 10
238.8535425497
 20
23.2690220994
 30
0.0
 10
238.853128767
 20
23.3006429816
 30
0.0
 10
238.8523214845
 20
23.3623347791
 30
0.0
 10
238.8075258734
 20
23.4749525883
 30
0.0
 10
238.7058486455
 20
23.5876622575
 30
0.0
 10
238.538429031
 20
23.647368543
 30
0.0
 10
238.4240241441
 20
23.6509252627
 30
0.0
 10
238.3675428552
 20
23.6526812023
 30
0.0
  0
LINE
  5
24F
100
AcDbEntity
  8
0
100
AcDbLine
 62
7
  6
CONTINUOUS
 10
238.3675428552
 20
23.6526812023
 11
235.7539233817
 21
23.6526812023
  0
SPLINE
  5
250
100
AcDbEntity
  8
0
100
AcDbSpline
 62
7
  6
CONTINUOUS
 70
0
 71
3
 72
12
 73
8
 74
0
 42
0.0000001
 43
0.0000001
 44
0.0000000001
 40
0.0
 40
0.0
 40
0.0
 40
0.0
 40
0.1341799809
 40
0.290831959
 40
0.5815217441
 40
0.760783857
 40
1.0
 40
1.0
 40
1.0
 40
1.0
 10
235.7539233817
 20
23.6526812023
 30
0.0
 10
235.6969157007
 20
23.6429380488
 30
0.0
 10
235.5733528915
 20
23.6218199898
 30
0.0
 10
235.3653547326
 20
23.4664250485
 30
0.0
 10
235.2668362486
 20
23.2049886646
 30
0.0
 10
235.2091939645
 20
22.9086264282
 30
0.0
 10
235.2048669389
 20
22.7293730394
 30
0.0
 10
235.2023934658
 20
22.6269058174
 30
0.0
  0
SPLINE
  5
251
100
AcDbEntity
  8
0
100
AcDbSpline
 62
7
  6
CONTINUOUS
 70
0
 71
3
 72
12
 73
8
 74
0
 42
0.0000001
 43
0.0000001
 44
0.0000000001
 40
0.0
 40
0.0
 40
0.0
 40
0.0
 40
0.2392679579
 40
0.4185688994
 40
0.7093216488
 40
0.8660075581
 40
1.0
 40
1.0
 40
1.0
 40
1.0
 10
235.2023934658
 20
22.6269058174
 30
0.0
 10
235.2048679271
 20
22.5244425892
 30
0.0
 10
235.2091966799
 20
22.3451961871
 30
0.0
 10
235.2668265258
 20
22.0487836589
 30
0.0
 10
235.365405202
 20
21.7875906687
 30
0.0
 10
235.5731868055
 20
21.6316911283
 30
0.0
 10
235.6968972434
 20
21.6115744751
 30
0.0
 10
235.7539233817
 20
21.6023014089
 30
0.0
  0
LINE
  5
252
100
AcDbEntity
  8
0
100
AcDbLine
 62
7
  6
CONTINUOUS
 10
238.32559293
 20
22.1301871535
 11
238.32559293
 21
23.1582121395
  0
ARC
  5
253
100
AcDbEntity
  8
0
100
AcDbCircle
 62
7
  6
CONTINUOUS
 10
236.1626767891
 20
22.1301871535
 40
0.1030959439
100
AcDbArc
 50
180.0
 51
270.0
  0
LINE
  5
254
100
AcDbEntity
  8
0
100
AcDbLine
 62
7
  6
CONTINUOUS
 10
236.1626767891
 20
22.0270912096
 11
237.3468008982
 21
22.0270912096
  0
LINE
  5
255
100
AcDbEntity
  8
0
100
AcDbLine
 62
7
  6
CONTINUOUS
 10
237.3468008982
 20
22.0270912096
 11
237.3468008982
 21
22.2257008301
  0
ARC
  5
256
100
AcDbEntity
  8
0
100
AcDbCircle
 62
7
  6
CONTINUOUS
 10
237.386453185
 20
22.2257008301
 40
0.0396522861
100
AcDbArc
 50
90.0
 51
180.0
  0
LINE
  5
257
100
AcDbEntity
  8
0
100
AcDbLine
 62
7
  6
CONTINUOUS
 10
237.3864531843
 20
22.2653531162
 11
238.000733065
 21
22.2653531162
  0
ARC
  5
258
100
AcDbEntity
  8
0
100
AcDbCircle
 62
7
  6
CONTINUOUS
 10
238.0007330635
 20
22.2257008316
 40
0.0396522861
100
AcDbArc
 50
0.0
 51
90.0
  0
LINE
  5
259
100
AcDbEntity
  8
0
100
AcDbLine
 62
7
  6
CONTINUOUS
 10
238.0403853511
 20
22.0270912096
 11
238.2224969861
 21
22.0270912096
  0
ARC
  5
25A
100
AcDbEntity
  8
0
100
AcDbCircle
 62
7
  6
CONTINUOUS
 10
238.2224969861
 20
22.1301871535
 40
0.1030959439
100
AcDbArc
 50
270.0
 51
360.0
  0
LINE
  5
25B
100
AcDbEntity
  8
0
100
AcDbLine
 62
7
  6
CONTINUOUS
 10
238.0403853511
 20
22.0270912096
 11
238.0403853511
 21
22.2257008301
  0
LINE
  5
25C
100
AcDbEntity
  8
0
100
AcDbLine
 62
7
  6
CONTINUOUS
 10
236.0595808452
 20
22.1301871535
 11
236.0595808452
 21
23.1582121395
  0
ARC
  5
25D
100
AcDbEntity
  8
0
100
AcDbCircle
 62
7
  6
CONTINUOUS
 10
236.1626767905
 20
23.1582121395
 40
0.1030959439
100
AcDbArc
 50
90.0
 51
180.0
  0
LINE
  5
25E
100
AcDbEntity
  8
0
100
AcDbLine
 62
7
  6
CONTINUOUS
 10
236.1626767891
 20
23.2613080834
 11
238.2224969861
 21
23.2613080834
  0
ARC
  5
25F
100
AcDbEntity
  8
0
100
AcDbCircle
 62
7
  6
CONTINUOUS
 10
238.222496987
 20
23.1582121386
 40
0.1030959439
100
AcDbArc
 50
0.0000000277
 51
90.0000000277
  0
ARC
  5
260
100
AcDbEntity
  8
0
100
AcDbCircle
 62
7
  6
CONTINUOUS
 10
240.1469034999
 20
22.9403571265
 40
0.1030959439
100
AcDbArc
 50
180.0
 51
270.0
  0
ARC
  5
261
100
AcDbEntity
  8
0
100
AcDbCircle
 62
7
  6
CONTINUOUS
 10
241.5433047269
 20
22.1069186258
 40
0.1030959439
100
AcDbArc
 50
270.0
 51
360.0
  0
ARC
  5
262
100
AcDbEntity
  8
0
100
AcDbCircle
 62
7
  6
CONTINUOUS
 10
243.7991993771
 20
22.1158496767
 40
0.1030959439
100
AcDbArc
 50
180.0
 51
270.0
  0
ENDBLK
  5
263
100
AcDbEntity
  8
0
  6
BYBLOCK
 62
0
100
AcDbBlockEnd
  0
BLOCK
  5
264
100
AcDbEntity
  8
0
100
AcDbBlockBegin
  2
_FILLED
 70
64
 10
0.0
 20
0.0
  3
_FILLED
  1

  0
SOLID
  5
265
100
AcDbEntity
  8
0
  6
BYBLOCK
 62
0
100
AcDbTrace
 10
0.0
 20
0.0
 11
-1.0
 21
0.1666666667
 12
-1.0
 22
-0.1666666667
 13
-1.0
 23
-0.1666666667
  0
ENDBLK
  5
266
100
AcDbEntity
  8
0
  6
BYBLOCK
 62
0
100
AcDbBlockEnd
  0
BLOCK
  5
267
100
AcDbEntity
  8
0
100
AcDbBlockBegin
 62
2
  6
CONTINUOUS
  2
*D0
 70
65
 10
0.0
 20
0.0
  3
*D0
  1

  0
MTEXT
  5
268
100
AcDbEntity
  8
0
100
AcDbMText
 62
2
  6
CONTINUOUS
  7
STANDARD
 71
2
 72
1
 10
117.1911025006
 20
86.635269904
 30
0.0
 11
1.0
 21
0.0
 31
0.0
 44
0.9
  1
2013,6\P[79.3]
 40
1.3020833333
 41
8.2310267857
  0
LINE
  5
269
100
AcDbEntity
  8
0
100
AcDbLine
 62
2
  6
CONTINUOUS
 10
99.4077942556
 20
43.6002948082
 11
118.2327691672
 21
43.6002948082
  0
LINE
  5
26A
100
AcDbEntity
  8
0
100
AcDbLine
 62
2
  6
CONTINUOUS
 10
100.7077942556
 20
122.876479285
 11
118.2327691672
 21
122.876479285
  0
LINE
  5
26B
100
AcDbEntity
  8
0
100
AcDbLine
 62
2
  6
CONTINUOUS
 10
117.1911025006
 20
43.6002948082
 11
117.1911025006
 21
82.729019904
  0
LINE
  5
26C
100
AcDbEntity
  8
0
100
AcDbLine
 62
2
  6
CONTINUOUS
 10
117.1911025006
 20
122.876479285
 11
117.1911025006
 21
87.2863115706
  0
INSERT
  5
26D
100
AcDbEntity
  8
0
100
AcDbBlockReference
 62
2
  6
CONTINUOUS
  2
_FILLED
 10
117.1911025006
 20
43.6002948082
 41
1.5625
 42
1.5625
 43
1.5625
 50
270.0
  0
INSERT
  5
26E
100
AcDbEntity
  8
0
100
AcDbBlockReference
 62
2
  6
CONTINUOUS
  2
_FILLED
 10
117.1911025006
 20
122.876479285
 41
1.5625
 42
1.5625
 43
1.5625
 50
90.0
  0
ENDBLK
  5
26F
100
AcDbEntity
  8
0
  6
BYBLOCK
 62
0
100
AcDbBlockEnd
  0
BLOCK
  5
270
100
AcDbEntity
  8
0
100
AcDbBlockBegin
 62
2
  6
CONTINUOUS
  2
*D1
 70
65
 10
0.0
 20
0.0
  3
*D1
  1

  0
MTEXT
  5
271
100
AcDbEntity
  8
0
100
AcDbMText
 62
2
  6
CONTINUOUS
  7
STANDARD
 71
2
 72
1
 10
84.989212149
 20
129.2146193598
 30
0.0
 11
1.0
 21
0.0
 31
0.0
 44
0.9
  1
762\P[30.0]
 40
1.3020833333
 41
7.2544642857
  0
LINE
  5
272
100
AcDbEntity
  8
0
100
AcDbLine
 62
2
  6
CONTINUOUS
 10
70.2619609223
 20
122.8736207104
 11
70.2619609223
 21
129.6052443598
  0
LINE
  5
273
100
AcDbEntity
  8
0
100
AcDbLine
 62
2
  6
CONTINUOUS
 10
100.2619609223
 20
122.8736207104
 11
100.2619609223
 21
129.6052443598
  0
LINE
  5
274
100
AcDbEntity
  8
0
100
AcDbLine
 62
2
  6
CONTINUOUS
 10
70.2619609223
 20
128.5635776931
 11
82.803572268
 21
128.5635776931
  0
LINE
  5
275
100
AcDbEntity
  8
0
100
AcDbLine
 62
2
  6
CONTINUOUS
 10
100.2619609223
 20
128.5635776931
 11
88.9419651252
 21
128.5635776931
  0
INSERT
  5
276
100
AcDbEntity
  8
0
100
AcDbBlockReference
 62
2
  6
CONTINUOUS
  2
_FILLED
 10
70.2619609223
 20
128.5635776931
 41
1.5625
 42
1.5625
 43
1.5625
 50
180.0
  0
INSERT
  5
277
100
AcDbEntity
  8
0
100
AcDbBlockReference
 62
2
  6
CONTINUOUS
  2
_FILLED
 10
100.2619609223
 20
128.5635776931
 41
1.5625
 42
1.5625
 43
1.5625
  0
ENDBLK
  5
278
100
AcDbEntity
  8
0
  6
BYBLOCK
 62
0
100
AcDbBlockEnd
  0
BLOCK
  5
279
100
AcDbEntity
  8
0
100
AcDbBlockBegin
 62
2
  6
CONTINUOUS
  2
*D2
 70
65
 10
0.0
 20
0.0
  3
*D2
  1

  0
MTEXT
  5
27A
100
AcDbEntity
  8
0
100
AcDbMText
 62
2
  6
CONTINUOUS
  7
STANDARD
 71
2
 72
1
 10
110.2576498827
 20
158.0363573975
 30
0.0
 11
1.0
 21
0.0
 31
0.0
 44
0.9
  1
514,4\P[20.3]
 40
1.3020833333
 41
7.2544642857
  0
LINE
  5
27B
100
AcDbEntity
  8
0
100
AcDbLine
 62
2
  6
CONTINUOUS
 10
100.7077942556
 20
146.3818154762
 11
111.4853284541
 21
146.3818154762
  0
LINE
  5
27C
100
AcDbEntity
  8
0
100
AcDbLine
 62
2
  6
CONTINUOUS
 10
100.7827942556
 20
166.6318154762
 11
111.4853284541
 21
166.6318154762
  0
LINE
  5
27D
100
AcDbEntity
  8
0
100
AcDbLine
 62
2
  6
CONTINUOUS
 10
110.4436617875
 20
146.3818154762
 11
110.4436617875
 21
154.1301073975
  0
LINE
  5
27E
100
AcDbEntity
  8
0
100
AcDbLine
 62
2
  6
CONTINUOUS
 10
110.4436617875
 20
166.6318154762
 11
110.4436617875
 21
158.6873990642
  0
INSERT
  5
27F
100
AcDbEntity
  8
0
100
AcDbBlockReference
 62
2
  6
CONTINUOUS
  2
_FILLED
 10
110.4436617875
 20
146.3818154762
 41
1.5625
 42
1.5625
 43
1.5625
 50
270.0
  0
INSERT
  5
280
100
AcDbEntity
  8
0
100
AcDbBlockReference
 62
2
  6
CONTINUOUS
  2
_FILLED
 10
110.4436617875
 20
166.6318154762
 41
1.5625
 42
1.5625
 43
1.5625
 50
90.0
  0
ENDBLK
  5
281
100
AcDbEntity
  8
0
  6
BYBLOCK
 62
0
100
AcDbBlockEnd
  0
BLOCK
  5
282
100
AcDbEntity
  8
0
100
AcDbBlockBegin
 62
2
  6
CONTINUOUS
  2
*D3
 70
65
 10
0.0
 20
0.0
  3
*D3
  1

  0
MTEXT
  5
283
100
AcDbEntity
  8
0
100
AcDbMText
 62
2
  6
CONTINUOUS
  7
STANDARD
 71
2
 72
1
 10
85.3421402302
 20
173.5709627673
 30
0.0
 11
1.0
 21
0.0
 31
0.0
 44
0.9
  1
549,5\P[21.6]
 40
1.3020833333
 41
6.9754464286
  0
LINE
  5
284
100
AcDbEntity
  8
0
100
AcDbLine
 62
2
  6
CONTINUOUS
 10
74.4442627124
 20
167.0066488095
 11
74.4442627124
 21
173.9615877673
  0
LINE
  5
285
100
AcDbEntity
  8
0
100
AcDbLine
 62
2
  6
CONTINUOUS
 10
96.0796591322
 20
167.0066488095
 11
96.0796591322
 21
173.9615877673
  0
LINE
  5
286
100
AcDbEntity
  8
0
100
AcDbLine
 62
2
  6
CONTINUOUS
 10
74.4442627124
 20
172.9199211007
 11
82.365949754
 21
172.9199211007
  0
LINE
  5
287
100
AcDbEntity
  8
0
100
AcDbLine
 62
2
  6
CONTINUOUS
 10
96.0796591322
 20
172.9199211007
 11
88.3183307064
 21
172.9199211007
  0
INSERT
  5
288
100
AcDbEntity
  8
0
100
AcDbBlockReference
 62
2
  6
CONTINUOUS
  2
_FILLED
 10
74.4442627124
 20
172.9199211007
 41
1.5625
 42
1.5625
 43
1.5625
 50
180.0
  0
INSERT
  5
289
100
AcDbEntity
  8
0
100
AcDbBlockReference
 62
2
  6
CONTINUOUS
  2
_FILLED
 10
96.0796591322
 20
172.9199211007
 41
1.5625
 42
1.5625
 43
1.5625
  0
ENDBLK
  5
28A
100
AcDbEntity
  8
0
  6
BYBLOCK
 62
0
100
AcDbBlockEnd
  0
BLOCK
  5
28B
100
AcDbEntity
  8
0
100
AcDbBlockBegin
 62
2
  6
CONTINUOUS
  2
*D4
 70
65
 10
0.0
 20
0.0
  3
*D4
  1

  0
MTEXT
  5
28C
100
AcDbEntity
  8
0
100
AcDbMText
 62
2
  6
CONTINUOUS
  7
STANDARD
 71
2
 72
1
 10
200.4285328634
 20
105.2087825657
 30
0.0
 11
1.0
 21
0.0
 31
0.0
 44
0.9
  1
1004,6\P[39.6]
 40
1.3020833333
 41
8.3705357143
  0
LINE
  5
28D
100
AcDbEntity
  8
0
100
AcDbLine
 62
2
  6
CONTINUOUS
 10
181.2616517857
 20
83.326672761
 11
201.4701995301
 21
83.326672761
  0
LINE
  5
28E
100
AcDbEntity
  8
0
100
AcDbLine
 62
2
  6
CONTINUOUS
 10
161.2616517857
 20
122.876479285
 11
201.4701995301
 21
122.876479285
  0
LINE
  5
28F
100
AcDbEntity
  8
0
100
AcDbLine
 62
2
  6
CONTINUOUS
 10
200.4285328634
 20
83.326672761
 11
200.4285328634
 21
101.3025325657
  0
LINE
  5
290
100
AcDbEntity
  8
0
100
AcDbLine
 62
2
  6
CONTINUOUS
 10
200.4285328634
 20
122.876479285
 11
200.4285328634
 21
105.8598242324
  0
INSERT
  5
291
100
AcDbEntity
  8
0
100
AcDbBlockReference
 62
2
  6
CONTINUOUS
  2
_FILLED
 10
200.4285328634
 20
83.326672761
 41
1.5625
 42
1.5625
 43
1.5625
 50
270.0
  0
INSERT
  5
292
100
AcDbEntity
  8
0
100
AcDbBlockReference
 62
2
  6
CONTINUOUS
  2
_FILLED
 10
200.4285328634
 20
122.876479285
 41
1.5625
 42
1.5625
 43
1.5625
 50
90.0
  0
ENDBLK
  5
293
100
AcDbEntity
  8
0
  6
BYBLOCK
 62
0
100
AcDbBlockEnd
  0
BLOCK
  5
294
100
AcDbEntity
  8
0
100
AcDbBlockBegin
 62
2
  6
CONTINUOUS
  2
*D5
 70
65
 10
0.0
 20
0.0
  3
*D5
  1

  0
MTEXT
  5
295
100
AcDbEntity
  8
0
100
AcDbMText
 62
2
  6
CONTINUOUS
  7
STANDARD
 71
2
 72
1
 10
200.4285328634
 20
66.9268565166
 30
0.0
 11
1.0
 21
0.0
 31
0.0
 44
0.9
  1
1009,1\P[39.7]
 40
1.3020833333
 41
7.9520089286
  0
LINE
  5
296
100
AcDbEntity
  8
0
100
AcDbLine
 62
2
  6
CONTINUOUS
 10
181.2616517857
 20
83.326672761
 11
201.4701995301
 21
83.326672761
  0
LINE
  5
297
100
AcDbEntity
  8
0
100
AcDbLine
 62
2
  6
CONTINUOUS
 10
179.3866517857
 20
43.6002948082
 11
201.4701995301
 21
43.6002948082
  0
LINE
  5
298
100
AcDbEntity
  8
0
100
AcDbLine
 62
2
  6
CONTINUOUS
 10
200.4285328634
 20
83.326672761
 11
200.4285328634
 21
67.5778981833
  0
LINE
  5
299
100
AcDbEntity
  8
0
100
AcDbLine
 62
2
  6
CONTINUOUS
 10
200.4285328634
 20
43.6002948082
 11
200.4285328634
 21
63.0206065166
  0
INSERT
  5
29A
100
AcDbEntity
  8
0
100
AcDbBlockReference
 62
2
  6
CONTINUOUS
  2
_FILLED
 10
200.4285328634
 20
83.326672761
 41
1.5625
 42
1.5625
 43
1.5625
 50
90.0
  0
INSERT
  5
29B
100
AcDbEntity
  8
0
100
AcDbBlockReference
 62
2
  6
CONTINUOUS
  2
_FILLED
 10
200.4285328634
 20
43.6002948082
 41
1.5625
 42
1.5625
 43
1.5625
 50
270.0
  0
ENDBLK
  5
29C
100
AcDbEntity
  8
0
  6
BYBLOCK
 62
0
100
AcDbBlockEnd
  0
BLOCK
  5
29D
100
AcDbEntity
  8
0
100
AcDbBlockBegin
 62
2
  6
CONTINUOUS
  2
*D6
 70
65
 10
0.0
 20
0.0
  3
*D6
  1

  0
MTEXT
  5
29E
100
AcDbEntity
  8
0
100
AcDbMText
 62
2
  6
CONTINUOUS
  7
STANDARD
 71
2
 72
1
 10
192.6290095953
 20
58.6623722203
 30
0.0
 11
1.0
 21
0.0
 31
0.0
 44
0.9
  1
581,1\P[22.9]
 40
1.3020833333
 41
7.3939732143
  0
LINE
  5
29F
100
AcDbEntity
  8
0
100
AcDbLine
 62
2
  6
CONTINUOUS
 10
179.3866517857
 20
43.6002948082
 11
194.0427000715
 21
43.6002948082
  0
LINE
  5
2A0
100
AcDbEntity
  8
0
100
AcDbLine
 62
2
  6
CONTINUOUS
 10
177.0616517857
 20
66.476672761
 11
194.0427000715
 21
66.476672761
  0
LINE
  5
2A1
100
AcDbEntity
  8
0
100
AcDbLine
 62
2
  6
CONTINUOUS
 10
193.0010334048
 20
43.6002948082
 11
193.0010334048
 21
54.7561222203
  0
LINE
  5
2A2
100
AcDbEntity
  8
0
100
AcDbLine
 62
2
  6
CONTINUOUS
 10
193.0010334048
 20
66.476672761
 11
193.0010334048
 21
59.313413887
  0
INSERT
  5
2A3
100
AcDbEntity
  8
0
100
AcDbBlockReference
 62
2
  6
CONTINUOUS
  2
_FILLED
 10
193.0010334048
 20
43.6002948082
 41
1.5625
 42
1.5625
 43
1.5625
 50
270.0
  0
INSERT
  5
2A4
100
AcDbEntity
  8
0
100
AcDbBlockReference
 62
2
  6
CONTINUOUS
  2
_FILLED
 10
193.0010334048
 20
66.476672761
 41
1.5625
 42
1.5625
 43
1.5625
 50
90.0
  0
ENDBLK
  5
2A5
100
AcDbEntity
  8
0
  6
BYBLOCK
 62
0
100
AcDbBlockEnd
  0
BLOCK
  5
2A6
100
AcDbEntity
  8
0
100
AcDbBlockBegin
 62
2
  6
CONTINUOUS
  2
*D7
 70
65
 10
0.0
 20
0.0
  3
*D7
  1

  0
MTEXT
  5
2A7
100
AcDbEntity
  8
0
100
AcDbMText
 62
2
  6
CONTINUOUS
  7
STANDARD
 71
2
 72
1
 10
155.4834129537
 20
71.4910966622
 30
0.0
 11
1.0
 21
0.0
 31
0.0
 44
0.9
  1
180,3\P[7.1]
 40
1.3020833333
 41
6.6964285714
  0
LINE
  5
2A8
100
AcDbEntity
  8
0
100
AcDbLine
 62
2
  6
CONTINUOUS
 10
171.349985119
 20
73.576672761
 11
154.4417462871
 21
73.576672761
  0
LINE
  5
2A9
100
AcDbEntity
  8
0
100
AcDbLine
 62
2
  6
CONTINUOUS
 10
171.349985119
 20
66.476672761
 11
154.4417462871
 21
66.476672761
  0
LINE
  5
2AA
100
AcDbEntity
  8
0
100
AcDbLine
 62
2
  6
CONTINUOUS
 10
155.4834129537
 20
73.576672761
 11
155.4834129537
 21
77.7433394276
  0
LINE
  5
2AB
100
AcDbEntity
  8
0
100
AcDbLine
 62
2
  6
CONTINUOUS
 10
155.4834129537
 20
66.476672761
 11
155.4834129537
 21
62.3100060943
  0
INSERT
  5
2AC
100
AcDbEntity
  8
0
100
AcDbBlockReference
 62
2
  6
CONTINUOUS
  2
_FILLED
 10
155.4834129537
 20
73.576672761
 41
1.5625
 42
1.5625
 43
1.5625
 50
270.0
  0
INSERT
  5
2AD
100
AcDbEntity
  8
0
100
AcDbBlockReference
 62
2
  6
CONTINUOUS
  2
_FILLED
 10
155.4834129537
 20
66.476672761
 41
1.5625
 42
1.5625
 43
1.5625
 50
90.0
  0
ENDBLK
  5
2AE
100
AcDbEntity
  8
0
  6
BYBLOCK
 62
0
100
AcDbBlockEnd
  0
BLOCK
  5
2AF
100
AcDbEntity
  8
0
100
AcDbBlockBegin
 62
2
  6
CONTINUOUS
  2
*D8
 70
65
 10
0.0
 20
0.0
  3
*D8
  1

  0
MTEXT
  5
2B0
100
AcDbEntity
  8
0
100
AcDbMText
 62
2
  6
CONTINUOUS
  7
STANDARD
 71
1
 72
1
 10
179.233994736
 20
41.1082109633
 30
0.0
 11
1.0
 21
0.0
 31
0.0
 44
0.9
  1
128,3\P[5.1]
 40
1.3020833333
 41
6.6964285714
  0
LINE
  5
2B1
100
AcDbEntity
  8
0
100
AcDbLine
 62
2
  6
CONTINUOUS
 10
171.6808184524
 20
66.1458394276
 11
171.6808184524
 21
39.41550263
  0
LINE
  5
2B2
100
AcDbEntity
  8
0
100
AcDbLine
 62
2
  6
CONTINUOUS
 10
176.7308184524
 20
66.1458394276
 11
176.7308184524
 21
39.41550263
  0
LINE
  5
2B3
100
AcDbEntity
  8
0
100
AcDbLine
 62
2
  6
CONTINUOUS
 10
171.6808184524
 20
40.4571692967
 11
174.2058184524
 21
40.4571692967
  0
LINE
  5
2B4
100
AcDbEntity
  8
0
100
AcDbLine
 62
2
  6
CONTINUOUS
 10
176.7308184524
 20
40.4571692967
 11
174.2058184524
 21
40.4571692967
  0
LINE
  5
2B5
100
AcDbEntity
  8
0
100
AcDbLine
 62
2
  6
CONTINUOUS
 10
174.2058184524
 20
40.4571692967
 11
178.5829530693
 21
40.4571692967
  0
INSERT
  5
2B6
100
AcDbEntity
  8
0
100
AcDbBlockReference
 62
2
  6
CONTINUOUS
  2
_FILLED
 10
171.6808184524
 20
40.4571692967
 41
1.5625
 42
1.5625
 43
1.5625
 50
180.0
  0
INSERT
  5
2B7
100
AcDbEntity
  8
0
100
AcDbBlockReference
 62
2
  6
CONTINUOUS
  2
_FILLED
 10
176.7308184524
 20
40.4571692967
 41
1.5625
 42
1.5625
 43
1.5625
  0
ENDBLK
  5
2B8
100
AcDbEntity
  8
0
  6
BYBLOCK
 62
0
100
AcDbBlockEnd
  0
BLOCK
  5
2B9
100
AcDbEntity
  8
0
100
AcDbBlockBegin
 62
2
  6
CONTINUOUS
  2
*D9
 70
65
 10
0.0
 20
0.0
  3
*D9
  1

  0
MTEXT
  5
2BA
100
AcDbEntity
  8
0
100
AcDbMText
 62
2
  6
CONTINUOUS
  7
STANDARD
 71
2
 72
1
 10
165.5245009644
 20
41.1082109633
 30
0.0
 11
1.0
 21
0.0
 31
0.0
 44
0.9
  1
285\P[11.2]
 40
1.3020833333
 41
6.5569196429
  0
LINE
  5
2BB
100
AcDbEntity
  8
0
100
AcDbLine
 62
2
  6
CONTINUOUS
 10
171.6808184524
 20
66.1458394276
 11
171.6808184524
 21
39.41550263
  0
LINE
  5
2BC
100
AcDbEntity
  8
0
100
AcDbLine
 62
2
  6
CONTINUOUS
 10
160.4608184524
 20
45.1454063568
 11
160.4608184524
 21
39.41550263
  0
LINE
  5
2BD
100
AcDbEntity
  8
0
100
AcDbLine
 62
2
  6
CONTINUOUS
 10
171.6808184524
 20
40.4571692967
 11
169.0587271548
 21
40.4571692967
  0
LINE
  5
2BE
100
AcDbEntity
  8
0
100
AcDbLine
 62
2
  6
CONTINUOUS
 10
160.4608184524
 20
40.4571692967
 11
163.3853640596
 21
40.4571692967
  0
INSERT
  5
2BF
100
AcDbEntity
  8
0
100
AcDbBlockReference
 62
2
  6
CONTINUOUS
  2
_FILLED
 10
171.6808184524
 20
40.4571692967
 41
1.5625
 42
1.5625
 43
1.5625
  0
INSERT
  5
2C0
100
AcDbEntity
  8
0
100
AcDbBlockReference
 62
2
  6
CONTINUOUS
  2
_FILLED
 10
160.4608184524
 20
40.4571692967
 41
1.5625
 42
1.5625
 43
1.5625
 50
180.0
  0
ENDBLK
  5
2C1
100
AcDbEntity
  8
0
  6
BYBLOCK
 62
0
100
AcDbBlockEnd
  0
BLOCK
  5
2C2
100
AcDbEntity
  8
0
100
AcDbBlockBegin
 62
2
  6
CONTINUOUS
  2
*D10
 70
65
 10
0.0
 20
0.0
  3
*D10
  1

  0
MTEXT
  5
2C3
100
AcDbEntity
  8
0
100
AcDbMText
 62
2
  6
CONTINUOUS
  7
STANDARD
 71
1
 72
1
 10
189.1743693195
 20
40.9388444014
 30
0.0
 11
1.0
 21
0.0
 31
0.0
 44
0.9
  1
19,1\P[.8]
 40
1.3020833333
 41
4.8828125
  0
LINE
  5
2C4
100
AcDbEntity
  8
0
100
AcDbLine
 62
2
  6
CONTINUOUS
 10
181.2616517857
 20
44.3502948082
 11
188.1327026528
 21
44.3502948082
  0
LINE
  5
2C5
100
AcDbEntity
  8
0
100
AcDbLine
 62
2
  6
CONTINUOUS
 10
179.3866517857
 20
43.6002948082
 11
188.1327026528
 21
43.6002948082
  0
LINE
  5
2C6
100
AcDbEntity
  8
0
100
AcDbLine
 62
2
  6
CONTINUOUS
 10
187.0910359861
 20
44.3502948082
 11
187.0910359861
 21
48.5169614749
  0
LINE
  5
2C7
100
AcDbEntity
  8
0
100
AcDbLine
 62
2
  6
CONTINUOUS
 10
187.0910359861
 20
43.6002948082
 11
187.0910359861
 21
40.2878027347
  0
LINE
  5
2C8
100
AcDbEntity
  8
0
100
AcDbLine
 62
2
  6
CONTINUOUS
 10
187.0910359861
 20
40.2878027347
 11
188.5233276528
 21
40.2878027347
  0
INSERT
  5
2C9
100
AcDbEntity
  8
0
100
AcDbBlockReference
 62
2
  6
CONTINUOUS
  2
_FILLED
 10
187.0910359861
 20
44.3502948082
 41
1.5625
 42
1.5625
 43
1.5625
 50
270.0
  0
INSERT
  5
2CA
100
AcDbEntity
  8
0
100
AcDbBlockReference
 62
2
  6
CONTINUOUS
  2
_FILLED
 10
187.0910359861
 20
43.6002948082
 41
1.5625
 42
1.5625
 43
1.5625
 50
90.0
  0
ENDBLK
  5
2CB
100
AcDbEntity
  8
0
  6
BYBLOCK
 62
0
100
AcDbBlockEnd
  0
ENDSEC
  0
SECTION
  2
ENTITIES
  0
MTEXT
  5
2CC
100
AcDbEntity
  8
0
100
AcDbMText
 62
2
  6
CONTINUOUS
  7
STANDARD
 71
1
 72
1
 10
20.5242312061
 20
3.040972363
 30
0.0
 11
1.0
 21
0.0
 31
0.0
 44
0.9
  1
8
 40
1.3020833333
 41
1.5345982143
  0
MTEXT
  5
2CD
100
AcDbEntity
  8
0
100
AcDbMText
 62
2
  6
CONTINUOUS
  7
STANDARD
 71
1
 72
1
 10
54.3783978728
 20
3.040972363
 30
0.0
 11
1.0
 21
0.0
 31
0.0
 44
0.9
  1
7
 40
1.3020833333
 41
1.5345982143
  0
MTEXT
  5
2CE
100
AcDbEntity
  8
0
100
AcDbMText
 62
2
  6
CONTINUOUS
  7
STANDARD
 71
1
 72
1
 10
88.2325645394
 20
3.040972363
 30
0.0
 11
1.0
 21
0.0
 31
0.0
 44
0.9
  1
6
 40
1.3020833333
 41
1.5345982143
  0
MTEXT
  5
2CF
100
AcDbEntity
  8
0
100
AcDbMText
 62
2
  6
CONTINUOUS
  7
STANDARD
 71
1
 72
1
 10
122.0867312061
 20
3.040972363
 30
0.0
 11
1.0
 21
0.0
 31
0.0
 44
0.9
  1
5
 40
1.3020833333
 41
1.3950892857
  0
MTEXT
  5
2D0
100
AcDbEntity
  8
0
100
AcDbMText
 62
2
  6
CONTINUOUS
  7
STANDARD
 71
1
 72
1
 10
155.9408978728
 20
3.040972363
 30
0.0
 11
1.0
 21
0.0
 31
0.0
 44
0.9
  1
4
 40
1.3020833333
 41
1.5345982143
  0
MTEXT
  5
2D1
100
AcDbEntity
  8
0
100
AcDbMText
 62
2
  6
CONTINUOUS
  7
STANDARD
 71
1
 72
1
 10
189.7950645394
 20
3.040972363
 30
0.0
 11
1.0
 21
0.0
 31
0.0
 44
0.9
  1
3
 40
1.3020833333
 41
1.3950892857
  0
MTEXT
  5
2D2
100
AcDbEntity
  8
0
100
AcDbMText
 62
2
  6
CONTINUOUS
  7
STANDARD
 71
1
 72
1
 10
223.6492312061
 20
3.040972363
 30
0.0
 11
1.0
 21
0.0
 31
0.0
 44
0.9
  1
2
 40
1.3020833333
 41
1.5345982143
  0
MTEXT
  5
2D3
100
AcDbEntity
  8
0
100
AcDbMText
 62
2
  6
CONTINUOUS
  7
STANDARD
 71
1
 72
1
 10
257.5033978728
 20
3.040972363
 30
0.0
 11
1.0
 21
0.0
 31
0.0
 44
0.9
  1
1
 40
1.3020833333
 41
1.1160714286
  0
MTEXT
  5
2D4
100
AcDbEntity
  8
0
100
AcDbMText
 62
2
  6
CONTINUOUS
  7
STANDARD
 71
1
 72
1
 10
20.5242312061
 20
182.2076390296
 30
0.0
 11
1.0
 21
0.0
 31
0.0
 44
0.9
  1
8
 40
1.3020833333
 41
1.9066220238
  0
MTEXT
  5
2D5
100
AcDbEntity
  8
0
100
AcDbMText
 62
2
  6
CONTINUOUS
  7
STANDARD
 71
1
 72
1
 10
54.3783978728
 20
182.2076390296
 30
0.0
 11
1.0
 21
0.0
 31
0.0
 44
0.9
  1
7
 40
1.3020833333
 41
1.5345982143
  0
MTEXT
  5
2D6
100
AcDbEntity
  8
0
100
AcDbMText
 62
2
  6
CONTINUOUS
  7
STANDARD
 71
1
 72
1
 10
88.2325645394
 20
182.2076390296
 30
0.0
 11
1.0
 21
0.0
 31
0.0
 44
0.9
  1
6
 40
1.3020833333
 41
1.5345982143
  0
MTEXT
  5
2D7
100
AcDbEntity
  8
0
100
AcDbMText
 62
2
  6
CONTINUOUS
  7
STANDARD
 71
1
 72
1
 10
122.0867312061
 20
182.2076390296
 30
0.0
 11
1.0
 21
0.0
 31
0.0
 44
0.9
  1
5
 40
1.3020833333
 41
1.3950892857
  0
MTEXT
  5
2D8
100
AcDbEntity
  8
0
100
AcDbMText
 62
2
  6
CONTINUOUS
  7
STANDARD
 71
1
 72
1
 10
155.9408978728
 20
182.2076390296
 30
0.0
 11
1.0
 21
0.0
 31
0.0
 44
0.9
  1
4
 40
1.3020833333
 41
1.5345982143
  0
MTEXT
  5
2D9
100
AcDbEntity
  8
0
100
AcDbMText
 62
2
  6
CONTINUOUS
  7
STANDARD
 71
1
 72
1
 10
189.7950645394
 20
182.2076390296
 30
0.0
 11
1.0
 21
0.0
 31
0.0
 44
0.9
  1
3
 40
1.3020833333
 41
1.3950892857
  0
MTEXT
  5
2DA
100
AcDbEntity
  8
0
100
AcDbMText
 62
2
  6
CONTINUOUS
  7
STANDARD
 71
1
 72
1
 10
223.6492312061
 20
182.2076390296
 30
0.0
 11
1.0
 21
0.0
 31
0.0
 44
0.9
  1
2
 40
1.3020833333
 41
1.5345982143
  0
MTEXT
  5
2DB
100
AcDbEntity
  8
0
100
AcDbMText
 62
2
  6
CONTINUOUS
  7
STANDARD
 71
1
 72
1
 10
257.5033978728
 20
182.2076390296
 30
0.0
 11
1.0
 21
0.0
 31
0.0
 44
0.9
  1
1
 40
1.3020833333
 41
1.1160714286
  0
MTEXT
  5
2DC
100
AcDbEntity
  8
0
100
AcDbMText
 62
2
  6
CONTINUOUS
  7
STANDARD
 71
1
 72
1
 10
1.6518275773
 20
26.8290829103
 30
0.0
 11
1.0
 21
0.0
 31
0.0
 44
0.9
  1
A
 40
1.3020833333
 41
1.6741071429
  0
MTEXT
  5
2DD
100
AcDbEntity
  8
0
100
AcDbMText
 62
2
  6
CONTINUOUS
  7
STANDARD
 71
1
 72
1
 10
1.6518275773
 20
70.5790829103
 30
0.0
 11
1.0
 21
0.0
 31
0.0
 44
0.9
  1
B
 40
1.3020833333
 41
1.5345982143
  0
MTEXT
  5
2DE
100
AcDbEntity
  8
0
100
AcDbMText
 62
2
  6
CONTINUOUS
  7
STANDARD
 71
1
 72
1
 10
1.6518275773
 20
114.3290829103
 30
0.0
 11
1.0
 21
0.0
 31
0.0
 44
0.9
  1
C
 40
1.3020833333
 41
1.6276041667
  0
MTEXT
  5
2DF
100
AcDbEntity
  8
0
100
AcDbMText
 62
2
  6
CONTINUOUS
  7
STANDARD
 71
1
 72
1
 10
1.6518275773
 20
158.0790829103
 30
0.0
 11
1.0
 21
0.0
 31
0.0
 44
0.9
  1
D
 40
1.3020833333
 41
1.7671130952
  0
MTEXT
  5
2E0
100
AcDbEntity
  8
0
100
AcDbMText
 62
2
  6
CONTINUOUS
  7
STANDARD
 71
1
 72
1
 10
276.6518275773
 20
26.8290829103
 30
0.0
 11
1.0
 21
0.0
 31
0.0
 44
0.9
  1
A
 40
1.3020833333
 41
1.6741071429
  0
MTEXT
  5
2E1
100
AcDbEntity
  8
0
100
AcDbMText
 62
2
  6
CONTINUOUS
  7
STANDARD
 71
1
 72
1
 10
276.6518275773
 20
70.5790829103
 30
0.0
 11
1.0
 21
0.0
 31
0.0
 44
0.9
  1
B
 40
1.3020833333
 41
1.5345982143
  0
MTEXT
  5
2E2
100
AcDbEntity
  8
0
100
AcDbMText
 62
2
  6
CONTINUOUS
  7
STANDARD
 71
1
 72
1
 10
276.6518275773
 20
114.3290829103
 30
0.0
 11
1.0
 21
0.0
 31
0.0
 44
0.9
  1
C
 40
1.3020833333
 41
1.6276041667
  0
MTEXT
  5
2E3
100
AcDbEntity
  8
0
100
AcDbMText
 62
2
  6
CONTINUOUS
  7
STANDARD
 71
1
 72
1
 10
276.6518275773
 20
158.0790829103
 30
0.0
 11
1.0
 21
0.0
 31
0.0
 44
0.9
  1
D
 40
1.3020833333
 41
1.7671130952
  0
MTEXT
  5
2E4
100
AcDbEntity
  8
0
100
AcDbMText
 62
5
  6
CONTINUOUS
  7
STANDARD
 71
1
 72
1
 10
4.7190800883
 20
178.8015176282
 30
0.0
 11
1.0
 21
0.0
 31
0.0
 44
0.9
  1
THIS DOCUMENT CONTAINS PROPRIETARY INFORMATION\PWHICH IS THE PROPERTY OF QSC, LLC, THAT MAY NOT BE\PDISCLOSED, REPRODUCED OR USED WITHOUT EXPRESS\PWRITTEN CONSENT FROM QSC, LLC.
 40
0.625
 41
37.03125
  0
MTEXT
  5
2E5
100
AcDbEntity
  8
0
100
AcDbMText
 62
2
  6
CONTINUOUS
  7
STANDARD
 71
2
 72
1
 10
202.0776175448
 20
24.8188122108
 30
0.0
 11
1.0
 21
0.0
 31
0.0
 44
0.9
  1
UNLESS OTHERWISE SPECIFIED\PDIMENSIONS IN MILLIMETERS [IN]
 40
0.8333333333
 41
27.380952381
  0
MTEXT
  5
2E6
100
AcDbEntity
  8
0
100
AcDbMText
 62
2
  6
CONTINUOUS
  7
STANDARD
 71
2
 72
1
 10
201.9578939931
 20
21.5998791551
 30
0.0
 11
1.0
 21
0.0
 31
0.0
 44
0.9
  1
TOLERANCES ARE:
 40
0.75
 41
12.8839285714
  0
MTEXT
  5
2E7
100
AcDbEntity
  8
0
100
AcDbMText
 62
2
  6
CONTINUOUS
  7
STANDARD
 71
2
 72
1
 10
195.8273053405
 20
19.6975464395
 30
0.0
 11
1.0
 21
0.0
 31
0.0
 44
0.9
  1
DECIMALS\P.X\Fgdt;{\Fgdt;`}\Ftxt;.5[.02]
 40
0.75
 41
7.7410714286
  0
MTEXT
  5
2E8
100
AcDbEntity
  8
0
100
AcDbMText
 62
2
  6
CONTINUOUS
  7
STANDARD
 71
2
 72
1
 10
203.125
 20
19.6458333333
 30
0.0
 11
1.0
 21
0.0
 31
0.0
 44
0.9
  1
DECIMALS\P.XX\Fgdt;{\Fgdt;`}\Ftxt;.25[.010]
 40
0.75
 41
10.2321428571
  0
MTEXT
  5
2E9
100
AcDbEntity
  8
0
100
AcDbMText
 62
2
  6
CONTINUOUS
  7
STANDARD
 71
2
 72
1
 10
209.4108082865
 20
19.6875057886
 30
0.0
 11
1.0
 21
0.0
 31
0.0
 44
0.9
  1
ANGLES\P\Fgdt;{\Fgdt;`}\Ftxt; 1/2
 40
0.75
 41
5.3571428571
  0
MTEXT
  5
2EA
100
AcDbEntity
  8
0
100
AcDbMText
 62
2
  6
CONTINUOUS
  7
STANDARD
 71
2
 72
1
 10
202.0833333333
 20
16.5208333333
 30
0.0
 11
1.0
 21
0.0
 31
0.0
 44
0.9
  1
DEBURR EDGES .25 [.010] R MAX
 40
0.75
 41
24.5089285714
  0
MTEXT
  5
2EB
100
AcDbEntity
  8
0
100
AcDbMText
 62
2
  6
CONTINUOUS
  7
STANDARD
 71
2
 72
1
 10
195.49103734
 20
14.0518326464
 30
0.0
 11
1.0
 21
0.0
 31
0.0
 44
0.9
  1
MATERIAL
 40
0.75
 41
7.2053571429
  0
MTEXT
  5
2EC
100
AcDbEntity
  8
0
100
AcDbMText
 62
2
  6
CONTINUOUS
  7
STANDARD
 71
2
 72
1
 10
194.6928309669
 20
8.9762218912
 30
0.0
 11
1.0
 21
0.0
 31
0.0
 44
0.9
  1
FINISH
 40
0.75
 41
5.1160714286
  0
MTEXT
  5
2ED
100
AcDbEntity
  8
0
100
AcDbMText
 62
2
  6
CONTINUOUS
  7
STANDARD
 71
2
 72
1
 10
252.24826929
 20
5.6741880145
 30
0.0
 11
1.0
 21
0.0
 31
0.0
 44
0.9
  1
DO NOT SCALE DRAWING
 40
1.0416666667
 41
25.9672619048
  0
MTEXT
  5
2EE
100
AcDbEntity
  8
0
100
AcDbMText
 62
2
  6
CONTINUOUS
  7
STANDARD
 71
2
 72
1
 10
214.3419720356
 20
25.0744676512
 30
0.0
 11
1.0
 21
0.0
 31
0.0
 44
0.9
  1
DESIGNER
 40
0.75
 41
7.0982142857
  0
MTEXT
  5
2EF
100
AcDbEntity
  8
0
100
AcDbMText
 62
2
  6
CONTINUOUS
  7
STANDARD
 71
2
 72
1
 10
214.0486774927
 20
20.8049998782
 30
0.0
 11
1.0
 21
0.0
 31
0.0
 44
0.9
  1
ENGINEER
 40
0.75
 41
6.8839285714
  0
MTEXT
  5
2F0
100
AcDbEntity
  8
0
100
AcDbMText
 62
2
  6
CONTINUOUS
  7
STANDARD
 71
2
 72
1
 10
217.2486898092
 20
16.4552094114
 30
0.0
 11
1.0
 21
0.0
 31
0.0
 44
0.9
  1
TECHNICAL DIRECTOR
 40
0.75
 41
16.0178571429
  0
MTEXT
  5
2F1
100
AcDbEntity
  8
0
100
AcDbMText
 62
2
  6
CONTINUOUS
  7
STANDARD
 71
2
 72
1
 10
218.3596773248
 20
12.1025993981
 30
0.0
 11
1.0
 21
0.0
 31
0.0
 44
0.9
  1
MANUFACTURING ENGINEER
 40
0.75
 41
19.3928571429
  0
MTEXT
  5
2F2
100
AcDbEntity
  8
0
100
AcDbMText
 62
2
  6
CONTINUOUS
  7
STANDARD
 71
2
 72
1
 10
216.3043625031
 20
5.6333539071
 30
0.0
 11
1.0
 21
0.0
 31
0.0
 44
0.9
  1
MODEL INFO:
 40
0.75
 41
9.1875
  0
MTEXT
  5
2F3
100
AcDbEntity
  8
0
100
AcDbMText
 62
2
  6
CONTINUOUS
  7
STANDARD
 71
2
 72
1
 10
215.5320907774
 20
7.6530086792
 30
0.0
 11
1.0
 21
0.0
 31
0.0
 44
0.9
  1
DRAWING INFO:
 40
0.75
 41
11.6785714286
  0
MTEXT
  5
2F4
100
AcDbEntity
  8
0
100
AcDbMText
 62
2
  6
CONTINUOUS
  7
STANDARD
 71
2
 72
1
 10
235.3280381782
 20
5.5585027519
 30
0.0
 11
1.0
 21
0.0
 31
0.0
 44
0.9
  1
SCALE:
 40
0.75
 41
4.9285714286
  0
MTEXT
  5
2F5
100
AcDbEntity
  8
0
100
AcDbMText
 62
2
  6
CONTINUOUS
  7
STANDARD
 71
2
 72
1
 10
263.4686894524
 20
5.5723407209
 30
0.0
 11
1.0
 21
0.0
 31
0.0
 44
0.9
  1
SHEET
 40
0.75
 41
4.5535714286
  0
MTEXT
  5
2F6
100
AcDbEntity
  8
0
100
AcDbMText
 62
2
  6
CONTINUOUS
  7
STANDARD
 71
2
 72
1
 10
235.3498287565
 20
10.086080561
 30
0.0
 11
1.0
 21
0.0
 31
0.0
 44
0.9
  1
SIZE
 40
0.75
 41
3.5089285714
  0
MTEXT
  5
2F7
100
AcDbEntity
  8
0
100
AcDbMText
 62
2
  6
CONTINUOUS
  7
STANDARD
 71
2
 72
1
 10
241.5308134056
 20
10.0951370259
 30
0.0
 11
1.0
 21
0.0
 31
0.0
 44
0.9
  1
CAGE CODE
 40
0.75
 41
8.3303571429
  0
MTEXT
  5
2F8
100
AcDbEntity
  8
0
100
AcDbMText
 62
2
  6
CONTINUOUS
  7
STANDARD
 71
2
 72
1
 10
249.5079145669
 20
10.0777747143
 30
0.0
 11
1.0
 21
0.0
 31
0.0
 44
0.9
  1
DRAWING NO.
 40
0.75
 41
10.3928571429
  0
MTEXT
  5
2F9
100
AcDbEntity
  8
0
100
AcDbMText
 62
2
  6
CONTINUOUS
  7
STANDARD
 71
2
 72
1
 10
273.017772162
 20
10.0889492224
 30
0.0
 11
1.0
 21
0.0
 31
0.0
 44
0.9
  1
REV
 40
0.75
 41
2.8392857143
  0
MTEXT
  5
2FA
100
AcDbEntity
  8
0
100
AcDbMText
 62
2
  6
CONTINUOUS
  7
STANDARD
 71
2
 72
1
 10
253.4761791705
 20
24.9459816888
 30
0.0
 11
1.0
 21
0.0
 31
0.0
 44
0.9
  1
QSC, LLC
 40
1.3020833333
 41
11.9977678571
  0
MTEXT
  5
2FB
100
AcDbEntity
  8
0
100
AcDbMText
 62
2
  6
CONTINUOUS
  7
STANDARD
 71
1
 72
1
 10
249.267770115
 20
22.9524180324
 30
0.0
 11
1.0
 21
0.0
 31
0.0
 44
0.9
  1
1675 MACARTHUR BOULEVARD\PCOSTA MESA, CA  92626
 40
1.0416666667
 41
29.8735119048
  0
MTEXT
  5
2FC
100
AcDbEntity
  8
0
100
AcDbMText
 62
2
  6
CONTINUOUS
  7
STANDARD
 71
1
 72
1
 10
238.5842374076
 20
8.3023040981
 30
0.0
 11
1.0
 21
0.0
 31
0.0
 44
0.9
  1
00PW4
 40
1.3020833333
 41
9.1610863095
  0
INSERT
  5
2FD
100
AcDbEntity
  8
0
100
AcDbBlockReference
 62
7
  6
CONTINUOUS
  2
RD010411_BL0
 10
240.7401691567
 20
22.5092555431
  0
DIMENSION
  5
2FE
100
AcDbEntity
  8
0
100
AcDbDimension
 62
2
  6
CONTINUOUS
  2
*D0
 10
117.1911025006
 20
122.876479285
 11
117.1911025006
 21
85.0076657373
 70
160
 71
2
 42
2013.6150857101
  3
DIMSTYLE_1
100
AcDbAlignedDimension
 13
99.3452942556
 23
43.6002948082
 14
100.6452942556
 24
122.876479285
 50
90.0
100
AcDbRotatedDimension
  0
DIMENSION
  5
2FF
100
AcDbEntity
  8
0
100
AcDbDimension
 62
2
  6
CONTINUOUS
  2
*D1
 10
100.2619609223
 20
128.5635776931
 11
85.8727686966
 21
127.5870151931
 70
160
 71
2
 42
762.0
  3
DIMSTYLE_1
100
AcDbAlignedDimension
 13
70.2619609223
 23
122.8111207104
 14
100.2619609223
 24
122.8111207104
100
AcDbRotatedDimension
  0
DIMENSION
  5
300
100
AcDbEntity
  8
0
100
AcDbDimension
 62
2
  6
CONTINUOUS
  2
*D2
 10
110.4436617875
 20
166.6318154762
 11
110.4436617875
 21
156.4087532308
 70
160
 71
2
 42
514.35
  3
DIMSTYLE_1
100
AcDbAlignedDimension
 13
100.6452942556
 23
146.3818154762
 14
100.7202942556
 24
166.6318154762
 50
90.0
100
AcDbRotatedDimension
  0
DIMENSION
  5
301
100
AcDbEntity
  8
0
100
AcDbDimension
 62
2
  6
CONTINUOUS
  2
*D3
 10
96.0796591322
 20
172.9199211007
 11
85.3421402302
 21
171.9433586007
 70
160
 71
2
 42
549.5390690651
  3
DIMSTYLE_1
100
AcDbAlignedDimension
 13
74.4442627124
 23
166.9441488095
 14
96.0796591322
 24
166.9441488095
100
AcDbRotatedDimension
  0
DIMENSION
  5
302
100
AcDbEntity
  8
0
100
AcDbDimension
 62
2
  6
CONTINUOUS
  2
*D4
 10
200.4285328634
 20
122.876479285
 11
200.4285328634
 21
103.581178399
 70
160
 71
2
 42
1004.5650857101
  3
DIMSTYLE_1
100
AcDbAlignedDimension
 13
181.1991517857
 23
83.326672761
 14
161.1991517857
 24
122.876479285
 50
90.0
100
AcDbRotatedDimension
  0
DIMENSION
  5
303
100
AcDbEntity
  8
0
100
AcDbDimension
 62
2
  6
CONTINUOUS
  2
*D5
 10
200.4285328634
 20
43.6002948082
 11
200.4285328634
 21
65.29925235
 70
160
 71
2
 42
1009.05
  3
DIMSTYLE_1
100
AcDbAlignedDimension
 13
181.1991517857
 23
83.326672761
 14
179.3241517857
 24
43.6002948082
 50
270.0
100
AcDbRotatedDimension
  0
DIMENSION
  5
304
100
AcDbEntity
  8
0
100
AcDbDimension
 62
2
  6
CONTINUOUS
  2
*D6
 10
193.0010334048
 20
66.476672761
 11
193.0010334048
 21
57.0347680537
 70
160
 71
2
 42
581.06
  3
DIMSTYLE_1
100
AcDbAlignedDimension
 13
179.3241517857
 23
43.6002948082
 14
176.9991517857
 24
66.476672761
 50
90.0
100
AcDbRotatedDimension
  0
DIMENSION
  5
305
100
AcDbEntity
  8
0
100
AcDbDimension
 62
2
  6
CONTINUOUS
  2
*D7
 10
155.4834129537
 20
66.476672761
 11
155.4834129537
 21
69.8634924955
 70
160
 71
2
 42
180.34
  3
DIMSTYLE_1
100
AcDbAlignedDimension
 13
171.412485119
 23
73.576672761
 14
171.412485119
 24
66.476672761
 50
270.0
100
AcDbRotatedDimension
  0
DIMENSION
  5
306
100
AcDbEntity
  8
0
100
AcDbDimension
 62
2
  6
CONTINUOUS
  2
*D8
 10
176.7308184524
 20
40.4571692967
 11
181.4661375931
 21
39.4806067967
 70
160
 71
1
 42
128.27
  3
DIMSTYLE_1
100
AcDbAlignedDimension
 13
171.6808184524
 23
66.2083394276
 14
176.7308184524
 24
66.2083394276
100
AcDbRotatedDimension
  0
DIMENSION
  5
307
100
AcDbEntity
  8
0
100
AcDbDimension
 62
2
  6
CONTINUOUS
  2
*D9
 10
160.4608184524
 20
40.4571692967
 11
166.2220456072
 21
39.4806067967
 70
160
 71
2
 42
284.988
  3
DIMSTYLE_1
100
AcDbAlignedDimension
 13
171.6808184524
 23
66.2083394276
 14
160.4608184524
 24
45.2079063568
 50
180.0
100
AcDbRotatedDimension
  0
DIMENSION
  5
308
100
AcDbEntity
  8
0
100
AcDbDimension
 62
2
  6
CONTINUOUS
  2
*D10
 10
187.0910359861
 20
43.6002948082
 11
190.8019734861
 21
39.3112402347
 70
160
 71
1
 42
19.05
  3
DIMSTYLE_1
100
AcDbAlignedDimension
 13
181.1991517857
 23
44.3502948082
 14
179.3241517857
 24
43.6002948082
 50
270.0
100
AcDbRotatedDimension
  0
LINE
  5
309
100
AcDbEntity
  8
0
100
AcDbLine
 62
2
  6
CONTINUOUS
 10
192.7083333333
 20
14.5833333333
 11
211.4583333333
 21
14.5833333333
  0
LINE
  5
30A
100
AcDbEntity
  8
0
100
AcDbLine
 62
2
  6
CONTINUOUS
 10
192.7083333333
 20
14.5833333333
 11
192.7083333333
 21
9.375
  0
LINE
  5
30B
100
AcDbEntity
  8
0
100
AcDbLine
 62
2
  6
CONTINUOUS
 10
192.7083333333
 20
9.375
 11
211.4583333333
 21
9.375
  0
LINE
  5
30C
100
AcDbEntity
  8
0
100
AcDbLine
 62
2
  6
CONTINUOUS
 10
211.4583333333
 20
14.5833333333
 11
211.4583333333
 21
9.375
  0
LINE
  5
30D
100
AcDbEntity
  8
0
100
AcDbLine
 62
2
  6
CONTINUOUS
 10
192.7083333333
 20
9.375
 11
211.4583333333
 21
9.375
  0
LINE
  5
30E
100
AcDbEntity
  8
0
100
AcDbLine
 62
2
  6
CONTINUOUS
 10
192.7083333333
 20
9.375
 11
192.7083333333
 21
4.1666666667
  0
LINE
  5
30F
100
AcDbEntity
  8
0
100
AcDbLine
 62
2
  6
CONTINUOUS
 10
192.7083333333
 20
4.1666666667
 11
211.4583333333
 21
4.1666666667
  0
LINE
  5
310
100
AcDbEntity
  8
0
100
AcDbLine
 62
2
  6
CONTINUOUS
 10
211.4583333333
 20
9.375
 11
211.4583333333
 21
4.1666666667
  0
LINE
  5
311
100
AcDbEntity
  8
0
100
AcDbLine
 62
2
  6
CONTINUOUS
 10
211.4559248804
 20
25.5145534538
 11
233.3309248804
 21
25.5145534538
  0
LINE
  5
312
100
AcDbEntity
  8
0
100
AcDbLine
 62
2
  6
CONTINUOUS
 10
211.4559248804
 20
25.5145534538
 11
211.4559248804
 21
21.2645534538
  0
LINE
  5
313
100
AcDbEntity
  8
0
100
AcDbLine
 62
2
  6
CONTINUOUS
 10
211.4559248804
 20
21.2645534538
 11
233.3309248804
 21
21.2645534538
  0
LINE
  5
314
100
AcDbEntity
  8
0
100
AcDbLine
 62
2
  6
CONTINUOUS
 10
233.3309248804
 20
25.5145534538
 11
233.3309248804
 21
21.2645534538
  0
MTEXT
  5
315
100
AcDbEntity
  8
0
100
AcDbMText
 62
2
  6
CONTINUOUS
  7
STANDARD
 71
1
 72
1
 10
211.9767582137
 20
23.2176784538
 30
0.0
 11
1.0
 21
0.0
 31
0.0
 44
0.9
  1
ENGINEERING SERVICES
 40
1.3020833333
 41
29.7154017857
  0
LINE
  5
316
100
AcDbEntity
  8
0
100
AcDbLine
 62
2
  6
CONTINUOUS
 10
211.4583333333
 20
21.2178044868
 11
233.3333333333
 21
21.2178044868
  0
LINE
  5
317
100
AcDbEntity
  8
0
100
AcDbLine
 62
2
  6
CONTINUOUS
 10
211.4583333333
 20
21.2178044868
 11
211.4583333333
 21
16.9678044868
  0
LINE
  5
318
100
AcDbEntity
  8
0
100
AcDbLine
 62
2
  6
CONTINUOUS
 10
211.4583333333
 20
16.9678044868
 11
233.3333333333
 21
16.9678044868
  0
LINE
  5
319
100
AcDbEntity
  8
0
100
AcDbLine
 62
2
  6
CONTINUOUS
 10
233.3333333333
 20
21.2178044868
 11
233.3333333333
 21
16.9678044868
  0
LINE
  5
31A
100
AcDbEntity
  8
0
100
AcDbLine
 62
2
  6
CONTINUOUS
 10
211.4583333333
 20
16.8649959296
 11
233.3333333333
 21
16.8649959296
  0
LINE
  5
31B
100
AcDbEntity
  8
0
100
AcDbLine
 62
2
  6
CONTINUOUS
 10
211.4583333333
 20
16.8649959296
 11
211.4583333333
 21
12.6149959296
  0
LINE
  5
31C
100
AcDbEntity
  8
0
100
AcDbLine
 62
2
  6
CONTINUOUS
 10
211.4583333333
 20
12.6149959296
 11
233.3333333333
 21
12.6149959296
  0
LINE
  5
31D
100
AcDbEntity
  8
0
100
AcDbLine
 62
2
  6
CONTINUOUS
 10
233.3333333333
 20
16.8649959296
 11
233.3333333333
 21
12.6149959296
  0
LINE
  5
31E
100
AcDbEntity
  8
0
100
AcDbLine
 62
2
  6
CONTINUOUS
 10
211.4583333333
 20
12.4997133506
 11
233.3333333333
 21
12.4997133506
  0
LINE
  5
31F
100
AcDbEntity
  8
0
100
AcDbLine
 62
2
  6
CONTINUOUS
 10
211.4583333333
 20
12.4997133506
 11
211.4583333333
 21
8.2497133506
  0
LINE
  5
320
100
AcDbEntity
  8
0
100
AcDbLine
 62
2
  6
CONTINUOUS
 10
211.4583333333
 20
8.2497133506
 11
233.3333333333
 21
8.2497133506
  0
LINE
  5
321
100
AcDbEntity
  8
0
100
AcDbLine
 62
2
  6
CONTINUOUS
 10
233.3333333333
 20
12.4997133506
 11
233.3333333333
 21
8.2497133506
  0
LINE
  5
322
100
AcDbEntity
  8
0
100
AcDbLine
 62
2
  6
CONTINUOUS
 10
211.4583333333
 20
8.3333333333
 11
233.3333333333
 21
8.3333333333
  0
LINE
  5
323
100
AcDbEntity
  8
0
100
AcDbLine
 62
2
  6
CONTINUOUS
 10
211.4583333333
 20
8.3333333333
 11
211.4583333333
 21
6.25
  0
LINE
  5
324
100
AcDbEntity
  8
0
100
AcDbLine
 62
2
  6
CONTINUOUS
 10
211.4583333333
 20
6.25
 11
233.3333333333
 21
6.25
  0
LINE
  5
325
100
AcDbEntity
  8
0
100
AcDbLine
 62
2
  6
CONTINUOUS
 10
233.3333333333
 20
8.3333333333
 11
233.3333333333
 21
6.25
  0
MTEXT
  5
326
100
AcDbEntity
  8
0
100
AcDbMText
 62
2
  6
CONTINUOUS
  7
STANDARD
 71
3
 72
1
 10
232.8125
 20
7.6510416667
 30
0.0
 11
1.0
 21
0.0
 31
0.0
 44
0.9
  1
DC-SC-324-SC-424-2D\H0.9166666667;. 
 40
0.75
 41
18.8214285714
  0
LINE
  5
327
100
AcDbEntity
  8
0
100
AcDbLine
 62
2
  6
CONTINUOUS
 10
211.4583333333
 20
6.25
 11
233.3333333333
 21
6.25
  0
LINE
  5
328
100
AcDbEntity
  8
0
100
AcDbLine
 62
2
  6
CONTINUOUS
 10
211.4583333333
 20
6.25
 11
211.4583333333
 21
4.1666666667
  0
LINE
  5
329
100
AcDbEntity
  8
0
100
AcDbLine
 62
2
  6
CONTINUOUS
 10
211.4583333333
 20
4.1666666667
 11
233.3333333333
 21
4.1666666667
  0
LINE
  5
32A
100
AcDbEntity
  8
0
100
AcDbLine
 62
2
  6
CONTINUOUS
 10
233.3333333333
 20
6.25
 11
233.3333333333
 21
4.1666666667
  0
MTEXT
  5
32B
100
AcDbEntity
  8
0
100
AcDbMText
 62
2
  6
CONTINUOUS
  7
STANDARD
 71
3
 72
1
 10
232.8125
 20
5.5677083333
 30
0.0
 11
1.0
 21
0.0
 31
0.0
 44
0.9
  1
DC-SC-324-SC-424-3D\H0.9166666667;.A.1
 40
0.75
 41
20.4107142857
  0
LINE
  5
32C
100
AcDbEntity
  8
0
100
AcDbLine
 62
2
  6
CONTINUOUS
 10
233.3333333333
 20
19.7916666667
 11
275.0
 21
19.7916666667
  0
LINE
  5
32D
100
AcDbEntity
  8
0
100
AcDbLine
 62
2
  6
CONTINUOUS
 10
233.3333333333
 20
19.7916666667
 11
233.3333333333
 21
10.4166666667
  0
LINE
  5
32E
100
AcDbEntity
  8
0
100
AcDbLine
 62
2
  6
CONTINUOUS
 10
233.3333333333
 20
10.4166666667
 11
275.0
 21
10.4166666667
  0
LINE
  5
32F
100
AcDbEntity
  8
0
100
AcDbLine
 62
2
  6
CONTINUOUS
 10
275.0
 20
19.7916666667
 11
275.0
 21
10.4166666667
  0
MTEXT
  5
330
100
AcDbEntity
  8
0
100
AcDbMText
 62
2
  6
CONTINUOUS
  7
STANDARD
 71
2
 72
1
 10
254.1666666667
 20
24.4375
 30
0.0
 11
1.0
 21
0.0
 31
0.0
 44
1.02
  1
 \P \PSPEAKER, FINISHED, \PSC-324, SC-424, \PSC-424-8, SC-424-8F\P \P 
 40
1.6666666667
 41
36.130952381
  0
LINE
  5
331
100
AcDbEntity
  8
0
100
AcDbLine
 62
2
  6
CONTINUOUS
 10
233.3424358578
 20
10.3995038958
 11
237.5091025245
 21
10.3995038958
  0
LINE
  5
332
100
AcDbEntity
  8
0
100
AcDbLine
 62
2
  6
CONTINUOUS
 10
233.3424358578
 20
10.3995038958
 11
233.3424358578
 21
6.2328372291
  0
LINE
  5
333
100
AcDbEntity
  8
0
100
AcDbLine
 62
2
  6
CONTINUOUS
 10
233.3424358578
 20
6.2328372291
 11
237.5091025245
 21
6.2328372291
  0
LINE
  5
334
100
AcDbEntity
  8
0
100
AcDbLine
 62
2
  6
CONTINUOUS
 10
237.5091025245
 20
10.3995038958
 11
237.5091025245
 21
6.2328372291
  0
MTEXT
  5
335
100
AcDbEntity
  8
0
100
AcDbMText
 62
2
  6
CONTINUOUS
  7
STANDARD
 71
2
 72
1
 10
235.4257691912
 20
8.5505455624
 30
0.0
 11
1.0
 21
0.0
 31
0.0
 44
0.9
  1
D
 40
1.6666666667
 41
2.7380952381
  0
LINE
  5
336
100
AcDbEntity
  8
0
100
AcDbLine
 62
2
  6
CONTINUOUS
 10
245.8376458133
 20
10.3747882427
 11
270.8376458133
 21
10.3747882427
  0
LINE
  5
337
100
AcDbEntity
  8
0
100
AcDbLine
 62
2
  6
CONTINUOUS
 10
245.8376458133
 20
10.3747882427
 11
245.8376458133
 21
6.208121576
  0
LINE
  5
338
100
AcDbEntity
  8
0
100
AcDbLine
 62
2
  6
CONTINUOUS
 10
245.8376458133
 20
6.208121576
 11
270.8376458133
 21
6.208121576
  0
LINE
  5
339
100
AcDbEntity
  8
0
100
AcDbLine
 62
2
  6
CONTINUOUS
 10
270.8376458133
 20
10.3747882427
 11
270.8376458133
 21
6.208121576
  0
MTEXT
  5
33A
100
AcDbEntity
  8
0
100
AcDbMText
 62
2
  6
CONTINUOUS
  7
STANDARD
 71
2
 72
1
 10
258.3376458133
 20
8.442496576
 30
0.0
 11
1.0
 21
0.0
 31
0.0
 44
0.9
  1
DC-SC-324-SC-424-2D
 40
1.5833333333
 41
35.7946428571
  0
LINE
  5
33B
100
AcDbEntity
  8
0
100
AcDbLine
 62
2
  6
CONTINUOUS
 10
270.8224991356
 20
10.4023985218
 11
274.9891658022
 21
10.4023985218
  0
LINE
  5
33C
100
AcDbEntity
  8
0
100
AcDbLine
 62
2
  6
CONTINUOUS
 10
270.8224991356
 20
10.4023985218
 11
270.8224991356
 21
6.2357318552
  0
LINE
  5
33D
100
AcDbEntity
  8
0
100
AcDbLine
 62
2
  6
CONTINUOUS
 10
270.8224991356
 20
6.2357318552
 11
274.9891658022
 21
6.2357318552
  0
LINE
  5
33E
100
AcDbEntity
  8
0
100
AcDbLine
 62
2
  6
CONTINUOUS
 10
274.9891658022
 20
10.4023985218
 11
274.9891658022
 21
6.2357318552
  0
MTEXT
  5
33F
100
AcDbEntity
  8
0
100
AcDbMText
 62
2
  6
CONTINUOUS
  7
STANDARD
 71
2
 72
1
 10
272.9058324689
 20
8.3867735218
 30
0.0
 11
1.0
 21
0.0
 31
0.0
 44
0.9
  1
 A 
 40
1.5
 41
5.8928571429
  0
LINE
  5
340
100
AcDbEntity
  8
0
100
AcDbLine
 62
2
  6
CONTINUOUS
 10
261.4635051614
 20
6.1910740302
 11
275.0051718281
 21
6.1910740302
  0
LINE
  5
341
100
AcDbEntity
  8
0
100
AcDbLine
 62
2
  6
CONTINUOUS
 10
261.4635051614
 20
6.1910740302
 11
261.4635051614
 21
4.1077406969
  0
LINE
  5
342
100
AcDbEntity
  8
0
100
AcDbLine
 62
2
  6
CONTINUOUS
 10
261.4635051614
 20
4.1077406969
 11
275.0051718281
 21
4.1077406969
  0
LINE
  5
343
100
AcDbEntity
  8
0
100
AcDbLine
 62
2
  6
CONTINUOUS
 10
275.0051718281
 20
6.1910740302
 11
275.0051718281
 21
4.1077406969
  0
MTEXT
  5
344
100
AcDbEntity
  8
0
100
AcDbMText
 62
2
  6
CONTINUOUS
  7
STANDARD
 71
3
 72
1
 10
274.4843384948
 20
5.9254490302
 30
0.0
 11
1.0
 21
0.0
 31
0.0
 44
0.9
  1
1 OF 1
 40
1.1666666667
 41
7.7083333333
  0
LINE
  5
345
100
AcDbEntity
  8
0
100
AcDbLine
 62
2
  6
CONTINUOUS
 10
233.3188317675
 20
6.2401934742
 11
243.2188317675
 21
6.2401934742
  0
LINE
  5
346
100
AcDbEntity
  8
0
100
AcDbLine
 62
2
  6
CONTINUOUS
 10
233.3188317675
 20
6.2401934742
 11
233.3188317675
 21
4.1243080576
  0
LINE
  5
347
100
AcDbEntity
  8
0
100
AcDbLine
 62
2
  6
CONTINUOUS
 10
233.3188317675
 20
4.1243080576
 11
243.2188317675
 21
4.1243080576
  0
LINE
  5
348
100
AcDbEntity
  8
0
100
AcDbLine
 62
2
  6
CONTINUOUS
 10
243.2188317675
 20
6.2401934742
 11
243.2188317675
 21
4.1243080576
  0
MTEXT
  5
349
100
AcDbEntity
  8
0
100
AcDbMText
 62
2
  6
CONTINUOUS
  7
STANDARD
 71
3
 72
1
 10
242.6979984342
 20
5.7753497242
 30
0.0
 11
1.0
 21
0.0
 31
0.0
 44
0.9
  1
0.120
 40
1.0
 41
5.5357142857
  0
LWPOLYLINE
  5
34A
100
AcDbEntity
  8
0
100
AcDbPolyline
 62
2
  6
CONTINUOUS
 90
2
 70
0
 43
0.1666666667
 10
274.9895739804
 20
179.083775457
 10
190.9687406471
 20
179.083775457
  0
LWPOLYLINE
  5
34B
100
AcDbEntity
  8
0
100
AcDbPolyline
 62
2
  6
CONTINUOUS
 90
2
 70
0
 43
0.1666666667
 10
274.9062406471
 20
179.083775457
 10
274.9062406471
 20
166.0629421237
  0
LWPOLYLINE
  5
34C
100
AcDbEntity
  8
0
100
AcDbPolyline
 62
2
  6
CONTINUOUS
 90
2
 70
0
 43
0.1666666667
 10
274.9062406471
 20
176.4796087904
 10
191.0520739804
 20
176.4796087904
  0
LWPOLYLINE
  5
34D
100
AcDbEntity
  8
0
100
AcDbPolyline
 62
2
  6
CONTINUOUS
 90
2
 70
0
 43
0.1666666667
 10
274.9062406471
 20
173.8754421237
 10
191.0520739804
 20
173.8754421237
  0
LWPOLYLINE
  5
34E
100
AcDbEntity
  8
0
100
AcDbPolyline
 62
2
  6
CONTINUOUS
 90
2
 70
0
 43
0.1666666667
 10
274.9062406471
 20
171.271275457
 10
191.0520739804
 20
171.271275457
  0
LWPOLYLINE
  5
34F
100
AcDbEntity
  8
0
100
AcDbPolyline
 62
2
  6
CONTINUOUS
 90
2
 70
0
 43
0.1666666667
 10
274.9062406471
 20
168.6671087904
 10
191.0520739804
 20
168.6671087904
  0
LWPOLYLINE
  5
350
100
AcDbEntity
  8
0
100
AcDbPolyline
 62
2
  6
CONTINUOUS
 90
2
 70
0
 43
0.1666666667
 10
274.9895739804
 20
166.0629421237
 10
190.9687406471
 20
166.0629421237
  0
LWPOLYLINE
  5
351
100
AcDbEntity
  8
0
100
AcDbPolyline
 62
2
  6
CONTINUOUS
 90
2
 70
0
 43
0.1666666667
 10
264.4895739804
 20
176.4796087904
 10
264.4895739804
 20
166.0629421237
  0
LWPOLYLINE
  5
352
100
AcDbEntity
  8
0
100
AcDbPolyline
 62
2
  6
CONTINUOUS
 90
2
 70
0
 43
0.1666666667
 10
260.3229073138
 20
176.4796087904
 10
260.3229073138
 20
166.0629421237
  0
LWPOLYLINE
  5
353
100
AcDbEntity
  8
0
100
AcDbPolyline
 62
2
  6
CONTINUOUS
 90
2
 70
0
 43
0.1666666667
 10
195.2187406471
 20
176.4796087904
 10
195.2187406471
 20
166.0629421237
  0
LWPOLYLINE
  5
354
100
AcDbEntity
  8
0
100
AcDbPolyline
 62
2
  6
CONTINUOUS
 90
2
 70
0
 43
0.1666666667
 10
191.0520739804
 20
179.083775457
 10
191.0520739804
 20
166.0629421237
  0
MTEXT
  5
355
100
AcDbEntity
  8
0
100
AcDbMText
 62
2
  6
CONTINUOUS
  7
STANDARD
 71
2
 72
1
 10
232.9791573138
 20
178.4327337904
 30
0.0
 11
1.0
 21
0.0
 31
0.0
 44
0.9
  1
REVISIONS
 40
1.3020833333
 41
13.5788690476
  0
MTEXT
  5
356
100
AcDbEntity
  8
0
100
AcDbMText
 62
2
  6
CONTINUOUS
  7
STANDARD
 71
2
 72
1
 10
269.6979073138
 20
175.8285671237
 30
0.0
 11
1.0
 21
0.0
 31
0.0
 44
0.9
  1
 DATE 
 40
1.3020833333
 41
9.9516369048
  0
MTEXT
  5
357
100
AcDbEntity
  8
0
100
AcDbMText
 62
2
  6
CONTINUOUS
  7
STANDARD
 71
2
 72
1
 10
262.4062406471
 20
175.8285671237
 30
0.0
 11
1.0
 21
0.0
 31
0.0
 44
0.9
  1
BY
 40
1.3020833333
 41
3.5807291667
  0
MTEXT
  5
358
100
AcDbEntity
  8
0
100
AcDbMText
 62
2
  6
CONTINUOUS
  7
STANDARD
 71
2
 72
1
 10
227.7708239804
 20
175.8285671237
 30
0.0
 11
1.0
 21
0.0
 31
0.0
 44
0.9
  1
DESCRIPTION
 40
1.3020833333
 41
17.0200892857
  0
MTEXT
  5
359
100
AcDbEntity
  8
0
100
AcDbMText
 62
2
  6
CONTINUOUS
  7
STANDARD
 71
2
 72
1
 10
193.1354073138
 20
175.8285671237
 30
0.0
 11
1.0
 21
0.0
 31
0.0
 44
0.9
  1
REV
 40
1.3020833333
 41
4.9293154762
  0
MTEXT
  5
35A
100
AcDbEntity
  8
0
100
AcDbMText
 62
2
  6
CONTINUOUS
  7
STANDARD
 71
2
 72
1
 10
269.6979073138
 20
173.224400457
 30
0.0
 11
1.0
 21
0.0
 31
0.0
 44
0.9
  1
3-OCT-16
 40
1.3020833333
 41
12.0442708333
  0
MTEXT
  5
35B
100
AcDbEntity
  8
0
100
AcDbMText
 62
2
  6
CONTINUOUS
  7
STANDARD
 71
2
 72
1
 10
262.4062406471
 20
173.224400457
 30
0.0
 11
1.0
 21
0.0
 31
0.0
 44
0.9
  1
SS
 40
1.3020833333
 41
3.4412202381
  0
MTEXT
  5
35C
100
AcDbEntity
  8
0
100
AcDbMText
 62
2
  6
CONTINUOUS
  7
STANDARD
 71
1
 72
1
 10
195.7395739804
 20
173.224400457
 30
0.0
 11
1.0
 21
0.0
 31
0.0
 44
0.9
  1
RELEASE FOR SALES AND MARKETING
 40
1.3020833333
 41
47.3400297619
  0
MTEXT
  5
35D
100
AcDbEntity
  8
0
100
AcDbMText
 62
2
  6
CONTINUOUS
  7
STANDARD
 71
2
 72
1
 10
193.1354073138
 20
173.224400457
 30
0.0
 11
1.0
 21
0.0
 31
0.0
 44
0.9
  1
A
 40
1.3020833333
 41
2.0461309524
  0
MTEXT
  5
35E
100
AcDbEntity
  8
0
100
AcDbMText
 62
2
  6
CONTINUOUS
  7
STANDARD
 71
1
 72
1
 10
79.7251732143
 20
37.3872392857
 30
0.0
 11
1.0
 21
0.0
 31
0.0
 44
0.9
  1
FRONT
 40
2.5
 41
15.4464285714
  0
MTEXT
  5
35F
100
AcDbEntity
  8
0
100
AcDbMText
 62
2
  6
CONTINUOUS
  7
STANDARD
 71
1
 72
1
 10
166.12842442
 20
33.8942081943
 30
0.0
 11
1.0
 21
0.0
 31
0.0
 44
0.9
  1
RIGHT
 40
2.5
 41
15.1785714286
  0
MTEXT
  5
360
100
AcDbEntity
  8
0
100
AcDbMText
 62
2
  6
CONTINUOUS
  7
STANDARD
 71
1
 72
1
 10
8.2769789914
 20
18.4717740276
 30
0.0
 11
1.0
 21
0.0
 31
0.0
 44
0.9
  1
  \P 3. DIMENSIONS ARE IN MILLIMETERS [INCH].\P 2. TOLERANCES (MM): X\Fgdt;{\Fgdt;`}\Ftxt; 3, ANGLES: \Fgdt;{\Fgdt;`}\Ftxt;1\Fgdt;{\Fgdt;~}\Ftxt;. \P 1. NET WEIGHT APPROX. 256 LBS (116 KG)\P \PNOTE: UNLESS OTHERWISE SPECIFIED
 40
1.3020833333
 41
58.7797619048
  0
MTEXT
  5
361
100
AcDbEntity
  8
0
100
AcDbMText
 62
2
  6
CONTINUOUS
  7
STANDARD
 71
1
 72
1
 10
82.4713283918
 20
143.3569480514
 30
0.0
 11
1.0
 21
0.0
 31
0.0
 44
0.9
  1
TOP
 40
2.5
 41
9.8214285714
  0
LINE
  5
362
100
AcDbEntity
  8
DEFAULT_3
100
AcDbLine
 62
7
  6
PHANTOM
 10
0.0
 20
-0.0
 11
0.0
 21
183.3333333333
  0
LWPOLYLINE
  5
363
100
AcDbEntity
  8
0
100
AcDbPolyline
 62
7
  6
CONTINUOUS
 90
2
 70
0
 43
0.1666666736
 10
2.187189351
 20
90.2612092555
 10
2.187189351
 20
93.0721240778
  0
LWPOLYLINE
  5
364
100
AcDbEntity
  8
0
100
AcDbPolyline
 62
7
  6
CONTINUOUS
 90
2
 70
0
 43
0.250000002
 10
4.1666666667
 20
179.1666666667
 10
4.1666666667
 20
4.1666666667
  0
LWPOLYLINE
  5
365
100
AcDbEntity
  8
0
100
AcDbPolyline
 62
7
  6
CONTINUOUS
 90
2
 70
0
 43
0.250000002
 10
29.6875
 20
179.1666666667
 10
29.6875
 20
175.0
  0
LWPOLYLINE
  5
366
100
AcDbEntity
  8
0
100
AcDbPolyline
 62
7
  6
CONTINUOUS
 90
2
 70
0
 43
0.1666666736
 10
38.0208333333
 20
4.1666666667
 10
38.0208333333
 20
-0.0
  0
LWPOLYLINE
  5
367
100
AcDbEntity
  8
0
100
AcDbPolyline
 62
7
  6
CONTINUOUS
 90
2
 70
0
 43
0.1666666736
 10
38.0208333333
 20
179.1666666667
 10
38.0208333333
 20
183.3333333333
  0
LINE
  5
368
100
AcDbEntity
  8
0
100
AcDbLine
 62
7
  6
CONTINUOUS
 10
192.8292113458
 20
4.3379341716
 11
211.4069188557
 21
9.3951989937
  0
LINE
  5
369
100
AcDbEntity
  8
0
100
AcDbLine
 62
7
  6
CONTINUOUS
 10
192.6227923735
 20
9.601617966
 11
211.2004998833
 21
14.6588827882
  0
LINE
  5
36A
100
AcDbEntity
  8
DEFAULT_3
100
AcDbLine
 62
7
  6
PHANTOM
 10
0.0
 20
-0.0
 11
283.3333333333
 21
-0.0
  0
LWPOLYLINE
  5
36B
100
AcDbEntity
  8
0
100
AcDbPolyline
 62
7
  6
CONTINUOUS
 90
2
 70
0
 43
0.1666666736
 10
138.1778759222
 20
2.187189351
 10
140.9887907445
 20
2.187189351
  0
LWPOLYLINE
  5
36C
100
AcDbEntity
  8
0
100
AcDbPolyline
 62
7
  6
CONTINUOUS
 90
2
 70
0
 43
0.1666666736
 10
4.1666666667
 20
91.6666666667
 10
2.187189351
 20
90.2612092555
  0
LWPOLYLINE
  5
36D
100
AcDbEntity
  8
0
100
AcDbPolyline
 62
7
  6
CONTINUOUS
 90
2
 70
0
 43
0.250000002
 10
4.1666666667
 20
4.1666666667
 10
275.0
 20
4.1666666667
  0
LWPOLYLINE
  5
36E
100
AcDbEntity
  8
0
100
AcDbPolyline
 62
7
  6
CONTINUOUS
 90
2
 70
0
 43
0.1666666736
 10
211.4583333333
 20
6.25
 10
275.0
 20
6.25
  0
LWPOLYLINE
  5
36F
100
AcDbEntity
  8
0
100
AcDbPolyline
 62
7
  6
CONTINUOUS
 90
2
 70
0
 43
0.1666666736
 10
211.4583333333
 20
8.3333333333
 10
233.3333333333
 20
8.3333333333
  0
LWPOLYLINE
  5
370
100
AcDbEntity
  8
0
100
AcDbPolyline
 62
7
  6
CONTINUOUS
 90
2
 70
0
 43
0.1666666736
 10
211.4583333333
 20
9.375
 10
192.7083333333
 20
9.375
  0
LWPOLYLINE
  5
371
100
AcDbEntity
  8
0
100
AcDbPolyline
 62
7
  6
CONTINUOUS
 90
2
 70
0
 43
0.1666666736
 10
233.3333333333
 20
10.4166666667
 10
275.0
 20
10.4166666667
  0
LWPOLYLINE
  5
372
100
AcDbEntity
  8
0
100
AcDbPolyline
 62
7
  6
CONTINUOUS
 90
2
 70
0
 43
0.1666666736
 10
211.5130784727
 20
12.5977945415
 10
233.3880784727
 20
12.5977945415
  0
LWPOLYLINE
  5
373
100
AcDbEntity
  8
0
100
AcDbPolyline
 62
7
  6
CONTINUOUS
 90
2
 70
0
 43
0.1666666736
 10
4.1666666667
 20
91.6666666667
 10
2.187189351
 20
93.0721240778
  0
LWPOLYLINE
  5
374
100
AcDbEntity
  8
0
100
AcDbPolyline
 62
7
  6
CONTINUOUS
 90
2
 70
0
 43
0.1666666736
 10
71.875
 20
4.1666666667
 10
71.875
 20
-0.0
  0
LWPOLYLINE
  5
375
100
AcDbEntity
  8
0
100
AcDbPolyline
 62
7
  6
CONTINUOUS
 90
2
 70
0
 43
0.1666666736
 10
71.875
 20
179.1666666667
 10
71.875
 20
183.3333333333
  0
LWPOLYLINE
  5
376
100
AcDbEntity
  8
0
100
AcDbPolyline
 62
7
  6
CONTINUOUS
 90
2
 70
0
 43
0.1666666736
 10
192.7083333333
 20
14.5833333333
 10
211.4583333333
 20
14.5833333333
  0
LWPOLYLINE
  5
377
100
AcDbEntity
  8
0
100
AcDbPolyline
 62
7
  6
CONTINUOUS
 90
2
 70
0
 43
0.1666666736
 10
211.5245258927
 20
16.8826586286
 10
233.3995258927
 20
16.8826586286
  0
LWPOLYLINE
  5
378
100
AcDbEntity
  8
0
100
AcDbPolyline
 62
7
  6
CONTINUOUS
 90
2
 70
0
 43
0.1666666736
 10
233.3333333333
 20
19.7916666667
 10
275.0
 20
19.7916666667
  0
LWPOLYLINE
  5
379
100
AcDbEntity
  8
0
100
AcDbPolyline
 62
7
  6
CONTINUOUS
 90
2
 70
0
 43
0.1666666736
 10
211.4583333333
 20
21.312748571
 10
233.3333333333
 20
21.312748571
  0
LWPOLYLINE
  5
37A
100
AcDbEntity
  8
0
100
AcDbPolyline
 62
7
  6
CONTINUOUS
 90
2
 70
0
 43
0.1666666736
 10
192.7083333333
 20
25.5208333333
 10
275.0
 20
25.5208333333
  0
LWPOLYLINE
  5
37B
100
AcDbEntity
  8
0
100
AcDbPolyline
 62
7
  6
CONTINUOUS
 90
2
 70
0
 43
0.1666666736
 10
139.5833333333
 20
179.1666666667
 10
140.9887907445
 20
181.1461439823
  0
LWPOLYLINE
  5
37C
100
AcDbEntity
  8
0
100
AcDbPolyline
 62
7
  6
CONTINUOUS
 90
2
 70
0
 43
0.1666666736
 10
139.5833333333
 20
4.1666666667
 10
140.9887907445
 20
2.187189351
  0
LWPOLYLINE
  5
37D
100
AcDbEntity
  8
0
100
AcDbPolyline
 62
7
  6
CONTINUOUS
 90
2
 70
0
 43
0.1666666736
 10
4.1666666667
 20
47.9166666667
 10
0.0
 20
47.9166666667
  0
LWPOLYLINE
  5
37E
100
AcDbEntity
  8
0
100
AcDbPolyline
 62
7
  6
CONTINUOUS
 90
2
 70
0
 43
0.1666666736
 10
275.0549487571
 20
47.9236753411
 10
279.2216154237
 20
47.9236753411
  0
LWPOLYLINE
  5
37F
100
AcDbEntity
  8
0
100
AcDbPolyline
 62
7
  6
CONTINUOUS
 90
2
 70
0
 43
0.1666666736
 10
105.7291666667
 20
4.1666666667
 10
105.7291666667
 20
-0.0
  0
LWPOLYLINE
  5
380
100
AcDbEntity
  8
0
100
AcDbPolyline
 62
7
  6
CONTINUOUS
 90
2
 70
0
 43
0.1666666736
 10
105.7291666667
 20
179.1666666667
 10
105.7291666667
 20
183.3333333333
  0
LINE
  5
381
100
AcDbEntity
  8
0
100
AcDbLine
 62
7
  6
CONTINUOUS
 10
192.7260018596
 20
25.4958788356
 11
211.2004998833
 21
14.6588827882
  0
LWPOLYLINE
  5
382
100
AcDbEntity
  8
0
100
AcDbPolyline
 62
7
  6
CONTINUOUS
 90
2
 70
0
 43
0.1666666736
 10
139.5833333333
 20
4.1666666667
 10
139.5833333333
 20
-0.0
  0
LWPOLYLINE
  5
383
100
AcDbEntity
  8
0
100
AcDbPolyline
 62
7
  6
CONTINUOUS
 90
2
 70
0
 43
0.1666666736
 10
139.5833333333
 20
179.1666666667
 10
139.5833333333
 20
183.3333333333
  0
LWPOLYLINE
  5
384
100
AcDbEntity
  8
0
100
AcDbPolyline
 62
7
  6
CONTINUOUS
 90
2
 70
0
 43
0.1666666736
 10
4.1666666667
 20
91.6666666667
 10
-0.0
 20
91.6666666667
  0
LWPOLYLINE
  5
385
100
AcDbEntity
  8
0
100
AcDbPolyline
 62
7
  6
CONTINUOUS
 90
2
 70
0
 43
0.1666666736
 10
275.0089945496
 20
91.6779983179
 10
279.1756612163
 20
91.6779983179
  0
LWPOLYLINE
  5
386
100
AcDbEntity
  8
0
100
AcDbPolyline
 62
7
  6
CONTINUOUS
 90
2
 70
0
 43
0.1666666736
 10
173.4375
 20
4.1666666667
 10
173.4375
 20
-0.0
  0
LWPOLYLINE
  5
387
100
AcDbEntity
  8
0
100
AcDbPolyline
 62
7
  6
CONTINUOUS
 90
2
 70
0
 43
0.1666666736
 10
173.4375
 20
179.1666666667
 10
173.4375
 20
183.3333333333
  0
LWPOLYLINE
  5
388
100
AcDbEntity
  8
0
100
AcDbPolyline
 62
7
  6
CONTINUOUS
 90
2
 70
0
 43
0.1666666736
 10
139.5833333333
 20
4.1666666667
 10
138.1778759222
 20
2.187189351
  0
LWPOLYLINE
  5
389
100
AcDbEntity
  8
0
100
AcDbPolyline
 62
7
  6
CONTINUOUS
 90
2
 70
0
 43
0.1666666736
 10
4.1666666667
 20
135.4166666667
 10
0.0
 20
135.4166666667
  0
LWPOLYLINE
  5
38A
100
AcDbEntity
  8
0
100
AcDbPolyline
 62
7
  6
CONTINUOUS
 90
2
 70
0
 43
0.1666666736
 10
275.0
 20
135.4166666667
 10
279.1666666667
 20
135.4166666667
  0
LWPOLYLINE
  5
38B
100
AcDbEntity
  8
0
100
AcDbPolyline
 62
7
  6
CONTINUOUS
 90
2
 70
0
 43
0.1666666736
 10
139.5833333333
 20
179.1666666667
 10
138.1778759222
 20
181.1461439823
  0
LWPOLYLINE
  5
38C
100
AcDbEntity
  8
0
100
AcDbPolyline
 62
7
  6
CONTINUOUS
 90
2
 70
0
 43
0.1666666736
 10
192.7083333333
 20
4.1666666667
 10
192.7083333333
 20
25.5208333333
  0
LWPOLYLINE
  5
38D
100
AcDbEntity
  8
0
100
AcDbPolyline
 62
7
  6
CONTINUOUS
 90
2
 70
0
 43
0.1666666736
 10
207.2916666667
 20
4.1666666667
 10
207.2916666667
 20
-0.0
  0
LWPOLYLINE
  5
38E
100
AcDbEntity
  8
0
100
AcDbPolyline
 62
7
  6
CONTINUOUS
 90
2
 70
0
 43
0.1666666736
 10
207.2916666667
 20
179.1666666667
 10
207.2916666667
 20
183.3333333333
  0
LWPOLYLINE
  5
38F
100
AcDbEntity
  8
0
100
AcDbPolyline
 62
7
  6
CONTINUOUS
 90
2
 70
0
 43
0.1666666736
 10
211.4583333333
 20
4.1666666667
 10
211.4583333333
 20
25.5208333333
  0
LWPOLYLINE
  5
390
100
AcDbEntity
  8
0
100
AcDbPolyline
 62
7
  6
CONTINUOUS
 90
2
 70
0
 43
0.1666666736
 10
275.0089945496
 20
91.6779983179
 10
276.9884718653
 20
93.083455729
  0
LWPOLYLINE
  5
391
100
AcDbEntity
  8
0
100
AcDbPolyline
 62
7
  6
CONTINUOUS
 90
2
 70
0
 43
0.1666666736
 10
275.0089945496
 20
91.6779983179
 10
276.9884718653
 20
90.2725409068
  0
LWPOLYLINE
  5
392
100
AcDbEntity
  8
0
100
AcDbPolyline
 62
7
  6
CONTINUOUS
 90
2
 70
0
 43
0.250000002
 10
29.6875
 20
175.0
 10
4.1666666667
 20
175.0
  0
LWPOLYLINE
  5
393
100
AcDbEntity
  8
0
100
AcDbPolyline
 62
7
  6
CONTINUOUS
 90
2
 70
0
 43
0.250000002
 10
275.0
 20
179.1666666667
 10
4.1666666667
 20
179.1666666667
  0
LWPOLYLINE
  5
394
100
AcDbEntity
  8
0
100
AcDbPolyline
 62
7
  6
CONTINUOUS
 90
2
 70
0
 43
0.1666666736
 10
138.1778759222
 20
181.1461439823
 10
140.9887907445
 20
181.1461439823
  0
LWPOLYLINE
  5
395
100
AcDbEntity
  8
0
100
AcDbPolyline
 62
7
  6
CONTINUOUS
 90
2
 70
0
 43
0.1666666736
 10
233.3333333333
 20
4.1666666667
 10
233.3333333333
 20
25.5208333333
  0
LWPOLYLINE
  5
396
100
AcDbEntity
  8
0
100
AcDbPolyline
 62
7
  6
CONTINUOUS
 90
2
 70
0
 43
0.1666666736
 10
237.5
 20
6.25
 10
237.5
 20
10.4166666667
  0
LWPOLYLINE
  5
397
100
AcDbEntity
  8
0
100
AcDbPolyline
 62
7
  6
CONTINUOUS
 90
2
 70
0
 43
0.1666666736
 10
241.1458333333
 20
4.1666666667
 10
241.1458333333
 20
-0.0
  0
LWPOLYLINE
  5
398
100
AcDbEntity
  8
0
100
AcDbPolyline
 62
7
  6
CONTINUOUS
 90
2
 70
0
 43
0.1666666736
 10
241.1458333333
 20
179.1666666667
 10
241.1458333333
 20
183.3333333333
  0
LINE
  5
399
100
AcDbEntity
  8
0
100
AcDbLine
 62
7
  6
CONTINUOUS
 10
192.7260018596
 20
14.555673302
 11
211.3037093695
 21
25.3926693494
  0
LINE
  5
39A
100
AcDbEntity
  8
DEFAULT_3
100
AcDbLine
 62
7
  6
PHANTOM
 10
0.0
 20
183.3333333333
 11
283.3333333333
 21
183.3333333333
  0
LWPOLYLINE
  5
39B
100
AcDbEntity
  8
0
100
AcDbPolyline
 62
7
  6
CONTINUOUS
 90
2
 70
0
 43
0.1666666736
 10
243.1969080546
 20
4.2062512963
 10
243.1969080546
 20
6.2895846296
  0
LWPOLYLINE
  5
39C
100
AcDbEntity
  8
0
100
AcDbPolyline
 62
7
  6
CONTINUOUS
 90
2
 70
0
 43
0.1666666736
 10
245.8333333333
 20
6.25
 10
245.8333333333
 20
10.4166666667
  0
LWPOLYLINE
  5
39D
100
AcDbEntity
  8
0
100
AcDbPolyline
 62
7
  6
CONTINUOUS
 90
2
 70
0
 43
0.1666666736
 10
261.4583333333
 20
4.1666666667
 10
261.4583333333
 20
6.25
  0
LWPOLYLINE
  5
39E
100
AcDbEntity
  8
0
100
AcDbPolyline
 62
7
  6
CONTINUOUS
 90
2
 70
0
 43
0.1666666736
 10
270.8333333333
 20
6.25
 10
270.8333333333
 20
10.4166666667
  0
LWPOLYLINE
  5
39F
100
AcDbEntity
  8
0
100
AcDbPolyline
 62
7
  6
CONTINUOUS
 90
2
 70
0
 43
0.250000002
 10
275.0
 20
179.1666666667
 10
275.0
 20
4.1666666667
  0
LWPOLYLINE
  5
3A0
100
AcDbEntity
  8
0
100
AcDbPolyline
 62
7
  6
CONTINUOUS
 90
2
 70
0
 43
0.1666666736
 10
276.9884718653
 20
90.2725409068
 10
276.9884718653
 20
93.083455729
  0
LINE
  5
3A1
100
AcDbEntity
  8
DEFAULT_3
100
AcDbLine
 62
7
  6
PHANTOM
 10
283.3333333333
 20
-0.0
 11
283.3333333333
 21
183.3333333333
  0
LINE
  5
3A2
100
AcDbEntity
  8
7_ALL_ROUNDS
100
AcDbLine
 62
7
  6
CONTINUOUS
 10
98.8869609223
 20
43.6002948082
 11
97.6369609223
 21
43.6002948082
  0
LINE
  5
3A3
100
AcDbEntity
  8
7_ALL_ROUNDS
100
AcDbLine
 62
7
  6
CONTINUOUS
 10
72.8869609223
 20
43.6002948082
 11
71.6369609223
 21
43.6002948082
  0
LINE
  5
3A4
100
AcDbEntity
  8
7_ALL_ROUNDS
100
AcDbLine
 62
7
  6
CONTINUOUS
 10
99.0119609223
 20
43.7252948082
 11
97.5119609223
 21
43.7252948082
  0
LINE
  5
3A5
100
AcDbEntity
  8
7_ALL_ROUNDS
100
AcDbLine
 62
7
  6
CONTINUOUS
 10
73.0119609223
 20
43.7252948082
 11
71.5119609223
 21
43.7252948082
  0
LINE
  5
3A6
100
AcDbEntity
  8
0
100
AcDbLine
 62
7
  6
CONTINUOUS
 10
70.2619609223
 20
44.3502948082
 11
100.2619609223
 21
44.3502948082
  0
LINE
  5
3A7
100
AcDbEntity
  8
0
100
AcDbLine
 62
7
  6
CONTINUOUS
 10
71.0119609223
 20
45.1002948082
 11
99.5119609223
 21
45.1002948082
  0
LINE
  5
3A8
100
AcDbEntity
  8
0
100
AcDbLine
 62
7
  6
CONTINUOUS
 10
95.7619609223
 20
120.8764661325
 11
85.8364942546
 21
117.6612327987
  0
LINE
  5
3A9
100
AcDbEntity
  8
0
100
AcDbLine
 62
7
  6
CONTINUOUS
 10
71.7619609223
 20
109.2764661325
 11
84.582230082
 21
116.874317827
  0
LINE
  5
3AA
100
AcDbEntity
  8
5_ALL_CURVES
100
AcDbLine
 62
4
  6
CONTINUOUS
 10
71.4390804775
 20
109.0264661325
 11
74.5683908223
 21
121.1264661325
  0
LINE
  5
3AB
100
AcDbEntity
  8
0
100
AcDbLine
 62
7
  6
CONTINUOUS
 10
71.7619609223
 20
109.2764661325
 11
74.7619609223
 21
120.8764661325
  0
LINE
  5
3AC
100
AcDbEntity
  8
5_ALL_CURVES
100
AcDbLine
 62
4
  6
CONTINUOUS
 10
71.7619609223
 20
109.2764661325
 11
74.7619609223
 21
120.8764661325
  0
LINE
  5
3AD
100
AcDbEntity
  8
0
100
AcDbLine
 62
7
  6
CONTINUOUS
 10
70.2619609223
 20
44.3502948082
 11
70.2619609223
 21
83.326672761
  0
LINE
  5
3AE
100
AcDbEntity
  8
7_ALL_ROUNDS
100
AcDbLine
 62
7
  6
CONTINUOUS
 10
70.2619609223
 20
84.7134940055
 11
70.2619609223
 21
122.3527873771
  0
LINE
  5
3AF
100
AcDbEntity
  8
0
100
AcDbLine
 62
7
  6
CONTINUOUS
 10
70.3369609223
 20
122.876479285
 11
70.3369609223
 21
107.276479285
  0
LINE
  5
3B0
100
AcDbEntity
  8
0
100
AcDbLine
 62
7
  6
CONTINUOUS
 10
71.0119609223
 20
82.576672761
 11
71.0119609223
 21
45.1002948082
  0
LINE
  5
3B1
100
AcDbEntity
  8
0
100
AcDbLine
 62
7
  6
CONTINUOUS
 10
71.0879609223
 20
107.0837873771
 11
71.0879609223
 21
107.276479285
  0
LINE
  5
3B2
100
AcDbEntity
  8
0
100
AcDbLine
 62
7
  6
CONTINUOUS
 10
71.1879609223
 20
84.2134940055
 11
71.1879609223
 21
84.014998563
  0
LINE
  5
3B3
100
AcDbEntity
  8
0
100
AcDbLine
 62
7
  6
CONTINUOUS
 10
71.2639609223
 20
84.2134940055
 11
71.2639609223
 21
84.014998563
  0
LINE
  5
3B4
100
AcDbEntity
  8
0
100
AcDbLine
 62
7
  6
CONTINUOUS
 10
71.3239609223
 20
83.326672761
 11
71.3239609223
 21
84.2134940055
  0
LINE
  5
3B5
100
AcDbEntity
  8
7_ALL_ROUNDS
100
AcDbLine
 62
7
  6
CONTINUOUS
 10
71.5119609223
 20
44.3502948082
 11
71.5119609223
 21
43.7252948082
  0
LINE
  5
3B6
100
AcDbEntity
  8
5_ALL_CURVES
100
AcDbLine
 62
4
  6
CONTINUOUS
 10
72.9125696088
 20
104.9208107233
 11
70.7592608471
 21
86.222172761
  0
LINE
  5
3B7
100
AcDbEntity
  8
5_ALL_CURVES
100
AcDbLine
 62
4
  6
CONTINUOUS
 10
73.1354321894
 20
104.6708107233
 11
71.0397027222
 21
86.472172761
  0
LINE
  5
3B8
100
AcDbEntity
  8
7_ALL_ROUNDS
100
AcDbLine
 62
7
  6
CONTINUOUS
 10
71.6300818497
 20
91.5988348193
 11
72.6377709136
 21
100.3492810267
  0
LINE
  5
3B9
100
AcDbEntity
  8
7_ALL_ROUNDS
100
AcDbLine
 62
7
  6
CONTINUOUS
 10
73.0119609223
 20
44.3502948082
 11
73.0119609223
 21
43.7252948082
  0
LINE
  5
3BA
100
AcDbEntity
  8
0
100
AcDbLine
 62
7
  6
CONTINUOUS
 10
82.6729648593
 20
107.276479285
 11
82.6729648593
 21
107.0837873771
  0
LINE
  5
3BB
100
AcDbEntity
  8
0
100
AcDbLine
 62
7
  6
CONTINUOUS
 10
99.5119609223
 20
82.576672761
 11
71.0119609223
 21
82.576672761
  0
LINE
  5
3BC
100
AcDbEntity
  8
0
100
AcDbLine
 62
7
  6
CONTINUOUS
 10
70.2619609223
 20
83.326672761
 11
100.2619609223
 21
83.326672761
  0
LINE
  5
3BD
100
AcDbEntity
  8
0
100
AcDbLine
 62
7
  6
CONTINUOUS
 10
87.8509569853
 20
107.276479285
 11
87.8509569853
 21
107.0837873771
  0
LINE
  5
3BE
100
AcDbEntity
  8
0
100
AcDbLine
 62
7
  6
CONTINUOUS
 10
87.9369609223
 20
107.276479285
 11
87.9369609223
 21
107.2203798785
  0
LINE
  5
3BF
100
AcDbEntity
  8
0
100
AcDbLine
 62
7
  6
CONTINUOUS
 10
88.1819609223
 20
107.276479285
 11
88.1819609223
 21
107.2377446963
  0
LINE
  5
3C0
100
AcDbEntity
  8
0
100
AcDbLine
 62
7
  6
CONTINUOUS
 10
71.1879609223
 20
84.01446767
 11
71.2639609223
 21
84.01446767
  0
LINE
  5
3C1
100
AcDbEntity
  8
0
100
AcDbLine
 62
7
  6
CONTINUOUS
 10
99.2599609223
 20
84.01446767
 11
99.3359609223
 21
84.01446767
  0
LINE
  5
3C2
100
AcDbEntity
  8
7_ALL_ROUNDS
100
AcDbLine
 62
7
  6
CONTINUOUS
 10
70.7619609223
 20
84.2134940055
 11
99.7619609223
 21
84.2134940055
  0
LINE
  5
3C3
100
AcDbEntity
  8
5_ALL_CURVES
100
AcDbLine
 62
4
  6
CONTINUOUS
 10
70.7592608471
 20
86.222172761
 11
99.7646609975
 21
86.222172761
  0
LINE
  5
3C4
100
AcDbEntity
  8
0
100
AcDbLine
 62
7
  6
CONTINUOUS
 10
88.5919609223
 20
107.0972789094
 11
88.5919609223
 21
107.276479285
  0
LINE
  5
3C5
100
AcDbEntity
  8
7_ALL_ROUNDS
100
AcDbLine
 62
7
  6
CONTINUOUS
 10
93.9028534557
 20
86.4721727684
 11
76.6210683914
 21
86.4721727681
  0
LINE
  5
3C6
100
AcDbEntity
  8
5_ALL_CURVES
100
AcDbLine
 62
4
  6
CONTINUOUS
 10
71.0397027222
 20
86.472172761
 11
99.4842191224
 21
86.472172761
  0
LINE
  5
3C7
100
AcDbEntity
  8
7_ALL_ROUNDS
100
AcDbLine
 62
7
  6
CONTINUOUS
 10
97.5119609223
 20
44.3502948082
 11
97.5119609223
 21
43.7252948082
  0
LINE
  5
3C8
100
AcDbEntity
  8
7_ALL_ROUNDS
100
AcDbLine
 62
7
  6
CONTINUOUS
 10
99.0119609223
 20
44.3502948082
 11
99.0119609223
 21
43.7252948082
  0
LINE
  5
3C9
100
AcDbEntity
  8
0
100
AcDbLine
 62
7
  6
CONTINUOUS
 10
99.1999609223
 20
83.326672761
 11
99.1999609223
 21
84.2134940055
  0
LINE
  5
3CA
100
AcDbEntity
  8
0
100
AcDbLine
 62
7
  6
CONTINUOUS
 10
99.2599609223
 20
84.2134940055
 11
99.2599609223
 21
84.014998563
  0
LINE
  5
3CB
100
AcDbEntity
  8
0
100
AcDbLine
 62
7
  6
CONTINUOUS
 10
99.3359609223
 20
84.2134940055
 11
99.3359609223
 21
84.014998563
  0
LINE
  5
3CC
100
AcDbEntity
  8
0
100
AcDbLine
 62
7
  6
CONTINUOUS
 10
99.4359609223
 20
107.0837873771
 11
99.4359609223
 21
107.276479285
  0
LINE
  5
3CD
100
AcDbEntity
  8
0
100
AcDbLine
 62
7
  6
CONTINUOUS
 10
99.5119609223
 20
45.1002948082
 11
99.5119609223
 21
82.576672761
  0
LINE
  5
3CE
100
AcDbEntity
  8
5_ALL_CURVES
100
AcDbLine
 62
4
  6
CONTINUOUS
 10
97.3884896552
 20
104.6708107233
 11
99.4842191224
 21
86.472172761
  0
LINE
  5
3CF
100
AcDbEntity
  8
7_ALL_ROUNDS
100
AcDbLine
 62
7
  6
CONTINUOUS
 10
97.8861509284
 20
100.349281039
 11
98.893839995
 21
91.5988348159
  0
LINE
  5
3D0
100
AcDbEntity
  8
0
100
AcDbLine
 62
7
  6
CONTINUOUS
 10
100.1869609223
 20
107.276479285
 11
100.1869609223
 21
122.876479285
  0
LINE
  5
3D1
100
AcDbEntity
  8
0
100
AcDbLine
 62
7
  6
CONTINUOUS
 10
100.2619609223
 20
44.3502948082
 11
100.2619609223
 21
83.326672761
  0
LINE
  5
3D2
100
AcDbEntity
  8
7_ALL_ROUNDS
100
AcDbLine
 62
7
  6
CONTINUOUS
 10
100.2619609223
 20
84.7134940055
 11
100.2619609223
 21
122.3527873771
  0
LINE
  5
3D3
100
AcDbEntity
  8
5_ALL_CURVES
100
AcDbLine
 62
4
  6
CONTINUOUS
 10
97.6113522358
 20
104.9208107233
 11
99.7646609975
 21
86.222172761
  0
LINE
  5
3D4
100
AcDbEntity
  8
0
100
AcDbLine
 62
7
  6
CONTINUOUS
 10
95.7619609223
 20
120.8764661325
 11
98.7619609223
 21
109.2764661325
  0
LINE
  5
3D5
100
AcDbEntity
  8
5_ALL_CURVES
100
AcDbLine
 62
4
  6
CONTINUOUS
 10
95.7619609223
 20
120.8764661325
 11
98.7619609223
 21
109.2764661325
  0
LINE
  5
3D6
100
AcDbEntity
  8
5_ALL_CURVES
100
AcDbLine
 62
4
  6
CONTINUOUS
 10
95.9555310223
 20
121.1264661325
 11
99.0848413671
 21
109.0264661325
  0
LINE
  5
3D7
100
AcDbEntity
  8
5_ALL_CURVES
100
AcDbLine
 62
4
  6
CONTINUOUS
 10
73.1354321894
 20
104.6708107233
 11
97.3884896552
 21
104.6708107233
  0
LINE
  5
3D8
100
AcDbEntity
  8
7_ALL_ROUNDS
100
AcDbLine
 62
7
  6
CONTINUOUS
 10
78.1352818585
 20
104.6708107143
 11
92.3886399853
 21
104.6708107144
  0
LINE
  5
3D9
100
AcDbEntity
  8
5_ALL_CURVES
100
AcDbLine
 62
4
  6
CONTINUOUS
 10
72.9125696088
 20
104.9208107233
 11
97.6113522358
 21
104.9208107233
  0
LINE
  5
3DA
100
AcDbEntity
  8
7_ALL_ROUNDS
100
AcDbLine
 62
7
  6
CONTINUOUS
 10
99.7619609223
 20
107.0837873771
 11
70.7619609223
 21
107.0837873771
  0
LINE
  5
3DB
100
AcDbEntity
  8
0
100
AcDbLine
 62
7
  6
CONTINUOUS
 10
88.5919609223
 20
107.0972789094
 11
87.9369609223
 21
107.0972789094
  0
LINE
  5
3DC
100
AcDbEntity
  8
0
100
AcDbLine
 62
7
  6
CONTINUOUS
 10
87.9369609223
 20
107.2203798785
 11
88.5919609223
 21
107.2203798785
  0
LINE
  5
3DD
100
AcDbEntity
  8
0
100
AcDbLine
 62
7
  6
CONTINUOUS
 10
87.9369609223
 20
107.2377446963
 11
88.1819609223
 21
107.2377446963
  0
LINE
  5
3DE
100
AcDbEntity
  8
0
100
AcDbLine
 62
7
  6
CONTINUOUS
 10
70.3369609223
 20
107.276479285
 11
100.1869609223
 21
107.276479285
  0
LINE
  5
3DF
100
AcDbEntity
  8
5_ALL_CURVES
100
AcDbLine
 62
4
  6
CONTINUOUS
 10
99.0848413671
 20
109.0264661325
 11
71.4390804775
 21
109.0264661325
  0
LINE
  5
3E0
100
AcDbEntity
  8
0
100
AcDbLine
 62
7
  6
CONTINUOUS
 10
98.7619609223
 20
109.2764661325
 11
71.7619609223
 21
109.2764661325
  0
LINE
  5
3E1
100
AcDbEntity
  8
5_ALL_CURVES
100
AcDbLine
 62
4
  6
CONTINUOUS
 10
98.7619609223
 20
109.2764661325
 11
71.7619609223
 21
109.2764661325
  0
LINE
  5
3E2
100
AcDbEntity
  8
0
100
AcDbLine
 62
7
  6
CONTINUOUS
 10
98.7619609223
 20
109.2764661325
 11
85.9416917626
 21
116.874317827
  0
LINE
  5
3E3
100
AcDbEntity
  8
0
100
AcDbLine
 62
7
  6
CONTINUOUS
 10
74.7619609223
 20
120.8764661325
 11
84.68742759
 21
117.6612327987
  0
LINE
  5
3E4
100
AcDbEntity
  8
0
100
AcDbLine
 62
7
  6
CONTINUOUS
 10
74.7619609223
 20
120.8764661325
 11
95.7619609223
 21
120.8764661325
  0
LINE
  5
3E5
100
AcDbEntity
  8
5_ALL_CURVES
100
AcDbLine
 62
4
  6
CONTINUOUS
 10
74.7619609223
 20
120.8764661325
 11
95.7619609223
 21
120.8764661325
  0
LINE
  5
3E6
100
AcDbEntity
  8
5_ALL_CURVES
100
AcDbLine
 62
4
  6
CONTINUOUS
 10
74.5683908223
 20
121.1264661325
 11
95.9555310223
 21
121.1264661325
  0
LINE
  5
3E7
100
AcDbEntity
  8
0
100
AcDbLine
 62
7
  6
CONTINUOUS
 10
70.3369609223
 20
122.3527873771
 11
70.2619609223
 21
122.3527873771
  0
LINE
  5
3E8
100
AcDbEntity
  8
0
100
AcDbLine
 62
7
  6
CONTINUOUS
 10
100.1869609223
 20
122.3527873771
 11
100.2619609223
 21
122.3527873771
  0
LINE
  5
3E9
100
AcDbEntity
  8
0
100
AcDbLine
 62
7
  6
CONTINUOUS
 10
100.1869609223
 20
122.876479285
 11
70.3369609223
 21
122.876479285
  0
LINE
  5
3EA
100
AcDbEntity
  8
7_ALL_ROUNDS
100
AcDbLine
 62
7
  6
CONTINUOUS
 10
70.2619609223
 20
146.3818154762
 11
70.2619609223
 21
147.4578154762
  0
LINE
  5
3EB
100
AcDbEntity
  8
0
100
AcDbLine
 62
7
  6
CONTINUOUS
 10
70.2619609223
 20
147.4578154762
 11
70.2619609223
 21
166.6318154762
  0
LINE
  5
3EC
100
AcDbEntity
  8
7_ALL_ROUNDS
100
AcDbLine
 62
7
  6
CONTINUOUS
 10
70.3369609223
 20
147.4578154762
 11
70.3369609223
 21
146.7078154762
  0
LINE
  5
3ED
100
AcDbEntity
  8
0
100
AcDbLine
 62
7
  6
CONTINUOUS
 10
70.3369609223
 20
146.3818154762
 11
70.3369609223
 21
146.6318154762
  0
LINE
  5
3EE
100
AcDbEntity
  8
7_ALL_ROUNDS
100
AcDbLine
 62
7
  6
CONTINUOUS
 10
70.4219609223
 20
146.6318154762
 11
70.4219609223
 21
146.7078154762
  0
LINE
  5
3EF
100
AcDbEntity
  8
7_ALL_ROUNDS
100
AcDbLine
 62
7
  6
CONTINUOUS
 10
70.7619609223
 20
146.6318154762
 11
70.7619609223
 21
146.7078154762
  0
LINE
  5
3F0
100
AcDbEntity
  8
0
100
AcDbLine
 62
7
  6
CONTINUOUS
 10
71.0879609223
 20
146.6318154762
 11
71.0879609223
 21
146.7078154762
  0
LINE
  5
3F1
100
AcDbEntity
  8
0
100
AcDbLine
 62
7
  6
CONTINUOUS
 10
71.1879609223
 20
147.9806982551
 11
71.1879609223
 21
146.7078154762
  0
LINE
  5
3F2
100
AcDbEntity
  8
0
100
AcDbLine
 62
7
  6
CONTINUOUS
 10
71.2639609223
 20
147.9806982551
 11
71.2639609223
 21
146.6318154762
  0
LINE
  5
3F3
100
AcDbEntity
  8
0
100
AcDbLine
 62
7
  6
CONTINUOUS
 10
71.3239609223
 20
148.5440801834
 11
71.3239609223
 21
146.8068154762
  0
LINE
  5
3F4
100
AcDbEntity
  8
0
100
AcDbLine
 62
7
  6
CONTINUOUS
 10
71.4029609223
 20
148.5372617909
 11
71.4029609223
 21
146.8858154762
  0
LINE
  5
3F5
100
AcDbEntity
  8
0
100
AcDbLine
 62
7
  6
CONTINUOUS
 10
74.4442627124
 20
166.4858154762
 11
71.3239609223
 21
148.5440801834
  0
LINE
  5
3F6
100
AcDbEntity
  8
0
100
AcDbLine
 62
7
  6
CONTINUOUS
 10
74.5107093893
 20
166.4068154762
 11
71.4029609223
 21
148.5372617909
  0
LINE
  5
3F7
100
AcDbEntity
  8
0
100
AcDbLine
 62
7
  6
CONTINUOUS
 10
92.8869609223
 20
146.3518154762
 11
77.6369609223
 21
146.3518154762
  0
LINE
  5
3F8
100
AcDbEntity
  8
7_ALL_ROUNDS
100
AcDbLine
 62
7
  6
CONTINUOUS
 10
100.2619609223
 20
146.3818154762
 11
100.1869609223
 21
146.3818154762
  0
LINE
  5
3F9
100
AcDbEntity
  8
0
100
AcDbLine
 62
7
  6
CONTINUOUS
 10
100.1869609223
 20
146.3818154762
 11
70.3369609223
 21
146.3818154762
  0
LINE
  5
3FA
100
AcDbEntity
  8
7_ALL_ROUNDS
100
AcDbLine
 62
7
  6
CONTINUOUS
 10
70.3369609223
 20
146.3818154762
 11
70.2619609223
 21
146.3818154762
  0
LINE
  5
3FB
100
AcDbEntity
  8
0
100
AcDbLine
 62
7
  6
CONTINUOUS
 10
70.2619609223
 20
146.6318154762
 11
100.2619609223
 21
146.6318154762
  0
LINE
  5
3FC
100
AcDbEntity
  8
0
100
AcDbLine
 62
7
  6
CONTINUOUS
 10
71.1879609223
 20
146.7078154762
 11
71.0879609223
 21
146.7078154762
  0
LINE
  5
3FD
100
AcDbEntity
  8
7_ALL_ROUNDS
100
AcDbLine
 62
7
  6
CONTINUOUS
 10
70.3369609223
 20
146.7078154762
 11
71.0879609223
 21
146.7078154762
  0
LINE
  5
3FE
100
AcDbEntity
  8
0
100
AcDbLine
 62
7
  6
CONTINUOUS
 10
99.3359609223
 20
146.7078154762
 11
99.4359609223
 21
146.7078154762
  0
LINE
  5
3FF
100
AcDbEntity
  8
7_ALL_ROUNDS
100
AcDbLine
 62
7
  6
CONTINUOUS
 10
99.4359609223
 20
146.7078154762
 11
100.1869609223
 21
146.7078154762
  0
LINE
  5
400
100
AcDbEntity
  8
0
100
AcDbLine
 62
7
  6
CONTINUOUS
 10
71.3239609223
 20
146.8068154762
 11
71.7604776054
 21
146.8068154762
  0
LINE
  5
401
100
AcDbEntity
  8
0
100
AcDbLine
 62
7
  6
CONTINUOUS
 10
98.7634451608
 20
146.8068154762
 11
99.1999609223
 21
146.8068154762
  0
LINE
  5
402
100
AcDbEntity
  8
0
100
AcDbLine
 62
7
  6
CONTINUOUS
 10
71.4029609223
 20
146.8858154762
 11
71.8445976875
 21
146.8858154762
  0
LINE
  5
403
100
AcDbEntity
  8
0
100
AcDbLine
 62
7
  6
CONTINUOUS
 10
98.6793255047
 20
146.8858154762
 11
99.1209609223
 21
146.8858154762
  0
LINE
  5
404
100
AcDbEntity
  8
7_ALL_ROUNDS
100
AcDbLine
 62
7
  6
CONTINUOUS
 10
100.2619609223
 20
146.9578154762
 11
100.1869609223
 21
146.9578154762
  0
LINE
  5
405
100
AcDbEntity
  8
7_ALL_ROUNDS
100
AcDbLine
 62
7
  6
CONTINUOUS
 10
70.3369609223
 20
146.9578154762
 11
70.2619609223
 21
146.9578154762
  0
LINE
  5
406
100
AcDbEntity
  8
0
100
AcDbLine
 62
7
  6
CONTINUOUS
 10
71.2639609223
 20
147.0928152016
 11
71.1879609223
 21
147.0928152016
  0
LINE
  5
407
100
AcDbEntity
  8
0
100
AcDbLine
 62
7
  6
CONTINUOUS
 10
99.2599609223
 20
147.0928152016
 11
99.3359609223
 21
147.0928152016
  0
LINE
  5
408
100
AcDbEntity
  8
7_ALL_ROUNDS
100
AcDbLine
 62
7
  6
CONTINUOUS
 10
100.2619609223
 20
147.4578154762
 11
100.1869609223
 21
147.4578154762
  0
LINE
  5
409
100
AcDbEntity
  8
7_ALL_ROUNDS
100
AcDbLine
 62
7
  6
CONTINUOUS
 10
70.3369609223
 20
147.4578154762
 11
70.2619609223
 21
147.4578154762
  0
LINE
  5
40A
100
AcDbEntity
  8
0
100
AcDbLine
 62
7
  6
CONTINUOUS
 10
71.2639609223
 20
147.8989032886
 11
71.1879609223
 21
147.8989032886
  0
LINE
  5
40B
100
AcDbEntity
  8
0
100
AcDbLine
 62
7
  6
CONTINUOUS
 10
99.2599609223
 20
147.8989032886
 11
99.3359609223
 21
147.8989032886
  0
LINE
  5
40C
100
AcDbEntity
  8
0
100
AcDbLine
 62
7
  6
CONTINUOUS
 10
71.1879609223
 20
147.9810295657
 11
71.2639609223
 21
147.9810295657
  0
LINE
  5
40D
100
AcDbEntity
  8
0
100
AcDbLine
 62
7
  6
CONTINUOUS
 10
99.2599609223
 20
147.9810295657
 11
99.3359609223
 21
147.9810295657
  0
LINE
  5
40E
100
AcDbEntity
  8
0
100
AcDbLine
 62
7
  6
CONTINUOUS
 10
77.6369609223
 20
146.3818154762
 11
77.6369609223
 21
146.3518154762
  0
LINE
  5
40F
100
AcDbEntity
  8
0
100
AcDbLine
 62
7
  6
CONTINUOUS
 10
78.7619609223
 20
156.2584059978
 11
78.7619609223
 21
156.6319790096
  0
LINE
  5
410
100
AcDbEntity
  8
0
100
AcDbLine
 62
7
  6
CONTINUOUS
 10
79.5119609221
 20
157.7626050835
 11
79.5119609221
 21
158.1143147593
  0
LINE
  5
411
100
AcDbEntity
  8
0
100
AcDbLine
 62
7
  6
CONTINUOUS
 10
79.6739296677
 20
156.6319790096
 11
79.6739296677
 21
157.64578262
  0
LINE
  5
412
100
AcDbEntity
  8
0
100
AcDbLine
 62
7
  6
CONTINUOUS
 10
80.0161977003
 20
161.0432405138
 11
79.862224768
 21
158.1164726063
  0
LINE
  5
413
100
AcDbEntity
  8
0
100
AcDbLine
 62
7
  6
CONTINUOUS
 10
88.7563037279
 20
163.3490962388
 11
88.8046550121
 21
163.3666276998
  0
LINE
  5
414
100
AcDbEntity
  8
0
100
AcDbLine
 62
7
  6
CONTINUOUS
 10
88.7563037279
 20
163.3386375497
 11
88.8080065572
 21
163.3573842313
  0
LINE
  5
415
100
AcDbEntity
  8
0
100
AcDbLine
 62
7
  6
CONTINUOUS
 10
88.7563037279
 20
163.3044724986
 11
88.8046550121
 21
163.3220039595
  0
LINE
  5
416
100
AcDbEntity
  8
0
100
AcDbLine
 62
7
  6
CONTINUOUS
 10
88.7563037279
 20
163.2940138094
 11
88.8080065572
 21
163.312760491
  0
LINE
  5
417
100
AcDbEntity
  8
0
100
AcDbLine
 62
7
  6
CONTINUOUS
 10
88.7563037279
 20
163.2598487583
 11
88.8047388008
 21
163.2774105997
  0
LINE
  5
418
100
AcDbEntity
  8
0
100
AcDbLine
 62
7
  6
CONTINUOUS
 10
88.7563037279
 20
163.2493900691
 11
88.8080903458
 21
163.2681671313
  0
LINE
  5
419
100
AcDbEntity
  8
0
100
AcDbLine
 62
7
  6
CONTINUOUS
 10
88.7563037279
 20
163.215225018
 11
88.8190387262
 21
163.237971801
  0
LINE
  5
41A
100
AcDbEntity
  8
0
100
AcDbLine
 62
7
  6
CONTINUOUS
 10
88.7563037279
 20
163.2047663289
 11
88.8223902712
 21
163.2287283325
  0
LINE
  5
41B
100
AcDbEntity
  8
0
100
AcDbLine
 62
7
  6
CONTINUOUS
 10
88.7563037279
 20
163.1706012777
 11
88.8384434066
 21
163.200383911
  0
LINE
  5
41C
100
AcDbEntity
  8
0
100
AcDbLine
 62
7
  6
CONTINUOUS
 10
88.7563037279
 20
163.1604040558
 11
88.8384434066
 21
163.1901866891
  0
LINE
  5
41D
100
AcDbEntity
  8
0
100
AcDbLine
 62
7
  6
CONTINUOUS
 10
80.6480656758
 20
156.2776156135
 11
80.6480656758
 21
157.4082416874
  0
LINE
  5
41E
100
AcDbEntity
  8
0
100
AcDbLine
 62
7
  6
CONTINUOUS
 10
80.6960969305
 20
157.4082416874
 11
80.6960969305
 21
157.7599513632
  0
LINE
  5
41F
100
AcDbEntity
  8
0
100
AcDbLine
 62
7
  6
CONTINUOUS
 10
81.4053100258
 20
156.2334690026
 11
81.4053100258
 21
157.3640950766
  0
LINE
  5
420
100
AcDbEntity
  8
0
100
AcDbLine
 62
7
  6
CONTINUOUS
 10
81.5646878778
 20
157.378796366
 11
81.5646878778
 21
157.7305060418
  0
LINE
  5
421
100
AcDbEntity
  8
0
100
AcDbLine
 62
7
  6
CONTINUOUS
 10
81.8319609223
 20
157.3859024243
 11
81.8319609223
 21
157.3072030431
  0
LINE
  5
422
100
AcDbEntity
  8
0
100
AcDbLine
 62
7
  6
CONTINUOUS
 10
81.8886798336
 20
157.2885995832
 11
81.8886798336
 21
157.3672989644
  0
LINE
  5
423
100
AcDbEntity
  8
0
100
AcDbLine
 62
7
  6
CONTINUOUS
 10
82.0171762868
 20
156.1411027887
 11
82.0171762868
 21
157.2717288627
  0
LINE
  5
424
100
AcDbEntity
  8
0
100
AcDbLine
 62
7
  6
CONTINUOUS
 10
82.0259609223
 20
154.8063167314
 11
82.0259609223
 21
154.8853167314
  0
LINE
  5
425
100
AcDbEntity
  8
0
100
AcDbLine
 62
7
  6
CONTINUOUS
 10
82.2019609223
 20
156.5431208122
 11
82.2019609223
 21
157.3309670146
  0
LINE
  5
426
100
AcDbEntity
  8
0
100
AcDbLine
 62
7
  6
CONTINUOUS
 10
82.3819609223
 20
157.5730524565
 11
82.3819609223
 21
157.3309670146
  0
LINE
  5
427
100
AcDbEntity
  8
0
100
AcDbLine
 62
7
  6
CONTINUOUS
 10
82.3819609223
 20
156.3738447514
 11
82.3819609223
 21
155.981780393
  0
LINE
  5
428
100
AcDbEntity
  8
0
100
AcDbLine
 62
7
  6
CONTINUOUS
 10
82.6729648593
 20
155.7714874168
 11
82.6729648593
 21
155.2559058735
  0
LINE
  5
429
100
AcDbEntity
  8
0
100
AcDbLine
 62
7
  6
CONTINUOUS
 10
82.7619609223
 20
158.7616407467
 11
82.7619609223
 21
157.8206546991
  0
LINE
  5
42A
100
AcDbEntity
  8
0
100
AcDbLine
 62
7
  6
CONTINUOUS
 10
82.8471841516
 20
157.5730524565
 11
82.8471841516
 21
157.8942217815
  0
LWPOLYLINE
  5
42B
100
AcDbEntity
  8
0
100
AcDbPolyline
 62
7
  6
CONTINUOUS
 90
3
 70
0
 10
81.2909649556
 20
155.8131028254
 10
80.476867382
 20
155.0198805298
 10
79.3380585865
 20
153.9281575715
  0
LINE
  5
42C
100
AcDbEntity
  8
0
100
AcDbLine
 62
7
  6
CONTINUOUS
 10
71.6068635499
 20
146.6318154718
 11
71.6854842162
 21
146.7060410302
  0
LINE
  5
42D
100
AcDbEntity
  8
7_ALL_ROUNDS
100
AcDbLine
 62
7
  6
CONTINUOUS
 10
78.6281342329
 20
153.2590932422
 11
71.5741356515
 21
146.6318154762
  0
LINE
  5
42E
100
AcDbEntity
  8
0
100
AcDbLine
 62
7
  6
CONTINUOUS
 10
78.6273533997
 20
153.2583399189
 11
79.3380585865
 21
153.9281575715
  0
LINE
  5
42F
100
AcDbEntity
  8
0
100
AcDbLine
 62
7
  6
CONTINUOUS
 10
82.026255458
 20
154.8063167314
 11
82.103821182
 21
154.8063167314
  0
LINE
  5
430
100
AcDbEntity
  8
0
100
AcDbLine
 62
7
  6
CONTINUOUS
 10
82.026255458
 20
154.8853167314
 11
82.2038288252
 21
154.8853167314
  0
LINE
  5
431
100
AcDbEntity
  8
0
100
AcDbLine
 62
7
  6
CONTINUOUS
 10
74.815041335
 20
146.6318154762
 11
83.6367776131
 21
155.5733499791
  0
LINE
  5
432
100
AcDbEntity
  8
0
100
AcDbLine
 62
7
  6
CONTINUOUS
 10
71.7680247993
 20
146.6416616299
 11
83.1623012432
 21
155.6424520723
  0
LINE
  5
433
100
AcDbEntity
  8
0
100
AcDbLine
 62
7
  6
CONTINUOUS
 10
88.595218636
 20
156.1544585231
 11
89.1186118188
 21
156.2334690026
  0
LINE
  5
434
100
AcDbEntity
  8
0
100
AcDbLine
 62
7
  6
CONTINUOUS
 10
87.8509569853
 20
155.6697707449
 11
87.7619609223
 21
155.6697707449
  0
LINE
  5
435
100
AcDbEntity
  8
0
100
AcDbLine
 62
7
  6
CONTINUOUS
 10
88.5919609223
 20
156.089214675
 11
88.1419609223
 21
156.089214675
  0
LINE
  5
436
100
AcDbEntity
  8
0
100
AcDbLine
 62
7
  6
CONTINUOUS
 10
81.4053100258
 20
156.2334690026
 11
82.0171762868
 21
156.1411027887
  0
LINE
  5
437
100
AcDbEntity
  8
7_ALL_ROUNDS
100
AcDbLine
 62
7
  6
CONTINUOUS
 10
89.4006344365
 20
163.1901866891
 11
89.4246643445
 21
163.2410123121
  0
LINE
  5
438
100
AcDbEntity
  8
0
100
AcDbLine
 62
7
  6
CONTINUOUS
 10
88.5994854782
 20
157.2831496688
 11
88.635242011
 21
157.2885995832
  0
LINE
  5
439
100
AcDbEntity
  8
0
100
AcDbLine
 62
7
  6
CONTINUOUS
 10
88.6006957093
 20
157.3620335101
 11
88.635242011
 21
157.3672989644
  0
LINE
  5
43A
100
AcDbEntity
  8
0
100
AcDbLine
 62
7
  6
CONTINUOUS
 10
88.6771563554
 20
157.2974537656
 11
89.1186118188
 21
157.3640950766
  0
LINE
  5
43B
100
AcDbEntity
  8
0
100
AcDbLine
 62
7
  6
CONTINUOUS
 10
89.820823677
 20
157.4603121562
 11
89.8278249141
 21
157.4612535213
  0
LINE
  5
43C
100
AcDbEntity
  8
0
100
AcDbLine
 62
7
  6
CONTINUOUS
 10
89.8380904778
 20
157.4591676875
 11
89.8458793817
 21
157.4600624097
  0
LINE
  5
43D
100
AcDbEntity
  8
0
100
AcDbLine
 62
7
  6
CONTINUOUS
 10
88.5944648784
 20
157.7460178284
 11
88.5855598957
 21
157.7453190065
  0
LINE
  5
43E
100
AcDbEntity
  8
0
100
AcDbLine
 62
7
  6
CONTINUOUS
 10
88.6056818395
 20
157.7447783314
 11
88.5962548064
 21
157.7441317789
  0
LINE
  5
43F
100
AcDbEntity
  8
0
100
AcDbLine
 62
7
  6
CONTINUOUS
 10
88.6054145697
 20
157.7066069129
 11
88.6157572987
 21
157.7072524492
  0
LINE
  5
440
100
AcDbEntity
  8
0
100
AcDbLine
 62
7
  6
CONTINUOUS
 10
88.5853039953
 20
157.7090601729
 11
88.5958757485
 21
157.7096664908
  0
LINE
  5
441
100
AcDbEntity
  8
0
100
AcDbLine
 62
7
  6
CONTINUOUS
 10
88.3219609223
 20
156.7785801021
 11
88.5919609223
 21
156.7785801021
  0
LINE
  5
442
100
AcDbEntity
  8
0
100
AcDbLine
 62
7
  6
CONTINUOUS
 10
88.5919609223
 20
156.8002861243
 11
88.3219609223
 21
156.8002861243
  0
LINE
  5
443
100
AcDbEntity
  8
0
100
AcDbLine
 62
7
  6
CONTINUOUS
 10
88.3219609223
 20
156.8654041909
 11
88.5919609223
 21
156.8654041909
  0
LINE
  5
444
100
AcDbEntity
  8
0
100
AcDbLine
 62
7
  6
CONTINUOUS
 10
88.5919609223
 20
156.8871102131
 11
88.3219609223
 21
156.8871102131
  0
LINE
  5
445
100
AcDbEntity
  8
0
100
AcDbLine
 62
7
  6
CONTINUOUS
 10
88.3219609223
 20
156.9522282797
 11
88.5919609223
 21
156.9522282797
  0
LINE
  5
446
100
AcDbEntity
  8
0
100
AcDbLine
 62
7
  6
CONTINUOUS
 10
88.5919609223
 20
156.973934302
 11
88.3219609223
 21
156.973934302
  0
LINE
  5
447
100
AcDbEntity
  8
0
100
AcDbLine
 62
7
  6
CONTINUOUS
 10
88.3219609223
 20
157.0446959344
 11
88.5919609223
 21
157.0446959344
  0
LINE
  5
448
100
AcDbEntity
  8
0
100
AcDbLine
 62
7
  6
CONTINUOUS
 10
88.5919609223
 20
157.0664019566
 11
88.3219609223
 21
157.0664019566
  0
LINE
  5
449
100
AcDbEntity
  8
0
100
AcDbLine
 62
7
  6
CONTINUOUS
 10
88.3219609223
 20
157.137163589
 11
88.5919609223
 21
157.137163589
  0
LINE
  5
44A
100
AcDbEntity
  8
0
100
AcDbLine
 62
7
  6
CONTINUOUS
 10
88.5919609223
 20
157.1588696112
 11
88.3219609223
 21
157.1588696112
  0
LINE
  5
44B
100
AcDbEntity
  8
0
100
AcDbLine
 62
7
  6
CONTINUOUS
 10
88.3219609223
 20
157.2239876778
 11
88.5919609223
 21
157.2239876778
  0
LINE
  5
44C
100
AcDbEntity
  8
0
100
AcDbLine
 62
7
  6
CONTINUOUS
 10
88.5919609223
 20
157.2456937
 11
88.3219609223
 21
157.2456937
  0
LINE
  5
44D
100
AcDbEntity
  8
0
100
AcDbLine
 62
7
  6
CONTINUOUS
 10
88.3219609223
 20
157.3108117666
 11
88.5919609223
 21
157.3108117666
  0
LINE
  5
44E
100
AcDbEntity
  8
0
100
AcDbLine
 62
7
  6
CONTINUOUS
 10
88.5919609223
 20
157.3325177888
 11
88.3219609223
 21
157.3325177888
  0
LINE
  5
44F
100
AcDbEntity
  8
0
100
AcDbLine
 62
7
  6
CONTINUOUS
 10
88.5919609223
 20
157.3976358555
 11
88.3219609223
 21
157.3976358555
  0
LINE
  5
450
100
AcDbEntity
  8
0
100
AcDbLine
 62
7
  6
CONTINUOUS
 10
88.5919609223
 20
157.4193418777
 11
88.2549589439
 21
157.4193418777
  0
LINE
  5
451
100
AcDbEntity
  8
0
100
AcDbLine
 62
7
  6
CONTINUOUS
 10
88.1796093852
 20
157.4844599443
 11
88.5919609223
 21
157.4844599443
  0
LINE
  5
452
100
AcDbEntity
  8
0
100
AcDbLine
 62
7
  6
CONTINUOUS
 10
88.5919609223
 20
157.5061659665
 11
88.1819609223
 21
157.5061659665
  0
LINE
  5
453
100
AcDbEntity
  8
0
100
AcDbLine
 62
7
  6
CONTINUOUS
 10
88.1419609223
 20
157.5712840331
 11
88.5919609223
 21
157.5712840331
  0
LINE
  5
454
100
AcDbEntity
  8
0
100
AcDbLine
 62
7
  6
CONTINUOUS
 10
88.5919609223
 20
157.5929900553
 11
88.1419609223
 21
157.5929900553
  0
LINE
  5
455
100
AcDbEntity
  8
0
100
AcDbLine
 62
7
  6
CONTINUOUS
 10
88.073196709
 20
157.6637516877
 11
88.5919609223
 21
157.6637516877
  0
LINE
  5
456
100
AcDbEntity
  8
0
100
AcDbLine
 62
7
  6
CONTINUOUS
 10
88.5919609223
 20
157.6854577099
 11
88.0567401468
 21
157.6854577099
  0
LINE
  5
457
100
AcDbEntity
  8
0
100
AcDbLine
 62
7
  6
CONTINUOUS
 10
87.9369609223
 20
157.7562193423
 11
88.5919609223
 21
157.7562193423
  0
LINE
  5
458
100
AcDbEntity
  8
0
100
AcDbLine
 62
7
  6
CONTINUOUS
 10
88.5919609223
 20
157.7779253646
 11
87.9369609223
 21
157.7779253646
  0
LINE
  5
459
100
AcDbEntity
  8
0
100
AcDbLine
 62
7
  6
CONTINUOUS
 10
87.9369609223
 20
157.8430434312
 11
88.5919609223
 21
157.8430434312
  0
LINE
  5
45A
100
AcDbEntity
  8
0
100
AcDbLine
 62
7
  6
CONTINUOUS
 10
80.6780424629
 20
157.4600624097
 11
80.6858313668
 21
157.4591676875
  0
LINE
  5
45B
100
AcDbEntity
  8
0
100
AcDbLine
 62
7
  6
CONTINUOUS
 10
80.6960969305
 20
157.4612535213
 11
80.7030981676
 21
157.4603121562
  0
LINE
  5
45C
100
AcDbEntity
  8
0
100
AcDbLine
 62
7
  6
CONTINUOUS
 10
81.4053100258
 20
157.3640950766
 11
81.8467654892
 21
157.2974537656
  0
LINE
  5
45D
100
AcDbEntity
  8
0
100
AcDbLine
 62
7
  6
CONTINUOUS
 10
82.188537391
 20
157.2428961021
 11
81.8886798336
 21
157.2885995832
  0
LINE
  5
45E
100
AcDbEntity
  8
0
100
AcDbLine
 62
7
  6
CONTINUOUS
 10
82.2002602056
 20
157.3198087234
 11
81.8886798336
 21
157.3672989644
  0
LINE
  5
45F
100
AcDbEntity
  8
0
100
AcDbLine
 62
7
  6
CONTINUOUS
 10
98.7558970453
 20
146.6416616299
 11
87.3616206014
 21
155.6424520723
  0
LINE
  5
460
100
AcDbEntity
  8
0
100
AcDbLine
 62
7
  6
CONTINUOUS
 10
95.7088805096
 20
146.6318154762
 11
86.8871442315
 21
155.5733499791
  0
LINE
  5
461
100
AcDbEntity
  8
0
100
AcDbLine
 62
7
  6
CONTINUOUS
 10
87.676737693
 20
157.5730524565
 11
87.676737693
 21
157.8942217815
  0
LINE
  5
462
100
AcDbEntity
  8
0
100
AcDbLine
 62
7
  6
CONTINUOUS
 10
87.7619609223
 20
155.7341781504
 11
87.7619609223
 21
155.6697707449
  0
LINE
  5
463
100
AcDbEntity
  8
0
100
AcDbLine
 62
7
  6
CONTINUOUS
 10
87.7619609223
 20
157.8206546991
 11
87.7619609223
 21
158.7616407467
  0
LINE
  5
464
100
AcDbEntity
  8
7_ALL_ROUNDS
100
AcDbLine
 62
7
  6
CONTINUOUS
 10
89.4246643445
 20
163.4192458061
 11
89.4303760677
 21
163.4447143189
  0
LINE
  5
465
100
AcDbEntity
  8
7_ALL_ROUNDS
100
AcDbLine
 62
7
  6
CONTINUOUS
 10
89.4246643445
 20
163.3746220658
 11
89.4303760677
 21
163.4000905786
  0
LINE
  5
466
100
AcDbEntity
  8
7_ALL_ROUNDS
100
AcDbLine
 62
7
  6
CONTINUOUS
 10
89.4246643445
 20
163.3299983255
 11
89.4303760677
 21
163.3554668384
  0
LINE
  5
467
100
AcDbEntity
  8
0
100
AcDbLine
 62
7
  6
CONTINUOUS
 10
88.5919609223
 20
157.8647494534
 11
87.9369609223
 21
157.8647494534
  0
LINE
  5
468
100
AcDbEntity
  8
0
100
AcDbLine
 62
7
  6
CONTINUOUS
 10
87.9369609223
 20
157.92986752
 11
88.5919609223
 21
157.92986752
  0
LINE
  5
469
100
AcDbEntity
  8
0
100
AcDbLine
 62
7
  6
CONTINUOUS
 10
87.7619609223
 20
157.9515735422
 11
88.5919609223
 21
157.9515735422
  0
LINE
  5
46A
100
AcDbEntity
  8
0
100
AcDbLine
 62
7
  6
CONTINUOUS
 10
87.7619609223
 20
158.7616407467
 11
87.5837779637
 21
158.7616407467
  0
LINE
  5
46B
100
AcDbEntity
  8
0
100
AcDbLine
 62
7
  6
CONTINUOUS
 10
82.9401438809
 20
158.7616407467
 11
82.7619609223
 21
158.7616407467
  0
LINE
  5
46C
100
AcDbEntity
  8
7_ALL_ROUNDS
100
AcDbLine
 62
7
  6
CONTINUOUS
 10
98.9497861712
 20
146.6318154762
 11
91.9004482784
 21
153.2547197667
  0
LWPOLYLINE
  5
46D
100
AcDbEntity
  8
0
100
AcDbPolyline
 62
7
  6
CONTINUOUS
 90
4
 70
0
 10
91.9012210247
 20
153.2539734982
 10
91.1901235608
 20
153.9241136043
 10
90.0496062882
 20
155.0174130499
 10
89.2329636244
 20
155.8131033071
  0
LINE
  5
46E
100
AcDbEntity
  8
0
100
AcDbLine
 62
7
  6
CONTINUOUS
 10
98.9170582939
 20
146.6318154734
 11
98.8384584254
 21
146.7060102454
  0
LINE
  5
46F
100
AcDbEntity
  8
0
100
AcDbLine
 62
7
  6
CONTINUOUS
 10
87.8509569853
 20
155.6697707449
 11
87.8509569853
 21
155.2559058735
  0
LINE
  5
470
100
AcDbEntity
  8
7_ALL_ROUNDS
100
AcDbLine
 62
7
  6
CONTINUOUS
 10
87.8509569853
 20
155.6697707449
 11
87.8509569853
 21
155.7714874168
  0
LINE
  5
471
100
AcDbEntity
  8
0
100
AcDbLine
 62
7
  6
CONTINUOUS
 10
87.9369609223
 20
157.8430434312
 11
87.9369609223
 21
157.7779253646
  0
LINE
  5
472
100
AcDbEntity
  8
0
100
AcDbLine
 62
7
  6
CONTINUOUS
 10
87.9369609223
 20
157.92986752
 11
87.9369609223
 21
157.8647494534
  0
LINE
  5
473
100
AcDbEntity
  8
0
100
AcDbLine
 62
7
  6
CONTINUOUS
 10
88.1419609223
 20
155.981780393
 11
88.1419609223
 21
156.3738447514
  0
LINE
  5
474
100
AcDbEntity
  8
0
100
AcDbLine
 62
7
  6
CONTINUOUS
 10
88.1419609223
 20
157.3309670146
 11
88.1419609223
 21
157.5730524565
  0
LINE
  5
475
100
AcDbEntity
  8
0
100
AcDbLine
 62
7
  6
CONTINUOUS
 10
88.3219609223
 20
156.5431208122
 11
88.3219609223
 21
157.3309670146
  0
LINE
  5
476
100
AcDbEntity
  8
0
100
AcDbLine
 62
7
  6
CONTINUOUS
 10
88.5919609223
 20
156.089214675
 11
88.5919609223
 21
157.9515735422
  0
LINE
  5
477
100
AcDbEntity
  8
0
100
AcDbLine
 62
7
  6
CONTINUOUS
 10
88.6306344365
 20
163.1565661789
 11
88.6306344365
 21
163.369062506
  0
LINE
  5
478
100
AcDbEntity
  8
0
100
AcDbLine
 62
7
  6
CONTINUOUS
 10
88.635242011
 20
157.2885995832
 11
88.635242011
 21
157.3672989644
  0
LINE
  5
479
100
AcDbEntity
  8
0
100
AcDbLine
 62
7
  6
CONTINUOUS
 10
88.6919609223
 20
157.3072030431
 11
88.6919609223
 21
157.3859024243
  0
LINE
  5
47A
100
AcDbEntity
  8
0
100
AcDbLine
 62
7
  6
CONTINUOUS
 10
88.7563037279
 20
163.1604040558
 11
88.7563037279
 21
163.1070284883
  0
LINE
  5
47B
100
AcDbEntity
  8
0
100
AcDbLine
 62
7
  6
CONTINUOUS
 10
88.7563037279
 20
163.2940138094
 11
88.7563037279
 21
163.266480825
  0
LINE
  5
47C
100
AcDbEntity
  8
0
100
AcDbLine
 62
7
  6
CONTINUOUS
 10
88.7563037279
 20
163.2493900691
 11
88.7563037279
 21
163.215225018
  0
LINE
  5
47D
100
AcDbEntity
  8
0
100
AcDbLine
 62
7
  6
CONTINUOUS
 10
88.7563037279
 20
163.2047663289
 11
88.7563037279
 21
163.1706012777
  0
LINE
  5
47E
100
AcDbEntity
  8
0
100
AcDbLine
 62
7
  6
CONTINUOUS
 10
88.7563037279
 20
163.3108430981
 11
88.7563037279
 21
163.3386375497
  0
LINE
  5
47F
100
AcDbEntity
  8
0
100
AcDbLine
 62
7
  6
CONTINUOUS
 10
88.9592339668
 20
157.378796366
 11
88.9592339668
 21
157.7305060418
  0
LINE
  5
480
100
AcDbEntity
  8
7_ALL_ROUNDS
100
AcDbLine
 62
7
  6
CONTINUOUS
 10
89.4246643445
 20
163.2410123121
 11
89.4303760677
 21
163.266480825
  0
LINE
  5
481
100
AcDbEntity
  8
0
100
AcDbLine
 62
7
  6
CONTINUOUS
 10
89.1186118188
 20
156.2334690026
 11
89.1186118188
 21
157.3640950766
  0
LINE
  5
482
100
AcDbEntity
  8
0
100
AcDbLine
 62
7
  6
CONTINUOUS
 10
89.4649651452
 20
163.345094819
 11
89.4649651452
 21
163.310843068
  0
LINE
  5
483
100
AcDbEntity
  8
0
100
AcDbLine
 62
7
  6
CONTINUOUS
 10
89.4649651452
 20
163.2664807949
 11
89.4649651452
 21
163.3004710787
  0
LINE
  5
484
100
AcDbEntity
  8
0
100
AcDbLine
 62
7
  6
CONTINUOUS
 10
89.4649651452
 20
163.2216822873
 11
89.4649651452
 21
163.2558473384
  0
LINE
  5
485
100
AcDbEntity
  8
0
100
AcDbLine
 62
7
  6
CONTINUOUS
 10
89.4649651452
 20
162.7014933692
 11
89.4649651452
 21
163.2112235981
  0
LINE
  5
486
100
AcDbEntity
  8
0
100
AcDbLine
 62
7
  6
CONTINUOUS
 10
89.8278249141
 20
157.4082416874
 11
89.8278249141
 21
157.7599513632
  0
LINE
  5
487
100
AcDbEntity
  8
0
100
AcDbLine
 62
7
  6
CONTINUOUS
 10
89.8758561688
 20
156.2776156135
 11
89.8758561688
 21
157.4082416874
  0
LINE
  5
488
100
AcDbEntity
  8
7_ALL_ROUNDS
100
AcDbLine
 62
7
  6
CONTINUOUS
 10
88.8087017755
 20
163.266480825
 11
88.8144134987
 21
163.2410123121
  0
LINE
  5
489
100
AcDbEntity
  8
7_ALL_ROUNDS
100
AcDbLine
 62
7
  6
CONTINUOUS
 10
88.8087017755
 20
163.3554668384
 11
88.8144134987
 21
163.3299983255
  0
LINE
  5
48A
100
AcDbEntity
  8
7_ALL_ROUNDS
100
AcDbLine
 62
7
  6
CONTINUOUS
 10
88.8087017755
 20
163.4000905786
 11
88.8144134987
 21
163.3746220658
  0
LINE
  5
48B
100
AcDbEntity
  8
7_ALL_ROUNDS
100
AcDbLine
 62
7
  6
CONTINUOUS
 10
88.8087017755
 20
163.4447143189
 11
88.8144134987
 21
163.4192458061
  0
LINE
  5
48C
100
AcDbEntity
  8
0
100
AcDbLine
 62
7
  6
CONTINUOUS
 10
90.5077241443
 20
161.0432405138
 11
90.6616970766
 21
158.1164726063
  0
LINE
  5
48D
100
AcDbEntity
  8
0
100
AcDbLine
 62
7
  6
CONTINUOUS
 10
90.8499921769
 20
156.6319790096
 11
90.8499921769
 21
157.64578262
  0
LINE
  5
48E
100
AcDbEntity
  8
0
100
AcDbLine
 62
7
  6
CONTINUOUS
 10
91.0119609225
 20
157.7626050835
 11
91.0119609225
 21
158.1143147593
  0
LINE
  5
48F
100
AcDbEntity
  8
7_ALL_ROUNDS
100
AcDbLine
 62
7
  6
CONTINUOUS
 10
88.8144134987
 20
163.2410123121
 11
88.8384434066
 21
163.1901866891
  0
LINE
  5
490
100
AcDbEntity
  8
0
100
AcDbLine
 62
7
  6
CONTINUOUS
 10
91.7619609223
 20
156.2584059978
 11
91.7619609223
 21
156.6319790096
  0
LINE
  5
491
100
AcDbEntity
  8
0
100
AcDbLine
 62
7
  6
CONTINUOUS
 10
89.6912010635
 20
162.7017562209
 11
89.4645983072
 21
162.7017562209
  0
LINE
  5
492
100
AcDbEntity
  8
7_ALL_ROUNDS
100
AcDbLine
 62
7
  6
CONTINUOUS
 10
89.3703836712
 20
163.3262524768
 11
88.868694172
 21
163.3262524768
  0
LINE
  5
493
100
AcDbEntity
  8
7_ALL_ROUNDS
100
AcDbLine
 62
7
  6
CONTINUOUS
 10
89.3703836712
 20
163.3364496987
 11
88.868694172
 21
163.3364496987
  0
LINE
  5
494
100
AcDbEntity
  8
7_ALL_ROUNDS
100
AcDbLine
 62
7
  6
CONTINUOUS
 10
89.3703836712
 20
163.3706147498
 11
88.868694172
 21
163.3706147498
  0
LINE
  5
495
100
AcDbEntity
  8
7_ALL_ROUNDS
100
AcDbLine
 62
7
  6
CONTINUOUS
 10
89.3703836712
 20
163.381073439
 11
88.868694172
 21
163.381073439
  0
LINE
  5
496
100
AcDbEntity
  8
7_ALL_ROUNDS
100
AcDbLine
 62
7
  6
CONTINUOUS
 10
89.3703836712
 20
163.4152384901
 11
88.868694172
 21
163.4152384901
  0
LINE
  5
497
100
AcDbEntity
  8
7_ALL_ROUNDS
100
AcDbLine
 62
7
  6
CONTINUOUS
 10
89.3703836712
 20
163.4256971793
 11
88.868694172
 21
163.4256971793
  0
LINE
  5
498
100
AcDbEntity
  8
7_ALL_ROUNDS
100
AcDbLine
 62
7
  6
CONTINUOUS
 10
89.3703836712
 20
163.4598622304
 11
88.868694172
 21
163.4598622304
  0
LINE
  5
499
100
AcDbEntity
  8
7_ALL_ROUNDS
100
AcDbLine
 62
7
  6
CONTINUOUS
 10
89.3703836712
 20
163.4703209195
 11
88.868694172
 21
163.4703209195
  0
LINE
  5
49A
100
AcDbEntity
  8
7_ALL_ROUNDS
100
AcDbLine
 62
7
  6
CONTINUOUS
 10
88.868694172
 20
163.5044859707
 11
89.3703836712
 21
163.5044859707
  0
LINE
  5
49B
100
AcDbEntity
  8
7_ALL_ROUNDS
100
AcDbLine
 62
7
  6
CONTINUOUS
 10
88.868694172
 20
163.5149446598
 11
89.3703836712
 21
163.5149446598
  0
LINE
  5
49C
100
AcDbEntity
  8
0
100
AcDbLine
 62
7
  6
CONTINUOUS
 10
86.9499609223
 20
163.8268154762
 11
83.5739609223
 21
163.8268154762
  0
LINE
  5
49D
100
AcDbEntity
  8
0
100
AcDbLine
 62
7
  6
CONTINUOUS
 10
92.8869609223
 20
146.3818154762
 11
92.8869609223
 21
146.3518154762
  0
LINE
  5
49E
100
AcDbEntity
  8
0
100
AcDbLine
 62
7
  6
CONTINUOUS
 10
89.4649651452
 20
163.1668613251
 11
89.4006344365
 21
163.1901866891
  0
LINE
  5
49F
100
AcDbEntity
  8
0
100
AcDbLine
 62
7
  6
CONTINUOUS
 10
89.4649651452
 20
163.177058547
 11
89.4006344365
 21
163.200383911
  0
LINE
  5
4A0
100
AcDbEntity
  8
0
100
AcDbLine
 62
7
  6
CONTINUOUS
 10
89.4649651452
 20
163.2112235981
 11
89.4166943016
 21
163.2287258925
  0
LINE
  5
4A1
100
AcDbEntity
  8
0
100
AcDbLine
 62
7
  6
CONTINUOUS
 10
89.4649651452
 20
163.2216822873
 11
89.4200458467
 21
163.2379693609
  0
LINE
  5
4A2
100
AcDbEntity
  8
0
100
AcDbLine
 62
7
  6
CONTINUOUS
 10
89.4649651452
 20
163.2558473384
 11
89.4309942271
 21
163.2681646912
  0
LINE
  5
4A3
100
AcDbEntity
  8
0
100
AcDbLine
 62
7
  6
CONTINUOUS
 10
89.4649651452
 20
163.2663060276
 11
89.4343457721
 21
163.2774081596
  0
LINE
  5
4A4
100
AcDbEntity
  8
0
100
AcDbLine
 62
7
  6
CONTINUOUS
 10
89.4649651452
 20
163.3004710787
 11
89.4310780157
 21
163.312758051
  0
LINE
  5
4A5
100
AcDbEntity
  8
0
100
AcDbLine
 62
7
  6
CONTINUOUS
 10
89.4649651452
 20
163.3109297679
 11
89.4344295607
 21
163.3220015194
  0
LINE
  5
4A6
100
AcDbEntity
  8
0
100
AcDbLine
 62
7
  6
CONTINUOUS
 10
89.4649651452
 20
163.345094819
 11
89.4310780157
 21
163.3573817912
  0
LINE
  5
4A7
100
AcDbEntity
  8
0
100
AcDbLine
 62
7
  6
CONTINUOUS
 10
89.4649651452
 20
163.3555535081
 11
89.4344295607
 21
163.3666252597
  0
LINE
  5
4A8
100
AcDbEntity
  8
0
100
AcDbLine
 62
7
  6
CONTINUOUS
 10
89.6912010635
 20
162.7017562209
 11
89.8359659353
 21
162.6293819881
  0
LINE
  5
4A9
100
AcDbEntity
  8
0
100
AcDbLine
 62
7
  6
CONTINUOUS
 10
96.0132124553
 20
166.4068154762
 11
74.5107093893
 21
166.4068154762
  0
LINE
  5
4AA
100
AcDbEntity
  8
0
100
AcDbLine
 62
7
  6
CONTINUOUS
 10
96.0796591322
 20
166.4858154762
 11
74.4442627124
 21
166.4858154762
  0
LINE
  5
4AB
100
AcDbEntity
  8
0
100
AcDbLine
 62
7
  6
CONTINUOUS
 10
70.2619609223
 20
166.6318154762
 11
100.2619609223
 21
166.6318154762
  0
LINE
  5
4AC
100
AcDbEntity
  8
0
100
AcDbLine
 62
7
  6
CONTINUOUS
 10
99.1209609223
 20
148.5372617909
 11
96.0132124553
 21
166.4068154762
  0
LINE
  5
4AD
100
AcDbEntity
  8
0
100
AcDbLine
 62
7
  6
CONTINUOUS
 10
99.1999609223
 20
148.5440801834
 11
96.0796591322
 21
166.4858154762
  0
LINE
  5
4AE
100
AcDbEntity
  8
0
100
AcDbLine
 62
7
  6
CONTINUOUS
 10
99.1209609223
 20
146.8858154762
 11
99.1209609223
 21
148.5372617909
  0
LINE
  5
4AF
100
AcDbEntity
  8
0
100
AcDbLine
 62
7
  6
CONTINUOUS
 10
99.1999609223
 20
146.8068154762
 11
99.1999609223
 21
148.5440801834
  0
LINE
  5
4B0
100
AcDbEntity
  8
0
100
AcDbLine
 62
7
  6
CONTINUOUS
 10
99.2599609223
 20
146.6318154762
 11
99.2599609223
 21
147.9806982551
  0
LINE
  5
4B1
100
AcDbEntity
  8
0
100
AcDbLine
 62
7
  6
CONTINUOUS
 10
99.3359609223
 20
147.9806982551
 11
99.3359609223
 21
146.7078154762
  0
LINE
  5
4B2
100
AcDbEntity
  8
0
100
AcDbLine
 62
7
  6
CONTINUOUS
 10
99.4359609223
 20
146.6318154762
 11
99.4359609223
 21
146.7078154762
  0
LINE
  5
4B3
100
AcDbEntity
  8
7_ALL_ROUNDS
100
AcDbLine
 62
7
  6
CONTINUOUS
 10
99.7619609223
 20
146.7078154762
 11
99.7619609223
 21
146.6318154762
  0
LINE
  5
4B4
100
AcDbEntity
  8
7_ALL_ROUNDS
100
AcDbLine
 62
7
  6
CONTINUOUS
 10
100.1019609223
 20
146.7078154762
 11
100.1019609223
 21
146.6318154762
  0
LINE
  5
4B5
100
AcDbEntity
  8
0
100
AcDbLine
 62
7
  6
CONTINUOUS
 10
100.1869609223
 20
146.3818154762
 11
100.1869609223
 21
146.6318154762
  0
LINE
  5
4B6
100
AcDbEntity
  8
7_ALL_ROUNDS
100
AcDbLine
 62
7
  6
CONTINUOUS
 10
100.1869609223
 20
146.7078154762
 11
100.1869609223
 21
147.4578154762
  0
LINE
  5
4B7
100
AcDbEntity
  8
7_ALL_ROUNDS
100
AcDbLine
 62
7
  6
CONTINUOUS
 10
100.2619609223
 20
146.3818154762
 11
100.2619609223
 21
147.4578154762
  0
LINE
  5
4B8
100
AcDbEntity
  8
0
100
AcDbLine
 62
7
  6
CONTINUOUS
 10
100.2619609223
 20
147.4578154762
 11
100.2619609223
 21
166.6318154762
  0
LINE
  5
4B9
100
AcDbEntity
  8
7_ALL_ROUNDS
100
AcDbLine
 62
7
  6
CONTINUOUS
 10
178.8656087043
 20
43.6002948082
 11
177.6160282005
 21
43.6002948082
  0
LINE
  5
4BA
100
AcDbEntity
  8
7_ALL_ROUNDS
100
AcDbLine
 62
7
  6
CONTINUOUS
 10
163.6156087043
 20
43.6002948082
 11
162.3660282005
 21
43.6002948082
  0
LINE
  5
4BB
100
AcDbEntity
  8
7_ALL_ROUNDS
100
AcDbLine
 62
7
  6
CONTINUOUS
 10
178.9908184524
 20
43.7252948082
 11
177.4908184524
 21
43.7252948082
  0
LINE
  5
4BC
100
AcDbEntity
  8
7_ALL_ROUNDS
100
AcDbLine
 62
7
  6
CONTINUOUS
 10
163.7408184524
 20
43.7252948082
 11
162.2408184524
 21
43.7252948082
  0
LINE
  5
4BD
100
AcDbEntity
  8
0
100
AcDbLine
 62
7
  6
CONTINUOUS
 10
180.7408184524
 20
44.3502948082
 11
160.4908184524
 21
44.3502948082
  0
LINE
  5
4BE
100
AcDbEntity
  8
0
100
AcDbLine
 62
7
  6
CONTINUOUS
 10
160.4908184524
 20
45.6662396901
 11
160.4608184524
 21
45.6662396901
  0
LINE
  5
4BF
100
AcDbEntity
  8
0
100
AcDbLine
 62
7
  6
CONTINUOUS
 10
161.5668184524
 20
109.7651686098
 11
170.2896148952
 21
115.7535992237
  0
LINE
  5
4C0
100
AcDbEntity
  8
0
100
AcDbLine
 62
7
  6
CONTINUOUS
 10
160.4908184524
 20
60.9162396901
 11
160.4608184524
 21
60.9162396901
  0
LINE
  5
4C1
100
AcDbEntity
  8
0
100
AcDbLine
 62
7
  6
CONTINUOUS
 10
160.4908184524
 20
62.7887396901
 11
160.4608184524
 21
62.7887396901
  0
LINE
  5
4C2
100
AcDbEntity
  8
7_ALL_ROUNDS
100
AcDbLine
 62
7
  6
CONTINUOUS
 10
171.8708184524
 20
66.476672761
 11
176.5408184524
 21
66.476672761
  0
LINE
  5
4C3
100
AcDbEntity
  8
7_ALL_ROUNDS
100
AcDbLine
 62
7
  6
CONTINUOUS
 10
176.5088184524
 20
66.531672761
 11
171.9028184524
 21
66.531672761
  0
LINE
  5
4C4
100
AcDbEntity
  8
7_ALL_ROUNDS
100
AcDbLine
 62
7
  6
CONTINUOUS
 10
172.574617665
 20
67.2029719736
 11
175.8370192398
 21
67.2029719736
  0
LINE
  5
4C5
100
AcDbEntity
  8
0
100
AcDbLine
 62
7
  6
CONTINUOUS
 10
172.6156606571
 20
71.2565940208
 11
175.8056606571
 21
71.2565940208
  0
LINE
  5
4C6
100
AcDbEntity
  8
0
100
AcDbLine
 62
7
  6
CONTINUOUS
 10
172.7406606571
 20
71.3565940208
 11
173.1156527831
 21
71.3565940208
  0
LINE
  5
4C7
100
AcDbEntity
  8
0
100
AcDbLine
 62
7
  6
CONTINUOUS
 10
173.2406527831
 20
71.3565940208
 11
173.6156527831
 21
71.3565940208
  0
LINE
  5
4C8
100
AcDbEntity
  8
0
100
AcDbLine
 62
7
  6
CONTINUOUS
 10
173.7406527831
 20
71.3565940208
 11
174.1481527831
 21
71.3565940208
  0
LINE
  5
4C9
100
AcDbEntity
  8
0
100
AcDbLine
 62
7
  6
CONTINUOUS
 10
174.2731527831
 20
71.3565940208
 11
174.6806527831
 21
71.3565940208
  0
LINE
  5
4CA
100
AcDbEntity
  8
0
100
AcDbLine
 62
7
  6
CONTINUOUS
 10
174.8056527831
 20
71.3565940208
 11
175.1806527831
 21
71.3565940208
  0
LINE
  5
4CB
100
AcDbEntity
  8
0
100
AcDbLine
 62
7
  6
CONTINUOUS
 10
175.3056527831
 20
71.3565940208
 11
175.6806606571
 21
71.3565940208
  0
LINE
  5
4CC
100
AcDbEntity
  8
0
100
AcDbLine
 62
7
  6
CONTINUOUS
 10
172.7406606571
 20
71.8565940208
 11
173.1156527831
 21
71.8565940208
  0
LINE
  5
4CD
100
AcDbEntity
  8
0
100
AcDbLine
 62
7
  6
CONTINUOUS
 10
173.2406527831
 20
71.8565940208
 11
173.6156527831
 21
71.8565940208
  0
LINE
  5
4CE
100
AcDbEntity
  8
0
100
AcDbLine
 62
7
  6
CONTINUOUS
 10
173.7406527831
 20
71.8565940208
 11
174.1481527831
 21
71.8565940208
  0
LINE
  5
4CF
100
AcDbEntity
  8
0
100
AcDbLine
 62
7
  6
CONTINUOUS
 10
174.2731527831
 20
71.8565940208
 11
174.6806527831
 21
71.8565940208
  0
LINE
  5
4D0
100
AcDbEntity
  8
0
100
AcDbLine
 62
7
  6
CONTINUOUS
 10
174.8056527831
 20
71.8565940208
 11
175.1806527831
 21
71.8565940208
  0
LINE
  5
4D1
100
AcDbEntity
  8
0
100
AcDbLine
 62
7
  6
CONTINUOUS
 10
175.3056527831
 20
71.8565940208
 11
175.6806606571
 21
71.8565940208
  0
LINE
  5
4D2
100
AcDbEntity
  8
0
100
AcDbLine
 62
7
  6
CONTINUOUS
 10
172.6156606571
 20
71.9565940208
 11
175.8056606571
 21
71.9565940208
  0
LINE
  5
4D3
100
AcDbEntity
  8
0
100
AcDbLine
 62
7
  6
CONTINUOUS
 10
160.4608184524
 20
45.6662396901
 11
160.4608184524
 21
60.9162396901
  0
LINE
  5
4D4
100
AcDbEntity
  8
0
100
AcDbLine
 62
7
  6
CONTINUOUS
 10
160.4608184524
 20
62.7887396901
 11
160.4608184524
 21
78.0387396901
  0
LINE
  5
4D5
100
AcDbEntity
  8
0
100
AcDbLine
 62
7
  6
CONTINUOUS
 10
160.4908184524
 20
44.3502948082
 11
160.4908184524
 21
83.326672761
  0
LINE
  5
4D6
100
AcDbEntity
  8
7_ALL_ROUNDS
100
AcDbLine
 62
7
  6
CONTINUOUS
 10
160.4908184524
 20
84.2134940055
 11
160.4908184524
 21
107.0837873771
  0
LINE
  5
4D7
100
AcDbEntity
  8
0
100
AcDbLine
 62
7
  6
CONTINUOUS
 10
160.4908184524
 20
107.276479285
 11
160.4908184524
 21
122.876479285
  0
LINE
  5
4D8
100
AcDbEntity
  8
7_ALL_ROUNDS
100
AcDbLine
 62
7
  6
CONTINUOUS
 10
160.7408184524
 20
122.3527873771
 11
160.7408184524
 21
106.5837873771
  0
LINE
  5
4D9
100
AcDbEntity
  8
7_ALL_ROUNDS
100
AcDbLine
 62
7
  6
CONTINUOUS
 10
160.7408184524
 20
84.7137873771
 11
160.7408184524
 21
84.2134940055
  0
LINE
  5
4DA
100
AcDbEntity
  8
0
100
AcDbLine
 62
7
  6
CONTINUOUS
 10
160.7408184524
 20
122.3527873771
 11
160.7408184524
 21
122.876479285
  0
LINE
  5
4DB
100
AcDbEntity
  8
7_ALL_ROUNDS
100
AcDbLine
 62
7
  6
CONTINUOUS
 10
160.8168184524
 20
122.6927873771
 11
160.8168184524
 21
122.3527873771
  0
LINE
  5
4DC
100
AcDbEntity
  8
7_ALL_ROUNDS
100
AcDbLine
 62
7
  6
CONTINUOUS
 10
160.8168184524
 20
84.7137873771
 11
160.8168184524
 21
84.2134940055
  0
LINE
  5
4DD
100
AcDbEntity
  8
0
100
AcDbLine
 62
7
  6
CONTINUOUS
 10
160.9158184524
 20
83.326672761
 11
160.9158184524
 21
84.2134940055
  0
LINE
  5
4DE
100
AcDbEntity
  8
7_ALL_ROUNDS
100
AcDbLine
 62
7
  6
CONTINUOUS
 10
161.5668184524
 20
85.2137873771
 11
161.5668184524
 21
121.8527873771
  0
LINE
  5
4DF
100
AcDbEntity
  8
0
100
AcDbLine
 62
7
  6
CONTINUOUS
 10
162.2408184524
 20
44.3502948082
 11
162.2408184524
 21
43.7252948082
  0
LINE
  5
4E0
100
AcDbEntity
  8
0
100
AcDbLine
 62
7
  6
CONTINUOUS
 10
162.6530831596
 20
83.326672761
 11
162.6530831596
 21
84.3109247295
  0
LINE
  5
4E1
100
AcDbEntity
  8
0
100
AcDbLine
 62
7
  6
CONTINUOUS
 10
161.5668184524
 20
86.984743146
 11
170.6724540736
 21
93.4379848391
  0
LINE
  5
4E2
100
AcDbEntity
  8
7_ALL_ROUNDS
100
AcDbLine
 62
7
  6
CONTINUOUS
 10
175.8370192398
 20
72.8503735484
 11
172.574617665
 21
72.8503735484
  0
LINE
  5
4E3
100
AcDbEntity
  8
7_ALL_ROUNDS
100
AcDbLine
 62
7
  6
CONTINUOUS
 10
171.9028184524
 20
73.521672761
 11
176.5088184524
 21
73.521672761
  0
LINE
  5
4E4
100
AcDbEntity
  8
7_ALL_ROUNDS
100
AcDbLine
 62
7
  6
CONTINUOUS
 10
176.5408184524
 20
73.576672761
 11
171.8708184524
 21
73.576672761
  0
LINE
  5
4E5
100
AcDbEntity
  8
0
100
AcDbLine
 62
7
  6
CONTINUOUS
 10
163.7408184524
 20
44.3502948082
 11
163.7408184524
 21
43.7252948082
  0
LINE
  5
4E6
100
AcDbEntity
  8
0
100
AcDbLine
 62
7
  6
CONTINUOUS
 10
171.5244952157
 20
105.3350621747
 11
171.5831155127
 21
105.496120117
  0
LINE
  5
4E7
100
AcDbEntity
  8
7_ALL_ROUNDS
100
AcDbLine
 62
7
  6
CONTINUOUS
 10
169.8424030536
 20
90.8988148392
 11
169.7351177108
 21
90.8065481829
  0
LINE
  5
4E8
100
AcDbEntity
  8
0
100
AcDbLine
 62
7
  6
CONTINUOUS
 10
169.2827754215
 20
89.4283291277
 11
169.1311510468
 21
89.2979303828
  0
LINE
  5
4E9
100
AcDbEntity
  8
0
100
AcDbLine
 62
7
  6
CONTINUOUS
 10
160.4908184524
 20
78.0387396901
 11
160.4608184524
 21
78.0387396901
  0
LINE
  5
4EA
100
AcDbEntity
  8
0
100
AcDbLine
 62
7
  6
CONTINUOUS
 10
162.0079062648
 20
84.788084751
 11
161.5668184524
 21
85.4587837051
  0
LINE
  5
4EB
100
AcDbEntity
  8
7_ALL_ROUNDS
100
AcDbLine
 62
7
  6
CONTINUOUS
 10
169.2827754215
 20
89.8209131565
 11
169.2827754215
 21
89.4283291277
  0
LINE
  5
4EC
100
AcDbEntity
  8
0
100
AcDbLine
 62
7
  6
CONTINUOUS
 10
160.4908184524
 20
83.326672761
 11
180.7408184524
 21
83.326672761
  0
LINE
  5
4ED
100
AcDbEntity
  8
0
100
AcDbLine
 62
7
  6
CONTINUOUS
 10
170.9339213018
 20
90.4494007449
 11
169.8008966461
 21
103.39993182
  0
LINE
  5
4EE
100
AcDbEntity
  8
0
100
AcDbLine
 62
7
  6
CONTINUOUS
 10
171.2926397983
 20
90.6518720353
 11
170.2501057649
 21
102.5680905644
  0
LINE
  5
4EF
100
AcDbEntity
  8
0
100
AcDbLine
 62
7
  6
CONTINUOUS
 10
171.2822980149
 20
103.7921112853
 11
172.4381131252
 21
90.5810841223
  0
LINE
  5
4F0
100
AcDbEntity
  8
0
100
AcDbLine
 62
7
  6
CONTINUOUS
 10
171.360997396
 20
103.798996589
 11
171.5303896809
 21
101.8628339133
  0
LINE
  5
4F1
100
AcDbEntity
  8
0
100
AcDbLine
 62
7
  6
CONTINUOUS
 10
171.7221722147
 20
102.8151567739
 11
172.7244632563
 21
91.3589177453
  0
LINE
  5
4F2
100
AcDbEntity
  8
7_ALL_ROUNDS
100
AcDbLine
 62
7
  6
CONTINUOUS
 10
171.6808184524
 20
73.386672761
 11
171.6808184524
 21
66.666672761
  0
LINE
  5
4F3
100
AcDbEntity
  8
7_ALL_ROUNDS
100
AcDbLine
 62
7
  6
CONTINUOUS
 10
171.7158184524
 20
66.718672761
 11
171.7158184524
 21
73.334672761
  0
LINE
  5
4F4
100
AcDbEntity
  8
7_ALL_ROUNDS
100
AcDbLine
 62
7
  6
CONTINUOUS
 10
172.387117665
 20
72.6628735484
 11
172.387117665
 21
67.3904719736
  0
LINE
  5
4F5
100
AcDbEntity
  8
0
100
AcDbLine
 62
7
  6
CONTINUOUS
 10
172.6156606571
 20
71.9565940208
 11
172.6156606571
 21
71.2565940208
  0
LINE
  5
4F6
100
AcDbEntity
  8
0
100
AcDbLine
 62
7
  6
CONTINUOUS
 10
172.7406606571
 20
71.9565940208
 11
172.7406606571
 21
71.2565940208
  0
LINE
  5
4F7
100
AcDbEntity
  8
0
100
AcDbLine
 62
7
  6
CONTINUOUS
 10
173.1156527831
 20
71.9565940208
 11
173.1156527831
 21
71.2565940208
  0
LINE
  5
4F8
100
AcDbEntity
  8
0
100
AcDbLine
 62
7
  6
CONTINUOUS
 10
173.2406527831
 20
71.9565940208
 11
173.2406527831
 21
71.2565940208
  0
LINE
  5
4F9
100
AcDbEntity
  8
0
100
AcDbLine
 62
7
  6
CONTINUOUS
 10
173.6156527831
 20
71.9565940208
 11
173.6156527831
 21
71.2565940208
  0
LINE
  5
4FA
100
AcDbEntity
  8
7_ALL_ROUNDS
100
AcDbLine
 62
7
  6
CONTINUOUS
 10
160.4908184524
 20
84.2134940055
 11
160.8168184524
 21
84.2134940055
  0
LINE
  5
4FB
100
AcDbEntity
  8
0
100
AcDbLine
 62
7
  6
CONTINUOUS
 10
160.8168184524
 20
84.2134940055
 11
161.1918488744
 21
84.2134940055
  0
LINE
  5
4FC
100
AcDbEntity
  8
0
100
AcDbLine
 62
7
  6
CONTINUOUS
 10
162.0359787361
 20
84.3109247295
 11
180.5948184524
 21
84.3109247295
  0
LINE
  5
4FD
100
AcDbEntity
  8
7_ALL_ROUNDS
100
AcDbLine
 62
7
  6
CONTINUOUS
 10
177.4358184524
 20
84.535672761
 11
168.8358184524
 21
84.535672761
  0
LINE
  5
4FE
100
AcDbEntity
  8
7_ALL_ROUNDS
100
AcDbLine
 62
7
  6
CONTINUOUS
 10
160.4908184524
 20
84.7134940055
 11
161.0668184524
 21
84.7137873771
  0
LINE
  5
4FF
100
AcDbEntity
  8
0
100
AcDbLine
 62
7
  6
CONTINUOUS
 10
169.1311510468
 20
89.2979303828
 11
173.226748591
 21
84.535672761
  0
LINE
  5
500
100
AcDbEntity
  8
0
100
AcDbLine
 62
7
  6
CONTINUOUS
 10
167.5168568493
 20
112.7799637606
 11
169.1779753169
 21
103.3592927953
  0
LINE
  5
501
100
AcDbEntity
  8
0
100
AcDbLine
 62
7
  6
CONTINUOUS
 10
168.3191572656
 20
111.886711253
 11
169.6272412803
 21
104.4681981619
  0
LINE
  5
502
100
AcDbEntity
  8
7_ALL_ROUNDS
100
AcDbLine
 62
7
  6
CONTINUOUS
 10
175.6073503695
 20
92.1172452144
 11
174.6929439779
 21
102.5689580967
  0
LINE
  5
503
100
AcDbEntity
  8
0
100
AcDbLine
 62
7
  6
CONTINUOUS
 10
173.7406527831
 20
71.9565940208
 11
173.7406527831
 21
71.2565940208
  0
LINE
  5
504
100
AcDbEntity
  8
0
100
AcDbLine
 62
7
  6
CONTINUOUS
 10
174.1481527831
 20
71.9565940208
 11
174.1481527831
 21
71.2565940208
  0
LINE
  5
505
100
AcDbEntity
  8
0
100
AcDbLine
 62
7
  6
CONTINUOUS
 10
174.2731527831
 20
71.9565940208
 11
174.2731527831
 21
71.2565940208
  0
LINE
  5
506
100
AcDbEntity
  8
0
100
AcDbLine
 62
7
  6
CONTINUOUS
 10
174.6806527831
 20
71.9565940208
 11
174.6806527831
 21
71.2565940208
  0
LINE
  5
507
100
AcDbEntity
  8
0
100
AcDbLine
 62
7
  6
CONTINUOUS
 10
174.8056527831
 20
71.9565940208
 11
174.8056527831
 21
71.2565940208
  0
LINE
  5
508
100
AcDbEntity
  8
0
100
AcDbLine
 62
7
  6
CONTINUOUS
 10
175.1806527831
 20
71.9565940208
 11
175.1806527831
 21
71.2565940208
  0
LINE
  5
509
100
AcDbEntity
  8
0
100
AcDbLine
 62
7
  6
CONTINUOUS
 10
175.3056527831
 20
71.9565940208
 11
175.3056527831
 21
71.2565940208
  0
LINE
  5
50A
100
AcDbEntity
  8
0
100
AcDbLine
 62
7
  6
CONTINUOUS
 10
175.6806606571
 20
71.9565940208
 11
175.6806606571
 21
71.2565940208
  0
LINE
  5
50B
100
AcDbEntity
  8
0
100
AcDbLine
 62
7
  6
CONTINUOUS
 10
175.8056606571
 20
71.9565940208
 11
175.8056606571
 21
71.2565940208
  0
LINE
  5
50C
100
AcDbEntity
  8
7_ALL_ROUNDS
100
AcDbLine
 62
7
  6
CONTINUOUS
 10
176.0245192398
 20
67.3904719736
 11
176.0245192398
 21
72.6628735484
  0
LINE
  5
50D
100
AcDbEntity
  8
7_ALL_ROUNDS
100
AcDbLine
 62
7
  6
CONTINUOUS
 10
174.7817866719
 20
84.535672761
 11
170.5678245833
 21
89.4355616925
  0
LINE
  5
50E
100
AcDbEntity
  8
7_ALL_ROUNDS
100
AcDbLine
 62
7
  6
CONTINUOUS
 10
169.7787737211
 20
113.1788007332
 11
169.9123091698
 21
112.421483571
  0
LINE
  5
50F
100
AcDbEntity
  8
7_ALL_ROUNDS
100
AcDbLine
 62
7
  6
CONTINUOUS
 10
171.3072172733
 20
104.5105666035
 11
171.3294168335
 21
104.3846666415
  0
LINE
  5
510
100
AcDbEntity
  8
0
100
AcDbLine
 62
7
  6
CONTINUOUS
 10
171.4082528473
 20
103.9375653893
 11
171.4398921887
 21
103.7581297679
  0
LINE
  5
511
100
AcDbEntity
  8
0
100
AcDbLine
 62
7
  6
CONTINUOUS
 10
170.1982176512
 20
112.7648475279
 11
170.7521553379
 21
109.6233107958
  0
LINE
  5
512
100
AcDbEntity
  8
0
100
AcDbLine
 62
7
  6
CONTINUOUS
 10
170.8172734045
 20
109.2540078885
 11
171.3712110913
 21
106.1124711563
  0
LINE
  5
513
100
AcDbEntity
  8
0
100
AcDbLine
 62
7
  6
CONTINUOUS
 10
170.3184044487
 20
112.6591113766
 11
170.3835225153
 21
112.2898084692
  0
LINE
  5
514
100
AcDbEntity
  8
0
100
AcDbLine
 62
7
  6
CONTINUOUS
 10
170.4052285375
 20
112.1667075001
 11
170.4703466041
 21
111.7974045927
  0
LINE
  5
515
100
AcDbEntity
  8
0
100
AcDbLine
 62
7
  6
CONTINUOUS
 10
170.4920526263
 20
111.6743036236
 11
170.5628142587
 21
111.2729944642
  0
LINE
  5
516
100
AcDbEntity
  8
0
100
AcDbLine
 62
7
  6
CONTINUOUS
 10
170.584520281
 20
111.1498934951
 11
170.6552819134
 21
110.7485843357
  0
LINE
  5
517
100
AcDbEntity
  8
0
100
AcDbLine
 62
7
  6
CONTINUOUS
 10
170.6769879356
 20
110.6254833666
 11
170.7421060022
 21
110.2561804592
  0
LINE
  5
518
100
AcDbEntity
  8
0
100
AcDbLine
 62
7
  6
CONTINUOUS
 10
170.7638120244
 20
110.1330794901
 11
170.828930091
 21
109.7637765827
  0
LINE
  5
519
100
AcDbEntity
  8
0
100
AcDbLine
 62
7
  6
CONTINUOUS
 10
170.9374602021
 20
109.1482717371
 11
171.0025782687
 21
108.7789688297
  0
LINE
  5
51A
100
AcDbEntity
  8
0
100
AcDbLine
 62
7
  6
CONTINUOUS
 10
171.0242842909
 20
108.6558678606
 11
171.0894023575
 21
108.2865649532
  0
LINE
  5
51B
100
AcDbEntity
  8
0
100
AcDbLine
 62
7
  6
CONTINUOUS
 10
171.1111083797
 20
108.1634639841
 11
171.1818700121
 21
107.7621548247
  0
LINE
  5
51C
100
AcDbEntity
  8
0
100
AcDbLine
 62
7
  6
CONTINUOUS
 10
171.2035760343
 20
107.6390538556
 11
171.2743376667
 21
107.2377446963
  0
LINE
  5
51D
100
AcDbEntity
  8
0
100
AcDbLine
 62
7
  6
CONTINUOUS
 10
171.2960436889
 20
107.1146437271
 11
171.3611617556
 21
106.7453408197
  0
LINE
  5
51E
100
AcDbEntity
  8
0
100
AcDbLine
 62
7
  6
CONTINUOUS
 10
171.3828677778
 20
106.6222398506
 11
171.4479858444
 21
106.2529369432
  0
LINE
  5
51F
100
AcDbEntity
  8
0
100
AcDbLine
 62
7
  6
CONTINUOUS
 10
171.9403897209
 20
106.3397610321
 11
171.8752716543
 21
106.7090639395
  0
LINE
  5
520
100
AcDbEntity
  8
0
100
AcDbLine
 62
7
  6
CONTINUOUS
 10
171.8535656321
 20
106.8321649086
 11
171.7884475654
 21
107.201467816
  0
LINE
  5
521
100
AcDbEntity
  8
0
100
AcDbLine
 62
7
  6
CONTINUOUS
 10
171.7667415432
 20
107.3245687851
 11
171.6959799108
 21
107.7258779444
  0
LINE
  5
522
100
AcDbEntity
  8
0
100
AcDbLine
 62
7
  6
CONTINUOUS
 10
171.6742738886
 20
107.8489789136
 11
171.6035122562
 21
108.2502880729
  0
LINE
  5
523
100
AcDbEntity
  8
0
100
AcDbLine
 62
7
  6
CONTINUOUS
 10
171.581806234
 20
108.373389042
 11
171.5166881674
 21
108.7426919494
  0
LINE
  5
524
100
AcDbEntity
  8
0
100
AcDbLine
 62
7
  6
CONTINUOUS
 10
171.4949821452
 20
108.8657929186
 11
171.4298640786
 21
109.2350958259
  0
LINE
  5
525
100
AcDbEntity
  8
0
100
AcDbLine
 62
7
  6
CONTINUOUS
 10
171.3213339675
 20
109.8506006716
 11
171.2562159009
 21
110.2199035789
  0
LINE
  5
526
100
AcDbEntity
  8
0
100
AcDbLine
 62
7
  6
CONTINUOUS
 10
171.2345098787
 20
110.3430045481
 11
171.1693918121
 21
110.7123074555
  0
LINE
  5
527
100
AcDbEntity
  8
0
100
AcDbLine
 62
7
  6
CONTINUOUS
 10
171.1476857899
 20
110.8354084246
 11
171.0769241575
 21
111.2367175839
  0
LINE
  5
528
100
AcDbEntity
  8
0
100
AcDbLine
 62
7
  6
CONTINUOUS
 10
171.0552181352
 20
111.3598185531
 11
170.9844565029
 21
111.7611277124
  0
LINE
  5
529
100
AcDbEntity
  8
0
100
AcDbLine
 62
7
  6
CONTINUOUS
 10
170.9627504806
 20
111.8842286815
 11
170.897632414
 21
112.2535315889
  0
LINE
  5
52A
100
AcDbEntity
  8
0
100
AcDbLine
 62
7
  6
CONTINUOUS
 10
170.8759263918
 20
112.376632558
 11
170.8108083252
 21
112.7459354654
  0
LINE
  5
52B
100
AcDbEntity
  8
0
100
AcDbLine
 62
7
  6
CONTINUOUS
 10
169.5906766175
 20
119.717475171
 11
170.5908901209
 21
114.0449825136
  0
LINE
  5
52C
100
AcDbEntity
  8
0
100
AcDbLine
 62
7
  6
CONTINUOUS
 10
172.0605765184
 20
106.2340248807
 11
171.5066388317
 21
109.3755616128
  0
LINE
  5
52D
100
AcDbEntity
  8
0
100
AcDbLine
 62
7
  6
CONTINUOUS
 10
171.441520765
 20
109.7448645202
 11
170.8875830783
 21
112.8864012523
  0
LINE
  5
52E
100
AcDbEntity
  8
0
100
AcDbLine
 62
7
  6
CONTINUOUS
 10
170.5074720291
 20
115.5028197736
 11
170.8829297491
 21
113.3734932319
  0
LINE
  5
52F
100
AcDbEntity
  8
0
100
AcDbLine
 62
7
  6
CONTINUOUS
 10
172.5440482167
 20
103.9528222665
 11
172.7928439104
 21
102.5418317723
  0
LINE
  5
530
100
AcDbEntity
  8
0
100
AcDbLine
 62
7
  6
CONTINUOUS
 10
170.5852718416
 20
115.5165379796
 11
172.8706437229
 21
102.5555499783
  0
LINE
  5
531
100
AcDbEntity
  8
0
100
AcDbLine
 62
7
  6
CONTINUOUS
 10
176.810759197
 20
96.2838025773
 11
176.6015854144
 21
98.6746698527
  0
LINE
  5
532
100
AcDbEntity
  8
0
100
AcDbLine
 62
7
  6
CONTINUOUS
 10
176.7811966985
 20
98.4574976016
 11
176.8153617496
 21
98.0669892799
  0
LINE
  5
533
100
AcDbEntity
  8
0
100
AcDbLine
 62
7
  6
CONTINUOUS
 10
176.8258204387
 20
97.9474459162
 11
176.8599854899
 21
97.5569375945
  0
LINE
  5
534
100
AcDbEntity
  8
0
100
AcDbLine
 62
7
  6
CONTINUOUS
 10
176.870444179
 20
97.4373942307
 11
176.9046092302
 21
97.0468859091
  0
LINE
  5
535
100
AcDbEntity
  8
0
100
AcDbLine
 62
7
  6
CONTINUOUS
 10
176.9150679193
 20
96.9273425453
 11
176.9492329705
 21
96.5368342237
  0
LINE
  5
536
100
AcDbEntity
  8
0
100
AcDbLine
 62
7
  6
CONTINUOUS
 10
177.000359532
 20
98.476671865
 11
177.0345245832
 21
98.0861635433
  0
LINE
  5
537
100
AcDbEntity
  8
0
100
AcDbLine
 62
7
  6
CONTINUOUS
 10
177.0449832723
 20
97.9666201796
 11
177.0791483235
 21
97.5761118579
  0
LINE
  5
538
100
AcDbEntity
  8
0
100
AcDbLine
 62
7
  6
CONTINUOUS
 10
177.0896070126
 20
97.4565684942
 11
177.1237720638
 21
97.0660601725
  0
LINE
  5
539
100
AcDbEntity
  8
0
100
AcDbLine
 62
7
  6
CONTINUOUS
 10
177.1342307529
 20
96.9465168087
 11
177.1683958041
 21
96.5560084871
  0
LINE
  5
53A
100
AcDbEntity
  8
0
100
AcDbLine
 62
7
  6
CONTINUOUS
 10
177.4645564843
 20
96.4614608087
 11
177.4540977952
 21
96.5810041724
  0
LINE
  5
53B
100
AcDbEntity
  8
0
100
AcDbLine
 62
7
  6
CONTINUOUS
 10
177.419932744
 20
96.9715124941
 11
177.4094740549
 21
97.0910558579
  0
LINE
  5
53C
100
AcDbEntity
  8
0
100
AcDbLine
 62
7
  6
CONTINUOUS
 10
177.3753090038
 20
97.4815641795
 11
177.3648503146
 21
97.6011075433
  0
LINE
  5
53D
100
AcDbEntity
  8
0
100
AcDbLine
 62
7
  6
CONTINUOUS
 10
177.3306852635
 20
97.9916158649
 11
177.3202265743
 21
98.1111592287
  0
LINE
  5
53E
100
AcDbEntity
  8
0
100
AcDbLine
 62
7
  6
CONTINUOUS
 10
177.2860615232
 20
98.5016675504
 11
177.2758643013
 21
98.61822233
  0
LINE
  5
53F
100
AcDbEntity
  8
0
100
AcDbLine
 62
7
  6
CONTINUOUS
 10
177.3435519383
 20
98.1131999336
 11
177.3540106275
 21
97.9936565699
  0
LINE
  5
540
100
AcDbEntity
  8
0
100
AcDbLine
 62
7
  6
CONTINUOUS
 10
177.3881756786
 20
97.6031482482
 11
177.3986343678
 21
97.4836048844
  0
LINE
  5
541
100
AcDbEntity
  8
0
100
AcDbLine
 62
7
  6
CONTINUOUS
 10
177.4327994189
 20
97.0930965628
 11
177.443258108
 21
96.973553199
  0
LINE
  5
542
100
AcDbEntity
  8
0
100
AcDbLine
 62
7
  6
CONTINUOUS
 10
177.4774231592
 20
96.5830448774
 11
177.4878818483
 21
96.4635015136
  0
LINE
  5
543
100
AcDbEntity
  8
0
100
AcDbLine
 62
7
  6
CONTINUOUS
 10
177.3093868872
 20
98.5037082553
 11
177.2991896653
 21
98.620263035
  0
LINE
  5
544
100
AcDbEntity
  8
7_ALL_ROUNDS
100
AcDbLine
 62
7
  6
CONTINUOUS
 10
177.3500152883
 20
98.6247097008
 11
177.3602125102
 21
98.5081549211
  0
LINE
  5
545
100
AcDbEntity
  8
7_ALL_ROUNDS
100
AcDbLine
 62
7
  6
CONTINUOUS
 10
177.3943775614
 20
98.1176465995
 11
177.4048362505
 21
97.9981032357
  0
LINE
  5
546
100
AcDbEntity
  8
7_ALL_ROUNDS
100
AcDbLine
 62
7
  6
CONTINUOUS
 10
177.4390013017
 20
97.6075949141
 11
177.4494599908
 21
97.4880515503
  0
LINE
  5
547
100
AcDbEntity
  8
7_ALL_ROUNDS
100
AcDbLine
 62
7
  6
CONTINUOUS
 10
177.483625042
 20
97.0975432286
 11
177.4940837311
 21
96.9779998649
  0
LINE
  5
548
100
AcDbEntity
  8
7_ALL_ROUNDS
100
AcDbLine
 62
7
  6
CONTINUOUS
 10
177.5282487822
 20
96.5874915432
 11
177.5387074714
 21
96.4679481794
  0
LINE
  5
549
100
AcDbEntity
  8
7_ALL_ROUNDS
100
AcDbLine
 62
7
  6
CONTINUOUS
 10
177.7399244029
 20
94.2813289843
 11
177.548544715
 21
96.4688088267
  0
LINE
  5
54A
100
AcDbEntity
  8
7_ALL_ROUNDS
100
AcDbLine
 62
7
  6
CONTINUOUS
 10
177.5380860258
 20
96.5883521905
 11
177.5039209747
 21
96.9788605122
  0
LINE
  5
54B
100
AcDbEntity
  8
7_ALL_ROUNDS
100
AcDbLine
 62
7
  6
CONTINUOUS
 10
177.4934622855
 20
97.0984038759
 11
177.4592972344
 21
97.4889121976
  0
LINE
  5
54C
100
AcDbEntity
  8
7_ALL_ROUNDS
100
AcDbLine
 62
7
  6
CONTINUOUS
 10
177.4488385453
 20
97.6084555613
 11
177.4146734941
 21
97.998963883
  0
LINE
  5
54D
100
AcDbEntity
  8
7_ALL_ROUNDS
100
AcDbLine
 62
7
  6
CONTINUOUS
 10
177.404214805
 20
98.1185072468
 11
177.3700497538
 21
98.5090155684
  0
LINE
  5
54E
100
AcDbEntity
  8
7_ALL_ROUNDS
100
AcDbLine
 62
7
  6
CONTINUOUS
 10
177.3598525319
 20
98.6255703481
 11
177.1689086228
 21
100.8080692166
  0
LINE
  5
54F
100
AcDbEntity
  8
7_ALL_ROUNDS
100
AcDbLine
 62
7
  6
CONTINUOUS
 10
177.435255453
 20
98.6321672489
 11
177.4454526749
 21
98.5156124692
  0
LINE
  5
550
100
AcDbEntity
  8
7_ALL_ROUNDS
100
AcDbLine
 62
7
  6
CONTINUOUS
 10
177.479617726
 20
98.1251041476
 11
177.4900764152
 21
98.0055607838
  0
LINE
  5
551
100
AcDbEntity
  8
7_ALL_ROUNDS
100
AcDbLine
 62
7
  6
CONTINUOUS
 10
177.5242414663
 20
97.6150524621
 11
177.5347001554
 21
97.4955090984
  0
LINE
  5
552
100
AcDbEntity
  8
7_ALL_ROUNDS
100
AcDbLine
 62
7
  6
CONTINUOUS
 10
177.5688652066
 20
97.1050007767
 11
177.5793238957
 21
96.9854574129
  0
LINE
  5
553
100
AcDbEntity
  8
7_ALL_ROUNDS
100
AcDbLine
 62
7
  6
CONTINUOUS
 10
177.6134889469
 20
96.5949490913
 11
177.623947636
 21
96.4754057275
  0
LINE
  5
554
100
AcDbEntity
  8
7_ALL_ROUNDS
100
AcDbLine
 62
7
  6
CONTINUOUS
 10
176.6958184524
 20
73.334672761
 11
176.6958184524
 21
66.718672761
  0
LINE
  5
555
100
AcDbEntity
  8
7_ALL_ROUNDS
100
AcDbLine
 62
7
  6
CONTINUOUS
 10
176.7308184524
 20
66.666672761
 11
176.7308184524
 21
73.386672761
  0
LINE
  5
556
100
AcDbEntity
  8
0
100
AcDbLine
 62
7
  6
CONTINUOUS
 10
177.4908184524
 20
44.3502948082
 11
177.4908184524
 21
43.7252948082
  0
LINE
  5
557
100
AcDbEntity
  8
0
100
AcDbLine
 62
7
  6
CONTINUOUS
 10
178.9908184524
 20
44.3502948082
 11
178.9908184524
 21
43.7252948082
  0
LINE
  5
558
100
AcDbEntity
  8
7_ALL_ROUNDS
100
AcDbLine
 62
7
  6
CONTINUOUS
 10
175.6073503695
 20
92.1172452144
 11
172.6939406977
 21
91.7077921873
  0
LINE
  5
559
100
AcDbEntity
  8
0
100
AcDbLine
 62
7
  6
CONTINUOUS
 10
172.4381203876
 20
90.5810011125
 11
170.9339213018
 21
90.4494007449
  0
LINE
  5
55A
100
AcDbEntity
  8
0
100
AcDbLine
 62
7
  6
CONTINUOUS
 10
171.2926397983
 20
90.6518720353
 11
172.4232658723
 21
90.7507889994
  0
LINE
  5
55B
100
AcDbEntity
  8
0
100
AcDbLine
 62
7
  6
CONTINUOUS
 10
172.3727535805
 20
91.3281471359
 11
172.7244632563
 21
91.3589177453
  0
LINE
  5
55C
100
AcDbEntity
  8
0
100
AcDbLine
 62
7
  6
CONTINUOUS
 10
170.1207603648
 20
119.9937200278
 11
171.1834872121
 21
113.9666965793
  0
LINE
  5
55D
100
AcDbEntity
  8
0
100
AcDbLine
 62
7
  6
CONTINUOUS
 10
170.9086065672
 20
120.1326385699
 11
171.9713334145
 21
114.1056151215
  0
LINE
  5
55E
100
AcDbEntity
  8
0
100
AcDbLine
 62
7
  6
CONTINUOUS
 10
171.181948681
 20
119.9980593694
 11
172.1821621844
 21
114.3255667121
  0
LINE
  5
55F
100
AcDbEntity
  8
0
100
AcDbLine
 62
7
  6
CONTINUOUS
 10
171.583903172
 20
119.5965347437
 11
172.4225463434
 21
114.8403529725
  0
LINE
  5
560
100
AcDbEntity
  8
0
100
AcDbLine
 62
7
  6
CONTINUOUS
 10
180.5948184524
 20
83.326672761
 11
180.5948184524
 21
84.3109247295
  0
LINE
  5
561
100
AcDbEntity
  8
0
100
AcDbLine
 62
7
  6
CONTINUOUS
 10
180.7408184524
 20
83.326672761
 11
180.7408184524
 21
44.3502948082
  0
LINE
  5
562
100
AcDbEntity
  8
0
100
AcDbLine
 62
7
  6
CONTINUOUS
 10
171.1695773443
 20
92.0584823212
 11
172.3002034183
 21
92.1573992853
  0
LINE
  5
563
100
AcDbEntity
  8
0
100
AcDbLine
 62
7
  6
CONTINUOUS
 10
171.1431094529
 20
92.3610117042
 11
172.2737355269
 21
92.4599286683
  0
LINE
  5
564
100
AcDbEntity
  8
0
100
AcDbLine
 62
7
  6
CONTINUOUS
 10
172.2695493272
 20
92.5077771495
 11
172.621259003
 21
92.538547759
  0
LINE
  5
565
100
AcDbEntity
  8
0
100
AcDbLine
 62
7
  6
CONTINUOUS
 10
172.193846638
 20
93.3730628461
 11
172.5455563138
 21
93.4038334556
  0
LINE
  5
566
100
AcDbEntity
  8
0
100
AcDbLine
 62
7
  6
CONTINUOUS
 10
171.0521206546
 20
93.4010184272
 11
172.1827467286
 21
93.4999353913
  0
LINE
  5
567
100
AcDbEntity
  8
0
100
AcDbLine
 62
7
  6
CONTINUOUS
 10
177.4747429378
 20
96.3418936274
 11
176.810759197
 21
96.2838025773
  0
LINE
  5
568
100
AcDbEntity
  8
0
100
AcDbLine
 62
7
  6
CONTINUOUS
 10
176.8003005079
 20
96.4033459411
 11
177.4878818483
 21
96.4635015136
  0
LINE
  5
569
100
AcDbEntity
  8
7_ALL_ROUNDS
100
AcDbLine
 62
7
  6
CONTINUOUS
 10
177.4878818483
 20
96.4635015136
 11
177.623947636
 21
96.4754057275
  0
LINE
  5
56A
100
AcDbEntity
  8
7_ALL_ROUNDS
100
AcDbLine
 62
7
  6
CONTINUOUS
 10
177.4774231592
 20
96.5830448774
 11
177.6134889469
 21
96.5949490913
  0
LINE
  5
56B
100
AcDbEntity
  8
0
100
AcDbLine
 62
7
  6
CONTINUOUS
 10
176.9492329705
 20
96.5368342237
 11
177.4774231592
 21
96.5830448774
  0
LINE
  5
56C
100
AcDbEntity
  8
0
100
AcDbLine
 62
7
  6
CONTINUOUS
 10
176.9150679193
 20
96.9273425453
 11
177.443258108
 21
96.973553199
  0
LINE
  5
56D
100
AcDbEntity
  8
7_ALL_ROUNDS
100
AcDbLine
 62
7
  6
CONTINUOUS
 10
177.443258108
 20
96.973553199
 11
177.5793238957
 21
96.9854574129
  0
LINE
  5
56E
100
AcDbEntity
  8
7_ALL_ROUNDS
100
AcDbLine
 62
7
  6
CONTINUOUS
 10
177.4327994189
 20
97.0930965628
 11
177.5688652066
 21
97.1050007767
  0
LINE
  5
56F
100
AcDbEntity
  8
0
100
AcDbLine
 62
7
  6
CONTINUOUS
 10
176.9046092302
 20
97.0468859091
 11
177.4327994189
 21
97.0930965628
  0
LINE
  5
570
100
AcDbEntity
  8
0
100
AcDbLine
 62
7
  6
CONTINUOUS
 10
176.870444179
 20
97.4373942307
 11
177.3986343678
 21
97.4836048844
  0
LINE
  5
571
100
AcDbEntity
  8
7_ALL_ROUNDS
100
AcDbLine
 62
7
  6
CONTINUOUS
 10
177.3986343678
 20
97.4836048844
 11
177.5347001554
 21
97.4955090984
  0
LINE
  5
572
100
AcDbEntity
  8
7_ALL_ROUNDS
100
AcDbLine
 62
7
  6
CONTINUOUS
 10
177.3881756786
 20
97.6031482482
 11
177.5242414663
 21
97.6150524621
  0
LINE
  5
573
100
AcDbEntity
  8
0
100
AcDbLine
 62
7
  6
CONTINUOUS
 10
176.8599854899
 20
97.5569375945
 11
177.3881756786
 21
97.6031482482
  0
LINE
  5
574
100
AcDbEntity
  8
0
100
AcDbLine
 62
7
  6
CONTINUOUS
 10
176.8258204387
 20
97.9474459162
 11
177.3540106275
 21
97.9936565699
  0
LINE
  5
575
100
AcDbEntity
  8
7_ALL_ROUNDS
100
AcDbLine
 62
7
  6
CONTINUOUS
 10
177.3540106275
 20
97.9936565699
 11
177.4900764152
 21
98.0055607838
  0
LINE
  5
576
100
AcDbEntity
  8
7_ALL_ROUNDS
100
AcDbLine
 62
7
  6
CONTINUOUS
 10
177.3435519383
 20
98.1131999336
 11
177.479617726
 21
98.1251041476
  0
LINE
  5
577
100
AcDbEntity
  8
0
100
AcDbLine
 62
7
  6
CONTINUOUS
 10
176.8153617496
 20
98.0669892799
 11
177.3435519383
 21
98.1131999336
  0
LINE
  5
578
100
AcDbEntity
  8
0
100
AcDbLine
 62
7
  6
CONTINUOUS
 10
176.7811966985
 20
98.4574976016
 11
177.3093868872
 21
98.5037082553
  0
LINE
  5
579
100
AcDbEntity
  8
7_ALL_ROUNDS
100
AcDbLine
 62
7
  6
CONTINUOUS
 10
177.3093868872
 20
98.5037082553
 11
177.4454526749
 21
98.5156124692
  0
LINE
  5
57A
100
AcDbEntity
  8
7_ALL_ROUNDS
100
AcDbLine
 62
7
  6
CONTINUOUS
 10
177.2991896653
 20
98.620263035
 11
177.435255453
 21
98.6321672489
  0
LINE
  5
57B
100
AcDbEntity
  8
0
100
AcDbLine
 62
7
  6
CONTINUOUS
 10
176.6116083249
 20
98.5601074624
 11
177.2991896653
 21
98.620263035
  0
LINE
  5
57C
100
AcDbEntity
  8
0
100
AcDbLine
 62
7
  6
CONTINUOUS
 10
176.6015854144
 20
98.6746698527
 11
177.2655691551
 21
98.7327609028
  0
LINE
  5
57D
100
AcDbEntity
  8
0
100
AcDbLine
 62
7
  6
CONTINUOUS
 10
170.0623638743
 20
100.4113477258
 11
161.5668184524
 21
104.4138725047
  0
LINE
  5
57E
100
AcDbEntity
  8
0
100
AcDbLine
 62
7
  6
CONTINUOUS
 10
172.8706437229
 20
102.5555499783
 11
172.7928439104
 21
102.5418317723
  0
LINE
  5
57F
100
AcDbEntity
  8
0
100
AcDbLine
 62
7
  6
CONTINUOUS
 10
170.4298433169
 20
100.5136809448
 11
171.5604693908
 21
100.612597909
  0
LINE
  5
580
100
AcDbEntity
  8
0
100
AcDbLine
 62
7
  6
CONTINUOUS
 10
171.5493694814
 20
100.7394704542
 11
171.9010791572
 21
100.7702410637
  0
LINE
  5
581
100
AcDbEntity
  8
0
100
AcDbLine
 62
7
  6
CONTINUOUS
 10
171.4736667922
 20
101.6047561508
 11
171.825376468
 21
101.6355267602
  0
LINE
  5
582
100
AcDbEntity
  8
0
100
AcDbLine
 62
7
  6
CONTINUOUS
 10
170.3388545186
 20
101.5536876678
 11
171.4694805926
 21
101.652604632
  0
LINE
  5
583
100
AcDbEntity
  8
0
100
AcDbLine
 62
7
  6
CONTINUOUS
 10
171.4516902997
 20
101.8559486096
 11
171.5303896809
 21
101.8628339133
  0
LINE
  5
584
100
AcDbEntity
  8
0
100
AcDbLine
 62
7
  6
CONTINUOUS
 10
171.3976025594
 20
102.4741743104
 11
171.4763019406
 21
102.4810596141
  0
LINE
  5
585
100
AcDbEntity
  8
0
100
AcDbLine
 62
7
  6
CONTINUOUS
 10
170.2501057649
 20
102.5680905644
 11
171.3807318389
 21
102.6670075286
  0
LINE
  5
586
100
AcDbEntity
  8
0
100
AcDbLine
 62
7
  6
CONTINUOUS
 10
171.44916192
 20
102.7912714681
 11
171.7221722147
 21
102.8151567739
  0
LINE
  5
587
100
AcDbEntity
  8
7_ALL_ROUNDS
100
AcDbLine
 62
7
  6
CONTINUOUS
 10
174.6929439779
 20
102.5689580967
 11
171.7526947733
 21
102.4662823319
  0
LINE
  5
588
100
AcDbEntity
  8
0
100
AcDbLine
 62
7
  6
CONTINUOUS
 10
169.1779753169
 20
103.3592927953
 11
171.2876200555
 21
103.7312800824
  0
LINE
  5
589
100
AcDbEntity
  8
0
100
AcDbLine
 62
7
  6
CONTINUOUS
 10
171.3657170506
 20
103.7450506897
 11
172.5440482167
 21
103.9528222665
  0
LINE
  5
58A
100
AcDbEntity
  8
7_ALL_ROUNDS
100
AcDbLine
 62
7
  6
CONTINUOUS
 10
169.6272412803
 20
104.4681981619
 11
171.0176032906
 21
104.7133564973
  0
LINE
  5
58B
100
AcDbEntity
  8
0
100
AcDbLine
 62
7
  6
CONTINUOUS
 10
171.3050957319
 20
103.5315321877
 11
169.8008966461
 21
103.39993182
  0
LINE
  5
58C
100
AcDbEntity
  8
0
100
AcDbLine
 62
7
  6
CONTINUOUS
 10
171.2822980149
 20
103.7921112853
 11
171.360997396
 21
103.798996589
  0
LINE
  5
58D
100
AcDbEntity
  8
0
100
AcDbLine
 62
7
  6
CONTINUOUS
 10
171.3712110913
 20
106.1124711563
 11
172.0605765184
 21
106.2340248807
  0
LINE
  5
58E
100
AcDbEntity
  8
0
100
AcDbLine
 62
7
  6
CONTINUOUS
 10
171.3495050691
 20
106.2355721255
 11
172.0388704962
 21
106.3571258498
  0
LINE
  5
58F
100
AcDbEntity
  8
0
100
AcDbLine
 62
7
  6
CONTINUOUS
 10
171.2843870025
 20
106.6048750329
 11
171.9737524296
 21
106.7264287572
  0
LINE
  5
590
100
AcDbEntity
  8
0
100
AcDbLine
 62
7
  6
CONTINUOUS
 10
171.2626809803
 20
106.727976002
 11
171.9520464074
 21
106.8495297263
  0
LINE
  5
591
100
AcDbEntity
  8
0
100
AcDbLine
 62
7
  6
CONTINUOUS
 10
171.1975629136
 20
107.0972789094
 11
171.8869283407
 21
107.2188326337
  0
LINE
  5
592
100
AcDbEntity
  8
0
100
AcDbLine
 62
7
  6
CONTINUOUS
 10
171.1758568914
 20
107.2203798785
 11
171.8652223185
 21
107.3419336029
  0
LINE
  5
593
100
AcDbEntity
  8
0
100
AcDbLine
 62
7
  6
CONTINUOUS
 10
171.105095259
 20
107.6216890378
 11
171.7944606861
 21
107.7432427622
  0
LINE
  5
594
100
AcDbEntity
  8
0
100
AcDbLine
 62
7
  6
CONTINUOUS
 10
171.0833892368
 20
107.744790007
 11
171.7727546639
 21
107.8663437313
  0
LINE
  5
595
100
AcDbEntity
  8
0
100
AcDbLine
 62
7
  6
CONTINUOUS
 10
171.0126276044
 20
108.1460991663
 11
171.7019930315
 21
108.2676528907
  0
LINE
  5
596
100
AcDbEntity
  8
0
100
AcDbLine
 62
7
  6
CONTINUOUS
 10
170.9909215822
 20
108.2692001354
 11
171.6802870093
 21
108.3907538598
  0
LINE
  5
597
100
AcDbEntity
  8
7_ALL_ROUNDS
100
AcDbLine
 62
7
  6
CONTINUOUS
 10
160.4908184524
 20
106.5837873771
 11
160.7408184524
 21
106.5837873771
  0
LINE
  5
598
100
AcDbEntity
  8
7_ALL_ROUNDS
100
AcDbLine
 62
7
  6
CONTINUOUS
 10
160.4908184524
 20
107.0837873771
 11
160.7408184524
 21
107.0837873771
  0
LINE
  5
599
100
AcDbEntity
  8
0
100
AcDbLine
 62
7
  6
CONTINUOUS
 10
160.4908184524
 20
107.276479285
 11
160.7408184524
 21
107.276479285
  0
LINE
  5
59A
100
AcDbEntity
  8
0
100
AcDbLine
 62
7
  6
CONTINUOUS
 10
170.9258035156
 20
108.6385030428
 11
171.6151689427
 21
108.7600567672
  0
LINE
  5
59B
100
AcDbEntity
  8
0
100
AcDbLine
 62
7
  6
CONTINUOUS
 10
170.9040974934
 20
108.761604012
 11
171.5934629205
 21
108.8831577363
  0
LINE
  5
59C
100
AcDbEntity
  8
0
100
AcDbLine
 62
7
  6
CONTINUOUS
 10
170.8389794268
 20
109.1309069193
 11
171.5283448539
 21
109.2524606437
  0
LINE
  5
59D
100
AcDbEntity
  8
0
100
AcDbLine
 62
7
  6
CONTINUOUS
 10
170.8172734045
 20
109.2540078885
 11
171.5066388317
 21
109.3755616128
  0
LINE
  5
59E
100
AcDbEntity
  8
0
100
AcDbLine
 62
7
  6
CONTINUOUS
 10
170.7521553379
 20
109.6233107958
 11
171.441520765
 21
109.7448645202
  0
LINE
  5
59F
100
AcDbEntity
  8
0
100
AcDbLine
 62
7
  6
CONTINUOUS
 10
170.7304493157
 20
109.746411765
 11
171.4198147428
 21
109.8679654893
  0
LINE
  5
5A0
100
AcDbEntity
  8
0
100
AcDbLine
 62
7
  6
CONTINUOUS
 10
170.6653312491
 20
110.1157146723
 11
171.3546966762
 21
110.2372683967
  0
LINE
  5
5A1
100
AcDbEntity
  8
0
100
AcDbLine
 62
7
  6
CONTINUOUS
 10
170.6436252269
 20
110.2388156415
 11
171.332990654
 21
110.3603693658
  0
LINE
  5
5A2
100
AcDbEntity
  8
0
100
AcDbLine
 62
7
  6
CONTINUOUS
 10
170.5785071603
 20
110.6081185489
 11
171.2678725874
 21
110.7296722732
  0
LINE
  5
5A3
100
AcDbEntity
  8
0
100
AcDbLine
 62
7
  6
CONTINUOUS
 10
170.556801138
 20
110.731219518
 11
171.2461665652
 21
110.8527732423
  0
LINE
  5
5A4
100
AcDbEntity
  8
0
100
AcDbLine
 62
7
  6
CONTINUOUS
 10
170.4860395056
 20
111.1325286773
 11
171.1754049328
 21
111.2540824017
  0
LINE
  5
5A5
100
AcDbEntity
  8
0
100
AcDbLine
 62
7
  6
CONTINUOUS
 10
170.4643334834
 20
111.2556296465
 11
171.1536989105
 21
111.3771833708
  0
LINE
  5
5A6
100
AcDbEntity
  8
0
100
AcDbLine
 62
7
  6
CONTINUOUS
 10
170.393571851
 20
111.6569388058
 11
171.0829372781
 21
111.7784925302
  0
LINE
  5
5A7
100
AcDbEntity
  8
0
100
AcDbLine
 62
7
  6
CONTINUOUS
 10
170.3718658288
 20
111.7800397749
 11
171.0612312559
 21
111.9015934993
  0
LINE
  5
5A8
100
AcDbEntity
  8
0
100
AcDbLine
 62
7
  6
CONTINUOUS
 10
170.3067477622
 20
112.1493426823
 11
170.9961131893
 21
112.2708964067
  0
LINE
  5
5A9
100
AcDbEntity
  8
7_ALL_ROUNDS
100
AcDbLine
 62
7
  6
CONTINUOUS
 10
169.7095192759
 20
112.1318695884
 11
168.3191572656
 21
111.886711253
  0
LINE
  5
5AA
100
AcDbEntity
  8
0
100
AcDbLine
 62
7
  6
CONTINUOUS
 10
170.28504174
 20
112.2724436514
 11
170.9744071671
 21
112.3939973758
  0
LINE
  5
5AB
100
AcDbEntity
  8
0
100
AcDbLine
 62
7
  6
CONTINUOUS
 10
170.2199236734
 20
112.6417465588
 11
170.9092891005
 21
112.7633002832
  0
LINE
  5
5AC
100
AcDbEntity
  8
0
100
AcDbLine
 62
7
  6
CONTINUOUS
 10
170.1982176512
 20
112.7648475279
 11
170.8875830783
 21
112.8864012523
  0
LINE
  5
5AD
100
AcDbEntity
  8
0
100
AcDbLine
 62
7
  6
CONTINUOUS
 10
170.8829297491
 20
113.3734932319
 11
167.5168568493
 21
112.7799637606
  0
LINE
  5
5AE
100
AcDbEntity
  8
0
100
AcDbLine
 62
7
  6
CONTINUOUS
 10
171.1834872121
 20
113.9666965793
 11
171.9713334145
 21
114.1056151215
  0
LINE
  5
5AF
100
AcDbEntity
  8
0
100
AcDbLine
 62
7
  6
CONTINUOUS
 10
170.5908901209
 20
114.0449825136
 11
170.7592922466
 21
114.074676352
  0
LINE
  5
5B0
100
AcDbEntity
  8
0
100
AcDbLine
 62
7
  6
CONTINUOUS
 10
170.8370920591
 20
114.088394558
 11
171.1522305401
 21
114.1439619749
  0
LINE
  5
5B1
100
AcDbEntity
  8
0
100
AcDbLine
 62
7
  6
CONTINUOUS
 10
171.9400767425
 20
114.282880517
 11
172.1821621844
 21
114.3255667121
  0
LINE
  5
5B2
100
AcDbEntity
  8
0
100
AcDbLine
 62
7
  6
CONTINUOUS
 10
172.4225463434
 20
114.8403529725
 11
172.1013770184
 21
114.7837221551
  0
LINE
  5
5B3
100
AcDbEntity
  8
0
100
AcDbLine
 62
7
  6
CONTINUOUS
 10
170.5074720291
 20
115.5028197736
 11
170.5852718416
 21
115.5165379796
  0
LINE
  5
5B4
100
AcDbEntity
  8
0
100
AcDbLine
 62
7
  6
CONTINUOUS
 10
161.5668184524
 20
120.7696425757
 11
169.8919518432
 21
118.0088584609
  0
LINE
  5
5B5
100
AcDbEntity
  8
0
100
AcDbLine
 62
7
  6
CONTINUOUS
 10
171.583903172
 20
119.5965347437
 11
171.262733847
 21
119.5399039263
  0
LINE
  5
5B6
100
AcDbEntity
  8
0
100
AcDbLine
 62
7
  6
CONTINUOUS
 10
169.5906766175
 20
119.717475171
 11
170.1520170367
 21
119.8164546322
  0
LINE
  5
5B7
100
AcDbEntity
  8
0
100
AcDbLine
 62
7
  6
CONTINUOUS
 10
170.9398632391
 20
119.9553731744
 11
171.181948681
 21
119.9980593694
  0
LINE
  5
5B8
100
AcDbEntity
  8
0
100
AcDbLine
 62
7
  6
CONTINUOUS
 10
170.1207603648
 20
119.9937200278
 11
170.9086065672
 21
120.1326385699
  0
LINE
  5
5B9
100
AcDbEntity
  8
7_ALL_ROUNDS
100
AcDbLine
 62
7
  6
CONTINUOUS
 10
161.0668184524
 20
122.3527873771
 11
160.7408184524
 21
122.3527873771
  0
LINE
  5
5BA
100
AcDbEntity
  8
7_ALL_ROUNDS
100
AcDbLine
 62
7
  6
CONTINUOUS
 10
160.8168184524
 20
122.6927873771
 11
160.7408184524
 21
122.6927873771
  0
LINE
  5
5BB
100
AcDbEntity
  8
0
100
AcDbLine
 62
7
  6
CONTINUOUS
 10
160.4908184524
 20
122.876479285
 11
160.7408184524
 21
122.876479285
  0
CIRCLE
  5
5BC
100
AcDbEntity
  8
7_ALL_ROUNDS
100
AcDbCircle
 62
7
  6
CONTINUOUS
 10
74.7619609223
 20
52.826672761
 40
2.3937007874
  0
CIRCLE
  5
5BD
100
AcDbEntity
  8
7_ALL_ROUNDS
100
AcDbCircle
 62
7
  6
CONTINUOUS
 10
74.7619609223
 20
69.951672761
 40
2.3937007874
  0
CIRCLE
  5
5BE
100
AcDbEntity
  8
7_ALL_ROUNDS
100
AcDbCircle
 62
7
  6
CONTINUOUS
 10
74.7619609223
 20
69.951672761
 40
2.0
  0
CIRCLE
  5
5BF
100
AcDbEntity
  8
7_ALL_ROUNDS
100
AcDbCircle
 62
7
  6
CONTINUOUS
 10
74.7619609223
 20
52.826672761
 40
2.0
  0
ARC
  5
5C0
100
AcDbEntity
  8
7_ALL_ROUNDS
100
AcDbCircle
 62
7
  6
CONTINUOUS
 10
72.8869609223
 20
43.7252948082
 40
0.125
100
AcDbArc
 50
269.9999999989
 51
360.0
  0
ARC
  5
5C1
100
AcDbEntity
  8
7_ALL_ROUNDS
100
AcDbCircle
 62
7
  6
CONTINUOUS
 10
71.6369609223
 20
43.7252948082
 40
0.125
100
AcDbArc
 50
180.0
 51
270.0000000011
  0
ARC
  5
5C2
100
AcDbEntity
  8
7_ALL_ROUNDS
100
AcDbCircle
 62
7
  6
CONTINUOUS
 10
70.7619609223
 20
84.7134940055
 40
0.5
100
AcDbArc
 50
180.0
 51
270.0
  0
ARC
  5
5C3
100
AcDbEntity
  8
7_ALL_ROUNDS
100
AcDbCircle
 62
7
  6
CONTINUOUS
 10
70.7619609223
 20
106.5837873771
 40
0.5
100
AcDbArc
 50
90.0
 51
180.0
  0
CIRCLE
  5
5C4
100
AcDbEntity
  8
0
100
AcDbCircle
 62
7
  6
CONTINUOUS
 10
70.7619609223
 20
122.1937873771
 40
0.11
  0
CIRCLE
  5
5C5
100
AcDbEntity
  8
0
100
AcDbCircle
 62
7
  6
CONTINUOUS
 10
70.7619609223
 20
117.3937873771
 40
0.11
  0
CIRCLE
  5
5C6
100
AcDbEntity
  8
0
100
AcDbCircle
 62
7
  6
CONTINUOUS
 10
70.7619609223
 20
112.5937873771
 40
0.11
  0
CIRCLE
  5
5C7
100
AcDbEntity
  8
0
100
AcDbCircle
 62
7
  6
CONTINUOUS
 10
70.7619609223
 20
107.7937873771
 40
0.11
  0
CIRCLE
  5
5C8
100
AcDbEntity
  8
0
100
AcDbCircle
 62
7
  6
CONTINUOUS
 10
70.7619609223
 20
106.4537873771
 40
0.11
  0
CIRCLE
  5
5C9
100
AcDbEntity
  8
0
100
AcDbCircle
 62
7
  6
CONTINUOUS
 10
70.7619609223
 20
99.3337873771
 40
0.11
  0
CIRCLE
  5
5CA
100
AcDbEntity
  8
0
100
AcDbCircle
 62
7
  6
CONTINUOUS
 10
70.7619609223
 20
92.2137873771
 40
0.11
  0
CIRCLE
  5
5CB
100
AcDbEntity
  8
0
100
AcDbCircle
 62
7
  6
CONTINUOUS
 10
70.7619609223
 20
85.0937873771
 40
0.11
  0
CIRCLE
  5
5CC
100
AcDbEntity
  8
0
100
AcDbCircle
 62
7
  6
CONTINUOUS
 10
85.2619609223
 20
70.4137396901
 40
7.625
  0
CIRCLE
  5
5CD
100
AcDbEntity
  8
0
100
AcDbCircle
 62
7
  6
CONTINUOUS
 10
85.2619609223
 20
53.2912396901
 40
7.625
  0
CIRCLE
  5
5CE
100
AcDbEntity
  8
0
100
AcDbCircle
 62
7
  6
CONTINUOUS
 10
85.2619609223
 20
70.4137396901
 40
5.0735365854
  0
CIRCLE
  5
5CF
100
AcDbEntity
  8
0
100
AcDbCircle
 62
7
  6
CONTINUOUS
 10
85.2619609223
 20
53.2912396901
 40
5.0735365854
  0
CIRCLE
  5
5D0
100
AcDbEntity
  8
7_ALL_ROUNDS
100
AcDbCircle
 62
7
  6
CONTINUOUS
 10
95.7619609223
 20
61.701672761
 40
2.3937007874
  0
CIRCLE
  5
5D1
100
AcDbEntity
  8
7_ALL_ROUNDS
100
AcDbCircle
 62
7
  6
CONTINUOUS
 10
95.7619609223
 20
78.826672761
 40
2.3937007874
  0
CIRCLE
  5
5D2
100
AcDbEntity
  8
7_ALL_ROUNDS
100
AcDbCircle
 62
7
  6
CONTINUOUS
 10
95.7619609223
 20
61.701672761
 40
2.0
  0
CIRCLE
  5
5D3
100
AcDbEntity
  8
7_ALL_ROUNDS
100
AcDbCircle
 62
7
  6
CONTINUOUS
 10
95.7619609223
 20
78.826672761
 40
2.0
  0
CIRCLE
  5
5D4
100
AcDbEntity
  8
0
100
AcDbCircle
 62
7
  6
CONTINUOUS
 10
85.2619609223
 20
70.4137396901
 40
2.0
  0
CIRCLE
  5
5D5
100
AcDbEntity
  8
0
100
AcDbCircle
 62
7
  6
CONTINUOUS
 10
85.2619609223
 20
53.2912396901
 40
2.0
  0
ARC
  5
5D6
100
AcDbEntity
  8
7_ALL_ROUNDS
100
AcDbCircle
 62
7
  6
CONTINUOUS
 10
98.8869609223
 20
43.7252948082
 40
0.125
100
AcDbArc
 50
269.9999999989
 51
360.0
  0
ARC
  5
5D7
100
AcDbEntity
  8
7_ALL_ROUNDS
100
AcDbCircle
 62
7
  6
CONTINUOUS
 10
97.6369609223
 20
43.7252948082
 40
0.125
100
AcDbArc
 50
180.0
 51
270.0000000011
  0
ARC
  5
5D8
100
AcDbEntity
  8
0
100
AcDbCircle
 62
7
  6
CONTINUOUS
 10
85.2619612619
 20
96.905773154
 40
3.2568270042
100
AcDbArc
 50
35.0315298032
 51
144.9767097604
  0
ARC
  5
5D9
100
AcDbEntity
  8
0
100
AcDbCircle
 62
7
  6
CONTINUOUS
 10
85.2619609355
 20
96.9435589188
 40
3.2568265655
100
AcDbArc
 50
215.024768642
 51
324.9749118889
  0
ARC
  5
5DA
100
AcDbEntity
  8
7_ALL_ROUNDS
100
AcDbCircle
 62
7
  6
CONTINUOUS
 10
99.7619609223
 20
106.5837873771
 40
0.5
100
AcDbArc
 50
0.0
 51
90.0
  0
ARC
  5
5DB
100
AcDbEntity
  8
7_ALL_ROUNDS
100
AcDbCircle
 62
7
  6
CONTINUOUS
 10
99.7619609223
 20
84.7134940055
 40
0.5
100
AcDbArc
 50
270.0
 51
360.0
  0
CIRCLE
  5
5DC
100
AcDbEntity
  8
0
100
AcDbCircle
 62
7
  6
CONTINUOUS
 10
99.7619609223
 20
122.1937873771
 40
0.11
  0
CIRCLE
  5
5DD
100
AcDbEntity
  8
0
100
AcDbCircle
 62
7
  6
CONTINUOUS
 10
99.7619609223
 20
117.3937873771
 40
0.11
  0
CIRCLE
  5
5DE
100
AcDbEntity
  8
0
100
AcDbCircle
 62
7
  6
CONTINUOUS
 10
99.7619609223
 20
112.5937873771
 40
0.11
  0
CIRCLE
  5
5DF
100
AcDbEntity
  8
0
100
AcDbCircle
 62
7
  6
CONTINUOUS
 10
99.7619609223
 20
107.7937873771
 40
0.11
  0
CIRCLE
  5
5E0
100
AcDbEntity
  8
0
100
AcDbCircle
 62
7
  6
CONTINUOUS
 10
99.7619609223
 20
106.4537873771
 40
0.11
  0
CIRCLE
  5
5E1
100
AcDbEntity
  8
0
100
AcDbCircle
 62
7
  6
CONTINUOUS
 10
99.7619609223
 20
99.3337873771
 40
0.11
  0
CIRCLE
  5
5E2
100
AcDbEntity
  8
0
100
AcDbCircle
 62
7
  6
CONTINUOUS
 10
99.7619609223
 20
92.2137873771
 40
0.11
  0
CIRCLE
  5
5E3
100
AcDbEntity
  8
0
100
AcDbCircle
 62
7
  6
CONTINUOUS
 10
99.7619609223
 20
85.0937873771
 40
0.11
  0
ARC
  5
5E4
100
AcDbEntity
  8
0
100
AcDbCircle
 62
7
  6
CONTINUOUS
 10
76.2619609223
 20
148.4568154762
 40
18.166
100
AcDbArc
 50
60.3018233717
 51
75.0
  0
ARC
  5
5E5
100
AcDbEntity
  8
0
100
AcDbCircle
 62
7
  6
CONTINUOUS
 10
76.2619609223
 20
148.4568154762
 40
18.166
100
AcDbArc
 50
8.2863836121
 51
15.0
  0
ARC
  5
5E6
100
AcDbEntity
  8
0
100
AcDbCircle
 62
7
  6
CONTINUOUS
 10
76.2619609223
 20
148.4568154762
 40
17.834
100
AcDbArc
 50
59.6916110943
 51
75.0
  0
ARC
  5
5E7
100
AcDbEntity
  8
0
100
AcDbCircle
 62
7
  6
CONTINUOUS
 10
76.2619609223
 20
148.4568154762
 40
17.834
100
AcDbArc
 50
9.6046173888
 51
15.0
  0
ARC
  5
5E8
100
AcDbEntity
  8
0
100
AcDbCircle
 62
7
  6
CONTINUOUS
 10
85.2350528059
 20
172.5397822495
 40
16.5276455461
100
AcDbArc
 50
267.710145908
 51
268.0818056646
  0
ARC
  5
5E9
100
AcDbEntity
  8
0
100
AcDbCircle
 62
7
  6
CONTINUOUS
 10
85.2172615643
 20
172.0959165044
 40
16.0834233876
100
AcDbArc
 50
267.3368973705
 51
267.7102971092
  0
ARC
  5
5EA
100
AcDbEntity
  8
0
100
AcDbCircle
 62
7
  6
CONTINUOUS
 10
85.2584288449
 20
148.1637468826
 40
15.5884389813
100
AcDbArc
 50
78.9147499075
 51
89.9870177423
  0
ARC
  5
5EB
100
AcDbEntity
  8
0
100
AcDbCircle
 62
7
  6
CONTINUOUS
 10
82.3271870914
 20
171.7846580546
 40
14.4192135151
100
AcDbArc
 50
263.2554253878
 51
263.4326343306
  0
ARC
  5
5EC
100
AcDbEntity
  8
0
100
AcDbCircle
 62
7
  6
CONTINUOUS
 10
85.1167969962
 20
170.2208744166
 40
14.2057446018
100
AcDbArc
 50
264.8032269984
 51
267.3902805227
  0
ARC
  5
5ED
100
AcDbEntity
  8
0
100
AcDbCircle
 62
7
  6
CONTINUOUS
 10
85.2581248254
 20
150.2171873536
 40
8.1618422517
100
AcDbArc
 50
75.866039171
 51
89.9730707646
  0
ARC
  5
5EE
100
AcDbEntity
  8
0
100
AcDbCircle
 62
7
  6
CONTINUOUS
 10
78.3042419775
 20
155.5906882115
 40
3.9906953235
100
AcDbArc
 50
350.1764534198
 51
350.4476966878
  0
ARC
  5
5EF
100
AcDbEntity
  8
0
100
AcDbCircle
 62
7
  6
CONTINUOUS
 10
83.5174562252
 20
155.3258988497
 40
2.6073004308
100
AcDbArc
 50
105.166493656
 51
106.7094815478
  0
ARC
  5
5F0
100
AcDbEntity
  8
0
100
AcDbCircle
 62
7
  6
CONTINUOUS
 10
80.4067598691
 20
155.980051545
 40
2.3698773355
100
AcDbArc
 50
103.9742491271
 51
105.0247846512
  0
ARC
  5
5F1
100
AcDbEntity
  8
0
100
AcDbCircle
 62
7
  6
CONTINUOUS
 10
83.4147799621
 20
155.6707825869
 40
2.2474582051
100
AcDbArc
 50
106.73038333
 51
107.4675159488
  0
ARC
  5
5F2
100
AcDbEntity
  8
0
100
AcDbCircle
 62
7
  6
CONTINUOUS
 10
82.7687234621
 20
156.710608618
 40
0.8885123817
100
AcDbArc
 50
115.5091900624
 51
117.1346209883
  0
CIRCLE
  5
5F3
100
AcDbEntity
  8
0
100
AcDbCircle
 62
7
  6
CONTINUOUS
 10
72.2619609223
 20
164.1318154762
 40
0.875
  0
CIRCLE
  5
5F4
100
AcDbEntity
  8
0
100
AcDbCircle
 62
7
  6
CONTINUOUS
 10
72.2619609223
 20
164.1318154762
 40
0.815
  0
ARC
  5
5F5
100
AcDbEntity
  8
0
100
AcDbCircle
 62
7
  6
CONTINUOUS
 10
82.5995787811
 20
157.0159962052
 40
0.5392670832
100
AcDbArc
 50
121.6262226514
 51
122.955035963
  0
ARC
  5
5F6
100
AcDbEntity
  8
0
100
AcDbCircle
 62
7
  6
CONTINUOUS
 10
76.8752960491
 20
153.115558288
 40
0.166
100
AcDbArc
 50
344.9999999999
 51
165.0
  0
ARC
  5
5F7
100
AcDbEntity
  8
0
100
AcDbCircle
 62
7
  6
CONTINUOUS
 10
80.9207037341
 20
165.8434803494
 40
0.166
100
AcDbArc
 50
75.0
 51
255.0
  0
ARC
  5
5F8
100
AcDbEntity
  8
0
100
AcDbCircle
 62
7
  6
CONTINUOUS
 10
83.5739609223
 20
163.7328154762
 40
0.094
100
AcDbArc
 50
90.0
 51
237.3984984612
  0
ARC
  5
5F9
100
AcDbEntity
  8
0
100
AcDbCircle
 62
7
  6
CONTINUOUS
 10
84.3694034139
 20
196.9838537857
 40
39.6261576761
100
AcDbArc
 50
266.7510540323
 51
266.8693570177
  0
ARC
  5
5FA
100
AcDbEntity
  8
0
100
AcDbCircle
 62
7
  6
CONTINUOUS
 10
84.4943287354
 20
196.1675977392
 40
38.5093551789
100
AcDbArc
 50
266.846397891
 51
267.015704787
  0
ARC
  5
5FB
100
AcDbEntity
  8
0
100
AcDbCircle
 62
7
  6
CONTINUOUS
 10
84.1193470522
 20
192.8336555302
 40
35.195985389
100
AcDbArc
 50
265.8375929308
 51
267.1562878188
  0
ARC
  5
5FC
100
AcDbEntity
  8
0
100
AcDbCircle
 62
7
  6
CONTINUOUS
 10
83.9002099061
 20
189.3379786845
 40
32.044406651
100
AcDbArc
 50
265.8203528751
 51
266.2961369538
  0
ARC
  5
5FD
100
AcDbEntity
  8
0
100
AcDbCircle
 62
7
  6
CONTINUOUS
 10
82.5307644274
 20
173.928261107
 40
16.2226313924
100
AcDbArc
 50
263.4578861961
 51
264.0824267061
  0
ARC
  5
5FE
100
AcDbEntity
  8
0
100
AcDbCircle
 62
7
  6
CONTINUOUS
 10
94.2619609223
 20
148.4568154762
 40
18.166
100
AcDbArc
 50
165.0
 51
171.7136096628
  0
ARC
  5
5FF
100
AcDbEntity
  8
0
100
AcDbCircle
 62
7
  6
CONTINUOUS
 10
94.2619609223
 20
148.4568154762
 40
18.166
100
AcDbArc
 50
105.0
 51
119.6981766283
  0
ARC
  5
600
100
AcDbEntity
  8
0
100
AcDbCircle
 62
7
  6
CONTINUOUS
 10
94.2619609223
 20
148.4568154762
 40
17.834
100
AcDbArc
 50
165.0
 51
170.3953811033
  0
ARC
  5
601
100
AcDbEntity
  8
0
100
AcDbCircle
 62
7
  6
CONTINUOUS
 10
94.2619609223
 20
148.4568154762
 40
17.834
100
AcDbArc
 50
105.0
 51
120.3083889057
  0
ARC
  5
602
100
AcDbEntity
  8
0
100
AcDbCircle
 62
7
  6
CONTINUOUS
 10
85.2888690387
 20
172.5397822494
 40
16.527645546
100
AcDbArc
 50
271.9181943354
 51
272.289854092
  0
ARC
  5
603
100
AcDbEntity
  8
0
100
AcDbCircle
 62
7
  6
CONTINUOUS
 10
85.3066602803
 20
172.0959165043
 40
16.0834233875
100
AcDbArc
 50
272.2897028908
 51
272.6631026295
  0
ARC
  5
604
100
AcDbEntity
  8
0
100
AcDbCircle
 62
7
  6
CONTINUOUS
 10
85.2654929997
 20
148.1637468826
 40
15.5884389813
100
AcDbArc
 50
90.0129822577
 51
101.0852500925
  0
ARC
  5
605
100
AcDbEntity
  8
0
100
AcDbCircle
 62
7
  6
CONTINUOUS
 10
88.1965658885
 20
171.7861116438
 40
14.4206768793
100
AcDbArc
 50
276.5673716598
 51
276.7438361138
  0
ARC
  5
606
100
AcDbEntity
  8
0
100
AcDbCircle
 62
7
  6
CONTINUOUS
 10
85.4071248484
 20
170.2208744166
 40
14.2057446018
100
AcDbArc
 50
272.6097194773
 51
275.1967730016
  0
ARC
  5
607
100
AcDbEntity
  8
0
100
AcDbCircle
 62
7
  6
CONTINUOUS
 10
85.2657970192
 20
150.2171873536
 40
8.1618422517
100
AcDbArc
 50
90.0269292354
 51
104.133960829
  0
ARC
  5
608
100
AcDbEntity
  8
0
100
AcDbCircle
 62
7
  6
CONTINUOUS
 10
87.7904134251
 20
160.8106693739
 40
2.6896760132
100
AcDbArc
 50
70.1613923992
 51
71.796832073
  0
ARC
  5
609
100
AcDbEntity
  8
0
100
AcDbCircle
 62
7
  6
CONTINUOUS
 10
87.791295879
 20
160.6040761048
 40
2.6869489747
100
AcDbArc
 50
69.4136356241
 51
71.7975180843
  0
ARC
  5
60A
100
AcDbEntity
  8
0
100
AcDbCircle
 62
7
  6
CONTINUOUS
 10
87.7939915179
 20
160.8206374132
 40
2.6790852502
100
AcDbArc
 50
69.1713486326
 51
70.1610260402
  0
ARC
  5
60B
100
AcDbEntity
  8
0
100
AcDbCircle
 62
7
  6
CONTINUOUS
 10
87.7956515008
 20
160.6158609039
 40
2.6743851967
100
AcDbArc
 50
68.9119562986
 51
69.4122158236
  0
ARC
  5
60C
100
AcDbEntity
  8
0
100
AcDbCircle
 62
7
  6
CONTINUOUS
 10
87.7983893248
 20
160.622929122
 40
2.6668052719
100
AcDbArc
 50
67.9239642622
 51
68.9121992575
  0
ARC
  5
60D
100
AcDbEntity
  8
0
100
AcDbCircle
 62
7
  6
CONTINUOUS
 10
87.0064656193
 20
155.3258988495
 40
2.6073004309
100
AcDbArc
 50
73.2905184523
 51
74.8335063439
  0
ARC
  5
60E
100
AcDbEntity
  8
0
100
AcDbCircle
 62
7
  6
CONTINUOUS
 10
87.8695113257
 20
160.747560382
 40
2.5226614542
100
AcDbArc
 50
47.6986186035
 51
50.732108232
  0
ARC
  5
60F
100
AcDbEntity
  8
0
100
AcDbCircle
 62
7
  6
CONTINUOUS
 10
87.8718201392
 20
160.9593313606
 40
2.5191867309
100
AcDbArc
 50
47.7746251081
 51
50.696494444
  0
ARC
  5
610
100
AcDbEntity
  8
0
100
AcDbCircle
 62
7
  6
CONTINUOUS
 10
87.8804013089
 20
160.9685924373
 40
2.5065618787
100
AcDbArc
 50
43.7450485664
 51
47.7776086414
  0
ARC
  5
611
100
AcDbEntity
  8
0
100
AcDbCircle
 62
7
  6
CONTINUOUS
 10
87.8805956544
 20
160.7596124201
 40
2.5062874997
100
AcDbArc
 50
43.7449205387
 51
47.7006017096
  0
ARC
  5
612
100
AcDbEntity
  8
0
100
AcDbCircle
 62
7
  6
CONTINUOUS
 10
90.1171619755
 20
155.980051545
 40
2.3698773354
100
AcDbArc
 50
74.9752153488
 51
76.0257508729
  0
ARC
  5
613
100
AcDbEntity
  8
0
100
AcDbCircle
 62
7
  6
CONTINUOUS
 10
87.1091418825
 20
155.6707825869
 40
2.2474582051
100
AcDbArc
 50
72.5324840512
 51
73.26961667
  0
ARC
  5
614
100
AcDbEntity
  8
0
100
AcDbCircle
 62
7
  6
CONTINUOUS
 10
87.7551983825
 20
156.7106086181
 40
0.8885123816
100
AcDbArc
 50
62.8653790117
 51
64.4908099378
  0
CIRCLE
  5
615
100
AcDbEntity
  8
0
100
AcDbCircle
 62
7
  6
CONTINUOUS
 10
98.2619609223
 20
164.1318154762
 40
0.875
  0
CIRCLE
  5
616
100
AcDbEntity
  8
0
100
AcDbCircle
 62
7
  6
CONTINUOUS
 10
98.2619609223
 20
164.1318154762
 40
0.815
  0
ARC
  5
617
100
AcDbEntity
  8
0
100
AcDbCircle
 62
7
  6
CONTINUOUS
 10
87.9243430635
 20
157.0159962052
 40
0.5392670832
100
AcDbArc
 50
57.044964037
 51
58.3737773486
  0
ARC
  5
618
100
AcDbEntity
  8
0
100
AcDbCircle
 62
7
  6
CONTINUOUS
 10
89.6032181105
 20
165.8434803494
 40
0.166
100
AcDbArc
 50
285.0
 51
105.0
  0
ARC
  5
619
100
AcDbEntity
  8
0
100
AcDbCircle
 62
7
  6
CONTINUOUS
 10
93.6486257955
 20
153.115558288
 40
0.166
100
AcDbArc
 50
15.0
 51
195.0000000001
  0
ARC
  5
61A
100
AcDbEntity
  8
0
100
AcDbCircle
 62
7
  6
CONTINUOUS
 10
86.9499609223
 20
163.7328154762
 40
0.094
100
AcDbArc
 50
302.5958254443
 51
90.0
  0
ARC
  5
61B
100
AcDbEntity
  8
0
100
AcDbCircle
 62
7
  6
CONTINUOUS
 10
86.5865915064
 20
190.228230898
 40
32.5842224562
100
AcDbArc
 50
273.5703756326
 51
274.1757269969
  0
ARC
  5
61C
100
AcDbEntity
  8
0
100
AcDbCircle
 62
7
  6
CONTINUOUS
 10
86.6237122724
 20
189.3379740818
 40
32.0444020362
100
AcDbArc
 50
273.7038653077
 51
274.1796471293
  0
ARC
  5
61D
100
AcDbEntity
  8
0
100
AcDbCircle
 62
7
  6
CONTINUOUS
 10
85.2619609223
 20
173.3411297322
 40
17.3294446669
100
AcDbArc
 50
268.0815745833
 51
271.9184254167
  0
ARC
  5
61E
100
AcDbEntity
  8
0
100
AcDbCircle
 62
7
  6
CONTINUOUS
 10
87.9931574171
 20
173.9282611081
 40
16.2226313935
100
AcDbArc
 50
275.9175732939
 51
276.5421138039
  0
ARC
  5
61F
100
AcDbEntity
  8
7_ALL_ROUNDS
100
AcDbCircle
 62
7
  6
CONTINUOUS
 10
162.3658184524
 20
43.7252948082
 40
0.125
100
AcDbArc
 50
180.0
 51
270.0
  0
ARC
  5
620
100
AcDbEntity
  8
7_ALL_ROUNDS
100
AcDbCircle
 62
7
  6
CONTINUOUS
 10
163.6158184524
 20
43.7252948082
 40
0.125
100
AcDbArc
 50
270.0
 51
360.0
  0
ARC
  5
621
100
AcDbEntity
  8
7_ALL_ROUNDS
100
AcDbCircle
 62
7
  6
CONTINUOUS
 10
162.3091051066
 20
96.21965606
 40
15.5520833333
100
AcDbArc
 50
352.8403473747
 51
17.1596526253
  0
ARC
  5
622
100
AcDbEntity
  8
0
100
AcDbCircle
 62
7
  6
CONTINUOUS
 10
164.9063909373
 20
96.4404580491
 40
12.5746313208
100
AcDbArc
 50
2.9908241468
 51
4.7703579443
  0
ARC
  5
623
100
AcDbEntity
  8
0
100
AcDbCircle
 62
7
  6
CONTINUOUS
 10
164.946681953
 20
96.4576206941
 40
12.5329936391
100
AcDbArc
 50
5.2591978817
 51
7.0607601323
  0
ARC
  5
624
100
AcDbEntity
  8
0
100
AcDbCircle
 62
7
  6
CONTINUOUS
 10
166.5748958794
 20
96.5260389917
 40
10.9039131573
100
AcDbArc
 50
2.1335831308
 51
2.3545560672
  0
ARC
  5
625
100
AcDbEntity
  8
0
100
AcDbCircle
 62
7
  6
CONTINUOUS
 10
167.5487509828
 20
96.7973778714
 40
9.9087551485
100
AcDbArc
 50
7.6835439143
 51
9.4627936622
  0
ARC
  5
626
100
AcDbEntity
  8
0
100
AcDbCircle
 62
7
  6
CONTINUOUS
 10
167.7079830597
 20
96.5636450728
 40
9.770212528
100
AcDbArc
 50
0.4343967909
 51
2.160583672
  0
ARC
  5
627
100
AcDbEntity
  8
0
100
AcDbCircle
 62
7
  6
CONTINUOUS
 10
168.6412698891
 20
96.9751826746
 40
8.8018712605
100
AcDbArc
 50
9.4903453309
 51
9.9144379068
  0
ARC
  5
628
100
AcDbEntity
  8
0
100
AcDbCircle
 62
7
  6
CONTINUOUS
 10
168.722763221
 20
96.5753827004
 40
8.755373476
100
AcDbArc
 50
0.0828172138
 51
0.4079348496
  0
ARC
  5
629
100
AcDbEntity
  8
0
100
AcDbCircle
 62
7
  6
CONTINUOUS
 10
164.3570742904
 20
115.8702212322
 40
8.1309573895
100
AcDbArc
 50
352.7233626954
 51
27.2766373046
  0
ARC
  5
62A
100
AcDbEntity
  8
0
100
AcDbCircle
 62
7
  6
CONTINUOUS
 10
169.9145676191
 20
96.5664019923
 40
7.563508105
100
AcDbArc
 50
358.2990338208
 51
359.2039427538
  0
ARC
  5
62B
100
AcDbEntity
  8
0
100
AcDbCircle
 62
7
  6
CONTINUOUS
 10
169.8701685759
 20
97.2010494345
 40
7.5523565692
100
AcDbArc
 50
10.8329048099
 51
11.7014681922
  0
ARC
  5
62C
100
AcDbEntity
  8
7_ALL_ROUNDS
100
AcDbCircle
 62
7
  6
CONTINUOUS
 10
161.0668184524
 20
121.8527873771
 40
0.5
100
AcDbArc
 50
0.0
 51
90.0
  0
ARC
  5
62D
100
AcDbEntity
  8
7_ALL_ROUNDS
100
AcDbCircle
 62
7
  6
CONTINUOUS
 10
161.0668184524
 20
85.2137873771
 40
0.5
100
AcDbArc
 50
270.0
 51
360.0
  0
ARC
  5
62E
100
AcDbEntity
  8
0
100
AcDbCircle
 62
7
  6
CONTINUOUS
 10
161.5907559866
 20
84.5137442253
 40
0.4992765553
100
AcDbArc
 50
216.9681197022
 51
33.331077468
  0
ARC
  5
62F
100
AcDbEntity
  8
7_ALL_ROUNDS
100
AcDbCircle
 62
7
  6
CONTINUOUS
 10
168.8358184524
 20
84.223672761
 40
0.312
100
AcDbArc
 50
90.0
 51
163.4148165404
  0
ARC
  5
630
100
AcDbEntity
  8
7_ALL_ROUNDS
100
AcDbCircle
 62
7
  6
CONTINUOUS
 10
169.6661072315
 20
112.3780715266
 40
0.25
100
AcDbArc
 50
280.0
 51
10.0
  0
CIRCLE
  5
631
100
AcDbEntity
  8
0
100
AcDbCircle
 62
7
  6
CONTINUOUS
 10
161.5907559866
 20
84.5137442253
 40
0.1825
  0
CIRCLE
  5
632
100
AcDbEntity
  8
0
100
AcDbCircle
 62
7
  6
CONTINUOUS
 10
169.4221043348
 20
104.3243466915
 40
0.0925
  0
CIRCLE
  5
633
100
AcDbEntity
  8
0
100
AcDbCircle
 62
7
  6
CONTINUOUS
 10
168.7492176464
 20
108.1404767344
 40
0.0925
  0
CIRCLE
  5
634
100
AcDbEntity
  8
0
100
AcDbCircle
 62
7
  6
CONTINUOUS
 10
168.0763309579
 20
111.9566067773
 40
0.0925
  0
CIRCLE
  5
635
100
AcDbEntity
  8
0
100
AcDbCircle
 62
7
  6
CONTINUOUS
 10
169.7130470356
 20
112.7529172875
 40
0.0925
  0
ARC
  5
636
100
AcDbEntity
  8
7_ALL_ROUNDS
100
AcDbCircle
 62
7
  6
CONTINUOUS
 10
176.5408184524
 20
66.666672761
 40
0.19
100
AcDbArc
 50
270.0
 51
360.0
  0
ARC
  5
637
100
AcDbEntity
  8
7_ALL_ROUNDS
100
AcDbCircle
 62
7
  6
CONTINUOUS
 10
171.8708184524
 20
66.666672761
 40
0.19
100
AcDbArc
 50
180.0
 51
270.0
  0
ARC
  5
638
100
AcDbEntity
  8
7_ALL_ROUNDS
100
AcDbCircle
 62
7
  6
CONTINUOUS
 10
171.8708184524
 20
73.386672761
 40
0.19
100
AcDbArc
 50
90.0
 51
180.0
  0
ARC
  5
639
100
AcDbEntity
  8
7_ALL_ROUNDS
100
AcDbCircle
 62
7
  6
CONTINUOUS
 10
176.5408184524
 20
73.386672761
 40
0.19
100
AcDbArc
 50
0.0
 51
90.0
  0
ARC
  5
63A
100
AcDbEntity
  8
7_ALL_ROUNDS
100
AcDbCircle
 62
7
  6
CONTINUOUS
 10
175.8370192398
 20
72.6628735484
 40
0.1875
100
AcDbArc
 50
0.0
 51
90.0
  0
ARC
  5
63B
100
AcDbEntity
  8
7_ALL_ROUNDS
100
AcDbCircle
 62
7
  6
CONTINUOUS
 10
175.8370192398
 20
67.3904719736
 40
0.1875
100
AcDbArc
 50
270.0
 51
360.0
  0
ARC
  5
63C
100
AcDbEntity
  8
7_ALL_ROUNDS
100
AcDbCircle
 62
7
  6
CONTINUOUS
 10
172.574617665
 20
67.3904719736
 40
0.1875
100
AcDbArc
 50
180.0
 51
270.0
  0
ARC
  5
63D
100
AcDbEntity
  8
7_ALL_ROUNDS
100
AcDbCircle
 62
7
  6
CONTINUOUS
 10
172.574617665
 20
72.6628735484
 40
0.1875
100
AcDbArc
 50
90.0
 51
180.0
  0
ARC
  5
63E
100
AcDbEntity
  8
7_ALL_ROUNDS
100
AcDbCircle
 62
7
  6
CONTINUOUS
 10
176.5088184524
 20
66.718672761
 40
0.187
100
AcDbArc
 50
270.0
 51
360.0
  0
ARC
  5
63F
100
AcDbEntity
  8
7_ALL_ROUNDS
100
AcDbCircle
 62
7
  6
CONTINUOUS
 10
176.5088184524
 20
73.334672761
 40
0.187
100
AcDbArc
 50
0.0
 51
90.0
  0
ARC
  5
640
100
AcDbEntity
  8
7_ALL_ROUNDS
100
AcDbCircle
 62
7
  6
CONTINUOUS
 10
171.9028184524
 20
73.334672761
 40
0.187
100
AcDbArc
 50
90.0
 51
180.0
  0
ARC
  5
641
100
AcDbEntity
  8
7_ALL_ROUNDS
100
AcDbCircle
 62
7
  6
CONTINUOUS
 10
171.9028184524
 20
66.718672761
 40
0.187
100
AcDbArc
 50
180.0
 51
270.0
  0
ARC
  5
642
100
AcDbEntity
  8
7_ALL_ROUNDS
100
AcDbCircle
 62
7
  6
CONTINUOUS
 10
177.6158184524
 20
43.7252948082
 40
0.125
100
AcDbArc
 50
180.0
 51
270.0
  0
ARC
  5
643
100
AcDbEntity
  8
7_ALL_ROUNDS
100
AcDbCircle
 62
7
  6
CONTINUOUS
 10
178.8658184524
 20
43.7252948082
 40
0.125
100
AcDbArc
 50
270.0
 51
360.0
  0
CIRCLE
  5
644
100
AcDbEntity
  8
0
100
AcDbCircle
 62
7
  6
CONTINUOUS
 10
175.4931567201
 20
71.6065940208
 40
0.0835
  0
CIRCLE
  5
645
100
AcDbEntity
  8
0
100
AcDbCircle
 62
7
  6
CONTINUOUS
 10
172.9281567201
 20
71.6065940208
 40
0.0835
  0
ARC
  5
646
100
AcDbEntity
  8
7_ALL_ROUNDS
100
AcDbCircle
 62
7
  6
CONTINUOUS
 10
170.5827754215
 20
89.8209131565
 40
1.3
100
AcDbArc
 50
130.695918265
 51
180.0
  0
ARC
  5
647
100
AcDbEntity
  8
7_ALL_ROUNDS
100
AcDbCircle
 62
7
  6
CONTINUOUS
 10
171.022733057
 20
89.8267883282
 40
0.6
100
AcDbArc
 50
140.9542109377
 51
220.695918265
  0
ARC
  5
648
100
AcDbEntity
  8
7_ALL_ROUNDS
100
AcDbCircle
 62
7
  6
CONTINUOUS
 10
170.1684255922
 20
90.5197240466
 40
0.5000005247
100
AcDbArc
 50
320.9542109377
 51
130.695918265
  0
CIRCLE
  5
649
100
AcDbEntity
  8
0
100
AcDbCircle
 62
7
  6
CONTINUOUS
 10
170.1684255922
 20
90.5197240466
 40
0.1615
  0
ARC
  5
64A
100
AcDbEntity
  8
7_ALL_ROUNDS
100
AcDbCircle
 62
7
  6
CONTINUOUS
 10
171.0610153351
 20
104.4671545591
 40
0.25
100
AcDbArc
 50
10.0
 51
100.0
  0
ARC
  5
64B
100
AcDbEntity
  8
0
100
AcDbCircle
 62
7
  6
CONTINUOUS
 10
171.3688348404
 20
104.1611160154
 40
0.2269992548
100
AcDbArc
 50
280.0
 51
100.0
  0
CIRCLE
  5
64C
100
AcDbEntity
  8
0
100
AcDbCircle
 62
7
  6
CONTINUOUS
 10
171.4682933357
 20
105.4467149789
 40
0.185
  0
CIRCLE
  5
64D
100
AcDbEntity
  8
0
100
AcDbCircle
 62
7
  6
CONTINUOUS
 10
171.5748046605
 20
106.9734043179
 40
0.135
  0
CIRCLE
  5
64E
100
AcDbEntity
  8
0
100
AcDbCircle
 62
7
  6
CONTINUOUS
 10
171.4851587888
 20
107.4818113203
 40
0.135
  0
CIRCLE
  5
64F
100
AcDbEntity
  8
0
100
AcDbCircle
 62
7
  6
CONTINUOUS
 10
171.3926911342
 20
108.0062214488
 40
0.135
  0
CIRCLE
  5
650
100
AcDbEntity
  8
0
100
AcDbCircle
 62
7
  6
CONTINUOUS
 10
171.3030452625
 20
108.5146284513
 40
0.135
  0
CIRCLE
  5
651
100
AcDbEntity
  8
0
100
AcDbCircle
 62
7
  6
CONTINUOUS
 10
170.9557489071
 20
110.4842439573
 40
0.135
  0
CIRCLE
  5
652
100
AcDbEntity
  8
0
100
AcDbCircle
 62
7
  6
CONTINUOUS
 10
170.8661030354
 20
110.9926509598
 40
0.135
  0
CIRCLE
  5
653
100
AcDbEntity
  8
0
100
AcDbCircle
 62
7
  6
CONTINUOUS
 10
170.7736353808
 20
111.5170610883
 40
0.135
  0
CIRCLE
  5
654
100
AcDbEntity
  8
0
100
AcDbCircle
 62
7
  6
CONTINUOUS
 10
170.6839895091
 20
112.0254680908
 40
0.135
  0
ARC
  5
655
100
AcDbEntity
  8
0
100
AcDbCircle
 62
7
  6
CONTINUOUS
 10
171.4682933357
 20
105.4467149789
 40
0.125
100
AcDbArc
 50
23.2810120025
 51
296.7189879976
  0
CIRCLE
  5
656
100
AcDbEntity
  8
0
100
AcDbCircle
 62
7
  6
CONTINUOUS
 10
171.2326236385
 20
104.1349701261
 40
0.0925
  0
CIRCLE
  5
657
100
AcDbEntity
  8
0
100
AcDbCircle
 62
7
  6
CONTINUOUS
 10
171.6616287493
 20
106.4810004414
 40
0.0835
  0
CIRCLE
  5
658
100
AcDbEntity
  8
0
100
AcDbCircle
 62
7
  6
CONTINUOUS
 10
171.2162211736
 20
109.0070323278
 40
0.0835
  0
CIRCLE
  5
659
100
AcDbEntity
  8
0
100
AcDbCircle
 62
7
  6
CONTINUOUS
 10
171.042572996
 20
109.9918400808
 40
0.0835
  0
CIRCLE
  5
65A
100
AcDbEntity
  8
0
100
AcDbCircle
 62
7
  6
CONTINUOUS
 10
170.5971654202
 20
112.5178719673
 40
0.0835
  0
CIRCLE
  5
65B
100
AcDbEntity
  8
0
100
AcDbCircle
 62
7
  6
CONTINUOUS
 10
171.8206780685
 20
105.3184574251
 40
0.059
  0
ARC
  5
65C
100
AcDbEntity
  8
7_ALL_ROUNDS
100
AcDbCircle
 62
7
  6
CONTINUOUS
 10
175.2594176171
 20
94.5929153863
 40
2.5
100
AcDbArc
 50
278.0000000002
 51
352.8403473749
  0
ARC
  5
65D
100
AcDbEntity
  8
7_ALL_ROUNDS
100
AcDbCircle
 62
7
  6
CONTINUOUS
 10
177.4358184524
 20
84.223672761
 40
0.312
100
AcDbArc
 50
16.5851834596
 51
90.0
  0
ARC
  5
65E
100
AcDbEntity
  8
7_ALL_ROUNDS
100
AcDbCircle
 62
7
  6
CONTINUOUS
 10
174.7801927197
 20
100.0704810291
 40
2.5
100
AcDbArc
 50
17.1596526251
 51
91.9999999998
  0
SPLINE
  5
65F
100
AcDbEntity
  8
0
100
AcDbSpline
 62
7
  6
CONTINUOUS
 70
0
 71
3
 72
8
 73
4
 74
0
 42
0.0000001
 43
0.0000001
 44
0.0000000001
 40
0.0
 40
0.0
 40
0.0
 40
0.0
 40
1.0
 40
1.0
 40
1.0
 40
1.0
 10
82.5949287868
 20
98.7748655201
 30
0.0
 10
82.2244565728
 20
98.244892586
 30
0.0
 10
82.0119609223
 20
97.5712890258
 30
0.0
 10
82.0119609223
 20
96.9246662825
 30
0.0
  0
SPLINE
  5
660
100
AcDbEntity
  8
0
100
AcDbSpline
 62
7
  6
CONTINUOUS
 70
0
 71
3
 72
8
 73
4
 74
0
 42
0.0000001
 43
0.0000001
 44
0.0000000001
 40
0.0
 40
0.0
 40
0.0
 40
0.0
 40
1.0
 40
1.0
 40
1.0
 40
1.0
 10
88.5119609223
 20
96.9246662825
 30
0.0
 10
88.5119609223
 20
97.5714378184
 30
0.0
 10
88.2993595994
 20
98.2452081415
 30
0.0
 10
87.9287249203
 20
98.7752490403
 30
0.0
  0
SPLINE
  5
661
100
AcDbEntity
  8
0
100
AcDbSpline
 62
7
  6
CONTINUOUS
 70
0
 71
3
 72
8
 73
4
 74
0
 42
0.0000001
 43
0.0000001
 44
0.0000000001
 40
0.0
 40
0.0
 40
0.0
 40
0.0
 40
1.0
 40
1.0
 40
1.0
 40
1.0
 10
82.0119609223
 20
96.9246662825
 30
0.0
 10
82.0119609223
 20
96.2780167506
 30
0.0
 10
82.2244755957
 20
95.6043831671
 30
0.0
 10
82.5949770575
 20
95.0743979939
 30
0.0
  0
SPLINE
  5
662
100
AcDbEntity
  8
0
100
AcDbSpline
 62
7
  6
CONTINUOUS
 70
0
 71
3
 72
14
 73
10
 74
0
 42
0.0000001
 43
0.0000001
 44
0.0000000001
 40
0.0
 40
0.0
 40
0.0
 40
0.0
 40
0.2467880065
 40
0.3697759188
 40
0.4923534304
 40
0.6143547661
 40
0.7356455752
 40
0.8580206055
 40
1.0
 40
1.0
 40
1.0
 40
1.0
 10
76.6210684836
 20
86.4721727681
 30
0.0
 10
77.2053804605
 20
87.1238104579
 30
0.0
 10
78.0786251542
 20
88.1021687595
 30
0.0
 10
79.230375345
 20
89.414832966
 30
0.0
 10
80.080354761
 20
90.4026655829
 30
0.0
 10
80.9098665825
 20
91.4027747962
 30
0.0
 10
81.6943695959
 20
92.4285107449
 30
0.0
 10
82.4141021603
 20
93.6275272847
 30
0.0
 10
82.4487192163
 20
94.5926701207
 30
0.0
 10
82.5948892991
 20
95.0745235346
 30
0.0
  0
SPLINE
  5
663
100
AcDbEntity
  8
0
100
AcDbSpline
 62
7
  6
CONTINUOUS
 70
0
 71
3
 72
14
 73
10
 74
0
 42
0.0000001
 43
0.0000001
 44
0.0000000001
 40
0.0
 40
0.0
 40
0.0
 40
0.0
 40
0.2467880017
 40
0.3697759116
 40
0.4923534212
 40
0.6143547552
 40
0.7356455626
 40
0.8580205647
 40
1.0
 40
1.0
 40
1.0
 40
1.0
 10
93.9028533608
 20
86.4721727684
 30
0.0
 10
93.3185413889
 20
87.1238104414
 30
0.0
 10
92.4452967227
 20
88.1021687294
 30
0.0
 10
91.293546536
 20
89.4148329159
 30
0.0
 10
90.4435671956
 20
90.4026655234
 30
0.0
 10
89.614055044
 20
91.4027746094
 30
0.0
 10
88.8295532209
 20
92.4285107748
 30
0.0
 10
88.1098159028
 20
93.6275259339
 30
0.0
 10
88.0752125211
 20
94.5926729698
 30
0.0
 10
87.9290325455
 20
95.0745235346
 30
0.0
  0
SPLINE
  5
664
100
AcDbEntity
  8
0
100
AcDbSpline
 62
7
  6
CONTINUOUS
 70
0
 71
3
 72
15
 73
11
 74
0
 42
0.0000001
 43
0.0000001
 44
0.0000000001
 40
0.0
 40
0.0
 40
0.0
 40
0.0
 40
0.2454776166
 40
0.4908975417
 40
0.6136842865
 40
0.7368340657
 40
0.7989023665
 40
0.8620147572
 40
0.9280307958
 40
1.0
 40
1.0
 40
1.0
 40
1.0
 10
97.8861509127
 20
100.349281176
 30
0.0
 10
97.0798419659
 20
100.1477772483
 30
0.0
 10
95.4662304556
 20
99.7496487464
 30
0.0
 10
93.4435934282
 20
99.2734939969
 30
0.0
 10
91.8162201975
 20
98.9282238867
 30
0.0
 10
90.7899631313
 20
98.7407386124
 30
0.0
 10
89.955709083
 20
98.6335160705
 30
0.0
 10
89.3089991007
 20
98.5935775867
 30
0.0
 10
88.6260500183
 20
98.6315044181
 30
0.0
 10
88.1706319116
 20
98.7431559677
 30
0.0
 10
87.9290325455
 20
98.7748090303
 30
0.0
  0
SPLINE
  5
665
100
AcDbEntity
  8
0
100
AcDbSpline
 62
7
  6
CONTINUOUS
 70
0
 71
3
 72
15
 73
11
 74
0
 42
0.0000001
 43
0.0000001
 44
0.0000000001
 40
0.0
 40
0.0
 40
0.0
 40
0.0
 40
0.2486920412
 40
0.4968697503
 40
0.6206309593
 40
0.7440849592
 40
0.8057828422
 40
0.8678402113
 40
0.931689487
 40
1.0
 40
1.0
 40
1.0
 40
1.0
 10
98.8938400485
 20
91.5988343514
 30
0.0
 10
98.0065753576
 20
91.9691889504
 30
0.0
 10
96.2319934275
 20
92.7045107651
 30
0.0
 10
94.0066410145
 20
93.6023083784
 30
0.0
 10
92.2157155769
 20
94.2808964575
 30
0.0
 10
91.0868484941
 20
94.6727511701
 30
0.0
 10
90.1670855788
 20
94.9334989018
 30
0.0
 10
89.4556219328
 20
95.0814041463
 30
0.0
 10
88.70269351
 20
95.1268150134
 30
0.0
 10
88.1930903401
 20
95.0787985833
 30
0.0
 10
87.9290325455
 20
95.0745235346
 30
0.0
  0
SPLINE
  5
666
100
AcDbEntity
  8
0
100
AcDbSpline
 62
7
  6
CONTINUOUS
 70
0
 71
3
 72
8
 73
4
 74
0
 42
0.0000001
 43
0.0000001
 44
0.0000000001
 40
0.0
 40
0.0
 40
0.0
 40
0.0
 40
1.0
 40
1.0
 40
1.0
 40
1.0
 10
87.9289343914
 20
95.0743831234
 30
0.0
 10
88.2994421521
 20
95.6043709322
 30
0.0
 10
88.5119609223
 20
96.2780109815
 30
0.0
 10
88.5119609223
 20
96.9246662825
 30
0.0
  0
SPLINE
  5
667
100
AcDbEntity
  8
7_ALL_ROUNDS
100
AcDbSpline
 62
7
  6
CONTINUOUS
 70
0
 71
3
 72
10
 73
6
 74
0
 42
0.0000001
 43
0.0000001
 44
0.0000000001
 40
0.0
 40
0.0
 40
0.0
 40
0.0
 40
0.2511150771
 40
0.5024594727
 40
1.0
 40
1.0
 40
1.0
 40
1.0
 10
72.6377709136
 20
100.3492810267
 30
0.0
 10
72.7103058106
 20
100.9791507823
 30
0.0
 10
73.1340610264
 20
102.2249310806
 30
0.0
 10
74.8944554638
 20
104.1158365635
 30
0.0
 10
76.8790575343
 20
104.670810745
 30
0.0
 10
78.1352818585
 20
104.6708107143
 30
0.0
  0
SPLINE
  5
668
100
AcDbEntity
  8
7_ALL_ROUNDS
100
AcDbSpline
 62
7
  6
CONTINUOUS
 70
0
 71
3
 72
10
 73
6
 74
0
 42
0.0000001
 43
0.0000001
 44
0.0000000001
 40
0.0
 40
0.0
 40
0.0
 40
0.0
 40
0.4975412397
 40
0.7488831302
 40
1.0
 40
1.0
 40
1.0
 40
1.0
 10
92.3886399853
 20
104.6708107144
 30
0.0
 10
93.6448661308
 20
104.6708107517
 30
0.0
 10
95.6294637922
 20
104.1158366764
 30
0.0
 10
97.3898594175
 20
102.2249341975
 30
0.0
 10
97.8136155093
 20
100.9791553023
 30
0.0
 10
97.8861509284
 20
100.349281039
 30
0.0
  0
SPLINE
  5
669
100
AcDbEntity
  8
7_ALL_ROUNDS
100
AcDbSpline
 62
7
  6
CONTINUOUS
 70
0
 71
3
 72
11
 73
7
 74
0
 42
0.0000001
 43
0.0000001
 44
0.0000000001
 40
0.0
 40
0.0
 40
0.0
 40
0.0
 40
0.2506294327
 40
0.5005675059
 40
0.7500433862
 40
1.0
 40
1.0
 40
1.0
 40
1.0
 10
76.6210683914
 20
86.4721727681
 30
0.0
 10
75.9434599059
 20
86.4721728411
 30
0.0
 10
74.5761517944
 20
86.6761327244
 30
0.0
 10
72.7731650533
 20
87.7397551218
 30
0.0
 10
71.6579705986
 20
89.5305932351
 30
0.0
 10
71.5527698222
 20
90.9274822965
 30
0.0
 10
71.6300818497
 20
91.5988348193
 30
0.0
  0
SPLINE
  5
66A
100
AcDbEntity
  8
7_ALL_ROUNDS
100
AcDbSpline
 62
7
  6
CONTINUOUS
 70
0
 71
3
 72
11
 73
7
 74
0
 42
0.0000001
 43
0.0000001
 44
0.0000000001
 40
0.0
 40
0.0
 40
0.0
 40
0.0
 40
0.2499565291
 40
0.4994324405
 40
0.7493704547
 40
1.0
 40
1.0
 40
1.0
 40
1.0
 10
98.893839995
 20
91.5988348159
 30
0.0
 10
98.9711519945
 20
90.9274825198
 30
0.0
 10
98.8659513211
 20
89.5305936475
 30
0.0
 10
97.7507572952
 20
87.7397556095
 30
0.0
 10
95.9477705337
 20
86.6761328238
 30
0.0
 10
94.5804622465
 20
86.4721728415
 30
0.0
 10
93.9028534557
 20
86.4721727684
 30
0.0
  0
SPLINE
  5
66B
100
AcDbEntity
  8
0
100
AcDbSpline
 62
7
  6
CONTINUOUS
 70
0
 71
3
 72
9
 73
5
 74
0
 42
0.0000001
 43
0.0000001
 44
0.0000000001
 40
0.0
 40
0.0
 40
0.0
 40
0.0
 40
0.4999999999
 40
1.0
 40
1.0
 40
1.0
 40
1.0
 10
84.5822297936
 20
116.8743184361
 30
0.0
 10
84.6966971625
 20
116.6325711145
 30
0.0
 10
85.2619609044
 20
116.2631495319
 30
0.0
 10
85.8272246598
 20
116.6325710928
 30
0.0
 10
85.9416920385
 20
116.8743184098
 30
0.0
  0
SPLINE
  5
66C
100
AcDbEntity
  8
0
100
AcDbSpline
 62
7
  6
CONTINUOUS
 70
0
 71
3
 72
14
 73
10
 74
0
 42
0.0000001
 43
0.0000001
 44
0.0000000001
 40
0.0
 40
0.0
 40
0.0
 40
0.0
 40
0.246514508
 40
0.368962723
 40
0.4905585896
 40
0.6108792975
 40
0.7294048639
 40
0.8496621909
 40
1.0
 40
1.0
 40
1.0
 40
1.0
 10
78.1352819763
 20
104.6708107143
 30
0.0
 10
78.5946495634
 20
104.2463973333
 30
0.0
 10
79.2803188475
 20
103.6091159257
 30
0.0
 10
80.181352466
 20
102.7505257675
 30
0.0
 10
80.8421148991
 20
102.104078182
 30
0.0
 10
81.4756940142
 20
101.4439431729
 30
0.0
 10
82.0741450808
 20
100.7578462196
 30
0.0
 10
82.5394412051
 20
99.8536045554
 30
0.0
 10
82.4905926359
 20
99.1416845037
 30
0.0
 10
82.5948892991
 20
98.7748090303
 30
0.0
  0
SPLINE
  5
66D
100
AcDbEntity
  8
0
100
AcDbSpline
 62
7
  6
CONTINUOUS
 70
0
 71
3
 72
14
 73
10
 74
0
 42
0.0000001
 43
0.0000001
 44
0.0000000001
 40
0.0
 40
0.0
 40
0.0
 40
0.0
 40
0.2465143701
 40
0.3689625185
 40
0.4905583185
 40
0.6108789564
 40
0.7294044038
 40
0.8496612834
 40
1.0
 40
1.0
 40
1.0
 40
1.0
 10
92.3886398684
 20
104.6708107144
 30
0.0
 10
91.929272769
 20
104.2463977622
 30
0.0
 10
91.2436056757
 20
103.6091165937
 30
0.0
 10
90.342568999
 20
102.750528496
 30
0.0
 10
89.6818189022
 20
102.1040782634
 30
0.0
 10
89.0481975402
 20
101.4439562989
 30
0.0
 10
88.4499064917
 20
100.7578156297
 30
0.0
 10
87.983962482
 20
99.8537577422
 30
0.0
 10
88.0347920059
 20
99.1412677052
 30
0.0
 10
87.9290325455
 20
98.7748090303
 30
0.0
  0
SPLINE
  5
66E
100
AcDbEntity
  8
0
100
AcDbSpline
 62
7
  6
CONTINUOUS
 70
0
 71
3
 72
13
 73
9
 74
0
 42
0.0000001
 43
0.0000001
 44
0.0000000001
 40
0.0
 40
0.0
 40
0.0
 40
0.0
 40
0.1259813789
 40
0.2520758871
 40
0.5
 40
0.7479241129
 40
0.8740186211
 40
1.0
 40
1.0
 40
1.0
 40
1.0
 10
82.0121235441
 20
96.9251070691
 30
0.0
 10
82.016344037
 20
96.5065741136
 30
0.0
 10
82.1937017811
 20
95.661631006
 30
0.0
 10
83.1422613425
 20
94.2552034076
 30
0.0
 10
85.2619609223
 20
93.3648101795
 30
0.0
 10
87.3816605021
 20
94.2552034076
 30
0.0
 10
88.3302200635
 20
95.661631006
 30
0.0
 10
88.5075778076
 20
96.5065741136
 30
0.0
 10
88.5117983005
 20
96.9251070691
 30
0.0
  0
SPLINE
  5
66F
100
AcDbEntity
  8
0
100
AcDbSpline
 62
7
  6
CONTINUOUS
 70
0
 71
3
 72
9
 73
5
 74
0
 42
0.0000001
 43
0.0000001
 44
0.0000000001
 40
0.0
 40
0.0
 40
0.0
 40
0.0
 40
0.4994610946
 40
1.0
 40
1.0
 40
1.0
 40
1.0
 10
85.9416920385
 20
116.8743184098
 30
0.0
 10
86.0006800173
 20
116.9988970084
 30
0.0
 10
86.0476275375
 20
117.2888558282
 30
0.0
 10
85.9260824107
 20
117.5560878131
 30
0.0
 10
85.8364942756
 20
117.6612327742
 30
0.0
  0
SPLINE
  5
670
100
AcDbEntity
  8
0
100
AcDbSpline
 62
7
  6
CONTINUOUS
 70
0
 71
3
 72
15
 73
11
 74
0
 42
0.0000001
 43
0.0000001
 44
0.0000000001
 40
0.0
 40
0.0
 40
0.0
 40
0.0
 40
0.2486920401
 40
0.4968697482
 40
0.6206309567
 40
0.744084957
 40
0.8057828417
 40
0.867840217
 40
0.9316895004
 40
1.0
 40
1.0
 40
1.0
 40
1.0
 10
71.6300817958
 20
91.5988343513
 30
0.0
 10
72.5173464902
 20
91.9691889445
 30
0.0
 10
74.2919284165
 20
92.7045107648
 30
0.0
 10
76.5172808402
 20
93.6023083911
 30
0.0
 10
78.3082062738
 20
94.2808964307
 30
0.0
 10
79.4370733785
 20
94.672751288
 30
0.0
 10
80.3568363023
 20
94.933498763
 30
0.0
 10
81.0682999043
 20
95.0814055348
 30
0.0
 10
81.8212283843
 20
95.1268123826
 30
0.0
 10
82.3308316339
 20
95.0788034667
 30
0.0
 10
82.5948892991
 20
95.0745235346
 30
0.0
  0
SPLINE
  5
671
100
AcDbEntity
  8
0
100
AcDbSpline
 62
7
  6
CONTINUOUS
 70
0
 71
3
 72
15
 73
11
 74
0
 42
0.0000001
 43
0.0000001
 44
0.0000000001
 40
0.0
 40
0.0
 40
0.0
 40
0.0
 40
0.2454777782
 40
0.490897865
 40
0.6136846919
 40
0.7368345568
 40
0.798902931
 40
0.8620153363
 40
0.9280320811
 40
1.0
 40
1.0
 40
1.0
 40
1.0
 10
72.6377709308
 20
100.3492811763
 30
0.0
 10
73.4440802618
 20
100.1477771545
 30
0.0
 10
75.0576924316
 20
99.7496494827
 30
0.0
 10
77.0803308315
 20
99.2734906608
 30
0.0
 10
78.7077040553
 20
98.9282281172
 30
0.0
 10
79.7339637963
 20
98.7407230302
 30
0.0
 10
80.5682139341
 20
98.6335409202
 30
0.0
 10
81.214940906
 20
98.5934795159
 30
0.0
 10
81.8978280858
 20
98.6318804347
 30
0.0
 10
82.3533985277
 20
98.7423708551
 30
0.0
 10
82.5948892991
 20
98.7748090303
 30
0.0
  0
SPLINE
  5
672
100
AcDbEntity
  8
0
100
AcDbSpline
 62
7
  6
CONTINUOUS
 70
0
 71
3
 72
9
 73
5
 74
0
 42
0.0000001
 43
0.0000001
 44
0.0000000001
 40
0.0
 40
0.0
 40
0.0
 40
0.0
 40
0.5
 40
1.0
 40
1.0
 40
1.0
 40
1.0
 10
85.8364942756
 20
117.6612327742
 30
0.0
 10
85.6998190106
 20
117.8216414642
 30
0.0
 10
85.2619609225
 20
118.0285024303
 30
0.0
 10
84.8241028343
 20
117.8216414644
 30
0.0
 10
84.6874275693
 20
117.6612327744
 30
0.0
  0
SPLINE
  5
673
100
AcDbEntity
  8
0
100
AcDbSpline
 62
7
  6
CONTINUOUS
 70
0
 71
3
 72
9
 73
5
 74
0
 42
0.0000001
 43
0.0000001
 44
0.0000000001
 40
0.0
 40
0.0
 40
0.0
 40
0.0
 40
0.5005389055
 40
1.0
 40
1.0
 40
1.0
 40
1.0
 10
84.6874275693
 20
117.6612327744
 30
0.0
 10
84.5978394371
 20
117.5560878169
 30
0.0
 10
84.4762943121
 20
117.2888558431
 30
0.0
 10
84.5232418219
 20
116.9988970328
 30
0.0
 10
84.5822297936
 20
116.8743184361
 30
0.0
  0
SPLINE
  5
674
100
AcDbEntity
  8
5_ALL_CURVES
100
AcDbSpline
 62
4
  6
CONTINUOUS
 70
0
 71
3
 72
22
 73
18
 74
0
 42
0.0000001
 43
0.0000001
 44
0.0000000001
 40
0.0
 40
0.0
 40
0.0
 40
0.0
 40
0.125
 40
0.1875
 40
0.25
 40
0.3125
 40
0.375
 40
0.4375
 40
0.5
 40
0.5625
 40
0.625
 40
0.6875
 40
0.75
 40
0.8125
 40
0.84375
 40
0.875
 40
1.0
 40
1.0
 40
1.0
 40
1.0
 10
85.9416917626
 20
116.874317827
 30
0.0
 10
85.9535300556
 20
116.907058538
 30
0.0
 10
85.9721671203
 20
116.9559379398
 30
0.0
 10
85.9934980393
 20
117.0220371341
 30
0.0
 10
85.9989744948
 20
117.0741088225
 30
0.0
 10
86.0096611652
 20
117.1253558891
 30
0.0
 10
86.01002871
 20
117.1774041502
 30
0.0
 10
86.0066790056
 20
117.2293999243
 30
0.0
 10
86.0086256552
 20
117.2819682869
 30
0.0
 10
85.993104138
 20
117.3322987825
 30
0.0
 10
85.9828763076
 20
117.383425661
 30
0.0
 10
85.9689418971
 20
117.4336048749
 30
0.0
 10
85.9456101758
 20
117.4806490696
 30
0.0
 10
85.9290303546
 20
117.5208768586
 30
0.0
 10
85.9135932815
 20
117.5521682954
 30
0.0
 10
85.8813531359
 20
117.5951905526
 30
0.0
 10
85.8568521124
 20
117.6320619383
 30
0.0
 10
85.836494249
 20
117.6612328053
 30
0.0
  0
SPLINE
  5
675
100
AcDbEntity
  8
5_ALL_CURVES
100
AcDbSpline
 62
4
  6
CONTINUOUS
 70
0
 71
3
 72
41
 73
37
 74
0
 42
0.0000001
 43
0.0000001
 44
0.0000000001
 40
0.0
 40
0.0
 40
0.0
 40
0.0
 40
0.0625
 40
0.09375
 40
0.125
 40
0.15625
 40
0.1875
 40
0.21875
 40
0.25
 40
0.28125
 40
0.3125
 40
0.34375
 40
0.359375
 40
0.375
 40
0.40625
 40
0.4375
 40
0.453125
 40
0.46875
 40
0.5
 40
0.53125
 40
0.546875
 40
0.5625
 40
0.59375
 40
0.625
 40
0.640625
 40
0.65625
 40
0.6875
 40
0.71875
 40
0.75
 40
0.78125
 40
0.8125
 40
0.84375
 40
0.875
 40
0.90625
 40
0.9375
 40
1.0
 40
1.0
 40
1.0
 40
1.0
 10
84.582230082
 20
116.874317827
 30
0.0
 10
84.6003760285
 20
116.8444587836
 30
0.0
 10
84.6284361198
 20
116.8002885786
 30
0.0
 10
84.6624848889
 20
116.7389215317
 30
0.0
 10
84.7011923649
 20
116.7025860824
 30
0.0
 10
84.7364904319
 20
116.6637903649
 30
0.0
 10
84.7722552357
 20
116.6251458846
 30
0.0
 10
84.8174235773
 20
116.5971379007
 30
0.0
 10
84.8598858738
 20
116.5659479894
 30
0.0
 10
84.9037688131
 20
116.5368492917
 30
0.0
 10
84.953482526
 20
116.5178357831
 30
0.0
 10
84.9938626169
 20
116.5005603652
 30
0.0
 10
85.0257665106
 20
116.4851314221
 30
0.0
 10
85.0601095227
 20
116.4772815761
 30
0.0
 10
85.1034142672
 20
116.4683673254
 30
0.0
 10
85.1467084826
 20
116.4603196069
 30
0.0
 10
85.1810683411
 20
116.4510833095
 30
0.0
 10
85.2165386784
 20
116.4523462766
 30
0.0
 10
85.2606582734
 20
116.4514429844
 30
0.0
 10
85.3047808014
 20
116.4521946047
 30
0.0
 10
85.3402464461
 20
116.4508097117
 30
0.0
 10
85.3746388332
 20
116.4599278366
 30
0.0
 10
85.4179613101
 20
116.4678266772
 30
0.0
 10
85.4612973871
 20
116.4765920079
 30
0.0
 10
85.4956680141
 20
116.4843237486
 30
0.0
 10
85.5276263999
 20
116.4996429212
 30
0.0
 10
85.5680674885
 20
116.5167794455
 30
0.0
 10
85.6178482464
 20
116.5356218458
 30
0.0
 10
85.6618342275
 20
116.564569868
 30
0.0
 10
85.7044061885
 20
116.5956122969
 30
0.0
 10
85.7496758781
 20
116.6234697765
 30
0.0
 10
85.7855686735
 20
116.6619726466
 30
0.0
 10
85.8210367517
 20
116.7007155641
 30
0.0
 10
85.8597506894
 20
116.7366610485
 30
0.0
 10
85.8946243119
 20
116.7991879413
 30
0.0
 10
85.9231855957
 20
116.8439863085
 30
0.0
 10
85.94169177
 20
116.8743178427
 30
0.0
  0
SPLINE
  5
676
100
AcDbEntity
  8
5_ALL_CURVES
100
AcDbSpline
 62
4
  6
CONTINUOUS
 70
0
 71
3
 72
22
 73
18
 74
0
 42
0.0000001
 43
0.0000001
 44
0.0000000001
 40
0.0
 40
0.0
 40
0.0
 40
0.0
 40
0.125
 40
0.1875
 40
0.25
 40
0.3125
 40
0.375
 40
0.4375
 40
0.5
 40
0.5625
 40
0.625
 40
0.6875
 40
0.75
 40
0.8125
 40
0.84375
 40
0.875
 40
1.0
 40
1.0
 40
1.0
 40
1.0
 10
84.68742759
 20
117.6612327987
 30
0.0
 10
84.6673880336
 20
117.6326251274
 30
0.0
 10
84.6365399305
 20
117.5901615964
 30
0.0
 10
84.5985642002
 20
117.5317516515
 30
0.0
 10
84.5795892991
 20
117.4828501402
 30
0.0
 10
84.5557984372
 20
117.4360731684
 30
0.0
 10
84.5417645218
 20
117.3858920912
 30
0.0
 10
84.5313349876
 20
117.334814234
 30
0.0
 10
84.5156390853
 20
117.2845332706
 30
0.0
 10
84.5174042741
 20
117.2319615121
 30
0.0
 10
84.5138468555
 20
117.1799697987
 30
0.0
 10
84.5141187756
 20
117.1279486999
 30
0.0
 10
84.5242917208
 20
117.0765605448
 30
0.0
 10
84.529734263
 20
117.0334775036
 30
0.0
 10
84.5364215734
 20
116.9993175873
 30
0.0
 10
84.5562564081
 20
116.9495436839
 30
0.0
 10
84.5702323462
 20
116.9076836678
 30
0.0
 10
84.5822300857
 20
116.8743178192
 30
0.0
  0
SPLINE
  5
677
100
AcDbEntity
  8
5_ALL_CURVES
100
AcDbSpline
 62
4
  6
CONTINUOUS
 70
0
 71
3
 72
12
 73
8
 74
0
 42
0.0000001
 43
0.0000001
 44
0.0000000001
 40
0.0
 40
0.0
 40
0.0
 40
0.0
 40
0.5
 40
0.625
 40
0.75
 40
0.875
 40
1.0
 40
1.0
 40
1.0
 40
1.0
 10
87.9290325455
 20
98.7748090303
 30
0.0
 10
87.8625921436
 20
98.8664072352
 30
0.0
 10
87.7777406751
 20
98.9796426523
 30
0.0
 10
87.6636581897
 20
99.105801196
 30
0.0
 10
87.6058179344
 20
99.1672607516
 30
0.0
 10
87.5449172265
 20
99.2290959012
 30
0.0
 10
87.4979556228
 20
99.2736250176
 30
0.0
 10
87.4752699624
 20
99.2954763654
 30
0.0
  0
SPLINE
  5
678
100
AcDbEntity
  8
5_ALL_CURVES
100
AcDbSpline
 62
4
  6
CONTINUOUS
 70
0
 71
3
 72
12
 73
8
 74
0
 42
0.0000001
 43
0.0000001
 44
0.0000000001
 40
0.0
 40
0.0
 40
0.0
 40
0.0
 40
0.5
 40
0.625
 40
0.75
 40
0.875
 40
1.0
 40
1.0
 40
1.0
 40
1.0
 10
87.4752699621
 20
99.2954763656
 30
0.0
 10
87.3908655417
 20
99.3709815694
 30
0.0
 10
87.2838687751
 20
99.4637491183
 30
0.0
 10
87.1455553162
 20
99.5629812906
 30
0.0
 10
87.0759646386
 20
99.6108442735
 30
0.0
 10
87.0032928189
 20
99.6584347887
 30
0.0
 10
86.9478958331
 20
99.6920680999
 30
0.0
 10
86.9210659784
 20
99.7086464678
 30
0.0
  0
SPLINE
  5
679
100
AcDbEntity
  8
5_ALL_CURVES
100
AcDbSpline
 62
4
  6
CONTINUOUS
 70
0
 71
3
 72
13
 73
9
 74
0
 42
0.0000001
 43
0.0000001
 44
0.0000000001
 40
0.0
 40
0.0
 40
0.0
 40
0.0
 40
0.5
 40
0.625
 40
0.75
 40
0.8125
 40
0.875
 40
1.0
 40
1.0
 40
1.0
 40
1.0
 10
86.9210659675
 20
99.7086464743
 30
0.0
 10
86.8225246445
 20
99.7646321455
 30
0.0
 10
86.6978978143
 20
99.8327520252
 30
0.0
 10
86.5422307491
 20
99.9004996766
 30
0.0
 10
86.4759831641
 20
99.9273427809
 30
0.0
 10
86.4246319701
 20
99.9480824498
 30
0.0
 10
86.3662744914
 20
99.9692303532
 30
0.0
 10
86.3208920508
 20
99.9851321047
 30
0.0
 10
86.2909958307
 20
99.9957242004
 30
0.0
  0
SPLINE
  5
67A
100
AcDbEntity
  8
5_ALL_CURVES
100
AcDbSpline
 62
4
  6
CONTINUOUS
 70
0
 71
3
 72
14
 73
10
 74
0
 42
0.0000001
 43
0.0000001
 44
0.0000000001
 40
0.0
 40
0.0
 40
0.0
 40
0.0
 40
0.25
 40
0.5
 40
0.625
 40
0.6875
 40
0.75
 40
0.875
 40
1.0
 40
1.0
 40
1.0
 40
1.0
 10
86.2909958267
 20
99.9957242018
 30
0.0
 10
86.2368885067
 20
100.0126768696
 30
0.0
 10
86.1286030896
 20
100.0459650692
 30
0.0
 10
85.9907955099
 20
100.0812037007
 30
0.0
 10
85.8940296143
 20
100.1001044683
 30
0.0
 10
85.8373217844
 20
100.111170474
 30
0.0
 10
85.7744376802
 20
100.1211348223
 30
0.0
 10
85.6991349685
 20
100.1331354863
 30
0.0
 10
85.6423996991
 20
100.1396501758
 30
0.0
 10
85.6135937019
 20
100.1432932508
 30
0.0
  0
SPLINE
  5
67B
100
AcDbEntity
  8
5_ALL_CURVES
100
AcDbSpline
 62
4
  6
CONTINUOUS
 70
0
 71
3
 72
14
 73
10
 74
0
 42
0.0000001
 43
0.0000001
 44
0.0000000001
 40
0.0
 40
0.0
 40
0.0
 40
0.0
 40
0.25
 40
0.5
 40
0.625
 40
0.6875
 40
0.75
 40
0.875
 40
1.0
 40
1.0
 40
1.0
 40
1.0
 10
85.6135936856
 20
100.1432932525
 30
0.0
 10
85.5571078141
 20
100.1484254565
 30
0.0
 10
85.4441985305
 20
100.158071839
 30
0.0
 10
85.3020226999
 20
100.1633851775
 30
0.0
 10
85.2034356955
 20
100.1614061596
 30
0.0
 10
85.1456598954
 20
100.1602358853
 30
0.0
 10
85.0820940528
 20
100.1566849489
 30
0.0
 10
85.0058815886
 20
100.1524914091
 30
0.0
 10
84.9487287663
 20
100.1468339365
 30
0.0
 10
84.9196752115
 20
100.1442930304
 30
0.0
  0
SPLINE
  5
67C
100
AcDbEntity
  8
5_ALL_CURVES
100
AcDbSpline
 62
4
  6
CONTINUOUS
 70
0
 71
3
 72
13
 73
9
 74
0
 42
0.0000001
 43
0.0000001
 44
0.0000000001
 40
0.0
 40
0.0
 40
0.0
 40
0.0
 40
0.25
 40
0.5
 40
0.625
 40
0.75
 40
0.875
 40
1.0
 40
1.0
 40
1.0
 40
1.0
 10
84.919675233
 20
100.1442930326
 30
0.0
 10
84.8633832071
 20
100.137362307
 30
0.0
 10
84.7511705993
 20
100.123029715
 30
0.0
 10
84.6104330918
 20
100.0977053503
 30
0.0
 10
84.5021527202
 20
100.0725638214
 30
0.0
 10
84.4130510894
 20
100.0496131576
 30
0.0
 10
84.3235514122
 20
100.0245736337
 30
0.0
 10
84.2688803426
 20
100.0070347926
 30
0.0
 10
84.2409203851
 20
99.9983711001
 30
0.0
  0
SPLINE
  5
67D
100
AcDbEntity
  8
5_ALL_CURVES
100
AcDbSpline
 62
4
  6
CONTINUOUS
 70
0
 71
3
 72
13
 73
9
 74
0
 42
0.0000001
 43
0.0000001
 44
0.0000000001
 40
0.0
 40
0.0
 40
0.0
 40
0.0
 40
0.25
 40
0.5
 40
0.625
 40
0.75
 40
0.875
 40
1.0
 40
1.0
 40
1.0
 40
1.0
 10
84.2409203869
 20
99.9983711007
 30
0.0
 10
84.187391128
 20
99.9796857901
 30
0.0
 10
84.0807954217
 20
99.9419330217
 30
0.0
 10
83.9486727691
 20
99.8874045326
 30
0.0
 10
83.8482204463
 20
99.8399193096
 30
0.0
 10
83.7660608444
 20
99.7986447715
 30
0.0
 10
83.683890009
 20
99.7552049559
 30
0.0
 10
83.633976305
 20
99.7263609864
 30
0.0
 10
83.6084110963
 20
99.7119245132
 30
0.0
  0
SPLINE
  5
67E
100
AcDbEntity
  8
5_ALL_CURVES
100
AcDbSpline
 62
4
  6
CONTINUOUS
 70
0
 71
3
 72
13
 73
9
 74
0
 42
0.0000001
 43
0.0000001
 44
0.0000000001
 40
0.0
 40
0.0
 40
0.0
 40
0.0
 40
0.25
 40
0.5
 40
0.625
 40
0.75
 40
0.875
 40
1.0
 40
1.0
 40
1.0
 40
1.0
 10
83.6084111002
 20
99.7119245155
 30
0.0
 10
83.5600920091
 20
99.6823313243
 30
0.0
 10
83.4639871167
 20
99.6228690802
 30
0.0
 10
83.3465203887
 20
99.5416112453
 30
0.0
 10
83.2584919709
 20
99.4739369062
 30
0.0
 10
83.1870277949
 20
99.4162184455
 30
0.0
 10
83.1159619118
 20
99.3563330575
 30
0.0
 10
83.0731637673
 20
99.3174129701
 30
0.0
 10
83.0511923062
 20
99.2978274883
 30
0.0
  0
SPLINE
  5
67F
100
AcDbEntity
  8
5_ALL_CURVES
100
AcDbSpline
 62
4
  6
CONTINUOUS
 70
0
 71
3
 72
13
 73
9
 74
0
 42
0.0000001
 43
0.0000001
 44
0.0000000001
 40
0.0
 40
0.0
 40
0.0
 40
0.0
 40
0.25
 40
0.5
 40
0.625
 40
0.75
 40
0.875
 40
1.0
 40
1.0
 40
1.0
 40
1.0
 10
83.0511923107
 20
99.2978274925
 30
0.0
 10
83.0102964315
 20
99.2586741022
 30
0.0
 10
82.9290842505
 20
99.1802101773
 30
0.0
 10
82.8316539665
 20
99.0759261763
 30
0.0
 10
82.7600840447
 20
98.9911453933
 30
0.0
 10
82.7025862709
 20
98.9196197539
 30
0.0
 10
82.6458962003
 20
98.8459980766
 30
0.0
 10
82.6122360337
 20
98.7986861441
 30
0.0
 10
82.5948892986
 20
98.7748090297
 30
0.0
  0
SPLINE
  5
680
100
AcDbEntity
  8
5_ALL_CURVES
100
AcDbSpline
 62
4
  6
CONTINUOUS
 70
0
 71
3
 72
29
 73
25
 74
0
 42
0.0000001
 43
0.0000001
 44
0.0000000001
 40
0.0
 40
0.0
 40
0.0
 40
0.0
 40
0.0625
 40
0.125
 40
0.15625
 40
0.1875
 40
0.25
 40
0.3125
 40
0.34375
 40
0.375
 40
0.4375
 40
0.46875
 40
0.5
 40
0.53125
 40
0.5625
 40
0.625
 40
0.65625
 40
0.6875
 40
0.75
 40
0.8125
 40
0.84375
 40
0.875
 40
0.9375
 40
1.0
 40
1.0
 40
1.0
 40
1.0
 10
87.9290325455
 20
95.0745235346
 30
0.0
 10
87.9521547561
 20
95.1117444698
 30
0.0
 10
87.9985892122
 20
95.1859985188
 30
0.0
 10
88.0556821077
 20
95.2797551873
 30
0.0
 10
88.1033517907
 20
95.3527883967
 30
0.0
 10
88.1438001469
 20
95.4329588221
 30
0.0
 10
88.1915589307
 20
95.5357557192
 30
0.0
 10
88.2413952174
 20
95.6371782442
 30
0.0
 10
88.2785195689
 20
95.7195476649
 30
0.0
 10
88.3062146695
 20
95.8057314844
 30
0.0
 10
88.3369920728
 20
95.8907190218
 30
0.0
 10
88.3655945059
 20
95.9764346063
 30
0.0
 10
88.3904889388
 20
96.0397334356
 30
0.0
 10
88.4027004243
 20
96.1066196773
 30
0.0
 10
88.4235824495
 20
96.1945193533
 30
0.0
 10
88.4422301017
 20
96.282936082
 30
0.0
 10
88.4641308396
 20
96.3707631371
 30
0.0
 10
88.4759983987
 20
96.4602594834
 30
0.0
 10
88.487092884
 20
96.5727721872
 30
0.0
 10
88.5007145484
 20
96.6847708142
 30
0.0
 10
88.5085386211
 20
96.7750896836
 30
0.0
 10
88.506177733
 20
96.8678632652
 30
0.0
 10
88.5067444547
 20
96.9829823975
 30
0.0
 10
88.5061257309
 20
97.0753360941
 30
0.0
 10
88.5059503817
 20
97.1214806436
 30
0.0
  0
SPLINE
  5
681
100
AcDbEntity
  8
5_ALL_CURVES
100
AcDbSpline
 62
4
  6
CONTINUOUS
 70
0
 71
3
 72
14
 73
10
 74
0
 42
0.0000001
 43
0.0000001
 44
0.0000000001
 40
0.0
 40
0.0
 40
0.0
 40
0.0
 40
0.125
 40
0.25
 40
0.375
 40
0.5
 40
0.625
 40
0.75
 40
1.0
 40
1.0
 40
1.0
 40
1.0
 10
88.5059503846
 20
97.1214805949
 30
0.0
 10
88.5047381414
 20
97.1383894209
 30
0.0
 10
88.5026451164
 20
97.1706566808
 30
0.0
 10
88.4975168101
 20
97.2283599231
 30
0.0
 10
88.4915380826
 20
97.2868765236
 30
0.0
 10
88.4841501771
 20
97.3492157807
 30
0.0
 10
88.4774612537
 20
97.3948363448
 30
0.0
 10
88.465546952
 20
97.4712091863
 30
0.0
 10
88.453850278
 20
97.5327337014
 30
0.0
 10
88.4459565358
 20
97.573855063
 30
0.0
  0
SPLINE
  5
682
100
AcDbEntity
  8
5_ALL_CURVES
100
AcDbSpline
 62
4
  6
CONTINUOUS
 70
0
 71
3
 72
14
 73
10
 74
0
 42
0.0000001
 43
0.0000001
 44
0.0000000001
 40
0.0
 40
0.0
 40
0.0
 40
0.0
 40
0.125
 40
0.25
 40
0.375
 40
0.5
 40
0.625
 40
0.75
 40
1.0
 40
1.0
 40
1.0
 40
1.0
 10
88.445956536
 20
97.5738550622
 30
0.0
 10
88.4404464074
 20
97.5986827644
 30
0.0
 10
88.4302120516
 20
97.6469068742
 30
0.0
 10
88.4101451099
 20
97.7278308068
 30
0.0
 10
88.3882589812
 20
97.8091893998
 30
0.0
 10
88.3634763594
 20
97.8938995432
 30
0.0
 10
88.3406447141
 20
97.961632896
 30
0.0
 10
88.3034449795
 20
98.066942795
 30
0.0
 10
88.2710439313
 20
98.1466326741
 30
0.0
 10
88.2493978347
 20
98.1995311245
 30
0.0
  0
SPLINE
  5
683
100
AcDbEntity
  8
5_ALL_CURVES
100
AcDbSpline
 62
4
  6
CONTINUOUS
 70
0
 71
3
 72
14
 73
10
 74
0
 42
0.0000001
 43
0.0000001
 44
0.0000000001
 40
0.0
 40
0.0
 40
0.0
 40
0.0
 40
0.125
 40
0.25
 40
0.375
 40
0.5
 40
0.625
 40
0.75
 40
1.0
 40
1.0
 40
1.0
 40
1.0
 10
88.2493978332
 20
98.199531128
 30
0.0
 10
88.2389799443
 20
98.2227440059
 30
0.0
 10
88.2192032421
 20
98.2679257513
 30
0.0
 10
88.183183735
 20
98.3431624317
 30
0.0
 10
88.1452912111
 20
98.4184643964
 30
0.0
 10
88.1038958088
 20
98.4964507432
 30
0.0
 10
88.0677997428
 20
98.5582639385
 30
0.0
 10
88.0102421693
 20
98.6536979439
 30
0.0
 10
87.9615873435
 20
98.7264011298
 30
0.0
 10
87.9290325486
 20
98.7748090259
 30
0.0
  0
SPLINE
  5
684
100
AcDbEntity
  8
5_ALL_CURVES
100
AcDbSpline
 62
4
  6
CONTINUOUS
 70
0
 71
3
 72
71
 73
67
 74
0
 42
0.0000001
 43
0.0000001
 44
0.0000000001
 40
0.0
 40
0.0
 40
0.0
 40
0.0
 40
0.0625
 40
0.078125
 40
0.09375
 40
0.1015625
 40
0.109375
 40
0.1171875
 40
0.125
 40
0.140625
 40
0.15625
 40
0.171875
 40
0.1875
 40
0.203125
 40
0.2109375
 40
0.21875
 40
0.234375
 40
0.25
 40
0.28125
 40
0.3125
 40
0.3203125
 40
0.328125
 40
0.33203125
 40
0.3359375
 40
0.34375
 40
0.359375
 40
0.375
 40
0.390625
 40
0.40625
 40
0.421875
 40
0.4375
 40
0.4453125
 40
0.453125
 40
0.46875
 40
0.5
 40
0.53125
 40
0.5625
 40
0.578125
 40
0.59375
 40
0.609375
 40
0.625
 40
0.640625
 40
0.65625
 40
0.6640625
 40
0.66796875
 40
0.671875
 40
0.6796875
 40
0.6875
 40
0.71875
 40
0.75
 40
0.765625
 40
0.78125
 40
0.7890625
 40
0.796875
 40
0.8125
 40
0.828125
 40
0.84375
 40
0.859375
 40
0.875
 40
0.8828125
 40
0.890625
 40
0.8984375
 40
0.90625
 40
0.921875
 40
0.9375
 40
1.0
 40
1.0
 40
1.0
 40
1.0
 10
82.5948892991
 20
95.0745235346
 30
0.0
 10
82.6797720399
 20
94.9770816951
 30
0.0
 10
82.7857857426
 20
94.8551833732
 30
0.0
 10
82.9132713559
 20
94.7091934547
 30
0.0
 10
82.9660314679
 20
94.6479802315
 30
0.0
 10
83.0090739851
 20
94.5999026634
 30
0.0
 10
83.0390679265
 20
94.5613959102
 30
0.0
 10
83.0777964398
 20
94.5322369603
 30
0.0
 10
83.1296589146
 20
94.4935986595
 30
0.0
 10
83.1944090685
 20
94.4452167893
 30
0.0
 10
83.2721466771
 20
94.3872012688
 30
0.0
 10
83.3498592936
 20
94.3291492437
 30
0.0
 10
83.4276344544
 20
94.2712005135
 30
0.0
 10
83.4922594343
 20
94.2225960092
 30
0.0
 10
83.544378516
 20
94.1844141082
 30
0.0
 10
83.5949713296
 20
94.1436765141
 30
0.0
 10
83.669135485
 20
94.1110450919
 30
0.0
 10
83.7866141045
 20
94.056856291
 30
0.0
 10
83.9338312151
 20
93.9897093095
 30
0.0
 10
84.066330837
 20
93.9293823964
 30
0.0
 10
84.1544724628
 20
93.8886943274
 30
0.0
 10
84.1915160598
 20
93.8724952408
 30
0.0
 10
84.2204070761
 20
93.8577727231
 30
0.0
 10
84.2520192018
 20
93.8494997785
 30
0.0
 10
84.3086049536
 20
93.8380195092
 30
0.0
 10
84.3887804691
 20
93.8200500916
 30
0.0
 10
84.4852748387
 20
93.7991669855
 30
0.0
 10
84.581692241
 20
93.7780735521
 30
0.0
 10
84.6781337613
 20
93.7571412326
 30
0.0
 10
84.7745557769
 20
93.735774785
 30
0.0
 10
84.8549523739
 20
93.7192822439
 30
0.0
 10
84.9191716023
 20
93.7031544787
 30
0.0
 10
84.9840571903
 20
93.7070222037
 30
0.0
 10
85.0972938128
 20
93.7044994658
 30
0.0
 10
85.2592457664
 20
93.70555181
 30
0.0
 10
85.4534142171
 20
93.7057017548
 30
0.0
 10
85.6155537714
 20
93.7033279289
 30
0.0
 10
85.7416527214
 20
93.735249227
 30
0.0
 10
85.8367098677
 20
93.754662378
 30
0.0
 10
85.9316416253
 20
93.7752766401
 30
0.0
 10
86.0265920039
 20
93.7956142805
 30
0.0
 10
86.1215932872
 20
93.8158572964
 30
0.0
 10
86.2005758234
 20
93.8332724094
 30
0.0
 10
86.2562302477
 20
93.8443579271
 30
0.0
 10
86.2874597949
 20
93.8524231198
 30
0.0
 10
86.3165314631
 20
93.8670069472
 30
0.0
 10
86.353608391
 20
93.8830090939
 30
0.0
 10
86.4419881662
 20
93.9232436621
 30
0.0
 10
86.5747824951
 20
93.9828859237
 30
0.0
 10
86.7223413193
 20
94.0492598133
 30
0.0
 10
86.8401257671
 20
94.1028645175
 30
0.0
 10
86.9143927911
 20
94.1350511213
 30
0.0
 10
86.9661140886
 20
94.1763711146
 30
0.0
 10
87.0191789304
 20
94.2149715416
 30
0.0
 10
87.0850488031
 20
94.264155435
 30
0.0
 10
87.1642909954
 20
94.3227753306
 30
0.0
 10
87.2434776947
 20
94.3815049564
 30
0.0
 10
87.3226880211
 20
94.4401964379
 30
0.0
 10
87.3886641136
 20
94.4891417116
 30
0.0
 10
87.441511205
 20
94.5282313088
 30
0.0
 10
87.4809673788
 20
94.5577269488
 30
0.0
 10
87.5111275175
 20
94.5964772853
 30
0.0
 10
87.5545877249
 20
94.6449121491
 30
0.0
 10
87.6078029029
 20
94.7065608738
 30
0.0
 10
87.7364360425
 20
94.8536051772
 30
0.0
 10
87.8433915983
 20
94.9763797623
 30
0.0
 10
87.9290324356
 20
95.0745233774
 30
0.0
  0
SPLINE
  5
685
100
AcDbEntity
  8
5_ALL_CURVES
100
AcDbSpline
 62
4
  6
CONTINUOUS
 70
0
 71
3
 72
14
 73
10
 74
0
 42
0.0000001
 43
0.0000001
 44
0.0000000001
 40
0.0
 40
0.0
 40
0.0
 40
0.0
 40
0.125
 40
0.25
 40
0.375
 40
0.5
 40
0.625
 40
0.75
 40
1.0
 40
1.0
 40
1.0
 40
1.0
 10
82.5948892991
 20
98.7748090303
 30
0.0
 10
82.5806342149
 20
98.7537168079
 30
0.0
 10
82.5526232216
 20
98.7130866466
 30
0.0
 10
82.507611681
 20
98.6428157028
 30
0.0
 10
82.4635421129
 20
98.5709413889
 30
0.0
 10
82.4273069678
 20
98.5094376187
 30
0.0
 10
82.3855473875
 20
98.4315610938
 30
0.0
 10
82.3344024613
 20
98.3316238222
 30
0.0
 10
82.2997656962
 20
98.2555607093
 30
0.0
 10
82.2770171041
 20
98.2053133726
 30
0.0
  0
SPLINE
  5
686
100
AcDbEntity
  8
5_ALL_CURVES
100
AcDbSpline
 62
4
  6
CONTINUOUS
 70
0
 71
3
 72
14
 73
10
 74
0
 42
0.0000001
 43
0.0000001
 44
0.0000000001
 40
0.0
 40
0.0
 40
0.0
 40
0.0
 40
0.125
 40
0.25
 40
0.375
 40
0.5
 40
0.625
 40
0.75
 40
1.0
 40
1.0
 40
1.0
 40
1.0
 10
82.2770171126
 20
98.2053133923
 30
0.0
 10
82.2672903963
 20
98.1818047698
 30
0.0
 10
82.2480135146
 20
98.1364094503
 30
0.0
 10
82.218038886
 20
98.0585849171
 30
0.0
 10
82.189307456
 20
97.9793678671
 30
0.0
 10
82.1610291002
 20
97.89575085
 30
0.0
 10
82.1408927465
 20
97.8271759979
 30
0.0
 10
82.1109794269
 20
97.719578364
 30
0.0
 10
82.0918402602
 20
97.6357777988
 30
0.0
 10
82.0792500887
 20
97.5800774165
 30
0.0
  0
SPLINE
  5
687
100
AcDbEntity
  8
5_ALL_CURVES
100
AcDbSpline
 62
4
  6
CONTINUOUS
 70
0
 71
3
 72
11
 73
7
 74
0
 42
0.0000001
 43
0.0000001
 44
0.0000000001
 40
0.0
 40
0.0
 40
0.0
 40
0.0
 40
0.125
 40
0.25
 40
0.5
 40
1.0
 40
1.0
 40
1.0
 40
1.0
 10
82.0792500915
 20
97.5800774296
 30
0.0
 10
82.0759800152
 20
97.5634414866
 30
0.0
 10
82.0695188673
 20
97.5317301206
 30
0.0
 10
82.0559645347
 20
97.4558232295
 30
0.0
 10
82.0337674107
 20
97.317826556
 30
0.0
 10
82.0237391324
 20
97.2000553641
 30
0.0
 10
82.0179714597
 20
97.1214805899
 30
0.0
  0
SPLINE
  5
688
100
AcDbEntity
  8
5_ALL_CURVES
100
AcDbSpline
 62
4
  6
CONTINUOUS
 70
0
 71
3
 72
29
 73
25
 74
0
 42
0.0000001
 43
0.0000001
 44
0.0000000001
 40
0.0
 40
0.0
 40
0.0
 40
0.0
 40
0.0625
 40
0.125
 40
0.15625
 40
0.1875
 40
0.25
 40
0.3125
 40
0.34375
 40
0.375
 40
0.4375
 40
0.46875
 40
0.5
 40
0.53125
 40
0.5625
 40
0.625
 40
0.65625
 40
0.6875
 40
0.75
 40
0.8125
 40
0.84375
 40
0.875
 40
0.9375
 40
1.0
 40
1.0
 40
1.0
 40
1.0
 10
82.01797146
 20
97.1214805949
 30
0.0
 10
82.0176761098
 20
97.0777097495
 30
0.0
 10
82.0168250109
 20
96.9902298936
 30
0.0
 10
82.0170631298
 20
96.8805708993
 30
0.0
 10
82.0145194408
 20
96.7934929703
 30
0.0
 10
82.0218708943
 20
96.7040653152
 30
0.0
 10
82.0348024874
 20
96.5915272255
 30
0.0
 10
82.0452420863
 20
96.4790854158
 30
0.0
 10
82.0565807304
 20
96.3895037125
 30
0.0
 10
82.077963617
 20
96.3015543618
 30
0.0
 10
82.0960896042
 20
96.2130282133
 30
0.0
 10
82.1164531076
 20
96.1250081938
 30
0.0
 10
82.1282700861
 20
96.0580515901
 30
0.0
 10
82.1527909025
 20
95.994608278
 30
0.0
 10
82.1808877127
 20
95.9087265831
 30
0.0
 10
82.2111625172
 20
95.823561978
 30
0.0
 10
82.2383515475
 20
95.7372140625
 30
0.0
 10
82.2749796821
 20
95.6546432686
 30
0.0
 10
82.3242938308
 20
95.5528206347
 30
0.0
 10
82.3711815254
 20
95.4501265425
 30
0.0
 10
82.4116919866
 20
95.3689500817
 30
0.0
 10
82.4621815304
 20
95.2909588075
 30
0.0
 10
82.5218467375
 20
95.1923695681
 30
0.0
 10
82.570629333
 20
95.1138334593
 30
0.0
 10
82.594889327
 20
95.0745234946
 30
0.0
  0
SPLINE
  5
689
100
AcDbEntity
  8
5_ALL_CURVES
100
AcDbSpline
 62
4
  6
CONTINUOUS
 70
0
 71
3
 72
37
 73
33
 74
0
 42
0.0000001
 43
0.0000001
 44
0.0000000001
 40
0.0
 40
0.0
 40
0.0
 40
0.0
 40
0.0625
 40
0.09375
 40
0.125
 40
0.15625
 40
0.1875
 40
0.21875
 40
0.25
 40
0.28125
 40
0.3125
 40
0.34375
 40
0.375
 40
0.40625
 40
0.4375
 40
0.46875
 40
0.5
 40
0.53125
 40
0.5625
 40
0.59375
 40
0.625
 40
0.65625
 40
0.6875
 40
0.71875
 40
0.75
 40
0.78125
 40
0.8125
 40
0.84375
 40
0.875
 40
0.90625
 40
0.9375
 40
1.0
 40
1.0
 40
1.0
 40
1.0
 10
85.8364942546
 20
117.6612327987
 30
0.0
 10
85.8170068447
 20
117.6796366439
 30
0.0
 10
85.7880464045
 20
117.7075425825
 30
0.0
 10
85.7483497857
 20
117.7435498178
 30
0.0
 10
85.7212840678
 20
117.7735569512
 30
0.0
 10
85.6839327144
 20
117.7921575981
 30
0.0
 10
85.649436081
 20
117.814069573
 30
0.0
 10
85.6138062031
 20
117.8341427223
 30
0.0
 10
85.5798545833
 20
117.858259846
 30
0.0
 10
85.5403231756
 20
117.8680398977
 30
0.0
 10
85.5023660283
 20
117.8819229576
 30
0.0
 10
85.4636916272
 20
117.8937310567
 30
0.0
 10
85.4263119808
 20
117.9097359911
 30
0.0
 10
85.3844705698
 20
117.9110285448
 30
0.0
 10
85.3438047136
 20
117.9165354251
 30
0.0
 10
85.3028984026
 20
117.9198973797
 30
0.0
 10
85.2617783564
 20
117.9276247103
 30
0.0
 10
85.2217537057
 20
117.9200354627
 30
0.0
 10
85.1813951115
 20
117.9168201364
 30
0.0
 10
85.1412768959
 20
117.9114257029
 30
0.0
 10
85.1005311096
 20
117.9103737768
 30
0.0
 10
85.0620552275
 20
117.8941309284
 30
0.0
 10
85.0228362408
 20
117.8821968146
 30
0.0
 10
84.9843197682
 20
117.8682186846
 30
0.0
 10
84.9437363437
 20
117.8581078847
 30
0.0
 10
84.9107182131
 20
117.8345717806
 30
0.0
 10
84.8755218848
 20
117.8148595817
 30
0.0
 10
84.8414730531
 20
117.7932770663
 30
0.0
 10
84.8050124329
 20
117.7753519117
 30
0.0
 10
84.7770514703
 20
117.7446676306
 30
0.0
 10
84.7367878508
 20
117.7082321422
 30
0.0
 10
84.7072611618
 20
117.6798982265
 30
0.0
 10
84.6874275857
 20
117.6612327937
 30
0.0
  0
SPLINE
  5
68A
100
AcDbEntity
  8
0
100
AcDbSpline
 62
7
  6
CONTINUOUS
 70
0
 71
3
 72
10
 73
6
 74
0
 42
0.0000001
 43
0.0000001
 44
0.0000000001
 40
0.0
 40
0.0
 40
0.0
 40
0.0
 40
0.1053214426
 40
0.307264908
 40
1.0
 40
1.0
 40
1.0
 40
1.0
 10
82.3819609223
 20
155.981780393
 30
0.0
 10
82.3819609223
 20
155.9279213906
 30
0.0
 10
82.5235546245
 20
155.805198272
 30
0.0
 10
82.9927648289
 20
155.6564534368
 30
0.0
 10
83.4593016442
 20
155.5853748295
 30
0.0
 10
83.8117501728
 20
155.5497037759
 30
0.0
  0
SPLINE
  5
68B
100
AcDbEntity
  8
0
100
AcDbSpline
 62
7
  6
CONTINUOUS
 70
0
 71
3
 72
9
 73
5
 74
0
 42
0.0000001
 43
0.0000001
 44
0.0000000001
 40
0.0
 40
0.0
 40
0.0
 40
0.0
 40
0.2414701442
 40
1.0
 40
1.0
 40
1.0
 40
1.0
 10
83.8117501728
 20
155.5497037759
 30
0.0
 10
84.0442126234
 20
155.5261764241
 30
0.0
 10
85.0096551633
 20
155.4599557242
 30
0.0
 10
85.9819376723
 20
155.4757973356
 30
0.0
 10
86.7121716718
 20
155.5497037759
 30
0.0
  0
SPLINE
  5
68C
100
AcDbEntity
  8
0
100
AcDbSpline
 62
7
  6
CONTINUOUS
 70
0
 71
3
 72
10
 73
6
 74
0
 42
0.0000001
 43
0.0000001
 44
0.0000000001
 40
0.0
 40
0.0
 40
0.0
 40
0.0
 40
0.692735092
 40
0.8946785574
 40
1.0
 40
1.0
 40
1.0
 40
1.0
 10
86.7121716718
 20
155.5497037759
 30
0.0
 10
87.0646202005
 20
155.5853748295
 30
0.0
 10
87.5311570157
 20
155.6564534368
 30
0.0
 10
88.0003672201
 20
155.805198272
 30
0.0
 10
88.1419609223
 20
155.9279213906
 30
0.0
 10
88.1419609223
 20
155.981780393
 30
0.0
  0
SPLINE
  5
68D
100
AcDbEntity
  8
7_ALL_ROUNDS
100
AcDbSpline
 62
7
  6
CONTINUOUS
 70
0
 71
3
 72
9
 73
5
 74
0
 42
0.0000001
 43
0.0000001
 44
0.0000000001
 40
0.0
 40
0.0
 40
0.0
 40
0.0
 40
0.4608565103
 40
1.0
 40
1.0
 40
1.0
 40
1.0
 10
88.8397843484
 20
163.5075487808
 30
0.0
 10
88.8419604792
 20
163.5075487808
 30
0.0
 10
88.8466941175
 20
163.5068045875
 30
0.0
 10
88.8510619933
 20
163.5049011633
 30
0.0
 10
88.8532970545
 20
163.5036823197
 30
0.0
  0
LINE
  5
68E
100
AcDbEntity
  8
7_ALL_ROUNDS
100
AcDbLine
 62
7
  6
CONTINUOUS
 10
88.8532970545
 20
163.5036823197
 11
88.8583106001
 21
163.5005190475
  0
SPLINE
  5
68F
100
AcDbEntity
  8
7_ALL_ROUNDS
100
AcDbSpline
 62
7
  6
CONTINUOUS
 70
0
 71
3
 72
9
 73
5
 74
0
 42
0.0000001
 43
0.0000001
 44
0.0000000001
 40
0.0
 40
0.0
 40
0.0
 40
0.0
 40
0.4608565103
 40
1.0
 40
1.0
 40
1.0
 40
1.0
 10
88.8397843484
 20
163.4629250405
 30
0.0
 10
88.8419604792
 20
163.4629250405
 30
0.0
 10
88.8466941175
 20
163.4621808472
 30
0.0
 10
88.8510619933
 20
163.460277423
 30
0.0
 10
88.8532970545
 20
163.4590585795
 30
0.0
  0
LINE
  5
690
100
AcDbEntity
  8
7_ALL_ROUNDS
100
AcDbLine
 62
7
  6
CONTINUOUS
 10
88.8532970545
 20
163.4590585795
 11
88.8583106001
 21
163.4558953072
  0
SPLINE
  5
691
100
AcDbEntity
  8
7_ALL_ROUNDS
100
AcDbSpline
 62
7
  6
CONTINUOUS
 70
0
 71
3
 72
9
 73
5
 74
0
 42
0.0000001
 43
0.0000001
 44
0.0000000001
 40
0.0
 40
0.0
 40
0.0
 40
0.0
 40
0.4608565103
 40
1.0
 40
1.0
 40
1.0
 40
1.0
 10
88.8397843484
 20
163.4183013003
 30
0.0
 10
88.8419604792
 20
163.4183013003
 30
0.0
 10
88.8466941175
 20
163.417557107
 30
0.0
 10
88.8510619933
 20
163.4156536827
 30
0.0
 10
88.8532970545
 20
163.4144348392
 30
0.0
  0
LINE
  5
692
100
AcDbEntity
  8
7_ALL_ROUNDS
100
AcDbLine
 62
7
  6
CONTINUOUS
 10
88.8532970545
 20
163.4144348392
 11
88.8583106001
 21
163.4112715669
  0
SPLINE
  5
693
100
AcDbEntity
  8
7_ALL_ROUNDS
100
AcDbSpline
 62
7
  6
CONTINUOUS
 70
0
 71
3
 72
9
 73
5
 74
0
 42
0.0000001
 43
0.0000001
 44
0.0000000001
 40
0.0
 40
0.0
 40
0.0
 40
0.0
 40
0.4608565103
 40
1.0
 40
1.0
 40
1.0
 40
1.0
 10
88.8397843484
 20
163.37367756
 30
0.0
 10
88.8419604792
 20
163.37367756
 30
0.0
 10
88.8466941175
 20
163.3729333667
 30
0.0
 10
88.8510619933
 20
163.3710299424
 30
0.0
 10
88.8532970545
 20
163.3698110989
 30
0.0
  0
LINE
  5
694
100
AcDbEntity
  8
7_ALL_ROUNDS
100
AcDbLine
 62
7
  6
CONTINUOUS
 10
88.8532970545
 20
163.3698110989
 11
88.8583106001
 21
163.3666478266
  0
SPLINE
  5
695
100
AcDbEntity
  8
7_ALL_ROUNDS
100
AcDbSpline
 62
7
  6
CONTINUOUS
 70
0
 71
3
 72
9
 73
5
 74
0
 42
0.0000001
 43
0.0000001
 44
0.0000000001
 40
0.0
 40
0.0
 40
0.0
 40
0.0
 40
0.4438578894
 40
1.0
 40
1.0
 40
1.0
 40
1.0
 10
88.8397843484
 20
163.3290538197
 30
0.0
 10
88.8427514618
 20
163.3290538197
 30
0.0
 10
88.8494473483
 20
163.3276022295
 30
0.0
 10
88.8552854401
 20
163.3241850593
 30
0.0
 10
88.8583106001
 20
163.3220240864
 30
0.0
  0
SPLINE
  5
696
100
AcDbEntity
  8
0
100
AcDbSpline
 62
7
  6
CONTINUOUS
 70
0
 71
3
 72
9
 73
5
 74
0
 42
0.0000001
 43
0.0000001
 44
0.0000000001
 40
0.0
 40
0.0
 40
0.0
 40
0.0
 40
0.2752389263
 40
1.0
 40
1.0
 40
1.0
 40
1.0
 10
81.8319565124
 20
157.3859023593
 30
0.0
 10
81.8320010508
 20
157.3982875256
 30
0.0
 10
81.8987549667
 20
157.401681058
 30
0.0
 10
81.9306706704
 20
157.4101209769
 30
0.0
 10
81.9631689025
 20
157.4128536138
 30
0.0
  0
SPLINE
  5
697
100
AcDbEntity
  8
0
100
AcDbSpline
 62
7
  6
CONTINUOUS
 70
0
 71
3
 72
8
 73
4
 74
0
 42
0.0000001
 43
0.0000001
 44
0.0000000001
 40
0.0
 40
0.0
 40
0.0
 40
0.0
 40
1.0
 40
1.0
 40
1.0
 40
1.0
 10
81.9631689025
 20
157.4128536138
 30
0.0
 10
82.0165378074
 20
157.4173411759
 30
0.0
 10
82.0700801085
 20
157.4198012504
 30
0.0
 10
82.1236138788
 20
157.4213867047
 30
0.0
  0
SPLINE
  5
698
100
AcDbEntity
  8
0
100
AcDbSpline
 62
7
  6
CONTINUOUS
 70
0
 71
3
 72
9
 73
5
 74
0
 42
0.0000001
 43
0.0000001
 44
0.0000000001
 40
0.0
 40
0.0
 40
0.0
 40
0.0
 40
0.3092206914
 40
1.0
 40
1.0
 40
1.0
 40
1.0
 10
88.6919653322
 20
157.3859023593
 30
0.0
 10
88.6919536332
 20
157.3891555996
 30
0.0
 10
88.6801206815
 20
157.3954569706
 30
0.0
 10
88.6711910812
 20
157.3975405168
 30
0.0
 10
88.6641087729
 20
157.3991710399
 30
0.0
  0
SPLINE
  5
699
100
AcDbEntity
  8
0
100
AcDbSpline
 62
7
  6
CONTINUOUS
 70
0
 71
3
 72
8
 73
4
 74
0
 42
0.0000001
 43
0.0000001
 44
0.0000000001
 40
0.0
 40
0.0
 40
0.0
 40
0.0
 40
1.0
 40
1.0
 40
1.0
 40
1.0
 10
88.6641087729
 20
157.3991710399
 30
0.0
 10
88.6426495225
 20
157.4041114921
 30
0.0
 10
88.6207006009
 20
157.406788527
 30
0.0
 10
88.5988119245
 20
157.4091954634
 30
0.0
  0
SPLINE
  5
69A
100
AcDbEntity
  8
0
100
AcDbSpline
 62
7
  6
CONTINUOUS
 70
0
 71
3
 72
13
 73
9
 74
0
 42
0.0000001
 43
0.0000001
 44
0.0000000001
 40
0.0
 40
0.0
 40
0.0
 40
0.0
 40
0.0267687526
 40
0.0816486898
 40
0.1677215688
 40
0.2840940767
 40
0.5985409774
 40
1.0
 40
1.0
 40
1.0
 40
1.0
 10
91.7619609223
 20
156.2584059978
 30
0.0
 10
91.7619609223
 20
156.2228939933
 30
0.0
 10
91.6567067298
 20
156.1441386959
 30
0.0
 10
91.455810225
 20
156.0840080577
 30
0.0
 10
91.1162526895
 20
156.0065255992
 30
0.0
 10
90.4409622156
 20
155.908027587
 30
0.0
 10
89.3383032932
 20
155.8075915761
 30
0.0
 10
88.3904981013
 20
155.7592621276
 30
0.0
 10
87.8582975828
 20
155.7390499099
 30
0.0
  0
SPLINE
  5
69B
100
AcDbEntity
  8
0
100
AcDbSpline
 62
7
  6
CONTINUOUS
 70
0
 71
3
 72
13
 73
9
 74
0
 42
0.0000001
 43
0.0000001
 44
0.0000000001
 40
0.0
 40
0.0
 40
0.0
 40
0.0
 40
0.4014222399
 40
0.7158841516
 40
0.8322697799
 40
0.9183535558
 40
0.973238068
 40
1.0
 40
1.0
 40
1.0
 40
1.0
 10
82.6709512367
 20
155.7388478462
 30
0.0
 10
82.1380857923
 20
155.7590358636
 30
0.0
 10
81.1890388919
 20
155.8073422178
 30
0.0
 10
80.0849015887
 20
155.9077983045
 30
0.0
 10
79.4086511042
 20
156.0063434196
 30
0.0
 10
79.0685755906
 20
156.0838791144
 30
0.0
 10
78.8674103658
 20
156.1440416441
 30
0.0
 10
78.7619609223
 20
156.2228555524
 30
0.0
 10
78.7619609223
 20
156.2584059978
 30
0.0
  0
SPLINE
  5
69C
100
AcDbEntity
  8
0
100
AcDbSpline
 62
7
  6
CONTINUOUS
 70
0
 71
3
 72
10
 73
6
 74
0
 42
0.0000001
 43
0.0000001
 44
0.0000000001
 40
0.0
 40
0.0
 40
0.0
 40
0.0
 40
0.7086621175
 40
0.9018935853
 40
1.0
 40
1.0
 40
1.0
 40
1.0
 10
90.8682707514
 20
156.9186545835
 30
0.0
 10
91.0926219769
 20
156.8853208635
 30
0.0
 10
91.3856863254
 20
156.8316847866
 30
0.0
 10
91.6771765758
 20
156.7353789073
 30
0.0
 10
91.7619609223
 20
156.6633788993
 30
0.0
 10
91.7619609223
 20
156.6319790096
 30
0.0
  0
SPLINE
  5
69D
100
AcDbEntity
  8
0
100
AcDbSpline
 62
7
  6
CONTINUOUS
 70
0
 71
3
 72
10
 73
6
 74
0
 42
0.0000001
 43
0.0000001
 44
0.0000000001
 40
0.0
 40
0.0
 40
0.0
 40
0.0
 40
0.0981064147
 40
0.2913378825
 40
1.0
 40
1.0
 40
1.0
 40
1.0
 10
78.7619609223
 20
156.6319790096
 30
0.0
 10
78.7619609223
 20
156.6633788993
 30
0.0
 10
78.8467452688
 20
156.7353789073
 30
0.0
 10
79.1382355192
 20
156.8316847866
 30
0.0
 10
79.4312998677
 20
156.8853208635
 30
0.0
 10
79.6556510932
 20
156.9186545835
 30
0.0
  0
SPLINE
  5
69E
100
AcDbEntity
  8
7_ALL_ROUNDS
100
AcDbSpline
 62
7
  6
CONTINUOUS
 70
0
 71
3
 72
8
 73
4
 74
0
 42
0.0000001
 43
0.0000001
 44
0.0000000001
 40
0.0
 40
0.0
 40
0.0
 40
0.0
 40
1.0
 40
1.0
 40
1.0
 40
1.0
 10
89.8359504432
 20
162.6294018556
 30
0.0
 10
90.2262685635
 20
162.2082851401
 30
0.0
 10
90.4775588759
 20
161.6166318109
 30
0.0
 10
90.5077241443
 20
161.0432405138
 30
0.0
  0
SPLINE
  5
69F
100
AcDbEntity
  8
7_ALL_ROUNDS
100
AcDbSpline
 62
7
  6
CONTINUOUS
 70
0
 71
3
 72
8
 73
4
 74
0
 42
0.0000001
 43
0.0000001
 44
0.0000000001
 40
0.0
 40
0.0
 40
0.0
 40
0.0
 40
1.0
 40
1.0
 40
1.0
 40
1.0
 10
88.2556077445
 20
163.461339782
 30
0.0
 10
88.3820440267
 20
163.4365380206
 30
0.0
 10
88.5076703872
 20
163.4064545444
 30
0.0
 10
88.6309607573
 20
163.3690280101
 30
0.0
  0
SPLINE
  5
6A0
100
AcDbEntity
  8
7_ALL_ROUNDS
100
AcDbSpline
 62
7
  6
CONTINUOUS
 70
0
 71
3
 72
9
 73
5
 74
0
 42
0.0000001
 43
0.0000001
 44
0.0000000001
 40
0.0
 40
0.0
 40
0.0
 40
0.0
 40
0.5307827363
 40
1.0
 40
1.0
 40
1.0
 40
1.0
 10
80.0161977003
 20
161.0432405138
 30
0.0
 10
80.04879188
 20
161.662801352
 30
0.0
 10
80.5896323157
 20
162.8581346018
 30
0.0
 10
81.7301155893
 20
163.3557666755
 30
0.0
 10
82.2683141001
 20
163.461339782
 30
0.0
  0
SPLINE
  5
6A1
100
AcDbEntity
  8
0
100
AcDbSpline
 62
7
  6
CONTINUOUS
 70
0
 71
3
 72
9
 73
5
 74
0
 42
0.0000001
 43
0.0000001
 44
0.0000000001
 40
0.0
 40
0.0
 40
0.0
 40
0.0
 40
0.1547796092
 40
1.0
 40
1.0
 40
1.0
 40
1.0
 10
79.5119609221
 20
157.7626050835
 30
0.0
 10
79.5119609221
 20
157.7524882696
 30
0.0
 10
79.5392865572
 20
157.6888089878
 30
0.0
 10
79.6117176545
 20
157.6675829286
 30
0.0
 10
79.6634937141
 20
157.648312533
 30
0.0
  0
SPLINE
  5
6A2
100
AcDbEntity
  8
0
100
AcDbSpline
 62
7
  6
CONTINUOUS
 70
0
 71
3
 72
9
 73
5
 74
0
 42
0.0000001
 43
0.0000001
 44
0.0000000001
 40
0.0
 40
0.0
 40
0.0
 40
0.0
 40
0.3946688791
 40
1.0
 40
1.0
 40
1.0
 40
1.0
 10
79.6634937141
 20
157.648312533
 30
0.0
 10
79.7853814741
 20
157.6029474478
 30
0.0
 10
80.1098706674
 20
157.5346144714
 30
0.0
 10
80.4356506759
 20
157.4886612034
 30
0.0
 10
80.6337461729
 20
157.465231521
 30
0.0
  0
SPLINE
  5
6A3
100
AcDbEntity
  8
0
100
AcDbSpline
 62
7
  6
CONTINUOUS
 70
0
 71
3
 72
9
 73
5
 74
0
 42
0.0000001
 43
0.0000001
 44
0.0000000001
 40
0.0
 40
0.0
 40
0.0
 40
0.0
 40
0.3206774424
 40
1.0
 40
1.0
 40
1.0
 40
1.0
 10
91.0119609225
 20
158.1143147593
 30
0.0
 10
91.0119609225
 20
158.1494496652
 30
0.0
 10
90.899137981
 20
158.2248062714
 30
0.0
 10
90.8034010385
 20
158.2495954299
 30
0.0
 10
90.7315215228
 20
158.2689117268
 30
0.0
  0
SPLINE
  5
6A4
100
AcDbEntity
  8
0
100
AcDbSpline
 62
7
  6
CONTINUOUS
 70
0
 71
3
 72
9
 73
5
 74
0
 42
0.0000001
 43
0.0000001
 44
0.0000000001
 40
0.0
 40
0.0
 40
0.0
 40
0.0
 40
0.2751048528
 40
1.0
 40
1.0
 40
1.0
 40
1.0
 10
89.8278199878
 20
157.7599513654
 30
0.0
 10
89.8279161729
 20
157.775221687
 30
0.0
 10
89.7447488636
 20
157.7783405347
 30
0.0
 10
89.7057820604
 20
157.7888719487
 30
0.0
 10
89.6656720889
 20
157.792076181
 30
0.0
  0
SPLINE
  5
6A5
100
AcDbEntity
  8
0
100
AcDbSpline
 62
7
  6
CONTINUOUS
 70
0
 71
3
 72
9
 73
5
 74
0
 42
0.0000001
 43
0.0000001
 44
0.0000000001
 40
0.0
 40
0.0
 40
0.0
 40
0.0
 40
0.3016693513
 40
1.0
 40
1.0
 40
1.0
 40
1.0
 10
89.8758281339
 20
157.4082417094
 30
0.0
 10
89.8758391675
 20
157.4129568749
 30
0.0
 10
89.8574321119
 20
157.4215234658
 30
0.0
 10
89.8444241118
 20
157.4243681532
 30
0.0
 10
89.8337406241
 20
157.4266048203
 30
0.0
  0
SPLINE
  5
6A6
100
AcDbEntity
  8
0
100
AcDbSpline
 62
7
  6
CONTINUOUS
 70
0
 71
3
 72
9
 73
5
 74
0
 42
0.0000001
 43
0.0000001
 44
0.0000000001
 40
0.0
 40
0.0
 40
0.0
 40
0.0
 40
0.3295747539
 40
1.0
 40
1.0
 40
1.0
 40
1.0
 10
82.8471841516
 20
157.8942217815
 30
0.0
 10
82.8471841516
 20
157.949341036
 30
0.0
 10
83.0156261935
 20
158.068141682
 30
0.0
 10
83.164054581
 20
158.1045234691
 30
0.0
 10
83.2727732784
 20
158.1319479884
 30
0.0
  0
SPLINE
  5
6A7
100
AcDbEntity
  8
0
100
AcDbSpline
 62
7
  6
CONTINUOUS
 70
0
 71
3
 72
9
 73
5
 74
0
 42
0.0000001
 43
0.0000001
 44
0.0000000001
 40
0.0
 40
0.0
 40
0.0
 40
0.0
 40
0.3295747539
 40
1.0
 40
1.0
 40
1.0
 40
1.0
 10
87.676737693
 20
157.8942217815
 30
0.0
 10
87.676737693
 20
157.949341036
 30
0.0
 10
87.5082956511
 20
158.068141682
 30
0.0
 10
87.3598672636
 20
158.1045234691
 30
0.0
 10
87.2511485662
 20
158.1319479884
 30
0.0
  0
SPLINE
  5
6A8
100
AcDbEntity
  8
0
100
AcDbSpline
 62
7
  6
CONTINUOUS
 70
0
 71
3
 72
9
 73
5
 74
0
 42
0.0000001
 43
0.0000001
 44
0.0000000001
 40
0.0
 40
0.0
 40
0.0
 40
0.0
 40
0.3461165672
 40
1.0
 40
1.0
 40
1.0
 40
1.0
 10
88.1419609223
 20
157.5730524565
 30
0.0
 10
88.1419609223
 20
157.624511277
 30
0.0
 10
88.0112025164
 20
157.743760046
 30
0.0
 10
87.8764805043
 20
157.7854144331
 30
0.0
 10
87.7837502598
 20
157.8146043895
 30
0.0
  0
SPLINE
  5
6A9
100
AcDbEntity
  8
0
100
AcDbSpline
 62
7
  6
CONTINUOUS
 70
0
 71
3
 72
9
 73
5
 74
0
 42
0.0000001
 43
0.0000001
 44
0.0000000001
 40
0.0
 40
0.0
 40
0.0
 40
0.0
 40
0.6538834328
 40
1.0
 40
1.0
 40
1.0
 40
1.0
 10
82.7401715848
 20
157.8146043895
 30
0.0
 10
82.6474413404
 20
157.7854144331
 30
0.0
 10
82.5127193282
 20
157.743760046
 30
0.0
 10
82.3819609223
 20
157.624511277
 30
0.0
 10
82.3819609223
 20
157.5730524565
 30
0.0
  0
SPLINE
  5
6AA
100
AcDbEntity
  8
0
100
AcDbSpline
 62
7
  6
CONTINUOUS
 70
0
 71
3
 72
9
 73
5
 74
0
 42
0.0000001
 43
0.0000001
 44
0.0000000001
 40
0.0
 40
0.0
 40
0.0
 40
0.0
 40
0.1960109863
 40
1.0
 40
1.0
 40
1.0
 40
1.0
 10
82.2019609223
 20
156.5431208122
 30
0.0
 10
82.2019609223
 20
156.5307438442
 30
0.0
 10
82.2162095358
 20
156.4672918631
 30
0.0
 10
82.2735776815
 20
156.4255421397
 30
0.0
 10
82.3168002472
 20
156.3989126938
 30
0.0
  0
SPLINE
  5
6AB
100
AcDbEntity
  8
0
100
AcDbSpline
 62
7
  6
CONTINUOUS
 70
0
 71
3
 72
9
 73
5
 74
0
 42
0.0000001
 43
0.0000001
 44
0.0000000001
 40
0.0
 40
0.0
 40
0.0
 40
0.0
 40
0.3832435797
 40
1.0
 40
1.0
 40
1.0
 40
1.0
 10
82.3168002472
 20
156.3989126938
 30
0.0
 10
82.4858122815
 20
156.2947842891
 30
0.0
 10
83.0036842003
 20
156.1735813017
 30
0.0
 10
83.5119616035
 20
156.1027623361
 30
0.0
 10
83.8300905108
 20
156.0735225049
 30
0.0
  0
SPLINE
  5
6AC
100
AcDbEntity
  8
0
100
AcDbSpline
 62
7
  6
CONTINUOUS
 70
0
 71
3
 72
9
 73
5
 74
0
 42
0.0000001
 43
0.0000001
 44
0.0000000001
 40
0.0
 40
0.0
 40
0.0
 40
0.0
 40
0.6167564203
 40
1.0
 40
1.0
 40
1.0
 40
1.0
 10
86.6938313338
 20
156.0735225049
 30
0.0
 10
87.0119602411
 20
156.1027623361
 30
0.0
 10
87.5202376443
 20
156.1735813017
 30
0.0
 10
88.0381095631
 20
156.2947842891
 30
0.0
 10
88.2071215974
 20
156.3989126938
 30
0.0
  0
SPLINE
  5
6AD
100
AcDbEntity
  8
0
100
AcDbSpline
 62
7
  6
CONTINUOUS
 70
0
 71
3
 72
9
 73
5
 74
0
 42
0.0000001
 43
0.0000001
 44
0.0000000001
 40
0.0
 40
0.0
 40
0.0
 40
0.0
 40
0.3264751112
 40
1.0
 40
1.0
 40
1.0
 40
1.0
 10
88.2071215974
 20
156.3989126938
 30
0.0
 10
88.2245324306
 20
156.4096395175
 30
0.0
 10
88.2751302497
 20
156.4438077368
 30
0.0
 10
88.3219609223
 20
156.5009320727
 30
0.0
 10
88.3219609223
 20
156.5431208122
 30
0.0
  0
SPLINE
  5
6AE
100
AcDbEntity
  8
0
100
AcDbSpline
 62
7
  6
CONTINUOUS
 70
0
 71
3
 72
9
 73
5
 74
0
 42
0.0000001
 43
0.0000001
 44
0.0000000001
 40
0.0
 40
0.0
 40
0.0
 40
0.0
 40
0.1993154842
 40
1.0
 40
1.0
 40
1.0
 40
1.0
 10
88.3219609223
 20
157.3309670146
 30
0.0
 10
88.3219609223
 20
157.3427366734
 30
0.0
 10
88.3094082308
 20
157.4021026879
 30
0.0
 10
88.257362048
 20
157.442766369
 30
0.0
 10
88.2176939507
 20
157.4684939886
 30
0.0
  0
SPLINE
  5
6AF
100
AcDbEntity
  8
0
100
AcDbSpline
 62
7
  6
CONTINUOUS
 70
0
 71
3
 72
9
 73
5
 74
0
 42
0.0000001
 43
0.0000001
 44
0.0000000001
 40
0.0
 40
0.0
 40
0.0
 40
0.0
 40
0.4846645858
 40
1.0
 40
1.0
 40
1.0
 40
1.0
 10
88.2071215974
 20
157.475175133
 30
0.0
 10
88.1997595193
 20
157.4797109133
 30
0.0
 10
88.1843552137
 20
157.4887242871
 30
0.0
 10
88.1686144513
 20
157.4971326486
 30
0.0
 10
88.1604335399
 20
157.5013289982
 30
0.0
  0
SPLINE
  5
6B0
100
AcDbEntity
  8
0
100
AcDbSpline
 62
7
  6
CONTINUOUS
 70
0
 71
3
 72
9
 73
5
 74
0
 42
0.0000001
 43
0.0000001
 44
0.0000000001
 40
0.0
 40
0.0
 40
0.0
 40
0.0
 40
0.5153354142
 40
1.0
 40
1.0
 40
1.0
 40
1.0
 10
82.3634883047
 20
157.5013289982
 30
0.0
 10
82.3553073933
 20
157.4971326486
 30
0.0
 10
82.3395666309
 20
157.4887242871
 30
0.0
 10
82.3241623253
 20
157.4797109133
 30
0.0
 10
82.3168002472
 20
157.475175133
 30
0.0
  0
SPLINE
  5
6B1
100
AcDbEntity
  8
0
100
AcDbSpline
 62
7
  6
CONTINUOUS
 70
0
 71
3
 72
9
 73
5
 74
0
 42
0.0000001
 43
0.0000001
 44
0.0000000001
 40
0.0
 40
0.0
 40
0.0
 40
0.0
 40
0.3224049484
 40
1.0
 40
1.0
 40
1.0
 40
1.0
 10
82.3062278939
 20
157.4684939886
 30
0.0
 10
82.2903718603
 20
157.4582102082
 30
0.0
 10
82.2436757951
 20
157.4249886602
 30
0.0
 10
82.2019609223
 20
157.3706867162
 30
0.0
 10
82.2019609223
 20
157.3309670146
 30
0.0
  0
SPLINE
  5
6B2
100
AcDbEntity
  8
0
100
AcDbSpline
 62
7
  6
CONTINUOUS
 70
0
 71
3
 72
9
 73
5
 74
0
 42
0.0000001
 43
0.0000001
 44
0.0000000001
 40
0.0
 40
0.0
 40
0.0
 40
0.0
 40
0.6069276783
 40
1.0
 40
1.0
 40
1.0
 40
1.0
 10
80.6901812205
 20
157.4266048203
 30
0.0
 10
80.6824429401
 20
157.4249847541
 30
0.0
 10
80.669828171
 20
157.4219269577
 30
0.0
 10
80.6573935357
 20
157.4174521984
 30
0.0
 10
80.6530823775
 20
157.4146897113
 30
0.0
  0
SPLINE
  5
6B3
100
AcDbEntity
  8
0
100
AcDbSpline
 62
7
  6
CONTINUOUS
 70
0
 71
3
 72
9
 73
5
 74
0
 42
0.0000001
 43
0.0000001
 44
0.0000000001
 40
0.0
 40
0.0
 40
0.0
 40
0.0
 40
0.5878067115
 40
1.0
 40
1.0
 40
1.0
 40
1.0
 10
80.6530823775
 20
157.4146897113
 30
0.0
 10
80.6516966476
 20
157.4138017687
 30
0.0
 10
80.6493965291
 20
157.4121383758
 30
0.0
 10
80.6480910101
 20
157.409395813
 30
0.0
 10
80.6480937107
 20
157.4082417094
 30
0.0
  0
SPLINE
  5
6B4
100
AcDbEntity
  8
0
100
AcDbSpline
 62
7
  6
CONTINUOUS
 70
0
 71
3
 72
9
 73
5
 74
0
 42
0.0000001
 43
0.0000001
 44
0.0000000001
 40
0.0
 40
0.0
 40
0.0
 40
0.0
 40
0.6053380637
 40
1.0
 40
1.0
 40
1.0
 40
1.0
 10
89.8899940841
 20
157.465210045
 30
0.0
 10
90.088128769
 20
157.4886417512
 30
0.0
 10
90.4139693487
 20
157.5345995315
 30
0.0
 10
90.7385199885
 20
157.6029398618
 30
0.0
 10
90.8604281305
 20
157.648312533
 30
0.0
  0
SPLINE
  5
6B5
100
AcDbEntity
  8
0
100
AcDbSpline
 62
7
  6
CONTINUOUS
 70
0
 71
3
 72
9
 73
5
 74
0
 42
0.0000001
 43
0.0000001
 44
0.0000000001
 40
0.0
 40
0.0
 40
0.0
 40
0.0
 40
0.3721162992
 40
1.0
 40
1.0
 40
1.0
 40
1.0
 10
90.8604281305
 20
157.648312533
 30
0.0
 10
90.8828800091
 20
157.6566688387
 30
0.0
 10
90.9380142607
 20
157.6798028318
 30
0.0
 10
91.0119609225
 20
157.7221824887
 30
0.0
 10
91.0119609225
 20
157.7626050835
 30
0.0
  0
SPLINE
  5
6B6
100
AcDbEntity
  8
0
100
AcDbSpline
 62
7
  6
CONTINUOUS
 70
0
 71
3
 72
9
 73
5
 74
0
 42
0.0000001
 43
0.0000001
 44
0.0000000001
 40
0.0
 40
0.0
 40
0.0
 40
0.0
 40
0.7248951472
 40
1.0
 40
1.0
 40
1.0
 40
1.0
 10
80.8582497557
 20
157.792076181
 30
0.0
 10
80.8181397842
 20
157.7888719487
 30
0.0
 10
80.779172981
 20
157.7783405347
 30
0.0
 10
80.6960056717
 20
157.775221687
 30
0.0
 10
80.6961018568
 20
157.7599513654
 30
0.0
  0
SPLINE
  5
6B7
100
AcDbEntity
  8
0
100
AcDbSpline
 62
7
  6
CONTINUOUS
 70
0
 71
3
 72
9
 73
5
 74
0
 42
0.0000001
 43
0.0000001
 44
0.0000000001
 40
0.0
 40
0.0
 40
0.0
 40
0.0
 40
0.6793225576
 40
1.0
 40
1.0
 40
1.0
 40
1.0
 10
79.7924003218
 20
158.2689117268
 30
0.0
 10
79.7205208061
 20
158.2495954299
 30
0.0
 10
79.6247838636
 20
158.2248062714
 30
0.0
 10
79.5119609221
 20
158.1494496652
 30
0.0
 10
79.5119609221
 20
158.1143147593
 30
0.0
  0
SPLINE
  5
6B8
100
AcDbEntity
  8
0
100
AcDbSpline
 62
7
  6
CONTINUOUS
 70
0
 71
3
 72
11
 73
7
 74
0
 42
0.0000001
 43
0.0000001
 44
0.0000000001
 40
0.0
 40
0.0
 40
0.0
 40
0.0
 40
0.1497858139
 40
0.5
 40
0.8502141861
 40
1.0
 40
1.0
 40
1.0
 40
1.0
 10
89.2273249141
 20
157.7599513632
 30
0.0
 10
89.2273249141
 20
157.7498479017
 30
0.0
 10
89.2807055417
 20
157.7589681117
 30
0.0
 10
89.3278249141
 20
157.7457576886
 30
0.0
 10
89.3749442865
 20
157.7589681117
 30
0.0
 10
89.4283249141
 20
157.7498479017
 30
0.0
 10
89.4283249141
 20
157.7599513632
 30
0.0
  0
SPLINE
  5
6B9
100
AcDbEntity
  8
0
100
AcDbSpline
 62
7
  6
CONTINUOUS
 70
0
 71
3
 72
11
 73
7
 74
0
 42
0.0000001
 43
0.0000001
 44
0.0000000001
 40
0.0
 40
0.0
 40
0.0
 40
0.0
 40
0.1497858139
 40
0.5
 40
0.8502141861
 40
1.0
 40
1.0
 40
1.0
 40
1.0
 10
81.0955969305
 20
157.7599513632
 30
0.0
 10
81.0955969305
 20
157.7498479017
 30
0.0
 10
81.1489775581
 20
157.7589681117
 30
0.0
 10
81.1960969305
 20
157.7457576886
 30
0.0
 10
81.2432163029
 20
157.7589681117
 30
0.0
 10
81.2965969305
 20
157.7498479017
 30
0.0
 10
81.2965969305
 20
157.7599513632
 30
0.0
  0
SPLINE
  5
6BA
100
AcDbEntity
  8
0
100
AcDbSpline
 62
7
  6
CONTINUOUS
 70
0
 71
3
 72
8
 73
4
 74
0
 42
0.0000001
 43
0.0000001
 44
0.0000000001
 40
0.0
 40
0.0
 40
0.0
 40
0.0
 40
1.0
 40
1.0
 40
1.0
 40
1.0
 10
89.4662226216
 20
162.7005923455
 30
0.0
 10
89.266677878
 20
162.8637339226
 30
0.0
 10
89.0395221598
 20
162.9973480021
 30
0.0
 10
88.8006726304
 20
163.0942199858
 30
0.0
  0
SPLINE
  5
6BB
100
AcDbEntity
  8
0
100
AcDbSpline
 62
7
  6
CONTINUOUS
 70
0
 71
3
 72
9
 73
5
 74
0
 42
0.0000001
 43
0.0000001
 44
0.0000000001
 40
0.0
 40
0.0
 40
0.0
 40
0.0
 40
0.2448977155
 40
1.0
 40
1.0
 40
1.0
 40
1.0
 10
87.5837779637
 20
158.7616407467
 30
0.0
 10
87.2055833543
 20
158.733288389
 30
0.0
 10
85.6590259655
 20
158.6512705307
 30
0.0
 10
84.1062454633
 20
158.6742208619
 30
0.0
 10
82.9401438809
 20
158.7616407467
 30
0.0
  0
SPLINE
  5
6BC
100
AcDbEntity
  8
0
100
AcDbSpline
 62
7
  6
CONTINUOUS
 70
0
 71
3
 72
9
 73
5
 74
0
 42
0.0000001
 43
0.0000001
 44
0.0000000001
 40
0.0
 40
0.0
 40
0.0
 40
0.0
 40
0.2890226393
 40
1.0
 40
1.0
 40
1.0
 40
1.0
 10
82.0934609223
 20
157.3884299408
 30
0.0
 10
82.0934609223
 20
157.374767004
 30
0.0
 10
82.1687443036
 20
157.3849939488
 30
0.0
 10
82.2004366475
 20
157.3744458581
 30
0.0
 10
82.234042946
 20
157.3739499024
 30
0.0
  0
SPLINE
  5
6BD
100
AcDbEntity
  8
0
100
AcDbSpline
 62
7
  6
CONTINUOUS
 70
0
 71
3
 72
9
 73
5
 74
0
 42
0.0000001
 43
0.0000001
 44
0.0000000001
 40
0.0
 40
0.0
 40
0.0
 40
0.0
 40
0.5316024524
 40
1.0
 40
1.0
 40
1.0
 40
1.0
 10
81.8886798336
 20
157.2885995832
 30
0.0
 10
81.8843039743
 20
157.2892665399
 30
0.0
 10
81.8760854889
 20
157.2906087295
 30
0.0
 10
81.8679068619
 20
157.292180366
 30
0.0
 10
81.8640920443
 20
157.2929915953
 30
0.0
  0
SPLINE
  5
6BE
100
AcDbEntity
  8
0
100
AcDbSpline
 62
7
  6
CONTINUOUS
 70
0
 71
3
 72
9
 73
5
 74
0
 42
0.0000001
 43
0.0000001
 44
0.0000000001
 40
0.0
 40
0.0
 40
0.0
 40
0.0
 40
0.5437032223
 40
1.0
 40
1.0
 40
1.0
 40
1.0
 10
81.8640920443
 20
157.2929915953
 30
0.0
 10
81.8609193368
 20
157.2936662784
 30
0.0
 10
81.855103637
 20
157.2950025291
 30
0.0
 10
81.8493555323
 20
157.2966158908
 30
0.0
 10
81.8467654892
 20
157.2974537656
 30
0.0
  0
SPLINE
  5
6BF
100
AcDbEntity
  8
0
100
AcDbSpline
 62
7
  6
CONTINUOUS
 70
0
 71
3
 72
9
 73
5
 74
0
 42
0.0000001
 43
0.0000001
 44
0.0000000001
 40
0.0
 40
0.0
 40
0.0
 40
0.0
 40
0.5316024524
 40
1.0
 40
1.0
 40
1.0
 40
1.0
 10
88.635242011
 20
157.2885995832
 30
0.0
 10
88.6396178703
 20
157.2892665399
 30
0.0
 10
88.6478363557
 20
157.2906087295
 30
0.0
 10
88.6560149827
 20
157.292180366
 30
0.0
 10
88.6598298003
 20
157.2929915953
 30
0.0
  0
SPLINE
  5
6C0
100
AcDbEntity
  8
0
100
AcDbSpline
 62
7
  6
CONTINUOUS
 70
0
 71
3
 72
9
 73
5
 74
0
 42
0.0000001
 43
0.0000001
 44
0.0000000001
 40
0.0
 40
0.0
 40
0.0
 40
0.0
 40
0.5437032223
 40
1.0
 40
1.0
 40
1.0
 40
1.0
 10
88.6598298003
 20
157.2929915953
 30
0.0
 10
88.6630025078
 20
157.2936662784
 30
0.0
 10
88.6688182076
 20
157.2950025291
 30
0.0
 10
88.6745663123
 20
157.2966158908
 30
0.0
 10
88.6771563554
 20
157.2974537656
 30
0.0
  0
SPLINE
  5
6C1
100
AcDbEntity
  8
0
100
AcDbSpline
 62
7
  6
CONTINUOUS
 70
0
 71
3
 72
15
 73
11
 74
0
 42
0.0000001
 43
0.0000001
 44
0.0000000001
 40
0.0
 40
0.0
 40
0.0
 40
0.0
 40
0.0488421843
 40
0.1570851616
 40
0.3149367264
 40
0.5
 40
0.6850632736
 40
0.8429148384
 40
0.9511578157
 40
1.0
 40
1.0
 40
1.0
 40
1.0
 10
82.3819609223
 20
157.5730524565
 30
0.0
 10
82.3819609223
 20
157.4760373572
 30
0.0
 10
82.7489332769
 20
157.3063329491
 30
0.0
 10
83.2991882323
 20
157.1973446684
 30
0.0
 10
84.2204530725
 20
157.0915361808
 30
0.0
 10
85.2619609223
 20
157.0629128513
 30
0.0
 10
86.3034687721
 20
157.0915361808
 30
0.0
 10
87.2247336123
 20
157.1973446684
 30
0.0
 10
87.7749885677
 20
157.3063329491
 30
0.0
 10
88.1419609223
 20
157.4760373572
 30
0.0
 10
88.1419609223
 20
157.5730524565
 30
0.0
  0
SPLINE
  5
6C2
100
AcDbEntity
  8
0
100
AcDbSpline
 62
7
  6
CONTINUOUS
 70
0
 71
3
 72
11
 73
7
 74
0
 42
0.0000001
 43
0.0000001
 44
0.0000000001
 40
0.0
 40
0.0
 40
0.0
 40
0.0
 40
0.370150151
 40
0.6858320536
 40
0.9023319561
 40
1.0
 40
1.0
 40
1.0
 40
1.0
 10
85.2619609223
 20
157.1537308708
 30
0.0
 10
85.5701902242
 20
157.1537308708
 30
0.0
 10
86.1343982782
 20
157.1693037359
 30
0.0
 10
86.9078350322
 20
157.2580520517
 30
0.0
 10
87.3690431637
 20
157.3494032918
 30
0.0
 10
87.676715766
 20
157.4917228855
 30
0.0
 10
87.676715766
 20
157.5730524565
 30
0.0
  0
SPLINE
  5
6C3
100
AcDbEntity
  8
0
100
AcDbSpline
 62
7
  6
CONTINUOUS
 70
0
 71
3
 72
15
 73
11
 74
0
 42
0.0000001
 43
0.0000001
 44
0.0000000001
 40
0.0
 40
0.0
 40
0.0
 40
0.0
 40
0.0488421843
 40
0.1570851616
 40
0.3149367264
 40
0.5
 40
0.6850632736
 40
0.8429148384
 40
0.9511578157
 40
1.0
 40
1.0
 40
1.0
 40
1.0
 10
82.2019609223
 20
157.3309670146
 30
0.0
 10
82.2019609223
 20
157.2278884716
 30
0.0
 10
82.5918690491
 20
157.047577538
 30
0.0
 10
83.1765149392
 20
156.9317774898
 30
0.0
 10
84.1553588318
 20
156.8193559718
 30
0.0
 10
85.2619609223
 20
156.7889436841
 30
0.0
 10
86.3685630128
 20
156.8193559718
 30
0.0
 10
87.3474069054
 20
156.9317774898
 30
0.0
 10
87.9320527955
 20
157.047577538
 30
0.0
 10
88.3219609223
 20
157.2278884716
 30
0.0
 10
88.3219609223
 20
157.3309670146
 30
0.0
  0
SPLINE
  5
6C4
100
AcDbEntity
  8
0
100
AcDbSpline
 62
7
  6
CONTINUOUS
 70
0
 71
3
 72
9
 73
5
 74
0
 42
0.0000001
 43
0.0000001
 44
0.0000000001
 40
0.0
 40
0.0
 40
0.0
 40
0.0
 40
0.2827913698
 40
1.0
 40
1.0
 40
1.0
 40
1.0
 10
80.6480937107
 20
157.4082417094
 30
0.0
 10
80.6481134572
 20
157.3998031207
 30
0.0
 10
80.6887182145
 20
157.390675189
 30
0.0
 10
80.7114819496
 20
157.3856712381
 30
0.0
 10
80.7326826591
 20
157.3827442798
 30
0.0
  0
SPLINE
  5
6C5
100
AcDbEntity
  8
0
100
AcDbSpline
 62
7
  6
CONTINUOUS
 70
0
 71
3
 72
9
 73
5
 74
0
 42
0.0000001
 43
0.0000001
 44
0.0000000001
 40
0.0
 40
0.0
 40
0.0
 40
0.0
 40
0.1915015109
 40
1.0
 40
1.0
 40
1.0
 40
1.0
 10
80.7326826591
 20
157.3827442798
 30
0.0
 10
80.7752551314
 20
157.3768667478
 30
0.0
 10
80.9990902085
 20
157.3584154574
 30
0.0
 10
81.2239863028
 20
157.3575677079
 30
0.0
 10
81.4053100258
 20
157.3640950766
 30
0.0
  0
SPLINE
  5
6C6
100
AcDbEntity
  8
0
100
AcDbSpline
 62
7
  6
CONTINUOUS
 70
0
 71
3
 72
11
 73
7
 74
0
 42
0.0000001
 43
0.0000001
 44
0.0000000001
 40
0.0
 40
0.0
 40
0.0
 40
0.0
 40
0.3701576749
 40
0.6858312909
 40
0.9023184663
 40
1.0
 40
1.0
 40
1.0
 40
1.0
 10
85.2619609223
 20
157.4749001958
 30
0.0
 10
85.5701978153
 20
157.4749001958
 30
0.0
 10
86.1344024241
 20
157.4904826493
 30
0.0
 10
86.9078488048
 20
157.5791986365
 30
0.0
 10
87.3690172349
 20
157.6706096338
 30
0.0
 10
87.676737693
 20
157.8128806275
 30
0.0
 10
87.676737693
 20
157.8942217815
 30
0.0
  0
SPLINE
  5
6C7
100
AcDbEntity
  8
0
100
AcDbSpline
 62
7
  6
CONTINUOUS
 70
0
 71
3
 72
11
 73
7
 74
0
 42
0.0000001
 43
0.0000001
 44
0.0000000001
 40
0.0
 40
0.0
 40
0.0
 40
0.0
 40
0.3701576749
 40
0.6858312909
 40
0.9023184663
 40
1.0
 40
1.0
 40
1.0
 40
1.0
 10
85.2619609223
 20
157.4749001958
 30
0.0
 10
84.9537240293
 20
157.4749001958
 30
0.0
 10
84.3895194205
 20
157.4904826493
 30
0.0
 10
83.6160730398
 20
157.5791986365
 30
0.0
 10
83.1549046097
 20
157.6706096338
 30
0.0
 10
82.8471841516
 20
157.8128806275
 30
0.0
 10
82.8471841516
 20
157.8942217815
 30
0.0
  0
SPLINE
  5
6C8
100
AcDbEntity
  8
0
100
AcDbSpline
 62
7
  6
CONTINUOUS
 70
0
 71
3
 72
12
 73
8
 74
0
 42
0.0000001
 43
0.0000001
 44
0.0000000001
 40
0.0
 40
0.0
 40
0.0
 40
0.0
 40
0.0263192905
 40
0.0911458843
 40
0.3263709918
 40
0.6548356695
 40
1.0
 40
1.0
 40
1.0
 40
1.0
 10
80.6480769382
 20
156.2776156381
 30
0.0
 10
80.6480985501
 20
156.2709208519
 30
0.0
 10
80.6778674641
 20
156.2616754742
 30
0.0
 10
80.7493422719
 20
156.2472172656
 30
0.0
 10
80.9184199018
 20
156.2348503365
 30
0.0
 10
81.1449939255
 20
156.2283576826
 30
0.0
 10
81.3175676286
 20
156.2303104144
 30
0.0
 10
81.4053100258
 20
156.2334690026
 30
0.0
  0
SPLINE
  5
6C9
100
AcDbEntity
  8
7_ALL_ROUNDS
100
AcDbSpline
 62
7
  6
CONTINUOUS
 70
0
 71
3
 72
9
 73
5
 74
0
 42
0.0000001
 43
0.0000001
 44
0.0000000001
 40
0.0
 40
0.0
 40
0.0
 40
0.0
 40
0.5092232398
 40
1.0
 40
1.0
 40
1.0
 40
1.0
 10
89.4295297101
 20
163.4447161916
 30
0.0
 10
89.4295424682
 20
163.4504383718
 30
0.0
 10
89.4284827133
 20
163.4616923206
 30
0.0
 10
89.4253035267
 20
163.4725861363
 30
0.0
 10
89.4230545713
 20
163.4776216527
 30
0.0
  0
SPLINE
  5
6CA
100
AcDbEntity
  8
7_ALL_ROUNDS
100
AcDbSpline
 62
7
  6
CONTINUOUS
 70
0
 71
3
 72
9
 73
5
 74
0
 42
0.0000001
 43
0.0000001
 44
0.0000000001
 40
0.0
 40
0.0
 40
0.0
 40
0.0
 40
0.531845303
 40
1.0
 40
1.0
 40
1.0
 40
1.0
 10
89.4230545713
 20
163.4776216527
 30
0.0
 10
89.4207346199
 20
163.4828161326
 30
0.0
 10
89.4151059571
 20
163.4923770953
 30
0.0
 10
89.4043012201
 20
163.4970900917
 30
0.0
 10
89.3992934948
 20
163.4970900917
 30
0.0
  0
SPLINE
  5
6CB
100
AcDbEntity
  8
7_ALL_ROUNDS
100
AcDbSpline
 62
7
  6
CONTINUOUS
 70
0
 71
3
 72
9
 73
5
 74
0
 42
0.0000001
 43
0.0000001
 44
0.0000000001
 40
0.0
 40
0.0
 40
0.0
 40
0.0
 40
0.4438578894
 40
1.0
 40
1.0
 40
1.0
 40
1.0
 10
89.3992934948
 20
163.4970900917
 30
0.0
 10
89.3963263814
 20
163.4970900917
 30
0.0
 10
89.3896304949
 20
163.4956385015
 30
0.0
 10
89.3837924031
 20
163.4922213313
 30
0.0
 10
89.380767243
 20
163.4900603584
 30
0.0
  0
SPLINE
  5
6CC
100
AcDbEntity
  8
0
100
AcDbSpline
 62
7
  6
CONTINUOUS
 70
0
 71
3
 72
11
 73
7
 74
0
 42
0.0000001
 43
0.0000001
 44
0.0000000001
 40
0.0
 40
0.0
 40
0.0
 40
0.0
 40
0.093382294
 40
0.2865284135
 40
0.5898243878
 40
1.0
 40
1.0
 40
1.0
 40
1.0
 10
79.6739452539
 20
156.6319790096
 30
0.0
 10
79.6739452539
 20
156.6005414573
 30
0.0
 10
79.769030271
 20
156.5314614193
 30
0.0
 10
79.9480528226
 20
156.4790669985
 30
0.0
 10
80.2524134654
 20
156.4110384953
 30
0.0
 10
80.488469613
 20
156.3778865972
 30
0.0
 10
80.6254123156
 20
156.3601433306
 30
0.0
  0
LINE
  5
6CD
100
AcDbEntity
  8
0
100
AcDbLine
 62
7
  6
CONTINUOUS
 10
80.6254123156
 20
156.3601433306
 11
80.6361062654
 21
156.3587628332
  0
SPLINE
  5
6CE
100
AcDbEntity
  8
7_ALL_ROUNDS
100
AcDbSpline
 62
7
  6
CONTINUOUS
 70
0
 71
3
 72
8
 73
4
 74
0
 42
0.0000001
 43
0.0000001
 44
0.0000000001
 40
0.0
 40
0.0
 40
0.0
 40
0.0
 40
1.0
 40
1.0
 40
1.0
 40
1.0
 10
88.868694172
 20
163.5044859707
 30
0.0
 10
88.8410958709
 20
163.5044859707
 30
0.0
 10
88.7951715106
 20
163.4688382065
 30
0.0
 10
88.8103212053
 20
163.4457697654
 30
0.0
  0
SPLINE
  5
6CF
100
AcDbEntity
  8
0
100
AcDbSpline
 62
7
  6
CONTINUOUS
 70
0
 71
3
 72
10
 73
6
 74
0
 42
0.0000001
 43
0.0000001
 44
0.0000000001
 40
0.0
 40
0.0
 40
0.0
 40
0.0
 40
0.6205333354
 40
0.8643027542
 40
1.0
 40
1.0
 40
1.0
 40
1.0
 10
89.1186118188
 20
157.3640950766
 30
0.0
 10
89.2730280491
 20
157.3585363353
 30
0.0
 10
89.4894346941
 20
157.3572439333
 30
0.0
 10
89.7361970419
 20
157.3765224604
 30
0.0
 10
89.832017452
 20
157.385516214
 30
0.0
 10
89.863373951
 20
157.3981055513
 30
0.0
  0
SPLINE
  5
6D0
100
AcDbEntity
  8
0
100
AcDbSpline
 62
7
  6
CONTINUOUS
 70
0
 71
3
 72
9
 73
5
 74
0
 42
0.0000001
 43
0.0000001
 44
0.0000000001
 40
0.0
 40
0.0
 40
0.0
 40
0.0
 40
0.639517769
 40
1.0
 40
1.0
 40
1.0
 40
1.0
 10
89.863373951
 20
157.3981055513
 30
0.0
 10
89.866654409
 20
157.3994226241
 30
0.0
 10
89.8716447363
 20
157.401439558
 30
0.0
 10
89.8758234712
 20
157.4062491234
 30
0.0
 10
89.8758281339
 20
157.4082417094
 30
0.0
  0
SPLINE
  5
6D1
100
AcDbEntity
  8
7_ALL_ROUNDS
100
AcDbSpline
 62
7
  6
CONTINUOUS
 70
0
 71
3
 72
9
 73
5
 74
0
 42
0.0000001
 43
0.0000001
 44
0.0000000001
 40
0.0
 40
0.0
 40
0.0
 40
0.0
 40
0.5092232398
 40
1.0
 40
1.0
 40
1.0
 40
1.0
 10
89.4295297101
 20
163.4000924513
 30
0.0
 10
89.4295424682
 20
163.4058146315
 30
0.0
 10
89.4284827133
 20
163.4170685803
 30
0.0
 10
89.4253035267
 20
163.427962396
 30
0.0
 10
89.4230545713
 20
163.4329979124
 30
0.0
  0
SPLINE
  5
6D2
100
AcDbEntity
  8
7_ALL_ROUNDS
100
AcDbSpline
 62
7
  6
CONTINUOUS
 70
0
 71
3
 72
9
 73
5
 74
0
 42
0.0000001
 43
0.0000001
 44
0.0000000001
 40
0.0
 40
0.0
 40
0.0
 40
0.0
 40
0.531845303
 40
1.0
 40
1.0
 40
1.0
 40
1.0
 10
89.4230545713
 20
163.4329979124
 30
0.0
 10
89.4207346199
 20
163.4381923924
 30
0.0
 10
89.4151059571
 20
163.447753355
 30
0.0
 10
89.4043012201
 20
163.4524663514
 30
0.0
 10
89.3992934948
 20
163.4524663514
 30
0.0
  0
SPLINE
  5
6D3
100
AcDbEntity
  8
7_ALL_ROUNDS
100
AcDbSpline
 62
7
  6
CONTINUOUS
 70
0
 71
3
 72
9
 73
5
 74
0
 42
0.0000001
 43
0.0000001
 44
0.0000000001
 40
0.0
 40
0.0
 40
0.0
 40
0.0
 40
0.4438578894
 40
1.0
 40
1.0
 40
1.0
 40
1.0
 10
89.3992934948
 20
163.4524663514
 30
0.0
 10
89.3963263814
 20
163.4524663514
 30
0.0
 10
89.3896304949
 20
163.4510147612
 30
0.0
 10
89.3837924031
 20
163.447597591
 30
0.0
 10
89.380767243
 20
163.4454366181
 30
0.0
  0
SPLINE
  5
6D4
100
AcDbEntity
  8
7_ALL_ROUNDS
100
AcDbSpline
 62
7
  6
CONTINUOUS
 70
0
 71
3
 72
8
 73
4
 74
0
 42
0.0000001
 43
0.0000001
 44
0.0000000001
 40
0.0
 40
0.0
 40
0.0
 40
0.0
 40
1.0
 40
1.0
 40
1.0
 40
1.0
 10
88.868694172
 20
163.4598622304
 30
0.0
 10
88.8410958709
 20
163.4598622304
 30
0.0
 10
88.7951715106
 20
163.4242144662
 30
0.0
 10
88.8103212053
 20
163.4011460251
 30
0.0
  0
SPLINE
  5
6D5
100
AcDbEntity
  8
0
100
AcDbSpline
 62
7
  6
CONTINUOUS
 70
0
 71
3
 72
15
 73
11
 74
0
 42
0.0000001
 43
0.0000001
 44
0.0000000001
 40
0.0
 40
0.0
 40
0.0
 40
0.0
 40
0.0488401982
 40
0.157086631
 40
0.314935057
 40
0.5
 40
0.685064943
 40
0.842913369
 40
0.9511598018
 40
1.0
 40
1.0
 40
1.0
 40
1.0
 10
82.3819609223
 20
157.3309670146
 30
0.0
 10
82.3819609223
 20
157.2339558438
 30
0.0
 10
82.7489305208
 20
157.0642439813
 30
0.0
 10
83.2991863756
 20
156.9552683019
 30
0.0
 10
84.2204510835
 20
156.8494352082
 30
0.0
 10
85.2619609223
 20
156.8208426496
 30
0.0
 10
86.3034707611
 20
156.8494352082
 30
0.0
 10
87.224735469
 20
156.9552683019
 30
0.0
 10
87.7749913238
 20
157.0642439813
 30
0.0
 10
88.1419609223
 20
157.2339558438
 30
0.0
 10
88.1419609223
 20
157.3309670146
 30
0.0
  0
LINE
  5
6D6
100
AcDbEntity
  8
0
100
AcDbLine
 62
7
  6
CONTINUOUS
 10
89.8878155792
 20
156.3587628332
 11
89.898509529
 21
156.3601433306
  0
SPLINE
  5
6D7
100
AcDbEntity
  8
0
100
AcDbSpline
 62
7
  6
CONTINUOUS
 70
0
 71
3
 72
11
 73
7
 74
0
 42
0.0000001
 43
0.0000001
 44
0.0000000001
 40
0.0
 40
0.0
 40
0.0
 40
0.0
 40
0.4101756122
 40
0.7134715865
 40
0.906617706
 40
1.0
 40
1.0
 40
1.0
 40
1.0
 10
89.898509529
 20
156.3601433306
 30
0.0
 10
90.0354522316
 20
156.3778865972
 30
0.0
 10
90.2715083792
 20
156.4110384953
 30
0.0
 10
90.575869022
 20
156.4790669985
 30
0.0
 10
90.7548915736
 20
156.5314614193
 30
0.0
 10
90.8499765907
 20
156.6005414573
 30
0.0
 10
90.8499765907
 20
156.6319790096
 30
0.0
  0
SPLINE
  5
6D8
100
AcDbEntity
  8
7_ALL_ROUNDS
100
AcDbSpline
 62
7
  6
CONTINUOUS
 70
0
 71
3
 72
8
 73
4
 74
0
 42
0.0000001
 43
0.0000001
 44
0.0000000001
 40
0.0
 40
0.0
 40
0.0
 40
0.0
 40
1.0
 40
1.0
 40
1.0
 40
1.0
 10
88.868694172
 20
163.4152384901
 30
0.0
 10
88.8410958709
 20
163.4152384901
 30
0.0
 10
88.7951715106
 20
163.3795907259
 30
0.0
 10
88.8103212053
 20
163.3565222848
 30
0.0
  0
SPLINE
  5
6D9
100
AcDbEntity
  8
7_ALL_ROUNDS
100
AcDbSpline
 62
7
  6
CONTINUOUS
 70
0
 71
3
 72
8
 73
4
 74
0
 42
0.0000001
 43
0.0000001
 44
0.0000000001
 40
0.0
 40
0.0
 40
0.0
 40
0.0
 40
1.0
 40
1.0
 40
1.0
 40
1.0
 10
88.868694172
 20
163.3706147498
 30
0.0
 10
88.8410958709
 20
163.3706147498
 30
0.0
 10
88.7951715106
 20
163.3349669856
 30
0.0
 10
88.8103212053
 20
163.3118985445
 30
0.0
  0
SPLINE
  5
6DA
100
AcDbEntity
  8
0
100
AcDbSpline
 62
7
  6
CONTINUOUS
 70
0
 71
3
 72
13
 73
9
 74
0
 42
0.0000001
 43
0.0000001
 44
0.0000000001
 40
0.0
 40
0.0
 40
0.0
 40
0.0
 40
0.2923040966
 40
0.6294764595
 40
0.7779282625
 40
0.8949352096
 40
0.9704958103
 40
1.0
 40
1.0
 40
1.0
 40
1.0
 10
88.9592339668
 20
157.7305060418
 30
0.0
 10
89.0440117923
 20
157.7224447868
 30
0.0
 10
89.2270896753
 20
157.7153495094
 30
0.0
 10
89.4553136942
 20
157.7160659177
 30
0.0
 10
89.6279794147
 20
157.7245955382
 30
0.0
 10
89.7325651596
 20
157.7326256214
 30
0.0
 10
89.7857058914
 20
157.7433146952
 30
0.0
 10
89.8277658456
 20
157.7513557503
 30
0.0
 10
89.8278199878
 20
157.7599513654
 30
0.0
  0
LINE
  5
6DB
100
AcDbEntity
  8
0
100
AcDbLine
 62
7
  6
CONTINUOUS
 10
82.3732120551
 20
157.6810112473
 11
82.4503724854
 21
157.6771710456
  0
SPLINE
  5
6DC
100
AcDbEntity
  8
0
100
AcDbSpline
 62
7
  6
CONTINUOUS
 70
0
 71
3
 72
11
 73
7
 74
0
 42
0.0000001
 43
0.0000001
 44
0.0000000001
 40
0.0
 40
0.0
 40
0.0
 40
0.0
 40
0.4114458999
 40
0.7165629887
 40
0.9099868693
 40
1.0
 40
1.0
 40
1.0
 40
1.0
 10
89.8414583122
 20
157.8112653232
 30
0.0
 10
90.0092227935
 20
157.8305312867
 30
0.0
 10
90.2982285055
 20
157.8666998589
 30
0.0
 10
90.6740723044
 20
157.9423551991
 30
0.0
 10
90.8900070692
 20
158.0001726045
 30
0.0
 10
91.0119609225
 20
158.0773712471
 30
0.0
 10
91.0119609225
 20
158.1143147593
 30
0.0
  0
SPLINE
  5
6DD
100
AcDbEntity
  8
0
100
AcDbSpline
 62
7
  6
CONTINUOUS
 70
0
 71
3
 72
12
 73
8
 74
0
 42
0.0000001
 43
0.0000001
 44
0.0000000001
 40
0.0
 40
0.0
 40
0.0
 40
0.0
 40
0.408243597
 40
0.7205691162
 40
0.9185418953
 40
0.9722512739
 40
1.0
 40
1.0
 40
1.0
 40
1.0
 10
82.3758153705
 20
157.7165595554
 30
0.0
 10
82.0254398904
 20
157.7358679509
 30
0.0
 10
81.4060229932
 20
157.7791789602
 30
0.0
 10
80.6253240609
 20
157.8629640559
 30
0.0
 10
80.1401966669
 20
157.9581267357
 30
0.0
 10
79.9207655162
 20
158.034337253
 30
0.0
 10
79.8610011987
 20
158.0926539069
 30
0.0
 10
79.8622519532
 20
158.1164725969
 30
0.0
  0
SPLINE
  5
6DE
100
AcDbEntity
  8
0
100
AcDbSpline
 62
7
  6
CONTINUOUS
 70
0
 71
3
 72
11
 73
7
 74
0
 42
0.0000001
 43
0.0000001
 44
0.0000000001
 40
0.0
 40
0.0
 40
0.0
 40
0.0
 40
0.1497858139
 40
0.5
 40
0.8502141861
 40
1.0
 40
1.0
 40
1.0
 40
1.0
 10
89.4283249141
 20
157.7599513632
 30
0.0
 10
89.4283249141
 20
157.7700548247
 30
0.0
 10
89.3749442865
 20
157.7609346148
 30
0.0
 10
89.3278249141
 20
157.7741450378
 30
0.0
 10
89.2807055417
 20
157.7609346148
 30
0.0
 10
89.2273249141
 20
157.7700548247
 30
0.0
 10
89.2273249141
 20
157.7599513632
 30
0.0
  0
SPLINE
  5
6DF
100
AcDbEntity
  8
0
100
AcDbSpline
 62
7
  6
CONTINUOUS
 70
0
 71
3
 72
11
 73
7
 74
0
 42
0.0000001
 43
0.0000001
 44
0.0000000001
 40
0.0
 40
0.0
 40
0.0
 40
0.0
 40
0.1497858139
 40
0.5
 40
0.8502141861
 40
1.0
 40
1.0
 40
1.0
 40
1.0
 10
81.2965969305
 20
157.7599513632
 30
0.0
 10
81.2965969305
 20
157.7700548247
 30
0.0
 10
81.2432163029
 20
157.7609346148
 30
0.0
 10
81.1960969305
 20
157.7741450378
 30
0.0
 10
81.1489775581
 20
157.7609346148
 30
0.0
 10
81.0955969305
 20
157.7700548247
 30
0.0
 10
81.0955969305
 20
157.7599513632
 30
0.0
  0
SPLINE
  5
6E0
100
AcDbEntity
  8
0
100
AcDbSpline
 62
7
  6
CONTINUOUS
 70
0
 71
3
 72
11
 73
7
 74
0
 42
0.0000001
 43
0.0000001
 44
0.0000000001
 40
0.0
 40
0.0
 40
0.0
 40
0.0
 40
0.0976680439
 40
0.3141679464
 40
0.629849849
 40
1.0
 40
1.0
 40
1.0
 40
1.0
 10
82.8472060786
 20
157.5730524565
 30
0.0
 10
82.8472060786
 20
157.4917228855
 30
0.0
 10
83.1548786809
 20
157.3494032918
 30
0.0
 10
83.6160868124
 20
157.2580520517
 30
0.0
 10
84.3895235664
 20
157.1693037359
 30
0.0
 10
84.9537316204
 20
157.1537308708
 30
0.0
 10
85.2619609223
 20
157.1537308708
 30
0.0
  0
LINE
  5
6E1
100
AcDbEntity
  8
0
100
AcDbLine
 62
7
  6
CONTINUOUS
 10
82.2053062646
 20
157.4168339876
 11
82.2633447211
 21
157.4137009745
  0
SPLINE
  5
6E2
100
AcDbEntity
  8
0
100
AcDbSpline
 62
7
  6
CONTINUOUS
 70
0
 71
3
 72
11
 73
7
 74
0
 42
0.0000001
 43
0.0000001
 44
0.0000000001
 40
0.0
 40
0.0
 40
0.0
 40
0.0
 40
0.0847847853
 40
0.2797170907
 40
0.5879904297
 40
1.0
 40
1.0
 40
1.0
 40
1.0
 10
91.7619609223
 20
156.6319790096
 30
0.0
 10
91.7619609223
 20
156.5773107542
 30
0.0
 10
91.5524879327
 20
156.4775195538
 30
0.0
 10
91.2209603681
 20
156.4007876885
 30
0.0
 10
90.617362444
 20
156.3034485207
 30
0.0
 10
90.1615332325
 20
156.2582584156
 30
0.0
 10
89.8969118498
 20
156.2348010579
 30
0.0
  0
SPLINE
  5
6E3
100
AcDbEntity
  8
0
100
AcDbSpline
 62
7
  6
CONTINUOUS
 70
0
 71
3
 72
9
 73
5
 74
0
 42
0.0000001
 43
0.0000001
 44
0.0000000001
 40
0.0
 40
0.0
 40
0.0
 40
0.0
 40
0.2308466178
 40
1.0
 40
1.0
 40
1.0
 40
1.0
 10
89.8969118498
 20
156.2348010579
 30
0.0
 10
89.796698412
 20
156.2259176394
 30
0.0
 10
89.3623623467
 20
156.1899599499
 30
0.0
 10
88.9273190509
 20
156.162899912
 30
0.0
 10
88.5925630083
 20
156.1454887429
 30
0.0
  0
SPLINE
  5
6E4
100
AcDbEntity
  8
7_ALL_ROUNDS
100
AcDbSpline
 62
7
  6
CONTINUOUS
 70
0
 71
3
 72
14
 73
10
 74
0
 42
0.0000001
 43
0.0000001
 44
0.0000000001
 40
0.0
 40
0.0
 40
0.0
 40
0.0
 40
0.3794066121
 40
0.5508595398
 40
0.7012357022
 40
0.8248400669
 40
0.9171365687
 40
0.9751746996
 40
1.0
 40
1.0
 40
1.0
 40
1.0
 10
85.2619609223
 20
160.5839410017
 30
0.0
 10
84.5908390937
 20
160.5839410017
 30
0.0
 10
83.6158389237
 20
160.5996027297
 30
0.0
 10
82.3777132769
 20
160.6555777238
 30
0.0
 10
81.5890848219
 20
160.7114767072
 30
0.0
 10
80.951396793
 20
160.7741252477
 30
0.0
 10
80.455169149
 20
160.8548410272
 30
0.0
 10
80.1857583008
 20
160.9147957666
 30
0.0
 10
80.0139213556
 20
160.999388137
 30
0.0
 10
80.0162241065
 20
161.0432405032
 30
0.0
  0
SPLINE
  5
6E5
100
AcDbEntity
  8
7_ALL_ROUNDS
100
AcDbSpline
 62
7
  6
CONTINUOUS
 70
0
 71
3
 72
18
 73
14
 74
0
 42
0.0000001
 43
0.0000001
 44
0.0000000001
 40
0.0
 40
0.0
 40
0.0
 40
0.0
 40
0.4307267335
 40
0.6130858437
 40
0.7581844451
 40
0.8139914922
 40
0.8575705044
 40
0.8884763284
 40
0.9069994467
 40
0.9169554605
 40
0.9324070565
 40
0.9598585732
 40
1.0
 40
1.0
 40
1.0
 40
1.0
 10
85.2619609223
 20
163.0599056466
 30
0.0
 10
84.7409891726
 20
163.0599056466
 30
0.0
 10
83.9990043098
 20
163.0737160989
 30
0.0
 10
83.0839444117
 20
163.128796805
 30
0.0
 10
82.6215268334
 20
163.1724884015
 30
0.0
 10
82.330073208
 20
163.2170533148
 30
0.0
 10
82.1734129475
 20
163.2467206624
 30
0.0
 10
82.0700114254
 20
163.2821400218
 30
0.0
 10
81.996145999
 20
163.3074582928
 30
0.0
 10
81.9812199319
 20
163.3689900934
 30
0.0
 10
82.0500391171
 20
163.4026388229
 30
0.0
 10
82.138236301
 20
163.4342362858
 30
0.0
 10
82.2206839147
 20
163.4519962854
 30
0.0
 10
82.2683282703
 20
163.4613392331
 30
0.0
  0
SPLINE
  5
6E6
100
AcDbEntity
  8
0
100
AcDbSpline
 62
7
  6
CONTINUOUS
 70
0
 71
3
 72
12
 73
8
 74
0
 42
0.0000001
 43
0.0000001
 44
0.0000000001
 40
0.0
 40
0.0
 40
0.0
 40
0.0
 40
0.3451643305
 40
0.6736290082
 40
0.9088541157
 40
0.9736807095
 40
1.0
 40
1.0
 40
1.0
 40
1.0
 10
89.1186118188
 20
156.2334690026
 30
0.0
 10
89.206354216
 20
156.2303104144
 30
0.0
 10
89.3789279191
 20
156.2283576826
 30
0.0
 10
89.6055019428
 20
156.2348503365
 30
0.0
 10
89.7745795727
 20
156.2472172656
 30
0.0
 10
89.8460543805
 20
156.2616754742
 30
0.0
 10
89.8758232945
 20
156.2709208519
 30
0.0
 10
89.8758449064
 20
156.2776156381
 30
0.0
  0
SPLINE
  5
6E7
100
AcDbEntity
  8
0
100
AcDbSpline
 62
7
  6
CONTINUOUS
 70
0
 71
3
 72
9
 73
5
 74
0
 42
0.0000001
 43
0.0000001
 44
0.0000000001
 40
0.0
 40
0.0
 40
0.0
 40
0.0
 40
0.2687192267
 40
1.0
 40
1.0
 40
1.0
 40
1.0
 10
82.0171762868
 20
156.1411027887
 30
0.0
 10
81.892525386
 20
156.1473617364
 30
0.0
 10
81.4287539474
 20
156.1724724476
 30
0.0
 10
80.9653302225
 20
156.2048106673
 30
0.0
 10
80.6270099948
 20
156.2348010579
 30
0.0
  0
SPLINE
  5
6E8
100
AcDbEntity
  8
0
100
AcDbSpline
 62
7
  6
CONTINUOUS
 70
0
 71
3
 72
11
 73
7
 74
0
 42
0.0000001
 43
0.0000001
 44
0.0000000001
 40
0.0
 40
0.0
 40
0.0
 40
0.0
 40
0.4120095703
 40
0.7202829093
 40
0.9152152147
 40
1.0
 40
1.0
 40
1.0
 40
1.0
 10
80.6270099948
 20
156.2348010579
 30
0.0
 10
80.3623886121
 20
156.2582584156
 30
0.0
 10
79.9065594006
 20
156.3034485207
 30
0.0
 10
79.3029614765
 20
156.4007876885
 30
0.0
 10
78.9714339119
 20
156.4775195538
 30
0.0
 10
78.7619609223
 20
156.5773107542
 30
0.0
 10
78.7619609223
 20
156.6319790096
 30
0.0
  0
SPLINE
  5
6E9
100
AcDbEntity
  8
0
100
AcDbSpline
 62
7
  6
CONTINUOUS
 70
0
 71
3
 72
11
 73
7
 74
0
 42
0.0000001
 43
0.0000001
 44
0.0000000001
 40
0.0
 40
0.0
 40
0.0
 40
0.0
 40
0.1606701818
 40
0.3298081889
 40
0.601187027
 40
1.0
 40
1.0
 40
1.0
 40
1.0
 10
89.8359734096
 20
162.6293820408
 30
0.0
 10
89.8444849415
 20
162.6202096358
 30
0.0
 10
89.8586395064
 20
162.5933516011
 30
0.0
 10
89.8271435076
 20
162.5510018128
 30
0.0
 10
89.770013667
 20
162.5207275255
 30
0.0
 10
89.7207687468
 20
162.5020942071
 30
0.0
 10
89.6912010634
 20
162.4925824383
 30
0.0
  0
SPLINE
  5
6EA
100
AcDbEntity
  8
7_ALL_ROUNDS
100
AcDbSpline
 62
7
  6
CONTINUOUS
 70
0
 71
3
 72
9
 73
5
 74
0
 42
0.0000001
 43
0.0000001
 44
0.0000000001
 40
0.0
 40
0.0
 40
0.0
 40
0.0
 40
0.5092232398
 40
1.0
 40
1.0
 40
1.0
 40
1.0
 10
89.4295297101
 20
163.355468711
 30
0.0
 10
89.4295424682
 20
163.3611908912
 30
0.0
 10
89.4284827133
 20
163.37244484
 30
0.0
 10
89.4253035267
 20
163.3833386557
 30
0.0
 10
89.4230545713
 20
163.3883741721
 30
0.0
  0
SPLINE
  5
6EB
100
AcDbEntity
  8
7_ALL_ROUNDS
100
AcDbSpline
 62
7
  6
CONTINUOUS
 70
0
 71
3
 72
9
 73
5
 74
0
 42
0.0000001
 43
0.0000001
 44
0.0000000001
 40
0.0
 40
0.0
 40
0.0
 40
0.0
 40
0.531845303
 40
1.0
 40
1.0
 40
1.0
 40
1.0
 10
89.4230545713
 20
163.3883741721
 30
0.0
 10
89.4207346199
 20
163.3935686521
 30
0.0
 10
89.4151059571
 20
163.4031296148
 30
0.0
 10
89.4043012201
 20
163.4078426111
 30
0.0
 10
89.3992934948
 20
163.4078426111
 30
0.0
  0
SPLINE
  5
6EC
100
AcDbEntity
  8
7_ALL_ROUNDS
100
AcDbSpline
 62
7
  6
CONTINUOUS
 70
0
 71
3
 72
9
 73
5
 74
0
 42
0.0000001
 43
0.0000001
 44
0.0000000001
 40
0.0
 40
0.0
 40
0.0
 40
0.0
 40
0.4438578894
 40
1.0
 40
1.0
 40
1.0
 40
1.0
 10
89.3992934948
 20
163.4078426111
 30
0.0
 10
89.3963263814
 20
163.4078426111
 30
0.0
 10
89.3896304949
 20
163.4063910209
 30
0.0
 10
89.3837924031
 20
163.4029738507
 30
0.0
 10
89.380767243
 20
163.4008128778
 30
0.0
  0
SPLINE
  5
6ED
100
AcDbEntity
  8
7_ALL_ROUNDS
100
AcDbSpline
 62
7
  6
CONTINUOUS
 70
0
 71
3
 72
8
 73
4
 74
0
 42
0.0000001
 43
0.0000001
 44
0.0000000001
 40
0.0
 40
0.0
 40
0.0
 40
0.0
 40
1.0
 40
1.0
 40
1.0
 40
1.0
 10
88.2555935715
 20
163.461339233
 30
0.0
 10
88.2848681285
 20
163.4555985604
 30
0.0
 10
88.3140605358
 20
163.4493850062
 30
0.0
 10
88.3430596609
 20
163.4423845953
 30
0.0
  0
SPLINE
  5
6EE
100
AcDbEntity
  8
7_ALL_ROUNDS
100
AcDbSpline
 62
7
  6
CONTINUOUS
 70
0
 71
3
 72
18
 73
14
 74
0
 42
0.0000001
 43
0.0000001
 44
0.0000000001
 40
0.0
 40
0.0
 40
0.0
 40
0.0
 40
0.0326695066
 40
0.0533961706
 40
0.0643549992
 40
0.0769178787
 40
0.1001735579
 40
0.135464357
 40
0.1827369379
 40
0.2414498919
 40
0.3900298628
 40
0.5730832115
 40
1.0
 40
1.0
 40
1.0
 40
1.0
 10
88.3430596609
 20
163.4423845953
 30
0.0
 10
88.3805291887
 20
163.4333394228
 30
0.0
 10
88.4409783598
 20
163.4140538558
 30
0.0
 10
88.512061533
 20
163.3903130317
 30
0.0
 10
88.548713012
 20
163.3386073491
 30
0.0
 10
88.4968313867
 20
163.2952258143
 30
0.0
 10
88.4222090588
 20
163.2691154709
 30
0.0
 10
88.2991430555
 20
163.2361801204
 30
0.0
 10
88.1358509022
 20
163.207241664
 30
0.0
 10
87.8378715898
 20
163.1657738873
 30
0.0
 10
87.3792482093
 20
163.1243619601
 30
0.0
 10
86.4855286812
 20
163.0730565188
 30
0.0
 10
85.7656679484
 20
163.0599056466
 30
0.0
 10
85.2619609223
 20
163.0599056466
 30
0.0
  0
SPLINE
  5
6EF
100
AcDbEntity
  8
0
100
AcDbSpline
 62
7
  6
CONTINUOUS
 70
0
 71
3
 72
11
 73
7
 74
0
 42
0.0000001
 43
0.0000001
 44
0.0000000001
 40
0.0
 40
0.0
 40
0.0
 40
0.0
 40
0.248843496
 40
0.4982782031
 40
0.7488812931
 40
1.0
 40
1.0
 40
1.0
 40
1.0
 10
75.6297523463
 20
149.6922665502
 30
0.0
 10
76.1369270986
 20
150.2108358841
 30
0.0
 10
77.1531077683
 20
151.2482916873
 30
0.0
 10
78.6843536707
 20
152.8054361085
 30
0.0
 10
80.2333753926
 20
154.3479431298
 30
0.0
 10
81.3007927655
 20
155.361065365
 30
0.0
 10
81.9026500247
 20
155.7776867247
 30
0.0
  0
SPLINE
  5
6F0
100
AcDbEntity
  8
0
100
AcDbSpline
 62
7
  6
CONTINUOUS
 70
0
 71
3
 72
11
 73
7
 74
0
 42
0.0000001
 43
0.0000001
 44
0.0000000001
 40
0.0
 40
0.0
 40
0.0
 40
0.0
 40
0.0803874861
 40
0.2766626647
 40
0.5879271819
 40
1.0
 40
1.0
 40
1.0
 40
1.0
 10
90.6616698914
 20
158.1164725969
 30
0.0
 10
90.6646240121
 20
158.0602159241
 30
0.0
 10
90.4209992498
 20
157.9666709422
 30
0.0
 10
90.0709759447
 20
157.8945165864
 30
0.0
 10
89.4025307688
 20
157.8051363771
 30
0.0
 10
88.9062913556
 20
157.7655662206
 30
0.0
 10
88.6182059124
 20
157.7456418829
 30
0.0
  0
LINE
  5
6F1
100
AcDbEntity
  8
0
100
AcDbLine
 62
7
  6
CONTINUOUS
 10
88.6182059124
 20
157.7456418829
 11
88.6056818395
 21
157.7447783314
  0
SPLINE
  5
6F2
100
AcDbEntity
  8
7_ALL_ROUNDS
100
AcDbSpline
 62
7
  6
CONTINUOUS
 70
0
 71
3
 72
14
 73
10
 74
0
 42
0.0000001
 43
0.0000001
 44
0.0000000001
 40
0.0
 40
0.0
 40
0.0
 40
0.0
 40
0.0248253017
 40
0.0828634325
 40
0.1751599354
 40
0.2987643033
 40
0.449140464
 40
0.620593393
 40
1.0
 40
1.0
 40
1.0
 40
1.0
 10
90.5076977381
 20
161.0432405032
 30
0.0
 10
90.5100004895
 20
160.9993881346
 30
0.0
 10
90.3381635354
 20
160.9147957686
 30
0.0
 10
90.0687526888
 20
160.8548410212
 30
0.0
 10
89.5725250338
 20
160.7741252485
 30
0.0
 10
88.9348370021
 20
160.7114767035
 30
0.0
 10
88.1462085415
 20
160.6555777231
 30
0.0
 10
86.908082905
 20
160.5996027288
 30
0.0
 10
85.9330827417
 20
160.5839410017
 30
0.0
 10
85.2619609223
 20
160.5839410017
 30
0.0
  0
SPLINE
  5
6F3
100
AcDbEntity
  8
0
100
AcDbSpline
 62
7
  6
CONTINUOUS
 70
0
 71
3
 72
9
 73
5
 74
0
 42
0.0000001
 43
0.0000001
 44
0.0000000001
 40
0.0
 40
0.0
 40
0.0
 40
0.0
 40
0.2489480249
 40
1.0
 40
1.0
 40
1.0
 40
1.0
 10
71.6854633853
 20
146.7060102117
 30
0.0
 10
72.2614969657
 20
147.2497667443
 30
0.0
 10
74.5755421985
 20
149.4337965951
 30
0.0
 10
76.88474896
 20
151.6229719147
 30
0.0
 10
78.6273666996
 20
153.2583534258
 30
0.0
  0
SPLINE
  5
6F4
100
AcDbEntity
  8
7_ALL_ROUNDS
100
AcDbSpline
 62
7
  6
CONTINUOUS
 70
0
 71
3
 72
9
 73
5
 74
0
 42
0.0000001
 43
0.0000001
 44
0.0000000001
 40
0.0
 40
0.0
 40
0.0
 40
0.0
 40
0.5092232398
 40
1.0
 40
1.0
 40
1.0
 40
1.0
 10
89.4295297101
 20
163.3108449708
 30
0.0
 10
89.4295424682
 20
163.3165671509
 30
0.0
 10
89.4284827133
 20
163.3278210997
 30
0.0
 10
89.4253035267
 20
163.3387149154
 30
0.0
 10
89.4230545713
 20
163.3437504318
 30
0.0
  0
SPLINE
  5
6F5
100
AcDbEntity
  8
7_ALL_ROUNDS
100
AcDbSpline
 62
7
  6
CONTINUOUS
 70
0
 71
3
 72
9
 73
5
 74
0
 42
0.0000001
 43
0.0000001
 44
0.0000000001
 40
0.0
 40
0.0
 40
0.0
 40
0.0
 40
0.531845303
 40
1.0
 40
1.0
 40
1.0
 40
1.0
 10
89.4230545713
 20
163.3437504318
 30
0.0
 10
89.4207346199
 20
163.3489449118
 30
0.0
 10
89.4151059571
 20
163.3585058745
 30
0.0
 10
89.4043012201
 20
163.3632188708
 30
0.0
 10
89.3992934948
 20
163.3632188708
 30
0.0
  0
SPLINE
  5
6F6
100
AcDbEntity
  8
7_ALL_ROUNDS
100
AcDbSpline
 62
7
  6
CONTINUOUS
 70
0
 71
3
 72
9
 73
5
 74
0
 42
0.0000001
 43
0.0000001
 44
0.0000000001
 40
0.0
 40
0.0
 40
0.0
 40
0.0
 40
0.4438578894
 40
1.0
 40
1.0
 40
1.0
 40
1.0
 10
89.3992934948
 20
163.3632188708
 30
0.0
 10
89.3963263814
 20
163.3632188708
 30
0.0
 10
89.3896304949
 20
163.3617672807
 30
0.0
 10
89.3837924031
 20
163.3583501104
 30
0.0
 10
89.380767243
 20
163.3561891375
 30
0.0
  0
SPLINE
  5
6F7
100
AcDbEntity
  8
0
100
AcDbSpline
 62
7
  6
CONTINUOUS
 70
0
 71
3
 72
13
 73
9
 74
0
 42
0.0000001
 43
0.0000001
 44
0.0000000001
 40
0.0
 40
0.0
 40
0.0
 40
0.0
 40
0.0295041897
 40
0.1050647904
 40
0.2220717375
 40
0.3705235405
 40
0.7076959034
 40
1.0
 40
1.0
 40
1.0
 40
1.0
 10
80.6961018568
 20
157.7599513654
 30
0.0
 10
80.696155999
 20
157.7513557503
 30
0.0
 10
80.7382159532
 20
157.7433146952
 30
0.0
 10
80.791356685
 20
157.7326256214
 30
0.0
 10
80.8959424299
 20
157.7245955382
 30
0.0
 10
81.0686081504
 20
157.7160659177
 30
0.0
 10
81.2968321694
 20
157.7153495094
 30
0.0
 10
81.4799100523
 20
157.7224447868
 30
0.0
 10
81.5646878778
 20
157.7305060418
 30
0.0
  0
SPLINE
  5
6F8
100
AcDbEntity
  8
0
100
AcDbSpline
 62
7
  6
CONTINUOUS
 70
0
 71
3
 72
9
 73
5
 74
0
 42
0.0000001
 43
0.0000001
 44
0.0000000001
 40
0.0
 40
0.0
 40
0.0
 40
0.0
 40
0.6602798493
 40
1.0
 40
1.0
 40
1.0
 40
1.0
 10
81.8886798336
 20
157.3672989644
 30
0.0
 10
81.8760845844
 20
157.3692186983
 30
0.0
 10
81.8579210652
 20
157.3731078708
 30
0.0
 10
81.8377181571
 20
157.3781158076
 30
0.0
 10
81.8332943793
 20
157.382953268
 30
0.0
  0
SPLINE
  5
6F9
100
AcDbEntity
  8
0
100
AcDbSpline
 62
7
  6
CONTINUOUS
 70
0
 71
3
 72
9
 73
5
 74
0
 42
0.0000001
 43
0.0000001
 44
0.0000000001
 40
0.0
 40
0.0
 40
0.0
 40
0.0
 40
0.5413685939
 40
1.0
 40
1.0
 40
1.0
 40
1.0
 10
81.8332943793
 20
157.382953268
 30
0.0
 10
81.8328928849
 20
157.3833923075
 30
0.0
 10
81.8322275845
 20
157.384291982
 30
0.0
 10
81.8319546999
 20
157.3853983472
 30
0.0
 10
81.8319565124
 20
157.3859023593
 30
0.0
  0
SPLINE
  5
6FA
100
AcDbEntity
  8
0
100
AcDbSpline
 62
7
  6
CONTINUOUS
 70
0
 71
3
 72
9
 73
5
 74
0
 42
0.0000001
 43
0.0000001
 44
0.0000000001
 40
0.0
 40
0.0
 40
0.0
 40
0.0
 40
0.3445526853
 40
1.0
 40
1.0
 40
1.0
 40
1.0
 10
80.69612153
 20
157.4082417175
 30
0.0
 10
80.6961310062
 20
157.4060442197
 30
0.0
 10
80.7016116389
 20
157.4008775232
 30
0.0
 10
80.7073573645
 20
157.3989388895
 30
0.0
 10
80.7113087432
 20
157.3975743039
 30
0.0
  0
SPLINE
  5
6FB
100
AcDbEntity
  8
0
100
AcDbSpline
 62
7
  6
CONTINUOUS
 70
0
 71
3
 72
9
 73
5
 74
0
 42
0.0000001
 43
0.0000001
 44
0.0000000001
 40
0.0
 40
0.0
 40
0.0
 40
0.0
 40
0.2991541202
 40
1.0
 40
1.0
 40
1.0
 40
1.0
 10
82.2565205972
 20
157.4031078447
 30
0.0
 10
82.242488345
 20
157.4030674528
 30
0.0
 10
82.1956205248
 20
157.4022568638
 30
0.0
 10
82.1485392164
 20
157.4006960476
 30
0.0
 10
82.1160356418
 20
157.3957728121
 30
0.0
  0
SPLINE
  5
6FC
100
AcDbEntity
  8
0
100
AcDbSpline
 62
7
  6
CONTINUOUS
 70
0
 71
3
 72
9
 73
5
 74
0
 42
0.0000001
 43
0.0000001
 44
0.0000000001
 40
0.0
 40
0.0
 40
0.0
 40
0.0
 40
0.7131649305
 40
1.0
 40
1.0
 40
1.0
 40
1.0
 10
82.1160356418
 20
157.3957728121
 30
0.0
 10
82.1103763986
 20
157.3949156207
 30
0.0
 10
82.1041762718
 20
157.3935197514
 30
0.0
 10
82.0934609223
 20
157.3907320516
 30
0.0
 10
82.0934609223
 20
157.3884299408
 30
0.0
  0
SPLINE
  5
6FD
100
AcDbEntity
  8
0
100
AcDbSpline
 62
7
  6
CONTINUOUS
 70
0
 71
3
 72
11
 73
7
 74
0
 42
0.0000001
 43
0.0000001
 44
0.0000000001
 40
0.0
 40
0.0
 40
0.0
 40
0.0
 40
0.0900131307
 40
0.2834370113
 40
0.5885541001
 40
1.0
 40
1.0
 40
1.0
 40
1.0
 10
79.5119609221
 20
158.1143147593
 30
0.0
 10
79.5119609221
 20
158.0773712471
 30
0.0
 10
79.6339147754
 20
158.0001726045
 30
0.0
 10
79.8498495402
 20
157.9423551991
 30
0.0
 10
80.2256933392
 20
157.8666998589
 30
0.0
 10
80.5146990511
 20
157.8305312867
 30
0.0
 10
80.6824635324
 20
157.8112653232
 30
0.0
  0
SPLINE
  5
6FE
100
AcDbEntity
  8
0
100
AcDbSpline
 62
7
  6
CONTINUOUS
 70
0
 71
3
 72
9
 73
5
 74
0
 42
0.0000001
 43
0.0000001
 44
0.0000000001
 40
0.0
 40
0.0
 40
0.0
 40
0.0
 40
0.2489497196
 40
1.0
 40
1.0
 40
1.0
 40
1.0
 10
98.8384584254
 20
146.7060102454
 30
0.0
 10
98.262805937
 20
147.2494070453
 30
0.0
 10
95.9503095898
 20
149.4319795309
 30
0.0
 10
93.6426282662
 20
151.6196724023
 30
0.0
 10
91.9012075045
 20
153.2539873525
 30
0.0
  0
SPLINE
  5
6FF
100
AcDbEntity
  8
0
100
AcDbSpline
 62
7
  6
CONTINUOUS
 70
0
 71
3
 72
11
 73
7
 74
0
 42
0.0000001
 43
0.0000001
 44
0.0000000001
 40
0.0
 40
0.0
 40
0.0
 40
0.0
 40
0.2488435052
 40
0.4982782212
 40
0.7488813196
 40
1.0
 40
1.0
 40
1.0
 40
1.0
 10
94.8941701487
 20
149.6922658841
 30
0.0
 10
94.3869955356
 20
150.2108350779
 30
0.0
 10
93.3708152297
 20
151.2482907227
 30
0.0
 10
91.839569357
 20
152.8054341492
 30
0.0
 10
90.2905496622
 20
154.3479428555
 30
0.0
 10
89.223128985
 20
155.3610594403
 30
0.0
 10
88.6212744751
 20
155.7776842377
 30
0.0
  0
SPLINE
  5
700
100
AcDbEntity
  8
0
100
AcDbSpline
 62
7
  6
CONTINUOUS
 70
0
 71
3
 72
9
 73
5
 74
0
 42
0.0000001
 43
0.0000001
 44
0.0000000001
 40
0.0
 40
0.0
 40
0.0
 40
0.0
 40
0.6602798493
 40
1.0
 40
1.0
 40
1.0
 40
1.0
 10
88.635242011
 20
157.3672989644
 30
0.0
 10
88.6478372602
 20
157.3692186983
 30
0.0
 10
88.6660007794
 20
157.3731078708
 30
0.0
 10
88.6862036875
 20
157.3781158076
 30
0.0
 10
88.6906274653
 20
157.382953268
 30
0.0
  0
SPLINE
  5
701
100
AcDbEntity
  8
0
100
AcDbSpline
 62
7
  6
CONTINUOUS
 70
0
 71
3
 72
9
 73
5
 74
0
 42
0.0000001
 43
0.0000001
 44
0.0000000001
 40
0.0
 40
0.0
 40
0.0
 40
0.0
 40
0.5413685939
 40
1.0
 40
1.0
 40
1.0
 40
1.0
 10
88.6906274653
 20
157.382953268
 30
0.0
 10
88.6910289597
 20
157.3833923075
 30
0.0
 10
88.6916942601
 20
157.384291982
 30
0.0
 10
88.6919671447
 20
157.3853983472
 30
0.0
 10
88.6919653322
 20
157.3859023593
 30
0.0
  0
SPLINE
  5
702
100
AcDbEntity
  8
7_ALL_ROUNDS
100
AcDbSpline
 62
7
  6
CONTINUOUS
 70
0
 71
3
 72
9
 73
5
 74
0
 42
0.0000001
 43
0.0000001
 44
0.0000000001
 40
0.0
 40
0.0
 40
0.0
 40
0.0
 40
0.5517814186
 40
1.0
 40
1.0
 40
1.0
 40
1.0
 10
89.4295297101
 20
163.2664826977
 30
0.0
 10
89.4295629676
 20
163.2813992186
 30
0.0
 10
89.4282125192
 20
163.3150532496
 30
0.0
 10
89.390626945
 20
163.3188699791
 30
0.0
 10
89.380767243
 20
163.3118268645
 30
0.0
  0
SPLINE
  5
703
100
AcDbEntity
  8
0
100
AcDbSpline
 62
7
  6
CONTINUOUS
 70
0
 71
3
 72
9
 73
5
 74
0
 42
0.0000001
 43
0.0000001
 44
0.0000000001
 40
0.0
 40
0.0
 40
0.0
 40
0.0
 40
0.2716820527
 40
1.0
 40
1.0
 40
1.0
 40
1.0
 10
88.2874960704
 20
154.9098194674
 30
0.0
 10
88.2743461331
 20
154.9857619262
 30
0.0
 10
88.2349365803
 20
155.2669217209
 30
0.0
 10
88.2222482303
 20
155.5507174837
 30
0.0
 10
88.200212611
 20
155.7561530813
 30
0.0
  0
SPLINE
  5
704
100
AcDbEntity
  8
7_ALL_ROUNDS
100
AcDbSpline
 62
7
  6
CONTINUOUS
 70
0
 71
3
 72
8
 73
4
 74
0
 42
0.0000001
 43
0.0000001
 44
0.0000000001
 40
0.0
 40
0.0
 40
0.0
 40
0.0
 40
1.0
 40
1.0
 40
1.0
 40
1.0
 10
88.868694172
 20
163.3262524768
 30
0.0
 10
88.8410958709
 20
163.3262524768
 30
0.0
 10
88.7951715106
 20
163.2906047126
 30
0.0
 10
88.8103212053
 20
163.2675362715
 30
0.0
  0
SPLINE
  5
705
100
AcDbEntity
  8
0
100
AcDbSpline
 62
7
  6
CONTINUOUS
 70
0
 71
3
 72
9
 73
5
 74
0
 42
0.0000001
 43
0.0000001
 44
0.0000000001
 40
0.0
 40
0.0
 40
0.0
 40
0.0
 40
0.2713158072
 40
1.0
 40
1.0
 40
1.0
 40
1.0
 10
82.2396044124
 20
154.9284407726
 30
0.0
 10
82.2520934607
 20
155.0026580061
 30
0.0
 10
82.2893001362
 20
155.2777425387
 30
0.0
 10
82.3021565669
 20
155.5551745236
 30
0.0
 10
82.3237089706
 20
155.7561530402
 30
0.0
  0
SPLINE
  5
706
100
AcDbEntity
  8
0
100
AcDbSpline
 62
7
  6
CONTINUOUS
 70
0
 71
3
 72
14
 73
10
 74
0
 42
0.0000001
 43
0.0000001
 44
0.0000000001
 40
0.0
 40
0.0
 40
0.0
 40
0.0
 40
0.2409992237
 40
0.4839246377
 40
0.6070008818
 40
0.7326414583
 40
0.8639633184
 40
0.9321100039
 40
1.0
 40
1.0
 40
1.0
 40
1.0
 10
161.5666660878
 20
87.0521525228
 30
0.0
 10
162.3315774849
 20
87.642054779
 30
0.0
 10
163.8679295883
 20
88.8261478872
 30
0.0
 10
165.794805787
 20
90.3111007654
 30
0.0
 10
167.3491157456
 20
91.5233120125
 30
0.0
 10
168.5345886655
 20
92.47728925
 30
0.0
 10
169.5141640022
 20
93.3468966912
 30
0.0
 10
170.1599086659
 20
94.2082693682
 30
0.0
 10
170.4175604441
 20
94.6900729911
 30
0.0
 10
170.5417267608
 20
94.9322048617
 30
0.0
  0
SPLINE
  5
707
100
AcDbEntity
  8
0
100
AcDbSpline
 62
7
  6
CONTINUOUS
 70
0
 71
3
 72
15
 73
11
 74
0
 42
0.0000001
 43
0.0000001
 44
0.0000000001
 40
0.0
 40
0.0
 40
0.0
 40
0.0
 40
0.2592432327
 40
0.5175445306
 40
0.645795685
 40
0.7723966121
 40
0.8343001238
 40
0.8941402101
 40
0.950130352
 40
1.0
 40
1.0
 40
1.0
 40
1.0
 10
161.5667493393
 20
91.7840342851
 30
0.0
 10
162.3196067788
 20
92.133396664
 30
0.0
 10
163.8252411551
 20
92.8250196099
 30
0.0
 10
165.7158946153
 20
93.6625693201
 30
0.0
 10
167.236338718
 20
94.2848517376
 30
0.0
 10
168.1889935268
 20
94.6348524485
 30
0.0
 10
168.9532541082
 20
94.8557188635
 30
0.0
 10
169.5126266135
 20
94.9665979476
 30
0.0
 10
170.0459101485
 20
94.9883907864
 30
0.0
 10
170.3822751638
 20
94.9403207133
 30
0.0
 10
170.5417267608
 20
94.9322048617
 30
0.0
  0
SPLINE
  5
708
100
AcDbEntity
  8
0
100
AcDbSpline
 62
7
  6
CONTINUOUS
 70
0
 71
3
 72
15
 73
11
 74
0
 42
0.0000001
 43
0.0000001
 44
0.0000000001
 40
0.0
 40
0.0
 40
0.0
 40
0.0
 40
0.258815019
 40
0.5166875113
 40
0.6447578772
 40
0.7712951973
 40
0.8332856162
 40
0.893389443
 40
0.9498749103
 40
1.0
 40
1.0
 40
1.0
 40
1.0
 10
161.5668031661
 20
100.1824448269
 30
0.0
 10
162.304543286
 20
100.0029001738
 30
0.0
 10
163.7786624146
 20
99.6500049348
 30
0.0
 10
165.6240651378
 20
99.2339312651
 30
0.0
 10
167.0990602423
 20
98.942389443
 30
0.0
 10
168.0162249785
 20
98.7932970775
 30
0.0
 10
168.742761637
 20
98.7212899179
 30
0.0
 10
169.2667110704
 20
98.7132917771
 30
0.0
 10
169.7573332469
 20
98.7665345772
 30
0.0
 10
170.0500927116
 20
98.8828487214
 30
0.0
 10
170.1930911872
 20
98.9171277026
 30
0.0
  0
SPLINE
  5
709
100
AcDbEntity
  8
0
100
AcDbSpline
 62
7
  6
CONTINUOUS
 70
0
 71
3
 72
14
 73
10
 74
0
 42
0.0000001
 43
0.0000001
 44
0.0000000001
 40
0.0
 40
0.0
 40
0.0
 40
0.0
 40
0.2413994719
 40
0.4849642328
 40
0.6085953512
 40
0.7350965351
 40
0.866500021
 40
0.9333839195
 40
1.0
 40
1.0
 40
1.0
 40
1.0
 10
161.566682932
 20
104.357054314
 30
0.0
 10
162.2998253038
 20
103.972884778
 30
0.0
 10
163.7725548067
 20
103.2007688674
 30
0.0
 10
165.6193333222
 20
102.2295699299
 30
0.0
 10
167.1081358267
 20
101.4232018983
 30
0.0
 10
168.244521452
 20
100.7770143329
 30
0.0
 10
169.1645197816
 20
100.136445476
 30
0.0
 10
169.7919596834
 20
99.4744220852
 30
0.0
 10
170.0578162676
 20
99.1011704055
 30
0.0
 10
170.1930911871
 20
98.9171277037
 30
0.0
  0
ENDSEC
  0
SECTION
  2
OBJECTS
  0
DICTIONARY
  5
C
100
AcDbDictionary
280
0
281
1
  3
ACAD_GROUP
350
D
  3
ACAD_MLINESTYLE
350
17
  3
ACAD_LAYOUT
350
1A
  3
ACAD_PLOTSETTINGS
350
19
  3
ACAD_PLOTSTYLENAME
350
E
  0
DICTIONARY
  5
D
102
{ACAD_REACTORS
330
C
102
}
100
AcDbDictionary
280
0
281
1
  0
ACDBDICTIONARYWDFLT
  5
E
102
{ACAD_REACTORS
330
C
102
}
100
AcDbDictionary
281
1
  3
Normal
350
F
100
AcDbDictionaryWithDefault
340
F
  0
DICTIONARY
  5
17
102
{ACAD_REACTORS
330
C
102
}
100
AcDbDictionary
280
0
281
1
  3
Standard
350
18
  0
DICTIONARY
  5
19
102
{ACAD_REACTORS
330
C
102
}
100
AcDbDictionary
281
1
  0
DICTIONARY
  5
1A
102
{ACAD_REACTORS
330
C
102
}
100
AcDbDictionary
281
1
  3
Model
350
70A
  3
Layout1
350
70B
  0
ACDBPLACEHOLDER
  5
F
102
{ACAD_REACTORS
330
E
102
}
  0
MLINESTYLE
  5
18
102
{ACAD_REACTORS
330
17
102
}
100
AcDbMlineStyle
  2
STANDARD
 70
0
  3

 62
256
 51
90.0
 52
90.0
 71
2
 49
0.5
 62
256
  6
BYLAYER
 49
-0.5
 62
256
  6
BYLAYER
  0
LAYOUT
  5
70A
102
{ACAD_REACTORS
330
1A
102
}
100
AcDbPlotSettings
  1

  2
none_device
  4
ANSI_D_(34.00_x_22.00_Inches)
  6

 40
0.0
 41
0.0
 42
0.0
 43
0.0
 44
863.6
 45
558.8
 46
0.0
 47
0.0
 48
0.0
 49
0.0
140
0.0
141
0.0
142
1.0
143
1.0
 70
1024
 72
0
 73
0
 74
0
  7

 75
0
147
1.0
148
0.0
149
0.0
100
AcDbLayout
  1
Model
 70
0
 71
0
 10
0.0
 20
0.0
 11
34.0
 21
22.0
 12
0.0
 22
0.0
 32
0.0
 14
0.0
 24
0.0
 34
0.0
 15
0.0
 25
0.0
 35
0.0
146
0.0
 13
0.0
 23
0.0
 33
0.0
 16
1.0
 26
0.0
 36
0.0
 17
0.0
 27
1.0
 37
0.0
 76
0
330
210
345
0
346
0
  0
LAYOUT
  5
70B
102
{ACAD_REACTORS
330
1A
102
}
100
AcDbPlotSettings
  1

  2
none_device
  4
ANSI_D_(34.00_x_22.00_Inches)
  6

 40
0.0
 41
0.0
 42
0.0
 43
0.0
 44
863.6
 45
558.8
 46
0.0
 47
0.0
 48
0.0
 49
0.0
140
0.0
141
0.0
142
1.0
143
1.0
 70
0
 72
0
 73
0
 74
0
  7

 75
0
147
1.0
148
0.0
149
0.0
100
AcDbLayout
  1
Layout1
 70
0
 71
1
 10
0.0
 20
0.0
 11
34.0
 21
22.0
 12
0.0
 22
0.0
 32
0.0
 14
0.0
 24
0.0
 34
0.0
 15
0.0
 25
0.0
 35
0.0
146
0.0
 13
0.0
 23
0.0
 33
0.0
 16
1.0
 26
0.0
 36
0.0
 17
0.0
 27
1.0
 37
0.0
 76
0
330
211
345
0
346
0
  0
ENDSEC
  0
EOF
