  0
SECTION
  2
HEADER
  9
$ACADVER
  1
AC1015
  9
$ACADMAINTVER
 70
    13
  9
$DWGCODEPAGE
  3
ANSI_1252
  9
$INSBASE
 10
0.0
 20
0.0
 30
0.0
  9
$EXTMIN
 10
-0.0547052051267656
 20
-0.0038426610927615
 30
-0.0015258207003583
  9
$EXTMAX
 10
162.9679365773872
 20
126.0450578019874
 30
0.0000000349246037
  9
$LIMMIN
 10
0.0
 20
0.0
  9
$LIMMAX
 10
162.9629629629999
 20
125.9259259258999
  9
$ORTHOMODE
 70
     0
  9
$REGENMODE
 70
     1
  9
$FILLMODE
 70
     1
  9
$QTEXTMODE
 70
     0
  9
$MIRRTEXT
 70
     1
  9
$LTSCALE
 40
8.962962962999998
  9
$ATTMODE
 70
     1
  9
$TEXTSIZE
 40
0.2
  9
$TRACEWID
 40
0.05
  9
$TEXTSTYLE
  7
STANDARD
  9
$CLAYER
  8
0
  9
$CELTYPE
  6
BYLAYER
  9
$CECOLOR
 62
   256
  9
$CELTSCALE
 40
1.0
  9
$DISPSILH
 70
     0
  9
$DIMSCALE
 40
1.0
  9
$DIMASZ
 40
1.388888888899999
  9
$DIMEXO
 40
0.0625
  9
$DIMDLI
 40
0.38
  9
$DIMRND
 40
0.0
  9
$DIMDLE
 40
0.0
  9
$DIMEXE
 40
0.18
  9
$DIMTP
 40
0.0
  9
$DIMTM
 40
0.0
  9
$DIMTXT
 40
1.1574074074
  9
$DIMCEN
 40
0.09
  9
$DIMTSZ
 40
0.0
  9
$DIMTOL
 70
     0
  9
$DIMLIM
 70
     0
  9
$DIMTIH
 70
     1
  9
$DIMTOH
 70
     1
  9
$DIMSE1
 70
     0
  9
$DIMSE2
 70
     0
  9
$DIMTAD
 70
     0
  9
$DIMZIN
 70
     4
  9
$DIMBLK
  1
CLOSED
  9
$DIMASO
 70
     1
  9
$DIMSHO
 70
     1
  9
$DIMPOST
  1
\X
  9
$DIMAPOST
  1

  9
$DIMALT
 70
     1
  9
$DIMALTD
 70
     1
  9
$DIMALTF
 40
25.4
  9
$DIMLFAC
 40
1.0
  9
$DIMTOFL
 70
     0
  9
$DIMTVP
 40
0.0
  9
$DIMTIX
 70
     0
  9
$DIMSOXD
 70
     0
  9
$DIMSAH
 70
     0
  9
$DIMBLK1
  1
CLOSED
  9
$DIMBLK2
  1
CLOSED
  9
$DIMSTYLE
  2
DIMSTYLE_1
  9
$DIMCLRD
 70
     0
  9
$DIMCLRE
 70
     0
  9
$DIMCLRT
 70
     0
  9
$DIMTFAC
 40
1.0
  9
$DIMGAP
 40
1.0
  9
$DIMJUST
 70
     0
  9
$DIMSD1
 70
     0
  9
$DIMSD2
 70
     0
  9
$DIMTOLJ
 70
     1
  9
$DIMTZIN
 70
     4
  9
$DIMALTZ
 70
     0
  9
$DIMALTTZ
 70
     0
  9
$DIMUPT
 70
     0
  9
$DIMDEC
 70
     2
  9
$DIMTDEC
 70
     2
  9
$DIMALTU
 70
     2
  9
$DIMALTTD
 70
     2
  9
$DIMTXSTY
  7
STANDARD
  9
$DIMAUNIT
 70
     0
  9
$DIMADEC
 70
     0
  9
$DIMALTRND
 40
0.0
  9
$DIMAZIN
 70
     0
  9
$DIMDSEP
 70
    46
  9
$DIMATFIT
 70
     3
  9
$DIMFRAC
 70
     0
  9
$DIMLDRBLK
  1
CLOSED
  9
$DIMLUNIT
 70
     2
  9
$DIMLWD
 70
    -2
  9
$DIMLWE
 70
    -2
  9
$DIMTMOVE
 70
     0
  9
$LUNITS
 70
     2
  9
$LUPREC
 70
     4
  9
$SKETCHINC
 40
0.1
  9
$FILLETRAD
 40
0.0
  9
$AUNITS
 70
     0
  9
$AUPREC
 70
     0
  9
$MENU
  1
.
  9
$ELEVATION
 40
0.0
  9
$PELEVATION
 40
0.0
  9
$THICKNESS
 40
0.0
  9
$LIMCHECK
 70
     0
  9
$CHAMFERA
 40
0.0
  9
$CHAMFERB
 40
0.0
  9
$CHAMFERC
 40
0.0
  9
$CHAMFERD
 40
0.0
  9
$SKPOLY
 70
     0
  9
$TDCREATE
 40
2453998.355300555
  9
$TDUCREATE
 40
2453998.646967222
  9
$TDUPDATE
 40
2453998.356056134
  9
$TDUUPDATE
 40
2453998.647722801
  9
$TDINDWG
 40
0.0007557523
  9
$TDUSRTIMER
 40
0.0007557523
  9
$USRTIMER
 70
     1
  9
$ANGBASE
 50
0.0
  9
$ANGDIR
 70
     0
  9
$PDMODE
 70
     3
  9
$PDSIZE
 40
0.3125
  9
$PLINEWID
 40
0.0
  9
$SPLFRAME
 70
     0
  9
$SPLINETYPE
 70
     6
  9
$SPLINESEGS
 70
     8
  9
$HANDSEED
  5
8EC
  9
$SURFTAB1
 70
     6
  9
$SURFTAB2
 70
     6
  9
$SURFTYPE
 70
     6
  9
$SURFU
 70
     6
  9
$SURFV
 70
     6
  9
$UCSBASE
  2

  9
$UCSNAME
  2

  9
$UCSORG
 10
0.0
 20
0.0
 30
0.0
  9
$UCSXDIR
 10
1.0
 20
0.0
 30
0.0
  9
$UCSYDIR
 10
0.0
 20
1.0
 30
0.0
  9
$UCSORTHOREF
  2

  9
$UCSORTHOVIEW
 70
     0
  9
$UCSORGTOP
 10
0.0
 20
0.0
 30
0.0
  9
$UCSORGBOTTOM
 10
0.0
 20
0.0
 30
0.0
  9
$UCSORGLEFT
 10
0.0
 20
0.0
 30
0.0
  9
$UCSORGRIGHT
 10
0.0
 20
0.0
 30
0.0
  9
$UCSORGFRONT
 10
0.0
 20
0.0
 30
0.0
  9
$UCSORGBACK
 10
0.0
 20
0.0
 30
0.0
  9
$PUCSBASE
  2

  9
$PUCSNAME
  2

  9
$PUCSORG
 10
0.0
 20
0.0
 30
0.0
  9
$PUCSXDIR
 10
1.0
 20
0.0
 30
0.0
  9
$PUCSYDIR
 10
0.0
 20
1.0
 30
0.0
  9
$PUCSORTHOREF
  2

  9
$PUCSORTHOVIEW
 70
     0
  9
$PUCSORGTOP
 10
0.0
 20
0.0
 30
0.0
  9
$PUCSORGBOTTOM
 10
0.0
 20
0.0
 30
0.0
  9
$PUCSORGLEFT
 10
0.0
 20
0.0
 30
0.0
  9
$PUCSORGRIGHT
 10
0.0
 20
0.0
 30
0.0
  9
$PUCSORGFRONT
 10
0.0
 20
0.0
 30
0.0
  9
$PUCSORGBACK
 10
0.0
 20
0.0
 30
0.0
  9
$USERI1
 70
     0
  9
$USERI2
 70
     0
  9
$USERI3
 70
     0
  9
$USERI4
 70
     0
  9
$USERI5
 70
     0
  9
$USERR1
 40
0.0
  9
$USERR2
 40
0.0
  9
$USERR3
 40
0.0
  9
$USERR4
 40
0.0
  9
$USERR5
 40
0.0
  9
$WORLDVIEW
 70
     1
  9
$SHADEDGE
 70
     3
  9
$SHADEDIF
 70
    70
  9
$TILEMODE
 70
     1
  9
$MAXACTVP
 70
    64
  9
$PINSBASE
 10
0.0
 20
0.0
 30
0.0
  9
$PLIMCHECK
 70
     0
  9
$PEXTMIN
 10
1.000000000000000E+20
 20
1.000000000000000E+20
 30
1.000000000000000E+20
  9
$PEXTMAX
 10
-1.000000000000000E+20
 20
-1.000000000000000E+20
 30
-1.000000000000000E+20
  9
$PLIMMIN
 10
0.0
 20
0.0
  9
$PLIMMAX
 10
12.0
 20
9.0
  9
$UNITMODE
 70
     0
  9
$VISRETAIN
 70
     1
  9
$PLINEGEN
 70
     0
  9
$PSLTSCALE
 70
     1
  9
$TREEDEPTH
 70
  3020
  9
$CMLSTYLE
  2
Standard
  9
$CMLJUST
 70
     0
  9
$CMLSCALE
 40
1.0
  9
$PROXYGRAPHICS
 70
     1
  9
$MEASUREMENT
 70
     0
  9
$CELWEIGHT
370
    -1
  9
$ENDCAPS
280
     0
  9
$JOINSTYLE
280
     0
  9
$LWDISPLAY
290
     0
  9
$INSUNITS
 70
     1
  9
$HYPERLINKBASE
  1

  9
$STYLESHEET
  1

  9
$XEDIT
290
     1
  9
$CEPSNTYPE
380
     0
  9
$PSTYLEMODE
290
     1
  9
$FINGERPRINTGUID
  2
{21DA68C4-7598-4617-8C22-C5CF14B48AD5}
  9
$VERSIONGUID
  2
{063F8820-729D-469A-8556-7F6FC894FE52}
  9
$EXTNAMES
290
     1
  9
$PSVPSCALE
 40
0.0
  9
$OLESTARTUP
290
     0
  0
ENDSEC
  0
SECTION
  2
CLASSES
  0
CLASS
  1
ACDBDICTIONARYWDFLT
  2
AcDbDictionaryWithDefault
  3
AutoCAD 2000
 90
        0
280
     0
281
     0
  0
CLASS
  1
ACDBPLACEHOLDER
  2
AcDbPlaceHolder
  3
AutoCAD 2000
 90
        0
280
     0
281
     0
  0
CLASS
  1
LAYOUT
  2
AcDbLayout
  3
AutoCAD 2000
 90
        0
280
     0
281
     0
  0
CLASS
  1
DICTIONARYVAR
  2
AcDbDictionaryVar
  3
AutoCAD 2000
 90
        0
280
     0
281
     0
  0
ENDSEC
  0
SECTION
  2
TABLES
  0
TABLE
  2
VPORT
  5
8
330
0
100
AcDbSymbolTable
 70
     2
  0
VPORT
  5
8EB
330
8
100
AcDbSymbolTableRecord
100
AcDbViewportTableRecord
  2
*Active
 70
     0
 10
0.0
 20
0.0
 11
1.0
 21
1.0
 12
81.45661568613022
 22
63.02060757044732
 13
0.0
 23
0.0
 14
1.0
 24
1.0
 15
0.0
 25
0.0
 16
0.0
 26
0.0
 36
1.0
 17
0.0
 27
0.0
 37
0.0
 40
126.9883953733639
 41
1.498756218905472
 42
50.0
 43
0.0
 44
0.0
 50
0.0
 51
0.0
 71
     0
 72
  1000
 73
     1
 74
     1
 75
     0
 76
     0
 77
     0
 78
     0
281
     0
 65
     1
110
0.0
120
0.0
130
0.0
111
1.0
121
0.0
131
0.0
112
0.0
122
1.0
132
0.0
 79
     0
146
0.0
  0
ENDTAB
  0
TABLE
  2
LTYPE
  5
5
330
0
100
AcDbSymbolTable
 70
     6
  0
LTYPE
  5
14
330
5
100
AcDbSymbolTableRecord
100
AcDbLinetypeTableRecord
  2
BYBLOCK
 70
     0
  3

 72
    65
 73
     0
 40
0.0
  0
LTYPE
  5
15
330
5
100
AcDbSymbolTableRecord
100
AcDbLinetypeTableRecord
  2
BYLAYER
 70
     0
  3

 72
    65
 73
     0
 40
0.0
  0
LTYPE
  5
16
330
5
100
AcDbSymbolTableRecord
100
AcDbLinetypeTableRecord
  2
CONTINUOUS
 70
     0
  3
Solid line
 72
    65
 73
     0
 40
0.0
  0
LTYPE
  5
1F5
330
5
100
AcDbSymbolTableRecord
100
AcDbLinetypeTableRecord
  2
CENTER
 70
     0
  3
____ _ ____ _ ____ _ ____ _ ____ _ ____ _ ____
 72
    65
 73
     4
 40
0.6
 49
0.375
 74
     0
 49
-0.075
 74
     0
 49
0.075
 74
     0
 49
-0.075
 74
     0
  0
LTYPE
  5
1F6
330
5
100
AcDbSymbolTableRecord
100
AcDbLinetypeTableRecord
  2
HIDDEN
 70
     0
  3
- - - - - - - - - - - - - - - - - - - -
 72
    65
 73
     2
 40
0.2
 49
0.1
 74
     0
 49
-0.1
 74
     0
  0
LTYPE
  5
1F7
330
5
100
AcDbSymbolTableRecord
100
AcDbLinetypeTableRecord
  2
PHANTOM
 70
     0
  3
_____ _ _ _____ _ _ _____ _ _ _____
 72
    65
 73
     6
 40
0.8
 49
0.45
 74
     0
 49
-0.05
 74
     0
 49
0.1
 74
     0
 49
-0.05
 74
     0
 49
0.1
 74
     0
 49
-0.05
 74
     0
  0
LTYPE
  5
1F8
330
5
100
AcDbSymbolTableRecord
100
AcDbLinetypeTableRecord
  2
DOT
 70
     0
  3
. . . . . . . . . . . . . . . . . . . .
 72
    65
 73
     2
 40
0.2
 49
0.1
 74
     0
 49
-0.1
 74
     0
  0
LTYPE
  5
1F9
330
5
100
AcDbSymbolTableRecord
100
AcDbLinetypeTableRecord
  2
DASHED
 70
     0
  3
- - - - - - - - - - - - - - - - - - - -
 72
    65
 73
     2
 40
0.2
 49
0.1
 74
     0
 49
-0.1
 74
     0
  0
ENDTAB
  0
TABLE
  2
LAYER
  5
2
330
0
100
AcDbSymbolTable
 70
    51
  0
LAYER
  5
10
330
2
100
AcDbSymbolTableRecord
100
AcDbLayerTableRecord
  2
0
 70
     0
 62
     7
  6
CONTINUOUS
370
    -3
390
F
  0
LAYER
  5
1FA
330
2
100
AcDbSymbolTableRecord
100
AcDbLayerTableRecord
  2
DEFAULT_1
 70
     0
 62
     7
  6
CENTER
370
    -3
390
F
  0
LAYER
  5
1FB
330
2
100
AcDbSymbolTableRecord
100
AcDbLayerTableRecord
  2
DEFAULT_2
 70
     0
 62
     8
  6
HIDDEN
370
    -3
390
F
  0
LAYER
  5
1FC
330
2
100
AcDbSymbolTableRecord
100
AcDbLayerTableRecord
  2
DEFAULT_3
 70
     0
 62
     7
  6
PHANTOM
370
    -3
390
F
  0
LAYER
  5
1FD
330
2
100
AcDbSymbolTableRecord
100
AcDbLayerTableRecord
  2
_2D_DELETED_OBJS
 70
     0
 62
     7
  6
CONTINUOUS
370
    -3
390
F
  0
LAYER
  5
1FE
330
2
100
AcDbSymbolTableRecord
100
AcDbLayerTableRecord
  2
_BLACK_HOLE
 70
     0
 62
     7
  6
CONTINUOUS
370
    -3
390
F
  0
LAYER
  5
1FF
330
2
100
AcDbSymbolTableRecord
100
AcDbLayerTableRecord
  2
01___PRT_ALL_DTM_PLN
 70
     0
 62
     7
  6
CONTINUOUS
370
    -3
390
F
  0
LAYER
  5
200
330
2
100
AcDbSymbolTableRecord
100
AcDbLayerTableRecord
  2
01___PRT_DEF_DTM_PLN
 70
     0
 62
     7
  6
CONTINUOUS
370
    -3
390
F
  0
LAYER
  5
201
330
2
100
AcDbSymbolTableRecord
100
AcDbLayerTableRecord
  2
02___PRT_ALL_AXES
 70
     0
 62
     7
  6
CONTINUOUS
370
    -3
390
F
  0
LAYER
  5
202
330
2
100
AcDbSymbolTableRecord
100
AcDbLayerTableRecord
  2
03___PRT_ALL_CURVES
 70
     0
 62
     7
  6
CONTINUOUS
370
    -3
390
F
  0
LAYER
  5
203
330
2
100
AcDbSymbolTableRecord
100
AcDbLayerTableRecord
  2
04___PRT_ALL_DTM_PNT
 70
     0
 62
     7
  6
CONTINUOUS
370
    -3
390
F
  0
LAYER
  5
204
330
2
100
AcDbSymbolTableRecord
100
AcDbLayerTableRecord
  2
05___PRT_ALL_DTM_CSYS
 70
     0
 62
     7
  6
CONTINUOUS
370
    -3
390
F
  0
LAYER
  5
205
330
2
100
AcDbSymbolTableRecord
100
AcDbLayerTableRecord
  2
05___PRT_DEF_DTM_CSYS
 70
     0
 62
     7
  6
CONTINUOUS
370
    -3
390
F
  0
LAYER
  5
206
330
2
100
AcDbSymbolTableRecord
100
AcDbLayerTableRecord
  2
06___PRT_ALL_SURFS
 70
     0
 62
     7
  6
CONTINUOUS
370
    -3
390
F
  0
LAYER
  5
207
330
2
100
AcDbSymbolTableRecord
100
AcDbLayerTableRecord
  2
1_ALL_PLANES
 70
     0
 62
     7
  6
CONTINUOUS
370
    -3
390
F
  0
LAYER
  5
208
330
2
100
AcDbSymbolTableRecord
100
AcDbLayerTableRecord
  2
1__DEF_ASM_PLN
 70
     0
 62
     7
  6
CONTINUOUS
370
    -3
390
F
  0
LAYER
  5
209
330
2
100
AcDbSymbolTableRecord
100
AcDbLayerTableRecord
  2
1__DEF_PLANES
 70
     0
 62
     7
  6
CONTINUOUS
370
    -3
390
F
  0
LAYER
  5
20A
330
2
100
AcDbSymbolTableRecord
100
AcDbLayerTableRecord
  2
2_ALL_CSYS
 70
     0
 62
     7
  6
CONTINUOUS
370
    -3
390
F
  0
LAYER
  5
20B
330
2
100
AcDbSymbolTableRecord
100
AcDbLayerTableRecord
  2
2__DEF_ASM_CSYS
 70
     0
 62
     7
  6
CONTINUOUS
370
    -3
390
F
  0
LAYER
  5
20C
330
2
100
AcDbSymbolTableRecord
100
AcDbLayerTableRecord
  2
2__DEF_CSYS
 70
     0
 62
     7
  6
CONTINUOUS
370
    -3
390
F
  0
LAYER
  5
20D
330
2
100
AcDbSymbolTableRecord
100
AcDbLayerTableRecord
  2
3_ALL_AXES
 70
     0
 62
     7
  6
CONTINUOUS
370
    -3
390
F
  0
LAYER
  5
20E
330
2
100
AcDbSymbolTableRecord
100
AcDbLayerTableRecord
  2
3_AXES_OTHER
 70
     0
 62
     7
  6
CONTINUOUS
370
    -3
390
F
  0
LAYER
  5
20F
330
2
100
AcDbSymbolTableRecord
100
AcDbLayerTableRecord
  2
3_HOLES
 70
     0
 62
     7
  6
CONTINUOUS
370
    -3
390
F
  0
LAYER
  5
210
330
2
100
AcDbSymbolTableRecord
100
AcDbLayerTableRecord
  2
4_ALL_POINTS
 70
     0
 62
     7
  6
CONTINUOUS
370
    -3
390
F
  0
LAYER
  5
211
330
2
100
AcDbSymbolTableRecord
100
AcDbLayerTableRecord
  2
5_ALL_CURVES
 70
     0
 62
     7
  6
CONTINUOUS
370
    -3
390
F
  0
LAYER
  5
212
330
2
100
AcDbSymbolTableRecord
100
AcDbLayerTableRecord
  2
6_ALL_SURFS
 70
     0
 62
     7
  6
CONTINUOUS
370
    -3
390
F
  0
LAYER
  5
213
330
2
100
AcDbSymbolTableRecord
100
AcDbLayerTableRecord
  2
6_COPYGEOM
 70
     0
 62
     7
  6
CONTINUOUS
370
    -3
390
F
  0
LAYER
  5
214
330
2
100
AcDbSymbolTableRecord
100
AcDbLayerTableRecord
  2
7_ALL_ROUNDS
 70
     0
 62
     7
  6
CONTINUOUS
370
    -3
390
F
  0
LAYER
  5
215
330
2
100
AcDbSymbolTableRecord
100
AcDbLayerTableRecord
  2
7_MERGES
 70
     0
 62
     7
  6
CONTINUOUS
370
    -3
390
F
  0
LAYER
  5
216
330
2
100
AcDbSymbolTableRecord
100
AcDbLayerTableRecord
  2
8_SET_DATUMS
 70
     0
 62
     7
  6
CONTINUOUS
370
    -3
390
F
  0
LAYER
  5
217
330
2
100
AcDbSymbolTableRecord
100
AcDbLayerTableRecord
  2
9_COSMETICS
 70
     0
 62
     7
  6
CONTINUOUS
370
    -3
390
F
  0
LAYER
  5
218
330
2
100
AcDbSymbolTableRecord
100
AcDbLayerTableRecord
  2
9_THREADS
 70
     0
 62
     7
  6
CONTINUOUS
370
    -3
390
F
  0
LAYER
  5
219
330
2
100
AcDbSymbolTableRecord
100
AcDbLayerTableRecord
  2
AXES
 70
     0
 62
     7
  6
CONTINUOUS
370
    -3
390
F
  0
LAYER
  5
21A
330
2
100
AcDbSymbolTableRecord
100
AcDbLayerTableRecord
  2
BASE
 70
     0
 62
     7
  6
CONTINUOUS
370
    -3
390
F
  0
LAYER
  5
21B
330
2
100
AcDbSymbolTableRecord
100
AcDbLayerTableRecord
  2
COPY
 70
     0
 62
     7
  6
CONTINUOUS
370
    -3
390
F
  0
LAYER
  5
21C
330
2
100
AcDbSymbolTableRecord
100
AcDbLayerTableRecord
  2
COSM
 70
     0
 62
     7
  6
CONTINUOUS
370
    -3
390
F
  0
LAYER
  5
21D
330
2
100
AcDbSymbolTableRecord
100
AcDbLayerTableRecord
  2
CRVS
 70
     0
 62
     7
  6
CONTINUOUS
370
    -3
390
F
  0
LAYER
  5
21E
330
2
100
AcDbSymbolTableRecord
100
AcDbLayerTableRecord
  2
CSYS
 70
     0
 62
     7
  6
CONTINUOUS
370
    -3
390
F
  0
LAYER
  5
21F
330
2
100
AcDbSymbolTableRecord
100
AcDbLayerTableRecord
  2
CTRLS
 70
     0
 62
     7
  6
CONTINUOUS
370
    -3
390
F
  0
LAYER
  5
220
330
2
100
AcDbSymbolTableRecord
100
AcDbLayerTableRecord
  2
DRW_FORMAT
 70
     0
 62
     7
  6
CONTINUOUS
370
    -3
390
F
  0
LAYER
  5
221
330
2
100
AcDbSymbolTableRecord
100
AcDbLayerTableRecord
  2
IMPORT
 70
     0
 62
     7
  6
CONTINUOUS
370
    -3
390
F
  0
LAYER
  5
222
330
2
100
AcDbSymbolTableRecord
100
AcDbLayerTableRecord
  2
MERGE
 70
     0
 62
     7
  6
CONTINUOUS
370
    -3
390
F
  0
LAYER
  5
223
330
2
100
AcDbSymbolTableRecord
100
AcDbLayerTableRecord
  2
NOTES
 70
     0
 62
     7
  6
CONTINUOUS
370
    -3
390
F
  0
LAYER
  5
224
330
2
100
AcDbSymbolTableRecord
100
AcDbLayerTableRecord
  2
PLNS
 70
     0
 62
     7
  6
CONTINUOUS
370
    -3
390
F
  0
LAYER
  5
225
330
2
100
AcDbSymbolTableRecord
100
AcDbLayerTableRecord
  2
PNTS
 70
     0
 62
     7
  6
CONTINUOUS
370
    -3
390
F
  0
LAYER
  5
226
330
2
100
AcDbSymbolTableRecord
100
AcDbLayerTableRecord
  2
RNDS
 70
     0
 62
     7
  6
CONTINUOUS
370
    -3
390
F
  0
LAYER
  5
227
330
2
100
AcDbSymbolTableRecord
100
AcDbLayerTableRecord
  2
SRFS
 70
     0
 62
     7
  6
CONTINUOUS
370
    -3
390
F
  0
LAYER
  5
228
330
2
100
AcDbSymbolTableRecord
100
AcDbLayerTableRecord
  2
THDS
 70
     0
 62
     7
  6
CONTINUOUS
370
    -3
390
F
  0
LAYER
  5
229
330
2
100
AcDbSymbolTableRecord
100
AcDbLayerTableRecord
  2
XSEC
 70
     0
 62
     7
  6
CONTINUOUS
370
    -3
390
F
  0
LAYER
  5
22A
330
2
100
AcDbSymbolTableRecord
100
AcDbLayerTableRecord
  2
XSEC_DATUMS
 70
     0
 62
     7
  6
CONTINUOUS
370
    -3
390
F
  0
LAYER
  5
844
330
2
100
AcDbSymbolTableRecord
100
AcDbLayerTableRecord
  2
Defpoints
 70
     0
 62
     7
  6
CONTINUOUS
290
     0
370
    -3
390
F
  0
ENDTAB
  0
TABLE
  2
STYLE
  5
3
330
0
100
AcDbSymbolTable
 70
     2
  0
STYLE
  5
11
330
3
100
AcDbSymbolTableRecord
100
AcDbTextStyleTableRecord
  2
STANDARD
 70
     0
 40
0.0
 41
0.8
 50
0.0
 71
     0
 42
0.2
  3
txt
  4

  0
STYLE
  5
22B
330
3
100
AcDbSymbolTableRecord
100
AcDbTextStyleTableRecord
  2
TEXTSTYLE_1
 70
     0
 40
0.0
 41
0.6
 50
0.0
 71
     0
 42
0.2
  3
txt
  4

  0
ENDTAB
  0
TABLE
  2
VIEW
  5
6
330
0
100
AcDbSymbolTable
 70
     0
  0
ENDTAB
  0
TABLE
  2
UCS
  5
7
330
0
100
AcDbSymbolTable
 70
     0
  0
ENDTAB
  0
TABLE
  2
APPID
  5
9
330
0
100
AcDbSymbolTable
 70
     1
  0
APPID
  5
22C
330
9
100
AcDbSymbolTableRecord
100
AcDbRegAppTableRecord
  2
ACAD
 70
     0
  0
ENDTAB
  0
TABLE
  2
DIMSTYLE
  5
A
330
0
100
AcDbSymbolTable
 70
     2
100
AcDbDimStyleTable
 71
     1
340
239
  0
DIMSTYLE
105
238
330
A
100
AcDbSymbolTableRecord
100
AcDbDimStyleTableRecord
  2
STANDARD
 70
     0
 41
0.1875
 47
0.001
 48
0.001
 78
     4
140
1.1574074074
271
     3
272
     3
284
     4
340
11
341
22D
342
22D
343
22D
344
22D
  0
DIMSTYLE
105
239
102
{ACAD_REACTORS
330
7C4
330
7C3
330
7C1
330
7C0
330
7BF
330
7BE
330
7BD
330
7BC
102
}
330
A
100
AcDbSymbolTableRecord
100
AcDbDimStyleTableRecord
  2
DIMSTYLE_1
 70
     0
 41
1.388888888899999
 78
     4
140
1.1574074074
271
     2
272
     2
284
     4
340
11
341
22D
342
22D
343
22D
344
22D
  0
ENDTAB
  0
TABLE
  2
BLOCK_RECORD
  5
1
330
0
100
AcDbSymbolTable
 70
    11
  0
BLOCK_RECORD
  5
1F
330
1
100
AcDbSymbolTableRecord
100
AcDbBlockTableRecord
  2
*MODEL_SPACE
340
22
  0
BLOCK_RECORD
  5
1B
330
1
100
AcDbSymbolTableRecord
100
AcDbBlockTableRecord
  2
*PAPER_SPACE
340
1E
  0
BLOCK_RECORD
  5
22D
330
1
100
AcDbSymbolTableRecord
100
AcDbBlockTableRecord
  2
_CLOSED
340
0
102
{BLKREFS
331
286
331
287
331
294
331
295
331
2A0
331
2A1
331
2AC
331
2AD
331
2B8
331
2B9
331
2C5
331
2C6
331
2D2
331
2D3
331
2DF
331
2E0
331
2EB
331
2EC
331
842
331
843
331
849
331
84A
331
853
331
854
331
85E
331
85F
331
868
331
869
331
872
331
873
331
87C
331
87D
331
887
331
888
331
891
331
892
331
89B
331
89C
331
8A5
331
8A6
331
8B0
331
8B1
331
8BA
331
8BB
331
8C4
331
8C5
331
8CE
331
8CF
331
8D9
331
8DA
331
8E3
331
8E4
102
}
  0
BLOCK_RECORD
  5
22E
330
1
100
AcDbSymbolTableRecord
100
AcDbBlockTableRecord
  2
RD010411_BL0
340
0
102
{BLKREFS
331
337
102
}
  0
BLOCK_RECORD
  5
22F
330
1
100
AcDbSymbolTableRecord
100
AcDbBlockTableRecord
  2
*D2
340
0
  0
BLOCK_RECORD
  5
230
330
1
100
AcDbSymbolTableRecord
100
AcDbBlockTableRecord
  2
*D3
340
0
  0
BLOCK_RECORD
  5
231
330
1
100
AcDbSymbolTableRecord
100
AcDbBlockTableRecord
  2
*D4
340
0
  0
BLOCK_RECORD
  5
232
330
1
100
AcDbSymbolTableRecord
100
AcDbBlockTableRecord
  2
*D5
340
0
  0
BLOCK_RECORD
  5
233
330
1
100
AcDbSymbolTableRecord
100
AcDbBlockTableRecord
  2
*D6
340
0
  0
BLOCK_RECORD
  5
234
330
1
100
AcDbSymbolTableRecord
100
AcDbBlockTableRecord
  2
*D7
340
0
  0
BLOCK_RECORD
  5
235
330
1
100
AcDbSymbolTableRecord
100
AcDbBlockTableRecord
  2
*D8
340
0
  0
BLOCK_RECORD
  5
236
330
1
100
AcDbSymbolTableRecord
100
AcDbBlockTableRecord
  2
*D9
340
0
  0
BLOCK_RECORD
  5
237
330
1
100
AcDbSymbolTableRecord
100
AcDbBlockTableRecord
  2
*D10
340
0
  0
ENDTAB
  0
ENDSEC
  0
SECTION
  2
BLOCKS
  0
BLOCK
  5
20
330
1F
100
AcDbEntity
  8
0
100
AcDbBlockBegin
  2
*MODEL_SPACE
 70
     0
 10
0.0
 20
0.0
 30
0.0
  3
*MODEL_SPACE
  1

  0
ENDBLK
  5
21
330
1F
100
AcDbEntity
  8
0
100
AcDbBlockEnd
  0
BLOCK
  5
1C
330
1B
100
AcDbEntity
 67
     1
  8
0
100
AcDbBlockBegin
  2
*PAPER_SPACE
 70
     0
 10
0.0
 20
0.0
 30
0.0
  3
*PAPER_SPACE
  1

  0
ENDBLK
  5
1D
330
1B
100
AcDbEntity
 67
     1
  8
0
100
AcDbBlockEnd
  0
BLOCK
  5
2EE
330
22D
100
AcDbEntity
  8
0
100
AcDbBlockBegin
  2
_CLOSED
 70
     0
 10
0.0
 20
0.0
 30
0.0
  3
_CLOSED
  1

  0
LINE
  5
2EF
330
22D
100
AcDbEntity
  8
0
  6
ByBlock
 62
     0
100
AcDbLine
 10
0.0
 20
0.0
 30
0.0
 11
-1.0
 21
0.1666666667
 31
0.0
  0
LINE
  5
2F0
330
22D
100
AcDbEntity
  8
0
  6
ByBlock
 62
     0
100
AcDbLine
 10
-1.0
 20
0.1666666667
 30
0.0
 11
-1.0
 21
-0.1666666667
 31
0.0
  0
LINE
  5
2F1
330
22D
100
AcDbEntity
  8
0
  6
ByBlock
 62
     0
100
AcDbLine
 10
-1.0
 20
-0.1666666667
 30
0.0
 11
0.0
 21
0.0
 31
0.0
  0
LINE
  5
2F2
330
22D
100
AcDbEntity
  8
0
  6
ByBlock
 62
     0
100
AcDbLine
 10
-1.0
 20
0.0
 30
0.0
 11
0.0
 21
0.0
 31
0.0
  0
ENDBLK
  5
2F3
330
22D
100
AcDbEntity
  8
0
  6
ByBlock
 62
     0
100
AcDbBlockEnd
  0
BLOCK
  5
23A
330
22E
100
AcDbEntity
  8
DRW_FORMAT
  6
Continuous
 62
     7
100
AcDbBlockBegin
  2
RD010411_BL0
 70
     0
 10
128.1844296305999
 20
18.6685979079
 30
0.0
  3
RD010411_BL0
  1

  0
ARC
  5
23B
330
22E
100
AcDbEntity
  8
DRW_FORMAT
  6
Continuous
 62
     7
100
AcDbCircle
 10
133.0152560724
 20
19.4121309267
 30
0.0
 40
0.091640839
100
AcDbArc
 50
270.0
 51
360.0
  0
LINE
  5
23C
330
22E
100
AcDbEntity
  8
DRW_FORMAT
  6
Continuous
 62
     7
100
AcDbLine
 10
133.1068969114999
 20
19.4121309267
 30
0.0
 11
133.1068969114999
 21
19.59547558739999
 31
0.0
  0
ARC
  5
23D
330
22E
100
AcDbEntity
  8
DRW_FORMAT
  6
Continuous
 62
     7
100
AcDbCircle
 10
133.0152560724
 20
19.59547558739999
 30
0.0
 40
0.091640839
100
AcDbArc
 50
0.0
 51
90.0
  0
LINE
  5
23E
330
22E
100
AcDbEntity
  8
DRW_FORMAT
  6
Continuous
 62
     7
100
AcDbLine
 10
133.0152560724
 20
19.68711642639999
 30
0.0
 11
130.5516017596999
 21
19.68711642639999
 31
0.0
  0
SPLINE
  5
23F
330
22E
100
AcDbEntity
  8
DRW_FORMAT
  6
Continuous
 62
     7
100
AcDbSpline
210
0.0
220
0.0
230
1.0
 70
     8
 71
     3
 72
    13
 73
     9
 74
     0
 42
0.0000000001
 43
0.0000000001
 40
0.0
 40
0.0
 40
0.0
 40
0.0
 40
0.1310616762
 40
0.2699656353
 40
0.4157607805
 40
0.5899807757
 40
0.76586761
 40
0.9948829976
 40
0.9948829976
 40
0.9948829976
 40
0.9948829976
 10
130.5516017596999
 20
19.68711642639999
 30
0.0
 10
130.4998135039999
 20
19.6832592029
 30
0.0
 10
130.393138162
 20
19.67531395339999
 30
0.0
 10
130.2485718298999
 20
19.5857324137
 30
0.0
 10
130.1447904547999
 20
19.4353411431
 30
0.0
 10
130.0773064425999
 20
19.25144572379999
 30
0.0
 10
130.0392953268999
 20
19.02664907359999
 30
0.0
 10
130.0357955309
 20
18.8678038129
 30
0.0
 10
130.0339816681999
 20
18.7779480768
 30
0.0
  0
LINE
  5
240
330
22E
100
AcDbEntity
  8
DRW_FORMAT
  6
Continuous
 62
     7
100
AcDbLine
 10
130.0339816681999
 20
18.7779480768
 30
0.0
 11
130.0341425078
 21
18.764004159
 31
0.0
  0
SPLINE
  5
241
330
22E
100
AcDbEntity
  8
DRW_FORMAT
  6
Continuous
 62
     7
100
AcDbSpline
210
0.0
220
0.0
230
1.0
 70
     8
 71
     3
 72
    13
 73
     9
 74
     0
 42
0.0000000001
 43
0.0000000001
 40
0.0
 40
0.0
 40
0.0
 40
0.0
 40
0.2222860645
 40
0.3981728988
 40
0.572392894
 40
0.7181880393000001
 40
0.8570919983999999
 40
0.9881536745999998
 40
0.9881536745999998
 40
0.9881536745999998
 40
0.9881536745999998
 10
130.0341425078
 20
18.764004159
 30
0.0
 10
130.035920622
 20
18.6767898728
 30
0.0
 10
130.0397362292999
 20
18.5206135769
 30
0.0
 10
130.0773064116
 20
18.2984227269
 30
0.0
 10
130.1447912316
 20
18.11454787459999
 30
0.0
 10
130.2485693696999
 20
17.9640927783
 30
0.0
 10
130.3931467354
 20
17.8747253764
 30
0.0
 10
130.4997960696999
 20
17.8662759007
 30
0.0
 10
130.5516017596999
 20
17.8624173801
 30
0.0
  0
LINE
  5
242
330
22E
100
AcDbEntity
  8
DRW_FORMAT
  6
Continuous
 62
     7
100
AcDbLine
 10
130.5516017596999
 20
17.8624173801
 30
0.0
 11
133.0154560877
 21
17.86779499289999
 31
0.0
  0
ARC
  5
243
330
22E
100
AcDbEntity
  8
DRW_FORMAT
  6
Continuous
 62
     7
100
AcDbCircle
 10
133.0152560724
 20
17.9594356134
 30
0.0
 40
0.0916408388
100
AcDbArc
 50
270.125053868
 51
360.0
  0
LINE
  5
244
330
22E
100
AcDbEntity
  8
DRW_FORMAT
  6
Continuous
 62
     7
100
AcDbLine
 10
133.1068969114999
 20
17.9594356134
 30
0.0
 11
133.1068969114999
 21
18.1356221264
 31
0.0
  0
ARC
  5
245
330
22E
100
AcDbEntity
  8
DRW_FORMAT
  6
Continuous
 62
     7
100
AcDbCircle
 10
133.0152560724
 20
18.1356221264
 30
0.0
 40
0.091640839
100
AcDbArc
 50
0.0
 51
90.0
  0
LINE
  5
246
330
22E
100
AcDbEntity
  8
DRW_FORMAT
  6
Continuous
 62
     7
100
AcDbLine
 10
133.0152560724
 20
18.2272629654
 30
0.0
 11
130.9035676043
 21
18.2272629654
 31
0.0
  0
LINE
  5
247
330
22E
100
AcDbEntity
  8
DRW_FORMAT
  6
Continuous
 62
     7
100
AcDbLine
 10
130.8119267652
 20
18.3189038044
 30
0.0
 11
130.8119267652
 21
19.22884924859999
 31
0.0
  0
ARC
  5
248
330
22E
100
AcDbEntity
  8
DRW_FORMAT
  6
Continuous
 62
     7
100
AcDbCircle
 10
130.9035676051
 20
19.22884924859999
 30
0.0
 40
0.091640839
100
AcDbArc
 50
90.0
 51
180.0
  0
LINE
  5
249
330
22E
100
AcDbEntity
  8
DRW_FORMAT
  6
Continuous
 62
     7
100
AcDbLine
 10
130.9035676043
 20
19.32049008759999
 30
0.0
 11
133.0152560724
 21
19.32049008759999
 31
0.0
  0
LINE
  5
24A
330
22E
100
AcDbEntity
  8
DRW_FORMAT
  6
Continuous
 62
     7
100
AcDbLine
 10
127.1382395136
 20
18.589727059
 30
0.0
 11
128.8983279152
 21
18.589727059
 31
0.0
  0
ARC
  5
24B
330
22E
100
AcDbEntity
  8
DRW_FORMAT
  6
Continuous
 62
     7
100
AcDbCircle
 10
128.898327915
 20
18.4980862202
 30
0.0
 40
0.091640839
100
AcDbArc
 50
0.0
 51
90.0
  0
LINE
  5
24C
330
22E
100
AcDbEntity
  8
DRW_FORMAT
  6
Continuous
 62
     7
100
AcDbLine
 10
128.9899687543
 20
18.49808622
 30
0.0
 11
128.9899687543
 21
18.3109650925
 31
0.0
  0
LINE
  5
24D
330
22E
100
AcDbEntity
  8
DRW_FORMAT
  6
Continuous
 62
     7
100
AcDbLine
 10
128.8983279152
 20
18.21932425349999
 30
0.0
 11
126.8466231754
 21
18.21932425349999
 31
0.0
  0
ARC
  5
24E
330
22E
100
AcDbEntity
  8
DRW_FORMAT
  6
Continuous
 62
     7
100
AcDbCircle
 10
126.8466231754
 20
18.12768341439999
 30
0.0
 40
0.091640839
100
AcDbArc
 50
90.0
 51
180.0
  0
LINE
  5
24F
330
22E
100
AcDbEntity
  8
DRW_FORMAT
  6
Continuous
 62
     7
100
AcDbLine
 10
126.7549823363999
 20
18.12768341439999
 30
0.0
 11
126.7549823363999
 21
17.9540572943
 31
0.0
  0
ARC
  5
250
330
22E
100
AcDbEntity
  8
DRW_FORMAT
  6
Continuous
 62
     7
100
AcDbCircle
 10
126.8466231754
 20
17.9540572943
 30
0.0
 40
0.091640839
100
AcDbArc
 50
180.0
 51
270.0
  0
LINE
  5
251
330
22E
100
AcDbEntity
  8
DRW_FORMAT
  6
Continuous
 62
     7
100
AcDbLine
 10
126.8466231754
 20
17.8624164553
 30
0.0
 11
129.3937099684
 21
17.8624164553
 31
0.0
  0
SPLINE
  5
252
330
22E
100
AcDbEntity
  8
DRW_FORMAT
  6
Continuous
 62
     7
100
AcDbSpline
210
0.0
220
0.0
230
1.0
 70
     8
 71
     3
 72
    13
 73
     9
 74
     0
 42
0.0000000001
 43
0.0000000001
 40
0.0
 40
0.0
 40
0.0
 40
0.0
 40
0.1604571392
 40
0.3334692485000001
 40
0.4767982758000001
 40
0.6242014838000002
 40
0.7505998515000001
 40
1.0
 40
1.0
 40
1.0
 40
1.0
 10
129.3937099684
 20
17.8624164553
 30
0.0
 10
129.4366541697
 20
17.8644841419
 30
0.0
 10
129.5259027401
 20
17.8687812992
 30
0.0
 10
129.645916787
 20
17.9208858948
 30
0.0
 10
129.7363513251999
 20
18.008469371
 30
0.0
 10
129.7873147441999
 20
18.10888044269999
 30
0.0
 10
129.8263876375
 20
18.2435829243
 30
0.0
 10
129.8279732170999
 20
18.34438787119999
 30
0.0
 10
129.8290254922
 20
18.4112874658
 30
0.0
  0
SPLINE
  5
253
330
22E
100
AcDbEntity
  8
DRW_FORMAT
  6
Continuous
 62
     7
100
AcDbSpline
210
0.0
220
0.0
230
1.0
 70
     8
 71
     3
 72
    13
 73
     9
 74
     0
 42
0.0000000001
 43
0.0000000001
 40
0.0
 40
0.0
 40
0.0
 40
0.0
 40
0.2494001485
 40
0.3757985162
 40
0.5232017242
 40
0.6665307515
 40
0.8395428607999999
 40
1.0
 40
1.0
 40
1.0
 40
1.0
 10
129.8290254922
 20
18.4112874658
 30
0.0
 10
129.8279732170999
 20
18.47818706179999
 30
0.0
 10
129.8263876375
 20
18.5789920073
 30
0.0
 10
129.7873147441999
 20
18.71369449019999
 30
0.0
 10
129.7363513251999
 20
18.814105562
 30
0.0
 10
129.645916787
 20
18.9016890367
 30
0.0
 10
129.5259027401
 20
18.9537936323
 30
0.0
 10
129.4366541697
 20
18.9580907911
 30
0.0
 10
129.3937099684
 20
18.9601584763
 30
0.0
  0
LINE
  5
254
330
22E
100
AcDbEntity
  8
DRW_FORMAT
  6
Continuous
 62
     7
100
AcDbLine
 10
129.3937099684
 20
18.9601584763
 30
0.0
 11
127.6570823801
 21
18.9601584763
 31
0.0
  0
LINE
  5
255
330
22E
100
AcDbEntity
  8
DRW_FORMAT
  6
Continuous
 62
     7
100
AcDbLine
 10
127.5654415411
 20
19.0517993153
 30
0.0
 11
127.5654415411
 21
19.2251929765
 31
0.0
  0
ARC
  5
256
330
22E
100
AcDbEntity
  8
DRW_FORMAT
  6
Continuous
 62
     7
100
AcDbCircle
 10
127.6570823793
 20
19.2251929765
 30
0.0
 40
0.091640839
100
AcDbArc
 50
90.0
 51
180.0
  0
LINE
  5
257
330
22E
100
AcDbEntity
  8
DRW_FORMAT
  6
Continuous
 62
     7
100
AcDbLine
 10
127.6570823801
 20
19.3168338155
 30
0.0
 11
129.7115720075
 21
19.3168338155
 31
0.0
  0
ARC
  5
258
330
22E
100
AcDbEntity
  8
DRW_FORMAT
  6
Continuous
 62
     7
100
AcDbCircle
 10
129.7115720075
 20
19.4084746546
 30
0.0
 40
0.091640839
100
AcDbArc
 50
270.0
 51
360.0
  0
LINE
  5
259
330
22E
100
AcDbEntity
  8
DRW_FORMAT
  6
Continuous
 62
     7
100
AcDbLine
 10
129.8032128465
 20
19.4084746546
 30
0.0
 11
129.8032128465
 21
19.59547558739999
 31
0.0
  0
ARC
  5
25A
330
22E
100
AcDbEntity
  8
DRW_FORMAT
  6
Continuous
 62
     7
100
AcDbCircle
 10
129.7115720075
 20
19.59547558739999
 30
0.0
 40
0.091640839
100
AcDbArc
 50
0.0
 51
90.0
  0
LINE
  5
25B
330
22E
100
AcDbEntity
  8
DRW_FORMAT
  6
Continuous
 62
     7
100
AcDbLine
 10
129.7115720075
 20
19.68711642639999
 30
0.0
 11
127.1382395136
 21
19.68711642639999
 31
0.0
  0
SPLINE
  5
25C
330
22E
100
AcDbEntity
  8
DRW_FORMAT
  6
Continuous
 62
     7
100
AcDbSpline
210
0.0
220
0.0
230
1.0
 70
     8
 71
     3
 72
    13
 73
     9
 74
     0
 42
0.0000000001
 43
0.0000000001
 40
0.0
 40
0.0
 40
0.0
 40
0.0
 40
0.1133740464
 40
0.2392044088
 40
0.3655787964
 40
0.4912154373
 40
0.7445390876000002
 40
1.0
 40
1.0
 40
1.0
 40
1.0
 10
127.1382395136
 20
19.68711642639999
 30
0.0
 10
127.1088422829
 20
19.6856684758
 30
0.0
 10
127.0468179724999
 20
19.6826134874
 30
0.0
 10
126.9546869945999
 20
19.6550875034
 30
0.0
 10
126.8722668566
 20
19.5995039692
 30
0.0
 10
126.7880739505
 20
19.49711697859999
 30
0.0
 10
126.7350944329999
 20
19.3363830256
 30
0.0
 10
126.7293487963
 20
19.20459337489999
 30
0.0
 10
126.7264639116999
 20
19.1384217427
 30
0.0
  0
SPLINE
  5
25D
330
22E
100
AcDbEntity
  8
DRW_FORMAT
  6
Continuous
 62
     7
100
AcDbSpline
210
0.0
220
0.0
230
1.0
 70
     8
 71
     3
 72
    13
 73
     9
 74
     0
 42
0.0000000001
 43
0.0000000001
 40
0.0
 40
0.0
 40
0.0
 40
0.0
 40
0.2554609124
 40
0.5087845627
 40
0.6344212036
 40
0.7607955912000001
 40
0.8866259535999999
 40
1.0
 40
1.0
 40
1.0
 40
1.0
 10
126.7264639116999
 20
19.1384217427
 30
0.0
 10
126.7293487963
 20
19.07225011059999
 30
0.0
 10
126.7350944329999
 20
18.9404604584
 30
0.0
 10
126.7880739505
 20
18.7797265069
 30
0.0
 10
126.8722668566
 20
18.67733951619999
 30
0.0
 10
126.9546869945999
 20
18.621755982
 30
0.0
 10
127.0468179724999
 20
18.59422999799999
 30
0.0
 10
127.1088422829
 20
18.5911750097
 30
0.0
 10
127.1382395136
 20
18.589727059
 30
0.0
  0
LINE
  5
25E
330
22E
100
AcDbEntity
  8
DRW_FORMAT
  6
Continuous
 62
     7
100
AcDbLine
 10
123.7522111639
 20
17.8624164553
 30
0.0
 11
125.1761185481
 21
17.8624164553
 31
0.0
  0
LINE
  5
25F
330
22E
100
AcDbEntity
  8
DRW_FORMAT
  6
Continuous
 62
     7
100
AcDbLine
 10
125.1761185481
 20
17.8624164553
 30
0.0
 11
125.1761185481
 21
17.68532586589999
 31
0.0
  0
ARC
  5
260
330
22E
100
AcDbEntity
  8
DRW_FORMAT
  6
Continuous
 62
     7
100
AcDbCircle
 10
125.2113650246999
 20
17.68532586589999
 30
0.0
 40
0.0352464766
100
AcDbArc
 50
180.0
 51
270.0
  0
LINE
  5
261
330
22E
100
AcDbEntity
  8
DRW_FORMAT
  6
Continuous
 62
     7
100
AcDbLine
 10
125.2113650246999
 20
17.6500793894
 30
0.0
 11
125.7601885131
 21
17.6500793894
 31
0.0
  0
ARC
  5
262
330
22E
100
AcDbEntity
  8
DRW_FORMAT
  6
Continuous
 62
     7
100
AcDbCircle
 10
125.7601885131
 20
17.68532586589999
 30
0.0
 40
0.0352464766
100
AcDbArc
 50
270.0
 51
360.0
  0
LINE
  5
263
330
22E
100
AcDbEntity
  8
DRW_FORMAT
  6
Continuous
 62
     7
100
AcDbLine
 10
125.7954349895999
 20
17.68532586589999
 30
0.0
 11
125.7954349895999
 21
17.8624164553
 31
0.0
  0
LINE
  5
264
330
22E
100
AcDbEntity
  8
DRW_FORMAT
  6
Continuous
 62
     7
100
AcDbLine
 10
125.7954349895999
 20
17.8624164553
 30
0.0
 11
126.0754284737
 21
17.8624164553
 31
0.0
  0
SPLINE
  5
265
330
22E
100
AcDbEntity
  8
DRW_FORMAT
  6
Continuous
 62
     7
100
AcDbSpline
210
0.0
220
0.0
230
1.0
 70
     8
 71
     3
 72
    12
 73
     8
 74
     0
 42
0.0000000001
 43
0.0000000001
 40
0.0
 40
0.0
 40
0.0
 40
0.0
 40
0.2415790084
 40
0.4893269843
 40
0.7378634303000001
 40
0.8656387112
 40
1.0
 40
1.0
 40
1.0
 40
1.0
 10
126.0754284737
 20
17.8624164553
 30
0.0
 10
126.1256340639
 20
17.86397729049999
 30
0.0
 10
126.2273272967
 20
17.86713881909999
 30
0.0
 10
126.3761447317
 20
17.9202110743
 30
0.0
 10
126.4665244898999
 20
18.0203974469
 30
0.0
 10
126.5063428109
 20
18.12050216619999
 30
0.0
 10
126.5070603952999
 20
18.17533931959999
 30
0.0
 10
126.5074282022
 20
18.2034467689
 30
0.0
  0
LINE
  5
266
330
22E
100
AcDbEntity
  8
DRW_FORMAT
  6
Continuous
 62
     7
100
AcDbLine
 10
126.5074282022
 20
18.2034467689
 30
0.0
 11
126.5074282022
 21
19.34394595799999
 31
0.0
  0
SPLINE
  5
267
330
22E
100
AcDbEntity
  8
DRW_FORMAT
  6
Continuous
 62
     7
100
AcDbSpline
210
0.0
220
0.0
230
1.0
 70
     8
 71
     3
 72
    12
 73
     8
 74
     0
 42
0.0000000001
 43
0.0000000001
 40
0.0
 40
0.0
 40
0.0
 40
0.0
 40
0.1343612888
 40
0.2621365697
 40
0.5106730157000001
 40
0.7584209916
 40
1.0
 40
1.0
 40
1.0
 40
1.0
 10
126.5074282022
 20
19.34394595799999
 30
0.0
 10
126.5070603952999
 20
19.37205340869999
 30
0.0
 10
126.5063428109
 20
19.42689056209999
 30
0.0
 10
126.4665244898999
 20
19.5269952814
 30
0.0
 10
126.3761447317
 20
19.627181654
 30
0.0
 10
126.2273272967
 20
19.6802539078
 30
0.0
 10
126.1256340639
 20
19.6834154364
 30
0.0
 10
126.0754284737
 20
19.6849762716
 30
0.0
  0
LINE
  5
268
330
22E
100
AcDbEntity
  8
DRW_FORMAT
  6
Continuous
 62
     7
100
AcDbLine
 10
126.0754284737
 20
19.6849762716
 30
0.0
 11
123.7522111639
 21
19.6849762716
 31
0.0
  0
SPLINE
  5
269
330
22E
100
AcDbEntity
  8
DRW_FORMAT
  6
Continuous
 62
     7
100
AcDbSpline
210
0.0
220
0.0
230
1.0
 70
     8
 71
     3
 72
    12
 73
     8
 74
     0
 42
0.0000000001
 43
0.0000000001
 40
0.0
 40
0.0
 40
0.0
 40
0.0
 40
0.1341799809
 40
0.2908319589999999
 40
0.5815217441
 40
0.7607838570000001
 40
1.0
 40
1.0
 40
1.0
 40
1.0
 10
123.7522111639
 20
19.6849762716
 30
0.0
 10
123.7015376697
 20
19.6763156907
 30
0.0
 10
123.5917040614999
 20
19.65754408269999
 30
0.0
 10
123.4068168092
 20
19.51941524599999
 30
0.0
 10
123.3192448233999
 20
19.2870273493
 30
0.0
 10
123.2680072376
 20
19.0235942502
 30
0.0
 10
123.2641609926
 20
18.86425790459999
 30
0.0
 10
123.2619623498
 20
18.77317592949999
 30
0.0
  0
SPLINE
  5
26A
330
22E
100
AcDbEntity
  8
DRW_FORMAT
  6
Continuous
 62
     7
100
AcDbSpline
210
0.0
220
0.0
230
1.0
 70
     8
 71
     3
 72
    12
 73
     8
 74
     0
 42
0.0000000001
 43
0.0000000001
 40
0.0
 40
0.0
 40
0.0
 40
0.0
 40
0.2392679579
 40
0.4185688994
 40
0.7093216488
 40
0.8660075581
 40
1.0
 40
1.0
 40
1.0
 40
1.0
 10
123.2619623498
 20
18.77317592949999
 30
0.0
 10
123.2641618708999
 20
18.6820975044
 30
0.0
 10
123.2680096512
 20
18.5227673692
 30
0.0
 10
123.319236181
 20
18.2592895664
 30
0.0
 10
123.4068616709
 20
18.0271180195
 30
0.0
 10
123.5915564296
 20
17.88854065019999
 30
0.0
 10
123.7015212631999
 20
17.8706591808
 30
0.0
 10
123.7522111639
 20
17.8624164553
 30
0.0
  0
LINE
  5
26B
330
22E
100
AcDbEntity
  8
DRW_FORMAT
  6
Continuous
 62
     7
100
AcDbLine
 10
126.0381396512999
 20
18.3316482283
 30
0.0
 11
126.0381396512999
 21
19.24544821579999
 31
0.0
  0
ARC
  5
26C
330
22E
100
AcDbEntity
  8
DRW_FORMAT
  6
Continuous
 62
     7
100
AcDbCircle
 10
124.1155475261
 20
18.3316482283
 30
0.0
 40
0.091640839
100
AcDbArc
 50
180.0
 51
270.0
  0
LINE
  5
26D
330
22E
100
AcDbEntity
  8
DRW_FORMAT
  6
Continuous
 62
     7
100
AcDbLine
 10
124.1155475261
 20
18.2400073892
 30
0.0
 11
125.1681022896999
 21
18.2400073892
 31
0.0
  0
LINE
  5
26E
330
22E
100
AcDbEntity
  8
DRW_FORMAT
  6
Continuous
 62
     7
100
AcDbLine
 10
125.1681022896999
 20
18.2400073892
 30
0.0
 11
125.1681022896999
 21
18.41654927409999
 31
0.0
  0
ARC
  5
26F
330
22E
100
AcDbEntity
  8
DRW_FORMAT
  6
Continuous
 62
     7
100
AcDbCircle
 10
125.2033487669
 20
18.41654927409999
 30
0.0
 40
0.0352464766
100
AcDbArc
 50
90.0
 51
180.0
  0
LINE
  5
270
330
22E
100
AcDbEntity
  8
DRW_FORMAT
  6
Continuous
 62
     7
100
AcDbLine
 10
125.2033487662
 20
18.4517957507
 30
0.0
 11
125.7493753269
 21
18.4517957507
 31
0.0
  0
ARC
  5
271
330
22E
100
AcDbEntity
  8
DRW_FORMAT
  6
Continuous
 62
     7
100
AcDbCircle
 10
125.7493753255999
 20
18.4165492754
 30
0.0
 40
0.0352464766
100
AcDbArc
 50
0.0
 51
90.0
  0
LINE
  5
272
330
22E
100
AcDbEntity
  8
DRW_FORMAT
  6
Continuous
 62
     7
100
AcDbLine
 10
125.7846218033999
 20
18.2400073892
 30
0.0
 11
125.9464988123
 21
18.2400073892
 31
0.0
  0
ARC
  5
273
330
22E
100
AcDbEntity
  8
DRW_FORMAT
  6
Continuous
 62
     7
100
AcDbCircle
 10
125.9464988123
 20
18.3316482283
 30
0.0
 40
0.091640839
100
AcDbArc
 50
270.0
 51
360.0
  0
LINE
  5
274
330
22E
100
AcDbEntity
  8
DRW_FORMAT
  6
Continuous
 62
     7
100
AcDbLine
 10
125.7846218033999
 20
18.2400073892
 30
0.0
 11
125.7846218033999
 21
18.41654927409999
 31
0.0
  0
LINE
  5
275
330
22E
100
AcDbEntity
  8
DRW_FORMAT
  6
Continuous
 62
     7
100
AcDbLine
 10
124.0239066870999
 20
18.3316482283
 30
0.0
 11
124.0239066870999
 21
19.24544821579999
 31
0.0
  0
ARC
  5
276
330
22E
100
AcDbEntity
  8
DRW_FORMAT
  6
Continuous
 62
     7
100
AcDbCircle
 10
124.1155475273999
 20
19.24544821579999
 30
0.0
 40
0.091640839
100
AcDbArc
 50
90.0
 51
180.0
  0
LINE
  5
277
330
22E
100
AcDbEntity
  8
DRW_FORMAT
  6
Continuous
 62
     7
100
AcDbLine
 10
124.1155475261
 20
19.33708905479999
 30
0.0
 11
125.9464988123
 21
19.33708905479999
 31
0.0
  0
ARC
  5
278
330
22E
100
AcDbEntity
  8
DRW_FORMAT
  6
Continuous
 62
     7
100
AcDbCircle
 10
125.9464988131
 20
19.24544821499999
 30
0.0
 40
0.091640839
100
AcDbArc
 50
0.0000000277
 51
90.00000002770001
  0
ARC
  5
279
330
22E
100
AcDbEntity
  8
DRW_FORMAT
  6
Continuous
 62
     7
100
AcDbCircle
 10
127.6570823801
 20
19.0517993153
 30
0.0
 40
0.091640839
100
AcDbArc
 50
180.0
 51
270.0
  0
ARC
  5
27A
330
22E
100
AcDbEntity
  8
DRW_FORMAT
  6
Continuous
 62
     7
100
AcDbCircle
 10
128.8983279152
 20
18.3109650925
 30
0.0
 40
0.091640839
100
AcDbArc
 50
270.0
 51
360.0
  0
ARC
  5
27B
330
22E
100
AcDbEntity
  8
DRW_FORMAT
  6
Continuous
 62
     7
100
AcDbCircle
 10
130.9035676043
 20
18.3189038044
 30
0.0
 40
0.091640839
100
AcDbArc
 50
180.0
 51
270.0
  0
ENDBLK
  5
27C
330
22E
100
AcDbEntity
  8
0
  6
ByBlock
 62
     0
100
AcDbBlockEnd
  0
BLOCK
  5
27D
330
22F
100
AcDbEntity
  8
0
  6
Continuous
 62
     7
100
AcDbBlockBegin
  2
*D2
 70
     1
 10
0.0
 20
0.0
 30
0.0
  3
*D2
  1

  0
LINE
  5
8DF
330
22F
100
AcDbEntity
  8
0
  6
Continuous
 62
     0
370
    -2
100
AcDbLine
 10
29.24458088969999
 20
83.524380397
 30
0.0
 11
29.24458088969999
 21
88.45333030570001
 31
0.0
  0
LINE
  5
8E0
330
22F
100
AcDbEntity
  8
0
  6
Continuous
 62
     0
370
    -2
100
AcDbLine
 10
59.2445808897
 20
83.524380397
 30
0.0
 11
59.2445808897
 21
88.45333030570001
 31
0.0
  0
LINE
  5
8E1
330
22F
100
AcDbEntity
  8
0
  6
Continuous
 62
     0
370
    -2
100
AcDbLine
 10
30.63346977859999
 20
88.27333030570001
 30
0.0
 11
40.68014822901333
 21
88.27333030570001
 31
0.0
  0
LINE
  5
8E2
330
22F
100
AcDbEntity
  8
0
  6
Continuous
 62
     0
370
    -2
100
AcDbLine
 10
57.85569200080001
 20
88.27333030570001
 30
0.0
 11
48.39002477218667
 21
88.27333030570001
 31
0.0
  0
INSERT
  5
8E3
330
22F
100
AcDbEntity
  8
0
  6
Continuous
 62
     0
370
    -2
100
AcDbBlockReference
  2
_CLOSED
 10
29.24458088969999
 20
88.27333030570001
 30
0.0
 41
1.388888888899999
 42
1.388888888899999
 43
1.388888888899999
 50
180.0
  0
INSERT
  5
8E4
330
22F
100
AcDbEntity
  8
0
  6
Continuous
 62
     0
370
    -2
100
AcDbBlockReference
  2
_CLOSED
 10
59.2445808897
 20
88.27333030570001
 30
0.0
 41
1.388888888899999
 42
1.388888888899999
 43
1.388888888899999
  0
MTEXT
  5
8E5
330
22F
100
AcDbEntity
  8
0
  6
Continuous
 62
     0
100
AcDbMText
 10
44.5350865006
 20
88.27333030570001
 30
0.0
 40
1.1574074074
 41
0.0
 71
     5
 72
     1
  1
\A1;30.00\P [762.0]
 73
     1
 44
1.0
  0
POINT
  5
8E6
330
22F
100
AcDbEntity
  8
Defpoints
  6
Continuous
 62
     0
100
AcDbPoint
 10
29.24458088969999
 20
83.46188039700001
 30
0.0
  0
POINT
  5
8E7
330
22F
100
AcDbEntity
  8
Defpoints
  6
Continuous
 62
     0
100
AcDbPoint
 10
59.2445808897
 20
83.46188039700001
 30
0.0
  0
POINT
  5
8E8
330
22F
100
AcDbEntity
  8
Defpoints
  6
Continuous
 62
     0
100
AcDbPoint
 10
59.2445808897
 20
88.27333030570001
 30
0.0
  0
ENDBLK
  5
288
330
22F
100
AcDbEntity
  8
0
  6
ByBlock
 62
     0
100
AcDbBlockEnd
  0
BLOCK
  5
289
330
230
100
AcDbEntity
  8
0
  6
Continuous
 62
     7
100
AcDbBlockBegin
  2
*D3
 70
     1
 10
0.0
 20
0.0
 30
0.0
  3
*D3
  1

  0
LINE
  5
8D4
330
230
100
AcDbEntity
  8
0
  6
Continuous
 62
     0
370
    -2
100
AcDbLine
 10
117.7392242522999
 20
73.538917434
 30
0.0
 11
127.69239580944
 21
73.538917434
 31
0.0
  0
LINE
  5
8D5
330
230
100
AcDbEntity
  8
0
  6
Continuous
 62
     0
370
    -2
100
AcDbLine
 10
117.7392242522999
 20
66.35891743399999
 30
0.0
 11
127.69239580944
 21
66.35891743399999
 31
0.0
  0
LINE
  5
8D6
330
230
100
AcDbEntity
  8
0
  6
Continuous
 62
     0
370
    -2
100
AcDbLine
 10
127.51239580944
 20
67.74780632289999
 30
0.0
 11
127.51239580944
 21
72.1500285451
 31
0.0
  0
LINE
  5
8D7
330
230
100
AcDbEntity
  8
0
  6
Continuous
 62
     0
370
    -2
100
AcDbLine
 10
127.51239580944
 20
73.538917434
 30
0.0
 11
127.51239580944
 21
75.47891800569998
 31
0.0
  0
LINE
  5
8D8
330
230
100
AcDbEntity
  8
0
  6
Continuous
 62
     0
370
    -2
100
AcDbLine
 10
127.51239580944
 20
75.47891800569998
 30
0.0
 11
128.90128469834
 21
75.47891800569998
 31
0.0
  0
INSERT
  5
8D9
330
230
100
AcDbEntity
  8
0
  6
Continuous
 62
     0
370
    -2
100
AcDbBlockReference
  2
_CLOSED
 10
127.51239580944
 20
66.35891743399999
 30
0.0
 41
1.388888888899999
 42
1.388888888899999
 43
1.388888888899999
 50
270.0
  0
INSERT
  5
8DA
330
230
100
AcDbEntity
  8
0
  6
Continuous
 62
     0
370
    -2
100
AcDbBlockReference
  2
_CLOSED
 10
127.51239580944
 20
73.538917434
 30
0.0
 41
1.388888888899999
 42
1.388888888899999
 43
1.388888888899999
 50
90.0
  0
MTEXT
  5
8DB
330
230
100
AcDbEntity
  8
0
  6
Continuous
 62
     0
100
AcDbMText
 10
132.6790624760999
 20
75.47891800569999
 30
0.0
 40
1.1574074074
 41
0.0
 71
     5
 72
     1
  1
\A1;7.18\P [182.4]
 73
     1
 44
1.0
  0
POINT
  5
8DC
330
230
100
AcDbEntity
  8
Defpoints
  6
Continuous
 62
     0
100
AcDbPoint
 10
117.6767242523
 20
73.538917434
 30
0.0
  0
POINT
  5
8DD
330
230
100
AcDbEntity
  8
Defpoints
  6
Continuous
 62
     0
100
AcDbPoint
 10
117.6767242523
 20
66.35891743399999
 30
0.0
  0
POINT
  5
8DE
330
230
100
AcDbEntity
  8
Defpoints
  6
Continuous
 62
     0
100
AcDbPoint
 10
127.51239580944
 20
66.35891743399999
 30
0.0
  0
ENDBLK
  5
296
330
230
100
AcDbEntity
  8
0
  6
ByBlock
 62
     0
100
AcDbBlockEnd
  0
BLOCK
  5
297
330
231
100
AcDbEntity
  8
0
  6
Continuous
 62
     7
100
AcDbBlockBegin
  2
*D4
 70
     1
 10
0.0
 20
0.0
 30
0.0
  3
*D4
  1

  0
LINE
  5
8CA
330
231
100
AcDbEntity
  8
0
  6
Continuous
 62
     0
370
    -2
100
AcDbLine
 10
112.3337612894
 20
73.81438039699999
 30
0.0
 11
112.3337612894
 21
86.43192433459999
 31
0.0
  0
LINE
  5
8CB
330
231
100
AcDbEntity
  8
0
  6
Continuous
 62
     0
370
    -2
100
AcDbLine
 10
117.4637612894
 20
73.81438039699999
 30
0.0
 11
117.4637612894
 21
86.43192433459999
 31
0.0
  0
LINE
  5
8CC
330
231
100
AcDbEntity
  8
0
  6
Continuous
 62
     0
370
    -2
100
AcDbLine
 10
113.7226501783
 20
86.25192433459998
 30
0.0
 11
116.0748724005
 21
86.25192433459998
 31
0.0
  0
LINE
  5
8CD
330
231
100
AcDbEntity
  8
0
  6
Continuous
 62
     0
370
    -2
100
AcDbLine
 10
117.4637612894
 20
86.25192433459998
 30
0.0
 11
120.9090130325666
 21
86.25192433459998
 31
0.0
  0
INSERT
  5
8CE
330
231
100
AcDbEntity
  8
0
  6
Continuous
 62
     0
370
    -2
100
AcDbBlockReference
  2
_CLOSED
 10
112.3337612894
 20
86.25192433459998
 30
0.0
 41
1.388888888899999
 42
1.388888888899999
 43
1.388888888899999
 50
180.0
  0
INSERT
  5
8CF
330
231
100
AcDbEntity
  8
0
  6
Continuous
 62
     0
370
    -2
100
AcDbBlockReference
  2
_CLOSED
 10
117.4637612894
 20
86.25192433459998
 30
0.0
 41
1.388888888899999
 42
1.388888888899999
 43
1.388888888899999
  0
MTEXT
  5
8D0
330
231
100
AcDbEntity
  8
0
  6
Continuous
 62
     0
100
AcDbMText
 10
124.6096303165
 20
86.25192433459998
 30
0.0
 40
1.1574074074
 41
0.0
 71
     5
 72
     1
  1
\A1;5.13\P [130.3]
 73
     1
 44
1.0
  0
POINT
  5
8D1
330
231
100
AcDbEntity
  8
Defpoints
  6
Continuous
 62
     0
100
AcDbPoint
 10
112.3337612894
 20
73.75188039699999
 30
0.0
  0
POINT
  5
8D2
330
231
100
AcDbEntity
  8
Defpoints
  6
Continuous
 62
     0
100
AcDbPoint
 10
117.4637612894
 20
73.75188039699999
 30
0.0
  0
POINT
  5
8D3
330
231
100
AcDbEntity
  8
Defpoints
  6
Continuous
 62
     0
100
AcDbPoint
 10
117.4637612894
 20
86.25192433459998
 30
0.0
  0
ENDBLK
  5
2A2
330
231
100
AcDbEntity
  8
0
  6
ByBlock
 62
     0
100
AcDbBlockEnd
  0
BLOCK
  5
2A3
330
232
100
AcDbEntity
  8
0
  6
Continuous
 62
     7
100
AcDbBlockBegin
  2
*D5
 70
     1
 10
0.0
 20
0.0
 30
0.0
  3
*D5
  1

  0
LINE
  5
8C0
330
232
100
AcDbEntity
  8
0
  6
Continuous
 62
     0
370
    -2
100
AcDbLine
 10
117.7392242522999
 20
66.35891743399999
 30
0.0
 11
127.7675225795
 21
66.35891743399999
 31
0.0
  0
LINE
  5
8C1
330
232
100
AcDbEntity
  8
0
  6
Continuous
 62
     0
370
    -2
100
AcDbLine
 10
119.8642242522999
 20
30.368917434
 30
0.0
 11
127.7675225794999
 21
30.368917434
 31
0.0
  0
LINE
  5
8C2
330
232
100
AcDbEntity
  8
0
  6
Continuous
 62
     0
370
    -2
100
AcDbLine
 10
127.5875225795
 20
64.97002854509999
 30
0.0
 11
127.5875225795
 21
51.38973808403331
 31
0.0
  0
LINE
  5
8C3
330
232
100
AcDbEntity
  8
0
  6
Continuous
 62
     0
370
    -2
100
AcDbLine
 10
127.5875225795
 20
31.75780632289999
 30
0.0
 11
127.5875225795
 21
46.30331833096664
 31
0.0
  0
INSERT
  5
8C4
330
232
100
AcDbEntity
  8
0
  6
Continuous
 62
     0
370
    -2
100
AcDbBlockReference
  2
_CLOSED
 10
127.5875225795
 20
66.35891743399999
 30
0.0
 41
1.388888888899999
 42
1.388888888899999
 43
1.388888888899999
 50
90.0
  0
INSERT
  5
8C5
330
232
100
AcDbEntity
  8
0
  6
Continuous
 62
     0
370
    -2
100
AcDbBlockReference
  2
_CLOSED
 10
127.5875225795
 20
30.368917434
 30
0.0
 41
1.388888888899999
 42
1.388888888899999
 43
1.388888888899999
 50
270.0
  0
MTEXT
  5
8C6
330
232
100
AcDbEntity
  8
0
  6
Continuous
 62
     0
100
AcDbMText
 10
127.5875225795
 20
48.8465282075
 30
0.0
 40
1.1574074074
 41
0.0
 71
     5
 72
     1
  1
\A1;35.99\P [914.1]
 73
     1
 44
1.0
  0
POINT
  5
8C7
330
232
100
AcDbEntity
  8
Defpoints
  6
Continuous
 62
     0
100
AcDbPoint
 10
117.6767242523
 20
66.35891743399999
 30
0.0
  0
POINT
  5
8C8
330
232
100
AcDbEntity
  8
Defpoints
  6
Continuous
 62
     0
100
AcDbPoint
 10
119.8017242523
 20
30.368917434
 30
0.0
  0
POINT
  5
8C9
330
232
100
AcDbEntity
  8
Defpoints
  6
Continuous
 62
     0
100
AcDbPoint
 10
127.5875225795
 20
30.368917434
 30
0.0
  0
ENDBLK
  5
2AE
330
232
100
AcDbEntity
  8
0
  6
ByBlock
 62
     0
100
AcDbBlockEnd
  0
BLOCK
  5
2AF
330
233
100
AcDbEntity
  8
0
  6
Continuous
 62
     7
100
AcDbBlockBegin
  2
*D6
 70
     1
 10
0.0
 20
0.0
 30
0.0
  3
*D6
  1

  0
LINE
  5
8B6
330
233
100
AcDbEntity
  8
0
  6
Continuous
 62
     0
370
    -2
100
AcDbLine
 10
59.52004385270001
 20
83.248917434
 30
0.0
 11
71.60364202970002
 21
83.248917434
 31
0.0
  0
LINE
  5
8B7
330
233
100
AcDbEntity
  8
0
  6
Continuous
 62
     0
370
    -2
100
AcDbLine
 10
58.09159396390001
 20
30.368917434
 30
0.0
 11
71.60364202970001
 21
30.368917434
 31
0.0
  0
LINE
  5
8B8
330
233
100
AcDbEntity
  8
0
  6
Continuous
 62
     0
370
    -2
100
AcDbLine
 10
71.42364202970002
 20
81.86002854509998
 30
0.0
 11
71.42364202970002
 21
63.04325108003332
 31
0.0
  0
LINE
  5
8B9
330
233
100
AcDbEntity
  8
0
  6
Continuous
 62
     0
370
    -2
100
AcDbLine
 10
71.4236420297
 20
31.75780632289999
 30
0.0
 11
71.42364202970002
 21
57.95683132696666
 31
0.0
  0
INSERT
  5
8BA
330
233
100
AcDbEntity
  8
0
  6
Continuous
 62
     0
370
    -2
100
AcDbBlockReference
  2
_CLOSED
 10
71.42364202970002
 20
83.248917434
 30
0.0
 41
1.388888888899999
 42
1.388888888899999
 43
1.388888888899999
 50
90.0
  0
INSERT
  5
8BB
330
233
100
AcDbEntity
  8
0
  6
Continuous
 62
     0
370
    -2
100
AcDbBlockReference
  2
_CLOSED
 10
71.4236420297
 20
30.368917434
 30
0.0
 41
1.388888888899999
 42
1.388888888899999
 43
1.388888888899999
 50
270.0
  0
MTEXT
  5
8BC
330
233
100
AcDbEntity
  8
0
  6
Continuous
 62
     0
100
AcDbMText
 10
71.4236420297
 20
60.5000412035
 30
0.0
 40
1.1574074074
 41
0.0
 71
     5
 72
     1
  1
\A1;52.88\P [1343.2]
 73
     1
 44
1.0
  0
POINT
  5
8BD
330
233
100
AcDbEntity
  8
Defpoints
  6
Continuous
 62
     0
100
AcDbPoint
 10
59.4575438527
 20
83.248917434
 30
0.0
  0
POINT
  5
8BE
330
233
100
AcDbEntity
  8
Defpoints
  6
Continuous
 62
     0
100
AcDbPoint
 10
58.0290939639
 20
30.368917434
 30
0.0
  0
POINT
  5
8BF
330
233
100
AcDbEntity
  8
Defpoints
  6
Continuous
 62
     0
100
AcDbPoint
 10
71.4236420297
 20
30.368917434
 30
0.0
  0
ENDBLK
  5
2BA
330
233
100
AcDbEntity
  8
0
  6
ByBlock
 62
     0
100
AcDbBlockEnd
  0
BLOCK
  5
2BB
330
234
100
AcDbEntity
  8
0
  6
Continuous
 62
     7
100
AcDbBlockBegin
  2
*D7
 70
     1
 10
0.0
 20
0.0
 30
0.0
  3
*D7
  1

  0
LINE
  5
8AB
330
234
100
AcDbEntity
  8
0
  6
Continuous
 62
     0
370
    -2
100
AcDbLine
 10
59.52004385270001
 20
83.248917434
 30
0.0
 11
62.49007512593336
 21
83.248917434
 31
0.0
  0
LINE
  5
8AC
330
234
100
AcDbEntity
  8
0
  6
Continuous
 62
     0
370
    -2
100
AcDbLine
 10
54.0195438527
 20
83.56291743399999
 30
0.0
 11
62.49007512593336
 21
83.56291743399999
 31
0.0
  0
LINE
  5
8AD
330
234
100
AcDbEntity
  8
0
  6
Continuous
 62
     0
370
    -2
100
AcDbLine
 10
62.31007512593336
 20
81.86002854509998
 30
0.0
 11
62.31007512593336
 21
80.47113965619999
 31
0.0
  0
LINE
  5
8AE
330
234
100
AcDbEntity
  8
0
  6
Continuous
 62
     0
370
    -2
100
AcDbLine
 10
62.31007512593336
 20
84.95180632289999
 30
0.0
 11
62.31007512593336
 21
86.70185130309999
 31
0.0
  0
LINE
  5
8AF
330
234
100
AcDbEntity
  8
0
  6
Continuous
 62
     0
370
    -2
100
AcDbLine
 10
62.31007512593336
 20
86.70185130309999
 30
0.0
 11
63.69896401483336
 21
86.70185130309999
 31
0.0
  0
INSERT
  5
8B0
330
234
100
AcDbEntity
  8
0
  6
Continuous
 62
     0
370
    -2
100
AcDbBlockReference
  2
_CLOSED
 10
62.31007512593336
 20
83.248917434
 30
0.0
 41
1.388888888899999
 42
1.388888888899999
 43
1.388888888899999
 50
90.0
  0
INSERT
  5
8B1
330
234
100
AcDbEntity
  8
0
  6
Continuous
 62
     0
370
    -2
100
AcDbBlockReference
  2
_CLOSED
 10
62.31007512593336
 20
83.56291743399999
 30
0.0
 41
1.388888888899999
 42
1.388888888899999
 43
1.388888888899999
 50
270.0
  0
MTEXT
  5
8B2
330
234
100
AcDbEntity
  8
0
  6
Continuous
 62
     0
100
AcDbMText
 10
66.6279763605
 20
86.70185130310001
 30
0.0
 40
1.1574074074
 41
0.0
 71
     5
 72
     1
  1
\A1;.31\P [8.0]
 73
     1
 44
1.0
  0
POINT
  5
8B3
330
234
100
AcDbEntity
  8
Defpoints
  6
Continuous
 62
     0
100
AcDbPoint
 10
59.4575438527
 20
83.248917434
 30
0.0
  0
POINT
  5
8B4
330
234
100
AcDbEntity
  8
Defpoints
  6
Continuous
 62
     0
100
AcDbPoint
 10
53.95704385270001
 20
83.56291743399999
 30
0.0
  0
POINT
  5
8B5
330
234
100
AcDbEntity
  8
Defpoints
  6
Continuous
 62
     0
100
AcDbPoint
 10
62.31007512593336
 20
83.56291743399999
 30
0.0
  0
ENDBLK
  5
2C7
330
234
100
AcDbEntity
  8
0
  6
ByBlock
 62
     0
100
AcDbBlockEnd
  0
BLOCK
  5
2C8
330
235
100
AcDbEntity
  8
0
  6
Continuous
 62
     7
100
AcDbBlockBegin
  2
*D8
 70
     1
 10
0.0
 20
0.0
 30
0.0
  3
*D8
  1

  0
TEXT
  5
2C9
330
235
100
AcDbEntity
  8
0
  6
Continuous
 62
     7
100
AcDbText
 10
65.1724208968
 20
26.716948272
 30
0.0
 40
1.1574074074
  1
.75
 41
0.8
100
AcDbText
  0
TEXT
  5
2CA
330
235
100
AcDbEntity
  8
0
  6
Continuous
 62
     7
100
AcDbText
 10
66.09834682270001
 20
24.9808371609
 30
0.0
 40
1.1574074074
  1
19,1
 41
0.8
100
AcDbText
  0
TEXT
  5
2CB
330
235
100
AcDbEntity
  8
0
  6
Continuous
 62
     7
100
AcDbText
 10
65.1724208968
 20
24.9808371609
 30
0.0
 40
1.1574074074
  1
[
 41
0.8
100
AcDbText
  0
TEXT
  5
2CC
330
235
100
AcDbEntity
  8
0
  6
Continuous
 62
     7
100
AcDbText
 10
69.80205052640001
 20
24.9808371609
 30
0.0
 40
1.1574074074
  1
]
 41
0.8
100
AcDbText
  0
LINE
  5
2CD
330
235
100
AcDbEntity
  8
0
  6
Continuous
 62
     7
100
AcDbLine
 10
58.1727649
 20
30.368917434
 30
0.0
 11
64.2464949708
 21
30.368917434
 31
0.0
  0
LINE
  5
2CE
330
235
100
AcDbEntity
  8
0
  6
Continuous
 62
     7
100
AcDbLine
 10
59.4575438527
 20
31.118917434
 30
0.0
 11
64.2464949708
 21
31.118917434
 31
0.0
  0
LINE
  5
2CF
330
235
100
AcDbEntity
  8
0
  6
Continuous
 62
     7
100
AcDbLine
 10
63.32056904489999
 20
30.368917434
 30
0.0
 11
63.32056904489999
 21
27.2956519757
 31
0.0
  0
LINE
  5
2D0
330
235
100
AcDbEntity
  8
0
  6
Continuous
 62
     7
100
AcDbLine
 10
63.32056904489999
 20
27.2956519757
 30
0.0
 11
64.5937171931
 21
27.2956519757
 31
0.0
  0
LINE
  5
2D1
330
235
100
AcDbEntity
  8
0
  6
Continuous
 62
     7
100
AcDbLine
 10
63.32056904489999
 20
31.118917434
 30
0.0
 11
63.32056904489999
 21
34.8226211377
 31
0.0
  0
INSERT
  5
2D2
330
235
100
AcDbEntity
  8
0
  6
Continuous
 62
     7
100
AcDbBlockReference
  2
_CLOSED
 10
63.32056904489999
 20
30.368917434
 30
0.0
 41
1.388889
 42
1.388889
 43
1.388889
 50
90.0
  0
INSERT
  5
2D3
330
235
100
AcDbEntity
  8
0
  6
Continuous
 62
     7
100
AcDbBlockReference
  2
_CLOSED
 10
63.32056904489999
 20
31.118917434
 30
0.0
 41
1.388889
 42
1.388889
 43
1.388889
 50
270.0
  0
ENDBLK
  5
2D4
330
235
100
AcDbEntity
  8
0
  6
ByBlock
 62
     0
100
AcDbBlockEnd
  0
BLOCK
  5
2D5
330
236
100
AcDbEntity
  8
0
  6
Continuous
 62
     7
100
AcDbBlockBegin
  2
*D9
 70
     1
 10
0.0
 20
0.0
 30
0.0
  3
*D9
  1

  0
LINE
  5
8A1
330
236
100
AcDbEntity
  8
0
  6
Continuous
 62
     0
370
    -2
100
AcDbLine
 10
101.2137612894
 20
83.524380397
 30
0.0
 11
101.2137612894
 21
90.59733659409999
 31
0.0
  0
LINE
  5
8A2
330
236
100
AcDbEntity
  8
0
  6
Continuous
 62
     0
370
    -2
100
AcDbLine
 10
112.3337612894
 20
73.81438039699999
 30
0.0
 11
112.3337612894
 21
90.59733659409999
 31
0.0
  0
LINE
  5
8A3
330
236
100
AcDbEntity
  8
0
  6
Continuous
 62
     0
370
    -2
100
AcDbLine
 10
110.9448724005
 20
90.41733659409999
 30
0.0
 11
102.6026501783
 21
90.41733659409999
 31
0.0
  0
LINE
  5
8A4
330
236
100
AcDbEntity
  8
0
  6
Continuous
 62
     0
370
    -2
100
AcDbLine
 10
101.2137612894
 20
90.41733659409999
 30
0.0
 11
99.58177409411334
 21
90.41733659409999
 31
0.0
  0
INSERT
  5
8A5
330
236
100
AcDbEntity
  8
0
  6
Continuous
 62
     0
370
    -2
100
AcDbBlockReference
  2
_CLOSED
 10
112.3337612894
 20
90.41733659409999
 30
0.0
 41
1.388888888899999
 42
1.388888888899999
 43
1.388888888899999
  0
INSERT
  5
8A6
330
236
100
AcDbEntity
  8
0
  6
Continuous
 62
     0
370
    -2
100
AcDbBlockReference
  2
_CLOSED
 10
101.2137612894
 20
90.41733659409999
 30
0.0
 41
1.388888888899999
 42
1.388888888899999
 43
1.388888888899999
 50
180.0
  0
MTEXT
  5
8A7
330
236
100
AcDbEntity
  8
0
  6
Continuous
 62
     0
100
AcDbMText
 10
95.64967532870001
 20
90.41733659409999
 30
0.0
 40
1.1574074074
 41
0.0
 71
     5
 72
     1
  1
\A1;11.12\P [282.4]
 73
     1
 44
1.0
  0
POINT
  5
8A8
330
236
100
AcDbEntity
  8
Defpoints
  6
Continuous
 62
     0
100
AcDbPoint
 10
101.2137612894
 20
83.46188039700001
 30
0.0
  0
POINT
  5
8A9
330
236
100
AcDbEntity
  8
Defpoints
  6
Continuous
 62
     0
100
AcDbPoint
 10
112.3337612894
 20
73.75188039699999
 30
0.0
  0
POINT
  5
8AA
330
236
100
AcDbEntity
  8
Defpoints
  6
Continuous
 62
     0
100
AcDbPoint
 10
112.3337612894
 20
90.41733659409999
 30
0.0
  0
ENDBLK
  5
2E1
330
236
100
AcDbEntity
  8
0
  6
ByBlock
 62
     0
100
AcDbBlockEnd
  0
BLOCK
  5
2E2
330
237
100
AcDbEntity
  8
0
  6
Continuous
 62
     7
100
AcDbBlockBegin
  2
*D10
 70
     1
 10
0.0
 20
0.0
 30
0.0
  3
*D10
  1

  0
LINE
  5
897
330
237
100
AcDbEntity
  8
0
  6
Continuous
 62
     0
370
    -2
100
AcDbLine
 10
59.52004385270001
 20
120.3162776761
 30
0.0
 11
65.72614466730001
 21
120.3162776761
 31
0.0
  0
LINE
  5
898
330
237
100
AcDbEntity
  8
0
  6
Continuous
 62
     0
370
    -2
100
AcDbLine
 10
59.51711347779999
 20
100.0662776761
 30
0.0
 11
65.72614466730001
 21
100.0662776761
 31
0.0
  0
LINE
  5
899
330
237
100
AcDbEntity
  8
0
  6
Continuous
 62
     0
370
    -2
100
AcDbLine
 10
65.54614466730003
 20
118.9273887871999
 30
0.0
 11
65.54614466730003
 21
112.9162213937333
 31
0.0
  0
LINE
  5
89A
330
237
100
AcDbEntity
  8
0
  6
Continuous
 62
     0
370
    -2
100
AcDbLine
 10
65.54614466730003
 20
101.4551665649999
 30
0.0
 11
65.54614466730003
 21
107.8298016406666
 31
0.0
  0
INSERT
  5
89B
330
237
100
AcDbEntity
  8
0
  6
Continuous
 62
     0
370
    -2
100
AcDbBlockReference
  2
_CLOSED
 10
65.54614466730003
 20
120.3162776761
 30
0.0
 41
1.388888888899999
 42
1.388888888899999
 43
1.388888888899999
 50
90.0
  0
INSERT
  5
89C
330
237
100
AcDbEntity
  8
0
  6
Continuous
 62
     0
370
    -2
100
AcDbBlockReference
  2
_CLOSED
 10
65.54614466730003
 20
100.0662776761
 30
0.0
 41
1.388888888899999
 42
1.388888888899999
 43
1.388888888899999
 50
270.0
  0
MTEXT
  5
89D
330
237
100
AcDbEntity
  8
0
  6
Continuous
 62
     0
100
AcDbMText
 10
65.5461446673
 20
110.3730115172
 30
0.0
 40
1.1574074074
 41
0.0
 71
     5
 72
     1
  1
\A1;20.25\P [514.4]
 73
     1
 44
1.0
  0
POINT
  5
89E
330
237
100
AcDbEntity
  8
Defpoints
  6
Continuous
 62
     0
100
AcDbPoint
 10
59.4575438527
 20
120.3162776761
 30
0.0
  0
POINT
  5
89F
330
237
100
AcDbEntity
  8
Defpoints
  6
Continuous
 62
     0
100
AcDbPoint
 10
59.4546134778
 20
100.0662776761
 30
0.0
  0
POINT
  5
8A0
330
237
100
AcDbEntity
  8
Defpoints
  6
Continuous
 62
     0
100
AcDbPoint
 10
65.54614466730003
 20
100.0662776761
 30
0.0
  0
ENDBLK
  5
2ED
330
237
100
AcDbEntity
  8
0
  6
ByBlock
 62
     0
100
AcDbBlockEnd
  0
ENDSEC
  0
SECTION
  2
ENTITIES
  0
LINE
  5
2F4
330
1F
100
AcDbEntity
  8
DRW_FORMAT
  6
PHANTOM
100
AcDbLine
 10
0.0
 20
0.0
 30
0.0
 11
162.9629629629999
 21
0.0
 31
0.0
  0
LINE
  5
2F5
330
1F
100
AcDbEntity
  8
DRW_FORMAT
  6
PHANTOM
100
AcDbLine
 10
0.0
 20
0.0
 30
0.0
 11
0.040061768
 21
126.0383718262999
 31
0.0
  0
LINE
  5
2F6
330
1F
100
AcDbEntity
  8
DRW_FORMAT
  6
Continuous
100
AcDbLine
 10
2.436575929199999
 20
123.6418576651
 30
0.0
 11
2.396514161199999
 21
2.396514161199999
 31
0.0
  0
LINE
  5
2F7
330
1F
100
AcDbEntity
  8
DRW_FORMAT
  6
Continuous
100
AcDbLine
 10
158.2099964084999
 20
123.6418576651
 30
0.0
 11
158.1699346405
 21
2.396514161199999
 31
0.0
  0
LINE
  5
2F8
330
1F
100
AcDbEntity
  8
DRW_FORMAT
  6
Continuous
100
AcDbLine
 10
158.2099964084999
 20
123.6418576651
 30
0.0
 11
2.436575929199999
 21
123.6418576651
 31
0.0
  0
LINE
  5
2F9
330
1F
100
AcDbEntity
  8
DRW_FORMAT
  6
Continuous
100
AcDbLine
 10
2.396514161199999
 20
2.396514161199999
 30
0.0
 11
158.1699346405
 21
2.396514161199999
 31
0.0
  0
LINE
  5
2FA
330
1F
100
AcDbEntity
  8
DRW_FORMAT
  6
Continuous
100
AcDbLine
 10
21.90825348909999
 20
123.6418576651
 30
0.0
 11
21.90825348909999
 21
126.0383718262999
 31
0.0
  0
LINE
  5
2FB
330
1F
100
AcDbEntity
  8
DRW_FORMAT
  6
Continuous
100
AcDbLine
 10
41.379931049
 20
123.6418576651
 30
0.0
 11
41.379931049
 21
126.0383718262999
 31
0.0
  0
LINE
  5
2FC
330
1F
100
AcDbEntity
  8
DRW_FORMAT
  6
Continuous
100
AcDbLine
 10
60.8516086089
 20
123.6418576651
 30
0.0
 11
60.8516086089
 21
126.0383718262999
 31
0.0
  0
LINE
  5
2FD
330
1F
100
AcDbEntity
  8
DRW_FORMAT
  6
Continuous
100
AcDbLine
 10
99.79496372870002
 20
123.6418576651
 30
0.0
 11
99.79496372870002
 21
126.0383718262999
 31
0.0
  0
LINE
  5
2FE
330
1F
100
AcDbEntity
  8
DRW_FORMAT
  6
Continuous
100
AcDbLine
 10
119.2666412887
 20
123.6418576651
 30
0.0
 11
119.2666412887
 21
126.0383718262999
 31
0.0
  0
LINE
  5
2FF
330
1F
100
AcDbEntity
  8
DRW_FORMAT
  6
Continuous
100
AcDbLine
 10
138.7383188486
 20
123.6418576651
 30
0.0
 11
138.7383188486
 21
126.0383718262999
 31
0.0
  0
LINE
  5
300
330
1F
100
AcDbEntity
  8
DRW_FORMAT
  6
Continuous
100
AcDbLine
 10
21.8681917211
 20
2.396514161199999
 30
0.0
 11
21.8681917211
 21
0.0
 31
0.0
  0
LINE
  5
301
330
1F
100
AcDbEntity
  8
DRW_FORMAT
  6
Continuous
100
AcDbLine
 10
41.33986928099999
 20
2.396514161199999
 30
0.0
 11
41.33986928099999
 21
0.0
 31
0.0
  0
LINE
  5
302
330
1F
100
AcDbEntity
  8
DRW_FORMAT
  6
Continuous
100
AcDbLine
 10
60.811546841
 20
2.396514161199999
 30
0.0
 11
60.811546841
 21
0.0
 31
0.0
  0
LINE
  5
303
330
1F
100
AcDbEntity
  8
DRW_FORMAT
  6
Continuous
100
AcDbLine
 10
99.7549019608
 20
2.396514161199999
 30
0.0
 11
99.7549019608
 21
0.0
 31
0.0
  0
LINE
  5
304
330
1F
100
AcDbEntity
  8
DRW_FORMAT
  6
Continuous
100
AcDbLine
 10
119.2265795206999
 20
2.396514161199999
 30
0.0
 11
119.2265795206999
 21
0.0
 31
0.0
  0
LINE
  5
305
330
1F
100
AcDbEntity
  8
DRW_FORMAT
  6
Continuous
100
AcDbLine
 10
138.6982570805999
 20
2.396514161199999
 30
0.0
 11
138.6982570805999
 21
0.0
 31
0.0
  0
LINE
  5
306
330
1F
100
AcDbEntity
  8
DRW_FORMAT
  6
Continuous
100
AcDbLine
 10
158.3650032395999
 20
93.36215243419999
 30
0.0
 11
160.7615174008
 21
93.36215243419999
 31
0.0
  0
LINE
  5
307
330
1F
100
AcDbEntity
  8
DRW_FORMAT
  6
Continuous
100
AcDbLine
 10
2.4055952394
 20
93.32190161079999
 30
0.0
 11
0.0090810781
 21
93.32190161079999
 31
0.0
  0
LINE
  5
308
330
1F
100
AcDbEntity
  8
DRW_FORMAT
  6
Continuous
100
AcDbLine
 10
2.396514161199999
 20
32.6795645033
 30
0.0
 11
0.0
 21
32.6795645033
 31
0.0
  0
LINE
  5
309
330
1F
100
AcDbEntity
  8
DRW_FORMAT
  6
Continuous
100
AcDbLine
 10
80.28322440089999
 20
2.396514161199999
 30
0.0
 11
80.28322440089999
 21
0.0
 31
0.0
  0
LINE
  5
30A
330
1F
100
AcDbEntity
  8
DRW_FORMAT
  6
Continuous
100
AcDbLine
 10
80.28322440089999
 20
2.396514161199999
 30
0.0
 11
79.4748567397
 21
1.2579912606
 31
0.0
  0
LINE
  5
30B
330
1F
100
AcDbEntity
  8
DRW_FORMAT
  6
Continuous
100
AcDbLine
 10
80.28322440089999
 20
2.396514161199999
 30
0.0
 11
81.09159206200001
 21
1.2579912606
 31
0.0
  0
LINE
  5
30C
330
1F
100
AcDbEntity
  8
DRW_FORMAT
  6
Continuous
100
AcDbLine
 10
79.4748567397
 20
1.2579912606
 30
0.0
 11
81.09159206200001
 21
1.2579912606
 31
0.0
  0
LINE
  5
30D
330
1F
100
AcDbEntity
  8
DRW_FORMAT
  6
Continuous
100
AcDbLine
 10
158.2341837595
 20
63.009015344
 30
0.0
 11
160.6306979206999
 21
63.009015344
 31
0.0
  0
LINE
  5
30E
330
1F
100
AcDbEntity
  8
DRW_FORMAT
  6
Continuous
100
AcDbLine
 10
158.2341837595
 20
63.009015344
 30
0.0
 11
159.3727066595999
 21
62.2006476828
 31
0.0
  0
LINE
  5
30F
330
1F
100
AcDbEntity
  8
DRW_FORMAT
  6
Continuous
100
AcDbLine
 10
158.2341837595
 20
63.009015344
 30
0.0
 11
159.3727066595999
 21
63.81738300560001
 31
0.0
  0
LINE
  5
310
330
1F
100
AcDbEntity
  8
DRW_FORMAT
  6
Continuous
100
AcDbLine
 10
159.3727066595999
 20
62.2006476828
 30
0.0
 11
159.3727066595999
 21
63.81738300560001
 31
0.0
  0
LINE
  5
311
330
1F
100
AcDbEntity
  8
DRW_FORMAT
  6
Continuous
100
AcDbLine
 10
2.353564063499999
 20
63.0098599528
 30
0.0
 11
-0.0429500977
 21
63.0098599528
 31
0.0
  0
LINE
  5
312
330
1F
100
AcDbEntity
  8
DRW_FORMAT
  6
Continuous
100
AcDbLine
 10
2.353564063499999
 20
63.0098599528
 30
0.0
 11
1.215041162899999
 21
62.2014922917
 31
0.0
  0
LINE
  5
313
330
1F
100
AcDbEntity
  8
DRW_FORMAT
  6
Continuous
100
AcDbLine
 10
2.353564063499999
 20
63.0098599528
 30
0.0
 11
1.215041162899999
 21
63.81822761390001
 31
0.0
  0
LINE
  5
314
330
1F
100
AcDbEntity
  8
DRW_FORMAT
  6
Continuous
100
AcDbLine
 10
1.215041162899999
 20
62.2014922917
 30
0.0
 11
1.215041162899999
 21
63.81822761390001
 31
0.0
  0
LINE
  5
315
330
1F
100
AcDbEntity
  8
DRW_FORMAT
  6
Continuous
100
AcDbLine
 10
80.32328616879999
 20
123.6418576651
 30
0.0
 11
80.32328616879999
 21
126.0383718262999
 31
0.0
  0
LINE
  5
316
330
1F
100
AcDbEntity
  8
DRW_FORMAT
  6
Continuous
100
AcDbLine
 10
80.32328616879999
 20
123.6418576651
 30
0.0
 11
79.5149185077
 21
124.7803805656999
 31
0.0
  0
LINE
  5
317
330
1F
100
AcDbEntity
  8
DRW_FORMAT
  6
Continuous
100
AcDbLine
 10
80.32328616879999
 20
123.6418576651
 30
0.0
 11
81.13165383
 21
124.7803805656999
 31
0.0
  0
LINE
  5
318
330
1F
100
AcDbEntity
  8
DRW_FORMAT
  6
Continuous
100
AcDbLine
 10
79.5149185077
 20
124.7803805656999
 30
0.0
 11
81.13165383
 21
124.7803805656999
 31
0.0
  0
LINE
  5
319
330
1F
100
AcDbEntity
  8
DRW_FORMAT
  6
Continuous
100
AcDbLine
 10
17.1152251667
 20
123.6418576651
 30
0.0
 11
17.1152251667
 21
121.2453435037999
 31
0.0
  0
LINE
  5
31A
330
1F
100
AcDbEntity
  8
DRW_FORMAT
  6
Continuous
100
AcDbLine
 10
17.1152251667
 20
121.2453435037999
 30
0.0
 11
2.436575929199999
 21
121.2453435037999
 31
0.0
  0
LINE
  5
31B
330
1F
100
AcDbEntity
  8
DRW_FORMAT
  6
PHANTOM
100
AcDbLine
 10
162.9629629629999
 20
0.0
 30
0.0
 11
162.9629629629999
 21
125.9778957713999
 31
0.0
  0
LINE
  5
31C
330
1F
100
AcDbEntity
  8
DRW_FORMAT
  6
PHANTOM
100
AcDbLine
 10
0.0400910237
 20
125.9778957713999
 30
0.0
 11
162.9629629629999
 21
125.9778957713999
 31
0.0
  0
TEXT
  5
31D
330
1F
100
AcDbEntity
  8
DRW_FORMAT
  6
Continuous
100
AcDbText
 10
11.80478657589999
 20
1.0001453244
 30
0.0
 40
0.7489106754000002
  1
8
 41
0.8
100
AcDbText
  0
TEXT
  5
31E
330
1F
100
AcDbEntity
  8
DRW_FORMAT
  6
Continuous
100
AcDbText
 10
31.27646413579999
 20
1.0001453244
 30
0.0
 40
0.7489106754000002
  1
7
 41
0.8
100
AcDbText
  0
TEXT
  5
31F
330
1F
100
AcDbEntity
  8
DRW_FORMAT
  6
Continuous
100
AcDbText
 10
50.7481416957
 20
1.0001453244
 30
0.0
 40
0.7489106754000002
  1
6
 41
0.8
100
AcDbText
  0
TEXT
  5
320
330
1F
100
AcDbEntity
  8
DRW_FORMAT
  6
Continuous
100
AcDbText
 10
70.2198192556
 20
1.0001453244
 30
0.0
 40
0.7489106754000002
  1
5
 41
0.8
100
AcDbText
  0
TEXT
  5
321
330
1F
100
AcDbEntity
  8
DRW_FORMAT
  6
Continuous
100
AcDbText
 10
89.69149681559999
 20
1.0001453244
 30
0.0
 40
0.7489106754000002
  1
4
 41
0.8
100
AcDbText
  0
TEXT
  5
322
330
1F
100
AcDbEntity
  8
DRW_FORMAT
  6
Continuous
100
AcDbText
 10
109.1631743755
 20
1.0001453244
 30
0.0
 40
0.7489106754000002
  1
3
 41
0.8
100
AcDbText
  0
TEXT
  5
323
330
1F
100
AcDbEntity
  8
DRW_FORMAT
  6
Continuous
100
AcDbText
 10
128.6348519354
 20
1.0001453244
 30
0.0
 40
0.7489106754000002
  1
2
 41
0.8
100
AcDbText
  0
TEXT
  5
324
330
1F
100
AcDbEntity
  8
DRW_FORMAT
  6
Continuous
100
AcDbText
 10
148.1065294953
 20
1.0001453244
 30
0.0
 40
0.7489106754000002
  1
1
 41
0.8
100
AcDbText
  0
TEXT
  5
325
330
1F
100
AcDbEntity
  8
DRW_FORMAT
  6
Continuous
100
AcDbText
 10
12.1436041364
 20
124.3804176624999
 30
0.0
 40
0.7489111111
  1
8
 41
0.8
100
AcDbText
  0
TEXT
  5
326
330
1F
100
AcDbEntity
  8
DRW_FORMAT
  6
Continuous
100
AcDbText
 10
31.68422023139999
 20
124.408279284
 30
0.0
 40
0.7489106754000002
  1
7
 41
0.8
100
AcDbText
  0
TEXT
  5
327
330
1F
100
AcDbEntity
  8
DRW_FORMAT
  6
Continuous
100
AcDbText
 10
51.1670509454
 20
124.3355928163999
 30
0.0
 40
0.7489106754000002
  1
6
 41
0.8
100
AcDbText
  0
TEXT
  5
328
330
1F
100
AcDbEntity
  8
DRW_FORMAT
  6
Continuous
100
AcDbText
 10
70.6770423967
 20
124.4149134046999
 30
0.0
 40
0.7489106754000002
  1
5
 41
0.8
100
AcDbText
  0
TEXT
  5
329
330
1F
100
AcDbEntity
  8
DRW_FORMAT
  6
Continuous
100
AcDbText
 10
90.15203701690001
 20
124.364244386
 30
0.0
 40
0.7489106754000002
  1
4
 41
0.8
100
AcDbText
  0
TEXT
  5
32A
330
1F
100
AcDbEntity
  8
DRW_FORMAT
  6
Continuous
100
AcDbText
 10
109.4542091053
 20
124.3576102654
 30
0.0
 40
0.7489106754000002
  1
3
 41
0.8
100
AcDbText
  0
TEXT
  5
32B
330
1F
100
AcDbEntity
  8
DRW_FORMAT
  6
Continuous
100
AcDbText
 10
128.9189636854
 20
124.364244386
 30
0.0
 40
0.7489106754000002
  1
2
 41
0.8
100
AcDbText
  0
TEXT
  5
32C
330
1F
100
AcDbEntity
  8
DRW_FORMAT
  6
Continuous
100
AcDbText
 10
148.4877491084
 20
124.4369306357999
 30
0.0
 40
0.7489111111
  1
1
 41
0.8
100
AcDbText
  0
TEXT
  5
32D
330
1F
100
AcDbEntity
  8
DRW_FORMAT
  6
Continuous
100
AcDbText
 10
0.8467868979999998
 20
17.1709007965
 30
0.0
 40
0.7489106754000002
  1
A
 41
0.8
100
AcDbText
  0
TEXT
  5
32E
330
1F
100
AcDbEntity
  8
DRW_FORMAT
  6
Continuous
100
AcDbText
 10
0.9500707634999999
 20
47.4160114331
 30
0.0
 40
0.7489106754000002
  1
B
 41
0.8
100
AcDbText
  0
TEXT
  5
32F
330
1F
100
AcDbEntity
  8
DRW_FORMAT
  6
Continuous
100
AcDbText
 10
0.9906828786
 20
78.00802523649998
 30
0.0
 40
0.7489106754000002
  1
C
 41
0.8
100
AcDbText
  0
TEXT
  5
330
330
1F
100
AcDbEntity
  8
DRW_FORMAT
  6
Continuous
100
AcDbText
 10
0.8681395428
 20
108.1785767641999
 30
0.0
 40
0.7489106754000002
  1
D
 41
0.8
100
AcDbText
  0
TEXT
  5
331
330
1F
100
AcDbEntity
  8
DRW_FORMAT
  6
Continuous
100
AcDbText
 10
159.1200054041
 20
14.68219583489999
 30
0.0
 40
0.7489106754000002
  1
A
 41
0.8
100
AcDbText
  0
TEXT
  5
332
330
1F
100
AcDbEntity
  8
DRW_FORMAT
  6
Continuous
100
AcDbText
 10
159.9002798004
 20
77.68845216149999
 30
0.0
 40
0.7489106754000002
  1
C
 41
0.8
100
AcDbText
  0
TEXT
  5
333
330
1F
100
AcDbEntity
  8
DRW_FORMAT
  6
Continuous
100
AcDbText
 10
160.0392135507999
 20
104.7878014474
 30
0.0
 40
0.7489106754000002
  1
D
 41
0.8
100
AcDbText
  0
TEXT
  5
334
330
1F
100
AcDbEntity
  8
DRW_FORMAT
  6
Continuous
100
AcDbText
 10
122.7908239914999
 20
1.761188140399999
 30
0.0
 40
0.431372549
  1
MODEL INFO
 41
0.8
100
AcDbText
  0
TEXT
  5
335
330
1F
100
AcDbEntity
  8
DRW_FORMAT
  6
Continuous
100
AcDbText
 10
139.3960358941999
 20
1.734417947499999
 30
0.0
 40
0.431372549
  1
DRAWING INFO
 41
0.8
100
AcDbText
  0
MTEXT
  5
336
330
1F
100
AcDbEntity
  8
DRW_FORMAT
  6
Continuous
100
AcDbMText
 10
2.893051872189762
 20
123.5167526811005
 30
0.0
 40
0.3594771242
 41
14.091503268
 71
     1
 72
     1
  1
THIS DOCUMENT CONTAINS PROPRIETARY INFORMATION\PWHICH IS THE PROPERTY OF QSC AUDIO PRODUCTS, THAT\PMAY NOT BE DISCLOSED, REPRODUCED OR USED WITHOUT\PEXPRESS WRITTEN CONSENT FROM QSC AUDIO PRODUCTS.
 73
     1
 44
1.0
  0
INSERT
  5
337
330
1F
100
AcDbEntity
  8
DRW_FORMAT
  6
Continuous
100
AcDbBlockReference
  2
RD010411_BL0
 10
128.1844296305999
 20
18.6685979079
 30
0.0
  0
LINE
  5
338
330
1F
100
AcDbEntity
  8
0
  6
Continuous
100
AcDbLine
 10
85.99836938799999
 20
21.3487447979
 30
0.0
 11
102.6310565341999
 21
11.6432569754
 31
0.0
  0
LINE
  5
339
330
1F
100
AcDbEntity
  8
0
  6
Continuous
100
AcDbLine
 10
102.6310565341999
 20
21.3487447979
 30
0.0
 11
85.99836938799999
 21
11.66177889869999
 31
0.0
  0
LINE
  5
33A
330
1F
100
AcDbEntity
  8
0
  6
Continuous
100
AcDbLine
 10
102.6630112203
 20
9.739402018799999
 30
0.0
 11
107.1437877327
 21
8.966854344199999
 31
0.0
  0
LINE
  5
33B
330
1F
100
AcDbEntity
  8
0
  6
Continuous
100
AcDbLine
 10
107.1437877327
 20
9.744552336599999
 30
0.0
 11
102.642409949
 21
8.977154979899999
 31
0.0
  0
LINE
  5
33C
330
1F
100
AcDbEntity
  8
0
  6
Continuous
100
AcDbLine
 10
43.8260808897
 20
83.332917434
 30
0.0
 11
43.8260808897
 21
83.248917434
 31
0.0
  0
LINE
  5
33D
330
1F
100
AcDbEntity
  8
0
  6
Continuous
100
AcDbLine
 10
44.6630808897
 20
83.332917434
 30
0.0
 11
44.6630808897
 21
83.248917434
 31
0.0
  0
LINE
  5
33E
330
1F
100
AcDbEntity
  8
0
  6
Continuous
100
AcDbLine
 10
43.8260808897
 20
83.332917434
 30
0.0
 11
43.8260808897
 21
83.248917434
 31
0.0
  0
LINE
  5
33F
330
1F
100
AcDbEntity
  8
0
  6
Continuous
100
AcDbLine
 10
44.6630808897
 20
83.332917434
 30
0.0
 11
44.5333658291
 21
83.332917434
 31
0.0
  0
LINE
  5
340
330
1F
100
AcDbEntity
  8
0
  6
Continuous
100
AcDbLine
 10
44.5333658291
 20
83.332917434
 30
0.0
 11
44.5332560243
 21
83.332917434
 31
0.0
  0
LINE
  5
341
330
1F
100
AcDbEntity
  8
0
  6
Continuous
100
AcDbLine
 10
44.5332560243
 20
83.332917434
 30
0.0
 11
44.4477058897
 21
83.332917434
 31
0.0
  0
LINE
  5
342
330
1F
100
AcDbEntity
  8
0
  6
Continuous
100
AcDbLine
 10
44.4477058897
 20
83.332917434
 30
0.0
 11
44.4320808897
 21
83.332917434
 31
0.0
  0
LINE
  5
343
330
1F
100
AcDbEntity
  8
0
  6
Continuous
100
AcDbLine
 10
44.4320808897
 20
83.332917434
 30
0.0
 11
44.38891845699999
 21
83.332917434
 31
0.0
  0
LINE
  5
344
330
1F
100
AcDbEntity
  8
0
  6
Continuous
100
AcDbLine
 10
44.38891845699999
 20
83.332917434
 30
0.0
 11
44.3461433897
 21
83.332917434
 31
0.0
  0
LINE
  5
345
330
1F
100
AcDbEntity
  8
0
  6
Continuous
100
AcDbLine
 10
44.3461433897
 20
83.332917434
 30
0.0
 11
44.34325989149999
 21
83.332917434
 31
0.0
  0
LINE
  5
346
330
1F
100
AcDbEntity
  8
0
  6
Continuous
100
AcDbLine
 10
44.34325989149999
 20
83.332917434
 30
0.0
 11
44.10024332239999
 21
83.332917434
 31
0.0
  0
LINE
  5
347
330
1F
100
AcDbEntity
  8
0
  6
Continuous
100
AcDbLine
 10
44.10024332239999
 20
83.332917434
 30
0.0
 11
44.0570808897
 21
83.332917434
 31
0.0
  0
LINE
  5
348
330
1F
100
AcDbEntity
  8
0
  6
Continuous
100
AcDbLine
 10
44.0570808897
 20
83.332917434
 30
0.0
 11
44.04145817479999
 21
83.332917434
 31
0.0
  0
LINE
  5
349
330
1F
100
AcDbEntity
  8
0
  6
Continuous
100
AcDbLine
 10
44.04145817479999
 20
83.332917434
 30
0.0
 11
43.9559057551
 21
83.332917434
 31
0.0
  0
LINE
  5
34A
330
1F
100
AcDbEntity
  8
0
  6
Continuous
100
AcDbLine
 10
43.9559057551
 20
83.332917434
 30
0.0
 11
43.9557959503
 21
83.332917434
 31
0.0
  0
LINE
  5
34B
330
1F
100
AcDbEntity
  8
0
  6
Continuous
100
AcDbLine
 10
43.9557959503
 20
83.332917434
 30
0.0
 11
43.8260808897
 21
83.332917434
 31
0.0
  0
LINE
  5
34C
330
1F
100
AcDbEntity
  8
0
  6
Continuous
100
AcDbLine
 10
44.6630808897
 20
83.332917434
 30
0.0
 11
44.6630808897
 21
83.248917434
 31
0.0
  0
LINE
  5
34D
330
1F
100
AcDbEntity
  8
0
  6
Continuous
100
AcDbLine
 10
34.82608088969999
 20
83.332917434
 30
0.0
 11
34.82608088969999
 21
83.248917434
 31
0.0
  0
LINE
  5
34E
330
1F
100
AcDbEntity
  8
0
  6
Continuous
100
AcDbLine
 10
35.6630808897
 20
83.332917434
 30
0.0
 11
35.6630808897
 21
83.248917434
 31
0.0
  0
LINE
  5
34F
330
1F
100
AcDbEntity
  8
0
  6
Continuous
100
AcDbLine
 10
34.82608088969999
 20
83.332917434
 30
0.0
 11
34.82608088969999
 21
83.248917434
 31
0.0
  0
LINE
  5
350
330
1F
100
AcDbEntity
  8
0
  6
Continuous
100
AcDbLine
 10
35.6630808897
 20
83.332917434
 30
0.0
 11
35.5333658291
 21
83.332917434
 31
0.0
  0
LINE
  5
351
330
1F
100
AcDbEntity
  8
0
  6
Continuous
100
AcDbLine
 10
35.5333658291
 20
83.332917434
 30
0.0
 11
35.5332560243
 21
83.332917434
 31
0.0
  0
LINE
  5
352
330
1F
100
AcDbEntity
  8
0
  6
Continuous
100
AcDbLine
 10
35.5332560243
 20
83.332917434
 30
0.0
 11
35.44770588969999
 21
83.332917434
 31
0.0
  0
LINE
  5
353
330
1F
100
AcDbEntity
  8
0
  6
Continuous
100
AcDbLine
 10
35.44770588969999
 20
83.332917434
 30
0.0
 11
35.43208088969999
 21
83.332917434
 31
0.0
  0
LINE
  5
354
330
1F
100
AcDbEntity
  8
0
  6
Continuous
100
AcDbLine
 10
35.43208088969999
 20
83.332917434
 30
0.0
 11
35.38891845699999
 21
83.332917434
 31
0.0
  0
LINE
  5
355
330
1F
100
AcDbEntity
  8
0
  6
Continuous
100
AcDbLine
 10
35.38891845699999
 20
83.332917434
 30
0.0
 11
35.34614338969999
 21
83.332917434
 31
0.0
  0
LINE
  5
356
330
1F
100
AcDbEntity
  8
0
  6
Continuous
100
AcDbLine
 10
35.34614338969999
 20
83.332917434
 30
0.0
 11
35.3432598915
 21
83.332917434
 31
0.0
  0
LINE
  5
357
330
1F
100
AcDbEntity
  8
0
  6
Continuous
100
AcDbLine
 10
35.3432598915
 20
83.332917434
 30
0.0
 11
35.10024332239999
 21
83.332917434
 31
0.0
  0
LINE
  5
358
330
1F
100
AcDbEntity
  8
0
  6
Continuous
100
AcDbLine
 10
35.10024332239999
 20
83.332917434
 30
0.0
 11
35.05708088969999
 21
83.332917434
 31
0.0
  0
LINE
  5
359
330
1F
100
AcDbEntity
  8
0
  6
Continuous
100
AcDbLine
 10
35.05708088969999
 20
83.332917434
 30
0.0
 11
35.04145817479999
 21
83.332917434
 31
0.0
  0
LINE
  5
35A
330
1F
100
AcDbEntity
  8
0
  6
Continuous
100
AcDbLine
 10
35.04145817479999
 20
83.332917434
 30
0.0
 11
34.9559057551
 21
83.332917434
 31
0.0
  0
LINE
  5
35B
330
1F
100
AcDbEntity
  8
0
  6
Continuous
100
AcDbLine
 10
34.9559057551
 20
83.332917434
 30
0.0
 11
34.9557959503
 21
83.332917434
 31
0.0
  0
LINE
  5
35C
330
1F
100
AcDbEntity
  8
0
  6
Continuous
100
AcDbLine
 10
34.9557959503
 20
83.332917434
 30
0.0
 11
34.82608088969999
 21
83.332917434
 31
0.0
  0
LINE
  5
35D
330
1F
100
AcDbEntity
  8
0
  6
Continuous
100
AcDbLine
 10
35.6630808897
 20
83.332917434
 30
0.0
 11
35.6630808897
 21
83.248917434
 31
0.0
  0
LINE
  5
35E
330
1F
100
AcDbEntity
  8
0
  6
Continuous
100
AcDbLine
 10
52.8260808897
 20
83.332917434
 30
0.0
 11
52.8260808897
 21
83.248917434
 31
0.0
  0
LINE
  5
35F
330
1F
100
AcDbEntity
  8
0
  6
Continuous
100
AcDbLine
 10
53.66308088970001
 20
83.332917434
 30
0.0
 11
53.66308088970001
 21
83.248917434
 31
0.0
  0
LINE
  5
360
330
1F
100
AcDbEntity
  8
0
  6
Continuous
100
AcDbLine
 10
52.8260808897
 20
83.332917434
 30
0.0
 11
52.8260808897
 21
83.248917434
 31
0.0
  0
LINE
  5
361
330
1F
100
AcDbEntity
  8
0
  6
Continuous
100
AcDbLine
 10
53.66308088970001
 20
83.332917434
 30
0.0
 11
53.53336582909999
 21
83.332917434
 31
0.0
  0
LINE
  5
362
330
1F
100
AcDbEntity
  8
0
  6
Continuous
100
AcDbLine
 10
53.53336582909999
 20
83.332917434
 30
0.0
 11
53.5332560243
 21
83.332917434
 31
0.0
  0
LINE
  5
363
330
1F
100
AcDbEntity
  8
0
  6
Continuous
100
AcDbLine
 10
53.5332560243
 20
83.332917434
 30
0.0
 11
53.4477058897
 21
83.332917434
 31
0.0
  0
LINE
  5
364
330
1F
100
AcDbEntity
  8
0
  6
Continuous
100
AcDbLine
 10
53.4477058897
 20
83.332917434
 30
0.0
 11
53.4320808897
 21
83.332917434
 31
0.0
  0
LINE
  5
365
330
1F
100
AcDbEntity
  8
0
  6
Continuous
100
AcDbLine
 10
53.4320808897
 20
83.332917434
 30
0.0
 11
53.388918457
 21
83.332917434
 31
0.0
  0
LINE
  5
366
330
1F
100
AcDbEntity
  8
0
  6
Continuous
100
AcDbLine
 10
53.388918457
 20
83.332917434
 30
0.0
 11
53.3461433897
 21
83.332917434
 31
0.0
  0
LINE
  5
367
330
1F
100
AcDbEntity
  8
0
  6
Continuous
100
AcDbLine
 10
53.3461433897
 20
83.332917434
 30
0.0
 11
53.34325989149999
 21
83.332917434
 31
0.0
  0
LINE
  5
368
330
1F
100
AcDbEntity
  8
0
  6
Continuous
100
AcDbLine
 10
53.34325989149999
 20
83.332917434
 30
0.0
 11
53.1002433224
 21
83.332917434
 31
0.0
  0
LINE
  5
369
330
1F
100
AcDbEntity
  8
0
  6
Continuous
100
AcDbLine
 10
53.1002433224
 20
83.332917434
 30
0.0
 11
53.0570808897
 21
83.332917434
 31
0.0
  0
LINE
  5
36A
330
1F
100
AcDbEntity
  8
0
  6
Continuous
100
AcDbLine
 10
53.0570808897
 20
83.332917434
 30
0.0
 11
53.0414581748
 21
83.332917434
 31
0.0
  0
LINE
  5
36B
330
1F
100
AcDbEntity
  8
0
  6
Continuous
100
AcDbLine
 10
53.0414581748
 20
83.332917434
 30
0.0
 11
52.95590575510001
 21
83.332917434
 31
0.0
  0
LINE
  5
36C
330
1F
100
AcDbEntity
  8
0
  6
Continuous
100
AcDbLine
 10
52.95590575510001
 20
83.332917434
 30
0.0
 11
52.9557959503
 21
83.332917434
 31
0.0
  0
LINE
  5
36D
330
1F
100
AcDbEntity
  8
0
  6
Continuous
100
AcDbLine
 10
52.9557959503
 20
83.332917434
 30
0.0
 11
52.8260808897
 21
83.332917434
 31
0.0
  0
LINE
  5
36E
330
1F
100
AcDbEntity
  8
0
  6
Continuous
100
AcDbLine
 10
53.66308088970001
 20
83.332917434
 30
0.0
 11
53.66308088970001
 21
83.248917434
 31
0.0
  0
ARC
  5
36F
330
1F
100
AcDbEntity
  8
0
  6
Continuous
100
AcDbCircle
 10
47.03051627729999
 20
67.58107443739999
 30
0.0
 40
0.0675
100
AcDbArc
 50
180.0
 51
360.0
  0
ARC
  5
370
330
1F
100
AcDbEntity
  8
0
  6
Continuous
100
AcDbCircle
 10
47.03051627729999
 20
67.58107443739999
 30
0.0
 40
0.175
100
AcDbArc
 50
0.0
 51
180.0
  0
ARC
  5
371
330
1F
100
AcDbEntity
  8
0
  6
Continuous
100
AcDbCircle
 10
47.03051627729999
 20
67.58107443739999
 30
0.0
 40
0.0675
100
AcDbArc
 50
0.0
 51
180.0
  0
ARC
  5
372
330
1F
100
AcDbEntity
  8
0
  6
Continuous
100
AcDbCircle
 10
47.03051627729999
 20
67.58107443739999
 30
0.0
 40
0.175
100
AcDbArc
 50
180.0
 51
360.0
  0
ARC
  5
373
330
1F
100
AcDbEntity
  8
0
  6
Continuous
100
AcDbCircle
 10
47.03051627729999
 20
67.58107443739999
 30
0.0
 40
0.0355
100
AcDbArc
 50
180.0
 51
360.0
  0
ARC
  5
374
330
1F
100
AcDbEntity
  8
0
  6
Continuous
100
AcDbCircle
 10
47.03051627729999
 20
67.58107443739999
 30
0.0
 40
0.0355
100
AcDbArc
 50
0.0
 51
180.0
  0
ARC
  5
375
330
1F
100
AcDbEntity
  8
0
  6
Continuous
100
AcDbCircle
 10
47.03051627729999
 20
50.45607443739999
 30
0.0
 40
0.0675
100
AcDbArc
 50
180.0
 51
360.0
  0
ARC
  5
376
330
1F
100
AcDbEntity
  8
0
  6
Continuous
100
AcDbCircle
 10
47.03051627729999
 20
50.45607443739999
 30
0.0
 40
0.175
100
AcDbArc
 50
0.0
 51
180.0
  0
ARC
  5
377
330
1F
100
AcDbEntity
  8
0
  6
Continuous
100
AcDbCircle
 10
47.03051627729999
 20
50.45607443739999
 30
0.0
 40
0.0675
100
AcDbArc
 50
0.0
 51
180.0
  0
ARC
  5
378
330
1F
100
AcDbEntity
  8
0
  6
Continuous
100
AcDbCircle
 10
47.03051627729999
 20
50.45607443739999
 30
0.0
 40
0.175
100
AcDbArc
 50
180.0
 51
360.0
  0
ARC
  5
379
330
1F
100
AcDbEntity
  8
0
  6
Continuous
100
AcDbCircle
 10
47.03051627729999
 20
50.45607443739999
 30
0.0
 40
0.0355
100
AcDbArc
 50
180.0
 51
360.0
  0
ARC
  5
37A
330
1F
100
AcDbEntity
  8
0
  6
Continuous
100
AcDbCircle
 10
47.03051627729999
 20
50.45607443739999
 30
0.0
 40
0.0355
100
AcDbArc
 50
0.0
 51
180.0
  0
ARC
  5
37B
330
1F
100
AcDbEntity
  8
0
  6
Continuous
100
AcDbCircle
 10
47.03051627729999
 20
63.90776043069999
 30
0.0
 40
0.0675
100
AcDbArc
 50
180.0
 51
360.0
  0
ARC
  5
37C
330
1F
100
AcDbEntity
  8
0
  6
Continuous
100
AcDbCircle
 10
47.03051627729999
 20
63.90776043069999
 30
0.0
 40
0.175
100
AcDbArc
 50
0.0
 51
180.0
  0
ARC
  5
37D
330
1F
100
AcDbEntity
  8
0
  6
Continuous
100
AcDbCircle
 10
47.03051627729999
 20
63.90776043069999
 30
0.0
 40
0.0675
100
AcDbArc
 50
0.0
 51
180.0
  0
ARC
  5
37E
330
1F
100
AcDbEntity
  8
0
  6
Continuous
100
AcDbCircle
 10
47.03051627729999
 20
63.90776043069999
 30
0.0
 40
0.175
100
AcDbArc
 50
180.0
 51
360.0
  0
ARC
  5
37F
330
1F
100
AcDbEntity
  8
0
  6
Continuous
100
AcDbCircle
 10
47.03051627729999
 20
63.90776043069999
 30
0.0
 40
0.0355
100
AcDbArc
 50
180.0
 51
360.0
  0
ARC
  5
380
330
1F
100
AcDbEntity
  8
0
  6
Continuous
100
AcDbCircle
 10
47.03051627729999
 20
63.90776043069999
 30
0.0
 40
0.0355
100
AcDbArc
 50
0.0
 51
180.0
  0
ARC
  5
381
330
1F
100
AcDbEntity
  8
0
  6
Continuous
100
AcDbCircle
 10
50.97042388640001
 20
59.9678528217
 30
0.0
 40
0.0675
100
AcDbArc
 50
180.0
 51
360.0
  0
ARC
  5
382
330
1F
100
AcDbEntity
  8
0
  6
Continuous
100
AcDbCircle
 10
50.97042388640001
 20
59.9678528217
 30
0.0
 40
0.175
100
AcDbArc
 50
0.0
 51
180.0
  0
ARC
  5
383
330
1F
100
AcDbEntity
  8
0
  6
Continuous
100
AcDbCircle
 10
50.97042388640001
 20
59.9678528217
 30
0.0
 40
0.0675
100
AcDbArc
 50
0.0
 51
180.0
  0
ARC
  5
384
330
1F
100
AcDbEntity
  8
0
  6
Continuous
100
AcDbCircle
 10
50.97042388640001
 20
59.9678528217
 30
0.0
 40
0.175
100
AcDbArc
 50
180.0
 51
360.0
  0
ARC
  5
385
330
1F
100
AcDbEntity
  8
0
  6
Continuous
100
AcDbCircle
 10
50.97042388640001
 20
59.9678528217
 30
0.0
 40
0.0355
100
AcDbArc
 50
180.0
 51
360.0
  0
ARC
  5
386
330
1F
100
AcDbEntity
  8
0
  6
Continuous
100
AcDbCircle
 10
50.97042388640001
 20
59.9678528217
 30
0.0
 40
0.0355
100
AcDbArc
 50
0.0
 51
180.0
  0
ARC
  5
387
330
1F
100
AcDbEntity
  8
0
  6
Continuous
100
AcDbCircle
 10
50.97042388640001
 20
54.3959820464
 30
0.0
 40
0.0675
100
AcDbArc
 50
180.0
 51
360.0
  0
ARC
  5
388
330
1F
100
AcDbEntity
  8
0
  6
Continuous
100
AcDbCircle
 10
50.97042388640001
 20
54.3959820464
 30
0.0
 40
0.175
100
AcDbArc
 50
0.0
 51
180.0
  0
ARC
  5
389
330
1F
100
AcDbEntity
  8
0
  6
Continuous
100
AcDbCircle
 10
50.97042388640001
 20
54.3959820464
 30
0.0
 40
0.0675
100
AcDbArc
 50
0.0
 51
180.0
  0
ARC
  5
38A
330
1F
100
AcDbEntity
  8
0
  6
Continuous
100
AcDbCircle
 10
50.97042388640001
 20
54.3959820464
 30
0.0
 40
0.175
100
AcDbArc
 50
180.0
 51
360.0
  0
ARC
  5
38B
330
1F
100
AcDbEntity
  8
0
  6
Continuous
100
AcDbCircle
 10
50.97042388640001
 20
54.3959820464
 30
0.0
 40
0.0355
100
AcDbArc
 50
180.0
 51
360.0
  0
ARC
  5
38C
330
1F
100
AcDbEntity
  8
0
  6
Continuous
100
AcDbCircle
 10
50.97042388640001
 20
54.3959820464
 30
0.0
 40
0.0355
100
AcDbArc
 50
0.0
 51
180.0
  0
ARC
  5
38D
330
1F
100
AcDbEntity
  8
0
  6
Continuous
100
AcDbCircle
 10
50.97042388640001
 20
37.2709820464
 30
0.0
 40
0.0675
100
AcDbArc
 50
180.0
 51
360.0
  0
ARC
  5
38E
330
1F
100
AcDbEntity
  8
0
  6
Continuous
100
AcDbCircle
 10
50.97042388640001
 20
37.2709820464
 30
0.0
 40
0.175
100
AcDbArc
 50
0.0
 51
180.0
  0
ARC
  5
38F
330
1F
100
AcDbEntity
  8
0
  6
Continuous
100
AcDbCircle
 10
50.97042388640001
 20
37.2709820464
 30
0.0
 40
0.0675
100
AcDbArc
 50
0.0
 51
180.0
  0
ARC
  5
390
330
1F
100
AcDbEntity
  8
0
  6
Continuous
100
AcDbCircle
 10
50.97042388640001
 20
37.2709820464
 30
0.0
 40
0.175
100
AcDbArc
 50
180.0
 51
360.0
  0
ARC
  5
391
330
1F
100
AcDbEntity
  8
0
  6
Continuous
100
AcDbCircle
 10
50.97042388640001
 20
37.2709820464
 30
0.0
 40
0.0355
100
AcDbArc
 50
180.0
 51
360.0
  0
ARC
  5
392
330
1F
100
AcDbEntity
  8
0
  6
Continuous
100
AcDbCircle
 10
50.97042388640001
 20
37.2709820464
 30
0.0
 40
0.0355
100
AcDbArc
 50
0.0
 51
180.0
  0
ARC
  5
393
330
1F
100
AcDbEntity
  8
0
  6
Continuous
100
AcDbCircle
 10
50.97042388640001
 20
71.52098204640001
 30
0.0
 40
0.0675
100
AcDbArc
 50
180.0
 51
360.0
  0
ARC
  5
394
330
1F
100
AcDbEntity
  8
0
  6
Continuous
100
AcDbCircle
 10
50.97042388640001
 20
71.52098204640001
 30
0.0
 40
0.175
100
AcDbArc
 50
0.0
 51
180.0
  0
ARC
  5
395
330
1F
100
AcDbEntity
  8
0
  6
Continuous
100
AcDbCircle
 10
50.97042388640001
 20
71.52098204640001
 30
0.0
 40
0.0675
100
AcDbArc
 50
0.0
 51
180.0
  0
ARC
  5
396
330
1F
100
AcDbEntity
  8
0
  6
Continuous
100
AcDbCircle
 10
50.97042388640001
 20
71.52098204640001
 30
0.0
 40
0.175
100
AcDbArc
 50
180.0
 51
360.0
  0
ARC
  5
397
330
1F
100
AcDbEntity
  8
0
  6
Continuous
100
AcDbCircle
 10
50.97042388640001
 20
71.52098204640001
 30
0.0
 40
0.0355
100
AcDbArc
 50
180.0
 51
360.0
  0
ARC
  5
398
330
1F
100
AcDbEntity
  8
0
  6
Continuous
100
AcDbCircle
 10
50.97042388640001
 20
71.52098204640001
 30
0.0
 40
0.0355
100
AcDbArc
 50
0.0
 51
180.0
  0
ARC
  5
399
330
1F
100
AcDbEntity
  8
0
  6
Continuous
100
AcDbCircle
 10
50.97042388640001
 20
77.0928528217
 30
0.0
 40
0.0675
100
AcDbArc
 50
180.0
 51
360.0
  0
ARC
  5
39A
330
1F
100
AcDbEntity
  8
0
  6
Continuous
100
AcDbCircle
 10
50.97042388640001
 20
77.0928528217
 30
0.0
 40
0.175
100
AcDbArc
 50
0.0
 51
180.0
  0
ARC
  5
39B
330
1F
100
AcDbEntity
  8
0
  6
Continuous
100
AcDbCircle
 10
50.97042388640001
 20
77.0928528217
 30
0.0
 40
0.0675
100
AcDbArc
 50
0.0
 51
180.0
  0
ARC
  5
39C
330
1F
100
AcDbEntity
  8
0
  6
Continuous
100
AcDbCircle
 10
50.97042388640001
 20
77.0928528217
 30
0.0
 40
0.175
100
AcDbArc
 50
180.0
 51
360.0
  0
ARC
  5
39D
330
1F
100
AcDbEntity
  8
0
  6
Continuous
100
AcDbCircle
 10
50.97042388640001
 20
77.0928528217
 30
0.0
 40
0.0355
100
AcDbArc
 50
180.0
 51
360.0
  0
ARC
  5
39E
330
1F
100
AcDbEntity
  8
0
  6
Continuous
100
AcDbCircle
 10
50.97042388640001
 20
77.0928528217
 30
0.0
 40
0.0355
100
AcDbArc
 50
0.0
 51
180.0
  0
ARC
  5
39F
330
1F
100
AcDbEntity
  8
0
  6
Continuous
100
AcDbCircle
 10
47.03051627729999
 20
81.0327604307
 30
0.0
 40
0.0675
100
AcDbArc
 50
180.0
 51
360.0
  0
ARC
  5
3A0
330
1F
100
AcDbEntity
  8
0
  6
Continuous
100
AcDbCircle
 10
47.03051627729999
 20
81.0327604307
 30
0.0
 40
0.175
100
AcDbArc
 50
0.0
 51
180.0
  0
ARC
  5
3A1
330
1F
100
AcDbEntity
  8
0
  6
Continuous
100
AcDbCircle
 10
47.03051627729999
 20
81.0327604307
 30
0.0
 40
0.0675
100
AcDbArc
 50
0.0
 51
180.0
  0
ARC
  5
3A2
330
1F
100
AcDbEntity
  8
0
  6
Continuous
100
AcDbCircle
 10
47.03051627729999
 20
81.0327604307
 30
0.0
 40
0.175
100
AcDbArc
 50
180.0
 51
360.0
  0
ARC
  5
3A3
330
1F
100
AcDbEntity
  8
0
  6
Continuous
100
AcDbCircle
 10
47.03051627729999
 20
81.0327604307
 30
0.0
 40
0.0355
100
AcDbArc
 50
180.0
 51
360.0
  0
ARC
  5
3A4
330
1F
100
AcDbEntity
  8
0
  6
Continuous
100
AcDbCircle
 10
47.03051627729999
 20
81.0327604307
 30
0.0
 40
0.0355
100
AcDbArc
 50
0.0
 51
180.0
  0
ARC
  5
3A5
330
1F
100
AcDbEntity
  8
0
  6
Continuous
100
AcDbCircle
 10
50.97042388640001
 20
42.84285282169999
 30
0.0
 40
0.0675
100
AcDbArc
 50
180.0
 51
360.0
  0
ARC
  5
3A6
330
1F
100
AcDbEntity
  8
0
  6
Continuous
100
AcDbCircle
 10
50.97042388640001
 20
42.84285282169999
 30
0.0
 40
0.175
100
AcDbArc
 50
0.0
 51
180.0
  0
ARC
  5
3A7
330
1F
100
AcDbEntity
  8
0
  6
Continuous
100
AcDbCircle
 10
50.97042388640001
 20
42.84285282169999
 30
0.0
 40
0.0675
100
AcDbArc
 50
0.0
 51
180.0
  0
ARC
  5
3A8
330
1F
100
AcDbEntity
  8
0
  6
Continuous
100
AcDbCircle
 10
50.97042388640001
 20
42.84285282169999
 30
0.0
 40
0.175
100
AcDbArc
 50
180.0
 51
360.0
  0
ARC
  5
3A9
330
1F
100
AcDbEntity
  8
0
  6
Continuous
100
AcDbCircle
 10
50.97042388640001
 20
42.84285282169999
 30
0.0
 40
0.0355
100
AcDbArc
 50
180.0
 51
360.0
  0
ARC
  5
3AA
330
1F
100
AcDbEntity
  8
0
  6
Continuous
100
AcDbCircle
 10
50.97042388640001
 20
42.84285282169999
 30
0.0
 40
0.0355
100
AcDbArc
 50
0.0
 51
180.0
  0
ARC
  5
3AB
330
1F
100
AcDbEntity
  8
0
  6
Continuous
100
AcDbCircle
 10
47.03051627729999
 20
46.78276043069999
 30
0.0
 40
0.0675
100
AcDbArc
 50
180.0
 51
360.0
  0
ARC
  5
3AC
330
1F
100
AcDbEntity
  8
0
  6
Continuous
100
AcDbCircle
 10
47.03051627729999
 20
46.78276043069999
 30
0.0
 40
0.175
100
AcDbArc
 50
0.0
 51
180.0
  0
ARC
  5
3AD
330
1F
100
AcDbEntity
  8
0
  6
Continuous
100
AcDbCircle
 10
47.03051627729999
 20
46.78276043069999
 30
0.0
 40
0.0675
100
AcDbArc
 50
0.0
 51
180.0
  0
ARC
  5
3AE
330
1F
100
AcDbEntity
  8
0
  6
Continuous
100
AcDbCircle
 10
47.03051627729999
 20
46.78276043069999
 30
0.0
 40
0.175
100
AcDbArc
 50
180.0
 51
360.0
  0
ARC
  5
3AF
330
1F
100
AcDbEntity
  8
0
  6
Continuous
100
AcDbCircle
 10
47.03051627729999
 20
46.78276043069999
 30
0.0
 40
0.0355
100
AcDbArc
 50
180.0
 51
360.0
  0
ARC
  5
3B0
330
1F
100
AcDbEntity
  8
0
  6
Continuous
100
AcDbCircle
 10
47.03051627729999
 20
46.78276043069999
 30
0.0
 40
0.0355
100
AcDbArc
 50
0.0
 51
180.0
  0
ARC
  5
3B1
330
1F
100
AcDbEntity
  8
0
  6
Continuous
100
AcDbCircle
 10
37.518737893
 20
37.2709820464
 30
0.0
 40
0.0675
100
AcDbArc
 50
180.0
 51
360.0
  0
ARC
  5
3B2
330
1F
100
AcDbEntity
  8
0
  6
Continuous
100
AcDbCircle
 10
37.518737893
 20
37.2709820464
 30
0.0
 40
0.175
100
AcDbArc
 50
0.0
 51
180.0
  0
ARC
  5
3B3
330
1F
100
AcDbEntity
  8
0
  6
Continuous
100
AcDbCircle
 10
37.518737893
 20
37.2709820464
 30
0.0
 40
0.0675
100
AcDbArc
 50
0.0
 51
180.0
  0
ARC
  5
3B4
330
1F
100
AcDbEntity
  8
0
  6
Continuous
100
AcDbCircle
 10
37.518737893
 20
37.2709820464
 30
0.0
 40
0.175
100
AcDbArc
 50
180.0
 51
360.0
  0
ARC
  5
3B5
330
1F
100
AcDbEntity
  8
0
  6
Continuous
100
AcDbCircle
 10
37.518737893
 20
37.2709820464
 30
0.0
 40
0.0355
100
AcDbArc
 50
180.0
 51
360.0
  0
ARC
  5
3B6
330
1F
100
AcDbEntity
  8
0
  6
Continuous
100
AcDbCircle
 10
37.518737893
 20
37.2709820464
 30
0.0
 40
0.0355
100
AcDbArc
 50
0.0
 51
180.0
  0
ARC
  5
3B7
330
1F
100
AcDbEntity
  8
0
  6
Continuous
100
AcDbCircle
 10
41.45864550209999
 20
50.45607443739999
 30
0.0
 40
0.0675
100
AcDbArc
 50
180.0
 51
360.0
  0
ARC
  5
3B8
330
1F
100
AcDbEntity
  8
0
  6
Continuous
100
AcDbCircle
 10
41.45864550209999
 20
50.45607443739999
 30
0.0
 40
0.175
100
AcDbArc
 50
0.0
 51
180.0
  0
ARC
  5
3B9
330
1F
100
AcDbEntity
  8
0
  6
Continuous
100
AcDbCircle
 10
41.45864550209999
 20
50.45607443739999
 30
0.0
 40
0.0675
100
AcDbArc
 50
0.0
 51
180.0
  0
ARC
  5
3BA
330
1F
100
AcDbEntity
  8
0
  6
Continuous
100
AcDbCircle
 10
41.45864550209999
 20
50.45607443739999
 30
0.0
 40
0.175
100
AcDbArc
 50
180.0
 51
360.0
  0
ARC
  5
3BB
330
1F
100
AcDbEntity
  8
0
  6
Continuous
100
AcDbCircle
 10
41.45864550209999
 20
50.45607443739999
 30
0.0
 40
0.0355
100
AcDbArc
 50
180.0
 51
360.0
  0
ARC
  5
3BC
330
1F
100
AcDbEntity
  8
0
  6
Continuous
100
AcDbCircle
 10
41.45864550209999
 20
50.45607443739999
 30
0.0
 40
0.0355
100
AcDbArc
 50
0.0
 51
180.0
  0
ARC
  5
3BD
330
1F
100
AcDbEntity
  8
0
  6
Continuous
100
AcDbCircle
 10
37.518737893
 20
42.84285282169999
 30
0.0
 40
0.0675
100
AcDbArc
 50
180.0
 51
360.0
  0
ARC
  5
3BE
330
1F
100
AcDbEntity
  8
0
  6
Continuous
100
AcDbCircle
 10
37.518737893
 20
42.84285282169999
 30
0.0
 40
0.175
100
AcDbArc
 50
0.0
 51
180.0
  0
ARC
  5
3BF
330
1F
100
AcDbEntity
  8
0
  6
Continuous
100
AcDbCircle
 10
37.518737893
 20
42.84285282169999
 30
0.0
 40
0.0675
100
AcDbArc
 50
0.0
 51
180.0
  0
ARC
  5
3C0
330
1F
100
AcDbEntity
  8
0
  6
Continuous
100
AcDbCircle
 10
37.518737893
 20
42.84285282169999
 30
0.0
 40
0.175
100
AcDbArc
 50
180.0
 51
360.0
  0
ARC
  5
3C1
330
1F
100
AcDbEntity
  8
0
  6
Continuous
100
AcDbCircle
 10
37.518737893
 20
42.84285282169999
 30
0.0
 40
0.0355
100
AcDbArc
 50
180.0
 51
360.0
  0
ARC
  5
3C2
330
1F
100
AcDbEntity
  8
0
  6
Continuous
100
AcDbCircle
 10
37.518737893
 20
42.84285282169999
 30
0.0
 40
0.0355
100
AcDbArc
 50
0.0
 51
180.0
  0
ARC
  5
3C3
330
1F
100
AcDbEntity
  8
0
  6
Continuous
100
AcDbCircle
 10
41.45864550209999
 20
63.90776043069999
 30
0.0
 40
0.0675
100
AcDbArc
 50
180.0
 51
360.0
  0
ARC
  5
3C4
330
1F
100
AcDbEntity
  8
0
  6
Continuous
100
AcDbCircle
 10
41.45864550209999
 20
63.90776043069999
 30
0.0
 40
0.175
100
AcDbArc
 50
0.0
 51
180.0
  0
ARC
  5
3C5
330
1F
100
AcDbEntity
  8
0
  6
Continuous
100
AcDbCircle
 10
41.45864550209999
 20
63.90776043069999
 30
0.0
 40
0.0675
100
AcDbArc
 50
0.0
 51
180.0
  0
ARC
  5
3C6
330
1F
100
AcDbEntity
  8
0
  6
Continuous
100
AcDbCircle
 10
41.45864550209999
 20
63.90776043069999
 30
0.0
 40
0.175
100
AcDbArc
 50
180.0
 51
360.0
  0
ARC
  5
3C7
330
1F
100
AcDbEntity
  8
0
  6
Continuous
100
AcDbCircle
 10
41.45864550209999
 20
63.90776043069999
 30
0.0
 40
0.0355
100
AcDbArc
 50
180.0
 51
360.0
  0
ARC
  5
3C8
330
1F
100
AcDbEntity
  8
0
  6
Continuous
100
AcDbCircle
 10
41.45864550209999
 20
63.90776043069999
 30
0.0
 40
0.0355
100
AcDbArc
 50
0.0
 51
180.0
  0
ARC
  5
3C9
330
1F
100
AcDbEntity
  8
0
  6
Continuous
100
AcDbCircle
 10
37.518737893
 20
59.9678528217
 30
0.0
 40
0.0675
100
AcDbArc
 50
180.0
 51
360.0
  0
ARC
  5
3CA
330
1F
100
AcDbEntity
  8
0
  6
Continuous
100
AcDbCircle
 10
37.518737893
 20
59.9678528217
 30
0.0
 40
0.175
100
AcDbArc
 50
0.0
 51
180.0
  0
ARC
  5
3CB
330
1F
100
AcDbEntity
  8
0
  6
Continuous
100
AcDbCircle
 10
37.518737893
 20
59.9678528217
 30
0.0
 40
0.0675
100
AcDbArc
 50
0.0
 51
180.0
  0
ARC
  5
3CC
330
1F
100
AcDbEntity
  8
0
  6
Continuous
100
AcDbCircle
 10
37.518737893
 20
59.9678528217
 30
0.0
 40
0.175
100
AcDbArc
 50
180.0
 51
360.0
  0
ARC
  5
3CD
330
1F
100
AcDbEntity
  8
0
  6
Continuous
100
AcDbCircle
 10
37.518737893
 20
59.9678528217
 30
0.0
 40
0.0355
100
AcDbArc
 50
180.0
 51
360.0
  0
ARC
  5
3CE
330
1F
100
AcDbEntity
  8
0
  6
Continuous
100
AcDbCircle
 10
37.518737893
 20
59.9678528217
 30
0.0
 40
0.0355
100
AcDbArc
 50
0.0
 51
180.0
  0
ARC
  5
3CF
330
1F
100
AcDbEntity
  8
0
  6
Continuous
100
AcDbCircle
 10
37.518737893
 20
54.3959820464
 30
0.0
 40
0.0675
100
AcDbArc
 50
180.0
 51
360.0
  0
ARC
  5
3D0
330
1F
100
AcDbEntity
  8
0
  6
Continuous
100
AcDbCircle
 10
37.518737893
 20
54.3959820464
 30
0.0
 40
0.175
100
AcDbArc
 50
0.0
 51
180.0
  0
ARC
  5
3D1
330
1F
100
AcDbEntity
  8
0
  6
Continuous
100
AcDbCircle
 10
37.518737893
 20
54.3959820464
 30
0.0
 40
0.0675
100
AcDbArc
 50
0.0
 51
180.0
  0
ARC
  5
3D2
330
1F
100
AcDbEntity
  8
0
  6
Continuous
100
AcDbCircle
 10
37.518737893
 20
54.3959820464
 30
0.0
 40
0.175
100
AcDbArc
 50
180.0
 51
360.0
  0
ARC
  5
3D3
330
1F
100
AcDbEntity
  8
0
  6
Continuous
100
AcDbCircle
 10
37.518737893
 20
54.3959820464
 30
0.0
 40
0.0355
100
AcDbArc
 50
180.0
 51
360.0
  0
ARC
  5
3D4
330
1F
100
AcDbEntity
  8
0
  6
Continuous
100
AcDbCircle
 10
37.518737893
 20
54.3959820464
 30
0.0
 40
0.0355
100
AcDbArc
 50
0.0
 51
180.0
  0
ARC
  5
3D5
330
1F
100
AcDbEntity
  8
0
  6
Continuous
100
AcDbCircle
 10
41.45864550209999
 20
67.58107443739999
 30
0.0
 40
0.0675
100
AcDbArc
 50
180.0
 51
360.0
  0
ARC
  5
3D6
330
1F
100
AcDbEntity
  8
0
  6
Continuous
100
AcDbCircle
 10
41.45864550209999
 20
67.58107443739999
 30
0.0
 40
0.175
100
AcDbArc
 50
0.0
 51
180.0
  0
ARC
  5
3D7
330
1F
100
AcDbEntity
  8
0
  6
Continuous
100
AcDbCircle
 10
41.45864550209999
 20
67.58107443739999
 30
0.0
 40
0.0675
100
AcDbArc
 50
0.0
 51
180.0
  0
ARC
  5
3D8
330
1F
100
AcDbEntity
  8
0
  6
Continuous
100
AcDbCircle
 10
41.45864550209999
 20
67.58107443739999
 30
0.0
 40
0.175
100
AcDbArc
 50
180.0
 51
360.0
  0
ARC
  5
3D9
330
1F
100
AcDbEntity
  8
0
  6
Continuous
100
AcDbCircle
 10
41.45864550209999
 20
67.58107443739999
 30
0.0
 40
0.0355
100
AcDbArc
 50
180.0
 51
360.0
  0
ARC
  5
3DA
330
1F
100
AcDbEntity
  8
0
  6
Continuous
100
AcDbCircle
 10
41.45864550209999
 20
67.58107443739999
 30
0.0
 40
0.0355
100
AcDbArc
 50
0.0
 51
180.0
  0
ARC
  5
3DB
330
1F
100
AcDbEntity
  8
0
  6
Continuous
100
AcDbCircle
 10
41.45864550209999
 20
81.0327604307
 30
0.0
 40
0.0675
100
AcDbArc
 50
180.0
 51
360.0
  0
ARC
  5
3DC
330
1F
100
AcDbEntity
  8
0
  6
Continuous
100
AcDbCircle
 10
41.45864550209999
 20
81.0327604307
 30
0.0
 40
0.175
100
AcDbArc
 50
0.0
 51
180.0
  0
ARC
  5
3DD
330
1F
100
AcDbEntity
  8
0
  6
Continuous
100
AcDbCircle
 10
41.45864550209999
 20
81.0327604307
 30
0.0
 40
0.0675
100
AcDbArc
 50
0.0
 51
180.0
  0
ARC
  5
3DE
330
1F
100
AcDbEntity
  8
0
  6
Continuous
100
AcDbCircle
 10
41.45864550209999
 20
81.0327604307
 30
0.0
 40
0.175
100
AcDbArc
 50
180.0
 51
360.0
  0
ARC
  5
3DF
330
1F
100
AcDbEntity
  8
0
  6
Continuous
100
AcDbCircle
 10
41.45864550209999
 20
81.0327604307
 30
0.0
 40
0.0355
100
AcDbArc
 50
180.0
 51
360.0
  0
ARC
  5
3E0
330
1F
100
AcDbEntity
  8
0
  6
Continuous
100
AcDbCircle
 10
41.45864550209999
 20
81.0327604307
 30
0.0
 40
0.0355
100
AcDbArc
 50
0.0
 51
180.0
  0
ARC
  5
3E1
330
1F
100
AcDbEntity
  8
0
  6
Continuous
100
AcDbCircle
 10
37.518737893
 20
77.0928528217
 30
0.0
 40
0.0675
100
AcDbArc
 50
180.0
 51
360.0
  0
ARC
  5
3E2
330
1F
100
AcDbEntity
  8
0
  6
Continuous
100
AcDbCircle
 10
37.518737893
 20
77.0928528217
 30
0.0
 40
0.175
100
AcDbArc
 50
0.0
 51
180.0
  0
ARC
  5
3E3
330
1F
100
AcDbEntity
  8
0
  6
Continuous
100
AcDbCircle
 10
37.518737893
 20
77.0928528217
 30
0.0
 40
0.0675
100
AcDbArc
 50
0.0
 51
180.0
  0
ARC
  5
3E4
330
1F
100
AcDbEntity
  8
0
  6
Continuous
100
AcDbCircle
 10
37.518737893
 20
77.0928528217
 30
0.0
 40
0.175
100
AcDbArc
 50
180.0
 51
360.0
  0
ARC
  5
3E5
330
1F
100
AcDbEntity
  8
0
  6
Continuous
100
AcDbCircle
 10
37.518737893
 20
77.0928528217
 30
0.0
 40
0.0355
100
AcDbArc
 50
180.0
 51
360.0
  0
ARC
  5
3E6
330
1F
100
AcDbEntity
  8
0
  6
Continuous
100
AcDbCircle
 10
37.518737893
 20
77.0928528217
 30
0.0
 40
0.0355
100
AcDbArc
 50
0.0
 51
180.0
  0
ARC
  5
3E7
330
1F
100
AcDbEntity
  8
0
  6
Continuous
100
AcDbCircle
 10
37.518737893
 20
71.52098204640001
 30
0.0
 40
0.0675
100
AcDbArc
 50
180.0
 51
360.0
  0
ARC
  5
3E8
330
1F
100
AcDbEntity
  8
0
  6
Continuous
100
AcDbCircle
 10
37.518737893
 20
71.52098204640001
 30
0.0
 40
0.175
100
AcDbArc
 50
0.0
 51
180.0
  0
ARC
  5
3E9
330
1F
100
AcDbEntity
  8
0
  6
Continuous
100
AcDbCircle
 10
37.518737893
 20
71.52098204640001
 30
0.0
 40
0.0675
100
AcDbArc
 50
0.0
 51
180.0
  0
ARC
  5
3EA
330
1F
100
AcDbEntity
  8
0
  6
Continuous
100
AcDbCircle
 10
37.518737893
 20
71.52098204640001
 30
0.0
 40
0.175
100
AcDbArc
 50
180.0
 51
360.0
  0
ARC
  5
3EB
330
1F
100
AcDbEntity
  8
0
  6
Continuous
100
AcDbCircle
 10
37.518737893
 20
71.52098204640001
 30
0.0
 40
0.0355
100
AcDbArc
 50
180.0
 51
360.0
  0
ARC
  5
3EC
330
1F
100
AcDbEntity
  8
0
  6
Continuous
100
AcDbCircle
 10
37.518737893
 20
71.52098204640001
 30
0.0
 40
0.0355
100
AcDbArc
 50
0.0
 51
180.0
  0
ARC
  5
3ED
330
1F
100
AcDbEntity
  8
0
  6
Continuous
100
AcDbCircle
 10
41.45864550209999
 20
46.78276043069999
 30
0.0
 40
0.0675
100
AcDbArc
 50
180.0
 51
360.0
  0
ARC
  5
3EE
330
1F
100
AcDbEntity
  8
0
  6
Continuous
100
AcDbCircle
 10
41.45864550209999
 20
46.78276043069999
 30
0.0
 40
0.175
100
AcDbArc
 50
0.0
 51
180.0
  0
ARC
  5
3EF
330
1F
100
AcDbEntity
  8
0
  6
Continuous
100
AcDbCircle
 10
41.45864550209999
 20
46.78276043069999
 30
0.0
 40
0.0675
100
AcDbArc
 50
0.0
 51
180.0
  0
ARC
  5
3F0
330
1F
100
AcDbEntity
  8
0
  6
Continuous
100
AcDbCircle
 10
41.45864550209999
 20
46.78276043069999
 30
0.0
 40
0.175
100
AcDbArc
 50
180.0
 51
360.0
  0
ARC
  5
3F1
330
1F
100
AcDbEntity
  8
0
  6
Continuous
100
AcDbCircle
 10
41.45864550209999
 20
46.78276043069999
 30
0.0
 40
0.0355
100
AcDbArc
 50
180.0
 51
360.0
  0
ARC
  5
3F2
330
1F
100
AcDbEntity
  8
0
  6
Continuous
100
AcDbCircle
 10
41.45864550209999
 20
46.78276043069999
 30
0.0
 40
0.0355
100
AcDbArc
 50
0.0
 51
180.0
  0
ARC
  5
3F3
330
1F
100
AcDbEntity
  8
0
  6
Continuous
100
AcDbCircle
 10
47.03051627729999
 20
33.33107443739999
 30
0.0
 40
0.0675
100
AcDbArc
 50
180.0
 51
360.0
  0
ARC
  5
3F4
330
1F
100
AcDbEntity
  8
0
  6
Continuous
100
AcDbCircle
 10
47.03051627729999
 20
33.33107443739999
 30
0.0
 40
0.175
100
AcDbArc
 50
0.0
 51
180.0
  0
ARC
  5
3F5
330
1F
100
AcDbEntity
  8
0
  6
Continuous
100
AcDbCircle
 10
47.03051627729999
 20
33.33107443739999
 30
0.0
 40
0.0675
100
AcDbArc
 50
0.0
 51
180.0
  0
ARC
  5
3F6
330
1F
100
AcDbEntity
  8
0
  6
Continuous
100
AcDbCircle
 10
47.03051627729999
 20
33.33107443739999
 30
0.0
 40
0.175
100
AcDbArc
 50
180.0
 51
360.0
  0
ARC
  5
3F7
330
1F
100
AcDbEntity
  8
0
  6
Continuous
100
AcDbCircle
 10
47.03051627729999
 20
33.33107443739999
 30
0.0
 40
0.0355
100
AcDbArc
 50
180.0
 51
360.0
  0
ARC
  5
3F8
330
1F
100
AcDbEntity
  8
0
  6
Continuous
100
AcDbCircle
 10
47.03051627729999
 20
33.33107443739999
 30
0.0
 40
0.0355
100
AcDbArc
 50
0.0
 51
180.0
  0
ARC
  5
3F9
330
1F
100
AcDbEntity
  8
0
  6
Continuous
100
AcDbCircle
 10
41.45864550209999
 20
33.33107443739999
 30
0.0
 40
0.0675
100
AcDbArc
 50
180.0
 51
360.0
  0
ARC
  5
3FA
330
1F
100
AcDbEntity
  8
0
  6
Continuous
100
AcDbCircle
 10
41.45864550209999
 20
33.33107443739999
 30
0.0
 40
0.175
100
AcDbArc
 50
0.0
 51
180.0
  0
ARC
  5
3FB
330
1F
100
AcDbEntity
  8
0
  6
Continuous
100
AcDbCircle
 10
41.45864550209999
 20
33.33107443739999
 30
0.0
 40
0.0675
100
AcDbArc
 50
0.0
 51
180.0
  0
ARC
  5
3FC
330
1F
100
AcDbEntity
  8
0
  6
Continuous
100
AcDbCircle
 10
41.45864550209999
 20
33.33107443739999
 30
0.0
 40
0.175
100
AcDbArc
 50
180.0
 51
360.0
  0
ARC
  5
3FD
330
1F
100
AcDbEntity
  8
0
  6
Continuous
100
AcDbCircle
 10
41.45864550209999
 20
33.33107443739999
 30
0.0
 40
0.0355
100
AcDbArc
 50
180.0
 51
360.0
  0
ARC
  5
3FE
330
1F
100
AcDbEntity
  8
0
  6
Continuous
100
AcDbCircle
 10
41.45864550209999
 20
33.33107443739999
 30
0.0
 40
0.0355
100
AcDbArc
 50
0.0
 51
180.0
  0
LINE
  5
3FF
330
1F
100
AcDbEntity
  8
0
  6
Continuous
100
AcDbLine
 10
44.3693308897
 20
83.56291743399999
 30
0.0
 11
43.9950824953
 21
83.56291743399999
 31
0.0
  0
LINE
  5
400
330
1F
100
AcDbEntity
  8
0
  6
Continuous
100
AcDbLine
 10
43.9559057551
 20
83.54029965949999
 30
0.0
 11
43.9559057551
 21
83.332917434
 31
0.0
  0
LINE
  5
401
330
1F
100
AcDbEntity
  8
0
  6
Continuous
100
AcDbLine
 10
44.5332560243
 20
83.54029965949999
 30
0.0
 11
44.5332560243
 21
83.332917434
 31
0.0
  0
LINE
  5
402
330
1F
100
AcDbEntity
  8
0
  6
Continuous
100
AcDbLine
 10
44.49407928409999
 20
83.56291743399999
 30
0.0
 11
44.3693308897
 21
83.56291743399999
 31
0.0
  0
LINE
  5
403
330
1F
100
AcDbEntity
  8
0
  6
Continuous
100
AcDbLine
 10
44.4940808897
 20
83.56291743399999
 30
0.0
 11
44.5332560243
 21
83.54029965949999
 31
0.0
  0
LINE
  5
404
330
1F
100
AcDbEntity
  8
0
  6
Continuous
100
AcDbLine
 10
43.99508088970001
 20
83.56291743399999
 30
0.0
 11
43.9559057551
 21
83.54029965949999
 31
0.0
  0
SPLINE
  5
405
330
1F
100
AcDbEntity
  8
0
  6
Continuous
100
AcDbSpline
210
0.0
220
0.0
230
1.0
 70
     8
 71
     3
 72
    17
 73
    13
 74
    11
 42
0.0000000001
 43
0.0000000001
 44
0.0000000001
 12
-0.8660254037637811
 22
0.5000000000357799
 32
0.0
 13
-0.8660254037637811
 23
-0.5000000000357799
 33
0.0
 40
0.0
 40
0.0
 40
0.0
 40
0.0
 40
0.0162671416615152
 40
0.0318539087508895
 40
0.0469825673773367
 40
0.0617833092815008
 40
0.0764018809810102
 40
0.0910204525807425
 40
0.1058211944849066
 40
0.1209498531113605
 40
0.1365366202007283
 40
0.1528037618622498
 40
0.1528037618622498
 40
0.1528037618622498
 40
0.1528037618622498
 10
44.5332560243
 20
83.54029965949999
 30
0.0
 10
44.5285601049915
 20
83.54301084977711
 30
0.0
 10
44.51919277316748
 20
83.54803252494644
 30
0.0
 10
44.50482599396307
 20
83.55431526479868
 30
0.0
 10
44.49037152253614
 20
83.55902036827245
 30
0.0
 10
44.47577702200644
 20
83.56195919882017
 30
0.0
 10
44.4610872406331
 20
83.56296146591684
 30
0.0
 10
44.44639745926092
 20
83.56195919881356
 30
0.0
 10
44.43180295876385
 20
83.55902036827245
 30
0.0
 10
44.41734848733693
 20
83.5543152647987
 30
0.0
 10
44.40298170813252
 20
83.54803252494642
 30
0.0
 10
44.39361437630849
 20
83.54301084977711
 30
0.0
 10
44.38891845699999
 20
83.54029965949999
 30
0.0
 11
44.5332560243
 21
83.54029965949999
 31
0.0
 11
44.5188953501
 21
83.54794105560001
 31
0.0
 11
44.5045927475
 21
83.5541364464
 31
0.0
 11
44.4901905684
 21
83.55876824399999
 31
0.0
 11
44.4756729738
 21
83.56164946040001
 31
0.0
 11
44.4610872406
 21
83.56262875890001
 31
0.0
 11
44.4465015075
 21
83.56164946040001
 31
0.0
 11
44.4319839129
 21
83.55876824399999
 31
0.0
 11
44.4175817338
 21
83.5541364464
 31
0.0
 11
44.40327913119999
 21
83.54794105560001
 31
0.0
 11
44.38891845699999
 21
83.54029965949999
 31
0.0
  0
SPLINE
  5
406
330
1F
100
AcDbEntity
  8
0
  6
Continuous
100
AcDbSpline
210
0.0
220
0.0
230
1.0
 70
     8
 71
     3
 72
    17
 73
    13
 74
    11
 42
0.0000000001
 43
0.0000000001
 44
0.0000000001
 12
-0.9607689228259438
 22
0.2773500981284766
 32
0.0
 13
-0.9607689228259438
 23
-0.2773500981284766
 33
0.0
 40
0.0
 40
0.0
 40
0.0
 40
0.0
 40
0.0297204775915755
 40
0.0589889013909288
 40
0.0881632839948682
 40
0.1173410772600143
 40
0.146528976664461
 40
0.1757168760689076
 40
0.2048946693340537
 40
0.2340690519379932
 40
0.2633374757373533
 40
0.2930579533289357
 40
0.2930579533289357
 40
0.2930579533289357
 40
0.2930579533289357
 10
44.38891845699999
 20
83.54029965949999
 30
0.0
 10
44.37940028658615
 20
83.54304731862548
 30
0.0
 10
44.3603979444548
 20
83.54812879944251
 30
0.0
 10
44.33167245280557
 20
83.55438879257468
 30
0.0
 10
44.30282543665717
 20
83.55906187168768
 30
0.0
 10
44.27377078628597
 20
83.5619695380044
 30
0.0
 10
44.24458088969999
 20
83.56295842642053
 30
0.0
 10
44.21539099311402
 20
83.5619695380044
 30
0.0
 10
44.18633634274282
 20
83.55906187168763
 30
0.0
 10
44.15748932659442
 20
83.55438879257468
 30
0.0
 10
44.12876383494521
 20
83.54812879944253
 30
0.0
 10
44.10976149281384
 20
83.54304731862548
 30
0.0
 10
44.10024332239999
 20
83.54029965949999
 30
0.0
 11
44.38891845699999
 21
83.54029965949999
 31
0.0
 11
44.3601971086
 21
83.54794105560001
 31
0.0
 11
44.3315919034
 21
83.5541364464
 31
0.0
 11
44.3027875452
 21
83.55876824399999
 31
0.0
 11
44.273752356
 21
83.56164946040001
 31
0.0
 11
44.2445808897
 21
83.56262875890001
 31
0.0
 11
44.2154094234
 21
83.56164946040001
 31
0.0
 11
44.1863742342
 21
83.55876824399999
 31
0.0
 11
44.157569876
 21
83.5541364464
 31
0.0
 11
44.1289646708
 21
83.54794105560001
 31
0.0
 11
44.10024332239999
 21
83.54029965949999
 31
0.0
  0
LINE
  5
407
330
1F
100
AcDbEntity
  8
0
  6
Continuous
100
AcDbLine
 10
44.38891845699999
 20
83.54029965949999
 30
0.0
 11
44.38891845699999
 21
83.332917434
 31
0.0
  0
SPLINE
  5
408
330
1F
100
AcDbEntity
  8
0
  6
Continuous
100
AcDbSpline
210
0.0
220
0.0
230
1.0
 70
     8
 71
     3
 72
    17
 73
    13
 74
    11
 42
0.0000000001
 43
0.0000000001
 44
0.0000000001
 12
-0.8660254037637811
 22
0.5000000000357799
 32
0.0
 13
-0.8660254037637811
 23
-0.5000000000357799
 33
0.0
 40
0.0
 40
0.0
 40
0.0
 40
0.0
 40
0.0162671416615152
 40
0.031853908750883
 40
0.0469825673773369
 40
0.061783309281501
 40
0.0764018808812333
 40
0.0910204525807357
 40
0.1058211944848998
 40
0.1209498531113604
 40
0.1365366202007217
 40
0.1528037618622369
 40
0.1528037618622369
 40
0.1528037618622369
 40
0.1528037618622369
 10
44.10024332239999
 20
83.54029965949999
 30
0.0
 10
44.09554740309149
 20
83.54301084977711
 30
0.0
 10
44.08618007126747
 20
83.54803252494642
 30
0.0
 10
44.07181329206307
 20
83.5543152647987
 30
0.0
 10
44.05735882063615
 20
83.55902036827245
 30
0.0
 10
44.04276432013905
 20
83.56195919881358
 30
0.0
 10
44.02807453876692
 20
83.56296146591679
 30
0.0
 10
44.01338475739353
 20
83.5619591988202
 30
0.0
 10
43.99879025686387
 20
83.55902036827242
 30
0.0
 10
43.98433578543692
 20
83.55431526479874
 30
0.0
 10
43.96996900623252
 20
83.54803252494642
 30
0.0
 10
43.96060167440849
 20
83.54301084977711
 30
0.0
 10
43.9559057551
 20
83.54029965949999
 30
0.0
 11
44.10024332239999
 21
83.54029965949999
 31
0.0
 11
44.08588264819999
 21
83.54794105560001
 31
0.0
 11
44.0715800456
 21
83.5541364464
 31
0.0
 11
44.0571778665
 21
83.55876824399999
 31
0.0
 11
44.0426602719
 21
83.56164946040001
 31
0.0
 11
44.0280745388
 21
83.56262875890001
 31
0.0
 11
44.0134888056
 21
83.56164946040001
 31
0.0
 11
43.998971211
 21
83.55876824399999
 31
0.0
 11
43.98456903189999
 21
83.5541364464
 31
0.0
 11
43.9702664293
 21
83.54794105560001
 31
0.0
 11
43.9559057551
 21
83.54029965949999
 31
0.0
  0
LINE
  5
409
330
1F
100
AcDbEntity
  8
0
  6
Continuous
100
AcDbLine
 10
44.10024332239999
 20
83.54029965949999
 30
0.0
 11
44.10024332239999
 21
83.332917434
 31
0.0
  0
LINE
  5
40A
330
1F
100
AcDbEntity
  8
0
  6
Continuous
100
AcDbLine
 10
53.3693308897
 20
83.56291743399999
 30
0.0
 11
52.99508249529999
 21
83.56291743399999
 31
0.0
  0
LINE
  5
40B
330
1F
100
AcDbEntity
  8
0
  6
Continuous
100
AcDbLine
 10
52.95590575510001
 20
83.54029965949999
 30
0.0
 11
52.95590575510001
 21
83.332917434
 31
0.0
  0
LINE
  5
40C
330
1F
100
AcDbEntity
  8
0
  6
Continuous
100
AcDbLine
 10
53.5332560243
 20
83.54029965949999
 30
0.0
 11
53.5332560243
 21
83.332917434
 31
0.0
  0
LINE
  5
40D
330
1F
100
AcDbEntity
  8
0
  6
Continuous
100
AcDbLine
 10
53.49407928409999
 20
83.56291743399999
 30
0.0
 11
53.3693308897
 21
83.56291743399999
 31
0.0
  0
LINE
  5
40E
330
1F
100
AcDbEntity
  8
0
  6
Continuous
100
AcDbLine
 10
53.4940808897
 20
83.56291743399999
 30
0.0
 11
53.5332560243
 21
83.54029965949999
 31
0.0
  0
LINE
  5
40F
330
1F
100
AcDbEntity
  8
0
  6
Continuous
100
AcDbLine
 10
52.9950808897
 20
83.56291743399999
 30
0.0
 11
52.95590575510001
 21
83.54029965949999
 31
0.0
  0
SPLINE
  5
410
330
1F
100
AcDbEntity
  8
0
  6
Continuous
100
AcDbSpline
210
0.0
220
0.0
230
1.0
 70
     8
 71
     3
 72
    17
 73
    13
 74
    11
 42
0.0000000001
 43
0.0000000001
 44
0.0000000001
 12
-0.8660254037637811
 22
0.5000000000357799
 32
0.0
 13
-0.8660254037637811
 23
-0.5000000000357799
 33
0.0
 40
0.0
 40
0.0
 40
0.0
 40
0.0
 40
0.0162671416615152
 40
0.0318539087508895
 40
0.0469825673773367
 40
0.0617833092815008
 40
0.0764018809810102
 40
0.0910204525807425
 40
0.1058211944849066
 40
0.1209498531113605
 40
0.1365366202007283
 40
0.1528037618622498
 40
0.1528037618622498
 40
0.1528037618622498
 40
0.1528037618622498
 10
53.5332560243
 20
83.54029965949999
 30
0.0
 10
53.5285601049915
 20
83.54301084977711
 30
0.0
 10
53.51919277316749
 20
83.54803252494644
 30
0.0
 10
53.50482599396308
 20
83.55431526479868
 30
0.0
 10
53.49037152253615
 20
83.55902036827245
 30
0.0
 10
53.47577702200643
 20
83.56195919882017
 30
0.0
 10
53.46108724063309
 20
83.56296146591684
 30
0.0
 10
53.44639745926092
 20
83.56195919881356
 30
0.0
 10
53.43180295876385
 20
83.55902036827245
 30
0.0
 10
53.41734848733692
 20
83.5543152647987
 30
0.0
 10
53.40298170813253
 20
83.54803252494642
 30
0.0
 10
53.3936143763085
 20
83.54301084977711
 30
0.0
 10
53.388918457
 20
83.54029965949999
 30
0.0
 11
53.5332560243
 21
83.54029965949999
 31
0.0
 11
53.5188953501
 21
83.54794105560001
 31
0.0
 11
53.5045927475
 21
83.5541364464
 31
0.0
 11
53.4901905684
 21
83.55876824399999
 31
0.0
 11
53.4756729738
 21
83.56164946040001
 31
0.0
 11
53.4610872406
 21
83.56262875890001
 31
0.0
 11
53.4465015075
 21
83.56164946040001
 31
0.0
 11
53.4319839129
 21
83.55876824399999
 31
0.0
 11
53.4175817338
 21
83.5541364464
 31
0.0
 11
53.4032791312
 21
83.54794105560001
 31
0.0
 11
53.388918457
 21
83.54029965949999
 31
0.0
  0
SPLINE
  5
411
330
1F
100
AcDbEntity
  8
0
  6
Continuous
100
AcDbSpline
210
0.0
220
0.0
230
1.0
 70
     8
 71
     3
 72
    17
 73
    13
 74
    11
 42
0.0000000001
 43
0.0000000001
 44
0.0000000001
 12
-0.9607689228259438
 22
0.2773500981284766
 32
0.0
 13
-0.9607689228259438
 23
-0.2773500981284766
 33
0.0
 40
0.0
 40
0.0
 40
0.0
 40
0.0
 40
0.0297204775915755
 40
0.0589889013909288
 40
0.0881632839948682
 40
0.1173410772600143
 40
0.146528976664461
 40
0.1757168760689076
 40
0.2048946693340537
 40
0.2340690519379932
 40
0.2633374757373533
 40
0.2930579533289357
 40
0.2930579533289357
 40
0.2930579533289357
 40
0.2930579533289357
 10
53.388918457
 20
83.54029965949999
 30
0.0
 10
53.37940028658615
 20
83.54304731862548
 30
0.0
 10
53.36039794445479
 20
83.54812879944251
 30
0.0
 10
53.33167245280558
 20
83.55438879257468
 30
0.0
 10
53.30282543665718
 20
83.55906187168768
 30
0.0
 10
53.27377078628598
 20
83.5619695380044
 30
0.0
 10
53.24458088970001
 20
83.56295842642053
 30
0.0
 10
53.21539099311402
 20
83.5619695380044
 30
0.0
 10
53.18633634274283
 20
83.55906187168763
 30
0.0
 10
53.15748932659443
 20
83.55438879257468
 30
0.0
 10
53.12876383494521
 20
83.54812879944253
 30
0.0
 10
53.10976149281384
 20
83.54304731862548
 30
0.0
 10
53.1002433224
 20
83.54029965949999
 30
0.0
 11
53.388918457
 21
83.54029965949999
 31
0.0
 11
53.3601971086
 21
83.54794105560001
 31
0.0
 11
53.3315919034
 21
83.5541364464
 31
0.0
 11
53.3027875452
 21
83.55876824399999
 31
0.0
 11
53.273752356
 21
83.56164946040001
 31
0.0
 11
53.24458088970001
 21
83.56262875890001
 31
0.0
 11
53.2154094234
 21
83.56164946040001
 31
0.0
 11
53.1863742342
 21
83.55876824399999
 31
0.0
 11
53.157569876
 21
83.5541364464
 31
0.0
 11
53.1289646708
 21
83.54794105560001
 31
0.0
 11
53.1002433224
 21
83.54029965949999
 31
0.0
  0
LINE
  5
412
330
1F
100
AcDbEntity
  8
0
  6
Continuous
100
AcDbLine
 10
53.388918457
 20
83.54029965949999
 30
0.0
 11
53.388918457
 21
83.332917434
 31
0.0
  0
SPLINE
  5
413
330
1F
100
AcDbEntity
  8
0
  6
Continuous
100
AcDbSpline
210
0.0
220
0.0
230
1.0
 70
     8
 71
     3
 72
    17
 73
    13
 74
    11
 42
0.0000000001
 43
0.0000000001
 44
0.0000000001
 12
-0.8660254037637811
 22
0.5000000000357799
 32
0.0
 13
-0.8660254037637811
 23
-0.5000000000357799
 33
0.0
 40
0.0
 40
0.0
 40
0.0
 40
0.0
 40
0.0162671416615152
 40
0.031853908750883
 40
0.0469825673773369
 40
0.061783309281501
 40
0.0764018808812333
 40
0.0910204525807357
 40
0.1058211944848998
 40
0.1209498531113604
 40
0.1365366202007217
 40
0.1528037618622369
 40
0.1528037618622369
 40
0.1528037618622369
 40
0.1528037618622369
 10
53.1002433224
 20
83.54029965949999
 30
0.0
 10
53.0955474030915
 20
83.54301084977711
 30
0.0
 10
53.08618007126748
 20
83.54803252494642
 30
0.0
 10
53.07181329206307
 20
83.5543152647987
 30
0.0
 10
53.05735882063617
 20
83.55902036827245
 30
0.0
 10
53.04276432013907
 20
83.56195919881358
 30
0.0
 10
53.02807453876692
 20
83.56296146591679
 30
0.0
 10
53.01338475739355
 20
83.5619591988202
 30
0.0
 10
52.99879025686387
 20
83.55902036827242
 30
0.0
 10
52.98433578543692
 20
83.55431526479874
 30
0.0
 10
52.96996900623253
 20
83.54803252494642
 30
0.0
 10
52.9606016744085
 20
83.54301084977711
 30
0.0
 10
52.95590575510001
 20
83.54029965949999
 30
0.0
 11
53.1002433224
 21
83.54029965949999
 31
0.0
 11
53.0858826482
 21
83.54794105560001
 31
0.0
 11
53.0715800456
 21
83.5541364464
 31
0.0
 11
53.05717786649999
 21
83.55876824399999
 31
0.0
 11
53.04266027189999
 21
83.56164946040001
 31
0.0
 11
53.02807453879999
 21
83.56262875890001
 31
0.0
 11
53.0134888056
 21
83.56164946040001
 31
0.0
 11
52.998971211
 21
83.55876824399999
 31
0.0
 11
52.98456903189999
 21
83.5541364464
 31
0.0
 11
52.9702664293
 21
83.54794105560001
 31
0.0
 11
52.95590575510001
 21
83.54029965949999
 31
0.0
  0
LINE
  5
414
330
1F
100
AcDbEntity
  8
0
  6
Continuous
100
AcDbLine
 10
53.1002433224
 20
83.54029965949999
 30
0.0
 11
53.1002433224
 21
83.332917434
 31
0.0
  0
LINE
  5
415
330
1F
100
AcDbEntity
  8
0
  6
Continuous
100
AcDbLine
 10
35.36933088969999
 20
83.56291743399999
 30
0.0
 11
34.9950824953
 21
83.56291743399999
 31
0.0
  0
LINE
  5
416
330
1F
100
AcDbEntity
  8
0
  6
Continuous
100
AcDbLine
 10
34.9559057551
 20
83.54029965949999
 30
0.0
 11
34.9559057551
 21
83.332917434
 31
0.0
  0
LINE
  5
417
330
1F
100
AcDbEntity
  8
0
  6
Continuous
100
AcDbLine
 10
35.5332560243
 20
83.54029965949999
 30
0.0
 11
35.5332560243
 21
83.332917434
 31
0.0
  0
LINE
  5
418
330
1F
100
AcDbEntity
  8
0
  6
Continuous
100
AcDbLine
 10
35.49407928409999
 20
83.56291743399999
 30
0.0
 11
35.36933088969999
 21
83.56291743399999
 31
0.0
  0
LINE
  5
419
330
1F
100
AcDbEntity
  8
0
  6
Continuous
100
AcDbLine
 10
35.4940808897
 20
83.56291743399999
 30
0.0
 11
35.5332560243
 21
83.54029965949999
 31
0.0
  0
LINE
  5
41A
330
1F
100
AcDbEntity
  8
0
  6
Continuous
100
AcDbLine
 10
34.99508088969999
 20
83.56291743399999
 30
0.0
 11
34.9559057551
 21
83.54029965949999
 31
0.0
  0
SPLINE
  5
41B
330
1F
100
AcDbEntity
  8
0
  6
Continuous
100
AcDbSpline
210
0.0
220
0.0
230
1.0
 70
     8
 71
     3
 72
    17
 73
    13
 74
    11
 42
0.0000000001
 43
0.0000000001
 44
0.0000000001
 12
-0.8660254037637811
 22
0.5000000000357799
 32
0.0
 13
-0.8660254037637811
 23
-0.5000000000357799
 33
0.0
 40
0.0
 40
0.0
 40
0.0
 40
0.0
 40
0.0162671416615152
 40
0.0318539087508895
 40
0.0469825673773367
 40
0.0617833092815008
 40
0.0764018809810102
 40
0.0910204525807425
 40
0.1058211944849066
 40
0.1209498531113605
 40
0.1365366202007283
 40
0.1528037618622498
 40
0.1528037618622498
 40
0.1528037618622498
 40
0.1528037618622498
 10
35.5332560243
 20
83.54029965949999
 30
0.0
 10
35.5285601049915
 20
83.54301084977711
 30
0.0
 10
35.51919277316748
 20
83.54803252494644
 30
0.0
 10
35.50482599396306
 20
83.55431526479868
 30
0.0
 10
35.49037152253615
 20
83.55902036827245
 30
0.0
 10
35.47577702200644
 20
83.56195919882017
 30
0.0
 10
35.46108724063309
 20
83.56296146591684
 30
0.0
 10
35.44639745926092
 20
83.56195919881356
 30
0.0
 10
35.43180295876385
 20
83.55902036827245
 30
0.0
 10
35.41734848733692
 20
83.5543152647987
 30
0.0
 10
35.40298170813252
 20
83.54803252494642
 30
0.0
 10
35.3936143763085
 20
83.54301084977711
 30
0.0
 10
35.38891845699999
 20
83.54029965949999
 30
0.0
 11
35.5332560243
 21
83.54029965949999
 31
0.0
 11
35.5188953501
 21
83.54794105560001
 31
0.0
 11
35.5045927475
 21
83.5541364464
 31
0.0
 11
35.4901905684
 21
83.55876824399999
 31
0.0
 11
35.4756729738
 21
83.56164946040001
 31
0.0
 11
35.4610872406
 21
83.56262875890001
 31
0.0
 11
35.4465015075
 21
83.56164946040001
 31
0.0
 11
35.4319839129
 21
83.55876824399999
 31
0.0
 11
35.41758173379999
 21
83.5541364464
 31
0.0
 11
35.4032791312
 21
83.54794105560001
 31
0.0
 11
35.38891845699999
 21
83.54029965949999
 31
0.0
  0
SPLINE
  5
41C
330
1F
100
AcDbEntity
  8
0
  6
Continuous
100
AcDbSpline
210
0.0
220
0.0
230
1.0
 70
     8
 71
     3
 72
    17
 73
    13
 74
    11
 42
0.0000000001
 43
0.0000000001
 44
0.0000000001
 12
-0.9607689228259438
 22
0.2773500981284766
 32
0.0
 13
-0.9607689228259438
 23
-0.2773500981284766
 33
0.0
 40
0.0
 40
0.0
 40
0.0
 40
0.0
 40
0.0297204775915687
 40
0.0589889013909288
 40
0.0881632839948753
 40
0.1173410772600214
 40
0.1465289766644681
 40
0.1757168760689076
 40
0.2048946693340537
 40
0.2340690519380002
 40
0.2633374757373534
 40
0.2930579533289359
 40
0.2930579533289359
 40
0.2930579533289359
 40
0.2930579533289359
 10
35.38891845699999
 20
83.54029965949999
 30
0.0
 10
35.37940028658615
 20
83.54304731862546
 30
0.0
 10
35.36039794445478
 20
83.54812879944249
 30
0.0
 10
35.33167245280557
 20
83.55438879257471
 30
0.0
 10
35.30282543665717
 20
83.55906187168764
 30
0.0
 10
35.27377078628596
 20
83.5619695380044
 30
0.0
 10
35.24458088969999
 20
83.56295842642053
 30
0.0
 10
35.21539099311403
 20
83.5619695380044
 30
0.0
 10
35.18633634274282
 20
83.55906187168761
 30
0.0
 10
35.15748932659441
 20
83.55438879257469
 30
0.0
 10
35.1287638349452
 20
83.54812879944249
 30
0.0
 10
35.10976149281384
 20
83.54304731862548
 30
0.0
 10
35.10024332239999
 20
83.54029965949999
 30
0.0
 11
35.38891845699999
 21
83.54029965949999
 31
0.0
 11
35.3601971086
 21
83.54794105560001
 31
0.0
 11
35.3315919034
 21
83.5541364464
 31
0.0
 11
35.30278754519999
 21
83.55876824399999
 31
0.0
 11
35.27375235599999
 21
83.56164946040001
 31
0.0
 11
35.24458088969999
 21
83.56262875890001
 31
0.0
 11
35.2154094234
 21
83.56164946040001
 31
0.0
 11
35.1863742342
 21
83.55876824399999
 31
0.0
 11
35.15756987599999
 21
83.5541364464
 31
0.0
 11
35.1289646708
 21
83.54794105560001
 31
0.0
 11
35.10024332239999
 21
83.54029965949999
 31
0.0
  0
LINE
  5
41D
330
1F
100
AcDbEntity
  8
0
  6
Continuous
100
AcDbLine
 10
35.38891845699999
 20
83.54029965949999
 30
0.0
 11
35.38891845699999
 21
83.332917434
 31
0.0
  0
SPLINE
  5
41E
330
1F
100
AcDbEntity
  8
0
  6
Continuous
100
AcDbSpline
210
0.0
220
0.0
230
1.0
 70
     8
 71
     3
 72
    17
 73
    13
 74
    11
 42
0.0000000001
 43
0.0000000001
 44
0.0000000001
 12
-0.8660254037637811
 22
0.5000000000357799
 32
0.0
 13
-0.8660254037637811
 23
-0.5000000000357799
 33
0.0
 40
0.0
 40
0.0
 40
0.0
 40
0.0
 40
0.0162671416615152
 40
0.031853908750883
 40
0.0469825673773369
 40
0.061783309281501
 40
0.0764018808812333
 40
0.0910204525807428
 40
0.1058211944849068
 40
0.120949853111354
 40
0.1365366202007283
 40
0.1528037618622372
 40
0.1528037618622372
 40
0.1528037618622372
 40
0.1528037618622372
 10
35.10024332239999
 20
83.54029965949999
 30
0.0
 10
35.0955474030915
 20
83.54301084977711
 30
0.0
 10
35.08618007126747
 20
83.54803252494642
 30
0.0
 10
35.07181329206307
 20
83.5543152647987
 30
0.0
 10
35.05735882063616
 20
83.55902036827245
 30
0.0
 10
35.04276432013905
 20
83.5619591988136
 30
0.0
 10
35.02807453876693
 20
83.56296146591679
 30
0.0
 10
35.01338475739353
 20
83.56195919882015
 30
0.0
 10
34.99879025686388
 20
83.55902036827247
 30
0.0
 10
34.98433578543691
 20
83.55431526479867
 30
0.0
 10
34.96996900623251
 20
83.5480325249464
 30
0.0
 10
34.9606016744085
 20
83.54301084977711
 30
0.0
 10
34.9559057551
 20
83.54029965949999
 30
0.0
 11
35.10024332239999
 21
83.54029965949999
 31
0.0
 11
35.0858826482
 21
83.54794105560001
 31
0.0
 11
35.0715800456
 21
83.5541364464
 31
0.0
 11
35.0571778665
 21
83.55876824399999
 31
0.0
 11
35.04266027189999
 21
83.56164946040001
 31
0.0
 11
35.0280745388
 21
83.56262875890001
 31
0.0
 11
35.0134888056
 21
83.56164946040001
 31
0.0
 11
34.998971211
 21
83.55876824399999
 31
0.0
 11
34.9845690319
 21
83.5541364464
 31
0.0
 11
34.97026642929999
 21
83.54794105560001
 31
0.0
 11
34.9559057551
 21
83.54029965949999
 31
0.0
  0
LINE
  5
41F
330
1F
100
AcDbEntity
  8
0
  6
Continuous
100
AcDbLine
 10
35.10024332239999
 20
83.54029965949999
 30
0.0
 11
35.10024332239999
 21
83.332917434
 31
0.0
  0
ARC
  5
420
330
1F
100
AcDbEntity
  8
0
  6
Continuous
100
AcDbCircle
 10
31.86958088969999
 20
30.493917434
 30
0.0
 40
0.125
100
AcDbArc
 50
270.0
 51
360.0
  0
LINE
  5
421
330
1F
100
AcDbEntity
  8
0
  6
Continuous
100
AcDbLine
 10
31.24458088969999
 20
30.368917434
 30
0.0
 11
31.6187451911
 21
30.368917434
 31
0.0
  0
LINE
  5
422
330
1F
100
AcDbEntity
  8
0
  6
Continuous
100
AcDbLine
 10
31.6187451911
 20
30.368917434
 30
0.0
 11
31.61957996349999
 21
30.368917434
 31
0.0
  0
LINE
  5
423
330
1F
100
AcDbEntity
  8
0
  6
Continuous
100
AcDbLine
 10
31.61957996349999
 20
30.368917434
 30
0.0
 11
31.86958088969999
 21
30.368917434
 31
0.0
  0
LINE
  5
424
330
1F
100
AcDbEntity
  8
0
  6
Continuous
100
AcDbLine
 10
31.99458088969999
 20
30.493917434
 30
0.0
 11
31.99458088969999
 21
31.118917434
 31
0.0
  0
LINE
  5
425
330
1F
100
AcDbEntity
  8
0
  6
Continuous
100
AcDbLine
 10
30.49458088969999
 20
30.493917434
 30
0.0
 11
30.49458088969999
 21
31.118917434
 31
0.0
  0
ARC
  5
426
330
1F
100
AcDbEntity
  8
0
  6
Continuous
100
AcDbCircle
 10
30.61958088969999
 20
30.493917434
 30
0.0
 40
0.125
100
AcDbArc
 50
180.0
 51
270.0
  0
LINE
  5
427
330
1F
100
AcDbEntity
  8
0
  6
Continuous
100
AcDbLine
 10
30.61958088969999
 20
30.368917434
 30
0.0
 11
30.8695818159
 21
30.368917434
 31
0.0
  0
LINE
  5
428
330
1F
100
AcDbEntity
  8
0
  6
Continuous
100
AcDbLine
 10
30.8695818159
 20
30.368917434
 30
0.0
 11
30.8704165883
 21
30.368917434
 31
0.0
  0
LINE
  5
429
330
1F
100
AcDbEntity
  8
0
  6
Continuous
100
AcDbLine
 10
30.8704165883
 20
30.368917434
 30
0.0
 11
31.24458088969999
 21
30.368917434
 31
0.0
  0
ARC
  5
42A
330
1F
100
AcDbEntity
  8
0
  6
Continuous
100
AcDbCircle
 10
57.8695808897
 20
30.493917434
 30
0.0
 40
0.125
100
AcDbArc
 50
270.0
 51
360.0
  0
LINE
  5
42B
330
1F
100
AcDbEntity
  8
0
  6
Continuous
100
AcDbLine
 10
57.2445808897
 20
30.368917434
 30
0.0
 11
57.6187451911
 21
30.368917434
 31
0.0
  0
LINE
  5
42C
330
1F
100
AcDbEntity
  8
0
  6
Continuous
100
AcDbLine
 10
57.6187451911
 20
30.368917434
 30
0.0
 11
57.6195799635
 21
30.368917434
 31
0.0
  0
LINE
  5
42D
330
1F
100
AcDbEntity
  8
0
  6
Continuous
100
AcDbLine
 10
57.6195799635
 20
30.368917434
 30
0.0
 11
57.8695808897
 21
30.368917434
 31
0.0
  0
LINE
  5
42E
330
1F
100
AcDbEntity
  8
0
  6
Continuous
100
AcDbLine
 10
57.9945808897
 20
30.493917434
 30
0.0
 11
57.9945808897
 21
31.118917434
 31
0.0
  0
LINE
  5
42F
330
1F
100
AcDbEntity
  8
0
  6
Continuous
100
AcDbLine
 10
56.4945808897
 20
30.493917434
 30
0.0
 11
56.4945808897
 21
31.118917434
 31
0.0
  0
ARC
  5
430
330
1F
100
AcDbEntity
  8
0
  6
Continuous
100
AcDbCircle
 10
56.6195808897
 20
30.493917434
 30
0.0
 40
0.125
100
AcDbArc
 50
180.0
 51
270.0
  0
LINE
  5
431
330
1F
100
AcDbEntity
  8
0
  6
Continuous
100
AcDbLine
 10
56.6195808897
 20
30.368917434
 30
0.0
 11
56.8695818159
 21
30.368917434
 31
0.0
  0
LINE
  5
432
330
1F
100
AcDbEntity
  8
0
  6
Continuous
100
AcDbLine
 10
56.8695818159
 20
30.368917434
 30
0.0
 11
56.8704165883
 21
30.368917434
 31
0.0
  0
LINE
  5
433
330
1F
100
AcDbEntity
  8
0
  6
Continuous
100
AcDbLine
 10
56.8704165883
 20
30.368917434
 30
0.0
 11
57.2445808897
 21
30.368917434
 31
0.0
  0
ARC
  5
434
330
1F
100
AcDbEntity
  8
0
  6
Continuous
100
AcDbCircle
 10
44.2445808897
 20
40.05691743399999
 30
0.0
 40
6.889999999999999
100
AcDbArc
 50
180.0
 51
360.0
  0
ARC
  5
435
330
1F
100
AcDbEntity
  8
0
  6
Continuous
100
AcDbCircle
 10
44.2445808897
 20
40.05691743399999
 30
0.0
 40
7.65
100
AcDbArc
 50
0.0
 51
180.0
  0
ARC
  5
436
330
1F
100
AcDbEntity
  8
0
  6
Continuous
100
AcDbCircle
 10
44.2445808897
 20
40.05691743399999
 30
0.0
 40
7.65
100
AcDbArc
 50
180.0
 51
360.0
  0
ARC
  5
437
330
1F
100
AcDbEntity
  8
0
  6
Continuous
100
AcDbCircle
 10
44.2445808897
 20
40.05691743399999
 30
0.0
 40
7.49
100
AcDbArc
 50
0.0
 51
180.0
  0
ARC
  5
438
330
1F
100
AcDbEntity
  8
0
  6
Continuous
100
AcDbCircle
 10
44.2445808897
 20
40.05691743399999
 30
0.0
 40
7.49
100
AcDbArc
 50
180.0
 51
360.0
  0
ARC
  5
439
330
1F
100
AcDbEntity
  8
0
  6
Continuous
100
AcDbCircle
 10
44.2445808897
 20
40.05691743399999
 30
0.0
 40
6.889999999999999
100
AcDbArc
 50
0.0
 51
180.0
  0
ARC
  5
43A
330
1F
100
AcDbEntity
  8
0
  6
Continuous
100
AcDbCircle
 10
44.2445808897
 20
40.05691743399999
 30
0.0
 40
5.8539
100
AcDbArc
 50
180.0
 51
360.0
  0
ARC
  5
43B
330
1F
100
AcDbEntity
  8
0
  6
Continuous
100
AcDbCircle
 10
44.2445808897
 20
40.05691743399999
 30
0.0
 40
2.6
100
AcDbArc
 50
180.0
 51
360.0
  0
ARC
  5
43C
330
1F
100
AcDbEntity
  8
0
  6
Continuous
100
AcDbCircle
 10
44.2445808897
 20
40.05691743399999
 30
0.0
 40
2.6
100
AcDbArc
 50
0.0
 51
180.0
  0
ARC
  5
43D
330
1F
100
AcDbEntity
  8
0
  6
Continuous
100
AcDbCircle
 10
44.2445808897
 20
40.05691743399999
 30
0.0
 40
5.8539
100
AcDbArc
 50
0.0
 51
180.0
  0
ARC
  5
43E
330
1F
100
AcDbEntity
  8
0
  6
Continuous
100
AcDbCircle
 10
44.2445808897
 20
74.306917434
 30
0.0
 40
6.889999999999999
100
AcDbArc
 50
180.0
 51
360.0
  0
ARC
  5
43F
330
1F
100
AcDbEntity
  8
0
  6
Continuous
100
AcDbCircle
 10
44.2445808897
 20
74.306917434
 30
0.0
 40
7.65
100
AcDbArc
 50
0.0
 51
180.0
  0
ARC
  5
440
330
1F
100
AcDbEntity
  8
0
  6
Continuous
100
AcDbCircle
 10
44.2445808897
 20
74.306917434
 30
0.0
 40
7.65
100
AcDbArc
 50
180.0
 51
360.0
  0
ARC
  5
441
330
1F
100
AcDbEntity
  8
0
  6
Continuous
100
AcDbCircle
 10
44.2445808897
 20
74.306917434
 30
0.0
 40
7.49
100
AcDbArc
 50
0.0
 51
180.0
  0
ARC
  5
442
330
1F
100
AcDbEntity
  8
0
  6
Continuous
100
AcDbCircle
 10
44.2445808897
 20
74.306917434
 30
0.0
 40
7.49
100
AcDbArc
 50
180.0
 51
360.0
  0
ARC
  5
443
330
1F
100
AcDbEntity
  8
0
  6
Continuous
100
AcDbCircle
 10
44.2445808897
 20
74.306917434
 30
0.0
 40
6.889999999999999
100
AcDbArc
 50
0.0
 51
180.0
  0
ARC
  5
444
330
1F
100
AcDbEntity
  8
0
  6
Continuous
100
AcDbCircle
 10
44.2445808897
 20
74.306917434
 30
0.0
 40
5.8539
100
AcDbArc
 50
180.0
 51
360.0
  0
ARC
  5
445
330
1F
100
AcDbEntity
  8
0
  6
Continuous
100
AcDbCircle
 10
44.2445808897
 20
74.306917434
 30
0.0
 40
2.6
100
AcDbArc
 50
180.0
 51
360.0
  0
ARC
  5
446
330
1F
100
AcDbEntity
  8
0
  6
Continuous
100
AcDbCircle
 10
44.2445808897
 20
74.306917434
 30
0.0
 40
2.6
100
AcDbArc
 50
0.0
 51
180.0
  0
ARC
  5
447
330
1F
100
AcDbEntity
  8
0
  6
Continuous
100
AcDbCircle
 10
44.2445808897
 20
74.306917434
 30
0.0
 40
5.8539
100
AcDbArc
 50
0.0
 51
180.0
  0
ARC
  5
448
330
1F
100
AcDbEntity
  8
0
  6
Continuous
100
AcDbCircle
 10
44.2445808897
 20
57.181917434
 30
0.0
 40
6.889999999999999
100
AcDbArc
 50
180.0
 51
360.0
  0
ARC
  5
449
330
1F
100
AcDbEntity
  8
0
  6
Continuous
100
AcDbCircle
 10
44.2445808897
 20
57.181917434
 30
0.0
 40
7.65
100
AcDbArc
 50
0.0
 51
180.0
  0
ARC
  5
44A
330
1F
100
AcDbEntity
  8
0
  6
Continuous
100
AcDbCircle
 10
44.2445808897
 20
57.181917434
 30
0.0
 40
7.65
100
AcDbArc
 50
180.0
 51
360.0
  0
ARC
  5
44B
330
1F
100
AcDbEntity
  8
0
  6
Continuous
100
AcDbCircle
 10
44.2445808897
 20
57.181917434
 30
0.0
 40
7.49
100
AcDbArc
 50
0.0
 51
180.0
  0
ARC
  5
44C
330
1F
100
AcDbEntity
  8
0
  6
Continuous
100
AcDbCircle
 10
44.2445808897
 20
57.181917434
 30
0.0
 40
7.49
100
AcDbArc
 50
180.0
 51
360.0
  0
ARC
  5
44D
330
1F
100
AcDbEntity
  8
0
  6
Continuous
100
AcDbCircle
 10
44.2445808897
 20
57.181917434
 30
0.0
 40
6.889999999999999
100
AcDbArc
 50
0.0
 51
180.0
  0
ARC
  5
44E
330
1F
100
AcDbEntity
  8
0
  6
Continuous
100
AcDbCircle
 10
44.2445808897
 20
57.181917434
 30
0.0
 40
5.8539
100
AcDbArc
 50
180.0
 51
360.0
  0
ARC
  5
44F
330
1F
100
AcDbEntity
  8
0
  6
Continuous
100
AcDbCircle
 10
44.2445808897
 20
57.181917434
 30
0.0
 40
2.6
100
AcDbArc
 50
180.0
 51
360.0
  0
ARC
  5
450
330
1F
100
AcDbEntity
  8
0
  6
Continuous
100
AcDbCircle
 10
44.2445808897
 20
57.181917434
 30
0.0
 40
2.6
100
AcDbArc
 50
0.0
 51
180.0
  0
ARC
  5
451
330
1F
100
AcDbEntity
  8
0
  6
Continuous
100
AcDbCircle
 10
44.2445808897
 20
57.181917434
 30
0.0
 40
5.8539
100
AcDbArc
 50
0.0
 51
180.0
  0
ARC
  5
452
330
1F
100
AcDbEntity
  8
0
  6
Continuous
100
AcDbCircle
 10
58.9945808897
 20
82.99891743399999
 30
0.0
 40
0.25
100
AcDbArc
 50
0.0
 51
7.499999999999999
  0
ARC
  5
453
330
1F
100
AcDbEntity
  8
0
  6
Continuous
100
AcDbCircle
 10
58.9945808897
 20
82.99891743399999
 30
0.0
 40
0.25
100
AcDbArc
 50
7.499999999999999
 51
82.5
  0
ARC
  5
454
330
1F
100
AcDbEntity
  8
0
  6
Continuous
100
AcDbCircle
 10
58.9945808897
 20
82.99891743399999
 30
0.0
 40
0.25
100
AcDbArc
 50
82.5
 51
90.0
  0
ARC
  5
455
330
1F
100
AcDbEntity
  8
0
  6
Continuous
100
AcDbCircle
 10
58.9945808897
 20
31.368917434
 30
0.0
 40
0.25
100
AcDbArc
 50
270.0
 51
360.0
  0
LINE
  5
456
330
1F
100
AcDbEntity
  8
0
  6
Continuous
100
AcDbLine
 10
29.49458088969999
 20
31.118917434
 30
0.0
 11
58.9945808897
 21
31.118917434
 31
0.0
  0
ARC
  5
457
330
1F
100
AcDbEntity
  8
0
  6
Continuous
100
AcDbCircle
 10
58.9945808897
 20
82.99891743399999
 30
0.0
 40
0.25
100
AcDbArc
 50
0.0
 51
90.0
  0
ARC
  5
458
330
1F
100
AcDbEntity
  8
0
  6
Continuous
100
AcDbCircle
 10
29.49458088969999
 20
31.368917434
 30
0.0
 40
0.25
100
AcDbArc
 50
180.0
 51
270.0
  0
LINE
  5
459
330
1F
100
AcDbEntity
  8
0
  6
Continuous
100
AcDbLine
 10
58.9945808897
 20
83.248917434
 30
0.0
 11
29.49458088969999
 21
83.248917434
 31
0.0
  0
LINE
  5
45A
330
1F
100
AcDbEntity
  8
0
  6
Continuous
100
AcDbLine
 10
29.24458088969999
 20
82.99891743399999
 30
0.0
 11
29.24458088969999
 21
31.368917434
 31
0.0
  0
LINE
  5
45B
330
1F
100
AcDbEntity
  8
0
  6
Continuous
100
AcDbLine
 10
59.2445808897
 20
31.368917434
 30
0.0
 11
59.2445808897
 21
82.99891743399999
 31
0.0
  0
LINE
  5
45C
330
1F
100
AcDbEntity
  8
0
  6
Continuous
100
AcDbLine
 10
58.4945808897
 20
31.868917434
 30
0.0
 11
29.99458088969999
 21
31.868917434
 31
0.0
  0
LINE
  5
45D
330
1F
100
AcDbEntity
  8
0
  6
Continuous
100
AcDbLine
 10
58.4945808897
 20
82.49891743399999
 30
0.0
 11
58.4945808897
 21
31.868917434
 31
0.0
  0
LINE
  5
45E
330
1F
100
AcDbEntity
  8
0
  6
Continuous
100
AcDbLine
 10
29.99458088969999
 20
82.49891743399999
 30
0.0
 11
58.4945808897
 21
82.49891743399999
 31
0.0
  0
LINE
  5
45F
330
1F
100
AcDbEntity
  8
0
  6
Continuous
100
AcDbLine
 10
29.99458088969999
 20
31.868917434
 30
0.0
 11
29.99458088969999
 21
82.49891743399999
 31
0.0
  0
ARC
  5
460
330
1F
100
AcDbEntity
  8
0
  6
Continuous
100
AcDbCircle
 10
58.9945808897
 20
31.368917434
 30
0.0
 40
0.25
100
AcDbArc
 50
270.0
 51
277.5157559974
  0
ARC
  5
461
330
1F
100
AcDbEntity
  8
0
  6
Continuous
100
AcDbCircle
 10
58.9945808897
 20
31.368917434
 30
0.0
 40
0.25
100
AcDbArc
 50
277.5157559974
 51
352.5850550244999
  0
ARC
  5
462
330
1F
100
AcDbEntity
  8
0
  6
Continuous
100
AcDbCircle
 10
58.9945808897
 20
31.368917434
 30
0.0
 40
0.25
100
AcDbArc
 50
352.5850550244999
 51
360.0
  0
ARC
  5
463
330
1F
100
AcDbEntity
  8
0
  6
Continuous
100
AcDbCircle
 10
29.49458088969999
 20
31.368917434
 30
0.0
 40
0.25
100
AcDbArc
 50
262.4842440026
 51
270.0
  0
ARC
  5
464
330
1F
100
AcDbEntity
  8
0
  6
Continuous
100
AcDbCircle
 10
29.49458088969999
 20
82.99891743399999
 30
0.0
 40
0.25
100
AcDbArc
 50
90.0
 51
180.0
  0
ARC
  5
465
330
1F
100
AcDbEntity
  8
0
  6
Continuous
100
AcDbCircle
 10
54.7445808897
 20
78.741917434
 30
0.0
 40
2.0
100
AcDbArc
 50
0.0
 51
180.0
  0
ARC
  5
466
330
1F
100
AcDbEntity
  8
0
  6
Continuous
100
AcDbCircle
 10
54.7445808897
 20
78.741917434
 30
0.0
 40
2.0
100
AcDbArc
 50
180.0
 51
360.0
  0
ARC
  5
467
330
1F
100
AcDbEntity
  8
0
  6
Continuous
100
AcDbCircle
 10
33.74458088969999
 20
69.866917434
 30
0.0
 40
2.0
100
AcDbArc
 50
0.0
 51
180.0
  0
ARC
  5
468
330
1F
100
AcDbEntity
  8
0
  6
Continuous
100
AcDbCircle
 10
33.74458088969999
 20
69.866917434
 30
0.0
 40
2.0
100
AcDbArc
 50
180.0
 51
360.0
  0
ARC
  5
469
330
1F
100
AcDbEntity
  8
0
  6
Continuous
100
AcDbCircle
 10
54.7445808897
 20
61.61691743399999
 30
0.0
 40
2.0
100
AcDbArc
 50
0.0
 51
180.0
  0
ARC
  5
46A
330
1F
100
AcDbEntity
  8
0
  6
Continuous
100
AcDbCircle
 10
54.7445808897
 20
61.61691743399999
 30
0.0
 40
2.0
100
AcDbArc
 50
180.0
 51
360.0
  0
ARC
  5
46B
330
1F
100
AcDbEntity
  8
0
  6
Continuous
100
AcDbCircle
 10
33.74458088969999
 20
52.74191743399999
 30
0.0
 40
2.0
100
AcDbArc
 50
0.0
 51
180.0
  0
ARC
  5
46C
330
1F
100
AcDbEntity
  8
0
  6
Continuous
100
AcDbCircle
 10
33.74458088969999
 20
52.74191743399999
 30
0.0
 40
2.0
100
AcDbArc
 50
180.0
 51
360.0
  0
ARC
  5
46D
330
1F
100
AcDbEntity
  8
0
  6
Continuous
100
AcDbCircle
 10
54.7445808897
 20
44.49191743399999
 30
0.0
 40
2.0
100
AcDbArc
 50
0.0
 51
180.0
  0
ARC
  5
46E
330
1F
100
AcDbEntity
  8
0
  6
Continuous
100
AcDbCircle
 10
54.7445808897
 20
44.49191743399999
 30
0.0
 40
2.0
100
AcDbArc
 50
180.0
 51
360.0
  0
ARC
  5
46F
330
1F
100
AcDbEntity
  8
0
  6
Continuous
100
AcDbCircle
 10
33.74458088969999
 20
35.616917434
 30
0.0
 40
2.0
100
AcDbArc
 50
0.0
 51
180.0
  0
ARC
  5
470
330
1F
100
AcDbEntity
  8
0
  6
Continuous
100
AcDbCircle
 10
33.74458088969999
 20
35.616917434
 30
0.0
 40
2.0
100
AcDbArc
 50
180.0
 51
360.0
  0
LINE
  5
471
330
1F
100
AcDbEntity
  8
0
  6
Continuous
100
AcDbLine
 10
118.8637612894
 20
83.332917434
 30
0.0
 11
118.6899101063999
 21
83.332917434
 31
0.0
  0
LINE
  5
472
330
1F
100
AcDbEntity
  8
0
  6
Continuous
100
AcDbLine
 10
118.6899101063999
 20
83.332917434
 30
0.0
 11
118.6878498792
 21
83.332917434
 31
0.0
  0
LINE
  5
473
330
1F
100
AcDbEntity
  8
0
  6
Continuous
100
AcDbLine
 10
118.6878498792
 20
83.332917434
 30
0.0
 11
118.6762612894
 21
83.332917434
 31
0.0
  0
LINE
  5
474
330
1F
100
AcDbEntity
  8
0
  6
Continuous
100
AcDbLine
 10
118.6762612894
 20
83.332917434
 30
0.0
 11
118.6606385744
 21
83.332917434
 31
0.0
  0
LINE
  5
475
330
1F
100
AcDbEntity
  8
0
  6
Continuous
100
AcDbLine
 10
118.6606385744
 20
83.332917434
 30
0.0
 11
118.6137612893999
 21
83.332917434
 31
0.0
  0
LINE
  5
476
330
1F
100
AcDbEntity
  8
0
  6
Continuous
100
AcDbLine
 10
118.6137612893999
 20
83.332917434
 30
0.0
 11
118.4452612894
 21
83.332917434
 31
0.0
  0
LINE
  5
477
330
1F
100
AcDbEntity
  8
0
  6
Continuous
100
AcDbLine
 10
119.2822612894
 20
83.332917434
 30
0.0
 11
119.1137612894
 21
83.332917434
 31
0.0
  0
LINE
  5
478
330
1F
100
AcDbEntity
  8
0
  6
Continuous
100
AcDbLine
 10
119.1137612894
 20
83.332917434
 30
0.0
 11
119.0668862894
 21
83.332917434
 31
0.0
  0
LINE
  5
479
330
1F
100
AcDbEntity
  8
0
  6
Continuous
100
AcDbLine
 10
119.0668862894
 20
83.332917434
 30
0.0
 11
119.0512612894
 21
83.332917434
 31
0.0
  0
LINE
  5
47A
330
1F
100
AcDbEntity
  8
0
  6
Continuous
100
AcDbLine
 10
119.0512612894
 20
83.332917434
 30
0.0
 11
118.8637612894
 21
83.332917434
 31
0.0
  0
LINE
  5
47B
330
1F
100
AcDbEntity
  8
0
  6
Continuous
100
AcDbLine
 10
118.4452612894
 20
83.332917434
 30
0.0
 11
118.4452612894
 21
83.248917434
 31
0.0
  0
LINE
  5
47C
330
1F
100
AcDbEntity
  8
0
  6
Continuous
100
AcDbLine
 10
119.2822612894
 20
83.332917434
 30
0.0
 11
119.2822612894
 21
83.248917434
 31
0.0
  0
LINE
  5
47D
330
1F
100
AcDbEntity
  8
0
  6
Continuous
100
AcDbLine
 10
103.2737612894
 20
83.332917434
 30
0.0
 11
103.0999101063999
 21
83.332917434
 31
0.0
  0
LINE
  5
47E
330
1F
100
AcDbEntity
  8
0
  6
Continuous
100
AcDbLine
 10
103.0999101063999
 20
83.332917434
 30
0.0
 11
103.0978498792
 21
83.332917434
 31
0.0
  0
LINE
  5
47F
330
1F
100
AcDbEntity
  8
0
  6
Continuous
100
AcDbLine
 10
103.0978498792
 20
83.332917434
 30
0.0
 11
103.0862612893999
 21
83.332917434
 31
0.0
  0
LINE
  5
480
330
1F
100
AcDbEntity
  8
0
  6
Continuous
100
AcDbLine
 10
103.0862612893999
 20
83.332917434
 30
0.0
 11
103.0706385744
 21
83.332917434
 31
0.0
  0
LINE
  5
481
330
1F
100
AcDbEntity
  8
0
  6
Continuous
100
AcDbLine
 10
103.0706385744
 20
83.332917434
 30
0.0
 11
103.0237612894
 21
83.332917434
 31
0.0
  0
LINE
  5
482
330
1F
100
AcDbEntity
  8
0
  6
Continuous
100
AcDbLine
 10
103.0237612894
 20
83.332917434
 30
0.0
 11
102.8552612894
 21
83.332917434
 31
0.0
  0
LINE
  5
483
330
1F
100
AcDbEntity
  8
0
  6
Continuous
100
AcDbLine
 10
103.6922612894
 20
83.332917434
 30
0.0
 11
103.5237612893999
 21
83.332917434
 31
0.0
  0
LINE
  5
484
330
1F
100
AcDbEntity
  8
0
  6
Continuous
100
AcDbLine
 10
103.5237612893999
 20
83.332917434
 30
0.0
 11
103.4768862893999
 21
83.332917434
 31
0.0
  0
LINE
  5
485
330
1F
100
AcDbEntity
  8
0
  6
Continuous
100
AcDbLine
 10
103.4768862893999
 20
83.332917434
 30
0.0
 11
103.4612612894
 21
83.332917434
 31
0.0
  0
LINE
  5
486
330
1F
100
AcDbEntity
  8
0
  6
Continuous
100
AcDbLine
 10
103.4612612894
 20
83.332917434
 30
0.0
 11
103.2737612894
 21
83.332917434
 31
0.0
  0
LINE
  5
487
330
1F
100
AcDbEntity
  8
0
  6
Continuous
100
AcDbLine
 10
102.8552612894
 20
83.332917434
 30
0.0
 11
102.8552612894
 21
83.248917434
 31
0.0
  0
LINE
  5
488
330
1F
100
AcDbEntity
  8
0
  6
Continuous
100
AcDbLine
 10
103.6922612894
 20
83.332917434
 30
0.0
 11
103.6922612894
 21
83.248917434
 31
0.0
  0
ARC
  5
489
330
1F
100
AcDbEntity
  8
0
  6
Continuous
100
AcDbCircle
 10
115.8937612894
 20
73.25663669669999
 30
0.0
 40
0.1395
100
AcDbArc
 50
90.0
 51
270.0
  0
ARC
  5
48A
330
1F
100
AcDbEntity
  8
0
  6
Continuous
100
AcDbCircle
 10
115.8937612894
 20
73.25663669669999
 30
0.0
 40
0.1395
100
AcDbArc
 50
270.0
 51
90.0
  0
LINE
  5
48B
330
1F
100
AcDbEntity
  8
0
  6
Continuous
100
AcDbLine
 10
115.9241833944
 20
73.2262145917
 30
0.0
 11
115.9082612893999
 21
73.19863669670001
 31
0.0
  0
LINE
  5
48C
330
1F
100
AcDbEntity
  8
0
  6
Continuous
100
AcDbLine
 10
115.9517612894
 20
73.2421366967
 30
0.0
 11
115.9241833944
 21
73.2262145917
 31
0.0
  0
LINE
  5
48D
330
1F
100
AcDbEntity
  8
0
  6
Continuous
100
AcDbLine
 10
115.9807612894
 20
73.2421366967
 30
0.0
 11
115.9517612894
 21
73.2421366967
 31
0.0
  0
LINE
  5
48E
330
1F
100
AcDbEntity
  8
0
  6
Continuous
100
AcDbLine
 10
115.9807612894
 20
73.2711366967
 30
0.0
 11
115.9807612894
 21
73.2421366967
 31
0.0
  0
LINE
  5
48F
330
1F
100
AcDbEntity
  8
0
  6
Continuous
100
AcDbLine
 10
115.9517612894
 20
73.2711366967
 30
0.0
 11
115.9807612894
 21
73.2711366967
 31
0.0
  0
LINE
  5
490
330
1F
100
AcDbEntity
  8
0
  6
Continuous
100
AcDbLine
 10
115.9241833944
 20
73.2870588018
 30
0.0
 11
115.9517612894
 21
73.2711366967
 31
0.0
  0
LINE
  5
491
330
1F
100
AcDbEntity
  8
0
  6
Continuous
100
AcDbLine
 10
115.9082612893999
 20
73.3146366967
 30
0.0
 11
115.9241833944
 21
73.2870588018
 31
0.0
  0
LINE
  5
492
330
1F
100
AcDbEntity
  8
0
  6
Continuous
100
AcDbLine
 10
115.9082612893999
 20
73.3436366967
 30
0.0
 11
115.9082612893999
 21
73.3146366967
 31
0.0
  0
LINE
  5
493
330
1F
100
AcDbEntity
  8
0
  6
Continuous
100
AcDbLine
 10
115.8792612894
 20
73.3436366967
 30
0.0
 11
115.9082612893999
 21
73.3436366967
 31
0.0
  0
LINE
  5
494
330
1F
100
AcDbEntity
  8
0
  6
Continuous
100
AcDbLine
 10
115.8792612894
 20
73.3146366967
 30
0.0
 11
115.8792612894
 21
73.3436366967
 31
0.0
  0
LINE
  5
495
330
1F
100
AcDbEntity
  8
0
  6
Continuous
100
AcDbLine
 10
115.8633391843
 20
73.2870588018
 30
0.0
 11
115.8792612894
 21
73.3146366967
 31
0.0
  0
LINE
  5
496
330
1F
100
AcDbEntity
  8
0
  6
Continuous
100
AcDbLine
 10
115.8357612894
 20
73.2711366967
 30
0.0
 11
115.8633391843
 21
73.2870588018
 31
0.0
  0
LINE
  5
497
330
1F
100
AcDbEntity
  8
0
  6
Continuous
100
AcDbLine
 10
115.8067612893999
 20
73.2711366967
 30
0.0
 11
115.8357612894
 21
73.2711366967
 31
0.0
  0
LINE
  5
498
330
1F
100
AcDbEntity
  8
0
  6
Continuous
100
AcDbLine
 10
115.8067612893999
 20
73.2421366967
 30
0.0
 11
115.8067612893999
 21
73.2711366967
 31
0.0
  0
LINE
  5
499
330
1F
100
AcDbEntity
  8
0
  6
Continuous
100
AcDbLine
 10
115.8357612894
 20
73.2421366967
 30
0.0
 11
115.8067612893999
 21
73.2421366967
 31
0.0
  0
LINE
  5
49A
330
1F
100
AcDbEntity
  8
0
  6
Continuous
100
AcDbLine
 10
115.8633391843
 20
73.2262145917
 30
0.0
 11
115.8357612894
 21
73.2421366967
 31
0.0
  0
LINE
  5
49B
330
1F
100
AcDbEntity
  8
0
  6
Continuous
100
AcDbLine
 10
115.8792612894
 20
73.19863669670001
 30
0.0
 11
115.8633391843
 21
73.2262145917
 31
0.0
  0
LINE
  5
49C
330
1F
100
AcDbEntity
  8
0
  6
Continuous
100
AcDbLine
 10
115.8792612894
 20
73.16963669669999
 30
0.0
 11
115.8792612894
 21
73.19863669670001
 31
0.0
  0
LINE
  5
49D
330
1F
100
AcDbEntity
  8
0
  6
Continuous
100
AcDbLine
 10
115.9082612893999
 20
73.16963669669999
 30
0.0
 11
115.8792612894
 21
73.16963669669999
 31
0.0
  0
LINE
  5
49E
330
1F
100
AcDbEntity
  8
0
  6
Continuous
100
AcDbLine
 10
115.8792612894
 20
73.19863669670001
 30
0.0
 11
115.8807980906999
 21
73.204783902
 31
0.0
  0
LINE
  5
49F
330
1F
100
AcDbEntity
  8
0
  6
Continuous
100
AcDbLine
 10
115.8807980906999
 20
73.204783902
 30
0.0
 11
115.8937612894
 21
73.25663669669999
 31
0.0
  0
LINE
  5
4A0
330
1F
100
AcDbEntity
  8
0
  6
Continuous
100
AcDbLine
 10
115.8633391843
 20
73.2262145917
 30
0.0
 11
115.8937612894
 21
73.25663669669999
 31
0.0
  0
LINE
  5
4A1
330
1F
100
AcDbEntity
  8
0
  6
Continuous
100
AcDbLine
 10
115.8357612894
 20
73.2421366967
 30
0.0
 11
115.8419084946999
 21
73.24367349810001
 31
0.0
  0
LINE
  5
4A2
330
1F
100
AcDbEntity
  8
0
  6
Continuous
100
AcDbLine
 10
115.8419084946999
 20
73.24367349810001
 30
0.0
 11
115.8467771053
 21
73.2448906507
 31
0.0
  0
LINE
  5
4A3
330
1F
100
AcDbEntity
  8
0
  6
Continuous
100
AcDbLine
 10
115.8467771053
 20
73.2448906507
 30
0.0
 11
115.8937612894
 21
73.25663669669999
 31
0.0
  0
LINE
  5
4A4
330
1F
100
AcDbEntity
  8
0
  6
Continuous
100
AcDbLine
 10
115.8067612893999
 20
73.2421366967
 30
0.0
 11
115.8321489345
 21
73.2463679709
 31
0.0
  0
LINE
  5
4A5
330
1F
100
AcDbEntity
  8
0
  6
Continuous
100
AcDbLine
 10
115.8321489345
 20
73.2463679709
 30
0.0
 11
115.8410765613999
 21
73.24785590880001
 31
0.0
  0
LINE
  5
4A6
330
1F
100
AcDbEntity
  8
0
  6
Continuous
100
AcDbLine
 10
115.8410765613999
 20
73.24785590880001
 30
0.0
 11
115.8510808950999
 21
73.24952329770001
 31
0.0
  0
LINE
  5
4A7
330
1F
100
AcDbEntity
  8
0
  6
Continuous
100
AcDbLine
 10
115.8510808950999
 20
73.24952329770001
 30
0.0
 11
115.8937612894
 21
73.25663669669999
 31
0.0
  0
LINE
  5
4A8
330
1F
100
AcDbEntity
  8
0
  6
Continuous
100
AcDbLine
 10
115.8792612894
 20
73.16963669669999
 30
0.0
 11
115.8849805013999
 21
73.20395196879999
 31
0.0
  0
LINE
  5
4A9
330
1F
100
AcDbEntity
  8
0
  6
Continuous
100
AcDbLine
 10
115.8849805013999
 20
73.20395196879999
 30
0.0
 11
115.8937612894
 21
73.25663669669999
 31
0.0
  0
LINE
  5
4AA
330
1F
100
AcDbEntity
  8
0
  6
Continuous
100
AcDbLine
 10
115.8067612893999
 20
73.2711366967
 30
0.0
 11
115.8321489345
 21
73.2669054226
 31
0.0
  0
LINE
  5
4AB
330
1F
100
AcDbEntity
  8
0
  6
Continuous
100
AcDbLine
 10
115.8321489345
 20
73.2669054226
 30
0.0
 11
115.8410765613999
 21
73.26541748470001
 31
0.0
  0
LINE
  5
4AC
330
1F
100
AcDbEntity
  8
0
  6
Continuous
100
AcDbLine
 10
115.8410765613999
 20
73.26541748470001
 30
0.0
 11
115.8510808950999
 21
73.26375009580001
 31
0.0
  0
LINE
  5
4AD
330
1F
100
AcDbEntity
  8
0
  6
Continuous
100
AcDbLine
 10
115.8510808950999
 20
73.26375009580001
 30
0.0
 11
115.8937612894
 21
73.25663669669999
 31
0.0
  0
LINE
  5
4AE
330
1F
100
AcDbEntity
  8
0
  6
Continuous
100
AcDbLine
 10
115.9082612893999
 20
73.19863669670001
 30
0.0
 11
115.9082612893999
 21
73.16963669669999
 31
0.0
  0
LINE
  5
4AF
330
1F
100
AcDbEntity
  8
0
  6
Continuous
100
AcDbLine
 10
115.9082612893999
 20
73.16963669669999
 30
0.0
 11
115.9025420772999
 21
73.20395196879999
 31
0.0
  0
LINE
  5
4B0
330
1F
100
AcDbEntity
  8
0
  6
Continuous
100
AcDbLine
 10
115.9025420772999
 20
73.20395196879999
 30
0.0
 11
115.8937612894
 21
73.25663669669999
 31
0.0
  0
LINE
  5
4B1
330
1F
100
AcDbEntity
  8
0
  6
Continuous
100
AcDbLine
 10
115.9082612893999
 20
73.19863669670001
 30
0.0
 11
115.9067244879999
 21
73.204783902
 31
0.0
  0
LINE
  5
4B2
330
1F
100
AcDbEntity
  8
0
  6
Continuous
100
AcDbLine
 10
115.9067244879999
 20
73.204783902
 30
0.0
 11
115.8937612894
 21
73.25663669669999
 31
0.0
  0
LINE
  5
4B3
330
1F
100
AcDbEntity
  8
0
  6
Continuous
100
AcDbLine
 10
115.9241833944
 20
73.2262145917
 30
0.0
 11
115.8937612894
 21
73.25663669669999
 31
0.0
  0
LINE
  5
4B4
330
1F
100
AcDbEntity
  8
0
  6
Continuous
100
AcDbLine
 10
115.9517612894
 20
73.2421366967
 30
0.0
 11
115.9456140841
 21
73.24367349810001
 31
0.0
  0
LINE
  5
4B5
330
1F
100
AcDbEntity
  8
0
  6
Continuous
100
AcDbLine
 10
115.9456140841
 20
73.24367349810001
 30
0.0
 11
115.9407454734
 21
73.2448906507
 31
0.0
  0
LINE
  5
4B6
330
1F
100
AcDbEntity
  8
0
  6
Continuous
100
AcDbLine
 10
115.9407454734
 20
73.2448906507
 30
0.0
 11
115.8937612894
 21
73.25663669669999
 31
0.0
  0
LINE
  5
4B7
330
1F
100
AcDbEntity
  8
0
  6
Continuous
100
AcDbLine
 10
115.9807612894
 20
73.2421366967
 30
0.0
 11
115.9553736441999
 21
73.2463679709
 31
0.0
  0
LINE
  5
4B8
330
1F
100
AcDbEntity
  8
0
  6
Continuous
100
AcDbLine
 10
115.9553736441999
 20
73.2463679709
 30
0.0
 11
115.9464460172999
 21
73.24785590880001
 31
0.0
  0
LINE
  5
4B9
330
1F
100
AcDbEntity
  8
0
  6
Continuous
100
AcDbLine
 10
115.9464460172999
 20
73.24785590880001
 30
0.0
 11
115.9364416837
 21
73.24952329770001
 31
0.0
  0
LINE
  5
4BA
330
1F
100
AcDbEntity
  8
0
  6
Continuous
100
AcDbLine
 10
115.9364416837
 20
73.24952329770001
 30
0.0
 11
115.8937612894
 21
73.25663669669999
 31
0.0
  0
LINE
  5
4BB
330
1F
100
AcDbEntity
  8
0
  6
Continuous
100
AcDbLine
 10
115.9807612894
 20
73.2711366967
 30
0.0
 11
115.9553736441999
 21
73.2669054226
 31
0.0
  0
LINE
  5
4BC
330
1F
100
AcDbEntity
  8
0
  6
Continuous
100
AcDbLine
 10
115.9553736441999
 20
73.2669054226
 30
0.0
 11
115.9464460172999
 21
73.26541748470001
 31
0.0
  0
LINE
  5
4BD
330
1F
100
AcDbEntity
  8
0
  6
Continuous
100
AcDbLine
 10
115.9464460172999
 20
73.26541748470001
 30
0.0
 11
115.9364416837
 21
73.26375009580001
 31
0.0
  0
LINE
  5
4BE
330
1F
100
AcDbEntity
  8
0
  6
Continuous
100
AcDbLine
 10
115.9364416837
 20
73.26375009580001
 30
0.0
 11
115.8937612894
 21
73.25663669669999
 31
0.0
  0
LINE
  5
4BF
330
1F
100
AcDbEntity
  8
0
  6
Continuous
100
AcDbLine
 10
115.9517612894
 20
73.2711366967
 30
0.0
 11
115.9456140841
 21
73.2695998954
 31
0.0
  0
LINE
  5
4C0
330
1F
100
AcDbEntity
  8
0
  6
Continuous
100
AcDbLine
 10
115.9456140841
 20
73.2695998954
 30
0.0
 11
115.9407454734
 21
73.2683827427
 31
0.0
  0
LINE
  5
4C1
330
1F
100
AcDbEntity
  8
0
  6
Continuous
100
AcDbLine
 10
115.9407454734
 20
73.2683827427
 30
0.0
 11
115.8937612894
 21
73.25663669669999
 31
0.0
  0
LINE
  5
4C2
330
1F
100
AcDbEntity
  8
0
  6
Continuous
100
AcDbLine
 10
115.9241833944
 20
73.2870588018
 30
0.0
 11
115.8937612894
 21
73.25663669669999
 31
0.0
  0
LINE
  5
4C3
330
1F
100
AcDbEntity
  8
0
  6
Continuous
100
AcDbLine
 10
115.9082612893999
 20
73.3146366967
 30
0.0
 11
115.9067244879999
 21
73.30848949140001
 31
0.0
  0
LINE
  5
4C4
330
1F
100
AcDbEntity
  8
0
  6
Continuous
100
AcDbLine
 10
115.9067244879999
 20
73.30848949140001
 30
0.0
 11
115.8937612894
 21
73.25663669669999
 31
0.0
  0
LINE
  5
4C5
330
1F
100
AcDbEntity
  8
0
  6
Continuous
100
AcDbLine
 10
115.9082612893999
 20
73.3436366967
 30
0.0
 11
115.9025420772999
 21
73.3093214247
 31
0.0
  0
LINE
  5
4C6
330
1F
100
AcDbEntity
  8
0
  6
Continuous
100
AcDbLine
 10
115.9025420772999
 20
73.3093214247
 30
0.0
 11
115.8937612894
 21
73.25663669669999
 31
0.0
  0
LINE
  5
4C7
330
1F
100
AcDbEntity
  8
0
  6
Continuous
100
AcDbLine
 10
115.8792612894
 20
73.3436366967
 30
0.0
 11
115.8849805013999
 21
73.3093214247
 31
0.0
  0
LINE
  5
4C8
330
1F
100
AcDbEntity
  8
0
  6
Continuous
100
AcDbLine
 10
115.8849805013999
 20
73.3093214247
 30
0.0
 11
115.8937612894
 21
73.25663669669999
 31
0.0
  0
LINE
  5
4C9
330
1F
100
AcDbEntity
  8
0
  6
Continuous
100
AcDbLine
 10
115.8792612894
 20
73.3146366967
 30
0.0
 11
115.8807980906999
 21
73.30848949140001
 31
0.0
  0
LINE
  5
4CA
330
1F
100
AcDbEntity
  8
0
  6
Continuous
100
AcDbLine
 10
115.8807980906999
 20
73.30848949140001
 30
0.0
 11
115.8937612894
 21
73.25663669669999
 31
0.0
  0
LINE
  5
4CB
330
1F
100
AcDbEntity
  8
0
  6
Continuous
100
AcDbLine
 10
115.8633391843
 20
73.2870588018
 30
0.0
 11
115.8937612894
 21
73.25663669669999
 31
0.0
  0
LINE
  5
4CC
330
1F
100
AcDbEntity
  8
0
  6
Continuous
100
AcDbLine
 10
115.8357612894
 20
73.2711366967
 30
0.0
 11
115.8419084946999
 21
73.2695998954
 31
0.0
  0
LINE
  5
4CD
330
1F
100
AcDbEntity
  8
0
  6
Continuous
100
AcDbLine
 10
115.8419084946999
 20
73.2695998954
 30
0.0
 11
115.8467771053
 21
73.2683827427
 31
0.0
  0
LINE
  5
4CE
330
1F
100
AcDbEntity
  8
0
  6
Continuous
100
AcDbLine
 10
115.8467771053
 20
73.2683827427
 30
0.0
 11
115.8937612894
 21
73.25663669669999
 31
0.0
  0
ARC
  5
4CF
330
1F
100
AcDbEntity
  8
0
  6
Continuous
100
AcDbCircle
 10
113.8937612894
 20
73.25663669669999
 30
0.0
 40
0.1395
100
AcDbArc
 50
90.0
 51
270.0
  0
ARC
  5
4D0
330
1F
100
AcDbEntity
  8
0
  6
Continuous
100
AcDbCircle
 10
113.8937612894
 20
73.25663669669999
 30
0.0
 40
0.1395
100
AcDbArc
 50
270.0
 51
90.0
  0
LINE
  5
4D1
330
1F
100
AcDbEntity
  8
0
  6
Continuous
100
AcDbLine
 10
113.9241833944
 20
73.2262145917
 30
0.0
 11
113.9082612894
 21
73.19863669670001
 31
0.0
  0
LINE
  5
4D2
330
1F
100
AcDbEntity
  8
0
  6
Continuous
100
AcDbLine
 10
113.9517612894
 20
73.2421366967
 30
0.0
 11
113.9241833944
 21
73.2262145917
 31
0.0
  0
LINE
  5
4D3
330
1F
100
AcDbEntity
  8
0
  6
Continuous
100
AcDbLine
 10
113.9807612894
 20
73.2421366967
 30
0.0
 11
113.9517612894
 21
73.2421366967
 31
0.0
  0
LINE
  5
4D4
330
1F
100
AcDbEntity
  8
0
  6
Continuous
100
AcDbLine
 10
113.9807612894
 20
73.2711366967
 30
0.0
 11
113.9807612894
 21
73.2421366967
 31
0.0
  0
LINE
  5
4D5
330
1F
100
AcDbEntity
  8
0
  6
Continuous
100
AcDbLine
 10
113.9517612894
 20
73.2711366967
 30
0.0
 11
113.9807612894
 21
73.2711366967
 31
0.0
  0
LINE
  5
4D6
330
1F
100
AcDbEntity
  8
0
  6
Continuous
100
AcDbLine
 10
113.9241833944
 20
73.2870588018
 30
0.0
 11
113.9517612894
 21
73.2711366967
 31
0.0
  0
LINE
  5
4D7
330
1F
100
AcDbEntity
  8
0
  6
Continuous
100
AcDbLine
 10
113.9082612894
 20
73.3146366967
 30
0.0
 11
113.9241833944
 21
73.2870588018
 31
0.0
  0
LINE
  5
4D8
330
1F
100
AcDbEntity
  8
0
  6
Continuous
100
AcDbLine
 10
113.9082612894
 20
73.3436366967
 30
0.0
 11
113.9082612894
 21
73.3146366967
 31
0.0
  0
LINE
  5
4D9
330
1F
100
AcDbEntity
  8
0
  6
Continuous
100
AcDbLine
 10
113.8792612894
 20
73.3436366967
 30
0.0
 11
113.9082612894
 21
73.3436366967
 31
0.0
  0
LINE
  5
4DA
330
1F
100
AcDbEntity
  8
0
  6
Continuous
100
AcDbLine
 10
113.8792612894
 20
73.3146366967
 30
0.0
 11
113.8792612894
 21
73.3436366967
 31
0.0
  0
LINE
  5
4DB
330
1F
100
AcDbEntity
  8
0
  6
Continuous
100
AcDbLine
 10
113.8633391843
 20
73.2870588018
 30
0.0
 11
113.8792612894
 21
73.3146366967
 31
0.0
  0
LINE
  5
4DC
330
1F
100
AcDbEntity
  8
0
  6
Continuous
100
AcDbLine
 10
113.8357612894
 20
73.2711366967
 30
0.0
 11
113.8633391843
 21
73.2870588018
 31
0.0
  0
LINE
  5
4DD
330
1F
100
AcDbEntity
  8
0
  6
Continuous
100
AcDbLine
 10
113.8067612893999
 20
73.2711366967
 30
0.0
 11
113.8357612894
 21
73.2711366967
 31
0.0
  0
LINE
  5
4DE
330
1F
100
AcDbEntity
  8
0
  6
Continuous
100
AcDbLine
 10
113.8067612893999
 20
73.2421366967
 30
0.0
 11
113.8067612893999
 21
73.2711366967
 31
0.0
  0
LINE
  5
4DF
330
1F
100
AcDbEntity
  8
0
  6
Continuous
100
AcDbLine
 10
113.8357612894
 20
73.2421366967
 30
0.0
 11
113.8067612893999
 21
73.2421366967
 31
0.0
  0
LINE
  5
4E0
330
1F
100
AcDbEntity
  8
0
  6
Continuous
100
AcDbLine
 10
113.8633391843
 20
73.2262145917
 30
0.0
 11
113.8357612894
 21
73.2421366967
 31
0.0
  0
LINE
  5
4E1
330
1F
100
AcDbEntity
  8
0
  6
Continuous
100
AcDbLine
 10
113.8792612894
 20
73.19863669670001
 30
0.0
 11
113.8633391843
 21
73.2262145917
 31
0.0
  0
LINE
  5
4E2
330
1F
100
AcDbEntity
  8
0
  6
Continuous
100
AcDbLine
 10
113.8792612894
 20
73.16963669669999
 30
0.0
 11
113.8792612894
 21
73.19863669670001
 31
0.0
  0
LINE
  5
4E3
330
1F
100
AcDbEntity
  8
0
  6
Continuous
100
AcDbLine
 10
113.9082612894
 20
73.16963669669999
 30
0.0
 11
113.8792612894
 21
73.16963669669999
 31
0.0
  0
LINE
  5
4E4
330
1F
100
AcDbEntity
  8
0
  6
Continuous
100
AcDbLine
 10
113.8792612894
 20
73.19863669670001
 30
0.0
 11
113.8807980906999
 21
73.204783902
 31
0.0
  0
LINE
  5
4E5
330
1F
100
AcDbEntity
  8
0
  6
Continuous
100
AcDbLine
 10
113.8807980906999
 20
73.204783902
 30
0.0
 11
113.8937612894
 21
73.25663669669999
 31
0.0
  0
LINE
  5
4E6
330
1F
100
AcDbEntity
  8
0
  6
Continuous
100
AcDbLine
 10
113.8633391843
 20
73.2262145917
 30
0.0
 11
113.8937612894
 21
73.25663669669999
 31
0.0
  0
LINE
  5
4E7
330
1F
100
AcDbEntity
  8
0
  6
Continuous
100
AcDbLine
 10
113.8357612894
 20
73.2421366967
 30
0.0
 11
113.8419084946999
 21
73.24367349810001
 31
0.0
  0
LINE
  5
4E8
330
1F
100
AcDbEntity
  8
0
  6
Continuous
100
AcDbLine
 10
113.8419084946999
 20
73.24367349810001
 30
0.0
 11
113.8467771053
 21
73.2448906507
 31
0.0
  0
LINE
  5
4E9
330
1F
100
AcDbEntity
  8
0
  6
Continuous
100
AcDbLine
 10
113.8467771053
 20
73.2448906507
 30
0.0
 11
113.8937612894
 21
73.25663669669999
 31
0.0
  0
LINE
  5
4EA
330
1F
100
AcDbEntity
  8
0
  6
Continuous
100
AcDbLine
 10
113.8067612893999
 20
73.2421366967
 30
0.0
 11
113.8321489345
 21
73.2463679709
 31
0.0
  0
LINE
  5
4EB
330
1F
100
AcDbEntity
  8
0
  6
Continuous
100
AcDbLine
 10
113.8321489345
 20
73.2463679709
 30
0.0
 11
113.8410765613999
 21
73.24785590880001
 31
0.0
  0
LINE
  5
4EC
330
1F
100
AcDbEntity
  8
0
  6
Continuous
100
AcDbLine
 10
113.8410765613999
 20
73.24785590880001
 30
0.0
 11
113.8510808951
 21
73.24952329770001
 31
0.0
  0
LINE
  5
4ED
330
1F
100
AcDbEntity
  8
0
  6
Continuous
100
AcDbLine
 10
113.8510808951
 20
73.24952329770001
 30
0.0
 11
113.8937612894
 21
73.25663669669999
 31
0.0
  0
LINE
  5
4EE
330
1F
100
AcDbEntity
  8
0
  6
Continuous
100
AcDbLine
 10
113.8792612894
 20
73.16963669669999
 30
0.0
 11
113.8849805013999
 21
73.20395196879999
 31
0.0
  0
LINE
  5
4EF
330
1F
100
AcDbEntity
  8
0
  6
Continuous
100
AcDbLine
 10
113.8849805013999
 20
73.20395196879999
 30
0.0
 11
113.8937612894
 21
73.25663669669999
 31
0.0
  0
LINE
  5
4F0
330
1F
100
AcDbEntity
  8
0
  6
Continuous
100
AcDbLine
 10
113.8067612893999
 20
73.2711366967
 30
0.0
 11
113.8321489345
 21
73.2669054226
 31
0.0
  0
LINE
  5
4F1
330
1F
100
AcDbEntity
  8
0
  6
Continuous
100
AcDbLine
 10
113.8321489345
 20
73.2669054226
 30
0.0
 11
113.8410765613999
 21
73.26541748470001
 31
0.0
  0
LINE
  5
4F2
330
1F
100
AcDbEntity
  8
0
  6
Continuous
100
AcDbLine
 10
113.8410765613999
 20
73.26541748470001
 30
0.0
 11
113.8510808951
 21
73.26375009580001
 31
0.0
  0
LINE
  5
4F3
330
1F
100
AcDbEntity
  8
0
  6
Continuous
100
AcDbLine
 10
113.8510808951
 20
73.26375009580001
 30
0.0
 11
113.8937612894
 21
73.25663669669999
 31
0.0
  0
LINE
  5
4F4
330
1F
100
AcDbEntity
  8
0
  6
Continuous
100
AcDbLine
 10
113.9082612894
 20
73.19863669670001
 30
0.0
 11
113.9082612894
 21
73.16963669669999
 31
0.0
  0
LINE
  5
4F5
330
1F
100
AcDbEntity
  8
0
  6
Continuous
100
AcDbLine
 10
113.9082612894
 20
73.16963669669999
 30
0.0
 11
113.9025420772999
 21
73.20395196879999
 31
0.0
  0
LINE
  5
4F6
330
1F
100
AcDbEntity
  8
0
  6
Continuous
100
AcDbLine
 10
113.9025420772999
 20
73.20395196879999
 30
0.0
 11
113.8937612894
 21
73.25663669669999
 31
0.0
  0
LINE
  5
4F7
330
1F
100
AcDbEntity
  8
0
  6
Continuous
100
AcDbLine
 10
113.9082612894
 20
73.19863669670001
 30
0.0
 11
113.9067244879999
 21
73.204783902
 31
0.0
  0
LINE
  5
4F8
330
1F
100
AcDbEntity
  8
0
  6
Continuous
100
AcDbLine
 10
113.9067244879999
 20
73.204783902
 30
0.0
 11
113.8937612894
 21
73.25663669669999
 31
0.0
  0
LINE
  5
4F9
330
1F
100
AcDbEntity
  8
0
  6
Continuous
100
AcDbLine
 10
113.9241833944
 20
73.2262145917
 30
0.0
 11
113.8937612894
 21
73.25663669669999
 31
0.0
  0
LINE
  5
4FA
330
1F
100
AcDbEntity
  8
0
  6
Continuous
100
AcDbLine
 10
113.9517612894
 20
73.2421366967
 30
0.0
 11
113.9456140840999
 21
73.24367349810001
 31
0.0
  0
LINE
  5
4FB
330
1F
100
AcDbEntity
  8
0
  6
Continuous
100
AcDbLine
 10
113.9456140840999
 20
73.24367349810001
 30
0.0
 11
113.9407454734
 21
73.2448906507
 31
0.0
  0
LINE
  5
4FC
330
1F
100
AcDbEntity
  8
0
  6
Continuous
100
AcDbLine
 10
113.9407454734
 20
73.2448906507
 30
0.0
 11
113.8937612894
 21
73.25663669669999
 31
0.0
  0
LINE
  5
4FD
330
1F
100
AcDbEntity
  8
0
  6
Continuous
100
AcDbLine
 10
113.9807612894
 20
73.2421366967
 30
0.0
 11
113.9553736441999
 21
73.2463679709
 31
0.0
  0
LINE
  5
4FE
330
1F
100
AcDbEntity
  8
0
  6
Continuous
100
AcDbLine
 10
113.9553736441999
 20
73.2463679709
 30
0.0
 11
113.9464460172999
 21
73.24785590880001
 31
0.0
  0
LINE
  5
4FF
330
1F
100
AcDbEntity
  8
0
  6
Continuous
100
AcDbLine
 10
113.9464460172999
 20
73.24785590880001
 30
0.0
 11
113.9364416837
 21
73.24952329770001
 31
0.0
  0
LINE
  5
500
330
1F
100
AcDbEntity
  8
0
  6
Continuous
100
AcDbLine
 10
113.9364416837
 20
73.24952329770001
 30
0.0
 11
113.8937612894
 21
73.25663669669999
 31
0.0
  0
LINE
  5
501
330
1F
100
AcDbEntity
  8
0
  6
Continuous
100
AcDbLine
 10
113.9807612894
 20
73.2711366967
 30
0.0
 11
113.9553736441999
 21
73.2669054226
 31
0.0
  0
LINE
  5
502
330
1F
100
AcDbEntity
  8
0
  6
Continuous
100
AcDbLine
 10
113.9553736441999
 20
73.2669054226
 30
0.0
 11
113.9464460172999
 21
73.26541748470001
 31
0.0
  0
LINE
  5
503
330
1F
100
AcDbEntity
  8
0
  6
Continuous
100
AcDbLine
 10
113.9464460172999
 20
73.26541748470001
 30
0.0
 11
113.9364416837
 21
73.26375009580001
 31
0.0
  0
LINE
  5
504
330
1F
100
AcDbEntity
  8
0
  6
Continuous
100
AcDbLine
 10
113.9364416837
 20
73.26375009580001
 30
0.0
 11
113.8937612894
 21
73.25663669669999
 31
0.0
  0
LINE
  5
505
330
1F
100
AcDbEntity
  8
0
  6
Continuous
100
AcDbLine
 10
113.9517612894
 20
73.2711366967
 30
0.0
 11
113.9456140840999
 21
73.2695998954
 31
0.0
  0
LINE
  5
506
330
1F
100
AcDbEntity
  8
0
  6
Continuous
100
AcDbLine
 10
113.9456140840999
 20
73.2695998954
 30
0.0
 11
113.9407454734
 21
73.2683827427
 31
0.0
  0
LINE
  5
507
330
1F
100
AcDbEntity
  8
0
  6
Continuous
100
AcDbLine
 10
113.9407454734
 20
73.2683827427
 30
0.0
 11
113.8937612894
 21
73.25663669669999
 31
0.0
  0
LINE
  5
508
330
1F
100
AcDbEntity
  8
0
  6
Continuous
100
AcDbLine
 10
113.9241833944
 20
73.2870588018
 30
0.0
 11
113.8937612894
 21
73.25663669669999
 31
0.0
  0
LINE
  5
509
330
1F
100
AcDbEntity
  8
0
  6
Continuous
100
AcDbLine
 10
113.9082612894
 20
73.3146366967
 30
0.0
 11
113.9067244879999
 21
73.30848949140001
 31
0.0
  0
LINE
  5
50A
330
1F
100
AcDbEntity
  8
0
  6
Continuous
100
AcDbLine
 10
113.9067244879999
 20
73.30848949140001
 30
0.0
 11
113.8937612894
 21
73.25663669669999
 31
0.0
  0
LINE
  5
50B
330
1F
100
AcDbEntity
  8
0
  6
Continuous
100
AcDbLine
 10
113.9082612894
 20
73.3436366967
 30
0.0
 11
113.9025420772999
 21
73.3093214247
 31
0.0
  0
LINE
  5
50C
330
1F
100
AcDbEntity
  8
0
  6
Continuous
100
AcDbLine
 10
113.9025420772999
 20
73.3093214247
 30
0.0
 11
113.8937612894
 21
73.25663669669999
 31
0.0
  0
LINE
  5
50D
330
1F
100
AcDbEntity
  8
0
  6
Continuous
100
AcDbLine
 10
113.8792612894
 20
73.3436366967
 30
0.0
 11
113.8849805013999
 21
73.3093214247
 31
0.0
  0
LINE
  5
50E
330
1F
100
AcDbEntity
  8
0
  6
Continuous
100
AcDbLine
 10
113.8849805013999
 20
73.3093214247
 30
0.0
 11
113.8937612894
 21
73.25663669669999
 31
0.0
  0
LINE
  5
50F
330
1F
100
AcDbEntity
  8
0
  6
Continuous
100
AcDbLine
 10
113.8792612894
 20
73.3146366967
 30
0.0
 11
113.8807980906999
 21
73.30848949140001
 31
0.0
  0
LINE
  5
510
330
1F
100
AcDbEntity
  8
0
  6
Continuous
100
AcDbLine
 10
113.8807980906999
 20
73.30848949140001
 30
0.0
 11
113.8937612894
 21
73.25663669669999
 31
0.0
  0
LINE
  5
511
330
1F
100
AcDbEntity
  8
0
  6
Continuous
100
AcDbLine
 10
113.8633391843
 20
73.2870588018
 30
0.0
 11
113.8937612894
 21
73.25663669669999
 31
0.0
  0
LINE
  5
512
330
1F
100
AcDbEntity
  8
0
  6
Continuous
100
AcDbLine
 10
113.8357612894
 20
73.2711366967
 30
0.0
 11
113.8419084946999
 21
73.2695998954
 31
0.0
  0
LINE
  5
513
330
1F
100
AcDbEntity
  8
0
  6
Continuous
100
AcDbLine
 10
113.8419084946999
 20
73.2695998954
 30
0.0
 11
113.8467771053
 21
73.2683827427
 31
0.0
  0
LINE
  5
514
330
1F
100
AcDbEntity
  8
0
  6
Continuous
100
AcDbLine
 10
113.8467771053
 20
73.2683827427
 30
0.0
 11
113.8937612894
 21
73.25663669669999
 31
0.0
  0
ARC
  5
515
330
1F
100
AcDbEntity
  8
0
  6
Continuous
100
AcDbCircle
 10
117.2037612893999
 20
71.5241366967
 30
0.0
 40
0.1395
100
AcDbArc
 50
90.0
 51
270.0
  0
ARC
  5
516
330
1F
100
AcDbEntity
  8
0
  6
Continuous
100
AcDbCircle
 10
117.2037612893999
 20
71.5241366967
 30
0.0
 40
0.1395
100
AcDbArc
 50
270.0
 51
90.0
  0
LINE
  5
517
330
1F
100
AcDbEntity
  8
0
  6
Continuous
100
AcDbLine
 10
117.2341833944
 20
71.4937145917
 30
0.0
 11
117.2182612894
 21
71.4661366967
 31
0.0
  0
LINE
  5
518
330
1F
100
AcDbEntity
  8
0
  6
Continuous
100
AcDbLine
 10
117.2617612894
 20
71.5096366967
 30
0.0
 11
117.2341833944
 21
71.4937145917
 31
0.0
  0
LINE
  5
519
330
1F
100
AcDbEntity
  8
0
  6
Continuous
100
AcDbLine
 10
117.2907612894
 20
71.5096366967
 30
0.0
 11
117.2617612894
 21
71.5096366967
 31
0.0
  0
LINE
  5
51A
330
1F
100
AcDbEntity
  8
0
  6
Continuous
100
AcDbLine
 10
117.2907612894
 20
71.53863669669999
 30
0.0
 11
117.2907612894
 21
71.5096366967
 31
0.0
  0
LINE
  5
51B
330
1F
100
AcDbEntity
  8
0
  6
Continuous
100
AcDbLine
 10
117.2617612894
 20
71.53863669669999
 30
0.0
 11
117.2907612894
 21
71.53863669669999
 31
0.0
  0
LINE
  5
51C
330
1F
100
AcDbEntity
  8
0
  6
Continuous
100
AcDbLine
 10
117.2341833944
 20
71.55455880179999
 30
0.0
 11
117.2617612894
 21
71.53863669669999
 31
0.0
  0
LINE
  5
51D
330
1F
100
AcDbEntity
  8
0
  6
Continuous
100
AcDbLine
 10
117.2182612894
 20
71.58213669670001
 30
0.0
 11
117.2341833944
 21
71.55455880179999
 31
0.0
  0
LINE
  5
51E
330
1F
100
AcDbEntity
  8
0
  6
Continuous
100
AcDbLine
 10
117.2182612894
 20
71.6111366967
 30
0.0
 11
117.2182612894
 21
71.58213669670001
 31
0.0
  0
LINE
  5
51F
330
1F
100
AcDbEntity
  8
0
  6
Continuous
100
AcDbLine
 10
117.1892612894
 20
71.6111366967
 30
0.0
 11
117.2182612894
 21
71.6111366967
 31
0.0
  0
LINE
  5
520
330
1F
100
AcDbEntity
  8
0
  6
Continuous
100
AcDbLine
 10
117.1892612894
 20
71.58213669670001
 30
0.0
 11
117.1892612894
 21
71.6111366967
 31
0.0
  0
LINE
  5
521
330
1F
100
AcDbEntity
  8
0
  6
Continuous
100
AcDbLine
 10
117.1733391843
 20
71.55455880179999
 30
0.0
 11
117.1892612894
 21
71.58213669670001
 31
0.0
  0
LINE
  5
522
330
1F
100
AcDbEntity
  8
0
  6
Continuous
100
AcDbLine
 10
117.1457612893999
 20
71.53863669669999
 30
0.0
 11
117.1733391843
 21
71.55455880179999
 31
0.0
  0
LINE
  5
523
330
1F
100
AcDbEntity
  8
0
  6
Continuous
100
AcDbLine
 10
117.1167612894
 20
71.53863669669999
 30
0.0
 11
117.1457612893999
 21
71.53863669669999
 31
0.0
  0
LINE
  5
524
330
1F
100
AcDbEntity
  8
0
  6
Continuous
100
AcDbLine
 10
117.1167612894
 20
71.5096366967
 30
0.0
 11
117.1167612894
 21
71.53863669669999
 31
0.0
  0
LINE
  5
525
330
1F
100
AcDbEntity
  8
0
  6
Continuous
100
AcDbLine
 10
117.1457612893999
 20
71.5096366967
 30
0.0
 11
117.1167612894
 21
71.5096366967
 31
0.0
  0
LINE
  5
526
330
1F
100
AcDbEntity
  8
0
  6
Continuous
100
AcDbLine
 10
117.1733391843
 20
71.4937145917
 30
0.0
 11
117.1457612893999
 21
71.5096366967
 31
0.0
  0
LINE
  5
527
330
1F
100
AcDbEntity
  8
0
  6
Continuous
100
AcDbLine
 10
117.1892612894
 20
71.4661366967
 30
0.0
 11
117.1733391843
 21
71.4937145917
 31
0.0
  0
LINE
  5
528
330
1F
100
AcDbEntity
  8
0
  6
Continuous
100
AcDbLine
 10
117.1892612894
 20
71.43713669669999
 30
0.0
 11
117.1892612894
 21
71.4661366967
 31
0.0
  0
LINE
  5
529
330
1F
100
AcDbEntity
  8
0
  6
Continuous
100
AcDbLine
 10
117.2182612894
 20
71.43713669669999
 30
0.0
 11
117.1892612894
 21
71.43713669669999
 31
0.0
  0
LINE
  5
52A
330
1F
100
AcDbEntity
  8
0
  6
Continuous
100
AcDbLine
 10
117.1892612894
 20
71.4661366967
 30
0.0
 11
117.1907980907
 21
71.472283902
 31
0.0
  0
LINE
  5
52B
330
1F
100
AcDbEntity
  8
0
  6
Continuous
100
AcDbLine
 10
117.1907980907
 20
71.472283902
 30
0.0
 11
117.2037612893999
 21
71.5241366967
 31
0.0
  0
LINE
  5
52C
330
1F
100
AcDbEntity
  8
0
  6
Continuous
100
AcDbLine
 10
117.1733391843
 20
71.4937145917
 30
0.0
 11
117.2037612893999
 21
71.5241366967
 31
0.0
  0
LINE
  5
52D
330
1F
100
AcDbEntity
  8
0
  6
Continuous
100
AcDbLine
 10
117.1457612893999
 20
71.5096366967
 30
0.0
 11
117.1519084947
 21
71.5111734981
 31
0.0
  0
LINE
  5
52E
330
1F
100
AcDbEntity
  8
0
  6
Continuous
100
AcDbLine
 10
117.1519084947
 20
71.5111734981
 30
0.0
 11
117.1567771053
 21
71.5123906507
 31
0.0
  0
LINE
  5
52F
330
1F
100
AcDbEntity
  8
0
  6
Continuous
100
AcDbLine
 10
117.1567771053
 20
71.5123906507
 30
0.0
 11
117.2037612893999
 21
71.5241366967
 31
0.0
  0
LINE
  5
530
330
1F
100
AcDbEntity
  8
0
  6
Continuous
100
AcDbLine
 10
117.1167612894
 20
71.5096366967
 30
0.0
 11
117.1421489345
 21
71.51386797089999
 31
0.0
  0
LINE
  5
531
330
1F
100
AcDbEntity
  8
0
  6
Continuous
100
AcDbLine
 10
117.1421489345
 20
71.51386797089999
 30
0.0
 11
117.1510765614
 21
71.5153559088
 31
0.0
  0
LINE
  5
532
330
1F
100
AcDbEntity
  8
0
  6
Continuous
100
AcDbLine
 10
117.1510765614
 20
71.5153559088
 30
0.0
 11
117.1610808951
 21
71.5170232977
 31
0.0
  0
LINE
  5
533
330
1F
100
AcDbEntity
  8
0
  6
Continuous
100
AcDbLine
 10
117.1610808951
 20
71.5170232977
 30
0.0
 11
117.2037612893999
 21
71.5241366967
 31
0.0
  0
LINE
  5
534
330
1F
100
AcDbEntity
  8
0
  6
Continuous
100
AcDbLine
 10
117.1892612894
 20
71.43713669669999
 30
0.0
 11
117.1949805014
 21
71.4714519688
 31
0.0
  0
LINE
  5
535
330
1F
100
AcDbEntity
  8
0
  6
Continuous
100
AcDbLine
 10
117.1949805014
 20
71.4714519688
 30
0.0
 11
117.2037612893999
 21
71.5241366967
 31
0.0
  0
LINE
  5
536
330
1F
100
AcDbEntity
  8
0
  6
Continuous
100
AcDbLine
 10
117.1167612894
 20
71.53863669669999
 30
0.0
 11
117.1421489345
 21
71.5344054226
 31
0.0
  0
LINE
  5
537
330
1F
100
AcDbEntity
  8
0
  6
Continuous
100
AcDbLine
 10
117.1421489345
 20
71.5344054226
 30
0.0
 11
117.1510765614
 21
71.5329174847
 31
0.0
  0
LINE
  5
538
330
1F
100
AcDbEntity
  8
0
  6
Continuous
100
AcDbLine
 10
117.1510765614
 20
71.5329174847
 30
0.0
 11
117.1610808951
 21
71.5312500958
 31
0.0
  0
LINE
  5
539
330
1F
100
AcDbEntity
  8
0
  6
Continuous
100
AcDbLine
 10
117.1610808951
 20
71.5312500958
 30
0.0
 11
117.2037612893999
 21
71.5241366967
 31
0.0
  0
LINE
  5
53A
330
1F
100
AcDbEntity
  8
0
  6
Continuous
100
AcDbLine
 10
117.2182612894
 20
71.4661366967
 30
0.0
 11
117.2182612894
 21
71.43713669669999
 31
0.0
  0
LINE
  5
53B
330
1F
100
AcDbEntity
  8
0
  6
Continuous
100
AcDbLine
 10
117.2182612894
 20
71.43713669669999
 30
0.0
 11
117.2125420773
 21
71.4714519688
 31
0.0
  0
LINE
  5
53C
330
1F
100
AcDbEntity
  8
0
  6
Continuous
100
AcDbLine
 10
117.2125420773
 20
71.4714519688
 30
0.0
 11
117.2037612893999
 21
71.5241366967
 31
0.0
  0
LINE
  5
53D
330
1F
100
AcDbEntity
  8
0
  6
Continuous
100
AcDbLine
 10
117.2182612894
 20
71.4661366967
 30
0.0
 11
117.216724488
 21
71.472283902
 31
0.0
  0
LINE
  5
53E
330
1F
100
AcDbEntity
  8
0
  6
Continuous
100
AcDbLine
 10
117.216724488
 20
71.472283902
 30
0.0
 11
117.2037612893999
 21
71.5241366967
 31
0.0
  0
LINE
  5
53F
330
1F
100
AcDbEntity
  8
0
  6
Continuous
100
AcDbLine
 10
117.2341833944
 20
71.4937145917
 30
0.0
 11
117.2037612893999
 21
71.5241366967
 31
0.0
  0
LINE
  5
540
330
1F
100
AcDbEntity
  8
0
  6
Continuous
100
AcDbLine
 10
117.2617612894
 20
71.5096366967
 30
0.0
 11
117.2556140841
 21
71.5111734981
 31
0.0
  0
LINE
  5
541
330
1F
100
AcDbEntity
  8
0
  6
Continuous
100
AcDbLine
 10
117.2556140841
 20
71.5111734981
 30
0.0
 11
117.2507454733999
 21
71.5123906507
 31
0.0
  0
LINE
  5
542
330
1F
100
AcDbEntity
  8
0
  6
Continuous
100
AcDbLine
 10
117.2507454733999
 20
71.5123906507
 30
0.0
 11
117.2037612893999
 21
71.5241366967
 31
0.0
  0
LINE
  5
543
330
1F
100
AcDbEntity
  8
0
  6
Continuous
100
AcDbLine
 10
117.2907612894
 20
71.5096366967
 30
0.0
 11
117.2653736441999
 21
71.51386797089999
 31
0.0
  0
LINE
  5
544
330
1F
100
AcDbEntity
  8
0
  6
Continuous
100
AcDbLine
 10
117.2653736441999
 20
71.51386797089999
 30
0.0
 11
117.2564460172999
 21
71.5153559088
 31
0.0
  0
LINE
  5
545
330
1F
100
AcDbEntity
  8
0
  6
Continuous
100
AcDbLine
 10
117.2564460172999
 20
71.5153559088
 30
0.0
 11
117.2464416837
 21
71.5170232977
 31
0.0
  0
LINE
  5
546
330
1F
100
AcDbEntity
  8
0
  6
Continuous
100
AcDbLine
 10
117.2464416837
 20
71.5170232977
 30
0.0
 11
117.2037612893999
 21
71.5241366967
 31
0.0
  0
LINE
  5
547
330
1F
100
AcDbEntity
  8
0
  6
Continuous
100
AcDbLine
 10
117.2907612894
 20
71.53863669669999
 30
0.0
 11
117.2653736441999
 21
71.5344054226
 31
0.0
  0
LINE
  5
548
330
1F
100
AcDbEntity
  8
0
  6
Continuous
100
AcDbLine
 10
117.2653736441999
 20
71.5344054226
 30
0.0
 11
117.2564460172999
 21
71.5329174847
 31
0.0
  0
LINE
  5
549
330
1F
100
AcDbEntity
  8
0
  6
Continuous
100
AcDbLine
 10
117.2564460172999
 20
71.5329174847
 30
0.0
 11
117.2464416837
 21
71.5312500958
 31
0.0
  0
LINE
  5
54A
330
1F
100
AcDbEntity
  8
0
  6
Continuous
100
AcDbLine
 10
117.2464416837
 20
71.5312500958
 30
0.0
 11
117.2037612893999
 21
71.5241366967
 31
0.0
  0
LINE
  5
54B
330
1F
100
AcDbEntity
  8
0
  6
Continuous
100
AcDbLine
 10
117.2617612894
 20
71.53863669669999
 30
0.0
 11
117.2556140841
 21
71.53709989540001
 31
0.0
  0
LINE
  5
54C
330
1F
100
AcDbEntity
  8
0
  6
Continuous
100
AcDbLine
 10
117.2556140841
 20
71.53709989540001
 30
0.0
 11
117.2507454733999
 21
71.53588274270001
 31
0.0
  0
LINE
  5
54D
330
1F
100
AcDbEntity
  8
0
  6
Continuous
100
AcDbLine
 10
117.2507454733999
 20
71.53588274270001
 30
0.0
 11
117.2037612893999
 21
71.5241366967
 31
0.0
  0
LINE
  5
54E
330
1F
100
AcDbEntity
  8
0
  6
Continuous
100
AcDbLine
 10
117.2341833944
 20
71.55455880179999
 30
0.0
 11
117.2037612893999
 21
71.5241366967
 31
0.0
  0
LINE
  5
54F
330
1F
100
AcDbEntity
  8
0
  6
Continuous
100
AcDbLine
 10
117.2182612894
 20
71.58213669670001
 30
0.0
 11
117.216724488
 21
71.57598949140001
 31
0.0
  0
LINE
  5
550
330
1F
100
AcDbEntity
  8
0
  6
Continuous
100
AcDbLine
 10
117.216724488
 20
71.57598949140001
 30
0.0
 11
117.2037612893999
 21
71.5241366967
 31
0.0
  0
LINE
  5
551
330
1F
100
AcDbEntity
  8
0
  6
Continuous
100
AcDbLine
 10
117.2182612894
 20
71.6111366967
 30
0.0
 11
117.2125420773
 21
71.5768214247
 31
0.0
  0
LINE
  5
552
330
1F
100
AcDbEntity
  8
0
  6
Continuous
100
AcDbLine
 10
117.2125420773
 20
71.5768214247
 30
0.0
 11
117.2037612893999
 21
71.5241366967
 31
0.0
  0
LINE
  5
553
330
1F
100
AcDbEntity
  8
0
  6
Continuous
100
AcDbLine
 10
117.1892612894
 20
71.6111366967
 30
0.0
 11
117.1949805014
 21
71.5768214247
 31
0.0
  0
LINE
  5
554
330
1F
100
AcDbEntity
  8
0
  6
Continuous
100
AcDbLine
 10
117.1949805014
 20
71.5768214247
 30
0.0
 11
117.2037612893999
 21
71.5241366967
 31
0.0
  0
LINE
  5
555
330
1F
100
AcDbEntity
  8
0
  6
Continuous
100
AcDbLine
 10
117.1892612894
 20
71.58213669670001
 30
0.0
 11
117.1907980907
 21
71.57598949140001
 31
0.0
  0
LINE
  5
556
330
1F
100
AcDbEntity
  8
0
  6
Continuous
100
AcDbLine
 10
117.1907980907
 20
71.57598949140001
 30
0.0
 11
117.2037612893999
 21
71.5241366967
 31
0.0
  0
LINE
  5
557
330
1F
100
AcDbEntity
  8
0
  6
Continuous
100
AcDbLine
 10
117.1733391843
 20
71.55455880179999
 30
0.0
 11
117.2037612893999
 21
71.5241366967
 31
0.0
  0
LINE
  5
558
330
1F
100
AcDbEntity
  8
0
  6
Continuous
100
AcDbLine
 10
117.1457612893999
 20
71.53863669669999
 30
0.0
 11
117.1519084947
 21
71.53709989540001
 31
0.0
  0
LINE
  5
559
330
1F
100
AcDbEntity
  8
0
  6
Continuous
100
AcDbLine
 10
117.1519084947
 20
71.53709989540001
 30
0.0
 11
117.1567771053
 21
71.53588274270001
 31
0.0
  0
LINE
  5
55A
330
1F
100
AcDbEntity
  8
0
  6
Continuous
100
AcDbLine
 10
117.1567771053
 20
71.53588274270001
 30
0.0
 11
117.2037612893999
 21
71.5241366967
 31
0.0
  0
ARC
  5
55B
330
1F
100
AcDbEntity
  8
0
  6
Continuous
100
AcDbCircle
 10
112.5837612893999
 20
71.5241366967
 30
0.0
 40
0.1395
100
AcDbArc
 50
90.0
 51
270.0
  0
ARC
  5
55C
330
1F
100
AcDbEntity
  8
0
  6
Continuous
100
AcDbCircle
 10
112.5837612893999
 20
71.5241366967
 30
0.0
 40
0.1395
100
AcDbArc
 50
270.0
 51
90.0
  0
LINE
  5
55D
330
1F
100
AcDbEntity
  8
0
  6
Continuous
100
AcDbLine
 10
112.6141833944
 20
71.4937145917
 30
0.0
 11
112.5982612894
 21
71.4661366967
 31
0.0
  0
LINE
  5
55E
330
1F
100
AcDbEntity
  8
0
  6
Continuous
100
AcDbLine
 10
112.6417612894
 20
71.5096366967
 30
0.0
 11
112.6141833944
 21
71.4937145917
 31
0.0
  0
LINE
  5
55F
330
1F
100
AcDbEntity
  8
0
  6
Continuous
100
AcDbLine
 10
112.6707612894
 20
71.5096366967
 30
0.0
 11
112.6417612894
 21
71.5096366967
 31
0.0
  0
LINE
  5
560
330
1F
100
AcDbEntity
  8
0
  6
Continuous
100
AcDbLine
 10
112.6707612894
 20
71.53863669669999
 30
0.0
 11
112.6707612894
 21
71.5096366967
 31
0.0
  0
LINE
  5
561
330
1F
100
AcDbEntity
  8
0
  6
Continuous
100
AcDbLine
 10
112.6417612894
 20
71.53863669669999
 30
0.0
 11
112.6707612894
 21
71.53863669669999
 31
0.0
  0
LINE
  5
562
330
1F
100
AcDbEntity
  8
0
  6
Continuous
100
AcDbLine
 10
112.6141833944
 20
71.55455880179999
 30
0.0
 11
112.6417612894
 21
71.53863669669999
 31
0.0
  0
LINE
  5
563
330
1F
100
AcDbEntity
  8
0
  6
Continuous
100
AcDbLine
 10
112.5982612894
 20
71.58213669670001
 30
0.0
 11
112.6141833944
 21
71.55455880179999
 31
0.0
  0
LINE
  5
564
330
1F
100
AcDbEntity
  8
0
  6
Continuous
100
AcDbLine
 10
112.5982612894
 20
71.6111366967
 30
0.0
 11
112.5982612894
 21
71.58213669670001
 31
0.0
  0
LINE
  5
565
330
1F
100
AcDbEntity
  8
0
  6
Continuous
100
AcDbLine
 10
112.5692612894
 20
71.6111366967
 30
0.0
 11
112.5982612894
 21
71.6111366967
 31
0.0
  0
LINE
  5
566
330
1F
100
AcDbEntity
  8
0
  6
Continuous
100
AcDbLine
 10
112.5692612894
 20
71.58213669670001
 30
0.0
 11
112.5692612894
 21
71.6111366967
 31
0.0
  0
LINE
  5
567
330
1F
100
AcDbEntity
  8
0
  6
Continuous
100
AcDbLine
 10
112.5533391842999
 20
71.55455880179999
 30
0.0
 11
112.5692612894
 21
71.58213669670001
 31
0.0
  0
LINE
  5
568
330
1F
100
AcDbEntity
  8
0
  6
Continuous
100
AcDbLine
 10
112.5257612894
 20
71.53863669669999
 30
0.0
 11
112.5533391842999
 21
71.55455880179999
 31
0.0
  0
LINE
  5
569
330
1F
100
AcDbEntity
  8
0
  6
Continuous
100
AcDbLine
 10
112.4967612894
 20
71.53863669669999
 30
0.0
 11
112.5257612894
 21
71.53863669669999
 31
0.0
  0
LINE
  5
56A
330
1F
100
AcDbEntity
  8
0
  6
Continuous
100
AcDbLine
 10
112.4967612894
 20
71.5096366967
 30
0.0
 11
112.4967612894
 21
71.53863669669999
 31
0.0
  0
LINE
  5
56B
330
1F
100
AcDbEntity
  8
0
  6
Continuous
100
AcDbLine
 10
112.5257612894
 20
71.5096366967
 30
0.0
 11
112.4967612894
 21
71.5096366967
 31
0.0
  0
LINE
  5
56C
330
1F
100
AcDbEntity
  8
0
  6
Continuous
100
AcDbLine
 10
112.5533391842999
 20
71.4937145917
 30
0.0
 11
112.5257612894
 21
71.5096366967
 31
0.0
  0
LINE
  5
56D
330
1F
100
AcDbEntity
  8
0
  6
Continuous
100
AcDbLine
 10
112.5692612894
 20
71.4661366967
 30
0.0
 11
112.5533391842999
 21
71.4937145917
 31
0.0
  0
LINE
  5
56E
330
1F
100
AcDbEntity
  8
0
  6
Continuous
100
AcDbLine
 10
112.5692612894
 20
71.43713669669999
 30
0.0
 11
112.5692612894
 21
71.4661366967
 31
0.0
  0
LINE
  5
56F
330
1F
100
AcDbEntity
  8
0
  6
Continuous
100
AcDbLine
 10
112.5982612894
 20
71.43713669669999
 30
0.0
 11
112.5692612894
 21
71.43713669669999
 31
0.0
  0
LINE
  5
570
330
1F
100
AcDbEntity
  8
0
  6
Continuous
100
AcDbLine
 10
112.5692612894
 20
71.4661366967
 30
0.0
 11
112.5707980907
 21
71.472283902
 31
0.0
  0
LINE
  5
571
330
1F
100
AcDbEntity
  8
0
  6
Continuous
100
AcDbLine
 10
112.5707980907
 20
71.472283902
 30
0.0
 11
112.5837612893999
 21
71.5241366967
 31
0.0
  0
LINE
  5
572
330
1F
100
AcDbEntity
  8
0
  6
Continuous
100
AcDbLine
 10
112.5533391842999
 20
71.4937145917
 30
0.0
 11
112.5837612893999
 21
71.5241366967
 31
0.0
  0
LINE
  5
573
330
1F
100
AcDbEntity
  8
0
  6
Continuous
100
AcDbLine
 10
112.5257612894
 20
71.5096366967
 30
0.0
 11
112.5319084946999
 21
71.5111734981
 31
0.0
  0
LINE
  5
574
330
1F
100
AcDbEntity
  8
0
  6
Continuous
100
AcDbLine
 10
112.5319084946999
 20
71.5111734981
 30
0.0
 11
112.5367771053
 21
71.5123906507
 31
0.0
  0
LINE
  5
575
330
1F
100
AcDbEntity
  8
0
  6
Continuous
100
AcDbLine
 10
112.5367771053
 20
71.5123906507
 30
0.0
 11
112.5837612893999
 21
71.5241366967
 31
0.0
  0
LINE
  5
576
330
1F
100
AcDbEntity
  8
0
  6
Continuous
100
AcDbLine
 10
112.4967612894
 20
71.5096366967
 30
0.0
 11
112.5221489345
 21
71.51386797089999
 31
0.0
  0
LINE
  5
577
330
1F
100
AcDbEntity
  8
0
  6
Continuous
100
AcDbLine
 10
112.5221489345
 20
71.51386797089999
 30
0.0
 11
112.5310765614
 21
71.5153559088
 31
0.0
  0
LINE
  5
578
330
1F
100
AcDbEntity
  8
0
  6
Continuous
100
AcDbLine
 10
112.5310765614
 20
71.5153559088
 30
0.0
 11
112.5410808951
 21
71.5170232977
 31
0.0
  0
LINE
  5
579
330
1F
100
AcDbEntity
  8
0
  6
Continuous
100
AcDbLine
 10
112.5410808951
 20
71.5170232977
 30
0.0
 11
112.5837612893999
 21
71.5241366967
 31
0.0
  0
LINE
  5
57A
330
1F
100
AcDbEntity
  8
0
  6
Continuous
100
AcDbLine
 10
112.5692612894
 20
71.43713669669999
 30
0.0
 11
112.5749805014
 21
71.4714519688
 31
0.0
  0
LINE
  5
57B
330
1F
100
AcDbEntity
  8
0
  6
Continuous
100
AcDbLine
 10
112.5749805014
 20
71.4714519688
 30
0.0
 11
112.5837612893999
 21
71.5241366967
 31
0.0
  0
LINE
  5
57C
330
1F
100
AcDbEntity
  8
0
  6
Continuous
100
AcDbLine
 10
112.4967612894
 20
71.53863669669999
 30
0.0
 11
112.5221489345
 21
71.5344054226
 31
0.0
  0
LINE
  5
57D
330
1F
100
AcDbEntity
  8
0
  6
Continuous
100
AcDbLine
 10
112.5221489345
 20
71.5344054226
 30
0.0
 11
112.5310765614
 21
71.5329174847
 31
0.0
  0
LINE
  5
57E
330
1F
100
AcDbEntity
  8
0
  6
Continuous
100
AcDbLine
 10
112.5310765614
 20
71.5329174847
 30
0.0
 11
112.5410808951
 21
71.5312500958
 31
0.0
  0
LINE
  5
57F
330
1F
100
AcDbEntity
  8
0
  6
Continuous
100
AcDbLine
 10
112.5410808951
 20
71.5312500958
 30
0.0
 11
112.5837612893999
 21
71.5241366967
 31
0.0
  0
LINE
  5
580
330
1F
100
AcDbEntity
  8
0
  6
Continuous
100
AcDbLine
 10
112.5982612894
 20
71.4661366967
 30
0.0
 11
112.5982612894
 21
71.43713669669999
 31
0.0
  0
LINE
  5
581
330
1F
100
AcDbEntity
  8
0
  6
Continuous
100
AcDbLine
 10
112.5982612894
 20
71.43713669669999
 30
0.0
 11
112.5925420773
 21
71.4714519688
 31
0.0
  0
LINE
  5
582
330
1F
100
AcDbEntity
  8
0
  6
Continuous
100
AcDbLine
 10
112.5925420773
 20
71.4714519688
 30
0.0
 11
112.5837612893999
 21
71.5241366967
 31
0.0
  0
LINE
  5
583
330
1F
100
AcDbEntity
  8
0
  6
Continuous
100
AcDbLine
 10
112.5982612894
 20
71.4661366967
 30
0.0
 11
112.5967244879999
 21
71.472283902
 31
0.0
  0
LINE
  5
584
330
1F
100
AcDbEntity
  8
0
  6
Continuous
100
AcDbLine
 10
112.5967244879999
 20
71.472283902
 30
0.0
 11
112.5837612893999
 21
71.5241366967
 31
0.0
  0
LINE
  5
585
330
1F
100
AcDbEntity
  8
0
  6
Continuous
100
AcDbLine
 10
112.6141833944
 20
71.4937145917
 30
0.0
 11
112.5837612893999
 21
71.5241366967
 31
0.0
  0
LINE
  5
586
330
1F
100
AcDbEntity
  8
0
  6
Continuous
100
AcDbLine
 10
112.6417612894
 20
71.5096366967
 30
0.0
 11
112.6356140841
 21
71.5111734981
 31
0.0
  0
LINE
  5
587
330
1F
100
AcDbEntity
  8
0
  6
Continuous
100
AcDbLine
 10
112.6356140841
 20
71.5111734981
 30
0.0
 11
112.6307454733999
 21
71.5123906507
 31
0.0
  0
LINE
  5
588
330
1F
100
AcDbEntity
  8
0
  6
Continuous
100
AcDbLine
 10
112.6307454733999
 20
71.5123906507
 30
0.0
 11
112.5837612893999
 21
71.5241366967
 31
0.0
  0
LINE
  5
589
330
1F
100
AcDbEntity
  8
0
  6
Continuous
100
AcDbLine
 10
112.6707612894
 20
71.5096366967
 30
0.0
 11
112.6453736442
 21
71.51386797089999
 31
0.0
  0
LINE
  5
58A
330
1F
100
AcDbEntity
  8
0
  6
Continuous
100
AcDbLine
 10
112.6453736442
 20
71.51386797089999
 30
0.0
 11
112.6364460172999
 21
71.5153559088
 31
0.0
  0
LINE
  5
58B
330
1F
100
AcDbEntity
  8
0
  6
Continuous
100
AcDbLine
 10
112.6364460172999
 20
71.5153559088
 30
0.0
 11
112.6264416837
 21
71.5170232977
 31
0.0
  0
LINE
  5
58C
330
1F
100
AcDbEntity
  8
0
  6
Continuous
100
AcDbLine
 10
112.6264416837
 20
71.5170232977
 30
0.0
 11
112.5837612893999
 21
71.5241366967
 31
0.0
  0
LINE
  5
58D
330
1F
100
AcDbEntity
  8
0
  6
Continuous
100
AcDbLine
 10
112.6707612894
 20
71.53863669669999
 30
0.0
 11
112.6453736442
 21
71.5344054226
 31
0.0
  0
LINE
  5
58E
330
1F
100
AcDbEntity
  8
0
  6
Continuous
100
AcDbLine
 10
112.6453736442
 20
71.5344054226
 30
0.0
 11
112.6364460172999
 21
71.5329174847
 31
0.0
  0
LINE
  5
58F
330
1F
100
AcDbEntity
  8
0
  6
Continuous
100
AcDbLine
 10
112.6364460172999
 20
71.5329174847
 30
0.0
 11
112.6264416837
 21
71.5312500958
 31
0.0
  0
LINE
  5
590
330
1F
100
AcDbEntity
  8
0
  6
Continuous
100
AcDbLine
 10
112.6264416837
 20
71.5312500958
 30
0.0
 11
112.5837612893999
 21
71.5241366967
 31
0.0
  0
LINE
  5
591
330
1F
100
AcDbEntity
  8
0
  6
Continuous
100
AcDbLine
 10
112.6417612894
 20
71.53863669669999
 30
0.0
 11
112.6356140841
 21
71.53709989540001
 31
0.0
  0
LINE
  5
592
330
1F
100
AcDbEntity
  8
0
  6
Continuous
100
AcDbLine
 10
112.6356140841
 20
71.53709989540001
 30
0.0
 11
112.6307454733999
 21
71.53588274270001
 31
0.0
  0
LINE
  5
593
330
1F
100
AcDbEntity
  8
0
  6
Continuous
100
AcDbLine
 10
112.6307454733999
 20
71.53588274270001
 30
0.0
 11
112.5837612893999
 21
71.5241366967
 31
0.0
  0
LINE
  5
594
330
1F
100
AcDbEntity
  8
0
  6
Continuous
100
AcDbLine
 10
112.6141833944
 20
71.55455880179999
 30
0.0
 11
112.5837612893999
 21
71.5241366967
 31
0.0
  0
LINE
  5
595
330
1F
100
AcDbEntity
  8
0
  6
Continuous
100
AcDbLine
 10
112.5982612894
 20
71.58213669670001
 30
0.0
 11
112.5967244879999
 21
71.57598949140001
 31
0.0
  0
LINE
  5
596
330
1F
100
AcDbEntity
  8
0
  6
Continuous
100
AcDbLine
 10
112.5967244879999
 20
71.57598949140001
 30
0.0
 11
112.5837612893999
 21
71.5241366967
 31
0.0
  0
LINE
  5
597
330
1F
100
AcDbEntity
  8
0
  6
Continuous
100
AcDbLine
 10
112.5982612894
 20
71.6111366967
 30
0.0
 11
112.5925420773
 21
71.5768214247
 31
0.0
  0
LINE
  5
598
330
1F
100
AcDbEntity
  8
0
  6
Continuous
100
AcDbLine
 10
112.5925420773
 20
71.5768214247
 30
0.0
 11
112.5837612893999
 21
71.5241366967
 31
0.0
  0
LINE
  5
599
330
1F
100
AcDbEntity
  8
0
  6
Continuous
100
AcDbLine
 10
112.5692612894
 20
71.6111366967
 30
0.0
 11
112.5749805014
 21
71.5768214247
 31
0.0
  0
LINE
  5
59A
330
1F
100
AcDbEntity
  8
0
  6
Continuous
100
AcDbLine
 10
112.5749805014
 20
71.5768214247
 30
0.0
 11
112.5837612893999
 21
71.5241366967
 31
0.0
  0
LINE
  5
59B
330
1F
100
AcDbEntity
  8
0
  6
Continuous
100
AcDbLine
 10
112.5692612894
 20
71.58213669670001
 30
0.0
 11
112.5707980907
 21
71.57598949140001
 31
0.0
  0
LINE
  5
59C
330
1F
100
AcDbEntity
  8
0
  6
Continuous
100
AcDbLine
 10
112.5707980907
 20
71.57598949140001
 30
0.0
 11
112.5837612893999
 21
71.5241366967
 31
0.0
  0
LINE
  5
59D
330
1F
100
AcDbEntity
  8
0
  6
Continuous
100
AcDbLine
 10
112.5533391842999
 20
71.55455880179999
 30
0.0
 11
112.5837612893999
 21
71.5241366967
 31
0.0
  0
LINE
  5
59E
330
1F
100
AcDbEntity
  8
0
  6
Continuous
100
AcDbLine
 10
112.5257612894
 20
71.53863669669999
 30
0.0
 11
112.5319084946999
 21
71.53709989540001
 31
0.0
  0
LINE
  5
59F
330
1F
100
AcDbEntity
  8
0
  6
Continuous
100
AcDbLine
 10
112.5319084946999
 20
71.53709989540001
 30
0.0
 11
112.5367771053
 21
71.53588274270001
 31
0.0
  0
LINE
  5
5A0
330
1F
100
AcDbEntity
  8
0
  6
Continuous
100
AcDbLine
 10
112.5367771053
 20
71.53588274270001
 30
0.0
 11
112.5837612893999
 21
71.5241366967
 31
0.0
  0
ARC
  5
5A1
330
1F
100
AcDbEntity
  8
0
  6
Continuous
100
AcDbCircle
 10
117.2037612893999
 20
68.3641366967
 30
0.0
 40
0.1395
100
AcDbArc
 50
90.0
 51
270.0
  0
ARC
  5
5A2
330
1F
100
AcDbEntity
  8
0
  6
Continuous
100
AcDbCircle
 10
117.2037612893999
 20
68.3641366967
 30
0.0
 40
0.1395
100
AcDbArc
 50
270.0
 51
90.0
  0
LINE
  5
5A3
330
1F
100
AcDbEntity
  8
0
  6
Continuous
100
AcDbLine
 10
117.2341833944
 20
68.3337145917
 30
0.0
 11
117.2182612894
 21
68.30613669669999
 31
0.0
  0
LINE
  5
5A4
330
1F
100
AcDbEntity
  8
0
  6
Continuous
100
AcDbLine
 10
117.2617612894
 20
68.3496366967
 30
0.0
 11
117.2341833944
 21
68.3337145917
 31
0.0
  0
LINE
  5
5A5
330
1F
100
AcDbEntity
  8
0
  6
Continuous
100
AcDbLine
 10
117.2907612894
 20
68.3496366967
 30
0.0
 11
117.2617612894
 21
68.3496366967
 31
0.0
  0
LINE
  5
5A6
330
1F
100
AcDbEntity
  8
0
  6
Continuous
100
AcDbLine
 10
117.2907612894
 20
68.37863669669999
 30
0.0
 11
117.2907612894
 21
68.3496366967
 31
0.0
  0
LINE
  5
5A7
330
1F
100
AcDbEntity
  8
0
  6
Continuous
100
AcDbLine
 10
117.2617612894
 20
68.37863669669999
 30
0.0
 11
117.2907612894
 21
68.37863669669999
 31
0.0
  0
LINE
  5
5A8
330
1F
100
AcDbEntity
  8
0
  6
Continuous
100
AcDbLine
 10
117.2341833944
 20
68.3945588018
 30
0.0
 11
117.2617612894
 21
68.37863669669999
 31
0.0
  0
LINE
  5
5A9
330
1F
100
AcDbEntity
  8
0
  6
Continuous
100
AcDbLine
 10
117.2182612894
 20
68.42213669669999
 30
0.0
 11
117.2341833944
 21
68.3945588018
 31
0.0
  0
LINE
  5
5AA
330
1F
100
AcDbEntity
  8
0
  6
Continuous
100
AcDbLine
 10
117.2182612894
 20
68.4511366967
 30
0.0
 11
117.2182612894
 21
68.42213669669999
 31
0.0
  0
LINE
  5
5AB
330
1F
100
AcDbEntity
  8
0
  6
Continuous
100
AcDbLine
 10
117.1892612894
 20
68.4511366967
 30
0.0
 11
117.2182612894
 21
68.4511366967
 31
0.0
  0
LINE
  5
5AC
330
1F
100
AcDbEntity
  8
0
  6
Continuous
100
AcDbLine
 10
117.1892612894
 20
68.42213669669999
 30
0.0
 11
117.1892612894
 21
68.4511366967
 31
0.0
  0
LINE
  5
5AD
330
1F
100
AcDbEntity
  8
0
  6
Continuous
100
AcDbLine
 10
117.1733391843
 20
68.3945588018
 30
0.0
 11
117.1892612894
 21
68.42213669669999
 31
0.0
  0
LINE
  5
5AE
330
1F
100
AcDbEntity
  8
0
  6
Continuous
100
AcDbLine
 10
117.1457612893999
 20
68.37863669669999
 30
0.0
 11
117.1733391843
 21
68.3945588018
 31
0.0
  0
LINE
  5
5AF
330
1F
100
AcDbEntity
  8
0
  6
Continuous
100
AcDbLine
 10
117.1167612894
 20
68.37863669669999
 30
0.0
 11
117.1457612893999
 21
68.37863669669999
 31
0.0
  0
LINE
  5
5B0
330
1F
100
AcDbEntity
  8
0
  6
Continuous
100
AcDbLine
 10
117.1167612894
 20
68.3496366967
 30
0.0
 11
117.1167612894
 21
68.37863669669999
 31
0.0
  0
LINE
  5
5B1
330
1F
100
AcDbEntity
  8
0
  6
Continuous
100
AcDbLine
 10
117.1457612893999
 20
68.3496366967
 30
0.0
 11
117.1167612894
 21
68.3496366967
 31
0.0
  0
LINE
  5
5B2
330
1F
100
AcDbEntity
  8
0
  6
Continuous
100
AcDbLine
 10
117.1733391843
 20
68.3337145917
 30
0.0
 11
117.1457612893999
 21
68.3496366967
 31
0.0
  0
LINE
  5
5B3
330
1F
100
AcDbEntity
  8
0
  6
Continuous
100
AcDbLine
 10
117.1892612894
 20
68.30613669669999
 30
0.0
 11
117.1733391843
 21
68.3337145917
 31
0.0
  0
LINE
  5
5B4
330
1F
100
AcDbEntity
  8
0
  6
Continuous
100
AcDbLine
 10
117.1892612894
 20
68.2771366967
 30
0.0
 11
117.1892612894
 21
68.30613669669999
 31
0.0
  0
LINE
  5
5B5
330
1F
100
AcDbEntity
  8
0
  6
Continuous
100
AcDbLine
 10
117.2182612894
 20
68.2771366967
 30
0.0
 11
117.1892612894
 21
68.2771366967
 31
0.0
  0
LINE
  5
5B6
330
1F
100
AcDbEntity
  8
0
  6
Continuous
100
AcDbLine
 10
117.1892612894
 20
68.30613669669999
 30
0.0
 11
117.1907980907
 21
68.312283902
 31
0.0
  0
LINE
  5
5B7
330
1F
100
AcDbEntity
  8
0
  6
Continuous
100
AcDbLine
 10
117.1907980907
 20
68.312283902
 30
0.0
 11
117.2037612893999
 21
68.3641366967
 31
0.0
  0
LINE
  5
5B8
330
1F
100
AcDbEntity
  8
0
  6
Continuous
100
AcDbLine
 10
117.1733391843
 20
68.3337145917
 30
0.0
 11
117.2037612893999
 21
68.3641366967
 31
0.0
  0
LINE
  5
5B9
330
1F
100
AcDbEntity
  8
0
  6
Continuous
100
AcDbLine
 10
117.1457612893999
 20
68.3496366967
 30
0.0
 11
117.1519084947
 21
68.35117349810001
 31
0.0
  0
LINE
  5
5BA
330
1F
100
AcDbEntity
  8
0
  6
Continuous
100
AcDbLine
 10
117.1519084947
 20
68.35117349810001
 30
0.0
 11
117.1567771053
 21
68.3523906507
 31
0.0
  0
LINE
  5
5BB
330
1F
100
AcDbEntity
  8
0
  6
Continuous
100
AcDbLine
 10
117.1567771053
 20
68.3523906507
 30
0.0
 11
117.2037612893999
 21
68.3641366967
 31
0.0
  0
LINE
  5
5BC
330
1F
100
AcDbEntity
  8
0
  6
Continuous
100
AcDbLine
 10
117.1167612894
 20
68.3496366967
 30
0.0
 11
117.1421489345
 21
68.35386797089999
 31
0.0
  0
LINE
  5
5BD
330
1F
100
AcDbEntity
  8
0
  6
Continuous
100
AcDbLine
 10
117.1421489345
 20
68.35386797089999
 30
0.0
 11
117.1510765614
 21
68.35535590880001
 31
0.0
  0
LINE
  5
5BE
330
1F
100
AcDbEntity
  8
0
  6
Continuous
100
AcDbLine
 10
117.1510765614
 20
68.35535590880001
 30
0.0
 11
117.1610808951
 21
68.35702329770001
 31
0.0
  0
LINE
  5
5BF
330
1F
100
AcDbEntity
  8
0
  6
Continuous
100
AcDbLine
 10
117.1610808951
 20
68.35702329770001
 30
0.0
 11
117.2037612893999
 21
68.3641366967
 31
0.0
  0
LINE
  5
5C0
330
1F
100
AcDbEntity
  8
0
  6
Continuous
100
AcDbLine
 10
117.1892612894
 20
68.2771366967
 30
0.0
 11
117.1949805014
 21
68.3114519688
 31
0.0
  0
LINE
  5
5C1
330
1F
100
AcDbEntity
  8
0
  6
Continuous
100
AcDbLine
 10
117.1949805014
 20
68.3114519688
 30
0.0
 11
117.2037612893999
 21
68.3641366967
 31
0.0
  0
LINE
  5
5C2
330
1F
100
AcDbEntity
  8
0
  6
Continuous
100
AcDbLine
 10
117.1167612894
 20
68.37863669669999
 30
0.0
 11
117.1421489345
 21
68.37440542260001
 31
0.0
  0
LINE
  5
5C3
330
1F
100
AcDbEntity
  8
0
  6
Continuous
100
AcDbLine
 10
117.1421489345
 20
68.37440542260001
 30
0.0
 11
117.1510765614
 21
68.3729174847
 31
0.0
  0
LINE
  5
5C4
330
1F
100
AcDbEntity
  8
0
  6
Continuous
100
AcDbLine
 10
117.1510765614
 20
68.3729174847
 30
0.0
 11
117.1610808951
 21
68.37125009579999
 31
0.0
  0
LINE
  5
5C5
330
1F
100
AcDbEntity
  8
0
  6
Continuous
100
AcDbLine
 10
117.1610808951
 20
68.37125009579999
 30
0.0
 11
117.2037612893999
 21
68.3641366967
 31
0.0
  0
LINE
  5
5C6
330
1F
100
AcDbEntity
  8
0
  6
Continuous
100
AcDbLine
 10
117.2182612894
 20
68.30613669669999
 30
0.0
 11
117.2182612894
 21
68.2771366967
 31
0.0
  0
LINE
  5
5C7
330
1F
100
AcDbEntity
  8
0
  6
Continuous
100
AcDbLine
 10
117.2182612894
 20
68.2771366967
 30
0.0
 11
117.2125420773
 21
68.3114519688
 31
0.0
  0
LINE
  5
5C8
330
1F
100
AcDbEntity
  8
0
  6
Continuous
100
AcDbLine
 10
117.2125420773
 20
68.3114519688
 30
0.0
 11
117.2037612893999
 21
68.3641366967
 31
0.0
  0
LINE
  5
5C9
330
1F
100
AcDbEntity
  8
0
  6
Continuous
100
AcDbLine
 10
117.2182612894
 20
68.30613669669999
 30
0.0
 11
117.216724488
 21
68.312283902
 31
0.0
  0
LINE
  5
5CA
330
1F
100
AcDbEntity
  8
0
  6
Continuous
100
AcDbLine
 10
117.216724488
 20
68.312283902
 30
0.0
 11
117.2037612893999
 21
68.3641366967
 31
0.0
  0
LINE
  5
5CB
330
1F
100
AcDbEntity
  8
0
  6
Continuous
100
AcDbLine
 10
117.2341833944
 20
68.3337145917
 30
0.0
 11
117.2037612893999
 21
68.3641366967
 31
0.0
  0
LINE
  5
5CC
330
1F
100
AcDbEntity
  8
0
  6
Continuous
100
AcDbLine
 10
117.2617612894
 20
68.3496366967
 30
0.0
 11
117.2556140841
 21
68.35117349810001
 31
0.0
  0
LINE
  5
5CD
330
1F
100
AcDbEntity
  8
0
  6
Continuous
100
AcDbLine
 10
117.2556140841
 20
68.35117349810001
 30
0.0
 11
117.2507454733999
 21
68.3523906507
 31
0.0
  0
LINE
  5
5CE
330
1F
100
AcDbEntity
  8
0
  6
Continuous
100
AcDbLine
 10
117.2507454733999
 20
68.3523906507
 30
0.0
 11
117.2037612893999
 21
68.3641366967
 31
0.0
  0
LINE
  5
5CF
330
1F
100
AcDbEntity
  8
0
  6
Continuous
100
AcDbLine
 10
117.2907612894
 20
68.3496366967
 30
0.0
 11
117.2653736441999
 21
68.35386797089999
 31
0.0
  0
LINE
  5
5D0
330
1F
100
AcDbEntity
  8
0
  6
Continuous
100
AcDbLine
 10
117.2653736441999
 20
68.35386797089999
 30
0.0
 11
117.2564460172999
 21
68.35535590880001
 31
0.0
  0
LINE
  5
5D1
330
1F
100
AcDbEntity
  8
0
  6
Continuous
100
AcDbLine
 10
117.2564460172999
 20
68.35535590880001
 30
0.0
 11
117.2464416837
 21
68.35702329770001
 31
0.0
  0
LINE
  5
5D2
330
1F
100
AcDbEntity
  8
0
  6
Continuous
100
AcDbLine
 10
117.2464416837
 20
68.35702329770001
 30
0.0
 11
117.2037612893999
 21
68.3641366967
 31
0.0
  0
LINE
  5
5D3
330
1F
100
AcDbEntity
  8
0
  6
Continuous
100
AcDbLine
 10
117.2907612894
 20
68.37863669669999
 30
0.0
 11
117.2653736441999
 21
68.37440542260001
 31
0.0
  0
LINE
  5
5D4
330
1F
100
AcDbEntity
  8
0
  6
Continuous
100
AcDbLine
 10
117.2653736441999
 20
68.37440542260001
 30
0.0
 11
117.2564460172999
 21
68.3729174847
 31
0.0
  0
LINE
  5
5D5
330
1F
100
AcDbEntity
  8
0
  6
Continuous
100
AcDbLine
 10
117.2564460172999
 20
68.3729174847
 30
0.0
 11
117.2464416837
 21
68.37125009579999
 31
0.0
  0
LINE
  5
5D6
330
1F
100
AcDbEntity
  8
0
  6
Continuous
100
AcDbLine
 10
117.2464416837
 20
68.37125009579999
 30
0.0
 11
117.2037612893999
 21
68.3641366967
 31
0.0
  0
LINE
  5
5D7
330
1F
100
AcDbEntity
  8
0
  6
Continuous
100
AcDbLine
 10
117.2617612894
 20
68.37863669669999
 30
0.0
 11
117.2556140841
 21
68.37709989539999
 31
0.0
  0
LINE
  5
5D8
330
1F
100
AcDbEntity
  8
0
  6
Continuous
100
AcDbLine
 10
117.2556140841
 20
68.37709989539999
 30
0.0
 11
117.2507454733999
 21
68.3758827427
 31
0.0
  0
LINE
  5
5D9
330
1F
100
AcDbEntity
  8
0
  6
Continuous
100
AcDbLine
 10
117.2507454733999
 20
68.3758827427
 30
0.0
 11
117.2037612893999
 21
68.3641366967
 31
0.0
  0
LINE
  5
5DA
330
1F
100
AcDbEntity
  8
0
  6
Continuous
100
AcDbLine
 10
117.2341833944
 20
68.3945588018
 30
0.0
 11
117.2037612893999
 21
68.3641366967
 31
0.0
  0
LINE
  5
5DB
330
1F
100
AcDbEntity
  8
0
  6
Continuous
100
AcDbLine
 10
117.2182612894
 20
68.42213669669999
 30
0.0
 11
117.216724488
 21
68.41598949139999
 31
0.0
  0
LINE
  5
5DC
330
1F
100
AcDbEntity
  8
0
  6
Continuous
100
AcDbLine
 10
117.216724488
 20
68.41598949139999
 30
0.0
 11
117.2037612893999
 21
68.3641366967
 31
0.0
  0
LINE
  5
5DD
330
1F
100
AcDbEntity
  8
0
  6
Continuous
100
AcDbLine
 10
117.2182612894
 20
68.4511366967
 30
0.0
 11
117.2125420773
 21
68.4168214247
 31
0.0
  0
LINE
  5
5DE
330
1F
100
AcDbEntity
  8
0
  6
Continuous
100
AcDbLine
 10
117.2125420773
 20
68.4168214247
 30
0.0
 11
117.2037612893999
 21
68.3641366967
 31
0.0
  0
LINE
  5
5DF
330
1F
100
AcDbEntity
  8
0
  6
Continuous
100
AcDbLine
 10
117.1892612894
 20
68.4511366967
 30
0.0
 11
117.1949805014
 21
68.4168214247
 31
0.0
  0
LINE
  5
5E0
330
1F
100
AcDbEntity
  8
0
  6
Continuous
100
AcDbLine
 10
117.1949805014
 20
68.4168214247
 30
0.0
 11
117.2037612893999
 21
68.3641366967
 31
0.0
  0
LINE
  5
5E1
330
1F
100
AcDbEntity
  8
0
  6
Continuous
100
AcDbLine
 10
117.1892612894
 20
68.42213669669999
 30
0.0
 11
117.1907980907
 21
68.41598949139999
 31
0.0
  0
LINE
  5
5E2
330
1F
100
AcDbEntity
  8
0
  6
Continuous
100
AcDbLine
 10
117.1907980907
 20
68.41598949139999
 30
0.0
 11
117.2037612893999
 21
68.3641366967
 31
0.0
  0
LINE
  5
5E3
330
1F
100
AcDbEntity
  8
0
  6
Continuous
100
AcDbLine
 10
117.1733391843
 20
68.3945588018
 30
0.0
 11
117.2037612893999
 21
68.3641366967
 31
0.0
  0
LINE
  5
5E4
330
1F
100
AcDbEntity
  8
0
  6
Continuous
100
AcDbLine
 10
117.1457612893999
 20
68.37863669669999
 30
0.0
 11
117.1519084947
 21
68.37709989539999
 31
0.0
  0
LINE
  5
5E5
330
1F
100
AcDbEntity
  8
0
  6
Continuous
100
AcDbLine
 10
117.1519084947
 20
68.37709989539999
 30
0.0
 11
117.1567771053
 21
68.3758827427
 31
0.0
  0
LINE
  5
5E6
330
1F
100
AcDbEntity
  8
0
  6
Continuous
100
AcDbLine
 10
117.1567771053
 20
68.3758827427
 30
0.0
 11
117.2037612893999
 21
68.3641366967
 31
0.0
  0
ARC
  5
5E7
330
1F
100
AcDbEntity
  8
0
  6
Continuous
100
AcDbCircle
 10
115.8937612894
 20
66.6316366967
 30
0.0
 40
0.1395
100
AcDbArc
 50
90.0
 51
270.0
  0
ARC
  5
5E8
330
1F
100
AcDbEntity
  8
0
  6
Continuous
100
AcDbCircle
 10
115.8937612894
 20
66.6316366967
 30
0.0
 40
0.1395
100
AcDbArc
 50
270.0
 51
90.0
  0
LINE
  5
5E9
330
1F
100
AcDbEntity
  8
0
  6
Continuous
100
AcDbLine
 10
115.9241833944
 20
66.60121459169999
 30
0.0
 11
115.9082612893999
 21
66.57363669670001
 31
0.0
  0
LINE
  5
5EA
330
1F
100
AcDbEntity
  8
0
  6
Continuous
100
AcDbLine
 10
115.9517612894
 20
66.6171366967
 30
0.0
 11
115.9241833944
 21
66.60121459169999
 31
0.0
  0
LINE
  5
5EB
330
1F
100
AcDbEntity
  8
0
  6
Continuous
100
AcDbLine
 10
115.9807612894
 20
66.6171366967
 30
0.0
 11
115.9517612894
 21
66.6171366967
 31
0.0
  0
LINE
  5
5EC
330
1F
100
AcDbEntity
  8
0
  6
Continuous
100
AcDbLine
 10
115.9807612894
 20
66.6461366967
 30
0.0
 11
115.9807612894
 21
66.6171366967
 31
0.0
  0
LINE
  5
5ED
330
1F
100
AcDbEntity
  8
0
  6
Continuous
100
AcDbLine
 10
115.9517612894
 20
66.6461366967
 30
0.0
 11
115.9807612894
 21
66.6461366967
 31
0.0
  0
LINE
  5
5EE
330
1F
100
AcDbEntity
  8
0
  6
Continuous
100
AcDbLine
 10
115.9241833944
 20
66.6620588018
 30
0.0
 11
115.9517612894
 21
66.6461366967
 31
0.0
  0
LINE
  5
5EF
330
1F
100
AcDbEntity
  8
0
  6
Continuous
100
AcDbLine
 10
115.9082612893999
 20
66.6896366967
 30
0.0
 11
115.9241833944
 21
66.6620588018
 31
0.0
  0
LINE
  5
5F0
330
1F
100
AcDbEntity
  8
0
  6
Continuous
100
AcDbLine
 10
115.9082612893999
 20
66.7186366967
 30
0.0
 11
115.9082612893999
 21
66.6896366967
 31
0.0
  0
LINE
  5
5F1
330
1F
100
AcDbEntity
  8
0
  6
Continuous
100
AcDbLine
 10
115.8792612894
 20
66.7186366967
 30
0.0
 11
115.9082612893999
 21
66.7186366967
 31
0.0
  0
LINE
  5
5F2
330
1F
100
AcDbEntity
  8
0
  6
Continuous
100
AcDbLine
 10
115.8792612894
 20
66.6896366967
 30
0.0
 11
115.8792612894
 21
66.7186366967
 31
0.0
  0
LINE
  5
5F3
330
1F
100
AcDbEntity
  8
0
  6
Continuous
100
AcDbLine
 10
115.8633391843
 20
66.6620588018
 30
0.0
 11
115.8792612894
 21
66.6896366967
 31
0.0
  0
LINE
  5
5F4
330
1F
100
AcDbEntity
  8
0
  6
Continuous
100
AcDbLine
 10
115.8357612894
 20
66.6461366967
 30
0.0
 11
115.8633391843
 21
66.6620588018
 31
0.0
  0
LINE
  5
5F5
330
1F
100
AcDbEntity
  8
0
  6
Continuous
100
AcDbLine
 10
115.8067612893999
 20
66.6461366967
 30
0.0
 11
115.8357612894
 21
66.6461366967
 31
0.0
  0
LINE
  5
5F6
330
1F
100
AcDbEntity
  8
0
  6
Continuous
100
AcDbLine
 10
115.8067612893999
 20
66.6171366967
 30
0.0
 11
115.8067612893999
 21
66.6461366967
 31
0.0
  0
LINE
  5
5F7
330
1F
100
AcDbEntity
  8
0
  6
Continuous
100
AcDbLine
 10
115.8357612894
 20
66.6171366967
 30
0.0
 11
115.8067612893999
 21
66.6171366967
 31
0.0
  0
LINE
  5
5F8
330
1F
100
AcDbEntity
  8
0
  6
Continuous
100
AcDbLine
 10
115.8633391843
 20
66.60121459169999
 30
0.0
 11
115.8357612894
 21
66.6171366967
 31
0.0
  0
LINE
  5
5F9
330
1F
100
AcDbEntity
  8
0
  6
Continuous
100
AcDbLine
 10
115.8792612894
 20
66.57363669670001
 30
0.0
 11
115.8633391843
 21
66.60121459169999
 31
0.0
  0
LINE
  5
5FA
330
1F
100
AcDbEntity
  8
0
  6
Continuous
100
AcDbLine
 10
115.8792612894
 20
66.5446366967
 30
0.0
 11
115.8792612894
 21
66.57363669670001
 31
0.0
  0
LINE
  5
5FB
330
1F
100
AcDbEntity
  8
0
  6
Continuous
100
AcDbLine
 10
115.9082612893999
 20
66.5446366967
 30
0.0
 11
115.8792612894
 21
66.5446366967
 31
0.0
  0
LINE
  5
5FC
330
1F
100
AcDbEntity
  8
0
  6
Continuous
100
AcDbLine
 10
115.8792612894
 20
66.57363669670001
 30
0.0
 11
115.8807980906999
 21
66.579783902
 31
0.0
  0
LINE
  5
5FD
330
1F
100
AcDbEntity
  8
0
  6
Continuous
100
AcDbLine
 10
115.8807980906999
 20
66.579783902
 30
0.0
 11
115.8937612894
 21
66.6316366967
 31
0.0
  0
LINE
  5
5FE
330
1F
100
AcDbEntity
  8
0
  6
Continuous
100
AcDbLine
 10
115.8633391843
 20
66.60121459169999
 30
0.0
 11
115.8937612894
 21
66.6316366967
 31
0.0
  0
LINE
  5
5FF
330
1F
100
AcDbEntity
  8
0
  6
Continuous
100
AcDbLine
 10
115.8357612894
 20
66.6171366967
 30
0.0
 11
115.8419084946999
 21
66.61867349810001
 31
0.0
  0
LINE
  5
600
330
1F
100
AcDbEntity
  8
0
  6
Continuous
100
AcDbLine
 10
115.8419084946999
 20
66.61867349810001
 30
0.0
 11
115.8467771053
 21
66.6198906507
 31
0.0
  0
LINE
  5
601
330
1F
100
AcDbEntity
  8
0
  6
Continuous
100
AcDbLine
 10
115.8467771053
 20
66.6198906507
 30
0.0
 11
115.8937612894
 21
66.6316366967
 31
0.0
  0
LINE
  5
602
330
1F
100
AcDbEntity
  8
0
  6
Continuous
100
AcDbLine
 10
115.8067612893999
 20
66.6171366967
 30
0.0
 11
115.8321489345
 21
66.62136797089999
 31
0.0
  0
LINE
  5
603
330
1F
100
AcDbEntity
  8
0
  6
Continuous
100
AcDbLine
 10
115.8321489345
 20
66.62136797089999
 30
0.0
 11
115.8410765613999
 21
66.6228559088
 31
0.0
  0
LINE
  5
604
330
1F
100
AcDbEntity
  8
0
  6
Continuous
100
AcDbLine
 10
115.8410765613999
 20
66.6228559088
 30
0.0
 11
115.8510808950999
 21
66.62452329770001
 31
0.0
  0
LINE
  5
605
330
1F
100
AcDbEntity
  8
0
  6
Continuous
100
AcDbLine
 10
115.8510808950999
 20
66.62452329770001
 30
0.0
 11
115.8937612894
 21
66.6316366967
 31
0.0
  0
LINE
  5
606
330
1F
100
AcDbEntity
  8
0
  6
Continuous
100
AcDbLine
 10
115.8792612894
 20
66.5446366967
 30
0.0
 11
115.8849805013999
 21
66.5789519688
 31
0.0
  0
LINE
  5
607
330
1F
100
AcDbEntity
  8
0
  6
Continuous
100
AcDbLine
 10
115.8849805013999
 20
66.5789519688
 30
0.0
 11
115.8937612894
 21
66.6316366967
 31
0.0
  0
LINE
  5
608
330
1F
100
AcDbEntity
  8
0
  6
Continuous
100
AcDbLine
 10
115.8067612893999
 20
66.6461366967
 30
0.0
 11
115.8321489345
 21
66.6419054226
 31
0.0
  0
LINE
  5
609
330
1F
100
AcDbEntity
  8
0
  6
Continuous
100
AcDbLine
 10
115.8321489345
 20
66.6419054226
 30
0.0
 11
115.8410765613999
 21
66.64041748470001
 31
0.0
  0
LINE
  5
60A
330
1F
100
AcDbEntity
  8
0
  6
Continuous
100
AcDbLine
 10
115.8410765613999
 20
66.64041748470001
 30
0.0
 11
115.8510808950999
 21
66.6387500958
 31
0.0
  0
LINE
  5
60B
330
1F
100
AcDbEntity
  8
0
  6
Continuous
100
AcDbLine
 10
115.8510808950999
 20
66.6387500958
 30
0.0
 11
115.8937612894
 21
66.6316366967
 31
0.0
  0
LINE
  5
60C
330
1F
100
AcDbEntity
  8
0
  6
Continuous
100
AcDbLine
 10
115.9082612893999
 20
66.57363669670001
 30
0.0
 11
115.9082612893999
 21
66.5446366967
 31
0.0
  0
LINE
  5
60D
330
1F
100
AcDbEntity
  8
0
  6
Continuous
100
AcDbLine
 10
115.9082612893999
 20
66.5446366967
 30
0.0
 11
115.9025420772999
 21
66.5789519688
 31
0.0
  0
LINE
  5
60E
330
1F
100
AcDbEntity
  8
0
  6
Continuous
100
AcDbLine
 10
115.9025420772999
 20
66.5789519688
 30
0.0
 11
115.8937612894
 21
66.6316366967
 31
0.0
  0
LINE
  5
60F
330
1F
100
AcDbEntity
  8
0
  6
Continuous
100
AcDbLine
 10
115.9082612893999
 20
66.57363669670001
 30
0.0
 11
115.9067244879999
 21
66.579783902
 31
0.0
  0
LINE
  5
610
330
1F
100
AcDbEntity
  8
0
  6
Continuous
100
AcDbLine
 10
115.9067244879999
 20
66.579783902
 30
0.0
 11
115.8937612894
 21
66.6316366967
 31
0.0
  0
LINE
  5
611
330
1F
100
AcDbEntity
  8
0
  6
Continuous
100
AcDbLine
 10
115.9241833944
 20
66.60121459169999
 30
0.0
 11
115.8937612894
 21
66.6316366967
 31
0.0
  0
LINE
  5
612
330
1F
100
AcDbEntity
  8
0
  6
Continuous
100
AcDbLine
 10
115.9517612894
 20
66.6171366967
 30
0.0
 11
115.9456140841
 21
66.61867349810001
 31
0.0
  0
LINE
  5
613
330
1F
100
AcDbEntity
  8
0
  6
Continuous
100
AcDbLine
 10
115.9456140841
 20
66.61867349810001
 30
0.0
 11
115.9407454734
 21
66.6198906507
 31
0.0
  0
LINE
  5
614
330
1F
100
AcDbEntity
  8
0
  6
Continuous
100
AcDbLine
 10
115.9407454734
 20
66.6198906507
 30
0.0
 11
115.8937612894
 21
66.6316366967
 31
0.0
  0
LINE
  5
615
330
1F
100
AcDbEntity
  8
0
  6
Continuous
100
AcDbLine
 10
115.9807612894
 20
66.6171366967
 30
0.0
 11
115.9553736441999
 21
66.62136797089999
 31
0.0
  0
LINE
  5
616
330
1F
100
AcDbEntity
  8
0
  6
Continuous
100
AcDbLine
 10
115.9553736441999
 20
66.62136797089999
 30
0.0
 11
115.9464460172999
 21
66.6228559088
 31
0.0
  0
LINE
  5
617
330
1F
100
AcDbEntity
  8
0
  6
Continuous
100
AcDbLine
 10
115.9464460172999
 20
66.6228559088
 30
0.0
 11
115.9364416837
 21
66.62452329770001
 31
0.0
  0
LINE
  5
618
330
1F
100
AcDbEntity
  8
0
  6
Continuous
100
AcDbLine
 10
115.9364416837
 20
66.62452329770001
 30
0.0
 11
115.8937612894
 21
66.6316366967
 31
0.0
  0
LINE
  5
619
330
1F
100
AcDbEntity
  8
0
  6
Continuous
100
AcDbLine
 10
115.9807612894
 20
66.6461366967
 30
0.0
 11
115.9553736441999
 21
66.6419054226
 31
0.0
  0
LINE
  5
61A
330
1F
100
AcDbEntity
  8
0
  6
Continuous
100
AcDbLine
 10
115.9553736441999
 20
66.6419054226
 30
0.0
 11
115.9464460172999
 21
66.64041748470001
 31
0.0
  0
LINE
  5
61B
330
1F
100
AcDbEntity
  8
0
  6
Continuous
100
AcDbLine
 10
115.9464460172999
 20
66.64041748470001
 30
0.0
 11
115.9364416837
 21
66.6387500958
 31
0.0
  0
LINE
  5
61C
330
1F
100
AcDbEntity
  8
0
  6
Continuous
100
AcDbLine
 10
115.9364416837
 20
66.6387500958
 30
0.0
 11
115.8937612894
 21
66.6316366967
 31
0.0
  0
LINE
  5
61D
330
1F
100
AcDbEntity
  8
0
  6
Continuous
100
AcDbLine
 10
115.9517612894
 20
66.6461366967
 30
0.0
 11
115.9456140841
 21
66.6445998954
 31
0.0
  0
LINE
  5
61E
330
1F
100
AcDbEntity
  8
0
  6
Continuous
100
AcDbLine
 10
115.9456140841
 20
66.6445998954
 30
0.0
 11
115.9407454734
 21
66.6433827427
 31
0.0
  0
LINE
  5
61F
330
1F
100
AcDbEntity
  8
0
  6
Continuous
100
AcDbLine
 10
115.9407454734
 20
66.6433827427
 30
0.0
 11
115.8937612894
 21
66.6316366967
 31
0.0
  0
LINE
  5
620
330
1F
100
AcDbEntity
  8
0
  6
Continuous
100
AcDbLine
 10
115.9241833944
 20
66.6620588018
 30
0.0
 11
115.8937612894
 21
66.6316366967
 31
0.0
  0
LINE
  5
621
330
1F
100
AcDbEntity
  8
0
  6
Continuous
100
AcDbLine
 10
115.9082612893999
 20
66.6896366967
 30
0.0
 11
115.9067244879999
 21
66.68348949140001
 31
0.0
  0
LINE
  5
622
330
1F
100
AcDbEntity
  8
0
  6
Continuous
100
AcDbLine
 10
115.9067244879999
 20
66.68348949140001
 30
0.0
 11
115.8937612894
 21
66.6316366967
 31
0.0
  0
LINE
  5
623
330
1F
100
AcDbEntity
  8
0
  6
Continuous
100
AcDbLine
 10
115.9082612893999
 20
66.7186366967
 30
0.0
 11
115.9025420772999
 21
66.6843214247
 31
0.0
  0
LINE
  5
624
330
1F
100
AcDbEntity
  8
0
  6
Continuous
100
AcDbLine
 10
115.9025420772999
 20
66.6843214247
 30
0.0
 11
115.8937612894
 21
66.6316366967
 31
0.0
  0
LINE
  5
625
330
1F
100
AcDbEntity
  8
0
  6
Continuous
100
AcDbLine
 10
115.8792612894
 20
66.7186366967
 30
0.0
 11
115.8849805013999
 21
66.6843214247
 31
0.0
  0
LINE
  5
626
330
1F
100
AcDbEntity
  8
0
  6
Continuous
100
AcDbLine
 10
115.8849805013999
 20
66.6843214247
 30
0.0
 11
115.8937612894
 21
66.6316366967
 31
0.0
  0
LINE
  5
627
330
1F
100
AcDbEntity
  8
0
  6
Continuous
100
AcDbLine
 10
115.8792612894
 20
66.6896366967
 30
0.0
 11
115.8807980906999
 21
66.68348949140001
 31
0.0
  0
LINE
  5
628
330
1F
100
AcDbEntity
  8
0
  6
Continuous
100
AcDbLine
 10
115.8807980906999
 20
66.68348949140001
 30
0.0
 11
115.8937612894
 21
66.6316366967
 31
0.0
  0
LINE
  5
629
330
1F
100
AcDbEntity
  8
0
  6
Continuous
100
AcDbLine
 10
115.8633391843
 20
66.6620588018
 30
0.0
 11
115.8937612894
 21
66.6316366967
 31
0.0
  0
LINE
  5
62A
330
1F
100
AcDbEntity
  8
0
  6
Continuous
100
AcDbLine
 10
115.8357612894
 20
66.6461366967
 30
0.0
 11
115.8419084946999
 21
66.6445998954
 31
0.0
  0
LINE
  5
62B
330
1F
100
AcDbEntity
  8
0
  6
Continuous
100
AcDbLine
 10
115.8419084946999
 20
66.6445998954
 30
0.0
 11
115.8467771053
 21
66.6433827427
 31
0.0
  0
LINE
  5
62C
330
1F
100
AcDbEntity
  8
0
  6
Continuous
100
AcDbLine
 10
115.8467771053
 20
66.6433827427
 30
0.0
 11
115.8937612894
 21
66.6316366967
 31
0.0
  0
ARC
  5
62D
330
1F
100
AcDbEntity
  8
0
  6
Continuous
100
AcDbCircle
 10
113.8937612894
 20
66.6316366967
 30
0.0
 40
0.1395
100
AcDbArc
 50
90.0
 51
270.0
  0
ARC
  5
62E
330
1F
100
AcDbEntity
  8
0
  6
Continuous
100
AcDbCircle
 10
113.8937612894
 20
66.6316366967
 30
0.0
 40
0.1395
100
AcDbArc
 50
270.0
 51
90.0
  0
LINE
  5
62F
330
1F
100
AcDbEntity
  8
0
  6
Continuous
100
AcDbLine
 10
113.9241833944
 20
66.60121459169999
 30
0.0
 11
113.9082612894
 21
66.57363669670001
 31
0.0
  0
LINE
  5
630
330
1F
100
AcDbEntity
  8
0
  6
Continuous
100
AcDbLine
 10
113.9517612894
 20
66.6171366967
 30
0.0
 11
113.9241833944
 21
66.60121459169999
 31
0.0
  0
LINE
  5
631
330
1F
100
AcDbEntity
  8
0
  6
Continuous
100
AcDbLine
 10
113.9807612894
 20
66.6171366967
 30
0.0
 11
113.9517612894
 21
66.6171366967
 31
0.0
  0
LINE
  5
632
330
1F
100
AcDbEntity
  8
0
  6
Continuous
100
AcDbLine
 10
113.9807612894
 20
66.6461366967
 30
0.0
 11
113.9807612894
 21
66.6171366967
 31
0.0
  0
LINE
  5
633
330
1F
100
AcDbEntity
  8
0
  6
Continuous
100
AcDbLine
 10
113.9517612894
 20
66.6461366967
 30
0.0
 11
113.9807612894
 21
66.6461366967
 31
0.0
  0
LINE
  5
634
330
1F
100
AcDbEntity
  8
0
  6
Continuous
100
AcDbLine
 10
113.9241833944
 20
66.6620588018
 30
0.0
 11
113.9517612894
 21
66.6461366967
 31
0.0
  0
LINE
  5
635
330
1F
100
AcDbEntity
  8
0
  6
Continuous
100
AcDbLine
 10
113.9082612894
 20
66.6896366967
 30
0.0
 11
113.9241833944
 21
66.6620588018
 31
0.0
  0
LINE
  5
636
330
1F
100
AcDbEntity
  8
0
  6
Continuous
100
AcDbLine
 10
113.9082612894
 20
66.7186366967
 30
0.0
 11
113.9082612894
 21
66.6896366967
 31
0.0
  0
LINE
  5
637
330
1F
100
AcDbEntity
  8
0
  6
Continuous
100
AcDbLine
 10
113.8792612894
 20
66.7186366967
 30
0.0
 11
113.9082612894
 21
66.7186366967
 31
0.0
  0
LINE
  5
638
330
1F
100
AcDbEntity
  8
0
  6
Continuous
100
AcDbLine
 10
113.8792612894
 20
66.6896366967
 30
0.0
 11
113.8792612894
 21
66.7186366967
 31
0.0
  0
LINE
  5
639
330
1F
100
AcDbEntity
  8
0
  6
Continuous
100
AcDbLine
 10
113.8633391843
 20
66.6620588018
 30
0.0
 11
113.8792612894
 21
66.6896366967
 31
0.0
  0
LINE
  5
63A
330
1F
100
AcDbEntity
  8
0
  6
Continuous
100
AcDbLine
 10
113.8357612894
 20
66.6461366967
 30
0.0
 11
113.8633391843
 21
66.6620588018
 31
0.0
  0
LINE
  5
63B
330
1F
100
AcDbEntity
  8
0
  6
Continuous
100
AcDbLine
 10
113.8067612893999
 20
66.6461366967
 30
0.0
 11
113.8357612894
 21
66.6461366967
 31
0.0
  0
LINE
  5
63C
330
1F
100
AcDbEntity
  8
0
  6
Continuous
100
AcDbLine
 10
113.8067612893999
 20
66.6171366967
 30
0.0
 11
113.8067612893999
 21
66.6461366967
 31
0.0
  0
LINE
  5
63D
330
1F
100
AcDbEntity
  8
0
  6
Continuous
100
AcDbLine
 10
113.8357612894
 20
66.6171366967
 30
0.0
 11
113.8067612893999
 21
66.6171366967
 31
0.0
  0
LINE
  5
63E
330
1F
100
AcDbEntity
  8
0
  6
Continuous
100
AcDbLine
 10
113.8633391843
 20
66.60121459169999
 30
0.0
 11
113.8357612894
 21
66.6171366967
 31
0.0
  0
LINE
  5
63F
330
1F
100
AcDbEntity
  8
0
  6
Continuous
100
AcDbLine
 10
113.8792612894
 20
66.57363669670001
 30
0.0
 11
113.8633391843
 21
66.60121459169999
 31
0.0
  0
LINE
  5
640
330
1F
100
AcDbEntity
  8
0
  6
Continuous
100
AcDbLine
 10
113.8792612894
 20
66.5446366967
 30
0.0
 11
113.8792612894
 21
66.57363669670001
 31
0.0
  0
LINE
  5
641
330
1F
100
AcDbEntity
  8
0
  6
Continuous
100
AcDbLine
 10
113.9082612894
 20
66.5446366967
 30
0.0
 11
113.8792612894
 21
66.5446366967
 31
0.0
  0
LINE
  5
642
330
1F
100
AcDbEntity
  8
0
  6
Continuous
100
AcDbLine
 10
113.8792612894
 20
66.57363669670001
 30
0.0
 11
113.8807980906999
 21
66.579783902
 31
0.0
  0
LINE
  5
643
330
1F
100
AcDbEntity
  8
0
  6
Continuous
100
AcDbLine
 10
113.8807980906999
 20
66.579783902
 30
0.0
 11
113.8937612894
 21
66.6316366967
 31
0.0
  0
LINE
  5
644
330
1F
100
AcDbEntity
  8
0
  6
Continuous
100
AcDbLine
 10
113.8633391843
 20
66.60121459169999
 30
0.0
 11
113.8937612894
 21
66.6316366967
 31
0.0
  0
LINE
  5
645
330
1F
100
AcDbEntity
  8
0
  6
Continuous
100
AcDbLine
 10
113.8357612894
 20
66.6171366967
 30
0.0
 11
113.8419084946999
 21
66.61867349810001
 31
0.0
  0
LINE
  5
646
330
1F
100
AcDbEntity
  8
0
  6
Continuous
100
AcDbLine
 10
113.8419084946999
 20
66.61867349810001
 30
0.0
 11
113.8467771053
 21
66.6198906507
 31
0.0
  0
LINE
  5
647
330
1F
100
AcDbEntity
  8
0
  6
Continuous
100
AcDbLine
 10
113.8467771053
 20
66.6198906507
 30
0.0
 11
113.8937612894
 21
66.6316366967
 31
0.0
  0
LINE
  5
648
330
1F
100
AcDbEntity
  8
0
  6
Continuous
100
AcDbLine
 10
113.8067612893999
 20
66.6171366967
 30
0.0
 11
113.8321489345
 21
66.62136797089999
 31
0.0
  0
LINE
  5
649
330
1F
100
AcDbEntity
  8
0
  6
Continuous
100
AcDbLine
 10
113.8321489345
 20
66.62136797089999
 30
0.0
 11
113.8410765613999
 21
66.6228559088
 31
0.0
  0
LINE
  5
64A
330
1F
100
AcDbEntity
  8
0
  6
Continuous
100
AcDbLine
 10
113.8410765613999
 20
66.6228559088
 30
0.0
 11
113.8510808951
 21
66.62452329770001
 31
0.0
  0
LINE
  5
64B
330
1F
100
AcDbEntity
  8
0
  6
Continuous
100
AcDbLine
 10
113.8510808951
 20
66.62452329770001
 30
0.0
 11
113.8937612894
 21
66.6316366967
 31
0.0
  0
LINE
  5
64C
330
1F
100
AcDbEntity
  8
0
  6
Continuous
100
AcDbLine
 10
113.8792612894
 20
66.5446366967
 30
0.0
 11
113.8849805013999
 21
66.5789519688
 31
0.0
  0
LINE
  5
64D
330
1F
100
AcDbEntity
  8
0
  6
Continuous
100
AcDbLine
 10
113.8849805013999
 20
66.5789519688
 30
0.0
 11
113.8937612894
 21
66.6316366967
 31
0.0
  0
LINE
  5
64E
330
1F
100
AcDbEntity
  8
0
  6
Continuous
100
AcDbLine
 10
113.8067612893999
 20
66.6461366967
 30
0.0
 11
113.8321489345
 21
66.6419054226
 31
0.0
  0
LINE
  5
64F
330
1F
100
AcDbEntity
  8
0
  6
Continuous
100
AcDbLine
 10
113.8321489345
 20
66.6419054226
 30
0.0
 11
113.8410765613999
 21
66.64041748470001
 31
0.0
  0
LINE
  5
650
330
1F
100
AcDbEntity
  8
0
  6
Continuous
100
AcDbLine
 10
113.8410765613999
 20
66.64041748470001
 30
0.0
 11
113.8510808951
 21
66.6387500958
 31
0.0
  0
LINE
  5
651
330
1F
100
AcDbEntity
  8
0
  6
Continuous
100
AcDbLine
 10
113.8510808951
 20
66.6387500958
 30
0.0
 11
113.8937612894
 21
66.6316366967
 31
0.0
  0
LINE
  5
652
330
1F
100
AcDbEntity
  8
0
  6
Continuous
100
AcDbLine
 10
113.9082612894
 20
66.57363669670001
 30
0.0
 11
113.9082612894
 21
66.5446366967
 31
0.0
  0
LINE
  5
653
330
1F
100
AcDbEntity
  8
0
  6
Continuous
100
AcDbLine
 10
113.9082612894
 20
66.5446366967
 30
0.0
 11
113.9025420772999
 21
66.5789519688
 31
0.0
  0
LINE
  5
654
330
1F
100
AcDbEntity
  8
0
  6
Continuous
100
AcDbLine
 10
113.9025420772999
 20
66.5789519688
 30
0.0
 11
113.8937612894
 21
66.6316366967
 31
0.0
  0
LINE
  5
655
330
1F
100
AcDbEntity
  8
0
  6
Continuous
100
AcDbLine
 10
113.9082612894
 20
66.57363669670001
 30
0.0
 11
113.9067244879999
 21
66.579783902
 31
0.0
  0
LINE
  5
656
330
1F
100
AcDbEntity
  8
0
  6
Continuous
100
AcDbLine
 10
113.9067244879999
 20
66.579783902
 30
0.0
 11
113.8937612894
 21
66.6316366967
 31
0.0
  0
LINE
  5
657
330
1F
100
AcDbEntity
  8
0
  6
Continuous
100
AcDbLine
 10
113.9241833944
 20
66.60121459169999
 30
0.0
 11
113.8937612894
 21
66.6316366967
 31
0.0
  0
LINE
  5
658
330
1F
100
AcDbEntity
  8
0
  6
Continuous
100
AcDbLine
 10
113.9517612894
 20
66.6171366967
 30
0.0
 11
113.9456140840999
 21
66.61867349810001
 31
0.0
  0
LINE
  5
659
330
1F
100
AcDbEntity
  8
0
  6
Continuous
100
AcDbLine
 10
113.9456140840999
 20
66.61867349810001
 30
0.0
 11
113.9407454734
 21
66.6198906507
 31
0.0
  0
LINE
  5
65A
330
1F
100
AcDbEntity
  8
0
  6
Continuous
100
AcDbLine
 10
113.9407454734
 20
66.6198906507
 30
0.0
 11
113.8937612894
 21
66.6316366967
 31
0.0
  0
LINE
  5
65B
330
1F
100
AcDbEntity
  8
0
  6
Continuous
100
AcDbLine
 10
113.9807612894
 20
66.6171366967
 30
0.0
 11
113.9553736441999
 21
66.62136797089999
 31
0.0
  0
LINE
  5
65C
330
1F
100
AcDbEntity
  8
0
  6
Continuous
100
AcDbLine
 10
113.9553736441999
 20
66.62136797089999
 30
0.0
 11
113.9464460172999
 21
66.6228559088
 31
0.0
  0
LINE
  5
65D
330
1F
100
AcDbEntity
  8
0
  6
Continuous
100
AcDbLine
 10
113.9464460172999
 20
66.6228559088
 30
0.0
 11
113.9364416837
 21
66.62452329770001
 31
0.0
  0
LINE
  5
65E
330
1F
100
AcDbEntity
  8
0
  6
Continuous
100
AcDbLine
 10
113.9364416837
 20
66.62452329770001
 30
0.0
 11
113.8937612894
 21
66.6316366967
 31
0.0
  0
LINE
  5
65F
330
1F
100
AcDbEntity
  8
0
  6
Continuous
100
AcDbLine
 10
113.9807612894
 20
66.6461366967
 30
0.0
 11
113.9553736441999
 21
66.6419054226
 31
0.0
  0
LINE
  5
660
330
1F
100
AcDbEntity
  8
0
  6
Continuous
100
AcDbLine
 10
113.9553736441999
 20
66.6419054226
 30
0.0
 11
113.9464460172999
 21
66.64041748470001
 31
0.0
  0
LINE
  5
661
330
1F
100
AcDbEntity
  8
0
  6
Continuous
100
AcDbLine
 10
113.9464460172999
 20
66.64041748470001
 30
0.0
 11
113.9364416837
 21
66.6387500958
 31
0.0
  0
LINE
  5
662
330
1F
100
AcDbEntity
  8
0
  6
Continuous
100
AcDbLine
 10
113.9364416837
 20
66.6387500958
 30
0.0
 11
113.8937612894
 21
66.6316366967
 31
0.0
  0
LINE
  5
663
330
1F
100
AcDbEntity
  8
0
  6
Continuous
100
AcDbLine
 10
113.9517612894
 20
66.6461366967
 30
0.0
 11
113.9456140840999
 21
66.6445998954
 31
0.0
  0
LINE
  5
664
330
1F
100
AcDbEntity
  8
0
  6
Continuous
100
AcDbLine
 10
113.9456140840999
 20
66.6445998954
 30
0.0
 11
113.9407454734
 21
66.6433827427
 31
0.0
  0
LINE
  5
665
330
1F
100
AcDbEntity
  8
0
  6
Continuous
100
AcDbLine
 10
113.9407454734
 20
66.6433827427
 30
0.0
 11
113.8937612894
 21
66.6316366967
 31
0.0
  0
LINE
  5
666
330
1F
100
AcDbEntity
  8
0
  6
Continuous
100
AcDbLine
 10
113.9241833944
 20
66.6620588018
 30
0.0
 11
113.8937612894
 21
66.6316366967
 31
0.0
  0
LINE
  5
667
330
1F
100
AcDbEntity
  8
0
  6
Continuous
100
AcDbLine
 10
113.9082612894
 20
66.6896366967
 30
0.0
 11
113.9067244879999
 21
66.68348949140001
 31
0.0
  0
LINE
  5
668
330
1F
100
AcDbEntity
  8
0
  6
Continuous
100
AcDbLine
 10
113.9067244879999
 20
66.68348949140001
 30
0.0
 11
113.8937612894
 21
66.6316366967
 31
0.0
  0
LINE
  5
669
330
1F
100
AcDbEntity
  8
0
  6
Continuous
100
AcDbLine
 10
113.9082612894
 20
66.7186366967
 30
0.0
 11
113.9025420772999
 21
66.6843214247
 31
0.0
  0
LINE
  5
66A
330
1F
100
AcDbEntity
  8
0
  6
Continuous
100
AcDbLine
 10
113.9025420772999
 20
66.6843214247
 30
0.0
 11
113.8937612894
 21
66.6316366967
 31
0.0
  0
LINE
  5
66B
330
1F
100
AcDbEntity
  8
0
  6
Continuous
100
AcDbLine
 10
113.8792612894
 20
66.7186366967
 30
0.0
 11
113.8849805013999
 21
66.6843214247
 31
0.0
  0
LINE
  5
66C
330
1F
100
AcDbEntity
  8
0
  6
Continuous
100
AcDbLine
 10
113.8849805013999
 20
66.6843214247
 30
0.0
 11
113.8937612894
 21
66.6316366967
 31
0.0
  0
LINE
  5
66D
330
1F
100
AcDbEntity
  8
0
  6
Continuous
100
AcDbLine
 10
113.8792612894
 20
66.6896366967
 30
0.0
 11
113.8807980906999
 21
66.68348949140001
 31
0.0
  0
LINE
  5
66E
330
1F
100
AcDbEntity
  8
0
  6
Continuous
100
AcDbLine
 10
113.8807980906999
 20
66.68348949140001
 30
0.0
 11
113.8937612894
 21
66.6316366967
 31
0.0
  0
LINE
  5
66F
330
1F
100
AcDbEntity
  8
0
  6
Continuous
100
AcDbLine
 10
113.8633391843
 20
66.6620588018
 30
0.0
 11
113.8937612894
 21
66.6316366967
 31
0.0
  0
LINE
  5
670
330
1F
100
AcDbEntity
  8
0
  6
Continuous
100
AcDbLine
 10
113.8357612894
 20
66.6461366967
 30
0.0
 11
113.8419084946999
 21
66.6445998954
 31
0.0
  0
LINE
  5
671
330
1F
100
AcDbEntity
  8
0
  6
Continuous
100
AcDbLine
 10
113.8419084946999
 20
66.6445998954
 30
0.0
 11
113.8467771053
 21
66.6433827427
 31
0.0
  0
LINE
  5
672
330
1F
100
AcDbEntity
  8
0
  6
Continuous
100
AcDbLine
 10
113.8467771053
 20
66.6433827427
 30
0.0
 11
113.8937612894
 21
66.6316366967
 31
0.0
  0
ARC
  5
673
330
1F
100
AcDbEntity
  8
0
  6
Continuous
100
AcDbCircle
 10
112.5837612893999
 20
68.3641366967
 30
0.0
 40
0.1395
100
AcDbArc
 50
90.0
 51
270.0
  0
ARC
  5
674
330
1F
100
AcDbEntity
  8
0
  6
Continuous
100
AcDbCircle
 10
112.5837612893999
 20
68.3641366967
 30
0.0
 40
0.1395
100
AcDbArc
 50
270.0
 51
90.0
  0
LINE
  5
675
330
1F
100
AcDbEntity
  8
0
  6
Continuous
100
AcDbLine
 10
112.6141833944
 20
68.3337145917
 30
0.0
 11
112.5982612894
 21
68.30613669669999
 31
0.0
  0
LINE
  5
676
330
1F
100
AcDbEntity
  8
0
  6
Continuous
100
AcDbLine
 10
112.6417612894
 20
68.3496366967
 30
0.0
 11
112.6141833944
 21
68.3337145917
 31
0.0
  0
LINE
  5
677
330
1F
100
AcDbEntity
  8
0
  6
Continuous
100
AcDbLine
 10
112.6707612894
 20
68.3496366967
 30
0.0
 11
112.6417612894
 21
68.3496366967
 31
0.0
  0
LINE
  5
678
330
1F
100
AcDbEntity
  8
0
  6
Continuous
100
AcDbLine
 10
112.6707612894
 20
68.37863669669999
 30
0.0
 11
112.6707612894
 21
68.3496366967
 31
0.0
  0
LINE
  5
679
330
1F
100
AcDbEntity
  8
0
  6
Continuous
100
AcDbLine
 10
112.6417612894
 20
68.37863669669999
 30
0.0
 11
112.6707612894
 21
68.37863669669999
 31
0.0
  0
LINE
  5
67A
330
1F
100
AcDbEntity
  8
0
  6
Continuous
100
AcDbLine
 10
112.6141833944
 20
68.3945588018
 30
0.0
 11
112.6417612894
 21
68.37863669669999
 31
0.0
  0
LINE
  5
67B
330
1F
100
AcDbEntity
  8
0
  6
Continuous
100
AcDbLine
 10
112.5982612894
 20
68.42213669669999
 30
0.0
 11
112.6141833944
 21
68.3945588018
 31
0.0
  0
LINE
  5
67C
330
1F
100
AcDbEntity
  8
0
  6
Continuous
100
AcDbLine
 10
112.5982612894
 20
68.4511366967
 30
0.0
 11
112.5982612894
 21
68.42213669669999
 31
0.0
  0
LINE
  5
67D
330
1F
100
AcDbEntity
  8
0
  6
Continuous
100
AcDbLine
 10
112.5692612894
 20
68.4511366967
 30
0.0
 11
112.5982612894
 21
68.4511366967
 31
0.0
  0
LINE
  5
67E
330
1F
100
AcDbEntity
  8
0
  6
Continuous
100
AcDbLine
 10
112.5692612894
 20
68.42213669669999
 30
0.0
 11
112.5692612894
 21
68.4511366967
 31
0.0
  0
LINE
  5
67F
330
1F
100
AcDbEntity
  8
0
  6
Continuous
100
AcDbLine
 10
112.5533391842999
 20
68.3945588018
 30
0.0
 11
112.5692612894
 21
68.42213669669999
 31
0.0
  0
LINE
  5
680
330
1F
100
AcDbEntity
  8
0
  6
Continuous
100
AcDbLine
 10
112.5257612894
 20
68.37863669669999
 30
0.0
 11
112.5533391842999
 21
68.3945588018
 31
0.0
  0
LINE
  5
681
330
1F
100
AcDbEntity
  8
0
  6
Continuous
100
AcDbLine
 10
112.4967612894
 20
68.37863669669999
 30
0.0
 11
112.5257612894
 21
68.37863669669999
 31
0.0
  0
LINE
  5
682
330
1F
100
AcDbEntity
  8
0
  6
Continuous
100
AcDbLine
 10
112.4967612894
 20
68.3496366967
 30
0.0
 11
112.4967612894
 21
68.37863669669999
 31
0.0
  0
LINE
  5
683
330
1F
100
AcDbEntity
  8
0
  6
Continuous
100
AcDbLine
 10
112.5257612894
 20
68.3496366967
 30
0.0
 11
112.4967612894
 21
68.3496366967
 31
0.0
  0
LINE
  5
684
330
1F
100
AcDbEntity
  8
0
  6
Continuous
100
AcDbLine
 10
112.5533391842999
 20
68.3337145917
 30
0.0
 11
112.5257612894
 21
68.3496366967
 31
0.0
  0
LINE
  5
685
330
1F
100
AcDbEntity
  8
0
  6
Continuous
100
AcDbLine
 10
112.5692612894
 20
68.30613669669999
 30
0.0
 11
112.5533391842999
 21
68.3337145917
 31
0.0
  0
LINE
  5
686
330
1F
100
AcDbEntity
  8
0
  6
Continuous
100
AcDbLine
 10
112.5692612894
 20
68.2771366967
 30
0.0
 11
112.5692612894
 21
68.30613669669999
 31
0.0
  0
LINE
  5
687
330
1F
100
AcDbEntity
  8
0
  6
Continuous
100
AcDbLine
 10
112.5982612894
 20
68.2771366967
 30
0.0
 11
112.5692612894
 21
68.2771366967
 31
0.0
  0
LINE
  5
688
330
1F
100
AcDbEntity
  8
0
  6
Continuous
100
AcDbLine
 10
112.5692612894
 20
68.30613669669999
 30
0.0
 11
112.5707980907
 21
68.312283902
 31
0.0
  0
LINE
  5
689
330
1F
100
AcDbEntity
  8
0
  6
Continuous
100
AcDbLine
 10
112.5707980907
 20
68.312283902
 30
0.0
 11
112.5837612893999
 21
68.3641366967
 31
0.0
  0
LINE
  5
68A
330
1F
100
AcDbEntity
  8
0
  6
Continuous
100
AcDbLine
 10
112.5533391842999
 20
68.3337145917
 30
0.0
 11
112.5837612893999
 21
68.3641366967
 31
0.0
  0
LINE
  5
68B
330
1F
100
AcDbEntity
  8
0
  6
Continuous
100
AcDbLine
 10
112.5257612894
 20
68.3496366967
 30
0.0
 11
112.5319084946999
 21
68.35117349810001
 31
0.0
  0
LINE
  5
68C
330
1F
100
AcDbEntity
  8
0
  6
Continuous
100
AcDbLine
 10
112.5319084946999
 20
68.35117349810001
 30
0.0
 11
112.5367771053
 21
68.3523906507
 31
0.0
  0
LINE
  5
68D
330
1F
100
AcDbEntity
  8
0
  6
Continuous
100
AcDbLine
 10
112.5367771053
 20
68.3523906507
 30
0.0
 11
112.5837612893999
 21
68.3641366967
 31
0.0
  0
LINE
  5
68E
330
1F
100
AcDbEntity
  8
0
  6
Continuous
100
AcDbLine
 10
112.4967612894
 20
68.3496366967
 30
0.0
 11
112.5221489345
 21
68.35386797089999
 31
0.0
  0
LINE
  5
68F
330
1F
100
AcDbEntity
  8
0
  6
Continuous
100
AcDbLine
 10
112.5221489345
 20
68.35386797089999
 30
0.0
 11
112.5310765614
 21
68.35535590880001
 31
0.0
  0
LINE
  5
690
330
1F
100
AcDbEntity
  8
0
  6
Continuous
100
AcDbLine
 10
112.5310765614
 20
68.35535590880001
 30
0.0
 11
112.5410808951
 21
68.35702329770001
 31
0.0
  0
LINE
  5
691
330
1F
100
AcDbEntity
  8
0
  6
Continuous
100
AcDbLine
 10
112.5410808951
 20
68.35702329770001
 30
0.0
 11
112.5837612893999
 21
68.3641366967
 31
0.0
  0
LINE
  5
692
330
1F
100
AcDbEntity
  8
0
  6
Continuous
100
AcDbLine
 10
112.5692612894
 20
68.2771366967
 30
0.0
 11
112.5749805014
 21
68.3114519688
 31
0.0
  0
LINE
  5
693
330
1F
100
AcDbEntity
  8
0
  6
Continuous
100
AcDbLine
 10
112.5749805014
 20
68.3114519688
 30
0.0
 11
112.5837612893999
 21
68.3641366967
 31
0.0
  0
LINE
  5
694
330
1F
100
AcDbEntity
  8
0
  6
Continuous
100
AcDbLine
 10
112.4967612894
 20
68.37863669669999
 30
0.0
 11
112.5221489345
 21
68.37440542260001
 31
0.0
  0
LINE
  5
695
330
1F
100
AcDbEntity
  8
0
  6
Continuous
100
AcDbLine
 10
112.5221489345
 20
68.37440542260001
 30
0.0
 11
112.5310765614
 21
68.3729174847
 31
0.0
  0
LINE
  5
696
330
1F
100
AcDbEntity
  8
0
  6
Continuous
100
AcDbLine
 10
112.5310765614
 20
68.3729174847
 30
0.0
 11
112.5410808951
 21
68.37125009579999
 31
0.0
  0
LINE
  5
697
330
1F
100
AcDbEntity
  8
0
  6
Continuous
100
AcDbLine
 10
112.5410808951
 20
68.37125009579999
 30
0.0
 11
112.5837612893999
 21
68.3641366967
 31
0.0
  0
LINE
  5
698
330
1F
100
AcDbEntity
  8
0
  6
Continuous
100
AcDbLine
 10
112.5982612894
 20
68.30613669669999
 30
0.0
 11
112.5982612894
 21
68.2771366967
 31
0.0
  0
LINE
  5
699
330
1F
100
AcDbEntity
  8
0
  6
Continuous
100
AcDbLine
 10
112.5982612894
 20
68.2771366967
 30
0.0
 11
112.5925420773
 21
68.3114519688
 31
0.0
  0
LINE
  5
69A
330
1F
100
AcDbEntity
  8
0
  6
Continuous
100
AcDbLine
 10
112.5925420773
 20
68.3114519688
 30
0.0
 11
112.5837612893999
 21
68.3641366967
 31
0.0
  0
LINE
  5
69B
330
1F
100
AcDbEntity
  8
0
  6
Continuous
100
AcDbLine
 10
112.5982612894
 20
68.30613669669999
 30
0.0
 11
112.5967244879999
 21
68.312283902
 31
0.0
  0
LINE
  5
69C
330
1F
100
AcDbEntity
  8
0
  6
Continuous
100
AcDbLine
 10
112.5967244879999
 20
68.312283902
 30
0.0
 11
112.5837612893999
 21
68.3641366967
 31
0.0
  0
LINE
  5
69D
330
1F
100
AcDbEntity
  8
0
  6
Continuous
100
AcDbLine
 10
112.6141833944
 20
68.3337145917
 30
0.0
 11
112.5837612893999
 21
68.3641366967
 31
0.0
  0
LINE
  5
69E
330
1F
100
AcDbEntity
  8
0
  6
Continuous
100
AcDbLine
 10
112.6417612894
 20
68.3496366967
 30
0.0
 11
112.6356140841
 21
68.35117349810001
 31
0.0
  0
LINE
  5
69F
330
1F
100
AcDbEntity
  8
0
  6
Continuous
100
AcDbLine
 10
112.6356140841
 20
68.35117349810001
 30
0.0
 11
112.6307454733999
 21
68.3523906507
 31
0.0
  0
LINE
  5
6A0
330
1F
100
AcDbEntity
  8
0
  6
Continuous
100
AcDbLine
 10
112.6307454733999
 20
68.3523906507
 30
0.0
 11
112.5837612893999
 21
68.3641366967
 31
0.0
  0
LINE
  5
6A1
330
1F
100
AcDbEntity
  8
0
  6
Continuous
100
AcDbLine
 10
112.6707612894
 20
68.3496366967
 30
0.0
 11
112.6453736442
 21
68.35386797089999
 31
0.0
  0
LINE
  5
6A2
330
1F
100
AcDbEntity
  8
0
  6
Continuous
100
AcDbLine
 10
112.6453736442
 20
68.35386797089999
 30
0.0
 11
112.6364460172999
 21
68.35535590880001
 31
0.0
  0
LINE
  5
6A3
330
1F
100
AcDbEntity
  8
0
  6
Continuous
100
AcDbLine
 10
112.6364460172999
 20
68.35535590880001
 30
0.0
 11
112.6264416837
 21
68.35702329770001
 31
0.0
  0
LINE
  5
6A4
330
1F
100
AcDbEntity
  8
0
  6
Continuous
100
AcDbLine
 10
112.6264416837
 20
68.35702329770001
 30
0.0
 11
112.5837612893999
 21
68.3641366967
 31
0.0
  0
LINE
  5
6A5
330
1F
100
AcDbEntity
  8
0
  6
Continuous
100
AcDbLine
 10
112.6707612894
 20
68.37863669669999
 30
0.0
 11
112.6453736442
 21
68.37440542260001
 31
0.0
  0
LINE
  5
6A6
330
1F
100
AcDbEntity
  8
0
  6
Continuous
100
AcDbLine
 10
112.6453736442
 20
68.37440542260001
 30
0.0
 11
112.6364460172999
 21
68.3729174847
 31
0.0
  0
LINE
  5
6A7
330
1F
100
AcDbEntity
  8
0
  6
Continuous
100
AcDbLine
 10
112.6364460172999
 20
68.3729174847
 30
0.0
 11
112.6264416837
 21
68.37125009579999
 31
0.0
  0
LINE
  5
6A8
330
1F
100
AcDbEntity
  8
0
  6
Continuous
100
AcDbLine
 10
112.6264416837
 20
68.37125009579999
 30
0.0
 11
112.5837612893999
 21
68.3641366967
 31
0.0
  0
LINE
  5
6A9
330
1F
100
AcDbEntity
  8
0
  6
Continuous
100
AcDbLine
 10
112.6417612894
 20
68.37863669669999
 30
0.0
 11
112.6356140841
 21
68.37709989539999
 31
0.0
  0
LINE
  5
6AA
330
1F
100
AcDbEntity
  8
0
  6
Continuous
100
AcDbLine
 10
112.6356140841
 20
68.37709989539999
 30
0.0
 11
112.6307454733999
 21
68.3758827427
 31
0.0
  0
LINE
  5
6AB
330
1F
100
AcDbEntity
  8
0
  6
Continuous
100
AcDbLine
 10
112.6307454733999
 20
68.3758827427
 30
0.0
 11
112.5837612893999
 21
68.3641366967
 31
0.0
  0
LINE
  5
6AC
330
1F
100
AcDbEntity
  8
0
  6
Continuous
100
AcDbLine
 10
112.6141833944
 20
68.3945588018
 30
0.0
 11
112.5837612893999
 21
68.3641366967
 31
0.0
  0
LINE
  5
6AD
330
1F
100
AcDbEntity
  8
0
  6
Continuous
100
AcDbLine
 10
112.5982612894
 20
68.42213669669999
 30
0.0
 11
112.5967244879999
 21
68.41598949139999
 31
0.0
  0
LINE
  5
6AE
330
1F
100
AcDbEntity
  8
0
  6
Continuous
100
AcDbLine
 10
112.5967244879999
 20
68.41598949139999
 30
0.0
 11
112.5837612893999
 21
68.3641366967
 31
0.0
  0
LINE
  5
6AF
330
1F
100
AcDbEntity
  8
0
  6
Continuous
100
AcDbLine
 10
112.5982612894
 20
68.4511366967
 30
0.0
 11
112.5925420773
 21
68.4168214247
 31
0.0
  0
LINE
  5
6B0
330
1F
100
AcDbEntity
  8
0
  6
Continuous
100
AcDbLine
 10
112.5925420773
 20
68.4168214247
 30
0.0
 11
112.5837612893999
 21
68.3641366967
 31
0.0
  0
LINE
  5
6B1
330
1F
100
AcDbEntity
  8
0
  6
Continuous
100
AcDbLine
 10
112.5692612894
 20
68.4511366967
 30
0.0
 11
112.5749805014
 21
68.4168214247
 31
0.0
  0
LINE
  5
6B2
330
1F
100
AcDbEntity
  8
0
  6
Continuous
100
AcDbLine
 10
112.5749805014
 20
68.4168214247
 30
0.0
 11
112.5837612893999
 21
68.3641366967
 31
0.0
  0
LINE
  5
6B3
330
1F
100
AcDbEntity
  8
0
  6
Continuous
100
AcDbLine
 10
112.5692612894
 20
68.42213669669999
 30
0.0
 11
112.5707980907
 21
68.41598949139999
 31
0.0
  0
LINE
  5
6B4
330
1F
100
AcDbEntity
  8
0
  6
Continuous
100
AcDbLine
 10
112.5707980907
 20
68.41598949139999
 30
0.0
 11
112.5837612893999
 21
68.3641366967
 31
0.0
  0
LINE
  5
6B5
330
1F
100
AcDbEntity
  8
0
  6
Continuous
100
AcDbLine
 10
112.5533391842999
 20
68.3945588018
 30
0.0
 11
112.5837612893999
 21
68.3641366967
 31
0.0
  0
LINE
  5
6B6
330
1F
100
AcDbEntity
  8
0
  6
Continuous
100
AcDbLine
 10
112.5257612894
 20
68.37863669669999
 30
0.0
 11
112.5319084946999
 21
68.37709989539999
 31
0.0
  0
LINE
  5
6B7
330
1F
100
AcDbEntity
  8
0
  6
Continuous
100
AcDbLine
 10
112.5319084946999
 20
68.37709989539999
 30
0.0
 11
112.5367771053
 21
68.3758827427
 31
0.0
  0
LINE
  5
6B8
330
1F
100
AcDbEntity
  8
0
  6
Continuous
100
AcDbLine
 10
112.5367771053
 20
68.3758827427
 30
0.0
 11
112.5837612893999
 21
68.3641366967
 31
0.0
  0
LINE
  5
6B9
330
1F
100
AcDbEntity
  8
0
  6
Continuous
100
AcDbLine
 10
118.6476879511
 20
83.56291743399999
 30
0.0
 11
118.6142619164
 21
83.56291743399999
 31
0.0
  0
LINE
  5
6BA
330
1F
100
AcDbEntity
  8
0
  6
Continuous
100
AcDbLine
 10
118.6137612893999
 20
83.54029965949999
 30
0.0
 11
118.6137612893999
 21
83.56262875890001
 31
0.0
  0
LINE
  5
6BB
330
1F
100
AcDbEntity
  8
0
  6
Continuous
100
AcDbLine
 10
118.6137612893999
 20
83.54029965949999
 30
0.0
 11
118.6137612893999
 21
83.332917434
 31
0.0
  0
LINE
  5
6BC
330
1F
100
AcDbEntity
  8
0
  6
Continuous
100
AcDbLine
 10
119.1137612894
 20
83.56262875890001
 30
0.0
 11
119.1137612894
 21
83.56164946040001
 31
0.0
  0
LINE
  5
6BD
330
1F
100
AcDbEntity
  8
0
  6
Continuous
100
AcDbLine
 10
119.1137612894
 20
83.56164946040001
 30
0.0
 11
119.1137612894
 21
83.54029965949999
 31
0.0
  0
LINE
  5
6BE
330
1F
100
AcDbEntity
  8
0
  6
Continuous
100
AcDbLine
 10
119.1132606622999
 20
83.56291743399999
 30
0.0
 11
119.1126785818999
 21
83.56291743399999
 31
0.0
  0
LINE
  5
6BF
330
1F
100
AcDbEntity
  8
0
  6
Continuous
100
AcDbLine
 10
119.1126785818999
 20
83.56291743399999
 30
0.0
 11
118.6476879511
 21
83.56291743399999
 31
0.0
  0
LINE
  5
6C0
330
1F
100
AcDbEntity
  8
0
  6
Continuous
100
AcDbLine
 10
119.1132612894
 20
83.56291743399999
 30
0.0
 11
119.1137612894
 21
83.56262875890001
 31
0.0
  0
LINE
  5
6C1
330
1F
100
AcDbEntity
  8
0
  6
Continuous
100
AcDbLine
 10
118.6142612894
 20
83.56291743399999
 30
0.0
 11
118.6137612893999
 21
83.56262875890001
 31
0.0
  0
LINE
  5
6C2
330
1F
100
AcDbEntity
  8
0
  6
Continuous
100
AcDbLine
 10
119.1137612894
 20
83.54029965949999
 30
0.0
 11
119.1137612894
 21
83.332917434
 31
0.0
  0
SPLINE
  5
6C3
330
1F
100
AcDbEntity
  8
0
  6
Continuous
100
AcDbSpline
210
0.0
220
0.0
230
1.0
 70
     8
 71
     3
 72
    17
 73
    13
 74
    11
 42
0.0000000001
 43
0.0000000001
 44
0.0000000001
 12
-0.9486832980897231
 22
0.3162277658992095
 32
0.0
 13
-0.9486832980897231
 23
-0.3162277658992095
 33
0.0
 40
0.0
 40
0.0
 40
0.0
 40
0.0
 40
0.0260207191966713
 40
0.05155650176495
 40
0.0769281756445352
 40
0.1022379181223591
 40
0.1275201225566895
 40
0.1528023270909325
 40
0.1781120695687705
 40
0.2034837434483557
 40
0.2290195260166344
 40
0.2550402451177132
 40
0.2550402451177132
 40
0.2550402451177132
 40
0.2550402451177132
 10
118.8637612894
 20
83.54029965949999
 30
0.0
 10
118.8555328154979
 20
83.54304248413289
 30
0.0
 10
118.8391052261367
 20
83.54811659060036
 30
0.0
 10
118.8142253052282
 20
83.55437992627212
 30
0.0
 10
118.789235019308
 20
83.55905710300461
 30
0.0
 10
118.764058854486
 20
83.56196839311385
 30
0.0
 10
118.7387612893667
 20
83.56295876206845
 30
0.0
 10
118.713463724247
 20
83.56196839311744
 30
0.0
 10
118.6882875593916
 20
83.55905710300552
 30
0.0
 10
118.6632972734728
 20
83.55437992626866
 30
0.0
 10
118.6384173525902
 20
83.54811659062129
 30
0.0
 10
118.6219897632718
 20
83.54304248412281
 30
0.0
 10
118.6137612893999
 20
83.54029965949999
 30
0.0
 11
118.8637612894
 21
83.54029965949999
 31
0.0
 11
118.838887872
 21
83.54794105560001
 31
0.0
 11
118.8141150375999
 21
83.5541364464
 31
0.0
 11
118.7891697316999
 21
83.55876824399999
 31
0.0
 11
118.7640245203
 21
83.56164946040001
 31
0.0
 11
118.7387612893999
 21
83.56262875890001
 31
0.0
 11
118.7134980584
 21
83.56164946040001
 31
0.0
 11
118.688352847
 21
83.55876824399999
 31
0.0
 11
118.6634075411
 21
83.5541364464
 31
0.0
 11
118.6386347066999
 21
83.54794105560001
 31
0.0
 11
118.6137612893999
 21
83.54029965949999
 31
0.0
  0
LINE
  5
6C4
330
1F
100
AcDbEntity
  8
0
  6
Continuous
100
AcDbLine
 10
118.8637612894
 20
83.54029965949999
 30
0.0
 11
118.8637612894
 21
83.332917434
 31
0.0
  0
SPLINE
  5
6C5
330
1F
100
AcDbEntity
  8
0
  6
Continuous
100
AcDbSpline
210
0.0
220
0.0
230
1.0
 70
     8
 71
     3
 72
    17
 73
    13
 74
    11
 42
0.0000000001
 43
0.0000000001
 44
0.0000000001
 12
-0.9486832980897231
 22
0.3162277658992095
 32
0.0
 13
-0.9486832980897231
 23
-0.3162277658992095
 33
0.0
 40
0.0
 40
0.0
 40
0.0
 40
0.0
 40
0.0260207191966713
 40
0.05155650176495
 40
0.0769281756445352
 40
0.1022379181223591
 40
0.1275201225566895
 40
0.1528023270909325
 40
0.1781120695687705
 40
0.2034837434483557
 40
0.2290195260166344
 40
0.2550402451177132
 40
0.2550402451177132
 40
0.2550402451177132
 40
0.2550402451177132
 10
119.1137612894
 20
83.54029965949999
 30
0.0
 10
119.1055328154979
 20
83.54304248413289
 30
0.0
 10
119.0891052261366
 20
83.54811659060036
 30
0.0
 10
119.0642253052282
 20
83.55437992627212
 30
0.0
 10
119.039235019308
 20
83.55905710300461
 30
0.0
 10
119.0140588544861
 20
83.56196839311385
 30
0.0
 10
118.9887612893667
 20
83.56295876206845
 30
0.0
 10
118.9634637242471
 20
83.56196839311744
 30
0.0
 10
118.9382875593916
 20
83.55905710300552
 30
0.0
 10
118.9132972734728
 20
83.55437992626866
 30
0.0
 10
118.8884173525902
 20
83.54811659062129
 30
0.0
 10
118.8719897632718
 20
83.54304248412281
 30
0.0
 10
118.8637612894
 20
83.54029965949999
 30
0.0
 11
119.1137612894
 21
83.54029965949999
 31
0.0
 11
119.088887872
 21
83.54794105560001
 31
0.0
 11
119.0641150376
 21
83.5541364464
 31
0.0
 11
119.0391697317
 21
83.55876824399999
 31
0.0
 11
119.0140245203
 21
83.56164946040001
 31
0.0
 11
118.9887612894
 21
83.56262875890001
 31
0.0
 11
118.9634980584
 21
83.56164946040001
 31
0.0
 11
118.938352847
 21
83.55876824399999
 31
0.0
 11
118.9134075411
 21
83.5541364464
 31
0.0
 11
118.8886347067
 21
83.54794105560001
 31
0.0
 11
118.8637612894
 21
83.54029965949999
 31
0.0
  0
LINE
  5
6C6
330
1F
100
AcDbEntity
  8
0
  6
Continuous
100
AcDbLine
 10
103.0576879511
 20
83.56291743399999
 30
0.0
 11
103.0242619163999
 21
83.56291743399999
 31
0.0
  0
LINE
  5
6C7
330
1F
100
AcDbEntity
  8
0
  6
Continuous
100
AcDbLine
 10
103.0237612894
 20
83.54029965949999
 30
0.0
 11
103.0237612894
 21
83.56262875890001
 31
0.0
  0
LINE
  5
6C8
330
1F
100
AcDbEntity
  8
0
  6
Continuous
100
AcDbLine
 10
103.0237612894
 20
83.54029965949999
 30
0.0
 11
103.0237612894
 21
83.332917434
 31
0.0
  0
LINE
  5
6C9
330
1F
100
AcDbEntity
  8
0
  6
Continuous
100
AcDbLine
 10
103.5237612893999
 20
83.56262875890001
 30
0.0
 11
103.5237612893999
 21
83.56164946040001
 31
0.0
  0
LINE
  5
6CA
330
1F
100
AcDbEntity
  8
0
  6
Continuous
100
AcDbLine
 10
103.5237612893999
 20
83.56164946040001
 30
0.0
 11
103.5237612893999
 21
83.54029965949999
 31
0.0
  0
LINE
  5
6CB
330
1F
100
AcDbEntity
  8
0
  6
Continuous
100
AcDbLine
 10
103.5232606622999
 20
83.56291743399999
 30
0.0
 11
103.5226785819
 21
83.56291743399999
 31
0.0
  0
LINE
  5
6CC
330
1F
100
AcDbEntity
  8
0
  6
Continuous
100
AcDbLine
 10
103.5226785819
 20
83.56291743399999
 30
0.0
 11
103.0576879511
 21
83.56291743399999
 31
0.0
  0
LINE
  5
6CD
330
1F
100
AcDbEntity
  8
0
  6
Continuous
100
AcDbLine
 10
103.5232612894
 20
83.56291743399999
 30
0.0
 11
103.5237612893999
 21
83.56262875890001
 31
0.0
  0
LINE
  5
6CE
330
1F
100
AcDbEntity
  8
0
  6
Continuous
100
AcDbLine
 10
103.0242612894
 20
83.56291743399999
 30
0.0
 11
103.0237612894
 21
83.56262875890001
 31
0.0
  0
LINE
  5
6CF
330
1F
100
AcDbEntity
  8
0
  6
Continuous
100
AcDbLine
 10
103.5237612893999
 20
83.54029965949999
 30
0.0
 11
103.5237612893999
 21
83.332917434
 31
0.0
  0
SPLINE
  5
6D0
330
1F
100
AcDbEntity
  8
0
  6
Continuous
100
AcDbSpline
210
0.0
220
0.0
230
1.0
 70
     8
 71
     3
 72
    17
 73
    13
 74
    11
 42
0.0000000001
 43
0.0000000001
 44
0.0000000001
 12
-0.9486832980897231
 22
0.3162277658992095
 32
0.0
 13
-0.9486832980897231
 23
-0.3162277658992095
 33
0.0
 40
0.0
 40
0.0
 40
0.0
 40
0.0
 40
0.0260207191966577
 40
0.0515565017649502
 40
0.0769281756445354
 40
0.1022379181223593
 40
0.1275201225566897
 40
0.1528023270909327
 40
0.1781120695687707
 40
0.2034837434483419
 40
0.2290195260166345
 40
0.2550402451177132
 40
0.2550402451177132
 40
0.2550402451177132
 40
0.2550402451177132
 10
103.2737612894
 20
83.54029965949999
 30
0.0
 10
103.2655328154979
 20
83.54304248413289
 30
0.0
 10
103.2491052261366
 20
83.54811659060036
 30
0.0
 10
103.2242253052282
 20
83.55437992627214
 30
0.0
 10
103.199235019308
 20
83.5590571030046
 30
0.0
 10
103.174058854486
 20
83.56196839311383
 30
0.0
 10
103.1487612893667
 20
83.56295876206843
 30
0.0
 10
103.123463724247
 20
83.56196839311744
 30
0.0
 10
103.0982875593916
 20
83.55905710300554
 30
0.0
 10
103.0732972734728
 20
83.55437992626864
 30
0.0
 10
103.0484173525902
 20
83.5481165906213
 30
0.0
 10
103.0319897632718
 20
83.54304248412281
 30
0.0
 10
103.0237612894
 20
83.54029965949999
 30
0.0
 11
103.2737612894
 21
83.54029965949999
 31
0.0
 11
103.248887872
 21
83.54794105560001
 31
0.0
 11
103.2241150376
 21
83.5541364464
 31
0.0
 11
103.1991697317
 21
83.55876824399999
 31
0.0
 11
103.1740245203
 21
83.56164946040001
 31
0.0
 11
103.1487612894
 21
83.56262875890001
 31
0.0
 11
103.1234980583999
 21
83.56164946040001
 31
0.0
 11
103.0983528469999
 21
83.55876824399999
 31
0.0
 11
103.0734075411
 21
83.5541364464
 31
0.0
 11
103.0486347067
 21
83.54794105560001
 31
0.0
 11
103.0237612894
 21
83.54029965949999
 31
0.0
  0
LINE
  5
6D1
330
1F
100
AcDbEntity
  8
0
  6
Continuous
100
AcDbLine
 10
103.2737612894
 20
83.54029965949999
 30
0.0
 11
103.2737612894
 21
83.332917434
 31
0.0
  0
SPLINE
  5
6D2
330
1F
100
AcDbEntity
  8
0
  6
Continuous
100
AcDbSpline
210
0.0
220
0.0
230
1.0
 70
     8
 71
     3
 72
    17
 73
    13
 74
    11
 42
0.0000000001
 43
0.0000000001
 44
0.0000000001
 12
-0.9486832980897231
 22
0.3162277658992095
 32
0.0
 13
-0.9486832980897231
 23
-0.3162277658992095
 33
0.0
 40
0.0
 40
0.0
 40
0.0
 40
0.0
 40
0.0260207191966577
 40
0.0515565017649502
 40
0.0769281756445354
 40
0.1022379181223593
 40
0.1275201225566897
 40
0.1528023270909327
 40
0.1781120695687707
 40
0.2034837434483419
 40
0.2290195260166345
 40
0.2550402451177132
 40
0.2550402451177132
 40
0.2550402451177132
 40
0.2550402451177132
 10
103.5237612893999
 20
83.54029965949999
 30
0.0
 10
103.5155328154979
 20
83.54304248413289
 30
0.0
 10
103.4991052261367
 20
83.54811659060036
 30
0.0
 10
103.4742253052282
 20
83.55437992627214
 30
0.0
 10
103.449235019308
 20
83.5590571030046
 30
0.0
 10
103.424058854486
 20
83.56196839311383
 30
0.0
 10
103.3987612893667
 20
83.56295876206843
 30
0.0
 10
103.373463724247
 20
83.56196839311744
 30
0.0
 10
103.3482875593916
 20
83.55905710300554
 30
0.0
 10
103.3232972734728
 20
83.55437992626864
 30
0.0
 10
103.2984173525901
 20
83.5481165906213
 30
0.0
 10
103.2819897632718
 20
83.54304248412281
 30
0.0
 10
103.2737612894
 20
83.54029965949999
 30
0.0
 11
103.5237612893999
 21
83.54029965949999
 31
0.0
 11
103.498887872
 21
83.54794105560001
 31
0.0
 11
103.4741150376
 21
83.5541364464
 31
0.0
 11
103.4491697316999
 21
83.55876824399999
 31
0.0
 11
103.4240245203
 21
83.56164946040001
 31
0.0
 11
103.3987612893999
 21
83.56262875890001
 31
0.0
 11
103.3734980584
 21
83.56164946040001
 31
0.0
 11
103.348352847
 21
83.55876824399999
 31
0.0
 11
103.3234075411
 21
83.5541364464
 31
0.0
 11
103.2986347066999
 21
83.54794105560001
 31
0.0
 11
103.2737612894
 21
83.54029965949999
 31
0.0
  0
ARC
  5
6D3
330
1F
100
AcDbEntity
  8
0
  6
Continuous
100
AcDbCircle
 10
118.3387612894
 20
30.493917434
 30
0.0
 40
0.125
100
AcDbArc
 50
180.0
 51
270.0
  0
ARC
  5
6D4
330
1F
100
AcDbEntity
  8
0
  6
Continuous
100
AcDbCircle
 10
119.5887612894
 20
30.493917434
 30
0.0
 40
0.125
100
AcDbArc
 50
270.0
 51
360.0
  0
LINE
  5
6D5
330
1F
100
AcDbEntity
  8
0
  6
Continuous
100
AcDbLine
 10
118.3387612894
 20
30.368917434
 30
0.0
 11
118.5887612894
 21
30.368917434
 31
0.0
  0
LINE
  5
6D6
330
1F
100
AcDbEntity
  8
0
  6
Continuous
100
AcDbLine
 10
118.5887612894
 20
30.368917434
 30
0.0
 11
119.3387612894
 21
30.368917434
 31
0.0
  0
LINE
  5
6D7
330
1F
100
AcDbEntity
  8
0
  6
Continuous
100
AcDbLine
 10
119.3387612894
 20
30.368917434
 30
0.0
 11
119.5887612894
 21
30.368917434
 31
0.0
  0
LINE
  5
6D8
330
1F
100
AcDbEntity
  8
0
  6
Continuous
100
AcDbLine
 10
119.7137612894
 20
30.493917434
 30
0.0
 11
119.7137612894
 21
31.118917434
 31
0.0
  0
LINE
  5
6D9
330
1F
100
AcDbEntity
  8
0
  6
Continuous
100
AcDbLine
 10
118.2137612894
 20
30.493917434
 30
0.0
 11
118.2137612894
 21
31.118917434
 31
0.0
  0
ARC
  5
6DA
330
1F
100
AcDbEntity
  8
0
  6
Continuous
100
AcDbCircle
 10
118.3387612894
 20
30.493917434
 30
0.0
 40
0.125
100
AcDbArc
 50
180.0
 51
270.0
  0
ARC
  5
6DB
330
1F
100
AcDbEntity
  8
0
  6
Continuous
100
AcDbCircle
 10
119.5887612894
 20
30.493917434
 30
0.0
 40
0.125
100
AcDbArc
 50
270.0
 51
360.0
  0
LINE
  5
6DC
330
1F
100
AcDbEntity
  8
0
  6
Continuous
100
AcDbLine
 10
119.7137612894
 20
30.493917434
 30
0.0
 11
119.7137612894
 21
31.118917434
 31
0.0
  0
LINE
  5
6DD
330
1F
100
AcDbEntity
  8
0
  6
Continuous
100
AcDbLine
 10
118.2137612894
 20
30.493917434
 30
0.0
 11
118.2137612894
 21
31.118917434
 31
0.0
  0
ARC
  5
6DE
330
1F
100
AcDbEntity
  8
0
  6
Continuous
100
AcDbCircle
 10
103.0887612894
 20
30.493917434
 30
0.0
 40
0.125
100
AcDbArc
 50
180.0
 51
270.0
  0
ARC
  5
6DF
330
1F
100
AcDbEntity
  8
0
  6
Continuous
100
AcDbCircle
 10
104.3387612894
 20
30.493917434
 30
0.0
 40
0.125
100
AcDbArc
 50
270.0
 51
360.0
  0
LINE
  5
6E0
330
1F
100
AcDbEntity
  8
0
  6
Continuous
100
AcDbLine
 10
103.0887612894
 20
30.368917434
 30
0.0
 11
103.3387612894
 21
30.368917434
 31
0.0
  0
LINE
  5
6E1
330
1F
100
AcDbEntity
  8
0
  6
Continuous
100
AcDbLine
 10
103.3387612894
 20
30.368917434
 30
0.0
 11
104.0887612894
 21
30.368917434
 31
0.0
  0
LINE
  5
6E2
330
1F
100
AcDbEntity
  8
0
  6
Continuous
100
AcDbLine
 10
104.0887612894
 20
30.368917434
 30
0.0
 11
104.3387612894
 21
30.368917434
 31
0.0
  0
LINE
  5
6E3
330
1F
100
AcDbEntity
  8
0
  6
Continuous
100
AcDbLine
 10
104.4637612894
 20
30.493917434
 30
0.0
 11
104.4637612894
 21
31.118917434
 31
0.0
  0
LINE
  5
6E4
330
1F
100
AcDbEntity
  8
0
  6
Continuous
100
AcDbLine
 10
102.9637612894
 20
30.493917434
 30
0.0
 11
102.9637612894
 21
31.118917434
 31
0.0
  0
ARC
  5
6E5
330
1F
100
AcDbEntity
  8
0
  6
Continuous
100
AcDbCircle
 10
103.0887612894
 20
30.493917434
 30
0.0
 40
0.125
100
AcDbArc
 50
180.0
 51
270.0
  0
ARC
  5
6E6
330
1F
100
AcDbEntity
  8
0
  6
Continuous
100
AcDbCircle
 10
104.3387612894
 20
30.493917434
 30
0.0
 40
0.125
100
AcDbArc
 50
270.0
 51
360.0
  0
LINE
  5
6E7
330
1F
100
AcDbEntity
  8
0
  6
Continuous
100
AcDbLine
 10
104.4637612894
 20
30.493917434
 30
0.0
 11
104.4637612894
 21
31.118917434
 31
0.0
  0
LINE
  5
6E8
330
1F
100
AcDbEntity
  8
0
  6
Continuous
100
AcDbLine
 10
102.9637612894
 20
30.493917434
 30
0.0
 11
102.9637612894
 21
31.118917434
 31
0.0
  0
LINE
  5
6E9
330
1F
100
AcDbEntity
  8
0
  6
Continuous
100
AcDbLine
 10
116.4897612894
 20
71.8641366967
 30
0.0
 11
116.4897612894
 21
71.16413669669999
 31
0.0
  0
ARC
  5
6EA
330
1F
100
AcDbEntity
  8
0
  6
Continuous
100
AcDbCircle
 10
114.1122612894
 20
71.51413669670001
 30
0.0
 40
0.135
100
AcDbArc
 50
179.9999999969
 51
356.8418838393
  0
ARC
  5
6EB
330
1F
100
AcDbEntity
  8
0
  6
Continuous
100
AcDbCircle
 10
114.1122612894
 20
71.51413669670001
 30
0.0
 40
0.135
100
AcDbArc
 50
356.8418838393
 51
359.9999999993
  0
ARC
  5
6EC
330
1F
100
AcDbEntity
  8
0
  6
Continuous
100
AcDbCircle
 10
114.1122612894
 20
71.51413669670001
 30
0.0
 40
0.135
100
AcDbArc
 50
0.0
 51
176.8418838394
  0
ARC
  5
6ED
330
1F
100
AcDbEntity
  8
0
  6
Continuous
100
AcDbCircle
 10
114.1122612894
 20
71.51413669670001
 30
0.0
 40
0.135
100
AcDbArc
 50
176.8418838394
 51
179.9999999993
  0
ARC
  5
6EE
330
1F
100
AcDbEntity
  8
0
  6
Continuous
100
AcDbCircle
 10
114.6285112894
 20
71.51413669670001
 30
0.0
 40
0.135
100
AcDbArc
 50
179.9999999969
 51
356.8418838393
  0
ARC
  5
6EF
330
1F
100
AcDbEntity
  8
0
  6
Continuous
100
AcDbCircle
 10
114.6285112894
 20
71.51413669670001
 30
0.0
 40
0.135
100
AcDbArc
 50
356.8418838393
 51
359.9999999993
  0
ARC
  5
6F0
330
1F
100
AcDbEntity
  8
0
  6
Continuous
100
AcDbCircle
 10
114.6285112894
 20
71.51413669670001
 30
0.0
 40
0.135
100
AcDbArc
 50
0.0
 51
176.8418838393
  0
ARC
  5
6F1
330
1F
100
AcDbEntity
  8
0
  6
Continuous
100
AcDbCircle
 10
114.6285112894
 20
71.51413669670001
 30
0.0
 40
0.135
100
AcDbArc
 50
176.8418838393
 51
179.9999999993
  0
ARC
  5
6F2
330
1F
100
AcDbEntity
  8
0
  6
Continuous
100
AcDbCircle
 10
115.1610112894
 20
71.51413669670001
 30
0.0
 40
0.135
100
AcDbArc
 50
179.9999999969
 51
356.8418838393
  0
ARC
  5
6F3
330
1F
100
AcDbEntity
  8
0
  6
Continuous
100
AcDbCircle
 10
115.1610112894
 20
71.51413669670001
 30
0.0
 40
0.135
100
AcDbArc
 50
356.8418838393
 51
359.9999999993
  0
ARC
  5
6F4
330
1F
100
AcDbEntity
  8
0
  6
Continuous
100
AcDbCircle
 10
115.1610112894
 20
71.51413669670001
 30
0.0
 40
0.135
100
AcDbArc
 50
0.0
 51
176.8418838393
  0
ARC
  5
6F5
330
1F
100
AcDbEntity
  8
0
  6
Continuous
100
AcDbCircle
 10
115.1610112894
 20
71.51413669670001
 30
0.0
 40
0.135
100
AcDbArc
 50
176.8418838393
 51
179.9999999993
  0
ARC
  5
6F6
330
1F
100
AcDbEntity
  8
0
  6
Continuous
100
AcDbCircle
 10
115.6772612894
 20
71.51413669670001
 30
0.0
 40
0.135
100
AcDbArc
 50
179.9999999969
 51
356.8418838393999
  0
ARC
  5
6F7
330
1F
100
AcDbEntity
  8
0
  6
Continuous
100
AcDbCircle
 10
115.6772612894
 20
71.51413669670001
 30
0.0
 40
0.135
100
AcDbArc
 50
356.8418838393999
 51
359.9999999993
  0
ARC
  5
6F8
330
1F
100
AcDbEntity
  8
0
  6
Continuous
100
AcDbCircle
 10
115.6772612894
 20
71.51413669670001
 30
0.0
 40
0.135
100
AcDbArc
 50
0.0
 51
176.8418838393
  0
ARC
  5
6F9
330
1F
100
AcDbEntity
  8
0
  6
Continuous
100
AcDbCircle
 10
115.6772612894
 20
71.51413669670001
 30
0.0
 40
0.135
100
AcDbArc
 50
176.8418838393
 51
179.9999999993
  0
LINE
  5
6FA
330
1F
100
AcDbEntity
  8
0
  6
Continuous
100
AcDbLine
 10
116.3647612894
 20
71.8641366967
 30
0.0
 11
116.4897612894
 21
71.8641366967
 31
0.0
  0
LINE
  5
6FB
330
1F
100
AcDbEntity
  8
0
  6
Continuous
100
AcDbLine
 10
115.8647612894
 20
71.8641366967
 30
0.0
 11
115.9897612894
 21
71.8641366967
 31
0.0
  0
LINE
  5
6FC
330
1F
100
AcDbEntity
  8
0
  6
Continuous
100
AcDbLine
 10
115.3647612894
 20
71.8641366967
 30
0.0
 11
115.4897612894
 21
71.8641366967
 31
0.0
  0
LINE
  5
6FD
330
1F
100
AcDbEntity
  8
0
  6
Continuous
100
AcDbLine
 10
114.8322612894
 20
71.8641366967
 30
0.0
 11
114.9572612894
 21
71.8641366967
 31
0.0
  0
LINE
  5
6FE
330
1F
100
AcDbEntity
  8
0
  6
Continuous
100
AcDbLine
 10
114.2997612894
 20
71.8641366967
 30
0.0
 11
114.4247612894
 21
71.8641366967
 31
0.0
  0
LINE
  5
6FF
330
1F
100
AcDbEntity
  8
0
  6
Continuous
100
AcDbLine
 10
113.7997612894
 20
71.8641366967
 30
0.0
 11
113.9247612894
 21
71.8641366967
 31
0.0
  0
LINE
  5
700
330
1F
100
AcDbEntity
  8
0
  6
Continuous
100
AcDbLine
 10
113.2997612894
 20
71.8641366967
 30
0.0
 11
113.4247612894
 21
71.8641366967
 31
0.0
  0
LINE
  5
701
330
1F
100
AcDbEntity
  8
0
  6
Continuous
100
AcDbLine
 10
113.4247612894
 20
71.8641366967
 30
0.0
 11
113.7997612894
 21
71.8641366967
 31
0.0
  0
LINE
  5
702
330
1F
100
AcDbEntity
  8
0
  6
Continuous
100
AcDbLine
 10
113.9247612894
 20
71.8641366967
 30
0.0
 11
113.9247612894
 21
71.16413669669999
 31
0.0
  0
LINE
  5
703
330
1F
100
AcDbEntity
  8
0
  6
Continuous
100
AcDbLine
 10
113.7997612894
 20
71.8641366967
 30
0.0
 11
113.7997612894
 21
71.16413669669999
 31
0.0
  0
LINE
  5
704
330
1F
100
AcDbEntity
  8
0
  6
Continuous
100
AcDbLine
 10
115.9897612894
 20
71.8641366967
 30
0.0
 11
116.3647612894
 21
71.8641366967
 31
0.0
  0
LINE
  5
705
330
1F
100
AcDbEntity
  8
0
  6
Continuous
100
AcDbLine
 10
114.4247612894
 20
71.8641366967
 30
0.0
 11
114.4247612894
 21
71.16413669669999
 31
0.0
  0
LINE
  5
706
330
1F
100
AcDbEntity
  8
0
  6
Continuous
100
AcDbLine
 10
114.2997612894
 20
71.8641366967
 30
0.0
 11
114.2997612894
 21
71.16413669669999
 31
0.0
  0
LINE
  5
707
330
1F
100
AcDbEntity
  8
0
  6
Continuous
100
AcDbLine
 10
114.4247612894
 20
71.8641366967
 30
0.0
 11
114.8322612894
 21
71.8641366967
 31
0.0
  0
LINE
  5
708
330
1F
100
AcDbEntity
  8
0
  6
Continuous
100
AcDbLine
 10
115.4897612894
 20
71.8641366967
 30
0.0
 11
115.4897612894
 21
71.16413669669999
 31
0.0
  0
LINE
  5
709
330
1F
100
AcDbEntity
  8
0
  6
Continuous
100
AcDbLine
 10
114.9572612894
 20
71.8641366967
 30
0.0
 11
115.3647612894
 21
71.8641366967
 31
0.0
  0
LINE
  5
70A
330
1F
100
AcDbEntity
  8
0
  6
Continuous
100
AcDbLine
 10
115.3647612894
 20
71.8641366967
 30
0.0
 11
115.3647612894
 21
71.16413669669999
 31
0.0
  0
LINE
  5
70B
330
1F
100
AcDbEntity
  8
0
  6
Continuous
100
AcDbLine
 10
115.9897612894
 20
71.8641366967
 30
0.0
 11
115.9897612894
 21
71.16413669669999
 31
0.0
  0
LINE
  5
70C
330
1F
100
AcDbEntity
  8
0
  6
Continuous
100
AcDbLine
 10
115.8647612894
 20
71.8641366967
 30
0.0
 11
115.8647612894
 21
71.16413669669999
 31
0.0
  0
LINE
  5
70D
330
1F
100
AcDbEntity
  8
0
  6
Continuous
100
AcDbLine
 10
115.4897612894
 20
71.8641366967
 30
0.0
 11
115.8647612894
 21
71.8641366967
 31
0.0
  0
LINE
  5
70E
330
1F
100
AcDbEntity
  8
0
  6
Continuous
100
AcDbLine
 10
114.9572612894
 20
71.8641366967
 30
0.0
 11
114.9572612894
 21
71.16413669669999
 31
0.0
  0
LINE
  5
70F
330
1F
100
AcDbEntity
  8
0
  6
Continuous
100
AcDbLine
 10
114.8322612894
 20
71.8641366967
 30
0.0
 11
114.8322612894
 21
71.16413669669999
 31
0.0
  0
LINE
  5
710
330
1F
100
AcDbEntity
  8
0
  6
Continuous
100
AcDbLine
 10
113.9247612894
 20
71.8641366967
 30
0.0
 11
114.2997612894
 21
71.8641366967
 31
0.0
  0
LINE
  5
711
330
1F
100
AcDbEntity
  8
0
  6
Continuous
100
AcDbLine
 10
116.3647612894
 20
71.8641366967
 30
0.0
 11
116.3647612894
 21
71.16413669669999
 31
0.0
  0
LINE
  5
712
330
1F
100
AcDbEntity
  8
0
  6
Continuous
100
AcDbLine
 10
113.4247612894
 20
71.8641366967
 30
0.0
 11
113.4247612894
 21
71.16413669669999
 31
0.0
  0
LINE
  5
713
330
1F
100
AcDbEntity
  8
0
  6
Continuous
100
AcDbLine
 10
113.2997612894
 20
71.8641366967
 30
0.0
 11
113.2997612894
 21
71.16413669669999
 31
0.0
  0
LINE
  5
714
330
1F
100
AcDbEntity
  8
0
  6
Continuous
100
AcDbLine
 10
115.8647612894
 20
71.16413669669999
 30
0.0
 11
115.9897612894
 21
71.16413669669999
 31
0.0
  0
LINE
  5
715
330
1F
100
AcDbEntity
  8
0
  6
Continuous
100
AcDbLine
 10
115.4897612894
 20
71.16413669669999
 30
0.0
 11
115.8647612894
 21
71.16413669669999
 31
0.0
  0
LINE
  5
716
330
1F
100
AcDbEntity
  8
0
  6
Continuous
100
AcDbLine
 10
115.3647612894
 20
71.16413669669999
 30
0.0
 11
115.4897612894
 21
71.16413669669999
 31
0.0
  0
LINE
  5
717
330
1F
100
AcDbEntity
  8
0
  6
Continuous
100
AcDbLine
 10
114.9572612894
 20
71.16413669669999
 30
0.0
 11
115.3647612894
 21
71.16413669669999
 31
0.0
  0
LINE
  5
718
330
1F
100
AcDbEntity
  8
0
  6
Continuous
100
AcDbLine
 10
114.8322612894
 20
71.16413669669999
 30
0.0
 11
114.9572612894
 21
71.16413669669999
 31
0.0
  0
LINE
  5
719
330
1F
100
AcDbEntity
  8
0
  6
Continuous
100
AcDbLine
 10
114.4247612894
 20
71.16413669669999
 30
0.0
 11
114.8322612894
 21
71.16413669669999
 31
0.0
  0
LINE
  5
71A
330
1F
100
AcDbEntity
  8
0
  6
Continuous
100
AcDbLine
 10
114.2997612894
 20
71.16413669669999
 30
0.0
 11
114.4247612894
 21
71.16413669669999
 31
0.0
  0
LINE
  5
71B
330
1F
100
AcDbEntity
  8
0
  6
Continuous
100
AcDbLine
 10
113.9247612894
 20
71.16413669669999
 30
0.0
 11
114.2997612894
 21
71.16413669669999
 31
0.0
  0
LINE
  5
71C
330
1F
100
AcDbEntity
  8
0
  6
Continuous
100
AcDbLine
 10
113.7997612894
 20
71.16413669669999
 30
0.0
 11
113.9247612894
 21
71.16413669669999
 31
0.0
  0
LINE
  5
71D
330
1F
100
AcDbEntity
  8
0
  6
Continuous
100
AcDbLine
 10
113.4247612894
 20
71.16413669669999
 30
0.0
 11
113.7997612894
 21
71.16413669669999
 31
0.0
  0
LINE
  5
71E
330
1F
100
AcDbEntity
  8
0
  6
Continuous
100
AcDbLine
 10
113.2997612894
 20
71.16413669669999
 30
0.0
 11
113.4247612894
 21
71.16413669669999
 31
0.0
  0
LINE
  5
71F
330
1F
100
AcDbEntity
  8
0
  6
Continuous
100
AcDbLine
 10
116.3647612894
 20
71.16413669669999
 30
0.0
 11
116.4897612894
 21
71.16413669669999
 31
0.0
  0
LINE
  5
720
330
1F
100
AcDbEntity
  8
0
  6
Continuous
100
AcDbLine
 10
115.9897612894
 20
71.16413669669999
 30
0.0
 11
116.3647612894
 21
71.16413669669999
 31
0.0
  0
LINE
  5
721
330
1F
100
AcDbEntity
  8
0
  6
Continuous
100
AcDbLine
 10
113.9247612894
 20
71.2641366967
 30
0.0
 11
114.2997612894
 21
71.2641366967
 31
0.0
  0
LINE
  5
722
330
1F
100
AcDbEntity
  8
0
  6
Continuous
100
AcDbLine
 10
115.4897612894
 20
71.2641366967
 30
0.0
 11
115.8647612894
 21
71.2641366967
 31
0.0
  0
LINE
  5
723
330
1F
100
AcDbEntity
  8
0
  6
Continuous
100
AcDbLine
 10
114.9572612894
 20
71.2641366967
 30
0.0
 11
115.3647612894
 21
71.2641366967
 31
0.0
  0
LINE
  5
724
330
1F
100
AcDbEntity
  8
0
  6
Continuous
100
AcDbLine
 10
113.4247612894
 20
71.76413669670001
 30
0.0
 11
113.7997612894
 21
71.76413669670001
 31
0.0
  0
LINE
  5
725
330
1F
100
AcDbEntity
  8
0
  6
Continuous
100
AcDbLine
 10
114.4247612894
 20
71.2641366967
 30
0.0
 11
114.8322612894
 21
71.2641366967
 31
0.0
  0
LINE
  5
726
330
1F
100
AcDbEntity
  8
0
  6
Continuous
100
AcDbLine
 10
115.9897612894
 20
71.2641366967
 30
0.0
 11
116.3647612894
 21
71.2641366967
 31
0.0
  0
LINE
  5
727
330
1F
100
AcDbEntity
  8
0
  6
Continuous
100
AcDbLine
 10
113.4247612894
 20
71.2641366967
 30
0.0
 11
113.7997612894
 21
71.2641366967
 31
0.0
  0
LINE
  5
728
330
1F
100
AcDbEntity
  8
0
  6
Continuous
100
AcDbLine
 10
115.9897612894
 20
71.76413669670001
 30
0.0
 11
116.3647612894
 21
71.76413669670001
 31
0.0
  0
ARC
  5
729
330
1F
100
AcDbEntity
  8
0
  6
Continuous
100
AcDbCircle
 10
116.1772612894
 20
71.51413669670001
 30
0.0
 40
0.0835
100
AcDbArc
 50
0.0
 51
180.0
  0
ARC
  5
72A
330
1F
100
AcDbEntity
  8
0
  6
Continuous
100
AcDbCircle
 10
116.1772612894
 20
71.51413669670001
 30
0.0
 40
0.0835
100
AcDbArc
 50
180.0
 51
360.0
  0
LINE
  5
72B
330
1F
100
AcDbEntity
  8
0
  6
Continuous
100
AcDbLine
 10
114.4247612894
 20
71.76413669670001
 30
0.0
 11
114.8322612894
 21
71.76413669670001
 31
0.0
  0
ARC
  5
72C
330
1F
100
AcDbEntity
  8
0
  6
Continuous
100
AcDbCircle
 10
113.6122612894
 20
71.51413669670001
 30
0.0
 40
0.0835
100
AcDbArc
 50
0.0
 51
180.0
  0
LINE
  5
72D
330
1F
100
AcDbEntity
  8
0
  6
Continuous
100
AcDbLine
 10
114.9572612894
 20
71.76413669670001
 30
0.0
 11
115.3647612894
 21
71.76413669670001
 31
0.0
  0
ARC
  5
72E
330
1F
100
AcDbEntity
  8
0
  6
Continuous
100
AcDbCircle
 10
113.6122612894
 20
71.51413669670001
 30
0.0
 40
0.0835
100
AcDbArc
 50
180.0
 51
360.0
  0
LINE
  5
72F
330
1F
100
AcDbEntity
  8
0
  6
Continuous
100
AcDbLine
 10
113.9247612894
 20
71.76413669670001
 30
0.0
 11
114.2997612894
 21
71.76413669670001
 31
0.0
  0
LINE
  5
730
330
1F
100
AcDbEntity
  8
0
  6
Continuous
100
AcDbLine
 10
115.4897612894
 20
71.76413669670001
 30
0.0
 11
115.8647612894
 21
71.76413669670001
 31
0.0
  0
ARC
  5
731
330
1F
100
AcDbEntity
  8
0
  6
Continuous
100
AcDbCircle
 10
113.2812612894
 20
72.57163669669999
 30
0.0
 40
0.1875
100
AcDbArc
 50
90.0
 51
180.0
  0
ARC
  5
732
330
1F
100
AcDbEntity
  8
0
  6
Continuous
100
AcDbCircle
 10
116.5062612894
 20
72.57163669669999
 30
0.0
 40
0.1875
100
AcDbArc
 50
0.0
 51
90.0
  0
ARC
  5
733
330
1F
100
AcDbEntity
  8
0
  6
Continuous
100
AcDbCircle
 10
113.2812612894
 20
67.3166366967
 30
0.0
 40
0.1875
100
AcDbArc
 50
180.0
 51
270.0
  0
ARC
  5
734
330
1F
100
AcDbEntity
  8
0
  6
Continuous
100
AcDbCircle
 10
116.5062612894
 20
67.3166366967
 30
0.0
 40
0.1875
100
AcDbArc
 50
270.0
 51
360.0
  0
ARC
  5
735
330
1F
100
AcDbEntity
  8
0
  6
Continuous
100
AcDbCircle
 10
117.2117612894
 20
66.6111366967
 30
0.0
 40
0.187
100
AcDbArc
 50
270.0
 51
360.0
  0
ARC
  5
736
330
1F
100
AcDbEntity
  8
0
  6
Continuous
100
AcDbCircle
 10
117.2117612894
 20
73.2771366967
 30
0.0
 40
0.187
100
AcDbArc
 50
0.0
 51
90.0
  0
ARC
  5
737
330
1F
100
AcDbEntity
  8
0
  6
Continuous
100
AcDbCircle
 10
112.5757612894
 20
73.2771366967
 30
0.0
 40
0.187
100
AcDbArc
 50
90.0
 51
180.0
  0
ARC
  5
738
330
1F
100
AcDbEntity
  8
0
  6
Continuous
100
AcDbCircle
 10
112.5757612894
 20
66.6111366967
 30
0.0
 40
0.187
100
AcDbArc
 50
180.0
 51
270.0
  0
LINE
  5
739
330
1F
100
AcDbEntity
  8
0
  6
Continuous
100
AcDbLine
 10
112.3887612894
 20
73.2771366967
 30
0.0
 11
112.3887612894
 21
66.6111366967
 31
0.0
  0
LINE
  5
73A
330
1F
100
AcDbEntity
  8
0
  6
Continuous
100
AcDbLine
 10
117.2117612894
 20
73.46413669669999
 30
0.0
 11
112.5757612894
 21
73.46413669669999
 31
0.0
  0
LINE
  5
73B
330
1F
100
AcDbEntity
  8
0
  6
Continuous
100
AcDbLine
 10
117.3987612894
 20
66.6111366967
 30
0.0
 11
117.3987612894
 21
73.2771366967
 31
0.0
  0
LINE
  5
73C
330
1F
100
AcDbEntity
  8
0
  6
Continuous
100
AcDbLine
 10
112.5757612894
 20
66.4241366967
 30
0.0
 11
117.2117612894
 21
66.4241366967
 31
0.0
  0
LINE
  5
73D
330
1F
100
AcDbEntity
  8
0
  6
Continuous
100
AcDbLine
 10
113.0937612894
 20
67.3166366967
 30
0.0
 11
113.0937612894
 21
72.57163669669999
 31
0.0
  0
LINE
  5
73E
330
1F
100
AcDbEntity
  8
0
  6
Continuous
100
AcDbLine
 10
116.5062612894
 20
67.1291366967
 30
0.0
 11
113.2812612894
 21
67.1291366967
 31
0.0
  0
LINE
  5
73F
330
1F
100
AcDbEntity
  8
0
  6
Continuous
100
AcDbLine
 10
116.6937612894
 20
72.57163669669999
 30
0.0
 11
116.6937612894
 21
67.3166366967
 31
0.0
  0
LINE
  5
740
330
1F
100
AcDbEntity
  8
0
  6
Continuous
100
AcDbLine
 10
113.2812612894
 20
72.7591366967
 30
0.0
 11
116.5062612894
 21
72.7591366967
 31
0.0
  0
ARC
  5
741
330
1F
100
AcDbEntity
  8
0
  6
Continuous
100
AcDbCircle
 10
113.8937612894
 20
73.25663669669999
 30
0.0
 40
0.1395
100
AcDbArc
 50
180.0
 51
185.2341082393999
  0
ARC
  5
742
330
1F
100
AcDbEntity
  8
0
  6
Continuous
100
AcDbCircle
 10
113.8937612894
 20
73.25663669669999
 30
0.0
 40
0.1395
100
AcDbArc
 50
185.2341082393999
 51
267.2561363743
  0
ARC
  5
743
330
1F
100
AcDbEntity
  8
0
  6
Continuous
100
AcDbCircle
 10
113.8937612894
 20
73.25663669669999
 30
0.0
 40
0.1395
100
AcDbArc
 50
267.2561363743
 51
272.7438636256999
  0
ARC
  5
744
330
1F
100
AcDbEntity
  8
0
  6
Continuous
100
AcDbCircle
 10
113.8937612894
 20
73.25663669669999
 30
0.0
 40
0.1395
100
AcDbArc
 50
272.7438636256999
 51
360.0
  0
ARC
  5
745
330
1F
100
AcDbEntity
  8
0
  6
Continuous
100
AcDbCircle
 10
113.8937612894
 20
73.25663669669999
 30
0.0
 40
0.1395
100
AcDbArc
 50
0.0
 51
87.25613637429999
  0
ARC
  5
746
330
1F
100
AcDbEntity
  8
0
  6
Continuous
100
AcDbCircle
 10
113.8937612894
 20
73.25663669669999
 30
0.0
 40
0.1395
100
AcDbArc
 50
87.25613637429999
 51
92.7438636257
  0
ARC
  5
747
330
1F
100
AcDbEntity
  8
0
  6
Continuous
100
AcDbCircle
 10
113.8937612894
 20
73.25663669669999
 30
0.0
 40
0.1395
100
AcDbArc
 50
92.7438636257
 51
174.7658917606
  0
ARC
  5
748
330
1F
100
AcDbEntity
  8
0
  6
Continuous
100
AcDbCircle
 10
113.8937612894
 20
73.25663669669999
 30
0.0
 40
0.1395
100
AcDbArc
 50
174.7658917606
 51
180.0
  0
ARC
  5
749
330
1F
100
AcDbEntity
  8
0
  6
Continuous
100
AcDbCircle
 10
115.8937612894
 20
73.25663669669999
 30
0.0
 40
0.1395
100
AcDbArc
 50
180.0
 51
185.2341082396
  0
ARC
  5
74A
330
1F
100
AcDbEntity
  8
0
  6
Continuous
100
AcDbCircle
 10
115.8937612894
 20
73.25663669669999
 30
0.0
 40
0.1395
100
AcDbArc
 50
185.2341082396
 51
267.2561363743
  0
ARC
  5
74B
330
1F
100
AcDbEntity
  8
0
  6
Continuous
100
AcDbCircle
 10
115.8937612894
 20
73.25663669669999
 30
0.0
 40
0.1395
100
AcDbArc
 50
267.2561363743
 51
272.7438636256999
  0
ARC
  5
74C
330
1F
100
AcDbEntity
  8
0
  6
Continuous
100
AcDbCircle
 10
115.8937612894
 20
73.25663669669999
 30
0.0
 40
0.1395
100
AcDbArc
 50
272.7438636256999
 51
360.0
  0
ARC
  5
74D
330
1F
100
AcDbEntity
  8
0
  6
Continuous
100
AcDbCircle
 10
115.8937612894
 20
73.25663669669999
 30
0.0
 40
0.1395
100
AcDbArc
 50
0.0
 51
87.25613637429999
  0
ARC
  5
74E
330
1F
100
AcDbEntity
  8
0
  6
Continuous
100
AcDbCircle
 10
115.8937612894
 20
73.25663669669999
 30
0.0
 40
0.1395
100
AcDbArc
 50
87.25613637429999
 51
92.7438636257
  0
ARC
  5
74F
330
1F
100
AcDbEntity
  8
0
  6
Continuous
100
AcDbCircle
 10
115.8937612894
 20
73.25663669669999
 30
0.0
 40
0.1395
100
AcDbArc
 50
92.7438636257
 51
174.7658917604
  0
ARC
  5
750
330
1F
100
AcDbEntity
  8
0
  6
Continuous
100
AcDbCircle
 10
115.8937612894
 20
73.25663669669999
 30
0.0
 40
0.1395
100
AcDbArc
 50
174.7658917604
 51
180.0
  0
ARC
  5
751
330
1F
100
AcDbEntity
  8
0
  6
Continuous
100
AcDbCircle
 10
117.2037612893999
 20
68.3641366967
 30
0.0
 40
0.1395
100
AcDbArc
 50
0.0
 51
87.25613637429999
  0
ARC
  5
752
330
1F
100
AcDbEntity
  8
0
  6
Continuous
100
AcDbCircle
 10
117.2037612893999
 20
68.3641366967
 30
0.0
 40
0.1395
100
AcDbArc
 50
87.25613637429999
 51
92.7438636257
  0
ARC
  5
753
330
1F
100
AcDbEntity
  8
0
  6
Continuous
100
AcDbCircle
 10
117.2037612893999
 20
68.3641366967
 30
0.0
 40
0.1395
100
AcDbArc
 50
92.7438636257
 51
180.0
  0
ARC
  5
754
330
1F
100
AcDbEntity
  8
0
  6
Continuous
100
AcDbCircle
 10
117.2037612893999
 20
68.3641366967
 30
0.0
 40
0.1395
100
AcDbArc
 50
180.0
 51
267.2561363743
  0
ARC
  5
755
330
1F
100
AcDbEntity
  8
0
  6
Continuous
100
AcDbCircle
 10
117.2037612893999
 20
68.3641366967
 30
0.0
 40
0.1395
100
AcDbArc
 50
267.2561363743
 51
272.7438636256999
  0
ARC
  5
756
330
1F
100
AcDbEntity
  8
0
  6
Continuous
100
AcDbCircle
 10
117.2037612893999
 20
68.3641366967
 30
0.0
 40
0.1395
100
AcDbArc
 50
272.7438636256999
 51
360.0
  0
ARC
  5
757
330
1F
100
AcDbEntity
  8
0
  6
Continuous
100
AcDbCircle
 10
112.5837612893999
 20
68.3641366967
 30
0.0
 40
0.1395
100
AcDbArc
 50
0.0
 51
87.25613637429999
  0
ARC
  5
758
330
1F
100
AcDbEntity
  8
0
  6
Continuous
100
AcDbCircle
 10
112.5837612893999
 20
68.3641366967
 30
0.0
 40
0.1395
100
AcDbArc
 50
87.25613637429999
 51
92.7438636257
  0
ARC
  5
759
330
1F
100
AcDbEntity
  8
0
  6
Continuous
100
AcDbCircle
 10
112.5837612893999
 20
68.3641366967
 30
0.0
 40
0.1395
100
AcDbArc
 50
92.7438636257
 51
180.0
  0
ARC
  5
75A
330
1F
100
AcDbEntity
  8
0
  6
Continuous
100
AcDbCircle
 10
112.5837612893999
 20
68.3641366967
 30
0.0
 40
0.1395
100
AcDbArc
 50
180.0
 51
267.2561363743
  0
ARC
  5
75B
330
1F
100
AcDbEntity
  8
0
  6
Continuous
100
AcDbCircle
 10
112.5837612893999
 20
68.3641366967
 30
0.0
 40
0.1395
100
AcDbArc
 50
267.2561363743
 51
272.7438636256999
  0
ARC
  5
75C
330
1F
100
AcDbEntity
  8
0
  6
Continuous
100
AcDbCircle
 10
112.5837612893999
 20
68.3641366967
 30
0.0
 40
0.1395
100
AcDbArc
 50
272.7438636256999
 51
360.0
  0
ARC
  5
75D
330
1F
100
AcDbEntity
  8
0
  6
Continuous
100
AcDbCircle
 10
117.2037612893999
 20
71.5241366967
 30
0.0
 40
0.1395
100
AcDbArc
 50
0.0
 51
87.25613637429999
  0
ARC
  5
75E
330
1F
100
AcDbEntity
  8
0
  6
Continuous
100
AcDbCircle
 10
117.2037612893999
 20
71.5241366967
 30
0.0
 40
0.1395
100
AcDbArc
 50
87.25613637429999
 51
92.7438636257
  0
ARC
  5
75F
330
1F
100
AcDbEntity
  8
0
  6
Continuous
100
AcDbCircle
 10
117.2037612893999
 20
71.5241366967
 30
0.0
 40
0.1395
100
AcDbArc
 50
92.7438636257
 51
180.0
  0
ARC
  5
760
330
1F
100
AcDbEntity
  8
0
  6
Continuous
100
AcDbCircle
 10
117.2037612893999
 20
71.5241366967
 30
0.0
 40
0.1395
100
AcDbArc
 50
180.0
 51
267.2561363743
  0
ARC
  5
761
330
1F
100
AcDbEntity
  8
0
  6
Continuous
100
AcDbCircle
 10
117.2037612893999
 20
71.5241366967
 30
0.0
 40
0.1395
100
AcDbArc
 50
267.2561363743
 51
272.7438636256999
  0
ARC
  5
762
330
1F
100
AcDbEntity
  8
0
  6
Continuous
100
AcDbCircle
 10
117.2037612893999
 20
71.5241366967
 30
0.0
 40
0.1395
100
AcDbArc
 50
272.7438636256999
 51
360.0
  0
ARC
  5
763
330
1F
100
AcDbEntity
  8
0
  6
Continuous
100
AcDbCircle
 10
112.5837612893999
 20
71.5241366967
 30
0.0
 40
0.1395
100
AcDbArc
 50
0.0
 51
87.25613637429999
  0
ARC
  5
764
330
1F
100
AcDbEntity
  8
0
  6
Continuous
100
AcDbCircle
 10
112.5837612893999
 20
71.5241366967
 30
0.0
 40
0.1395
100
AcDbArc
 50
87.25613637429999
 51
92.7438636257
  0
ARC
  5
765
330
1F
100
AcDbEntity
  8
0
  6
Continuous
100
AcDbCircle
 10
112.5837612893999
 20
71.5241366967
 30
0.0
 40
0.1395
100
AcDbArc
 50
92.7438636257
 51
180.0
  0
ARC
  5
766
330
1F
100
AcDbEntity
  8
0
  6
Continuous
100
AcDbCircle
 10
112.5837612893999
 20
71.5241366967
 30
0.0
 40
0.1395
100
AcDbArc
 50
180.0
 51
267.2561363743
  0
ARC
  5
767
330
1F
100
AcDbEntity
  8
0
  6
Continuous
100
AcDbCircle
 10
112.5837612893999
 20
71.5241366967
 30
0.0
 40
0.1395
100
AcDbArc
 50
267.2561363743
 51
272.7438636256999
  0
ARC
  5
768
330
1F
100
AcDbEntity
  8
0
  6
Continuous
100
AcDbCircle
 10
112.5837612893999
 20
71.5241366967
 30
0.0
 40
0.1395
100
AcDbArc
 50
272.7438636256999
 51
360.0
  0
ARC
  5
769
330
1F
100
AcDbEntity
  8
0
  6
Continuous
100
AcDbCircle
 10
115.8937612894
 20
66.6316366967
 30
0.0
 40
0.1395
100
AcDbArc
 50
0.0
 51
87.25613637429999
  0
ARC
  5
76A
330
1F
100
AcDbEntity
  8
0
  6
Continuous
100
AcDbCircle
 10
115.8937612894
 20
66.6316366967
 30
0.0
 40
0.1395
100
AcDbArc
 50
87.25613637429999
 51
92.7438636257
  0
ARC
  5
76B
330
1F
100
AcDbEntity
  8
0
  6
Continuous
100
AcDbCircle
 10
115.8937612894
 20
66.6316366967
 30
0.0
 40
0.1395
100
AcDbArc
 50
92.7438636257
 51
174.7658917604
  0
ARC
  5
76C
330
1F
100
AcDbEntity
  8
0
  6
Continuous
100
AcDbCircle
 10
115.8937612894
 20
66.6316366967
 30
0.0
 40
0.1395
100
AcDbArc
 50
174.7658917604
 51
180.0
  0
ARC
  5
76D
330
1F
100
AcDbEntity
  8
0
  6
Continuous
100
AcDbCircle
 10
115.8937612894
 20
66.6316366967
 30
0.0
 40
0.1395
100
AcDbArc
 50
180.0
 51
185.2341082396
  0
ARC
  5
76E
330
1F
100
AcDbEntity
  8
0
  6
Continuous
100
AcDbCircle
 10
115.8937612894
 20
66.6316366967
 30
0.0
 40
0.1395
100
AcDbArc
 50
185.2341082396
 51
267.2561363743
  0
ARC
  5
76F
330
1F
100
AcDbEntity
  8
0
  6
Continuous
100
AcDbCircle
 10
115.8937612894
 20
66.6316366967
 30
0.0
 40
0.1395
100
AcDbArc
 50
267.2561363743
 51
272.7438636256999
  0
ARC
  5
770
330
1F
100
AcDbEntity
  8
0
  6
Continuous
100
AcDbCircle
 10
115.8937612894
 20
66.6316366967
 30
0.0
 40
0.1395
100
AcDbArc
 50
272.7438636256999
 51
360.0
  0
ARC
  5
771
330
1F
100
AcDbEntity
  8
0
  6
Continuous
100
AcDbCircle
 10
113.8937612894
 20
66.6316366967
 30
0.0
 40
0.1395
100
AcDbArc
 50
0.0
 51
87.25613637429999
  0
ARC
  5
772
330
1F
100
AcDbEntity
  8
0
  6
Continuous
100
AcDbCircle
 10
113.8937612894
 20
66.6316366967
 30
0.0
 40
0.1395
100
AcDbArc
 50
87.25613637429999
 51
92.7438636257
  0
ARC
  5
773
330
1F
100
AcDbEntity
  8
0
  6
Continuous
100
AcDbCircle
 10
113.8937612894
 20
66.6316366967
 30
0.0
 40
0.1395
100
AcDbArc
 50
92.7438636257
 51
174.7658917606
  0
ARC
  5
774
330
1F
100
AcDbEntity
  8
0
  6
Continuous
100
AcDbCircle
 10
113.8937612894
 20
66.6316366967
 30
0.0
 40
0.1395
100
AcDbArc
 50
174.7658917606
 51
180.0
  0
ARC
  5
775
330
1F
100
AcDbEntity
  8
0
  6
Continuous
100
AcDbCircle
 10
113.8937612894
 20
66.6316366967
 30
0.0
 40
0.1395
100
AcDbArc
 50
180.0
 51
185.2341082393999
  0
ARC
  5
776
330
1F
100
AcDbEntity
  8
0
  6
Continuous
100
AcDbCircle
 10
113.8937612894
 20
66.6316366967
 30
0.0
 40
0.1395
100
AcDbArc
 50
185.2341082393999
 51
267.2561363743
  0
ARC
  5
777
330
1F
100
AcDbEntity
  8
0
  6
Continuous
100
AcDbCircle
 10
113.8937612894
 20
66.6316366967
 30
0.0
 40
0.1395
100
AcDbArc
 50
267.2561363743
 51
272.7438636256999
  0
ARC
  5
778
330
1F
100
AcDbEntity
  8
0
  6
Continuous
100
AcDbCircle
 10
113.8937612894
 20
66.6316366967
 30
0.0
 40
0.1395
100
AcDbArc
 50
272.7438636256999
 51
360.0
  0
ARC
  5
779
330
1F
100
AcDbEntity
  8
0
  6
Continuous
100
AcDbCircle
 10
121.2137612894
 20
82.99891743399999
 30
0.0
 40
0.25
100
AcDbArc
 50
0.0
 51
7.5158490703
  0
ARC
  5
77A
330
1F
100
AcDbEntity
  8
0
  6
Continuous
100
AcDbCircle
 10
121.2137612894
 20
82.99891743399999
 30
0.0
 40
0.25
100
AcDbArc
 50
7.5158490703
 51
82.5852134724
  0
ARC
  5
77B
330
1F
100
AcDbEntity
  8
0
  6
Continuous
100
AcDbCircle
 10
121.2137612894
 20
82.99891743399999
 30
0.0
 40
0.25
100
AcDbArc
 50
82.5852134724
 51
90.0
  0
ARC
  5
77C
330
1F
100
AcDbEntity
  8
0
  6
Continuous
100
AcDbCircle
 10
101.4637612894
 20
82.99891743399999
 30
0.0
 40
0.25
100
AcDbArc
 50
97.41478652760001
 51
172.4841509297
  0
LINE
  5
77D
330
1F
100
AcDbEntity
  8
0
  6
Continuous
100
AcDbLine
 10
101.2137612894
 20
31.368917434
 30
0.0
 11
101.2137612894
 21
82.99891743399999
 31
0.0
  0
LINE
  5
77E
330
1F
100
AcDbEntity
  8
0
  6
Continuous
100
AcDbLine
 10
117.2137612894
 20
73.538917434
 30
0.0
 11
112.5837612893999
 21
73.538917434
 31
0.0
  0
ARC
  5
77F
330
1F
100
AcDbEntity
  8
0
  6
Continuous
100
AcDbCircle
 10
112.5837612893999
 20
73.28891743399999
 30
0.0
 40
0.25
100
AcDbArc
 50
90.0
 51
180.0
  0
LINE
  5
780
330
1F
100
AcDbEntity
  8
0
  6
Continuous
100
AcDbLine
 10
112.3337612894
 20
73.28891743399999
 30
0.0
 11
112.3337612894
 21
66.60891743399999
 31
0.0
  0
ARC
  5
781
330
1F
100
AcDbEntity
  8
0
  6
Continuous
100
AcDbCircle
 10
112.5837612893999
 20
66.60891743399999
 30
0.0
 40
0.25
100
AcDbArc
 50
180.0
 51
270.0
  0
LINE
  5
782
330
1F
100
AcDbEntity
  8
0
  6
Continuous
100
AcDbLine
 10
112.5837612893999
 20
66.35891743399999
 30
0.0
 11
117.2137612894
 21
66.35891743399999
 31
0.0
  0
ARC
  5
783
330
1F
100
AcDbEntity
  8
0
  6
Continuous
100
AcDbCircle
 10
117.2137612894
 20
66.60891743399999
 30
0.0
 40
0.25
100
AcDbArc
 50
270.0
 51
360.0
  0
LINE
  5
784
330
1F
100
AcDbEntity
  8
0
  6
Continuous
100
AcDbLine
 10
117.4637612894
 20
66.60891743399999
 30
0.0
 11
117.4637612894
 21
73.28891743399999
 31
0.0
  0
ARC
  5
785
330
1F
100
AcDbEntity
  8
0
  6
Continuous
100
AcDbCircle
 10
117.2137612894
 20
73.28891743399999
 30
0.0
 40
0.25
100
AcDbArc
 50
0.0
 51
90.0
  0
LINE
  5
786
330
1F
100
AcDbEntity
  8
0
  6
Continuous
100
AcDbLine
 10
101.4637612894
 20
83.248917434
 30
0.0
 11
121.2137612894
 21
83.248917434
 31
0.0
  0
LINE
  5
787
330
1F
100
AcDbEntity
  8
0
  6
Continuous
100
AcDbLine
 10
121.4637612894
 20
82.99891743399999
 30
0.0
 11
121.4637612894
 21
31.368917434
 31
0.0
  0
LINE
  5
788
330
1F
100
AcDbEntity
  8
0
  6
Continuous
100
AcDbLine
 10
121.2137612894
 20
31.118917434
 30
0.0
 11
101.4637612894
 21
31.118917434
 31
0.0
  0
ARC
  5
789
330
1F
100
AcDbEntity
  8
0
  6
Continuous
100
AcDbCircle
 10
121.2137612894
 20
31.368917434
 30
0.0
 40
0.25
100
AcDbArc
 50
270.0
 51
360.0
  0
ARC
  5
78A
330
1F
100
AcDbEntity
  8
0
  6
Continuous
100
AcDbCircle
 10
121.2137612894
 20
82.99891743399999
 30
0.0
 40
0.25
100
AcDbArc
 50
0.0
 51
90.0
  0
ARC
  5
78B
330
1F
100
AcDbEntity
  8
0
  6
Continuous
100
AcDbCircle
 10
121.2137612894
 20
31.368917434
 30
0.0
 40
0.25
100
AcDbArc
 50
270.0
 51
360.0
  0
ARC
  5
78C
330
1F
100
AcDbEntity
  8
0
  6
Continuous
100
AcDbCircle
 10
101.4637612894
 20
31.368917434
 30
0.0
 40
0.25
100
AcDbArc
 50
180.0
 51
270.0
  0
ARC
  5
78D
330
1F
100
AcDbEntity
  8
0
  6
Continuous
100
AcDbCircle
 10
101.4637612894
 20
82.99891743399999
 30
0.0
 40
0.25
100
AcDbArc
 50
90.0
 51
180.0
  0
LINE
  5
78E
330
1F
100
AcDbEntity
  8
0
  6
Continuous
100
AcDbLine
 10
53.388918457
 20
101.8762776761
 30
0.0
 11
53.1002433224
 21
101.8762776761
 31
0.0
  0
LINE
  5
78F
330
1F
100
AcDbEntity
  8
0
  6
Continuous
100
AcDbLine
 10
53.5332560243
 20
102.1262776761
 30
0.0
 11
53.388918457
 21
101.8762776761
 31
0.0
  0
LINE
  5
790
330
1F
100
AcDbEntity
  8
0
  6
Continuous
100
AcDbLine
 10
53.1002433224
 20
101.8762776761
 30
0.0
 11
52.95590575510001
 21
102.1262776761
 31
0.0
  0
LINE
  5
791
330
1F
100
AcDbEntity
  8
0
  6
Continuous
100
AcDbLine
 10
53.388918457
 20
102.3762776761
 30
0.0
 11
53.5332560243
 21
102.1262776761
 31
0.0
  0
LINE
  5
792
330
1F
100
AcDbEntity
  8
0
  6
Continuous
100
AcDbLine
 10
52.95590575510001
 20
102.1262776761
 30
0.0
 11
53.1002433224
 21
102.3762776761
 31
0.0
  0
LINE
  5
793
330
1F
100
AcDbEntity
  8
0
  6
Continuous
100
AcDbLine
 10
53.1002433224
 20
102.3762776761
 30
0.0
 11
53.388918457
 21
102.3762776761
 31
0.0
  0
ARC
  5
794
330
1F
100
AcDbEntity
  8
0
  6
Continuous
100
AcDbCircle
 10
53.24458088970001
 20
102.1262776761
 30
0.0
 40
0.2495
100
AcDbArc
 50
119.9999999999999
 51
300.0
  0
ARC
  5
795
330
1F
100
AcDbEntity
  8
0
  6
Continuous
100
AcDbCircle
 10
53.24458088970001
 20
102.1262776761
 30
0.0
 40
0.2495
100
AcDbArc
 50
300.0
 51
119.9999999999999
  0
LINE
  5
796
330
1F
100
AcDbEntity
  8
0
  6
Continuous
100
AcDbLine
 10
44.38891845699999
 20
117.4662776761
 30
0.0
 11
44.10024332239999
 21
117.4662776761
 31
0.0
  0
LINE
  5
797
330
1F
100
AcDbEntity
  8
0
  6
Continuous
100
AcDbLine
 10
44.5332560243
 20
117.7162776761
 30
0.0
 11
44.38891845699999
 21
117.4662776761
 31
0.0
  0
LINE
  5
798
330
1F
100
AcDbEntity
  8
0
  6
Continuous
100
AcDbLine
 10
44.10024332239999
 20
117.4662776761
 30
0.0
 11
43.9559057551
 21
117.7162776761
 31
0.0
  0
LINE
  5
799
330
1F
100
AcDbEntity
  8
0
  6
Continuous
100
AcDbLine
 10
44.38891845699999
 20
117.9662776761
 30
0.0
 11
44.5332560243
 21
117.7162776761
 31
0.0
  0
LINE
  5
79A
330
1F
100
AcDbEntity
  8
0
  6
Continuous
100
AcDbLine
 10
43.9559057551
 20
117.7162776761
 30
0.0
 11
44.10024332239999
 21
117.9662776761
 31
0.0
  0
LINE
  5
79B
330
1F
100
AcDbEntity
  8
0
  6
Continuous
100
AcDbLine
 10
44.10024332239999
 20
117.9662776761
 30
0.0
 11
44.38891845699999
 21
117.9662776761
 31
0.0
  0
ARC
  5
79C
330
1F
100
AcDbEntity
  8
0
  6
Continuous
100
AcDbCircle
 10
44.2445808897
 20
117.7162776761
 30
0.0
 40
0.2495
100
AcDbArc
 50
119.9999999999999
 51
300.0
  0
ARC
  5
79D
330
1F
100
AcDbEntity
  8
0
  6
Continuous
100
AcDbCircle
 10
44.2445808897
 20
117.7162776761
 30
0.0
 40
0.2495
100
AcDbArc
 50
300.0
 51
119.9999999999999
  0
LINE
  5
79E
330
1F
100
AcDbEntity
  8
0
  6
Continuous
100
AcDbLine
 10
35.38891845699999
 20
101.8762776761
 30
0.0
 11
35.10024332239999
 21
101.8762776761
 31
0.0
  0
LINE
  5
79F
330
1F
100
AcDbEntity
  8
0
  6
Continuous
100
AcDbLine
 10
35.5332560243
 20
102.1262776761
 30
0.0
 11
35.38891845699999
 21
101.8762776761
 31
0.0
  0
LINE
  5
7A0
330
1F
100
AcDbEntity
  8
0
  6
Continuous
100
AcDbLine
 10
35.10024332239999
 20
101.8762776761
 30
0.0
 11
34.9559057551
 21
102.1262776761
 31
0.0
  0
LINE
  5
7A1
330
1F
100
AcDbEntity
  8
0
  6
Continuous
100
AcDbLine
 10
35.38891845699999
 20
102.3762776761
 30
0.0
 11
35.5332560243
 21
102.1262776761
 31
0.0
  0
LINE
  5
7A2
330
1F
100
AcDbEntity
  8
0
  6
Continuous
100
AcDbLine
 10
34.9559057551
 20
102.1262776761
 30
0.0
 11
35.10024332239999
 21
102.3762776761
 31
0.0
  0
LINE
  5
7A3
330
1F
100
AcDbEntity
  8
0
  6
Continuous
100
AcDbLine
 10
35.10024332239999
 20
102.3762776761
 30
0.0
 11
35.38891845699999
 21
102.3762776761
 31
0.0
  0
ARC
  5
7A4
330
1F
100
AcDbEntity
  8
0
  6
Continuous
100
AcDbCircle
 10
35.24458088969999
 20
102.1262776761
 30
0.0
 40
0.2495
100
AcDbArc
 50
119.9999999999999
 51
300.0
  0
ARC
  5
7A5
330
1F
100
AcDbEntity
  8
0
  6
Continuous
100
AcDbCircle
 10
35.24458088969999
 20
102.1262776761
 30
0.0
 40
0.2495
100
AcDbArc
 50
300.0
 51
119.9999999999999
  0
ARC
  5
7A6
330
1F
100
AcDbEntity
  8
0
  6
Continuous
100
AcDbCircle
 10
35.24458088969999
 20
102.1262776761
 30
0.0
 40
0.4185
100
AcDbArc
 50
180.0
 51
360.0
  0
ARC
  5
7A7
330
1F
100
AcDbEntity
  8
0
  6
Continuous
100
AcDbCircle
 10
35.24458088969999
 20
102.1262776761
 30
0.0
 40
0.4185
100
AcDbArc
 50
0.0
 51
180.0
  0
ARC
  5
7A8
330
1F
100
AcDbEntity
  8
0
  6
Continuous
100
AcDbCircle
 10
44.2445808897
 20
117.7162776761
 30
0.0
 40
0.4185
100
AcDbArc
 50
180.0
 51
360.0
  0
ARC
  5
7A9
330
1F
100
AcDbEntity
  8
0
  6
Continuous
100
AcDbCircle
 10
44.2445808897
 20
117.7162776761
 30
0.0
 40
0.4185
100
AcDbArc
 50
0.0
 51
180.0
  0
ARC
  5
7AA
330
1F
100
AcDbEntity
  8
0
  6
Continuous
100
AcDbCircle
 10
53.24458088970001
 20
102.1262776761
 30
0.0
 40
0.4185
100
AcDbArc
 50
180.0
 51
360.0
  0
ARC
  5
7AB
330
1F
100
AcDbEntity
  8
0
  6
Continuous
100
AcDbCircle
 10
53.24458088970001
 20
102.1262776761
 30
0.0
 40
0.4185
100
AcDbArc
 50
0.0
 51
180.0
  0
LINE
  5
7AC
330
1F
100
AcDbEntity
  8
0
  6
Continuous
100
AcDbLine
 10
59.2445808897
 20
100.3162776761
 30
0.0
 11
59.2445808897
 21
120.0662776761
 31
0.0
  0
LINE
  5
7AD
330
1F
100
AcDbEntity
  8
0
  6
Continuous
100
AcDbLine
 10
58.9945808897
 20
120.3162776761
 30
0.0
 11
29.49458088969999
 21
120.3162776761
 31
0.0
  0
ARC
  5
7AE
330
1F
100
AcDbEntity
  8
0
  6
Continuous
100
AcDbCircle
 10
58.9945808897
 20
120.0662776761
 30
0.0
 40
0.25
100
AcDbArc
 50
0.0
 51
7.414786527499999
  0
ARC
  5
7AF
330
1F
100
AcDbEntity
  8
0
  6
Continuous
100
AcDbCircle
 10
58.9945808897
 20
120.0662776761
 30
0.0
 40
0.25
100
AcDbArc
 50
7.414786527499999
 51
82.4841509296
  0
ARC
  5
7B0
330
1F
100
AcDbEntity
  8
0
  6
Continuous
100
AcDbCircle
 10
58.9945808897
 20
120.0662776761
 30
0.0
 40
0.25
100
AcDbArc
 50
82.4841509296
 51
90.0
  0
ARC
  5
7B1
330
1F
100
AcDbEntity
  8
0
  6
Continuous
100
AcDbCircle
 10
29.49458088969999
 20
120.0662776761
 30
0.0
 40
0.25
100
AcDbArc
 50
90.0
 51
97.4147865275
  0
ARC
  5
7B2
330
1F
100
AcDbEntity
  8
0
  6
Continuous
100
AcDbCircle
 10
29.49458088969999
 20
120.0662776761
 30
0.0
 40
0.25
100
AcDbArc
 50
97.4147865275
 51
172.4841509295999
  0
LINE
  5
7B3
330
1F
100
AcDbEntity
  8
0
  6
Continuous
100
AcDbLine
 10
58.9945808897
 20
100.0662776761
 30
0.0
 11
29.49458088969999
 21
100.0662776761
 31
0.0
  0
LINE
  5
7B4
330
1F
100
AcDbEntity
  8
0
  6
Continuous
100
AcDbLine
 10
29.24458088969999
 20
100.3162776761
 30
0.0
 11
29.24458088969999
 21
120.0662776761
 31
0.0
  0
ARC
  5
7B5
330
1F
100
AcDbEntity
  8
0
  6
Continuous
100
AcDbCircle
 10
58.9945808897
 20
120.0662776761
 30
0.0
 40
0.25
100
AcDbArc
 50
0.0
 51
90.0
  0
ARC
  5
7B6
330
1F
100
AcDbEntity
  8
0
  6
Continuous
100
AcDbCircle
 10
29.49458088969999
 20
120.0662776761
 30
0.0
 40
0.25
100
AcDbArc
 50
90.0
 51
180.0
  0
ARC
  5
7B7
330
1F
100
AcDbEntity
  8
0
  6
Continuous
100
AcDbCircle
 10
58.9945808897
 20
100.3162776761
 30
0.0
 40
0.25
100
AcDbArc
 50
270.0
 51
292.6032529786999
  0
ARC
  5
7B8
330
1F
100
AcDbEntity
  8
0
  6
Continuous
100
AcDbCircle
 10
58.9945808897
 20
100.3162776761
 30
0.0
 40
0.25
100
AcDbArc
 50
292.6032529786999
 51
352.6713552787999
  0
ARC
  5
7B9
330
1F
100
AcDbEntity
  8
0
  6
Continuous
100
AcDbCircle
 10
58.9945808897
 20
100.3162776761
 30
0.0
 40
0.25
100
AcDbArc
 50
352.6713552787999
 51
360.0
  0
ARC
  5
7BA
330
1F
100
AcDbEntity
  8
0
  6
Continuous
100
AcDbCircle
 10
58.9945808897
 20
100.3162776761
 30
0.0
 40
0.25
100
AcDbArc
 50
270.0
 51
360.0
  0
ARC
  5
7BB
330
1F
100
AcDbEntity
  8
0
  6
Continuous
100
AcDbCircle
 10
29.49458088969999
 20
100.3162776761
 30
0.0
 40
0.25
100
AcDbArc
 50
180.0
 51
270.0
  0
DIMENSION
  5
7BC
330
1F
100
AcDbEntity
  8
0
  6
Continuous
100
AcDbDimension
  2
*D2
 10
59.2445808897
 20
88.27333030570001
 30
0.0
 11
44.5350865006
 21
88.27333030570001
 31
0.0
 70
   160
 71
     5
 42
30.0
  3
DIMSTYLE_1
100
AcDbAlignedDimension
 13
29.24458088969999
 23
83.46188039700001
 33
0.0
 14
59.2445808897
 24
83.46188039700001
 34
0.0
100
AcDbRotatedDimension
1001
ACAD
1000
DSTYLE
1002
{
1070
     3
1000
\X
1070
   147
1040
1.0
1070
   170
1070
     1
1070
   171
1070
     1
1002
}
  0
DIMENSION
  5
7BD
330
1F
100
AcDbEntity
  8
0
  6
Continuous
100
AcDbDimension
  2
*D3
 10
127.51239580944
 20
66.35891743399999
 30
0.0
 11
132.6790624760999
 21
75.47891800569999
 31
0.0
 70
   160
 71
     5
 42
7.180000000000006
  3
DIMSTYLE_1
100
AcDbAlignedDimension
 13
117.6767242523
 23
73.538917434
 33
0.0
 14
117.6767242523
 24
66.35891743399999
 34
0.0
 50
270.0
100
AcDbRotatedDimension
1001
ACAD
1000
DSTYLE
1002
{
1070
     3
1000
\X
1070
   147
1040
1.0
1070
   170
1070
     1
1070
   171
1070
     1
1002
}
  0
DIMENSION
  5
7BE
330
1F
100
AcDbEntity
  8
0
  6
Continuous
100
AcDbDimension
  2
*D4
 10
117.4637612894
 20
86.25192433459998
 30
0.0
 11
124.6096303165
 21
86.25192433459998
 31
0.0
 70
   160
 71
     5
 42
5.130000000000009
  3
DIMSTYLE_1
100
AcDbAlignedDimension
 13
112.3337612894
 23
73.75188039699999
 33
0.0
 14
117.4637612894
 24
73.75188039699999
 34
0.0
100
AcDbRotatedDimension
1001
ACAD
1000
DSTYLE
1002
{
1070
     3
1000
\X
1070
   147
1040
1.0
1070
   170
1070
     1
1070
   171
1070
     1
1002
}
  0
DIMENSION
  5
7BF
330
1F
100
AcDbEntity
  8
0
  6
Continuous
100
AcDbDimension
  2
*D5
 10
127.5875225795
 20
30.368917434
 30
0.0
 11
127.5875225795
 21
48.8465282075
 31
0.0
 70
   160
 71
     5
 42
35.98999999999999
  3
DIMSTYLE_1
100
AcDbAlignedDimension
 13
117.6767242523
 23
66.35891743399999
 33
0.0
 14
119.8017242523
 24
30.368917434
 34
0.0
 50
270.0
100
AcDbRotatedDimension
1001
ACAD
1000
DSTYLE
1002
{
1070
     3
1000
\X
1070
   147
1040
1.0
1070
   170
1070
     1
1070
   171
1070
     1
1002
}
  0
DIMENSION
  5
7C0
330
1F
100
AcDbEntity
  8
0
  6
Continuous
100
AcDbDimension
  2
*D6
 10
71.4236420297
 20
30.368917434
 30
0.0
 11
71.4236420297
 21
60.5000412035
 31
0.0
 70
   160
 71
     5
 42
52.88
  3
DIMSTYLE_1
100
AcDbAlignedDimension
 13
59.4575438527
 23
83.248917434
 33
0.0
 14
58.0290939639
 24
30.368917434
 34
0.0
 50
270.0
100
AcDbRotatedDimension
1001
ACAD
1000
DSTYLE
1002
{
1070
     3
1000
\X
1070
   147
1040
1.0
1070
   170
1070
     1
1070
   171
1070
     1
1002
}
  0
DIMENSION
  5
7C1
330
1F
100
AcDbEntity
  8
0
  6
Continuous
100
AcDbDimension
  2
*D7
 10
62.31007512593336
 20
83.56291743399999
 30
0.0
 11
66.6279763605
 21
86.70185130310001
 31
0.0
 70
   160
 71
     5
 42
0.3140000000000072
  3
DIMSTYLE_1
100
AcDbAlignedDimension
 13
59.4575438527
 23
83.248917434
 33
0.0
 14
53.95704385270001
 24
83.56291743399999
 34
0.0
 50
90.0
100
AcDbRotatedDimension
1001
ACAD
1000
DSTYLE
1002
{
1070
     3
1000
\X
1070
   147
1040
1.0
1070
   170
1070
     1
1070
   171
1070
     1
1002
}
  0
DIMENSION
  5
7C3
330
1F
100
AcDbEntity
  8
0
  6
Continuous
100
AcDbDimension
  2
*D9
 10
112.3337612894
 20
90.41733659409999
 30
0.0
 11
95.64967532870001
 21
90.41733659409999
 31
0.0
 70
   160
 71
     5
 42
11.11999999999998
  3
DIMSTYLE_1
100
AcDbAlignedDimension
 13
101.2137612894
 23
83.46188039700001
 33
0.0
 14
112.3337612894
 24
73.75188039699999
 34
0.0
100
AcDbRotatedDimension
1001
ACAD
1000
DSTYLE
1002
{
1070
     3
1000
\X
1070
   147
1040
1.0
1070
   170
1070
     1
1070
   171
1070
     1
1002
}
  0
DIMENSION
  5
7C4
330
1F
100
AcDbEntity
  8
0
  6
Continuous
100
AcDbDimension
  2
*D10
 10
65.54614466730003
 20
100.0662776761
 30
0.0
 11
65.5461446673
 21
110.3730115172
 31
0.0
 70
   160
 71
     5
 42
20.24999999999999
  3
DIMSTYLE_1
100
AcDbAlignedDimension
 13
59.4575438527
 23
120.3162776761
 33
0.0
 14
59.4546134778
 24
100.0662776761
 34
0.0
 50
270.0
100
AcDbRotatedDimension
1001
ACAD
1000
DSTYLE
1002
{
1070
     3
1000
\X
1070
   147
1040
1.0
1070
   170
1070
     1
1070
   171
1070
     1
1002
}
  0
LINE
  5
7C5
330
1F
100
AcDbEntity
  8
0
  6
Continuous
100
AcDbLine
 10
158.4126424247999
 20
123.6940385233999
 30
0.0
 11
105.4867164989
 21
123.6940385233999
 31
0.0
  0
LINE
  5
7C6
330
1F
100
AcDbEntity
  8
0
  6
Continuous
100
AcDbLine
 10
158.3385683507
 20
123.6940385233999
 30
0.0
 11
158.3385683507
 21
114.4347792642
 31
0.0
  0
LINE
  5
7C7
330
1F
100
AcDbEntity
  8
0
  6
Continuous
100
AcDbLine
 10
158.3385683507
 20
121.8421866716
 30
0.0
 11
105.5607905729999
 21
121.8421866716
 31
0.0
  0
LINE
  5
7C8
330
1F
100
AcDbEntity
  8
0
  6
Continuous
100
AcDbLine
 10
158.3385683507
 20
119.9903348197
 30
0.0
 11
105.5607905729999
 21
119.9903348197
 31
0.0
  0
LINE
  5
7C9
330
1F
100
AcDbEntity
  8
0
  6
Continuous
100
AcDbLine
 10
158.3385683507
 20
118.1384829679
 30
0.0
 11
105.5607905729999
 21
118.1384829679
 31
0.0
  0
LINE
  5
7CA
330
1F
100
AcDbEntity
  8
0
  6
Continuous
100
AcDbLine
 10
158.3385683507
 20
116.286631116
 30
0.0
 11
105.5607905729999
 21
116.286631116
 31
0.0
  0
LINE
  5
7CB
330
1F
100
AcDbEntity
  8
0
  6
Continuous
100
AcDbLine
 10
158.4126424247999
 20
114.4347792642
 30
0.0
 11
105.4867164989
 21
114.4347792642
 31
0.0
  0
LINE
  5
7CC
330
1F
100
AcDbEntity
  8
0
  6
Continuous
100
AcDbLine
 10
150.0052350174
 20
121.8421866716
 30
0.0
 11
150.0052350174
 21
114.4347792642
 31
0.0
  0
LINE
  5
7CD
330
1F
100
AcDbEntity
  8
0
  6
Continuous
100
AcDbLine
 10
146.3015313137
 20
121.8421866716
 30
0.0
 11
146.3015313137
 21
114.4347792642
 31
0.0
  0
LINE
  5
7CE
330
1F
100
AcDbEntity
  8
0
  6
Continuous
100
AcDbLine
 10
138.8941239063
 20
121.8421866716
 30
0.0
 11
138.8941239063
 21
114.4347792642
 31
0.0
  0
LINE
  5
7CF
330
1F
100
AcDbEntity
  8
0
  6
Continuous
100
AcDbLine
 10
109.2644942767
 20
121.8421866716
 30
0.0
 11
109.2644942767
 21
114.4347792642
 31
0.0
  0
LINE
  5
7D0
330
1F
100
AcDbEntity
  8
0
  6
Continuous
100
AcDbLine
 10
105.5607905729999
 20
123.6940385233999
 30
0.0
 11
105.5607905729999
 21
114.4347792642
 31
0.0
  0
TEXT
  5
7D1
330
1F
100
AcDbEntity
  8
0
  6
Continuous
100
AcDbText
 10
128.8632597087999
 20
122.3051496345
 30
0.0
 40
0.9259259259
  1
REVISIONS
 41
0.8
 72
     1
 11
131.9496794618
 21
122.3051496345
 31
0.0
100
AcDbText
  0
TEXT
  5
7D2
330
1F
100
AcDbEntity
  8
0
  6
Continuous
100
AcDbText
 10
150.5607905730899
 20
120.4532977826999
 30
0.0
 40
0.9259259259
  1
APPROVED DATE
 41
0.6
 72
     1
 11
154.1719016841
 21
120.4532977826999
 31
0.0
100
AcDbText
  0
TEXT
  5
7D3
330
1F
100
AcDbEntity
  8
0
  6
Continuous
100
AcDbText
 10
147.4126424247799
 20
120.4532977826999
 30
0.0
 40
0.9259259259
  1
CHK
 41
0.6
 72
     1
 11
148.1533831654999
 21
120.4532977826999
 31
0.0
100
AcDbText
  0
TEXT
  5
7D4
330
1F
100
AcDbEntity
  8
0
  6
Continuous
100
AcDbText
 10
140.4681979804299
 20
120.4532977826999
 30
0.0
 40
0.9259259259
  1
EFF DATE
 41
0.6
 72
     1
 11
142.5978276099999
 21
120.4532977826999
 31
0.0
100
AcDbText
  0
TEXT
  5
7D5
330
1F
100
AcDbEntity
  8
0
  6
Continuous
100
AcDbText
 10
121.3015313137999
 20
120.4532977826999
 30
0.0
 40
0.9259259259
  1
DESCRIPTION
 41
0.6
 72
     1
 11
124.0793090915
 21
120.4532977826999
 31
0.0
100
AcDbText
  0
TEXT
  5
7D6
330
1F
100
AcDbEntity
  8
0
  6
Continuous
100
AcDbText
 10
106.57930909149
 20
120.4532977826999
 30
0.0
 40
0.9259259259
  1
REV
 41
0.6
 72
     1
 11
107.4126424247999
 21
120.4532977826999
 31
0.0
100
AcDbText
  0
TEXT
  5
7D7
330
1F
100
AcDbEntity
  8
0
  6
Continuous
100
AcDbText
 10
153.0916547705266
 20
118.4857051900999
 30
0.0
 40
1.1574074074
  1
B.H.
 41
0.8
 72
     1
 11
154.1719016841
 21
118.4857051900999
 31
0.0
100
AcDbText
  0
TEXT
  5
7D8
330
1F
100
AcDbEntity
  8
0
  6
Continuous
100
AcDbText
 10
139.2027658816266
 20
118.4857051900999
 30
0.0
 40
1.1574074074
  1
09-22-06
 41
0.8
 72
     1
 11
142.5978276099999
 21
118.4857051900999
 31
0.0
100
AcDbText
  0
TEXT
  5
7D9
330
1F
100
AcDbEntity
  8
0
  6
Continuous
100
AcDbText
 10
109.7274572395999
 20
118.4857051900999
 30
0.0
 40
1.1574074074
  1
RELEASE PER ECO 7444 JD
 41
0.8
100
AcDbText
  0
TEXT
  5
7DA
330
1F
100
AcDbEntity
  8
0
  6
Continuous
100
AcDbText
 10
107.1040004494933
 20
118.4857051900999
 30
0.0
 40
1.1574074074
  1
A
 41
0.8
 72
     1
 11
107.4126424247999
 21
118.4857051900999
 31
0.0
100
AcDbText
  0
LINE
  5
7DB
330
1F
100
AcDbEntity
  8
DRW_FORMAT
  6
Continuous
100
AcDbLine
 10
158.2316935707
 20
2.371041236399999
 30
0.0
 11
85.913610782
 21
2.371041236399999
 31
0.0
  0
LINE
  5
7DC
330
1F
100
AcDbEntity
  8
DRW_FORMAT
  6
Continuous
100
AcDbLine
 10
158.1837632875
 20
2.371041236399999
 30
0.0
 11
158.1837632875
 21
21.3525227179
 31
0.0
  0
LINE
  5
7DD
330
1F
100
AcDbEntity
  8
DRW_FORMAT
  6
Continuous
100
AcDbLine
 10
158.1837632875
 20
4.2228930882
 30
0.0
 11
85.96154106530001
 21
4.2228930882
 31
0.0
  0
LINE
  5
7DE
330
1F
100
AcDbEntity
  8
DRW_FORMAT
  6
Continuous
100
AcDbLine
 10
121.1467262505
 20
7.000670866
 30
0.0
 11
102.6282077319
 21
7.000670866
 31
0.0
  0
LINE
  5
7DF
330
1F
100
AcDbEntity
  8
DRW_FORMAT
  6
Continuous
100
AcDbLine
 10
158.1837632875
 20
7.9265967919
 30
0.0
 11
121.1467262505
 21
7.9265967919
 31
0.0
  0
LINE
  5
7E0
330
1F
100
AcDbEntity
  8
DRW_FORMAT
  6
Continuous
100
AcDbLine
 10
102.6282077319
 20
7.9265967919
 30
0.0
 11
85.96154106530001
 21
7.9265967919
 31
0.0
  0
LINE
  5
7E1
330
1F
100
AcDbEntity
  8
DRW_FORMAT
  6
Continuous
100
AcDbLine
 10
121.1467262505
 20
9.778448643799999
 30
0.0
 11
102.6282077319
 21
9.778448643799999
 31
0.0
  0
LINE
  5
7E2
330
1F
100
AcDbEntity
  8
DRW_FORMAT
  6
Continuous
100
AcDbLine
 10
102.6282077319
 20
11.6303004956
 30
0.0
 11
85.96154106530001
 21
11.6303004956
 31
0.0
  0
LINE
  5
7E3
330
1F
100
AcDbEntity
  8
DRW_FORMAT
  6
Continuous
100
AcDbLine
 10
121.1467262505
 20
12.5562264216
 30
0.0
 11
102.6282077319
 21
12.5562264216
 31
0.0
  0
LINE
  5
7E4
330
1F
100
AcDbEntity
  8
DRW_FORMAT
  6
Continuous
100
AcDbLine
 10
121.1467262505
 20
15.3340041993
 30
0.0
 11
102.6282077319
 21
15.3340041993
 31
0.0
  0
LINE
  5
7E5
330
1F
100
AcDbEntity
  8
DRW_FORMAT
  6
Continuous
100
AcDbLine
 10
158.1837632875
 20
16.25993012529999
 30
0.0
 11
121.1467262505
 21
16.25993012529999
 31
0.0
  0
LINE
  5
7E6
330
1F
100
AcDbEntity
  8
DRW_FORMAT
  6
Continuous
100
AcDbLine
 10
121.1467262505
 20
17.6488190142
 30
0.0
 11
102.6282077319
 21
17.6488190142
 31
0.0
  0
LINE
  5
7E7
330
1F
100
AcDbEntity
  8
DRW_FORMAT
  6
Continuous
100
AcDbLine
 10
158.2316935707
 20
21.3525227179
 30
0.0
 11
85.913610782
 21
21.3525227179
 31
0.0
  0
LINE
  5
7E8
330
1F
100
AcDbEntity
  8
DRW_FORMAT
  6
Continuous
100
AcDbLine
 10
154.4800595837999
 20
4.2228930882
 30
0.0
 11
154.4800595837999
 21
7.9265967919
 31
0.0
  0
LINE
  5
7E9
330
1F
100
AcDbEntity
  8
DRW_FORMAT
  6
Continuous
100
AcDbLine
 10
147.9985781022999
 20
2.371041236399999
 30
0.0
 11
147.9985781022999
 21
4.2228930882
 31
0.0
  0
LINE
  5
7EA
330
1F
100
AcDbEntity
  8
DRW_FORMAT
  6
Continuous
100
AcDbLine
 10
132.2578373615999
 20
4.2228930882
 30
0.0
 11
132.2578373615999
 21
7.9265967919
 31
0.0
  0
LINE
  5
7EB
330
1F
100
AcDbEntity
  8
DRW_FORMAT
  6
Continuous
100
AcDbLine
 10
128.5541336579
 20
2.371041236399999
 30
0.0
 11
128.5541336579
 21
4.2228930882
 31
0.0
  0
LINE
  5
7EC
330
1F
100
AcDbEntity
  8
DRW_FORMAT
  6
Continuous
100
AcDbLine
 10
124.8504299541999
 20
4.2228930882
 30
0.0
 11
124.8504299541999
 21
7.9265967919
 31
0.0
  0
LINE
  5
7ED
330
1F
100
AcDbEntity
  8
DRW_FORMAT
  6
Continuous
100
AcDbLine
 10
121.1467262505
 20
2.371041236399999
 30
0.0
 11
121.1467262505
 21
21.3525227179
 31
0.0
  0
LINE
  5
7EE
330
1F
100
AcDbEntity
  8
DRW_FORMAT
  6
Continuous
100
AcDbLine
 10
115.5911706949
 20
4.2228930882
 30
0.0
 11
115.5911706949
 21
17.6488190142
 31
0.0
  0
LINE
  5
7EF
330
1F
100
AcDbEntity
  8
DRW_FORMAT
  6
Continuous
100
AcDbLine
 10
102.6282077319
 20
2.371041236399999
 30
0.0
 11
102.6282077319
 21
21.3525227179
 31
0.0
  0
LINE
  5
7F0
330
1F
100
AcDbEntity
  8
DRW_FORMAT
  6
Continuous
100
AcDbLine
 10
85.96154106530001
 20
2.371041236399999
 30
0.0
 11
85.96154106530001
 21
21.3525227179
 31
0.0
  0
MTEXT
  5
7F1
330
1F
100
AcDbEntity
  8
DRW_FORMAT
  6
Continuous
100
AcDbMText
 10
154.4800595837999
 20
3.759930125299999
 30
0.0
 40
0.9259259259
 41
4.4444444444
 71
     2
 72
     1
  1
1 of 1
 73
     1
 44
1.0
  0
MTEXT
  5
7F2
330
1F
100
AcDbEntity
  8
DRW_FORMAT
  6
Continuous
100
AcDbMText
 10
138.2763558801
 20
3.667337532699999
 30
0.0
 40
0.7407407406999999
 41
10.0740740741
 71
     2
 72
     1
  1
RD-000406-01.A.2+
 73
     1
 44
1.0
  0
TEXT
  5
7F3
330
1F
100
AcDbEntity
  8
DRW_FORMAT
  6
Continuous
100
AcDbText
 10
125.4985781023799
 20
2.8340041993
 30
0.0
 40
0.9259259259
  1
0.135
 41
0.8
 72
     2
 11
128.0911706949
 21
2.8340041993
 31
0.0
100
AcDbText
  0
MTEXT
  5
7F4
330
1F
100
AcDbEntity
  8
DRW_FORMAT
  6
Continuous
100
AcDbMText
 10
111.8874669912
 20
3.667337532699999
 30
0.0
 40
0.7407407406999999
 41
13.6296296296
 71
     2
 72
     1
  1
WP-043150-00.main.A1.0+
 73
     1
 44
1.0
  0
TEXT
  5
7F5
330
1F
100
AcDbEntity
  8
DRW_FORMAT
  6
Continuous
100
AcDbText
 10
87.01092378152001
 20
2.8340041993
 30
0.0
 40
0.9259259259
  1
DO NOT SCALE DRAWING
 41
0.8
 72
     1
 11
94.2948743986
 21
2.8340041993
 31
0.0
100
AcDbText
  0
TEXT
  5
7F6
330
1F
100
AcDbEntity
  8
DRW_FORMAT
  6
Continuous
100
AcDbText
 10
148.4615410653
 20
3.426596791899999
 30
0.0
 40
0.6666666667
  1
SHEET
 41
0.8
100
AcDbText
  0
TEXT
  5
7F7
330
1F
100
AcDbEntity
  8
DRW_FORMAT
  6
Continuous
100
AcDbText
 10
121.6096892134
 20
3.426596791899999
 30
0.0
 40
0.6666666667
  1
SCALE
 41
0.8
100
AcDbText
  0
TEXT
  5
7F8
330
1F
100
AcDbEntity
  8
DRW_FORMAT
  6
Continuous
100
AcDbText
 10
156.0232694602933
 20
5.0330782734
 30
0.0
 40
1.1574074074
  1
A
 41
0.8
 72
     1
 11
156.3319114356
 21
5.0330782734
 31
0.0
100
AcDbText
  0
TEXT
  5
7F9
330
1F
100
AcDbEntity
  8
DRW_FORMAT
  6
Continuous
100
AcDbText
 10
138.50783736162
 20
5.0330782734
 30
0.0
 40
1.1574074074
  1
RD-000406-01
 41
0.8
 72
     1
 11
143.3689484727
 21
5.0330782734
 31
0.0
100
AcDbText
  0
TEXT
  5
7FA
330
1F
100
AcDbEntity
  8
DRW_FORMAT
  6
Continuous
100
AcDbText
 10
126.2640102009999
 20
4.801596791899999
 30
0.0
 40
1.4814814815
  1
00PW4
 41
0.8
 72
     2
 11
131.7948743986
 21
4.801596791899999
 31
0.0
100
AcDbText
  0
TEXT
  5
7FB
330
1F
100
AcDbEntity
  8
DRW_FORMAT
  6
Continuous
100
AcDbText
 10
122.6035163739
 20
4.871041236399999
 30
0.0
 40
1.4814814815
  1
C
 41
0.8
 72
     1
 11
122.9985781022999
 21
4.871041236399999
 31
0.0
100
AcDbText
  0
MTEXT
  5
7FC
330
1F
100
AcDbEntity
  8
DRW_FORMAT
  6
Continuous
100
AcDbMText
 10
118.3689484727
 20
6.074744940099999
 30
0.0
 40
0.9259259259
 41
5.555555555599999
 71
     2
 72
     1
  1
19-Sep-06 
  7
TEXTSTYLE_1
 73
     1
 44
1.0
  0
TEXT
  5
7FD
330
1F
100
AcDbEntity
  8
DRW_FORMAT
  6
Continuous
100
AcDbText
 10
105.40598550972
 20
4.5701153104
 30
0.0
 40
1.1574074074
  1
D. DELARM
 41
0.8
 72
     1
 11
109.1096892134
 21
4.5701153104
 31
0.0
100
AcDbText
  0
TEXT
  5
7FE
330
1F
100
AcDbEntity
  8
DRW_FORMAT
  6
Continuous
100
AcDbText
 10
92.59734353441334
 20
5.0330782734
 30
0.0
 40
1.1574074074
  1
NONE
 41
0.8
 72
     1
 11
94.2948743986
 21
5.0330782734
 31
0.0
100
AcDbText
  0
TEXT
  5
7FF
330
1F
100
AcDbEntity
  8
DRW_FORMAT
  6
Continuous
100
AcDbText
 10
103.0911706948999
 20
6.2043745697
 30
0.0
 40
0.6666666667
  1
ISSUED
 41
0.8
100
AcDbText
  0
TEXT
  5
800
330
1F
100
AcDbEntity
  8
DRW_FORMAT
  6
Continuous
100
AcDbText
 10
155.5319114355599
 20
7.130300495599999
 30
0.0
 40
0.6666666667
  1
REV
 41
0.8
 72
     1
 11
156.3319114356
 21
7.130300495599999
 31
0.0
100
AcDbText
  0
TEXT
  5
801
330
1F
100
AcDbEntity
  8
DRW_FORMAT
  6
Continuous
100
AcDbText
 10
132.7208003244999
 20
7.130300495599999
 30
0.0
 40
0.6666666667
  1
DWG NO.
 41
0.8
100
AcDbText
  0
TEXT
  5
802
330
1F
100
AcDbEntity
  8
DRW_FORMAT
  6
Continuous
100
AcDbText
 10
125.3133929170999
 20
7.130300495599999
 30
0.0
 40
0.6666666667
  1
CAGE CODE
 41
0.8
100
AcDbText
  0
TEXT
  5
803
330
1F
100
AcDbEntity
  8
DRW_FORMAT
  6
Continuous
100
AcDbText
 10
122.1096892133666
 20
7.130300495599999
 30
0.0
 40
0.6666666667
  1
SIZE
 41
0.8
 72
     1
 11
122.9985781022999
 21
7.130300495599999
 31
0.0
100
AcDbText
  0
MTEXT
  5
804
330
1F
100
AcDbEntity
  8
DRW_FORMAT
  6
Continuous
100
AcDbMText
 10
118.3689484727
 20
8.852522717899999
 30
0.0
 40
0.9259259259
 41
5.555555555599999
 71
     2
 72
     1
  1
19-Sep-06 
  7
TEXTSTYLE_1
 73
     1
 44
1.0
  0
TEXT
  5
805
330
1F
100
AcDbEntity
  8
DRW_FORMAT
  6
Continuous
100
AcDbText
 10
105.5603064973733
 20
7.3478930882
 30
0.0
 40
1.1574074074
  1
A. RUTKIN
 41
0.8
 72
     1
 11
109.1096892134
 21
7.3478930882
 31
0.0
100
AcDbText
  0
TEXT
  5
806
330
1F
100
AcDbEntity
  8
DRW_FORMAT
  6
Continuous
100
AcDbText
 10
86.42450402819999
 20
6.681226421599999
 30
0.0
 40
0.6666666667
  1
FINISH
 41
0.8
100
AcDbText
  0
MTEXT
  5
807
330
1F
100
AcDbEntity
  8
DRW_FORMAT
  6
Continuous
100
AcDbMText
 10
139.6652447689999
 20
15.0562264216
 30
0.0
 40
1.4814814815
 41
30.8148148148
 71
     2
 72
     1
  1
SPEAKER, FINISHED, LF-4315\P \P 
 73
     1
 44
1.0
  0
TEXT
  5
808
330
1F
100
AcDbEntity
  8
DRW_FORMAT
  6
Continuous
100
AcDbText
 10
92.59734353441334
 20
8.736781977099999
 30
0.0
 40
1.1574074074
  1
NONE
 41
0.8
 72
     1
 11
94.2948743986
 21
8.736781977099999
 31
0.0
100
AcDbText
  0
TEXT
  5
809
330
1F
100
AcDbEntity
  8
DRW_FORMAT
  6
Continuous
100
AcDbText
 10
103.0911706948999
 20
8.982152347499999
 30
0.0
 40
0.6666666667
  1
MFG ENG
 41
0.8
100
AcDbText
  0
TEXT
  5
80A
330
1F
100
AcDbEntity
  8
DRW_FORMAT
  6
Continuous
100
AcDbText
 10
116.100429954245
 20
10.7043745697
 30
0.0
 40
0.9259259259
  1
19-Sep-06
 41
0.6
 72
     1
 11
118.3689484727
 21
10.7043745697
 31
0.0
100
AcDbText
  0
TEXT
  5
80B
330
1F
100
AcDbEntity
  8
DRW_FORMAT
  6
Continuous
100
AcDbText
 10
104.94302254676
 20
10.125670866
 30
0.0
 40
1.1574074074
  1
B. HAWKINS
 41
0.8
 72
     1
 11
109.1096892134
 21
10.125670866
 31
0.0
100
AcDbText
  0
TEXT
  5
80C
330
1F
100
AcDbEntity
  8
DRW_FORMAT
  6
Continuous
100
AcDbText
 10
86.42450402819999
 20
10.3849301253
 30
0.0
 40
0.6666666667
  1
MATERIAL
 41
0.8
100
AcDbText
  0
TEXT
  5
80D
330
1F
100
AcDbEntity
  8
DRW_FORMAT
  6
Continuous
100
AcDbText
 10
103.0911706948999
 20
11.75993012529999
 30
0.0
 40
0.6666666667
  1
CHECKED
 41
0.8
100
AcDbText
  0
TEXT
  5
80E
330
1F
100
AcDbEntity
  8
DRW_FORMAT
  6
Continuous
100
AcDbText
 10
88.60598550942667
 20
12.2090041993
 30
0.0
 40
0.6666666667
  1
DEBURR EDGES .010 R MAX
 41
0.8
 72
     1
 11
94.2948743986
 21
12.2090041993
 31
0.0
100
AcDbText
  0
TEXT
  5
80F
330
1F
100
AcDbEntity
  8
DRW_FORMAT
  6
Continuous
100
AcDbText
 10
116.100429954245
 20
13.4821523475
 30
0.0
 40
0.9259259259
  1
19-Sep-06
 41
0.6
 72
     1
 11
118.3689484727
 21
13.4821523475
 31
0.0
100
AcDbText
  0
TEXT
  5
810
330
1F
100
AcDbEntity
  8
DRW_FORMAT
  6
Continuous
100
AcDbText
 10
105.40598550972
 20
12.9034486438
 30
0.0
 40
1.1574074074
  1
J. DELARM
 41
0.8
 72
     1
 11
109.1096892134
 21
12.9034486438
 31
0.0
100
AcDbText
  0
TEXT
  5
811
330
1F
100
AcDbEntity
  8
DRW_FORMAT
  6
Continuous
100
AcDbText
 10
98.85968921337267
 20
14.06085605119999
 30
0.0
 40
0.6666666667
  1
%%p1/2
 41
0.8916666667000001
 72
     1
 11
99.8504299542
 21
14.06085605119999
 31
0.0
100
AcDbText
  0
TEXT
  5
812
330
1F
100
AcDbEntity
  8
DRW_FORMAT
  6
Continuous
100
AcDbText
 10
91.68376328738665
 20
14.06085605119999
 30
0.0
 40
0.6666666667
  1
.XXX 
 41
0.8
 72
     1
 11
92.83931884299999
 21
14.06085605119999
 31
0.0
100
AcDbText
  0
TEXT
  5
813
330
1F
100
AcDbEntity
  8
DRW_FORMAT
  6
Continuous
100
AcDbText
 10
94.65783736151815
 20
14.06085605119999
 30
0.0
 40
0.6666666667
  1
%%p.010
 41
0.8733333332999999
 72
     1
 11
95.62820773190001
 21
14.06085605119999
 31
0.0
100
AcDbText
  0
TEXT
  5
814
330
1F
100
AcDbEntity
  8
DRW_FORMAT
  6
Continuous
100
AcDbText
 10
86.66154106526667
 20
14.06085605119999
 30
0.0
 40
0.6666666667
  1
.XX 
 41
0.8
 72
     1
 11
87.5504299542
 21
14.06085605119999
 31
0.0
100
AcDbText
  0
TEXT
  5
815
330
1F
100
AcDbEntity
  8
DRW_FORMAT
  6
Continuous
100
AcDbText
 10
88.96385587999677
 20
14.06085605119999
 30
0.0
 40
0.6666666667
  1
%%p.02
 41
0.8916666667000001
 72
     1
 11
89.80598550969999
 21
14.06085605119999
 31
0.0
100
AcDbText
  0
TEXT
  5
816
330
1F
100
AcDbEntity
  8
DRW_FORMAT
  6
Continuous
100
AcDbText
 10
103.0911706948999
 20
14.537707903
 30
0.0
 40
0.6666666667
  1
DRAWN
 41
0.8
100
AcDbText
  0
TEXT
  5
817
330
1F
100
AcDbEntity
  8
DRW_FORMAT
  6
Continuous
100
AcDbText
 10
117.3911706948733
 20
16.15807827339999
 30
0.0
 40
0.6666666667
  1
DATE
 41
0.8
 72
     1
 11
118.3689484727
 21
16.15807827339999
 31
0.0
100
AcDbText
  0
TEXT
  5
818
330
1F
100
AcDbEntity
  8
DRW_FORMAT
  6
Continuous
100
AcDbText
 10
106.70968921328
 20
16.15807827339999
 30
0.0
 40
0.6666666667
  1
APPROVALS
 41
0.8
 72
     1
 11
109.1096892134
 21
16.15807827339999
 31
0.0
100
AcDbText
  0
TEXT
  5
819
330
1F
100
AcDbEntity
  8
DRW_FORMAT
  6
Continuous
100
AcDbText
 10
98.33931884301334
 20
15.463633829
 30
0.0
 40
0.6666666667
  1
ANGLES
 41
0.8
 72
     1
 11
99.8504299542
 21
15.463633829
 31
0.0
100
AcDbText
  0
TEXT
  5
81A
330
1F
100
AcDbEntity
  8
DRW_FORMAT
  6
Continuous
100
AcDbText
 10
92.33931884294667
 20
15.463633829
 30
0.0
 40
0.6666666667
  1
DECIMALS
 41
0.8
 72
     1
 11
94.2948743986
 21
15.463633829
 31
0.0
100
AcDbText
  0
TEXT
  5
81B
330
1F
100
AcDbEntity
  8
DRW_FORMAT
  6
Continuous
100
AcDbText
 10
86.78376328734666
 20
15.463633829
 30
0.0
 40
0.6666666667
  1
DECIMALS
 41
0.8
 72
     1
 11
88.73931884299999
 21
15.463633829
 31
0.0
100
AcDbText
  0
TEXT
  5
81C
330
1F
100
AcDbEntity
  8
DRW_FORMAT
  6
Continuous
100
AcDbText
 10
134.5726521763999
 20
16.838633829
 30
0.0
 40
0.9259259259
  1
COSTA MESA, CA  92626
 41
0.8
100
AcDbText
  0
TEXT
  5
81D
330
1F
100
AcDbEntity
  8
DRW_FORMAT
  6
Continuous
100
AcDbText
 10
90.56154106508001
 20
16.838633829
 30
0.0
 40
0.6666666667
  1
TOLERANCES ARE:
 41
0.8
 72
     1
 11
94.2948743986
 21
16.838633829
 31
0.0
100
AcDbText
  0
TEXT
  5
81E
330
1F
100
AcDbEntity
  8
DRW_FORMAT
  6
Continuous
100
AcDbText
 10
134.5726521763999
 20
18.2275227179
 30
0.0
 40
0.9259259259
  1
1675 MACARTHUR BOULEVARD
 41
0.8
100
AcDbText
  0
TEXT
  5
81F
330
1F
100
AcDbEntity
  8
DRW_FORMAT
  6
Continuous
100
AcDbText
 10
134.5726521763999
 20
19.6164116067
 30
0.0
 40
1.1574074074
  1
QSC AUDIO PRODUCTS, INC.
 41
0.8
100
AcDbText
  0
TEXT
  5
820
330
1F
100
AcDbEntity
  8
DRW_FORMAT
  6
Continuous
100
AcDbText
 10
103.0911706948999
 20
20.5423375327
 30
0.0
 40
0.6666666667
  1
CONTRACT NO.
 41
0.8
100
AcDbText
  0
MTEXT
  5
821
330
1F
100
AcDbEntity
  8
DRW_FORMAT
  6
Continuous
100
AcDbMText
 10
94.2948743986
 20
20.31085605119999
 30
0.0
 40
0.6666666667
 41
13.8666666667
 71
     2
 72
     1
  1
UNLESS OTHERWISE SPECIFIED\PDIMENSIONS ARE IN INCHES.
 73
     1
 44
1.0
  0
LINE
  5
822
330
1F
100
AcDbEntity
  8
DRW_FORMAT
  6
Continuous
100
AcDbLine
 10
158.1684461106
 20
48.7716055201
 30
0.0
 11
158.1684461106
 21
20.8979671759
 31
0.0
  0
LINE
  5
823
330
1F
100
AcDbEntity
  8
DRW_FORMAT
  6
Continuous
100
AcDbLine
 10
158.1684461106
 20
48.72367523689999
 30
0.0
 11
160.9462238884
 21
48.72367523689999
 31
0.0
  0
LINE
  5
824
330
1F
100
AcDbEntity
  8
DRW_FORMAT
  6
Continuous
100
AcDbLine
 10
160.9462238884
 20
48.7716055201
 30
0.0
 11
160.9462238884
 21
20.8979671759
 31
0.0
  0
LINE
  5
825
330
1F
100
AcDbEntity
  8
DRW_FORMAT
  6
Continuous
100
AcDbLine
 10
158.1684461106
 20
28.3533048665
 30
0.0
 11
160.9462238884
 21
28.3533048665
 31
0.0
  0
LINE
  5
826
330
1F
100
AcDbEntity
  8
DRW_FORMAT
  6
Continuous
100
AcDbLine
 10
158.1684461106
 20
24.6496011628
 30
0.0
 11
160.9462238884
 21
24.6496011628
 31
0.0
  0
LINE
  5
827
330
1F
100
AcDbEntity
  8
DRW_FORMAT
  6
Continuous
100
AcDbLine
 10
158.1684461106
 20
20.9458974591
 30
0.0
 11
160.9462238884
 21
20.9458974591
 31
0.0
  0
TEXT
  5
828
330
1F
100
AcDbEntity
  8
DRW_FORMAT
  6
Continuous
100
AcDbText
 10
158.4277053698
 20
44.13849005155999
 30
0.0
 40
1.333333333299999
  1
RD-000406-01
 50
270.0
 41
0.8
 72
     1
 11
158.4277053698
 21
38.5384900517
 31
0.0
100
AcDbText
  0
TEXT
  5
829
330
1F
100
AcDbEntity
  8
DRW_FORMAT
  6
Continuous
100
AcDbText
 10
158.6314090735
 20
26.62490980481999
 30
0.0
 40
0.9259259259
  1
1
 50
270.0
 41
0.8
 72
     1
 11
158.6314090735
 21
26.50145301469999
 31
0.0
100
AcDbText
  0
TEXT
  5
82A
330
1F
100
AcDbEntity
  8
DRW_FORMAT
  6
Continuous
100
AcDbText
 10
158.5156683327999
 20
23.10639128630666
 30
0.0
 40
1.1574074074
  1
A
 50
270.0
 41
0.8
 72
     1
 11
158.5156683327999
 21
22.79774931099999
 31
0.0
100
AcDbText
  0
TEXT
  5
82B
330
1F
100
AcDbEntity
  8
DRW_FORMAT
  6
Continuous
100
AcDbText
 10
160.1499275921
 20
48.26071227399999
 30
0.0
 40
0.6666666667
  1
DWG NO.
 50
270.0
 41
0.8
100
AcDbText
  0
TEXT
  5
82C
330
1F
100
AcDbEntity
  8
DRW_FORMAT
  6
Continuous
100
AcDbText
 10
160.1499275921
 20
26.94589745916666
 30
0.0
 40
0.6666666667
  1
SH
 50
270.0
 41
0.8
 72
     1
 11
160.1499275921
 21
26.50145301469999
 31
0.0
100
AcDbText
  0
TEXT
  5
82D
330
1F
100
AcDbEntity
  8
DRW_FORMAT
  6
Continuous
100
AcDbText
 10
160.1499275921
 20
23.59774931104
 30
0.0
 40
0.6666666667
  1
REV
 50
270.0
 41
0.8
 72
     1
 11
160.1499275921
 21
22.79774931099999
 31
0.0
100
AcDbText
  0
TEXT
  5
82E
330
1F
100
AcDbEntity
  8
0
  6
Continuous
100
AcDbText
 10
6.7645003494
 20
8.3355171209
 30
0.0
 40
1.1574074074
  1
2. TOLERANCES (INCHES): .XX %%p .13, ANGLES: %%p 1%%d.
 41
0.8125
100
AcDbText
  0
TEXT
  5
82F
330
1F
100
AcDbEntity
  8
0
  6
Continuous
100
AcDbText
 10
6.7645003494
 20
6.5994060098
 30
0.0
 40
1.1574074074
  1
1. NET WEIGHT APPROX. 260 LBS (118 KG).
 41
0.8
100
AcDbText
  0
TEXT
  5
830
330
1F
100
AcDbEntity
  8
0
  6
Continuous
100
AcDbText
 10
6.7645003494
 20
4.8632948987
 30
0.0
 40
1.1574074074
  1
NOTE: UNLESS OTHERWISE SPECIFIED
 41
0.8
100
AcDbText
  0
TEXT
  5
831
330
1F
100
AcDbEntity
  8
0
  6
Continuous
100
AcDbText
 10
41.355695318
 20
94.98515024459999
 30
0.0
 40
1.8518518519
  1
TOP
 41
0.8
100
AcDbText
  0
TEXT
  5
832
330
1F
100
AcDbEntity
  8
0
  6
Continuous
100
AcDbText
 10
40.8368273934
 20
25.28389238289999
 30
0.0
 40
1.8518518519
  1
FRONT
 41
0.8
100
AcDbText
  0
TEXT
  5
833
330
1F
100
AcDbEntity
  8
0
  6
Continuous
100
AcDbText
 10
108.462613557
 20
25.4568483578
 30
0.0
 40
1.8518518519
  1
RIGHT
 41
0.8
100
AcDbText
  0
TEXT
  5
834
330
1F
100
AcDbEntity
  8
0
  6
Continuous
100
AcDbText
 10
113.782547416
 20
8.8884617435
 30
0.0
 40
0.6666666667
  1
MKT
 41
0.8
100
AcDbText
  0
TEXT
  5
839
330
1F
100
AcDbEntity
  8
0
  6
Continuous
100
AcDbText
 10
65.1724208968
 20
26.716948272
 30
0.0
 40
1.1574074074
  1
.75
 41
0.8
100
AcDbText
  0
TEXT
  5
83A
330
1F
100
AcDbEntity
  8
0
  6
Continuous
100
AcDbText
 10
66.09834682270001
 20
24.9808371609
 30
0.0
 40
1.1574074074
  1
19,1
 41
0.8
100
AcDbText
  0
TEXT
  5
83B
330
1F
100
AcDbEntity
  8
0
  6
Continuous
100
AcDbText
 10
65.1724208968
 20
24.9808371609
 30
0.0
 40
1.1574074074
  1
[
 41
0.8
100
AcDbText
  0
TEXT
  5
83C
330
1F
100
AcDbEntity
  8
0
  6
Continuous
100
AcDbText
 10
68.89123357995014
 20
24.9808371609
 30
0.0
 40
1.1574074074
  1
]
 41
0.8
100
AcDbText
  0
LINE
  5
83D
330
1F
100
AcDbEntity
  8
0
  6
Continuous
100
AcDbLine
 10
58.1727649
 20
30.368917434
 30
0.0
 11
64.2464949708
 21
30.368917434
 31
0.0
  0
LINE
  5
83E
330
1F
100
AcDbEntity
  8
0
  6
Continuous
100
AcDbLine
 10
59.4575438527
 20
31.118917434
 30
0.0
 11
64.2464949708
 21
31.118917434
 31
0.0
  0
LINE
  5
83F
330
1F
100
AcDbEntity
  8
0
  6
Continuous
100
AcDbLine
 10
63.32056904489999
 20
30.368917434
 30
0.0
 11
63.32056904489999
 21
27.2956519757
 31
0.0
  0
LINE
  5
840
330
1F
100
AcDbEntity
  8
0
  6
Continuous
100
AcDbLine
 10
63.32056904489999
 20
27.2956519757
 30
0.0
 11
64.5937171931
 21
27.2956519757
 31
0.0
  0
LINE
  5
841
330
1F
100
AcDbEntity
  8
0
  6
Continuous
100
AcDbLine
 10
63.32056904489999
 20
31.118917434
 30
0.0
 11
63.32056904489999
 21
34.8226211377
 31
0.0
  0
INSERT
  5
842
330
1F
100
AcDbEntity
  8
0
  6
Continuous
100
AcDbBlockReference
  2
_CLOSED
 10
63.32056904489999
 20
30.368917434
 30
0.0
 41
1.388889
 42
1.388889
 43
1.388889
 50
90.0
  0
INSERT
  5
843
330
1F
100
AcDbEntity
  8
0
  6
Continuous
100
AcDbBlockReference
  2
_CLOSED
 10
63.32056904489999
 20
31.118917434
 30
0.0
 41
1.388889
 42
1.388889
 43
1.388889
 50
270.0
  0
ENDSEC
  0
SECTION
  2
OBJECTS
  0
DICTIONARY
  5
C
330
0
100
AcDbDictionary
281
     1
  3
ACAD_GROUP
350
D
  3
ACAD_LAYOUT
350
1A
  3
ACAD_MLINESTYLE
350
17
  3
ACAD_PLOTSETTINGS
350
19
  3
ACAD_PLOTSTYLENAME
350
E
  3
AcDbVariableDictionary
350
8E9
  0
DICTIONARY
  5
D
102
{ACAD_REACTORS
330
C
102
}
330
C
100
AcDbDictionary
281
     1
  0
DICTIONARY
  5
1A
102
{ACAD_REACTORS
330
C
102
}
330
C
100
AcDbDictionary
281
     1
  3
Layout1
350
1E
  3
Model
350
22
  0
DICTIONARY
  5
17
102
{ACAD_REACTORS
330
C
102
}
330
C
100
AcDbDictionary
281
     1
  3
Standard
350
18
  0
DICTIONARY
  5
19
102
{ACAD_REACTORS
330
C
102
}
330
C
100
AcDbDictionary
281
     1
  0
ACDBDICTIONARYWDFLT
  5
E
102
{ACAD_REACTORS
330
C
102
}
330
C
100
AcDbDictionary
281
     1
  3
Normal
350
F
100
AcDbDictionaryWithDefault
340
F
  0
DICTIONARY
  5
8E9
102
{ACAD_REACTORS
330
C
102
}
330
C
100
AcDbDictionary
281
     1
  3
DIMASSOC
350
8EA
  0
LAYOUT
  5
1E
102
{ACAD_REACTORS
330
1A
102
}
330
1A
100
AcDbPlotSettings
  1

  2

  4

  6

 40
0.0
 41
0.0
 42
0.0
 43
0.0
 44
0.0
 45
0.0
 46
0.0
 47
0.0
 48
0.0
 49
0.0
140
0.0
141
0.0
142
1.0
143
1.0
 70
     0
 72
     0
 73
     0
 74
     0
  7

 75
     0
147
1.0
148
0.0
149
0.0
100
AcDbLayout
  1
Layout1
 70
     1
 71
     1
 10
0.0
 20
0.0
 11
12.0
 21
9.0
 12
0.0
 22
0.0
 32
0.0
 14
1.000000000000000E+20
 24
1.000000000000000E+20
 34
1.000000000000000E+20
 15
-1.000000000000000E+20
 25
-1.000000000000000E+20
 35
-1.000000000000000E+20
146
0.0
 13
0.0
 23
0.0
 33
0.0
 16
1.0
 26
0.0
 36
0.0
 17
0.0
 27
1.0
 37
0.0
 76
     0
330
1B
  0
LAYOUT
  5
22
102
{ACAD_REACTORS
330
1A
102
}
330
1A
100
AcDbPlotSettings
  1

  2

  4

  6

 40
0.0
 41
0.0
 42
0.0
 43
0.0
 44
0.0
 45
0.0
 46
0.0
 47
0.0
 48
0.0
 49
0.0
140
0.0
141
0.0
142
1.0
143
1.0
 70
     0
 72
     0
 73
     0
 74
     0
  7

 75
     0
147
1.0
148
0.0
149
0.0
100
AcDbLayout
  1
Model
 70
     0
 71
     0
 10
0.0
 20
0.0
 11
0.0
 21
0.0
 12
0.0
 22
0.0
 32
0.0
 14
0.0
 24
0.0
 34
0.0
 15
0.0
 25
0.0
 35
0.0
146
0.0
 13
0.0
 23
0.0
 33
0.0
 16
0.0
 26
0.0
 36
0.0
 17
0.0
 27
0.0
 37
0.0
 76
     0
330
1F
  0
MLINESTYLE
  5
18
102
{ACAD_REACTORS
330
17
102
}
330
17
100
AcDbMlineStyle
  2
STANDARD
 70
     0
  3

 62
   256
 51
90.0
 52
90.0
 71
     2
 49
0.5
 62
   256
  6
BYLAYER
 49
-0.5
 62
   256
  6
BYLAYER
  0
ACDBPLACEHOLDER
  5
F
102
{ACAD_REACTORS
330
E
102
}
330
E
  0
DICTIONARYVAR
  5
8EA
102
{ACAD_REACTORS
330
8E9
102
}
330
8E9
100
DictionaryVariables
280
     0
  1
1
  0
ENDSEC
  0
EOF
