  0
SECTION
  2
HEADER
  9
$ACADVER
  1
AC1015
  9
$ACADMAINTVER
 70
    13
  9
$DWGCODEPAGE
  3
ANSI_1252
  9
$INSBASE
 10
0.0
 20
0.0
 30
0.0
  9
$EXTMIN
 10
-0.0318885128378383
 20
-0.0051901254793165
 30
-0.0000000349181948
  9
$EXTMAX
 10
110.0067156088623
 20
85.07651942344679
 30
0.0000000814935746
  9
$LIMMIN
 10
0.0
 20
0.0
  9
$LIMMAX
 10
110.0
 20
85.0
  9
$ORTHOMODE
 70
     0
  9
$REGENMODE
 70
     1
  9
$FILLMODE
 70
     1
  9
$QTEXTMODE
 70
     0
  9
$MIRRTEXT
 70
     1
  9
$LTSCALE
 40
6.049999999999999
  9
$ATTMODE
 70
     1
  9
$TEXTSIZE
 40
0.2
  9
$TRACEWID
 40
0.05
  9
$TEXTSTYLE
  7
STANDARD
  9
$CLAYER
  8
0
  9
$CELTYPE
  6
BYLAYER
  9
$CECOLOR
 62
   256
  9
$CELTSCALE
 40
1.0
  9
$DISPSILH
 70
     0
  9
$DIMSCALE
 40
1.0
  9
$DIMASZ
 40
0.9375
  9
$DIMEXO
 40
0.0625
  9
$DIMDLI
 40
0.38
  9
$DIMRND
 40
0.0
  9
$DIMDLE
 40
0.0
  9
$DIMEXE
 40
0.18
  9
$DIMTP
 40
0.0
  9
$DIMTM
 40
0.0
  9
$DIMTXT
 40
0.78125
  9
$DIMCEN
 40
0.09
  9
$DIMTSZ
 40
0.0
  9
$DIMTOL
 70
     0
  9
$DIMLIM
 70
     0
  9
$DIMTIH
 70
     1
  9
$DIMTOH
 70
     1
  9
$DIMSE1
 70
     0
  9
$DIMSE2
 70
     0
  9
$DIMTAD
 70
     0
  9
$DIMZIN
 70
     4
  9
$DIMBLK
  1
CLOSED
  9
$DIMASO
 70
     1
  9
$DIMSHO
 70
     1
  9
$DIMPOST
  1
\X
  9
$DIMAPOST
  1

  9
$DIMALT
 70
     1
  9
$DIMALTD
 70
     1
  9
$DIMALTF
 40
25.4
  9
$DIMLFAC
 40
1.0
  9
$DIMTOFL
 70
     0
  9
$DIMTVP
 40
0.0
  9
$DIMTIX
 70
     0
  9
$DIMSOXD
 70
     0
  9
$DIMSAH
 70
     0
  9
$DIMBLK1
  1
CLOSED
  9
$DIMBLK2
  1
CLOSED
  9
$DIMSTYLE
  2
DIMSTYLE_1
  9
$DIMCLRD
 70
     0
  9
$DIMCLRE
 70
     0
  9
$DIMCLRT
 70
     0
  9
$DIMTFAC
 40
1.0
  9
$DIMGAP
 40
1.0
  9
$DIMJUST
 70
     0
  9
$DIMSD1
 70
     0
  9
$DIMSD2
 70
     0
  9
$DIMTOLJ
 70
     1
  9
$DIMTZIN
 70
     4
  9
$DIMALTZ
 70
     0
  9
$DIMALTTZ
 70
     0
  9
$DIMUPT
 70
     0
  9
$DIMDEC
 70
     2
  9
$DIMTDEC
 70
     2
  9
$DIMALTU
 70
     2
  9
$DIMALTTD
 70
     2
  9
$DIMTXSTY
  7
STANDARD
  9
$DIMAUNIT
 70
     0
  9
$DIMADEC
 70
     0
  9
$DIMALTRND
 40
0.0
  9
$DIMAZIN
 70
     0
  9
$DIMDSEP
 70
    46
  9
$DIMATFIT
 70
     3
  9
$DIMFRAC
 70
     0
  9
$DIMLDRBLK
  1
CLOSED
  9
$DIMLUNIT
 70
     2
  9
$DIMLWD
 70
    -2
  9
$DIMLWE
 70
    -2
  9
$DIMTMOVE
 70
     0
  9
$LUNITS
 70
     2
  9
$LUPREC
 70
     4
  9
$SKETCHINC
 40
0.1
  9
$FILLETRAD
 40
0.0
  9
$AUNITS
 70
     0
  9
$AUPREC
 70
     0
  9
$MENU
  1
.
  9
$ELEVATION
 40
0.0
  9
$PELEVATION
 40
0.0
  9
$THICKNESS
 40
0.0
  9
$LIMCHECK
 70
     0
  9
$CHAMFERA
 40
0.0
  9
$CHAMFERB
 40
0.0
  9
$CHAMFERC
 40
0.0
  9
$CHAMFERD
 40
0.0
  9
$SKPOLY
 70
     0
  9
$TDCREATE
 40
2453998.351052153
  9
$TDUCREATE
 40
2453998.642718819
  9
$TDUPDATE
 40
2453998.352329097
  9
$TDUUPDATE
 40
2453998.643995763
  9
$TDINDWG
 40
0.0012771296
  9
$TDUSRTIMER
 40
0.0012771296
  9
$USRTIMER
 70
     1
  9
$ANGBASE
 50
0.0
  9
$ANGDIR
 70
     0
  9
$PDMODE
 70
     3
  9
$PDSIZE
 40
0.3125
  9
$PLINEWID
 40
0.0
  9
$SPLFRAME
 70
     0
  9
$SPLINETYPE
 70
     6
  9
$SPLINESEGS
 70
     8
  9
$HANDSEED
  5
91B
  9
$SURFTAB1
 70
     6
  9
$SURFTAB2
 70
     6
  9
$SURFTYPE
 70
     6
  9
$SURFU
 70
     6
  9
$SURFV
 70
     6
  9
$UCSBASE
  2

  9
$UCSNAME
  2

  9
$UCSORG
 10
0.0
 20
0.0
 30
0.0
  9
$UCSXDIR
 10
1.0
 20
0.0
 30
0.0
  9
$UCSYDIR
 10
0.0
 20
1.0
 30
0.0
  9
$UCSORTHOREF
  2

  9
$UCSORTHOVIEW
 70
     0
  9
$UCSORGTOP
 10
0.0
 20
0.0
 30
0.0
  9
$UCSORGBOTTOM
 10
0.0
 20
0.0
 30
0.0
  9
$UCSORGLEFT
 10
0.0
 20
0.0
 30
0.0
  9
$UCSORGRIGHT
 10
0.0
 20
0.0
 30
0.0
  9
$UCSORGFRONT
 10
0.0
 20
0.0
 30
0.0
  9
$UCSORGBACK
 10
0.0
 20
0.0
 30
0.0
  9
$PUCSBASE
  2

  9
$PUCSNAME
  2

  9
$PUCSORG
 10
0.0
 20
0.0
 30
0.0
  9
$PUCSXDIR
 10
1.0
 20
0.0
 30
0.0
  9
$PUCSYDIR
 10
0.0
 20
1.0
 30
0.0
  9
$PUCSORTHOREF
  2

  9
$PUCSORTHOVIEW
 70
     0
  9
$PUCSORGTOP
 10
0.0
 20
0.0
 30
0.0
  9
$PUCSORGBOTTOM
 10
0.0
 20
0.0
 30
0.0
  9
$PUCSORGLEFT
 10
0.0
 20
0.0
 30
0.0
  9
$PUCSORGRIGHT
 10
0.0
 20
0.0
 30
0.0
  9
$PUCSORGFRONT
 10
0.0
 20
0.0
 30
0.0
  9
$PUCSORGBACK
 10
0.0
 20
0.0
 30
0.0
  9
$USERI1
 70
     0
  9
$USERI2
 70
     0
  9
$USERI3
 70
     0
  9
$USERI4
 70
     0
  9
$USERI5
 70
     0
  9
$USERR1
 40
0.0
  9
$USERR2
 40
0.0
  9
$USERR3
 40
0.0
  9
$USERR4
 40
0.0
  9
$USERR5
 40
0.0
  9
$WORLDVIEW
 70
     1
  9
$SHADEDGE
 70
     3
  9
$SHADEDIF
 70
    70
  9
$TILEMODE
 70
     1
  9
$MAXACTVP
 70
    64
  9
$PINSBASE
 10
0.0
 20
0.0
 30
0.0
  9
$PLIMCHECK
 70
     0
  9
$PEXTMIN
 10
1.000000000000000E+20
 20
1.000000000000000E+20
 30
1.000000000000000E+20
  9
$PEXTMAX
 10
-1.000000000000000E+20
 20
-1.000000000000000E+20
 30
-1.000000000000000E+20
  9
$PLIMMIN
 10
0.0
 20
0.0
  9
$PLIMMAX
 10
12.0
 20
9.0
  9
$UNITMODE
 70
     0
  9
$VISRETAIN
 70
     1
  9
$PLINEGEN
 70
     0
  9
$PSLTSCALE
 70
     1
  9
$TREEDEPTH
 70
  3020
  9
$CMLSTYLE
  2
Standard
  9
$CMLJUST
 70
     0
  9
$CMLSCALE
 40
1.0
  9
$PROXYGRAPHICS
 70
     1
  9
$MEASUREMENT
 70
     0
  9
$CELWEIGHT
370
    -1
  9
$ENDCAPS
280
     0
  9
$JOINSTYLE
280
     0
  9
$LWDISPLAY
290
     0
  9
$INSUNITS
 70
     1
  9
$HYPERLINKBASE
  1

  9
$STYLESHEET
  1

  9
$XEDIT
290
     1
  9
$CEPSNTYPE
380
     0
  9
$PSTYLEMODE
290
     1
  9
$FINGERPRINTGUID
  2
{4F6C1F0C-5E54-4664-B110-3891CBCCAB04}
  9
$VERSIONGUID
  2
{FCD99A99-7854-41F5-B8E5-5411C1C22219}
  9
$EXTNAMES
290
     1
  9
$PSVPSCALE
 40
0.0
  9
$OLESTARTUP
290
     0
  0
ENDSEC
  0
SECTION
  2
CLASSES
  0
CLASS
  1
ACDBDICTIONARYWDFLT
  2
AcDbDictionaryWithDefault
  3
AutoCAD 2000
 90
        0
280
     0
281
     0
  0
CLASS
  1
ACDBPLACEHOLDER
  2
AcDbPlaceHolder
  3
AutoCAD 2000
 90
        0
280
     0
281
     0
  0
CLASS
  1
LAYOUT
  2
AcDbLayout
  3
AutoCAD 2000
 90
        0
280
     0
281
     0
  0
CLASS
  1
DICTIONARYVAR
  2
AcDbDictionaryVar
  3
AutoCAD 2000
 90
        0
280
     0
281
     0
  0
ENDSEC
  0
SECTION
  2
TABLES
  0
TABLE
  2
VPORT
  5
8
330
0
100
AcDbSymbolTable
 70
     2
  0
VPORT
  5
91A
330
8
100
AcDbSymbolTableRecord
100
AcDbViewportTableRecord
  2
*Active
 70
     0
 10
0.0
 20
0.0
 11
1.0
 21
1.0
 12
54.98741354801226
 22
42.53566464898374
 13
0.0
 23
0.0
 14
1.0
 24
1.0
 15
0.0
 25
0.0
 16
0.0
 26
0.0
 36
1.0
 17
0.0
 27
0.0
 37
0.0
 40
85.71585893686842
 41
1.498756218905472
 42
50.0
 43
0.0
 44
0.0
 50
0.0
 51
0.0
 71
     0
 72
  1000
 73
     1
 74
     1
 75
     0
 76
     0
 77
     0
 78
     0
281
     0
 65
     1
110
0.0
120
0.0
130
0.0
111
1.0
121
0.0
131
0.0
112
0.0
122
1.0
132
0.0
 79
     0
146
0.0
  0
ENDTAB
  0
TABLE
  2
LTYPE
  5
5
330
0
100
AcDbSymbolTable
 70
     6
  0
LTYPE
  5
14
330
5
100
AcDbSymbolTableRecord
100
AcDbLinetypeTableRecord
  2
BYBLOCK
 70
     0
  3

 72
    65
 73
     0
 40
0.0
  0
LTYPE
  5
15
330
5
100
AcDbSymbolTableRecord
100
AcDbLinetypeTableRecord
  2
BYLAYER
 70
     0
  3

 72
    65
 73
     0
 40
0.0
  0
LTYPE
  5
16
330
5
100
AcDbSymbolTableRecord
100
AcDbLinetypeTableRecord
  2
CONTINUOUS
 70
     0
  3
Solid line
 72
    65
 73
     0
 40
0.0
  0
LTYPE
  5
1F5
330
5
100
AcDbSymbolTableRecord
100
AcDbLinetypeTableRecord
  2
CENTER
 70
     0
  3
____ _ ____ _ ____ _ ____ _ ____ _ ____ _ ____
 72
    65
 73
     4
 40
0.6
 49
0.375
 74
     0
 49
-0.075
 74
     0
 49
0.075
 74
     0
 49
-0.075
 74
     0
  0
LTYPE
  5
1F6
330
5
100
AcDbSymbolTableRecord
100
AcDbLinetypeTableRecord
  2
HIDDEN
 70
     0
  3
- - - - - - - - - - - - - - - - - - - -
 72
    65
 73
     2
 40
0.2
 49
0.1
 74
     0
 49
-0.1
 74
     0
  0
LTYPE
  5
1F7
330
5
100
AcDbSymbolTableRecord
100
AcDbLinetypeTableRecord
  2
PHANTOM
 70
     0
  3
_____ _ _ _____ _ _ _____ _ _ _____
 72
    65
 73
     6
 40
0.8
 49
0.45
 74
     0
 49
-0.05
 74
     0
 49
0.1
 74
     0
 49
-0.05
 74
     0
 49
0.1
 74
     0
 49
-0.05
 74
     0
  0
LTYPE
  5
1F8
330
5
100
AcDbSymbolTableRecord
100
AcDbLinetypeTableRecord
  2
DOT
 70
     0
  3
. . . . . . . . . . . . . . . . . . . .
 72
    65
 73
     2
 40
0.2
 49
0.1
 74
     0
 49
-0.1
 74
     0
  0
LTYPE
  5
1F9
330
5
100
AcDbSymbolTableRecord
100
AcDbLinetypeTableRecord
  2
DASHED
 70
     0
  3
- - - - - - - - - - - - - - - - - - - -
 72
    65
 73
     2
 40
0.2
 49
0.1
 74
     0
 49
-0.1
 74
     0
  0
ENDTAB
  0
TABLE
  2
LAYER
  5
2
330
0
100
AcDbSymbolTable
 70
    50
  0
LAYER
  5
10
330
2
100
AcDbSymbolTableRecord
100
AcDbLayerTableRecord
  2
0
 70
     0
 62
     7
  6
CONTINUOUS
370
    -3
390
F
  0
LAYER
  5
1FA
330
2
100
AcDbSymbolTableRecord
100
AcDbLayerTableRecord
  2
DEFAULT_1
 70
     0
 62
     7
  6
CENTER
370
    -3
390
F
  0
LAYER
  5
1FB
330
2
100
AcDbSymbolTableRecord
100
AcDbLayerTableRecord
  2
DEFAULT_2
 70
     0
 62
     8
  6
HIDDEN
370
    -3
390
F
  0
LAYER
  5
1FC
330
2
100
AcDbSymbolTableRecord
100
AcDbLayerTableRecord
  2
DEFAULT_3
 70
     0
 62
     7
  6
PHANTOM
370
    -3
390
F
  0
LAYER
  5
1FD
330
2
100
AcDbSymbolTableRecord
100
AcDbLayerTableRecord
  2
_2D_DELETED_OBJS
 70
     0
 62
     7
  6
CONTINUOUS
370
    -3
390
F
  0
LAYER
  5
1FE
330
2
100
AcDbSymbolTableRecord
100
AcDbLayerTableRecord
  2
01___PRT_ALL_DTM_PLN
 70
     0
 62
     7
  6
CONTINUOUS
370
    -3
390
F
  0
LAYER
  5
1FF
330
2
100
AcDbSymbolTableRecord
100
AcDbLayerTableRecord
  2
01___PRT_DEF_DTM_PLN
 70
     0
 62
     7
  6
CONTINUOUS
370
    -3
390
F
  0
LAYER
  5
200
330
2
100
AcDbSymbolTableRecord
100
AcDbLayerTableRecord
  2
02___PRT_ALL_AXES
 70
     0
 62
     7
  6
CONTINUOUS
370
    -3
390
F
  0
LAYER
  5
201
330
2
100
AcDbSymbolTableRecord
100
AcDbLayerTableRecord
  2
03___PRT_ALL_CURVES
 70
     0
 62
     7
  6
CONTINUOUS
370
    -3
390
F
  0
LAYER
  5
202
330
2
100
AcDbSymbolTableRecord
100
AcDbLayerTableRecord
  2
04___PRT_ALL_DTM_PNT
 70
     0
 62
     7
  6
CONTINUOUS
370
    -3
390
F
  0
LAYER
  5
203
330
2
100
AcDbSymbolTableRecord
100
AcDbLayerTableRecord
  2
05___PRT_ALL_DTM_CSYS
 70
     0
 62
     7
  6
CONTINUOUS
370
    -3
390
F
  0
LAYER
  5
204
330
2
100
AcDbSymbolTableRecord
100
AcDbLayerTableRecord
  2
05___PRT_DEF_DTM_CSYS
 70
     0
 62
     7
  6
CONTINUOUS
370
    -3
390
F
  0
LAYER
  5
205
330
2
100
AcDbSymbolTableRecord
100
AcDbLayerTableRecord
  2
06___PRT_ALL_SURFS
 70
     0
 62
     7
  6
CONTINUOUS
370
    -3
390
F
  0
LAYER
  5
206
330
2
100
AcDbSymbolTableRecord
100
AcDbLayerTableRecord
  2
1_ALL_PLANES
 70
     0
 62
     7
  6
CONTINUOUS
370
    -3
390
F
  0
LAYER
  5
207
330
2
100
AcDbSymbolTableRecord
100
AcDbLayerTableRecord
  2
1__DEF_ASM_PLN
 70
     0
 62
     7
  6
CONTINUOUS
370
    -3
390
F
  0
LAYER
  5
208
330
2
100
AcDbSymbolTableRecord
100
AcDbLayerTableRecord
  2
1__DEF_PLANES
 70
     0
 62
     7
  6
CONTINUOUS
370
    -3
390
F
  0
LAYER
  5
209
330
2
100
AcDbSymbolTableRecord
100
AcDbLayerTableRecord
  2
2_ALL_CSYS
 70
     0
 62
     7
  6
CONTINUOUS
370
    -3
390
F
  0
LAYER
  5
20A
330
2
100
AcDbSymbolTableRecord
100
AcDbLayerTableRecord
  2
2__DEF_ASM_CSYS
 70
     0
 62
     7
  6
CONTINUOUS
370
    -3
390
F
  0
LAYER
  5
20B
330
2
100
AcDbSymbolTableRecord
100
AcDbLayerTableRecord
  2
2__DEF_CSYS
 70
     0
 62
     7
  6
CONTINUOUS
370
    -3
390
F
  0
LAYER
  5
20C
330
2
100
AcDbSymbolTableRecord
100
AcDbLayerTableRecord
  2
3_ALL_AXES
 70
     0
 62
     7
  6
CONTINUOUS
370
    -3
390
F
  0
LAYER
  5
20D
330
2
100
AcDbSymbolTableRecord
100
AcDbLayerTableRecord
  2
3_AXES_OTHER
 70
     0
 62
     7
  6
CONTINUOUS
370
    -3
390
F
  0
LAYER
  5
20E
330
2
100
AcDbSymbolTableRecord
100
AcDbLayerTableRecord
  2
3_HOLES
 70
     0
 62
     7
  6
CONTINUOUS
370
    -3
390
F
  0
LAYER
  5
20F
330
2
100
AcDbSymbolTableRecord
100
AcDbLayerTableRecord
  2
4_ALL_POINTS
 70
     0
 62
     7
  6
CONTINUOUS
370
    -3
390
F
  0
LAYER
  5
210
330
2
100
AcDbSymbolTableRecord
100
AcDbLayerTableRecord
  2
5_ALL_CURVES
 70
     0
 62
     7
  6
CONTINUOUS
370
    -3
390
F
  0
LAYER
  5
211
330
2
100
AcDbSymbolTableRecord
100
AcDbLayerTableRecord
  2
6_ALL_SURFS
 70
     0
 62
     7
  6
CONTINUOUS
370
    -3
390
F
  0
LAYER
  5
212
330
2
100
AcDbSymbolTableRecord
100
AcDbLayerTableRecord
  2
6_COPYGEOM
 70
     0
 62
     7
  6
CONTINUOUS
370
    -3
390
F
  0
LAYER
  5
213
330
2
100
AcDbSymbolTableRecord
100
AcDbLayerTableRecord
  2
7_ALL_ROUNDS
 70
     0
 62
     7
  6
CONTINUOUS
370
    -3
390
F
  0
LAYER
  5
214
330
2
100
AcDbSymbolTableRecord
100
AcDbLayerTableRecord
  2
7_MERGES
 70
     0
 62
     7
  6
CONTINUOUS
370
    -3
390
F
  0
LAYER
  5
215
330
2
100
AcDbSymbolTableRecord
100
AcDbLayerTableRecord
  2
8_SET_DATUMS
 70
     0
 62
     7
  6
CONTINUOUS
370
    -3
390
F
  0
LAYER
  5
216
330
2
100
AcDbSymbolTableRecord
100
AcDbLayerTableRecord
  2
9_COSMETICS
 70
     0
 62
     7
  6
CONTINUOUS
370
    -3
390
F
  0
LAYER
  5
217
330
2
100
AcDbSymbolTableRecord
100
AcDbLayerTableRecord
  2
9_THREADS
 70
     0
 62
     7
  6
CONTINUOUS
370
    -3
390
F
  0
LAYER
  5
218
330
2
100
AcDbSymbolTableRecord
100
AcDbLayerTableRecord
  2
AXES
 70
     0
 62
     7
  6
CONTINUOUS
370
    -3
390
F
  0
LAYER
  5
219
330
2
100
AcDbSymbolTableRecord
100
AcDbLayerTableRecord
  2
BASE
 70
     0
 62
     7
  6
CONTINUOUS
370
    -3
390
F
  0
LAYER
  5
21A
330
2
100
AcDbSymbolTableRecord
100
AcDbLayerTableRecord
  2
COPY
 70
     0
 62
     7
  6
CONTINUOUS
370
    -3
390
F
  0
LAYER
  5
21B
330
2
100
AcDbSymbolTableRecord
100
AcDbLayerTableRecord
  2
COSM
 70
     0
 62
     7
  6
CONTINUOUS
370
    -3
390
F
  0
LAYER
  5
21C
330
2
100
AcDbSymbolTableRecord
100
AcDbLayerTableRecord
  2
CRVS
 70
     0
 62
     7
  6
CONTINUOUS
370
    -3
390
F
  0
LAYER
  5
21D
330
2
100
AcDbSymbolTableRecord
100
AcDbLayerTableRecord
  2
CSYS
 70
     0
 62
     7
  6
CONTINUOUS
370
    -3
390
F
  0
LAYER
  5
21E
330
2
100
AcDbSymbolTableRecord
100
AcDbLayerTableRecord
  2
CTRLS
 70
     0
 62
     7
  6
CONTINUOUS
370
    -3
390
F
  0
LAYER
  5
21F
330
2
100
AcDbSymbolTableRecord
100
AcDbLayerTableRecord
  2
DRW_FORMAT
 70
     0
 62
     7
  6
CONTINUOUS
370
    -3
390
F
  0
LAYER
  5
220
330
2
100
AcDbSymbolTableRecord
100
AcDbLayerTableRecord
  2
IMPORT
 70
     0
 62
     7
  6
CONTINUOUS
370
    -3
390
F
  0
LAYER
  5
221
330
2
100
AcDbSymbolTableRecord
100
AcDbLayerTableRecord
  2
MERGE
 70
     0
 62
     7
  6
CONTINUOUS
370
    -3
390
F
  0
LAYER
  5
222
330
2
100
AcDbSymbolTableRecord
100
AcDbLayerTableRecord
  2
NOTES
 70
     0
 62
     7
  6
CONTINUOUS
370
    -3
390
F
  0
LAYER
  5
223
330
2
100
AcDbSymbolTableRecord
100
AcDbLayerTableRecord
  2
PLNS
 70
     0
 62
     7
  6
CONTINUOUS
370
    -3
390
F
  0
LAYER
  5
224
330
2
100
AcDbSymbolTableRecord
100
AcDbLayerTableRecord
  2
PNTS
 70
     0
 62
     7
  6
CONTINUOUS
370
    -3
390
F
  0
LAYER
  5
225
330
2
100
AcDbSymbolTableRecord
100
AcDbLayerTableRecord
  2
RNDS
 70
     0
 62
     7
  6
CONTINUOUS
370
    -3
390
F
  0
LAYER
  5
226
330
2
100
AcDbSymbolTableRecord
100
AcDbLayerTableRecord
  2
SRFS
 70
     0
 62
     7
  6
CONTINUOUS
370
    -3
390
F
  0
LAYER
  5
227
330
2
100
AcDbSymbolTableRecord
100
AcDbLayerTableRecord
  2
THDS
 70
     0
 62
     7
  6
CONTINUOUS
370
    -3
390
F
  0
LAYER
  5
228
330
2
100
AcDbSymbolTableRecord
100
AcDbLayerTableRecord
  2
XSEC
 70
     0
 62
     7
  6
CONTINUOUS
370
    -3
390
F
  0
LAYER
  5
229
330
2
100
AcDbSymbolTableRecord
100
AcDbLayerTableRecord
  2
XSEC_DATUMS
 70
     0
 62
     7
  6
CONTINUOUS
370
    -3
390
F
  0
LAYER
  5
889
330
2
100
AcDbSymbolTableRecord
100
AcDbLayerTableRecord
  2
Defpoints
 70
     0
 62
     7
  6
CONTINUOUS
290
     0
370
    -3
390
F
  0
ENDTAB
  0
TABLE
  2
STYLE
  5
3
330
0
100
AcDbSymbolTable
 70
     2
  0
STYLE
  5
11
330
3
100
AcDbSymbolTableRecord
100
AcDbTextStyleTableRecord
  2
STANDARD
 70
     0
 40
0.0
 41
0.8
 50
0.0
 71
     0
 42
0.2
  3
txt
  4

  0
STYLE
  5
22A
330
3
100
AcDbSymbolTableRecord
100
AcDbTextStyleTableRecord
  2
TEXTSTYLE_1
 70
     0
 40
0.0
 41
0.6
 50
0.0
 71
     0
 42
0.2
  3
txt
  4

  0
ENDTAB
  0
TABLE
  2
VIEW
  5
6
330
0
100
AcDbSymbolTable
 70
     0
  0
ENDTAB
  0
TABLE
  2
UCS
  5
7
330
0
100
AcDbSymbolTable
 70
     0
  0
ENDTAB
  0
TABLE
  2
APPID
  5
9
330
0
100
AcDbSymbolTable
 70
     1
  0
APPID
  5
22B
330
9
100
AcDbSymbolTableRecord
100
AcDbRegAppTableRecord
  2
ACAD
 70
     0
  0
ENDTAB
  0
TABLE
  2
DIMSTYLE
  5
A
330
0
100
AcDbSymbolTable
 70
     2
100
AcDbDimStyleTable
 71
     1
340
238
  0
DIMSTYLE
105
237
330
A
100
AcDbSymbolTableRecord
100
AcDbDimStyleTableRecord
  2
STANDARD
 70
     0
 41
0.1875
 47
0.001
 48
0.001
 78
     4
140
0.78125
271
     3
272
     3
284
     4
340
11
341
22C
342
22C
343
22C
344
22C
  0
DIMSTYLE
105
238
102
{ACAD_REACTORS
330
746
330
744
330
743
330
742
330
741
330
73F
330
73E
102
}
330
A
100
AcDbSymbolTableRecord
100
AcDbDimStyleTableRecord
  2
DIMSTYLE_1
 70
     0
 41
0.9375
 78
     4
140
0.78125
271
     2
272
     2
284
     4
340
11
341
22C
342
22C
343
22C
344
22C
  0
ENDTAB
  0
TABLE
  2
BLOCK_RECORD
  5
1
330
0
100
AcDbSymbolTable
 70
    11
  0
BLOCK_RECORD
  5
1F
330
1
100
AcDbSymbolTableRecord
100
AcDbBlockTableRecord
  2
*MODEL_SPACE
340
22
  0
BLOCK_RECORD
  5
1B
330
1
100
AcDbSymbolTableRecord
100
AcDbBlockTableRecord
  2
*PAPER_SPACE
340
1E
  0
BLOCK_RECORD
  5
22C
330
1
100
AcDbSymbolTableRecord
100
AcDbBlockTableRecord
  2
_CLOSED
340
0
102
{BLKREFS
331
285
331
286
331
291
331
292
331
29D
331
29E
331
2A9
331
2AA
331
2B5
331
2B6
331
2C1
331
2C2
331
2CE
331
2CF
331
2DB
331
2DC
331
2E7
331
2E8
331
87D
331
87E
331
887
331
888
331
88E
331
88F
331
899
331
89A
331
8A3
331
8A4
331
8AD
331
8AE
331
8B7
331
8B8
331
8C1
331
8C2
331
8CB
331
8CC
331
8D5
331
8D6
331
8E0
331
8E1
331
8EA
331
8EB
331
8F4
331
8F5
331
8FE
331
8FF
331
908
331
909
331
912
331
913
102
}
  0
BLOCK_RECORD
  5
22D
330
1
100
AcDbSymbolTableRecord
100
AcDbBlockTableRecord
  2
RD010411_BL0
340
0
102
{BLKREFS
331
333
102
}
  0
BLOCK_RECORD
  5
22E
330
1
100
AcDbSymbolTableRecord
100
AcDbBlockTableRecord
  2
*D2
340
0
  0
BLOCK_RECORD
  5
22F
330
1
100
AcDbSymbolTableRecord
100
AcDbBlockTableRecord
  2
*D3
340
0
  0
BLOCK_RECORD
  5
230
330
1
100
AcDbSymbolTableRecord
100
AcDbBlockTableRecord
  2
*D4
340
0
  0
BLOCK_RECORD
  5
231
330
1
100
AcDbSymbolTableRecord
100
AcDbBlockTableRecord
  2
*D5
340
0
  0
BLOCK_RECORD
  5
232
330
1
100
AcDbSymbolTableRecord
100
AcDbBlockTableRecord
  2
*D6
340
0
  0
BLOCK_RECORD
  5
233
330
1
100
AcDbSymbolTableRecord
100
AcDbBlockTableRecord
  2
*D7
340
0
  0
BLOCK_RECORD
  5
234
330
1
100
AcDbSymbolTableRecord
100
AcDbBlockTableRecord
  2
*D8
340
0
  0
BLOCK_RECORD
  5
235
330
1
100
AcDbSymbolTableRecord
100
AcDbBlockTableRecord
  2
*D9
340
0
  0
BLOCK_RECORD
  5
236
330
1
100
AcDbSymbolTableRecord
100
AcDbBlockTableRecord
  2
*D10
340
0
  0
ENDTAB
  0
ENDSEC
  0
SECTION
  2
BLOCKS
  0
BLOCK
  5
20
330
1F
100
AcDbEntity
  8
0
100
AcDbBlockBegin
  2
*MODEL_SPACE
 70
     0
 10
0.0
 20
0.0
 30
0.0
  3
*MODEL_SPACE
  1

  0
ENDBLK
  5
21
330
1F
100
AcDbEntity
  8
0
100
AcDbBlockEnd
  0
BLOCK
  5
1C
330
1B
100
AcDbEntity
 67
     1
  8
0
100
AcDbBlockBegin
  2
*PAPER_SPACE
 70
     0
 10
0.0
 20
0.0
 30
0.0
  3
*PAPER_SPACE
  1

  0
ENDBLK
  5
1D
330
1B
100
AcDbEntity
 67
     1
  8
0
100
AcDbBlockEnd
  0
BLOCK
  5
2EA
330
22C
100
AcDbEntity
  8
0
100
AcDbBlockBegin
  2
_CLOSED
 70
     0
 10
0.0
 20
0.0
 30
0.0
  3
_CLOSED
  1

  0
LINE
  5
2EB
330
22C
100
AcDbEntity
  8
0
  6
ByBlock
 62
     0
100
AcDbLine
 10
0.0
 20
0.0
 30
0.0
 11
-1.0
 21
0.1666666667
 31
0.0
  0
LINE
  5
2EC
330
22C
100
AcDbEntity
  8
0
  6
ByBlock
 62
     0
100
AcDbLine
 10
-1.0
 20
0.1666666667
 30
0.0
 11
-1.0
 21
-0.1666666667
 31
0.0
  0
LINE
  5
2ED
330
22C
100
AcDbEntity
  8
0
  6
ByBlock
 62
     0
100
AcDbLine
 10
-1.0
 20
-0.1666666667
 30
0.0
 11
0.0
 21
0.0
 31
0.0
  0
LINE
  5
2EE
330
22C
100
AcDbEntity
  8
0
  6
ByBlock
 62
     0
100
AcDbLine
 10
-1.0
 20
0.0
 30
0.0
 11
0.0
 21
0.0
 31
0.0
  0
ENDBLK
  5
2EF
330
22C
100
AcDbEntity
  8
0
  6
ByBlock
 62
     0
100
AcDbBlockEnd
  0
BLOCK
  5
239
330
22D
100
AcDbEntity
  8
DRW_FORMAT
  6
Continuous
 62
     7
100
AcDbBlockBegin
  2
RD010411_BL0
 70
     0
 10
86.52449000069999
 20
12.6013035878
 30
0.0
  3
RD010411_BL0
  1

  0
ARC
  5
23A
330
22D
100
AcDbEntity
  8
DRW_FORMAT
  6
Continuous
 62
     7
100
AcDbCircle
 10
89.7852978489
 20
13.1031883755
 30
0.0
 40
0.0618575663
100
AcDbArc
 50
270.0
 51
360.0
  0
LINE
  5
23B
330
22D
100
AcDbEntity
  8
DRW_FORMAT
  6
Continuous
 62
     7
100
AcDbLine
 10
89.84715541520001
 20
13.1031883755
 30
0.0
 11
89.84715541520001
 21
13.2269460215
 31
0.0
  0
ARC
  5
23C
330
22D
100
AcDbEntity
  8
DRW_FORMAT
  6
Continuous
 62
     7
100
AcDbCircle
 10
89.7852978489
 20
13.2269460215
 30
0.0
 40
0.0618575663
100
AcDbArc
 50
0.0
 51
90.0
  0
LINE
  5
23D
330
22D
100
AcDbEntity
  8
DRW_FORMAT
  6
Continuous
 62
     7
100
AcDbLine
 10
89.7852978489
 20
13.2888035878
 30
0.0
 11
88.1223311878
 21
13.2888035878
 31
0.0
  0
SPLINE
  5
23E
330
22D
100
AcDbEntity
  8
DRW_FORMAT
  6
Continuous
 62
     7
100
AcDbSpline
210
0.0
220
0.0
230
1.0
 70
     8
 71
     3
 72
    13
 73
     9
 74
     0
 42
0.0000000001
 43
0.0000000001
 40
0.0
 40
0.0
 40
0.0
 40
0.0
 40
0.1310616762
 40
0.2699656353
 40
0.4157607805
 40
0.5899807757
 40
0.76586761
 40
0.9948829976
 40
0.9948829976
 40
0.9948829976
 40
0.9948829976
 10
88.1223311878
 20
13.2888035878
 30
0.0
 10
88.08737411520001
 20
13.2861999619
 30
0.0
 10
88.01536825940001
 20
13.28083691849999
 30
0.0
 10
87.9177859852
 20
13.2203693793
 30
0.0
 10
87.84773355700002
 20
13.1188552716
 30
0.0
 10
87.80218184879998
 20
12.9947258636
 30
0.0
 10
87.77652434569999
 20
12.8429881247
 30
0.0
 10
87.7741619833
 20
12.73576757369999
 30
0.0
 10
87.77293762600001
 20
12.6751149519
 30
0.0
  0
LINE
  5
23F
330
22D
100
AcDbEntity
  8
DRW_FORMAT
  6
Continuous
 62
     7
100
AcDbLine
 10
87.77293762600001
 20
12.6751149519
 30
0.0
 11
87.77304619270001
 21
12.6657028073
 31
0.0
  0
SPLINE
  5
240
330
22D
100
AcDbEntity
  8
DRW_FORMAT
  6
Continuous
 62
     7
100
AcDbSpline
210
0.0
220
0.0
230
1.0
 70
     8
 71
     3
 72
    13
 73
     9
 74
     0
 42
0.0000000001
 43
0.0000000001
 40
0.0
 40
0.0
 40
0.0
 40
0.0
 40
0.2222860645
 40
0.3981728988
 40
0.572392894
 40
0.7181880393000001
 40
0.8570919983999999
 40
0.9881536745999998
 40
0.9881536745999998
 40
0.9881536745999998
 40
0.9881536745999998
 10
87.77304619270001
 20
12.6657028073
 30
0.0
 10
87.7742464199
 20
12.6068331642
 30
0.0
 10
87.7768219548
 20
12.50141416439999
 30
0.0
 10
87.80218182780002
 20
12.3514353406
 30
0.0
 10
87.84773408129998
 20
12.22731981529999
 30
0.0
 10
87.9177843245
 20
12.1257626253
 30
0.0
 10
88.01537404639999
 20
12.0654396291
 30
0.0
 10
88.0873623471
 20
12.059736233
 30
0.0
 10
88.1223311878
 20
12.0571317316
 30
0.0
  0
LINE
  5
241
330
22D
100
AcDbEntity
  8
DRW_FORMAT
  6
Continuous
 62
     7
100
AcDbLine
 10
88.1223311878
 20
12.0571317316
 30
0.0
 11
89.7854328592
 21
12.0607616202
 31
0.0
  0
ARC
  5
242
330
22D
100
AcDbEntity
  8
DRW_FORMAT
  6
Continuous
 62
     7
100
AcDbCircle
 10
89.7852978489
 20
12.122619039
 30
0.0
 40
0.0618575662
100
AcDbArc
 50
270.125053868
 51
360.0
  0
LINE
  5
243
330
22D
100
AcDbEntity
  8
DRW_FORMAT
  6
Continuous
 62
     7
100
AcDbLine
 10
89.84715541520001
 20
12.122619039
 30
0.0
 11
89.84715541520001
 21
12.2415449353
 31
0.0
  0
ARC
  5
244
330
22D
100
AcDbEntity
  8
DRW_FORMAT
  6
Continuous
 62
     7
100
AcDbCircle
 10
89.7852978489
 20
12.2415449353
 30
0.0
 40
0.0618575663
100
AcDbArc
 50
0.0
 51
90.0
  0
LINE
  5
245
330
22D
100
AcDbEntity
  8
DRW_FORMAT
  6
Continuous
 62
     7
100
AcDbLine
 10
89.7852978489
 20
12.3034025016
 30
0.0
 11
88.35990813290001
 21
12.3034025016
 31
0.0
  0
LINE
  5
246
330
22D
100
AcDbEntity
  8
DRW_FORMAT
  6
Continuous
 62
     7
100
AcDbLine
 10
88.2980505665
 20
12.365260068
 30
0.0
 11
88.2980505665
 21
12.97947324279999
 31
0.0
  0
ARC
  5
247
330
22D
100
AcDbEntity
  8
DRW_FORMAT
  6
Continuous
 62
     7
100
AcDbCircle
 10
88.3599081334
 20
12.97947324279999
 30
0.0
 40
0.0618575663
100
AcDbArc
 50
90.0
 51
180.0
  0
LINE
  5
248
330
22D
100
AcDbEntity
  8
DRW_FORMAT
  6
Continuous
 62
     7
100
AcDbLine
 10
88.35990813290001
 20
13.0413308091
 30
0.0
 11
89.7852978489
 21
13.0413308091
 31
0.0
  0
LINE
  5
249
330
22D
100
AcDbEntity
  8
DRW_FORMAT
  6
Continuous
 62
     7
100
AcDbLine
 10
85.81831167169999
 20
12.5480657649
 30
0.0
 11
87.0063713428
 21
12.5480657649
 31
0.0
  0
ARC
  5
24A
330
22D
100
AcDbEntity
  8
DRW_FORMAT
  6
Continuous
 62
     7
100
AcDbCircle
 10
87.0063713426
 20
12.48620819859999
 30
0.0
 40
0.0618575663
100
AcDbArc
 50
0.0
 51
90.0
  0
LINE
  5
24B
330
22D
100
AcDbEntity
  8
DRW_FORMAT
  6
Continuous
 62
     7
100
AcDbLine
 10
87.0682289091
 20
12.48620819849999
 30
0.0
 11
87.0682289091
 21
12.3599014374
 31
0.0
  0
LINE
  5
24C
330
22D
100
AcDbEntity
  8
DRW_FORMAT
  6
Continuous
 62
     7
100
AcDbLine
 10
87.0063713428
 20
12.29804387109999
 30
0.0
 11
85.62147064340001
 21
12.29804387109999
 31
0.0
  0
ARC
  5
24D
330
22D
100
AcDbEntity
  8
DRW_FORMAT
  6
Continuous
 62
     7
100
AcDbCircle
 10
85.62147064340001
 20
12.2361863047
 30
0.0
 40
0.0618575663
100
AcDbArc
 50
90.0
 51
180.0
  0
LINE
  5
24E
330
22D
100
AcDbEntity
  8
DRW_FORMAT
  6
Continuous
 62
     7
100
AcDbLine
 10
85.55961307709999
 20
12.2361863047
 30
0.0
 11
85.55961307709999
 21
12.11898867369999
 31
0.0
  0
ARC
  5
24F
330
22D
100
AcDbEntity
  8
DRW_FORMAT
  6
Continuous
 62
     7
100
AcDbCircle
 10
85.62147064340001
 20
12.11898867369999
 30
0.0
 40
0.0618575663
100
AcDbArc
 50
180.0
 51
270.0
  0
LINE
  5
250
330
22D
100
AcDbEntity
  8
DRW_FORMAT
  6
Continuous
 62
     7
100
AcDbLine
 10
85.62147064340001
 20
12.0571311073
 30
0.0
 11
87.34075422870001
 21
12.0571311073
 31
0.0
  0
SPLINE
  5
251
330
22D
100
AcDbEntity
  8
DRW_FORMAT
  6
Continuous
 62
     7
100
AcDbSpline
210
0.0
220
0.0
230
1.0
 70
     8
 71
     3
 72
    13
 73
     9
 74
     0
 42
0.0000000001
 43
0.0000000001
 40
0.0
 40
0.0
 40
0.0
 40
0.0
 40
0.1604571392
 40
0.3334692485000001
 40
0.4767982758000001
 40
0.6242014838000002
 40
0.7505998515000001
 40
1.0
 40
1.0
 40
1.0
 40
1.0
 10
87.34075422870001
 20
12.0571311073
 30
0.0
 10
87.36974156450001
 20
12.05852679579999
 30
0.0
 10
87.42998434959998
 20
12.061427377
 30
0.0
 10
87.51099383120001
 20
12.096597979
 30
0.0
 10
87.5720371445
 20
12.1557168254
 30
0.0
 10
87.60643745240001
 20
12.2234942988
 30
0.0
 10
87.63281165530001
 20
12.3144184739
 30
0.0
 10
87.63388192159998
 20
12.3824618131
 30
0.0
 10
87.63459220729998
 20
12.4276190394
 30
0.0
  0
SPLINE
  5
252
330
22D
100
AcDbEntity
  8
DRW_FORMAT
  6
Continuous
 62
     7
100
AcDbSpline
210
0.0
220
0.0
230
1.0
 70
     8
 71
     3
 72
    13
 73
     9
 74
     0
 42
0.0000000001
 43
0.0000000001
 40
0.0
 40
0.0
 40
0.0
 40
0.0
 40
0.2494001485
 40
0.3757985162
 40
0.5232017242
 40
0.6665307515
 40
0.8395428607999999
 40
1.0
 40
1.0
 40
1.0
 40
1.0
 10
87.63459220729998
 20
12.4276190394
 30
0.0
 10
87.63388192159998
 20
12.4727762667
 30
0.0
 10
87.63281165530001
 20
12.54081960489999
 30
0.0
 10
87.60643745240001
 20
12.63174378089999
 30
0.0
 10
87.5720371445
 20
12.6995212544
 30
0.0
 10
87.51099383120001
 20
12.7586400998
 30
0.0
 10
87.42998434959998
 20
12.7938107018
 30
0.0
 10
87.36974156450001
 20
12.796711284
 30
0.0
 10
87.34075422870001
 20
12.7981069715
 30
0.0
  0
LINE
  5
253
330
22D
100
AcDbEntity
  8
DRW_FORMAT
  6
Continuous
 62
     7
100
AcDbLine
 10
87.34075422870001
 20
12.7981069715
 30
0.0
 11
86.1685306066
 21
12.7981069715
 31
0.0
  0
LINE
  5
254
330
22D
100
AcDbEntity
  8
DRW_FORMAT
  6
Continuous
 62
     7
100
AcDbLine
 10
86.10667304020001
 20
12.8599645379
 30
0.0
 11
86.10667304020001
 21
12.9770052591
 31
0.0
  0
ARC
  5
255
330
22D
100
AcDbEntity
  8
DRW_FORMAT
  6
Continuous
 62
     7
100
AcDbCircle
 10
86.16853060610001
 20
12.9770052591
 30
0.0
 40
0.0618575663
100
AcDbArc
 50
90.0
 51
180.0
  0
LINE
  5
256
330
22D
100
AcDbEntity
  8
DRW_FORMAT
  6
Continuous
 62
     7
100
AcDbLine
 10
86.1685306066
 20
13.03886282549999
 30
0.0
 11
87.5553111051
 21
13.03886282549999
 31
0.0
  0
ARC
  5
257
330
22D
100
AcDbEntity
  8
DRW_FORMAT
  6
Continuous
 62
     7
100
AcDbCircle
 10
87.5553111051
 20
13.1007203918
 30
0.0
 40
0.0618575663
100
AcDbArc
 50
270.0
 51
360.0
  0
LINE
  5
258
330
22D
100
AcDbEntity
  8
DRW_FORMAT
  6
Continuous
 62
     7
100
AcDbLine
 10
87.6171686714
 20
13.1007203918
 30
0.0
 11
87.6171686714
 21
13.2269460215
 31
0.0
  0
ARC
  5
259
330
22D
100
AcDbEntity
  8
DRW_FORMAT
  6
Continuous
 62
     7
100
AcDbCircle
 10
87.5553111051
 20
13.2269460215
 30
0.0
 40
0.0618575663
100
AcDbArc
 50
0.0
 51
90.0
  0
LINE
  5
25A
330
22D
100
AcDbEntity
  8
DRW_FORMAT
  6
Continuous
 62
     7
100
AcDbLine
 10
87.5553111051
 20
13.2888035878
 30
0.0
 11
85.81831167169999
 21
13.2888035878
 31
0.0
  0
SPLINE
  5
25B
330
22D
100
AcDbEntity
  8
DRW_FORMAT
  6
Continuous
 62
     7
100
AcDbSpline
210
0.0
220
0.0
230
1.0
 70
     8
 71
     3
 72
    13
 73
     9
 74
     0
 42
0.0000000001
 43
0.0000000001
 40
0.0
 40
0.0
 40
0.0
 40
0.0
 40
0.1133740464
 40
0.2392044088
 40
0.3655787964
 40
0.4912154373
 40
0.7445390876000002
 40
1.0
 40
1.0
 40
1.0
 40
1.0
 10
85.81831167169999
 20
13.2888035878
 30
0.0
 10
85.79846854100001
 20
13.2878262211
 30
0.0
 10
85.75660213149999
 20
13.285764104
 30
0.0
 10
85.6944137214
 20
13.2671840648
 30
0.0
 10
85.6387801282
 20
13.2296651792
 30
0.0
 10
85.5819499166
 20
13.1605539605
 30
0.0
 10
85.5461887423
 20
13.0520585423
 30
0.0
 10
85.5423104375
 20
12.963100528
 30
0.0
 10
85.54036314040001
 20
12.9184346763
 30
0.0
  0
SPLINE
  5
25C
330
22D
100
AcDbEntity
  8
DRW_FORMAT
  6
Continuous
 62
     7
100
AcDbSpline
210
0.0
220
0.0
230
1.0
 70
     8
 71
     3
 72
    13
 73
     9
 74
     0
 42
0.0000000001
 43
0.0000000001
 40
0.0
 40
0.0
 40
0.0
 40
0.0
 40
0.2554609124
 40
0.5087845627
 40
0.6344212036
 40
0.7607955912000001
 40
0.8866259535999999
 40
1.0
 40
1.0
 40
1.0
 40
1.0
 10
85.54036314040001
 20
12.9184346763
 30
0.0
 10
85.5423104375
 20
12.8737688246
 30
0.0
 10
85.5461887423
 20
12.7848108094
 30
0.0
 10
85.5819499166
 20
12.6763153921
 30
0.0
 10
85.6387801282
 20
12.60720417349999
 30
0.0
 10
85.6944137214
 20
12.5696852879
 30
0.0
 10
85.75660213149999
 20
12.5511052487
 30
0.0
 10
85.79846854100001
 20
12.5490431315
 30
0.0
 10
85.81831167169999
 20
12.5480657649
 30
0.0
  0
LINE
  5
25D
330
22D
100
AcDbEntity
  8
DRW_FORMAT
  6
Continuous
 62
     7
100
AcDbLine
 10
83.53274253569999
 20
12.0571311073
 30
0.0
 11
84.49388002
 21
12.0571311073
 31
0.0
  0
LINE
  5
25E
330
22D
100
AcDbEntity
  8
DRW_FORMAT
  6
Continuous
 62
     7
100
AcDbLine
 10
84.49388002
 20
12.0571311073
 30
0.0
 11
84.49388002
 21
11.93759495949999
 31
0.0
  0
ARC
  5
25F
330
22D
100
AcDbEntity
  8
DRW_FORMAT
  6
Continuous
 62
     7
100
AcDbCircle
 10
84.5176713917
 20
11.93759495949999
 30
0.0
 40
0.0237913717
100
AcDbArc
 50
180.0
 51
270.0
  0
LINE
  5
260
330
22D
100
AcDbEntity
  8
DRW_FORMAT
  6
Continuous
 62
     7
100
AcDbLine
 10
84.5176713917
 20
11.9138035878
 30
0.0
 11
84.88812724629999
 21
11.9138035878
 31
0.0
  0
ARC
  5
261
330
22D
100
AcDbEntity
  8
DRW_FORMAT
  6
Continuous
 62
     7
100
AcDbCircle
 10
84.88812724629999
 20
11.93759495949999
 30
0.0
 40
0.0237913717
100
AcDbArc
 50
270.0
 51
360.0
  0
LINE
  5
262
330
22D
100
AcDbEntity
  8
DRW_FORMAT
  6
Continuous
 62
     7
100
AcDbLine
 10
84.911918618
 20
11.93759495949999
 30
0.0
 11
84.911918618
 21
12.0571311073
 31
0.0
  0
LINE
  5
263
330
22D
100
AcDbEntity
  8
DRW_FORMAT
  6
Continuous
 62
     7
100
AcDbLine
 10
84.911918618
 20
12.0571311073
 30
0.0
 11
85.10091421979998
 21
12.0571311073
 31
0.0
  0
SPLINE
  5
264
330
22D
100
AcDbEntity
  8
DRW_FORMAT
  6
Continuous
 62
     7
100
AcDbSpline
210
0.0
220
0.0
230
1.0
 70
     8
 71
     3
 72
    12
 73
     8
 74
     0
 42
0.0000000001
 43
0.0000000001
 40
0.0
 40
0.0
 40
0.0
 40
0.0
 40
0.2415790084
 40
0.4893269843
 40
0.7378634303000001
 40
0.8656387112
 40
1.0
 40
1.0
 40
1.0
 40
1.0
 10
85.10091421979998
 20
12.0571311073
 30
0.0
 10
85.13480299310002
 20
12.0581846711
 30
0.0
 10
85.20344592529999
 20
12.0603187029
 30
0.0
 10
85.3038976939
 20
12.0961424751
 30
0.0
 10
85.36490403070001
 20
12.1637682767
 30
0.0
 10
85.3917813974
 20
12.2313389622
 30
0.0
 10
85.3922657668
 20
12.2683540407
 30
0.0
 10
85.3925140365
 20
12.287326569
 30
0.0
  0
LINE
  5
265
330
22D
100
AcDbEntity
  8
DRW_FORMAT
  6
Continuous
 62
     7
100
AcDbLine
 10
85.3925140365
 20
12.287326569
 30
0.0
 11
85.3925140365
 21
13.0571635216
 31
0.0
  0
SPLINE
  5
266
330
22D
100
AcDbEntity
  8
DRW_FORMAT
  6
Continuous
 62
     7
100
AcDbSpline
210
0.0
220
0.0
230
1.0
 70
     8
 71
     3
 72
    12
 73
     8
 74
     0
 42
0.0000000001
 43
0.0000000001
 40
0.0
 40
0.0
 40
0.0
 40
0.0
 40
0.1343612888
 40
0.2621365697
 40
0.5106730157000001
 40
0.7584209916
 40
1.0
 40
1.0
 40
1.0
 40
1.0
 10
85.3925140365
 20
13.0571635216
 30
0.0
 10
85.3922657668
 20
13.0761360509
 30
0.0
 10
85.3917813974
 20
13.1131511294
 30
0.0
 10
85.36490403070001
 20
13.1807218149
 30
0.0
 10
85.3038976939
 20
13.2483476165
 30
0.0
 10
85.20344592529999
 20
13.28417138779999
 30
0.0
 10
85.13480299310002
 20
13.28630541959999
 30
0.0
 10
85.10091421979998
 20
13.28735898329999
 30
0.0
  0
LINE
  5
267
330
22D
100
AcDbEntity
  8
DRW_FORMAT
  6
Continuous
 62
     7
100
AcDbLine
 10
85.10091421979998
 20
13.28735898329999
 30
0.0
 11
83.53274253569999
 21
13.28735898329999
 31
0.0
  0
SPLINE
  5
268
330
22D
100
AcDbEntity
  8
DRW_FORMAT
  6
Continuous
 62
     7
100
AcDbSpline
210
0.0
220
0.0
230
1.0
 70
     8
 71
     3
 72
    12
 73
     8
 74
     0
 42
0.0000000001
 43
0.0000000001
 40
0.0
 40
0.0
 40
0.0
 40
0.0
 40
0.1341799809
 40
0.2908319589999999
 40
0.5815217441
 40
0.7607838570000001
 40
1.0
 40
1.0
 40
1.0
 40
1.0
 10
83.53274253569999
 20
13.28735898329999
 30
0.0
 10
83.4985379271
 20
13.28151309119999
 30
0.0
 10
83.42440024149999
 20
13.26884225579999
 30
0.0
 10
83.2996013462
 20
13.17560529109999
 30
0.0
 10
83.2404902558
 20
13.01874346069999
 30
0.0
 10
83.2059048854
 20
12.8409261189
 30
0.0
 10
83.20330867
 20
12.73337408559999
 30
0.0
 10
83.2018245861
 20
12.6718937524
 30
0.0
  0
SPLINE
  5
269
330
22D
100
AcDbEntity
  8
DRW_FORMAT
  6
Continuous
 62
     7
100
AcDbSpline
210
0.0
220
0.0
230
1.0
 70
     8
 71
     3
 72
    12
 73
     8
 74
     0
 42
0.0000000001
 43
0.0000000001
 40
0.0
 40
0.0
 40
0.0
 40
0.0
 40
0.2392679579
 40
0.4185688994
 40
0.7093216488
 40
0.8660075581
 40
1.0
 40
1.0
 40
1.0
 40
1.0
 10
83.2018245861
 20
12.6718937524
 30
0.0
 10
83.20330926290001
 20
12.6104158155
 30
0.0
 10
83.20590651459999
 20
12.5028679742
 30
0.0
 10
83.2404844222
 20
12.3250204573
 30
0.0
 10
83.29963162789999
 20
12.1683046632
 30
0.0
 10
83.42430058999999
 20
12.0747649389
 30
0.0
 10
83.49852685270001
 20
12.062694947
 30
0.0
 10
83.53274253569999
 20
12.0571311073
 30
0.0
  0
LINE
  5
26A
330
22D
100
AcDbEntity
  8
DRW_FORMAT
  6
Continuous
 62
     7
100
AcDbLine
 10
85.0757442647
 20
12.3738625541
 30
0.0
 11
85.0757442647
 21
12.9906775457
 31
0.0
  0
ARC
  5
26B
330
22D
100
AcDbEntity
  8
DRW_FORMAT
  6
Continuous
 62
     7
100
AcDbCircle
 10
83.77799458010001
 20
12.3738625541
 30
0.0
 40
0.0618575663
100
AcDbArc
 50
180.0
 51
270.0
  0
LINE
  5
26C
330
22D
100
AcDbEntity
  8
DRW_FORMAT
  6
Continuous
 62
     7
100
AcDbLine
 10
83.77799458010001
 20
12.3120049877
 30
0.0
 11
84.4884690455
 21
12.3120049877
 31
0.0
  0
LINE
  5
26D
330
22D
100
AcDbEntity
  8
DRW_FORMAT
  6
Continuous
 62
     7
100
AcDbLine
 10
84.4884690455
 20
12.3120049877
 30
0.0
 11
84.4884690455
 21
12.43117076
 31
0.0
  0
ARC
  5
26E
330
22D
100
AcDbEntity
  8
DRW_FORMAT
  6
Continuous
 62
     7
100
AcDbCircle
 10
84.5122604177
 20
12.43117076
 30
0.0
 40
0.0237913717
100
AcDbArc
 50
90.0
 51
180.0
  0
LINE
  5
26F
330
22D
100
AcDbEntity
  8
DRW_FORMAT
  6
Continuous
 62
     7
100
AcDbLine
 10
84.5122604172
 20
12.4549621317
 30
0.0
 11
84.88082834569999
 21
12.4549621317
 31
0.0
  0
ARC
  5
270
330
22D
100
AcDbEntity
  8
DRW_FORMAT
  6
Continuous
 62
     7
100
AcDbCircle
 10
84.8808283448
 20
12.43117076089999
 30
0.0
 40
0.0237913717
100
AcDbArc
 50
0.0
 51
90.0
  0
LINE
  5
271
330
22D
100
AcDbEntity
  8
DRW_FORMAT
  6
Continuous
 62
     7
100
AcDbLine
 10
84.90461971729999
 20
12.3120049877
 30
0.0
 11
85.01388669829999
 21
12.3120049877
 31
0.0
  0
ARC
  5
272
330
22D
100
AcDbEntity
  8
DRW_FORMAT
  6
Continuous
 62
     7
100
AcDbCircle
 10
85.01388669829999
 20
12.3738625541
 30
0.0
 40
0.0618575663
100
AcDbArc
 50
270.0
 51
360.0
  0
LINE
  5
273
330
22D
100
AcDbEntity
  8
DRW_FORMAT
  6
Continuous
 62
     7
100
AcDbLine
 10
84.90461971729999
 20
12.3120049877
 30
0.0
 11
84.90461971729999
 21
12.43117076
 31
0.0
  0
LINE
  5
274
330
22D
100
AcDbEntity
  8
DRW_FORMAT
  6
Continuous
 62
     7
100
AcDbLine
 10
83.71613701380001
 20
12.3738625541
 30
0.0
 11
83.71613701380001
 21
12.9906775457
 31
0.0
  0
ARC
  5
275
330
22D
100
AcDbEntity
  8
DRW_FORMAT
  6
Continuous
 62
     7
100
AcDbCircle
 10
83.777994581
 20
12.9906775457
 30
0.0
 40
0.0618575663
100
AcDbArc
 50
90.0
 51
180.0
  0
LINE
  5
276
330
22D
100
AcDbEntity
  8
DRW_FORMAT
  6
Continuous
 62
     7
100
AcDbLine
 10
83.77799458010001
 20
13.052535112
 30
0.0
 11
85.01388669829999
 21
13.052535112
 31
0.0
  0
ARC
  5
277
330
22D
100
AcDbEntity
  8
DRW_FORMAT
  6
Continuous
 62
     7
100
AcDbCircle
 10
85.01388669890001
 20
12.9906775451
 30
0.0
 40
0.0618575663
100
AcDbArc
 50
0.0000000277
 51
90.00000002770001
  0
ARC
  5
278
330
22D
100
AcDbEntity
  8
DRW_FORMAT
  6
Continuous
 62
     7
100
AcDbCircle
 10
86.1685306066
 20
12.8599645379
 30
0.0
 40
0.0618575663
100
AcDbArc
 50
180.0
 51
270.0
  0
ARC
  5
279
330
22D
100
AcDbEntity
  8
DRW_FORMAT
  6
Continuous
 62
     7
100
AcDbCircle
 10
87.0063713428
 20
12.3599014374
 30
0.0
 40
0.0618575663
100
AcDbArc
 50
270.0
 51
360.0
  0
ARC
  5
27A
330
22D
100
AcDbEntity
  8
DRW_FORMAT
  6
Continuous
 62
     7
100
AcDbCircle
 10
88.35990813290001
 20
12.365260068
 30
0.0
 40
0.0618575663
100
AcDbArc
 50
180.0
 51
270.0
  0
ENDBLK
  5
27B
330
22D
100
AcDbEntity
  8
0
  6
ByBlock
 62
     0
100
AcDbBlockEnd
  0
BLOCK
  5
27C
330
22E
100
AcDbEntity
  8
0
  6
Continuous
 62
     7
100
AcDbBlockBegin
  2
*D2
 70
     1
 10
0.0
 20
0.0
 30
0.0
  3
*D2
  1

  0
LINE
  5
90E
330
22E
100
AcDbEntity
  8
0
  6
Continuous
 62
     0
370
    -2
100
AcDbLine
 10
44.5231109685
 20
79.2081218653
 30
0.0
 11
51.196509434
 21
79.2081218653
 31
0.0
  0
LINE
  5
90F
330
22E
100
AcDbEntity
  8
0
  6
Continuous
 62
     0
370
    -2
100
AcDbLine
 10
44.7358290317
 20
58.97312186529999
 30
0.0
 11
51.196509434
 21
58.97312186529998
 31
0.0
  0
LINE
  5
910
330
22E
100
AcDbEntity
  8
0
  6
Continuous
 62
     0
370
    -2
100
AcDbLine
 10
51.01650943400001
 20
78.2706218653
 30
0.0
 11
51.01650943400001
 21
71.39700818706666
 31
0.0
  0
LINE
  5
911
330
22E
100
AcDbEntity
  8
0
  6
Continuous
 62
     0
370
    -2
100
AcDbLine
 10
51.01650943400001
 20
59.91062186529998
 30
0.0
 11
51.01650943400001
 21
67.31367485373332
 31
0.0
  0
INSERT
  5
912
330
22E
100
AcDbEntity
  8
0
  6
Continuous
 62
     0
370
    -2
100
AcDbBlockReference
  2
_CLOSED
 10
51.01650943400001
 20
79.2081218653
 30
0.0
 41
0.9375
 42
0.9375
 43
0.9375
 50
90.0
  0
INSERT
  5
913
330
22E
100
AcDbEntity
  8
0
  6
Continuous
 62
     0
370
    -2
100
AcDbBlockReference
  2
_CLOSED
 10
51.01650943400001
 20
58.97312186529998
 30
0.0
 41
0.9375
 42
0.9375
 43
0.9375
 50
270.0
  0
MTEXT
  5
914
330
22E
100
AcDbEntity
  8
0
  6
Continuous
 62
     0
100
AcDbMText
 10
51.016509434
 20
69.3553415204
 30
0.0
 40
0.78125
 41
0.0
 71
     5
 72
     1
  1
\A1;20.24\P [514.0]
 73
     1
 44
1.0
  0
POINT
  5
915
330
22E
100
AcDbEntity
  8
Defpoints
  6
Continuous
 62
     0
100
AcDbPoint
 10
44.46061096850001
 20
79.2081218653
 30
0.0
  0
POINT
  5
916
330
22E
100
AcDbEntity
  8
Defpoints
  6
Continuous
 62
     0
100
AcDbPoint
 10
44.67332903169999
 20
58.97312186529999
 30
0.0
  0
POINT
  5
917
330
22E
100
AcDbEntity
  8
Defpoints
  6
Continuous
 62
     0
100
AcDbPoint
 10
51.01650943400001
 20
58.97312186529998
 30
0.0
  0
ENDBLK
  5
287
330
22E
100
AcDbEntity
  8
0
  6
ByBlock
 62
     0
100
AcDbBlockEnd
  0
BLOCK
  5
288
330
22F
100
AcDbEntity
  8
0
  6
Continuous
 62
     7
100
AcDbBlockBegin
  2
*D3
 70
     1
 10
0.0
 20
0.0
 30
0.0
  3
*D3
  1

  0
LINE
  5
904
330
22F
100
AcDbEntity
  8
0
  6
Continuous
 62
     0
370
    -2
100
AcDbLine
 10
14.39811096849999
 20
42.36471124909999
 30
0.0
 11
14.39811096849999
 21
46.98619993770001
 31
0.0
  0
LINE
  5
905
330
22F
100
AcDbEntity
  8
0
  6
Continuous
 62
     0
370
    -2
100
AcDbLine
 10
44.3981109685
 20
42.2987782007
 30
0.0
 11
44.3981109685
 21
46.98619993770001
 31
0.0
  0
LINE
  5
906
330
22F
100
AcDbEntity
  8
0
  6
Continuous
 62
     0
370
    -2
100
AcDbLine
 10
15.33561096849999
 20
46.8061999377
 30
0.0
 11
25.83942220686667
 21
46.8061999377
 31
0.0
  0
LINE
  5
907
330
22F
100
AcDbEntity
  8
0
  6
Continuous
 62
     0
370
    -2
100
AcDbLine
 10
43.4606109685
 20
46.8061999377
 30
0.0
 11
31.69358887353333
 21
46.8061999377
 31
0.0
  0
INSERT
  5
908
330
22F
100
AcDbEntity
  8
0
  6
Continuous
 62
     0
370
    -2
100
AcDbBlockReference
  2
_CLOSED
 10
14.39811096849999
 20
46.8061999377
 30
0.0
 41
0.9375
 42
0.9375
 43
0.9375
 50
180.0
  0
INSERT
  5
909
330
22F
100
AcDbEntity
  8
0
  6
Continuous
 62
     0
370
    -2
100
AcDbBlockReference
  2
_CLOSED
 10
44.3981109685
 20
46.8061999377
 30
0.0
 41
0.9375
 42
0.9375
 43
0.9375
  0
MTEXT
  5
90A
330
22F
100
AcDbEntity
  8
0
  6
Continuous
 62
     0
100
AcDbMText
 10
28.7665055402
 20
46.8061999377
 30
0.0
 40
0.78125
 41
0.0
 71
     5
 72
     1
  1
\A1;30.00\P [762.0]
 73
     1
 44
1.0
  0
POINT
  5
90B
330
22F
100
AcDbEntity
  8
Defpoints
  6
Continuous
 62
     0
100
AcDbPoint
 10
14.39811096849999
 20
42.30221124909999
 30
0.0
  0
POINT
  5
90C
330
22F
100
AcDbEntity
  8
Defpoints
  6
Continuous
 62
     0
100
AcDbPoint
 10
44.3981109685
 20
42.23627820069999
 30
0.0
  0
POINT
  5
90D
330
22F
100
AcDbEntity
  8
Defpoints
  6
Continuous
 62
     0
100
AcDbPoint
 10
44.3981109685
 20
46.8061999377
 30
0.0
  0
ENDBLK
  5
293
330
22F
100
AcDbEntity
  8
0
  6
ByBlock
 62
     0
100
AcDbBlockEnd
  0
BLOCK
  5
294
330
230
100
AcDbEntity
  8
0
  6
Continuous
 62
     7
100
AcDbBlockBegin
  2
*D4
 70
     1
 10
0.0
 20
0.0
 30
0.0
  3
*D4
  1

  0
TEXT
  5
295
330
230
100
AcDbEntity
  8
0
  6
Continuous
 62
     7
100
AcDbText
 10
91.9656755073
 20
37.8818184852
 30
0.0
 40
0.78125
  1
7.18
 41
0.8
100
AcDbText
  0
TEXT
  5
296
330
230
100
AcDbEntity
  8
0
  6
Continuous
 62
     7
100
AcDbText
 10
92.5906755073
 20
36.7099434852
 30
0.0
 40
0.78125
  1
182,4
 41
0.8
100
AcDbText
  0
TEXT
  5
297
330
230
100
AcDbEntity
  8
0
  6
Continuous
 62
     7
100
AcDbText
 10
91.9656755073
 20
36.7099434852
 30
0.0
 40
0.78125
  1
[
 41
0.8
100
AcDbText
  0
TEXT
  5
298
330
230
100
AcDbEntity
  8
0
  6
Continuous
 62
     7
100
AcDbText
 10
95.7156755073
 20
36.7099434852
 30
0.0
 40
0.78125
  1
]
 41
0.8
100
AcDbText
  0
LINE
  5
299
330
230
100
AcDbEntity
  8
0
  6
Continuous
 62
     7
100
AcDbLine
 10
86.4461167005
 20
41.23971124909999
 30
0.0
 11
94.7781755073
 21
41.23971124909999
 31
0.0
  0
LINE
  5
29A
330
230
100
AcDbEntity
  8
0
  6
Continuous
 62
     7
100
AcDbLine
 10
86.4461167005
 20
34.05971124909999
 30
0.0
 11
94.7781755073
 21
34.05971124909999
 31
0.0
  0
LINE
  5
29B
330
230
100
AcDbEntity
  8
0
  6
Continuous
 62
     7
100
AcDbLine
 10
94.1531755073
 20
41.23971124909999
 30
0.0
 11
94.1531755073
 21
39.0536934852
 31
0.0
  0
LINE
  5
29C
330
230
100
AcDbEntity
  8
0
  6
Continuous
 62
     7
100
AcDbLine
 10
94.1531755073
 20
34.05971124909999
 30
0.0
 11
94.1531755073
 21
36.3193184852
 31
0.0
  0
INSERT
  5
29D
330
230
100
AcDbEntity
  8
0
  6
Continuous
 62
     7
100
AcDbBlockReference
  2
_CLOSED
 10
94.1531755073
 20
41.23971124909999
 30
0.0
 41
0.9375
 42
0.9375
 43
0.9375
 50
90.0
  0
INSERT
  5
29E
330
230
100
AcDbEntity
  8
0
  6
Continuous
 62
     7
100
AcDbBlockReference
  2
_CLOSED
 10
94.1531755073
 20
34.05971124909999
 30
0.0
 41
0.9375
 42
0.9375
 43
0.9375
 50
270.0
  0
ENDBLK
  5
29F
330
230
100
AcDbEntity
  8
0
  6
ByBlock
 62
     0
100
AcDbBlockEnd
  0
BLOCK
  5
2A0
330
231
100
AcDbEntity
  8
0
  6
Continuous
 62
     7
100
AcDbBlockBegin
  2
*D5
 70
     1
 10
0.0
 20
0.0
 30
0.0
  3
*D5
  1

  0
LINE
  5
8FA
330
231
100
AcDbEntity
  8
0
  6
Continuous
 62
     0
370
    -2
100
AcDbLine
 10
81.25361670050001
 20
41.36471124909999
 30
0.0
 11
81.25361670050001
 21
44.8094348481
 31
0.0
  0
LINE
  5
8FB
330
231
100
AcDbEntity
  8
0
  6
Continuous
 62
     0
370
    -2
100
AcDbLine
 10
86.3836167005
 20
41.36471124909999
 30
0.0
 11
86.3836167005
 21
44.8094348481
 31
0.0
  0
LINE
  5
8FC
330
231
100
AcDbEntity
  8
0
  6
Continuous
 62
     0
370
    -2
100
AcDbLine
 10
82.19111670050001
 20
44.6294348481
 30
0.0
 11
85.4461167005
 21
44.6294348481
 31
0.0
  0
LINE
  5
8FD
330
231
100
AcDbEntity
  8
0
  6
Continuous
 62
     0
370
    -2
100
AcDbLine
 10
86.3836167005
 20
44.6294348481
 30
0.0
 11
88.03758175023332
 21
44.6294348481
 31
0.0
  0
INSERT
  5
8FE
330
231
100
AcDbEntity
  8
0
  6
Continuous
 62
     0
370
    -2
100
AcDbBlockReference
  2
_CLOSED
 10
81.25361670050001
 20
44.6294348481
 30
0.0
 41
0.9375
 42
0.9375
 43
0.9375
 50
180.0
  0
INSERT
  5
8FF
330
231
100
AcDbEntity
  8
0
  6
Continuous
 62
     0
370
    -2
100
AcDbBlockReference
  2
_CLOSED
 10
86.3836167005
 20
44.6294348481
 30
0.0
 41
0.9375
 42
0.9375
 43
0.9375
  0
MTEXT
  5
900
330
231
100
AcDbEntity
  8
0
  6
Continuous
 62
     0
100
AcDbMText
 10
90.8604984169
 20
44.6294348481
 30
0.0
 40
0.78125
 41
0.0
 71
     5
 72
     1
  1
\A1;5.13\P [130.3]
 73
     1
 44
1.0
  0
POINT
  5
901
330
231
100
AcDbEntity
  8
Defpoints
  6
Continuous
 62
     0
100
AcDbPoint
 10
81.25361670050001
 20
41.3022112491
 30
0.0
  0
POINT
  5
902
330
231
100
AcDbEntity
  8
Defpoints
  6
Continuous
 62
     0
100
AcDbPoint
 10
86.3836167005
 20
41.3022112491
 30
0.0
  0
POINT
  5
903
330
231
100
AcDbEntity
  8
Defpoints
  6
Continuous
 62
     0
100
AcDbPoint
 10
86.3836167005
 20
44.6294348481
 30
0.0
  0
ENDBLK
  5
2AB
330
231
100
AcDbEntity
  8
0
  6
ByBlock
 62
     0
100
AcDbBlockEnd
  0
BLOCK
  5
2AC
330
232
100
AcDbEntity
  8
0
  6
Continuous
 62
     7
100
AcDbBlockBegin
  2
*D6
 70
     1
 10
0.0
 20
0.0
 30
0.0
  3
*D6
  1

  0
LINE
  5
8F0
330
232
100
AcDbEntity
  8
0
  6
Continuous
 62
     0
370
    -2
100
AcDbLine
 10
86.5086167005
 20
34.05971124909999
 30
0.0
 11
94.35201228200002
 21
34.05971124909999
 31
0.0
  0
LINE
  5
8F1
330
232
100
AcDbEntity
  8
0
  6
Continuous
 62
     0
370
    -2
100
AcDbLine
 10
87.6336167005
 20
23.60971124909999
 30
0.0
 11
94.352012282
 21
23.60971124909999
 31
0.0
  0
LINE
  5
8F2
330
232
100
AcDbEntity
  8
0
  6
Continuous
 62
     0
370
    -2
100
AcDbLine
 10
94.17201228200003
 20
33.12221124909999
 30
0.0
 11
94.17201228200001
 21
30.59664897796665
 31
0.0
  0
LINE
  5
8F3
330
232
100
AcDbEntity
  8
0
  6
Continuous
 62
     0
370
    -2
100
AcDbLine
 10
94.17201228200001
 20
24.54721124909999
 30
0.0
 11
94.17201228200001
 21
26.51331564463331
 31
0.0
  0
INSERT
  5
8F4
330
232
100
AcDbEntity
  8
0
  6
Continuous
 62
     0
370
    -2
100
AcDbBlockReference
  2
_CLOSED
 10
94.17201228200003
 20
34.05971124909999
 30
0.0
 41
0.9375
 42
0.9375
 43
0.9375
 50
90.0
  0
INSERT
  5
8F5
330
232
100
AcDbEntity
  8
0
  6
Continuous
 62
     0
370
    -2
100
AcDbBlockReference
  2
_CLOSED
 10
94.17201228200001
 20
23.60971124909999
 30
0.0
 41
0.9375
 42
0.9375
 43
0.9375
 50
270.0
  0
MTEXT
  5
8F6
330
232
100
AcDbEntity
  8
0
  6
Continuous
 62
     0
100
AcDbMText
 10
94.17201228200001
 20
28.5549823113
 30
0.0
 40
0.78125
 41
0.0
 71
     5
 72
     1
  1
\A1;10.45\P [265.4]
 73
     1
 44
1.0
  0
POINT
  5
8F7
330
232
100
AcDbEntity
  8
Defpoints
  6
Continuous
 62
     0
100
AcDbPoint
 10
86.4461167005
 20
34.05971124909999
 30
0.0
  0
POINT
  5
8F8
330
232
100
AcDbEntity
  8
Defpoints
  6
Continuous
 62
     0
100
AcDbPoint
 10
87.57111670049999
 20
23.60971124909999
 30
0.0
  0
POINT
  5
8F9
330
232
100
AcDbEntity
  8
Defpoints
  6
Continuous
 62
     0
100
AcDbPoint
 10
94.17201228200001
 20
23.60971124909999
 30
0.0
  0
ENDBLK
  5
2B7
330
232
100
AcDbEntity
  8
0
  6
ByBlock
 62
     0
100
AcDbBlockEnd
  0
BLOCK
  5
2B8
330
233
100
AcDbEntity
  8
0
  6
Continuous
 62
     7
100
AcDbBlockBegin
  2
*D7
 70
     1
 10
0.0
 20
0.0
 30
0.0
  3
*D7
  1

  0
LINE
  5
8E6
330
233
100
AcDbEntity
  8
0
  6
Continuous
 62
     0
370
    -2
100
AcDbLine
 10
44.5231109685
 20
42.2397112491
 30
0.0
 11
50.87471167570001
 21
42.23971124909999
 31
0.0
  0
LINE
  5
8E7
330
233
100
AcDbEntity
  8
0
  6
Continuous
 62
     0
370
    -2
100
AcDbLine
 10
43.3981109685
 20
23.60971124909999
 30
0.0
 11
50.87471167570001
 21
23.60971124909999
 31
0.0
  0
LINE
  5
8E8
330
233
100
AcDbEntity
  8
0
  6
Continuous
 62
     0
370
    -2
100
AcDbLine
 10
50.6947116757
 20
41.30221124909999
 30
0.0
 11
50.6947116757
 21
36.18813162306664
 31
0.0
  0
LINE
  5
8E9
330
233
100
AcDbEntity
  8
0
  6
Continuous
 62
     0
370
    -2
100
AcDbLine
 10
50.6947116757
 20
24.54721124909999
 30
0.0
 11
50.6947116757
 21
32.10479828973332
 31
0.0
  0
INSERT
  5
8EA
330
233
100
AcDbEntity
  8
0
  6
Continuous
 62
     0
370
    -2
100
AcDbBlockReference
  2
_CLOSED
 10
50.6947116757
 20
42.23971124909999
 30
0.0
 41
0.9375
 42
0.9375
 43
0.9375
 50
90.0
  0
INSERT
  5
8EB
330
233
100
AcDbEntity
  8
0
  6
Continuous
 62
     0
370
    -2
100
AcDbBlockReference
  2
_CLOSED
 10
50.6947116757
 20
23.60971124909999
 30
0.0
 41
0.9375
 42
0.9375
 43
0.9375
 50
270.0
  0
MTEXT
  5
8EC
330
233
100
AcDbEntity
  8
0
  6
Continuous
 62
     0
100
AcDbMText
 10
50.6947116757
 20
34.14646495639999
 30
0.0
 40
0.78125
 41
0.0
 71
     5
 72
     1
  1
\A1;18.63\P [473.2]
 73
     1
 44
1.0
  0
POINT
  5
8ED
330
233
100
AcDbEntity
  8
Defpoints
  6
Continuous
 62
     0
100
AcDbPoint
 10
44.46061096850001
 20
42.2397112491
 30
0.0
  0
POINT
  5
8EE
330
233
100
AcDbEntity
  8
Defpoints
  6
Continuous
 62
     0
100
AcDbPoint
 10
43.3356109685
 20
23.60971124909999
 30
0.0
  0
POINT
  5
8EF
330
233
100
AcDbEntity
  8
Defpoints
  6
Continuous
 62
     0
100
AcDbPoint
 10
50.6947116757
 20
23.60971124909999
 30
0.0
  0
ENDBLK
  5
2C3
330
233
100
AcDbEntity
  8
0
  6
ByBlock
 62
     0
100
AcDbBlockEnd
  0
BLOCK
  5
2C4
330
234
100
AcDbEntity
  8
0
  6
Continuous
 62
     7
100
AcDbBlockBegin
  2
*D8
 70
     1
 10
0.0
 20
0.0
 30
0.0
  3
*D8
  1

  0
LINE
  5
8DB
330
234
100
AcDbEntity
  8
0
  6
Continuous
 62
     0
370
    -2
100
AcDbLine
 10
44.5231109685
 20
42.2397112491
 30
0.0
 11
45.56126376436668
 21
42.2397112491
 31
0.0
  0
LINE
  5
8DC
330
234
100
AcDbEntity
  8
0
  6
Continuous
 62
     0
370
    -2
100
AcDbLine
 10
39.02261096849999
 20
42.55371124909999
 30
0.0
 11
45.56126376436668
 21
42.55371124909999
 31
0.0
  0
LINE
  5
8DD
330
234
100
AcDbEntity
  8
0
  6
Continuous
 62
     0
370
    -2
100
AcDbLine
 10
45.38126376436667
 20
41.3022112491
 30
0.0
 11
45.38126376436667
 21
40.3647112491
 31
0.0
  0
LINE
  5
8DE
330
234
100
AcDbEntity
  8
0
  6
Continuous
 62
     0
370
    -2
100
AcDbLine
 10
45.38126376436667
 20
43.49121124909999
 30
0.0
 11
45.38126376436667
 21
44.52929064739999
 31
0.0
  0
LINE
  5
8DF
330
234
100
AcDbEntity
  8
0
  6
Continuous
 62
     0
370
    -2
100
AcDbLine
 10
45.38126376436667
 20
44.52929064739999
 30
0.0
 11
46.31876376436667
 21
44.52929064739999
 31
0.0
  0
INSERT
  5
8E0
330
234
100
AcDbEntity
  8
0
  6
Continuous
 62
     0
370
    -2
100
AcDbBlockReference
  2
_CLOSED
 10
45.38126376436667
 20
42.2397112491
 30
0.0
 41
0.9375
 42
0.9375
 43
0.9375
 50
90.0
  0
INSERT
  5
8E1
330
234
100
AcDbEntity
  8
0
  6
Continuous
 62
     0
370
    -2
100
AcDbBlockReference
  2
_CLOSED
 10
45.38126376436667
 20
42.55371124909999
 30
0.0
 41
0.9375
 42
0.9375
 43
0.9375
 50
270.0
  0
MTEXT
  5
8E2
330
234
100
AcDbEntity
  8
0
  6
Continuous
 62
     0
100
AcDbMText
 10
48.62084709770001
 20
44.5292906474
 30
0.0
 40
0.78125
 41
0.0
 71
     5
 72
     1
  1
\A1;.31\P [8.0]
 73
     1
 44
1.0
  0
POINT
  5
8E3
330
234
100
AcDbEntity
  8
Defpoints
  6
Continuous
 62
     0
100
AcDbPoint
 10
44.46061096850001
 20
42.2397112491
 30
0.0
  0
POINT
  5
8E4
330
234
100
AcDbEntity
  8
Defpoints
  6
Continuous
 62
     0
100
AcDbPoint
 10
38.96011096849999
 20
42.55371124909999
 30
0.0
  0
POINT
  5
8E5
330
234
100
AcDbEntity
  8
Defpoints
  6
Continuous
 62
     0
100
AcDbPoint
 10
45.38126376436667
 20
42.55371124909999
 30
0.0
  0
ENDBLK
  5
2D0
330
234
100
AcDbEntity
  8
0
  6
ByBlock
 62
     0
100
AcDbBlockEnd
  0
BLOCK
  5
2D1
330
235
100
AcDbEntity
  8
0
  6
Continuous
 62
     7
100
AcDbBlockBegin
  2
*D9
 70
     1
 10
0.0
 20
0.0
 30
0.0
  3
*D9
  1

  0
TEXT
  5
2D2
330
235
100
AcDbEntity
  8
0
  6
Continuous
 62
     7
100
AcDbText
 10
47.65908027890001
 20
20.5295728482
 30
0.0
 40
0.78125
  1
.75
 41
0.8
100
AcDbText
  0
TEXT
  5
2D3
330
235
100
AcDbEntity
  8
0
  6
Continuous
 62
     7
100
AcDbText
 10
48.28408027890001
 20
19.3576978482
 30
0.0
 40
0.78125
  1
19,1
 41
0.8
100
AcDbText
  0
TEXT
  5
2D4
330
235
100
AcDbEntity
  8
0
  6
Continuous
 62
     7
100
AcDbText
 10
47.65908027890001
 20
19.3576978482
 30
0.0
 40
0.78125
  1
[
 41
0.8
100
AcDbText
  0
TEXT
  5
2D5
330
235
100
AcDbEntity
  8
0
  6
Continuous
 62
     7
100
AcDbText
 10
50.78408027890001
 20
19.3576978482
 30
0.0
 40
0.78125
  1
]
 41
0.8
100
AcDbText
  0
LINE
  5
2D6
330
235
100
AcDbEntity
  8
0
  6
Continuous
 62
     7
100
AcDbLine
 10
43.3356109685
 20
23.60971124909999
 30
0.0
 11
47.03408027890001
 21
23.60971124909999
 31
0.0
  0
LINE
  5
2D7
330
235
100
AcDbEntity
  8
0
  6
Continuous
 62
     7
100
AcDbLine
 10
44.46061096850001
 20
24.3597112491
 30
0.0
 11
47.03408027890001
 21
24.3597112491
 31
0.0
  0
LINE
  5
2D8
330
235
100
AcDbEntity
  8
0
  6
Continuous
 62
     7
100
AcDbLine
 10
46.40908027890001
 20
23.60971124909999
 30
0.0
 11
46.40908027890001
 21
20.9201978482
 31
0.0
  0
LINE
  5
2D9
330
235
100
AcDbEntity
  8
0
  6
Continuous
 62
     7
100
AcDbLine
 10
46.40908027890001
 20
20.9201978482
 30
0.0
 11
47.26845527890001
 21
20.9201978482
 31
0.0
  0
LINE
  5
2DA
330
235
100
AcDbEntity
  8
0
  6
Continuous
 62
     7
100
AcDbLine
 10
46.40908027890001
 20
24.3597112491
 30
0.0
 11
46.40908027890001
 21
26.8597112491
 31
0.0
  0
INSERT
  5
2DB
330
235
100
AcDbEntity
  8
0
  6
Continuous
 62
     7
100
AcDbBlockReference
  2
_CLOSED
 10
46.40908027890001
 20
23.60971124909999
 30
0.0
 41
0.9375
 42
0.9375
 43
0.9375
 50
90.0
  0
INSERT
  5
2DC
330
235
100
AcDbEntity
  8
0
  6
Continuous
 62
     7
100
AcDbBlockReference
  2
_CLOSED
 10
46.40908027890001
 20
24.3597112491
 30
0.0
 41
0.9375
 42
0.9375
 43
0.9375
 50
270.0
  0
ENDBLK
  5
2DD
330
235
100
AcDbEntity
  8
0
  6
ByBlock
 62
     0
100
AcDbBlockEnd
  0
BLOCK
  5
2DE
330
236
100
AcDbEntity
  8
0
  6
Continuous
 62
     7
100
AcDbBlockBegin
  2
*D10
 70
     1
 10
0.0
 20
0.0
 30
0.0
  3
*D10
  1

  0
LINE
  5
8D1
330
236
100
AcDbEntity
  8
0
  6
Continuous
 62
     0
370
    -2
100
AcDbLine
 10
70.1336167005
 20
41.86471124909999
 30
0.0
 11
70.1336167005
 21
48.1385012954
 31
0.0
  0
LINE
  5
8D2
330
236
100
AcDbEntity
  8
0
  6
Continuous
 62
     0
370
    -2
100
AcDbLine
 10
81.25361670050001
 20
41.36471124909999
 30
0.0
 11
81.25361670050001
 21
48.1385012954
 31
0.0
  0
LINE
  5
8D3
330
236
100
AcDbEntity
  8
0
  6
Continuous
 62
     0
370
    -2
100
AcDbLine
 10
71.0711167005
 20
47.95850129539999
 30
0.0
 11
73.11969366093333
 21
47.95850129539999
 31
0.0
  0
LINE
  5
8D4
330
236
100
AcDbEntity
  8
0
  6
Continuous
 62
     0
370
    -2
100
AcDbLine
 10
80.31611670050001
 20
47.95850129539999
 30
0.0
 11
79.07802699426667
 21
47.95850129539999
 31
0.0
  0
INSERT
  5
8D5
330
236
100
AcDbEntity
  8
0
  6
Continuous
 62
     0
370
    -2
100
AcDbBlockReference
  2
_CLOSED
 10
70.1336167005
 20
47.95850129539999
 30
0.0
 41
0.9375
 42
0.9375
 43
0.9375
 50
180.0
  0
INSERT
  5
8D6
330
236
100
AcDbEntity
  8
0
  6
Continuous
 62
     0
370
    -2
100
AcDbBlockReference
  2
_CLOSED
 10
81.25361670050001
 20
47.95850129539999
 30
0.0
 41
0.9375
 42
0.9375
 43
0.9375
  0
MTEXT
  5
8D7
330
236
100
AcDbEntity
  8
0
  6
Continuous
 62
     0
100
AcDbMText
 10
76.09886032760001
 20
47.95850129539999
 30
0.0
 40
0.78125
 41
0.0
 71
     5
 72
     1
  1
\A1;11.12\P [282.4]
 73
     1
 44
1.0
  0
POINT
  5
8D8
330
236
100
AcDbEntity
  8
Defpoints
  6
Continuous
 62
     0
100
AcDbPoint
 10
70.1336167005
 20
41.8022112491
 30
0.0
  0
POINT
  5
8D9
330
236
100
AcDbEntity
  8
Defpoints
  6
Continuous
 62
     0
100
AcDbPoint
 10
81.25361670050001
 20
41.3022112491
 30
0.0
  0
POINT
  5
8DA
330
236
100
AcDbEntity
  8
Defpoints
  6
Continuous
 62
     0
100
AcDbPoint
 10
81.25361670050001
 20
47.95850129539999
 30
0.0
  0
ENDBLK
  5
2E9
330
236
100
AcDbEntity
  8
0
  6
ByBlock
 62
     0
100
AcDbBlockEnd
  0
ENDSEC
  0
SECTION
  2
ENTITIES
  0
LINE
  5
2F0
330
1F
100
AcDbEntity
  8
DRW_FORMAT
  6
PHANTOM
100
AcDbLine
 10
0.0
 20
0.0
 30
0.0
 11
110.0
 21
0.0
 31
0.0
  0
LINE
  5
2F1
330
1F
100
AcDbEntity
  8
DRW_FORMAT
  6
PHANTOM
100
AcDbLine
 10
0.0
 20
0.0
 30
0.0
 11
0.0270416934
 21
85.0759009827
 31
0.0
  0
LINE
  5
2F2
330
1F
100
AcDbEntity
  8
DRW_FORMAT
  6
Continuous
100
AcDbLine
 10
1.644688752199999
 20
83.4582539239
 30
0.0
 11
1.6176470588
 21
1.6176470588
 31
0.0
  0
LINE
  5
2F3
330
1F
100
AcDbEntity
  8
DRW_FORMAT
  6
Continuous
100
AcDbLine
 10
106.7917475757
 20
83.4582539239
 30
0.0
 11
106.7647058823999
 21
1.6176470588
 31
0.0
  0
LINE
  5
2F4
330
1F
100
AcDbEntity
  8
DRW_FORMAT
  6
Continuous
100
AcDbLine
 10
106.7917475757
 20
83.4582539239
 30
0.0
 11
1.644688752199999
 21
83.4582539239
 31
0.0
  0
LINE
  5
2F5
330
1F
100
AcDbEntity
  8
DRW_FORMAT
  6
Continuous
100
AcDbLine
 10
1.6176470588
 20
1.6176470588
 30
0.0
 11
106.7647058823999
 21
1.6176470588
 31
0.0
  0
LINE
  5
2F6
330
1F
100
AcDbEntity
  8
DRW_FORMAT
  6
Continuous
100
AcDbLine
 10
14.7880711051
 20
83.4582539239
 30
0.0
 11
14.7880711051
 21
85.0759009827
 31
0.0
  0
LINE
  5
2F7
330
1F
100
AcDbEntity
  8
DRW_FORMAT
  6
Continuous
100
AcDbLine
 10
27.9314534581
 20
83.4582539239
 30
0.0
 11
27.9314534581
 21
85.0759009827
 31
0.0
  0
LINE
  5
2F8
330
1F
100
AcDbEntity
  8
DRW_FORMAT
  6
Continuous
100
AcDbLine
 10
41.074835811
 20
83.4582539239
 30
0.0
 11
41.074835811
 21
85.0759009827
 31
0.0
  0
LINE
  5
2F9
330
1F
100
AcDbEntity
  8
DRW_FORMAT
  6
Continuous
100
AcDbLine
 10
67.36160051689999
 20
83.4582539239
 30
0.0
 11
67.36160051689999
 21
85.0759009827
 31
0.0
  0
LINE
  5
2FA
330
1F
100
AcDbEntity
  8
DRW_FORMAT
  6
Continuous
100
AcDbLine
 10
80.50498286979999
 20
83.4582539239
 30
0.0
 11
80.50498286979999
 21
85.0759009827
 31
0.0
  0
LINE
  5
2FB
330
1F
100
AcDbEntity
  8
DRW_FORMAT
  6
Continuous
100
AcDbLine
 10
93.6483652228
 20
83.4582539239
 30
0.0
 11
93.6483652228
 21
85.0759009827
 31
0.0
  0
LINE
  5
2FC
330
1F
100
AcDbEntity
  8
DRW_FORMAT
  6
Continuous
100
AcDbLine
 10
14.7610294118
 20
1.6176470588
 30
0.0
 11
14.7610294118
 21
0.0
 31
0.0
  0
LINE
  5
2FD
330
1F
100
AcDbEntity
  8
DRW_FORMAT
  6
Continuous
100
AcDbLine
 10
27.90441176469999
 20
1.6176470588
 30
0.0
 11
27.90441176469999
 21
0.0
 31
0.0
  0
LINE
  5
2FE
330
1F
100
AcDbEntity
  8
DRW_FORMAT
  6
Continuous
100
AcDbLine
 10
41.0477941176
 20
1.6176470588
 30
0.0
 11
41.0477941176
 21
0.0
 31
0.0
  0
LINE
  5
2FF
330
1F
100
AcDbEntity
  8
DRW_FORMAT
  6
Continuous
100
AcDbLine
 10
67.3345588235
 20
1.6176470588
 30
0.0
 11
67.3345588235
 21
0.0
 31
0.0
  0
LINE
  5
300
330
1F
100
AcDbEntity
  8
DRW_FORMAT
  6
Continuous
100
AcDbLine
 10
80.47794117649999
 20
1.6176470588
 30
0.0
 11
80.47794117649999
 21
0.0
 31
0.0
  0
LINE
  5
301
330
1F
100
AcDbEntity
  8
DRW_FORMAT
  6
Continuous
100
AcDbLine
 10
93.62132352939999
 20
1.6176470588
 30
0.0
 11
93.62132352939999
 21
0.0
 31
0.0
  0
LINE
  5
302
330
1F
100
AcDbEntity
  8
DRW_FORMAT
  6
Continuous
100
AcDbLine
 10
106.8963771867
 20
63.0194528931
 30
0.0
 11
108.5140242455999
 21
63.0194528931
 31
0.0
  0
LINE
  5
303
330
1F
100
AcDbEntity
  8
DRW_FORMAT
  6
Continuous
100
AcDbLine
 10
1.623776786599999
 20
62.99228358729999
 30
0.0
 11
0.0061297277
 21
62.99228358729999
 31
0.0
  0
LINE
  5
304
330
1F
100
AcDbEntity
  8
DRW_FORMAT
  6
Continuous
100
AcDbLine
 10
1.6176470588
 20
22.05870603969999
 30
0.0
 11
0.0
 21
22.05870603969999
 31
0.0
  0
LINE
  5
305
330
1F
100
AcDbEntity
  8
DRW_FORMAT
  6
Continuous
100
AcDbLine
 10
54.19117647060001
 20
1.6176470588
 30
0.0
 11
54.19117647060001
 21
0.0
 31
0.0
  0
LINE
  5
306
330
1F
100
AcDbEntity
  8
DRW_FORMAT
  6
Continuous
100
AcDbLine
 10
54.19117647060001
 20
1.6176470588
 30
0.0
 11
53.6455282993
 21
0.8491441009
 31
0.0
  0
LINE
  5
307
330
1F
100
AcDbEntity
  8
DRW_FORMAT
  6
Continuous
100
AcDbLine
 10
54.19117647060001
 20
1.6176470588
 30
0.0
 11
54.73682464189999
 21
0.8491441009
 31
0.0
  0
LINE
  5
308
330
1F
100
AcDbEntity
  8
DRW_FORMAT
  6
Continuous
100
AcDbLine
 10
53.6455282993
 20
0.8491441009
 30
0.0
 11
54.73682464189999
 21
0.8491441009
 31
0.0
  0
LINE
  5
309
330
1F
100
AcDbEntity
  8
DRW_FORMAT
  6
Continuous
100
AcDbLine
 10
106.8080740377
 20
42.5310853572
 30
0.0
 11
108.4257210964999
 21
42.5310853572
 31
0.0
  0
LINE
  5
30A
330
1F
100
AcDbEntity
  8
DRW_FORMAT
  6
Continuous
100
AcDbLine
 10
106.8080740377
 20
42.5310853572
 30
0.0
 11
107.5765769952
 21
41.9854371859
 31
0.0
  0
LINE
  5
30B
330
1F
100
AcDbEntity
  8
DRW_FORMAT
  6
Continuous
100
AcDbLine
 10
106.8080740377
 20
42.5310853572
 30
0.0
 11
107.5765769952
 21
43.0767335288
 31
0.0
  0
LINE
  5
30C
330
1F
100
AcDbEntity
  8
DRW_FORMAT
  6
Continuous
100
AcDbLine
 10
107.5765769952
 20
41.9854371859
 30
0.0
 11
107.5765769952
 21
43.0767335288
 31
0.0
  0
LINE
  5
30D
330
1F
100
AcDbEntity
  8
DRW_FORMAT
  6
Continuous
100
AcDbLine
 10
1.588655742899999
 20
42.5316554681
 30
0.0
 11
-0.028991316
 21
42.5316554681
 31
0.0
  0
LINE
  5
30E
330
1F
100
AcDbEntity
  8
DRW_FORMAT
  6
Continuous
100
AcDbLine
 10
1.588655742899999
 20
42.5316554681
 30
0.0
 11
0.8201527848999999
 21
41.98600729689999
 31
0.0
  0
LINE
  5
30F
330
1F
100
AcDbEntity
  8
DRW_FORMAT
  6
Continuous
100
AcDbLine
 10
1.588655742899999
 20
42.5316554681
 30
0.0
 11
0.8201527848999999
 21
43.07730363939999
 31
0.0
  0
LINE
  5
310
330
1F
100
AcDbEntity
  8
DRW_FORMAT
  6
Continuous
100
AcDbLine
 10
0.8201527848999999
 20
41.98600729689999
 30
0.0
 11
0.8201527848999999
 21
43.07730363939999
 31
0.0
  0
LINE
  5
311
330
1F
100
AcDbEntity
  8
DRW_FORMAT
  6
Continuous
100
AcDbLine
 10
54.218218164
 20
83.4582539239
 30
0.0
 11
54.218218164
 21
85.0759009827
 31
0.0
  0
LINE
  5
312
330
1F
100
AcDbEntity
  8
DRW_FORMAT
  6
Continuous
100
AcDbLine
 10
54.218218164
 20
83.4582539239
 30
0.0
 11
53.67256999270001
 21
84.2267568818
 31
0.0
  0
LINE
  5
313
330
1F
100
AcDbEntity
  8
DRW_FORMAT
  6
Continuous
100
AcDbLine
 10
54.218218164
 20
83.4582539239
 30
0.0
 11
54.7638663352
 21
84.2267568818
 31
0.0
  0
LINE
  5
314
330
1F
100
AcDbEntity
  8
DRW_FORMAT
  6
Continuous
100
AcDbLine
 10
53.67256999270001
 20
84.2267568818
 30
0.0
 11
54.7638663352
 21
84.2267568818
 31
0.0
  0
LINE
  5
315
330
1F
100
AcDbEntity
  8
DRW_FORMAT
  6
Continuous
100
AcDbLine
 10
11.55277698749999
 20
83.4582539239
 30
0.0
 11
11.55277698749999
 21
81.84060686509999
 31
0.0
  0
LINE
  5
316
330
1F
100
AcDbEntity
  8
DRW_FORMAT
  6
Continuous
100
AcDbLine
 10
11.55277698749999
 20
81.84060686509999
 30
0.0
 11
1.644688752199999
 21
81.84060686509999
 31
0.0
  0
LINE
  5
317
330
1F
100
AcDbEntity
  8
DRW_FORMAT
  6
PHANTOM
100
AcDbLine
 10
110.0
 20
0.0
 30
0.0
 11
110.0
 21
85.03507964569999
 31
0.0
  0
LINE
  5
318
330
1F
100
AcDbEntity
  8
DRW_FORMAT
  6
PHANTOM
100
AcDbLine
 10
0.027061441
 20
85.03507964569999
 30
0.0
 11
110.0
 21
85.03507964569999
 31
0.0
  0
TEXT
  5
319
330
1F
100
AcDbEntity
  8
DRW_FORMAT
  6
Continuous
100
AcDbText
 10
7.968230938699999
 20
0.6750980940000001
 30
0.0
 40
0.5055147059000001
  1
8
 41
0.8
100
AcDbText
  0
TEXT
  5
31A
330
1F
100
AcDbEntity
  8
DRW_FORMAT
  6
Continuous
100
AcDbText
 10
21.1116132917
 20
0.6750980940000001
 30
0.0
 40
0.5055147059000001
  1
7
 41
0.8
100
AcDbText
  0
TEXT
  5
31B
330
1F
100
AcDbEntity
  8
DRW_FORMAT
  6
Continuous
100
AcDbText
 10
34.2549956446
 20
0.6750980940000001
 30
0.0
 40
0.5055147059000001
  1
6
 41
0.8
100
AcDbText
  0
TEXT
  5
31C
330
1F
100
AcDbEntity
  8
DRW_FORMAT
  6
Continuous
100
AcDbText
 10
47.3983779976
 20
0.6750980940000001
 30
0.0
 40
0.5055147059000001
  1
5
 41
0.8
100
AcDbText
  0
TEXT
  5
31D
330
1F
100
AcDbEntity
  8
DRW_FORMAT
  6
Continuous
100
AcDbText
 10
60.5417603505
 20
0.6750980940000001
 30
0.0
 40
0.5055147059000001
  1
4
 41
0.8
100
AcDbText
  0
TEXT
  5
31E
330
1F
100
AcDbEntity
  8
DRW_FORMAT
  6
Continuous
100
AcDbText
 10
73.6851427034
 20
0.6750980940000001
 30
0.0
 40
0.5055147059000001
  1
3
 41
0.8
100
AcDbText
  0
TEXT
  5
31F
330
1F
100
AcDbEntity
  8
DRW_FORMAT
  6
Continuous
100
AcDbText
 10
86.82852505639999
 20
0.6750980940000001
 30
0.0
 40
0.5055147059000001
  1
2
 41
0.8
100
AcDbText
  0
TEXT
  5
320
330
1F
100
AcDbEntity
  8
DRW_FORMAT
  6
Continuous
100
AcDbText
 10
99.97190740930001
 20
0.6750980940000001
 30
0.0
 40
0.5055147059000001
  1
1
 41
0.8
100
AcDbText
  0
TEXT
  5
321
330
1F
100
AcDbEntity
  8
DRW_FORMAT
  6
Continuous
100
AcDbText
 10
8.1969327921
 20
83.95678192220001
 30
0.0
 40
0.5055150000000001
  1
8
 41
0.8
100
AcDbText
  0
TEXT
  5
322
330
1F
100
AcDbEntity
  8
DRW_FORMAT
  6
Continuous
100
AcDbText
 10
21.38684865619999
 20
83.9755885167
 30
0.0
 40
0.5055147059000001
  1
7
 41
0.8
100
AcDbText
  0
TEXT
  5
323
330
1F
100
AcDbEntity
  8
DRW_FORMAT
  6
Continuous
100
AcDbText
 10
34.5377593881
 20
83.92652515109999
 30
0.0
 40
0.5055147059000001
  1
6
 41
0.8
100
AcDbText
  0
TEXT
  5
324
330
1F
100
AcDbEntity
  8
DRW_FORMAT
  6
Continuous
100
AcDbText
 10
47.7070036178
 20
83.9800665481
 30
0.0
 40
0.5055147059000001
  1
5
 41
0.8
100
AcDbText
  0
TEXT
  5
325
330
1F
100
AcDbEntity
  8
DRW_FORMAT
  6
Continuous
100
AcDbText
 10
60.8526249864
 20
83.9458649606
 30
0.0
 40
0.5055147059000001
  1
4
 41
0.8
100
AcDbText
  0
TEXT
  5
326
330
1F
100
AcDbEntity
  8
DRW_FORMAT
  6
Continuous
100
AcDbText
 10
73.88159114609999
 20
83.94138692910001
 30
0.0
 40
0.5055147059000001
  1
3
 41
0.8
100
AcDbText
  0
TEXT
  5
327
330
1F
100
AcDbEntity
  8
DRW_FORMAT
  6
Continuous
100
AcDbText
 10
87.0203004877
 20
83.9458649606
 30
0.0
 40
0.5055147059000001
  1
2
 41
0.8
100
AcDbText
  0
TEXT
  5
328
330
1F
100
AcDbEntity
  8
DRW_FORMAT
  6
Continuous
100
AcDbText
 10
100.2292306481
 20
83.9949281792
 30
0.0
 40
0.5055150000000001
  1
1
 41
0.8
100
AcDbText
  0
TEXT
  5
329
330
1F
100
AcDbEntity
  8
DRW_FORMAT
  6
Continuous
100
AcDbText
 10
0.5715811561000001
 20
11.59035803769999
 30
0.0
 40
0.5055147059000001
  1
A
 41
0.8
100
AcDbText
  0
TEXT
  5
32A
330
1F
100
AcDbEntity
  8
DRW_FORMAT
  6
Continuous
100
AcDbText
 10
0.6412977654
 20
32.0058077173
 30
0.0
 40
0.5055147059000001
  1
B
 41
0.8
100
AcDbText
  0
TEXT
  5
32B
330
1F
100
AcDbEntity
  8
DRW_FORMAT
  6
Continuous
100
AcDbText
 10
0.668710943
 20
52.6554170346
 30
0.0
 40
0.5055147059000001
  1
C
 41
0.8
100
AcDbText
  0
TEXT
  5
32C
330
1F
100
AcDbEntity
  8
DRW_FORMAT
  6
Continuous
100
AcDbText
 10
0.5859941914000001
 20
73.02053931579999
 30
0.0
 40
0.5055147059000001
  1
D
 41
0.8
100
AcDbText
  0
TEXT
  5
32D
330
1F
100
AcDbEntity
  8
DRW_FORMAT
  6
Continuous
100
AcDbText
 10
107.4060036477
 20
9.910482188599999
 30
0.0
 40
0.5055147059000001
  1
A
 41
0.8
100
AcDbText
  0
TEXT
  5
32E
330
1F
100
AcDbEntity
  8
DRW_FORMAT
  6
Continuous
100
AcDbText
 10
107.9326888653
 20
52.43970520899999
 30
0.0
 40
0.5055147059000001
  1
C
 41
0.8
100
AcDbText
  0
TEXT
  5
32F
330
1F
100
AcDbEntity
  8
DRW_FORMAT
  6
Continuous
100
AcDbText
 10
108.0264691468
 20
70.73176597699999
 30
0.0
 40
0.5055147059000001
  1
D
 41
0.8
100
AcDbText
  0
TEXT
  5
330
330
1F
100
AcDbEntity
  8
DRW_FORMAT
  6
Continuous
100
AcDbText
 10
82.8838061943
 20
1.1888019948
 30
0.0
 40
0.2911764705999999
  1
MODEL INFO
 41
0.8
100
AcDbText
  0
TEXT
  5
331
330
1F
100
AcDbEntity
  8
DRW_FORMAT
  6
Continuous
100
AcDbText
 10
94.0923242286
 20
1.1707321146
 30
0.0
 40
0.2911764705999999
  1
DRAWING INFO
 41
0.8
100
AcDbText
  0
MTEXT
  5
332
330
1F
100
AcDbEntity
  8
DRW_FORMAT
  6
Continuous
100
AcDbMText
 10
1.962260568555659
 20
83.40197080410007
 30
0.0
 40
0.2426470588
 41
9.511764705900001
 71
     1
 72
     1
  1
THIS DOCUMENT CONTAINS PROPRIETARY INFORMATION\PWHICH IS THE PROPERTY OF QSC AUDIO PRODUCTS, THAT\PMAY NOT BE DISCLOSED, REPRODUCED OR USED WITHOUT\PEXPRESS WRITTEN CONSENT FROM QSC AUDIO PRODUCTS.
 73
     1
 44
1.0
  0
INSERT
  5
333
330
1F
100
AcDbEntity
  8
DRW_FORMAT
  6
Continuous
100
AcDbBlockReference
  2
RD010411_BL0
 10
86.52449000069999
 20
12.6013035878
 30
0.0
  0
LINE
  5
334
330
1F
100
AcDbEntity
  8
0
  6
Continuous
100
AcDbLine
 10
58.0396038681
 20
14.3908541046
 30
0.0
 11
69.2717666707
 21
7.8495801025
 31
0.0
  0
LINE
  5
335
330
1F
100
AcDbEntity
  8
0
  6
Continuous
100
AcDbLine
 10
69.2717666707
 20
14.3908541046
 30
0.0
 11
58.05583531729999
 21
7.8820430007
 31
0.0
  0
LINE
  5
336
330
1F
100
AcDbEntity
  8
0
  6
Continuous
100
AcDbLine
 10
69.2984107476
 20
6.578167629
 30
0.0
 11
72.4460868651
 21
6.059986271699999
 31
0.0
  0
LINE
  5
337
330
1F
100
AcDbEntity
  8
0
  6
Continuous
100
AcDbLine
 10
72.4350617299
 20
6.583680196699999
 30
0.0
 11
69.2873856124
 21
6.048961136399999
 31
0.0
  0
LINE
  5
338
330
1F
100
AcDbEntity
  8
0
  6
Continuous
100
AcDbLine
 10
28.9796109685
 20
42.3237112491
 30
0.0
 11
28.9796109685
 21
42.2397112491
 31
0.0
  0
LINE
  5
339
330
1F
100
AcDbEntity
  8
0
  6
Continuous
100
AcDbLine
 10
29.81661096849999
 20
42.3237112491
 30
0.0
 11
29.81661096849999
 21
42.2397112491
 31
0.0
  0
LINE
  5
33A
330
1F
100
AcDbEntity
  8
0
  6
Continuous
100
AcDbLine
 10
28.9796109685
 20
42.3237112491
 30
0.0
 11
28.9796109685
 21
42.2397112491
 31
0.0
  0
LINE
  5
33B
330
1F
100
AcDbEntity
  8
0
  6
Continuous
100
AcDbLine
 10
29.81661096849999
 20
42.3237112491
 30
0.0
 11
29.68689590789999
 21
42.3237112491
 31
0.0
  0
LINE
  5
33C
330
1F
100
AcDbEntity
  8
0
  6
Continuous
100
AcDbLine
 10
29.68689590789999
 20
42.3237112491
 30
0.0
 11
29.6867861031
 21
42.3237112491
 31
0.0
  0
LINE
  5
33D
330
1F
100
AcDbEntity
  8
0
  6
Continuous
100
AcDbLine
 10
29.6867861031
 20
42.3237112491
 30
0.0
 11
29.60123596849999
 21
42.3237112491
 31
0.0
  0
LINE
  5
33E
330
1F
100
AcDbEntity
  8
0
  6
Continuous
100
AcDbLine
 10
29.60123596849999
 20
42.3237112491
 30
0.0
 11
29.58561096849999
 21
42.3237112491
 31
0.0
  0
LINE
  5
33F
330
1F
100
AcDbEntity
  8
0
  6
Continuous
100
AcDbLine
 10
29.58561096849999
 20
42.3237112491
 30
0.0
 11
29.5424485358
 21
42.3237112491
 31
0.0
  0
LINE
  5
340
330
1F
100
AcDbEntity
  8
0
  6
Continuous
100
AcDbLine
 10
29.5424485358
 20
42.3237112491
 30
0.0
 11
29.4996734685
 21
42.3237112491
 31
0.0
  0
LINE
  5
341
330
1F
100
AcDbEntity
  8
0
  6
Continuous
100
AcDbLine
 10
29.4996734685
 20
42.3237112491
 30
0.0
 11
29.4967899703
 21
42.3237112491
 31
0.0
  0
LINE
  5
342
330
1F
100
AcDbEntity
  8
0
  6
Continuous
100
AcDbLine
 10
29.4967899703
 20
42.3237112491
 30
0.0
 11
29.2537734012
 21
42.3237112491
 31
0.0
  0
LINE
  5
343
330
1F
100
AcDbEntity
  8
0
  6
Continuous
100
AcDbLine
 10
29.2537734012
 20
42.3237112491
 30
0.0
 11
29.21061096849999
 21
42.3237112491
 31
0.0
  0
LINE
  5
344
330
1F
100
AcDbEntity
  8
0
  6
Continuous
100
AcDbLine
 10
29.21061096849999
 20
42.3237112491
 30
0.0
 11
29.1949882536
 21
42.3237112491
 31
0.0
  0
LINE
  5
345
330
1F
100
AcDbEntity
  8
0
  6
Continuous
100
AcDbLine
 10
29.1949882536
 20
42.3237112491
 30
0.0
 11
29.10943583389999
 21
42.3237112491
 31
0.0
  0
LINE
  5
346
330
1F
100
AcDbEntity
  8
0
  6
Continuous
100
AcDbLine
 10
29.10943583389999
 20
42.3237112491
 30
0.0
 11
29.10932602909999
 21
42.3237112491
 31
0.0
  0
LINE
  5
347
330
1F
100
AcDbEntity
  8
0
  6
Continuous
100
AcDbLine
 10
29.10932602909999
 20
42.3237112491
 30
0.0
 11
28.9796109685
 21
42.3237112491
 31
0.0
  0
LINE
  5
348
330
1F
100
AcDbEntity
  8
0
  6
Continuous
100
AcDbLine
 10
29.81661096849999
 20
42.3237112491
 30
0.0
 11
29.81661096849999
 21
42.2397112491
 31
0.0
  0
LINE
  5
349
330
1F
100
AcDbEntity
  8
0
  6
Continuous
100
AcDbLine
 10
19.97961096849999
 20
42.3237112491
 30
0.0
 11
19.97961096849999
 21
42.2397112491
 31
0.0
  0
LINE
  5
34A
330
1F
100
AcDbEntity
  8
0
  6
Continuous
100
AcDbLine
 10
20.8166109685
 20
42.3237112491
 30
0.0
 11
20.8166109685
 21
42.2397112491
 31
0.0
  0
LINE
  5
34B
330
1F
100
AcDbEntity
  8
0
  6
Continuous
100
AcDbLine
 10
19.97961096849999
 20
42.3237112491
 30
0.0
 11
19.97961096849999
 21
42.2397112491
 31
0.0
  0
LINE
  5
34C
330
1F
100
AcDbEntity
  8
0
  6
Continuous
100
AcDbLine
 10
20.8166109685
 20
42.3237112491
 30
0.0
 11
20.6868959079
 21
42.3237112491
 31
0.0
  0
LINE
  5
34D
330
1F
100
AcDbEntity
  8
0
  6
Continuous
100
AcDbLine
 10
20.6868959079
 20
42.3237112491
 30
0.0
 11
20.6867861031
 21
42.3237112491
 31
0.0
  0
LINE
  5
34E
330
1F
100
AcDbEntity
  8
0
  6
Continuous
100
AcDbLine
 10
20.6867861031
 20
42.3237112491
 30
0.0
 11
20.6012359685
 21
42.3237112491
 31
0.0
  0
LINE
  5
34F
330
1F
100
AcDbEntity
  8
0
  6
Continuous
100
AcDbLine
 10
20.6012359685
 20
42.3237112491
 30
0.0
 11
20.5856109685
 21
42.3237112491
 31
0.0
  0
LINE
  5
350
330
1F
100
AcDbEntity
  8
0
  6
Continuous
100
AcDbLine
 10
20.5856109685
 20
42.3237112491
 30
0.0
 11
20.54244853579999
 21
42.3237112491
 31
0.0
  0
LINE
  5
351
330
1F
100
AcDbEntity
  8
0
  6
Continuous
100
AcDbLine
 10
20.54244853579999
 20
42.3237112491
 30
0.0
 11
20.49967346849999
 21
42.3237112491
 31
0.0
  0
LINE
  5
352
330
1F
100
AcDbEntity
  8
0
  6
Continuous
100
AcDbLine
 10
20.49967346849999
 20
42.3237112491
 30
0.0
 11
20.4967899703
 21
42.3237112491
 31
0.0
  0
LINE
  5
353
330
1F
100
AcDbEntity
  8
0
  6
Continuous
100
AcDbLine
 10
20.4967899703
 20
42.3237112491
 30
0.0
 11
20.25377340119999
 21
42.3237112491
 31
0.0
  0
LINE
  5
354
330
1F
100
AcDbEntity
  8
0
  6
Continuous
100
AcDbLine
 10
20.25377340119999
 20
42.3237112491
 30
0.0
 11
20.2106109685
 21
42.3237112491
 31
0.0
  0
LINE
  5
355
330
1F
100
AcDbEntity
  8
0
  6
Continuous
100
AcDbLine
 10
20.2106109685
 20
42.3237112491
 30
0.0
 11
20.19498825359999
 21
42.3237112491
 31
0.0
  0
LINE
  5
356
330
1F
100
AcDbEntity
  8
0
  6
Continuous
100
AcDbLine
 10
20.19498825359999
 20
42.3237112491
 30
0.0
 11
20.1094358339
 21
42.3237112491
 31
0.0
  0
LINE
  5
357
330
1F
100
AcDbEntity
  8
0
  6
Continuous
100
AcDbLine
 10
20.1094358339
 20
42.3237112491
 30
0.0
 11
20.1093260291
 21
42.3237112491
 31
0.0
  0
LINE
  5
358
330
1F
100
AcDbEntity
  8
0
  6
Continuous
100
AcDbLine
 10
20.1093260291
 20
42.3237112491
 30
0.0
 11
19.97961096849999
 21
42.3237112491
 31
0.0
  0
LINE
  5
359
330
1F
100
AcDbEntity
  8
0
  6
Continuous
100
AcDbLine
 10
20.8166109685
 20
42.3237112491
 30
0.0
 11
20.8166109685
 21
42.2397112491
 31
0.0
  0
LINE
  5
35A
330
1F
100
AcDbEntity
  8
0
  6
Continuous
100
AcDbLine
 10
37.97961096849999
 20
42.3237112491
 30
0.0
 11
37.97961096849999
 21
42.2397112491
 31
0.0
  0
LINE
  5
35B
330
1F
100
AcDbEntity
  8
0
  6
Continuous
100
AcDbLine
 10
38.8166109685
 20
42.3237112491
 30
0.0
 11
38.8166109685
 21
42.2397112491
 31
0.0
  0
LINE
  5
35C
330
1F
100
AcDbEntity
  8
0
  6
Continuous
100
AcDbLine
 10
37.97961096849999
 20
42.3237112491
 30
0.0
 11
37.97961096849999
 21
42.2397112491
 31
0.0
  0
LINE
  5
35D
330
1F
100
AcDbEntity
  8
0
  6
Continuous
100
AcDbLine
 10
38.8166109685
 20
42.3237112491
 30
0.0
 11
38.6868959079
 21
42.3237112491
 31
0.0
  0
LINE
  5
35E
330
1F
100
AcDbEntity
  8
0
  6
Continuous
100
AcDbLine
 10
38.6868959079
 20
42.3237112491
 30
0.0
 11
38.68678610309999
 21
42.3237112491
 31
0.0
  0
LINE
  5
35F
330
1F
100
AcDbEntity
  8
0
  6
Continuous
100
AcDbLine
 10
38.68678610309999
 20
42.3237112491
 30
0.0
 11
38.6012359685
 21
42.3237112491
 31
0.0
  0
LINE
  5
360
330
1F
100
AcDbEntity
  8
0
  6
Continuous
100
AcDbLine
 10
38.6012359685
 20
42.3237112491
 30
0.0
 11
38.58561096849999
 21
42.3237112491
 31
0.0
  0
LINE
  5
361
330
1F
100
AcDbEntity
  8
0
  6
Continuous
100
AcDbLine
 10
38.58561096849999
 20
42.3237112491
 30
0.0
 11
38.5424485358
 21
42.3237112491
 31
0.0
  0
LINE
  5
362
330
1F
100
AcDbEntity
  8
0
  6
Continuous
100
AcDbLine
 10
38.5424485358
 20
42.3237112491
 30
0.0
 11
38.4996734685
 21
42.3237112491
 31
0.0
  0
LINE
  5
363
330
1F
100
AcDbEntity
  8
0
  6
Continuous
100
AcDbLine
 10
38.4996734685
 20
42.3237112491
 30
0.0
 11
38.4967899703
 21
42.3237112491
 31
0.0
  0
LINE
  5
364
330
1F
100
AcDbEntity
  8
0
  6
Continuous
100
AcDbLine
 10
38.4967899703
 20
42.3237112491
 30
0.0
 11
38.2537734012
 21
42.3237112491
 31
0.0
  0
LINE
  5
365
330
1F
100
AcDbEntity
  8
0
  6
Continuous
100
AcDbLine
 10
38.2537734012
 20
42.3237112491
 30
0.0
 11
38.2106109685
 21
42.3237112491
 31
0.0
  0
LINE
  5
366
330
1F
100
AcDbEntity
  8
0
  6
Continuous
100
AcDbLine
 10
38.2106109685
 20
42.3237112491
 30
0.0
 11
38.1949882536
 21
42.3237112491
 31
0.0
  0
LINE
  5
367
330
1F
100
AcDbEntity
  8
0
  6
Continuous
100
AcDbLine
 10
38.1949882536
 20
42.3237112491
 30
0.0
 11
38.1094358339
 21
42.3237112491
 31
0.0
  0
LINE
  5
368
330
1F
100
AcDbEntity
  8
0
  6
Continuous
100
AcDbLine
 10
38.1094358339
 20
42.3237112491
 30
0.0
 11
38.10932602909999
 21
42.3237112491
 31
0.0
  0
LINE
  5
369
330
1F
100
AcDbEntity
  8
0
  6
Continuous
100
AcDbLine
 10
38.10932602909999
 20
42.3237112491
 30
0.0
 11
37.97961096849999
 21
42.3237112491
 31
0.0
  0
LINE
  5
36A
330
1F
100
AcDbEntity
  8
0
  6
Continuous
100
AcDbLine
 10
38.8166109685
 20
42.3237112491
 30
0.0
 11
38.8166109685
 21
42.2397112491
 31
0.0
  0
ARC
  5
36B
330
1F
100
AcDbEntity
  8
0
  6
Continuous
100
AcDbCircle
 10
26.6121755809
 20
26.5718682524
 30
0.0
 40
0.0675
100
AcDbArc
 50
180.0
 51
360.0
  0
ARC
  5
36C
330
1F
100
AcDbEntity
  8
0
  6
Continuous
100
AcDbCircle
 10
26.6121755809
 20
26.5718682524
 30
0.0
 40
0.175
100
AcDbArc
 50
0.0
 51
180.0
  0
ARC
  5
36D
330
1F
100
AcDbEntity
  8
0
  6
Continuous
100
AcDbCircle
 10
26.6121755809
 20
26.5718682524
 30
0.0
 40
0.0675
100
AcDbArc
 50
0.0
 51
180.0
  0
ARC
  5
36E
330
1F
100
AcDbEntity
  8
0
  6
Continuous
100
AcDbCircle
 10
26.6121755809
 20
26.5718682524
 30
0.0
 40
0.175
100
AcDbArc
 50
180.0
 51
360.0
  0
ARC
  5
36F
330
1F
100
AcDbEntity
  8
0
  6
Continuous
100
AcDbCircle
 10
26.6121755809
 20
26.5718682524
 30
0.0
 40
0.0355
100
AcDbArc
 50
180.0
 51
360.0
  0
ARC
  5
370
330
1F
100
AcDbEntity
  8
0
  6
Continuous
100
AcDbCircle
 10
26.6121755809
 20
26.5718682524
 30
0.0
 40
0.0355
100
AcDbArc
 50
0.0
 51
180.0
  0
ARC
  5
371
330
1F
100
AcDbEntity
  8
0
  6
Continuous
100
AcDbCircle
 10
32.18404635609999
 20
26.5718682524
 30
0.0
 40
0.0675
100
AcDbArc
 50
180.0
 51
360.0
  0
ARC
  5
372
330
1F
100
AcDbEntity
  8
0
  6
Continuous
100
AcDbCircle
 10
32.18404635609999
 20
26.5718682524
 30
0.0
 40
0.175
100
AcDbArc
 50
0.0
 51
180.0
  0
ARC
  5
373
330
1F
100
AcDbEntity
  8
0
  6
Continuous
100
AcDbCircle
 10
32.18404635609999
 20
26.5718682524
 30
0.0
 40
0.0675
100
AcDbArc
 50
0.0
 51
180.0
  0
ARC
  5
374
330
1F
100
AcDbEntity
  8
0
  6
Continuous
100
AcDbCircle
 10
32.18404635609999
 20
26.5718682524
 30
0.0
 40
0.175
100
AcDbArc
 50
180.0
 51
360.0
  0
ARC
  5
375
330
1F
100
AcDbEntity
  8
0
  6
Continuous
100
AcDbCircle
 10
32.18404635609999
 20
26.5718682524
 30
0.0
 40
0.0355
100
AcDbArc
 50
180.0
 51
360.0
  0
ARC
  5
376
330
1F
100
AcDbEntity
  8
0
  6
Continuous
100
AcDbCircle
 10
32.18404635609999
 20
26.5718682524
 30
0.0
 40
0.0355
100
AcDbArc
 50
0.0
 51
180.0
  0
ARC
  5
377
330
1F
100
AcDbEntity
  8
0
  6
Continuous
100
AcDbCircle
 10
36.1239539652
 20
30.5117758615
 30
0.0
 40
0.0675
100
AcDbArc
 50
180.0
 51
360.0
  0
ARC
  5
378
330
1F
100
AcDbEntity
  8
0
  6
Continuous
100
AcDbCircle
 10
36.1239539652
 20
30.5117758615
 30
0.0
 40
0.175
100
AcDbArc
 50
0.0
 51
180.0
  0
ARC
  5
379
330
1F
100
AcDbEntity
  8
0
  6
Continuous
100
AcDbCircle
 10
36.1239539652
 20
30.5117758615
 30
0.0
 40
0.0675
100
AcDbArc
 50
0.0
 51
180.0
  0
ARC
  5
37A
330
1F
100
AcDbEntity
  8
0
  6
Continuous
100
AcDbCircle
 10
36.1239539652
 20
30.5117758615
 30
0.0
 40
0.175
100
AcDbArc
 50
180.0
 51
360.0
  0
ARC
  5
37B
330
1F
100
AcDbEntity
  8
0
  6
Continuous
100
AcDbCircle
 10
36.1239539652
 20
30.5117758615
 30
0.0
 40
0.0355
100
AcDbArc
 50
180.0
 51
360.0
  0
ARC
  5
37C
330
1F
100
AcDbEntity
  8
0
  6
Continuous
100
AcDbCircle
 10
36.1239539652
 20
30.5117758615
 30
0.0
 40
0.0355
100
AcDbArc
 50
0.0
 51
180.0
  0
ARC
  5
37D
330
1F
100
AcDbEntity
  8
0
  6
Continuous
100
AcDbCircle
 10
36.1239539652
 20
36.0836466367
 30
0.0
 40
0.0675
100
AcDbArc
 50
180.0
 51
360.0
  0
ARC
  5
37E
330
1F
100
AcDbEntity
  8
0
  6
Continuous
100
AcDbCircle
 10
36.1239539652
 20
36.0836466367
 30
0.0
 40
0.175
100
AcDbArc
 50
0.0
 51
180.0
  0
ARC
  5
37F
330
1F
100
AcDbEntity
  8
0
  6
Continuous
100
AcDbCircle
 10
36.1239539652
 20
36.0836466367
 30
0.0
 40
0.0675
100
AcDbArc
 50
0.0
 51
180.0
  0
ARC
  5
380
330
1F
100
AcDbEntity
  8
0
  6
Continuous
100
AcDbCircle
 10
36.1239539652
 20
36.0836466367
 30
0.0
 40
0.175
100
AcDbArc
 50
180.0
 51
360.0
  0
ARC
  5
381
330
1F
100
AcDbEntity
  8
0
  6
Continuous
100
AcDbCircle
 10
36.1239539652
 20
36.0836466367
 30
0.0
 40
0.0355
100
AcDbArc
 50
180.0
 51
360.0
  0
ARC
  5
382
330
1F
100
AcDbEntity
  8
0
  6
Continuous
100
AcDbCircle
 10
36.1239539652
 20
36.0836466367
 30
0.0
 40
0.0355
100
AcDbArc
 50
0.0
 51
180.0
  0
ARC
  5
383
330
1F
100
AcDbEntity
  8
0
  6
Continuous
100
AcDbCircle
 10
32.18404635609999
 20
40.0235542458
 30
0.0
 40
0.0675
100
AcDbArc
 50
180.0
 51
360.0
  0
ARC
  5
384
330
1F
100
AcDbEntity
  8
0
  6
Continuous
100
AcDbCircle
 10
32.18404635609999
 20
40.0235542458
 30
0.0
 40
0.175
100
AcDbArc
 50
0.0
 51
180.0
  0
ARC
  5
385
330
1F
100
AcDbEntity
  8
0
  6
Continuous
100
AcDbCircle
 10
32.18404635609999
 20
40.0235542458
 30
0.0
 40
0.0675
100
AcDbArc
 50
0.0
 51
180.0
  0
ARC
  5
386
330
1F
100
AcDbEntity
  8
0
  6
Continuous
100
AcDbCircle
 10
32.18404635609999
 20
40.0235542458
 30
0.0
 40
0.175
100
AcDbArc
 50
180.0
 51
360.0
  0
ARC
  5
387
330
1F
100
AcDbEntity
  8
0
  6
Continuous
100
AcDbCircle
 10
32.18404635609999
 20
40.0235542458
 30
0.0
 40
0.0355
100
AcDbArc
 50
180.0
 51
360.0
  0
ARC
  5
388
330
1F
100
AcDbEntity
  8
0
  6
Continuous
100
AcDbCircle
 10
32.18404635609999
 20
40.0235542458
 30
0.0
 40
0.0355
100
AcDbArc
 50
0.0
 51
180.0
  0
ARC
  5
389
330
1F
100
AcDbEntity
  8
0
  6
Continuous
100
AcDbCircle
 10
26.6121755809
 20
40.0235542458
 30
0.0
 40
0.0675
100
AcDbArc
 50
180.0
 51
360.0
  0
ARC
  5
38A
330
1F
100
AcDbEntity
  8
0
  6
Continuous
100
AcDbCircle
 10
26.6121755809
 20
40.0235542458
 30
0.0
 40
0.175
100
AcDbArc
 50
0.0
 51
180.0
  0
ARC
  5
38B
330
1F
100
AcDbEntity
  8
0
  6
Continuous
100
AcDbCircle
 10
26.6121755809
 20
40.0235542458
 30
0.0
 40
0.0675
100
AcDbArc
 50
0.0
 51
180.0
  0
ARC
  5
38C
330
1F
100
AcDbEntity
  8
0
  6
Continuous
100
AcDbCircle
 10
26.6121755809
 20
40.0235542458
 30
0.0
 40
0.175
100
AcDbArc
 50
180.0
 51
360.0
  0
ARC
  5
38D
330
1F
100
AcDbEntity
  8
0
  6
Continuous
100
AcDbCircle
 10
26.6121755809
 20
40.0235542458
 30
0.0
 40
0.0355
100
AcDbArc
 50
180.0
 51
360.0
  0
ARC
  5
38E
330
1F
100
AcDbEntity
  8
0
  6
Continuous
100
AcDbCircle
 10
26.6121755809
 20
40.0235542458
 30
0.0
 40
0.0355
100
AcDbArc
 50
0.0
 51
180.0
  0
ARC
  5
38F
330
1F
100
AcDbEntity
  8
0
  6
Continuous
100
AcDbCircle
 10
22.67226797179999
 20
36.0836466367
 30
0.0
 40
0.0675
100
AcDbArc
 50
180.0
 51
360.0
  0
ARC
  5
390
330
1F
100
AcDbEntity
  8
0
  6
Continuous
100
AcDbCircle
 10
22.67226797179999
 20
36.0836466367
 30
0.0
 40
0.175
100
AcDbArc
 50
0.0
 51
180.0
  0
ARC
  5
391
330
1F
100
AcDbEntity
  8
0
  6
Continuous
100
AcDbCircle
 10
22.67226797179999
 20
36.0836466367
 30
0.0
 40
0.0675
100
AcDbArc
 50
0.0
 51
180.0
  0
ARC
  5
392
330
1F
100
AcDbEntity
  8
0
  6
Continuous
100
AcDbCircle
 10
22.67226797179999
 20
36.0836466367
 30
0.0
 40
0.175
100
AcDbArc
 50
180.0
 51
360.0
  0
ARC
  5
393
330
1F
100
AcDbEntity
  8
0
  6
Continuous
100
AcDbCircle
 10
22.67226797179999
 20
36.0836466367
 30
0.0
 40
0.0355
100
AcDbArc
 50
180.0
 51
360.0
  0
ARC
  5
394
330
1F
100
AcDbEntity
  8
0
  6
Continuous
100
AcDbCircle
 10
22.67226797179999
 20
36.0836466367
 30
0.0
 40
0.0355
100
AcDbArc
 50
0.0
 51
180.0
  0
ARC
  5
395
330
1F
100
AcDbEntity
  8
0
  6
Continuous
100
AcDbCircle
 10
22.67226797179999
 20
30.5117758615
 30
0.0
 40
0.0675
100
AcDbArc
 50
180.0
 51
360.0
  0
ARC
  5
396
330
1F
100
AcDbEntity
  8
0
  6
Continuous
100
AcDbCircle
 10
22.67226797179999
 20
30.5117758615
 30
0.0
 40
0.175
100
AcDbArc
 50
0.0
 51
180.0
  0
ARC
  5
397
330
1F
100
AcDbEntity
  8
0
  6
Continuous
100
AcDbCircle
 10
22.67226797179999
 20
30.5117758615
 30
0.0
 40
0.0675
100
AcDbArc
 50
0.0
 51
180.0
  0
ARC
  5
398
330
1F
100
AcDbEntity
  8
0
  6
Continuous
100
AcDbCircle
 10
22.67226797179999
 20
30.5117758615
 30
0.0
 40
0.175
100
AcDbArc
 50
180.0
 51
360.0
  0
ARC
  5
399
330
1F
100
AcDbEntity
  8
0
  6
Continuous
100
AcDbCircle
 10
22.67226797179999
 20
30.5117758615
 30
0.0
 40
0.0355
100
AcDbArc
 50
180.0
 51
360.0
  0
ARC
  5
39A
330
1F
100
AcDbEntity
  8
0
  6
Continuous
100
AcDbCircle
 10
22.67226797179999
 20
30.5117758615
 30
0.0
 40
0.0355
100
AcDbArc
 50
0.0
 51
180.0
  0
LINE
  5
39B
330
1F
100
AcDbEntity
  8
0
  6
Continuous
100
AcDbLine
 10
29.52286096849999
 20
42.55371124909999
 30
0.0
 11
29.1486125741
 21
42.55371124909999
 31
0.0
  0
LINE
  5
39C
330
1F
100
AcDbEntity
  8
0
  6
Continuous
100
AcDbLine
 10
29.10943583389999
 20
42.53109347459999
 30
0.0
 11
29.10943583389999
 21
42.3237112491
 31
0.0
  0
LINE
  5
39D
330
1F
100
AcDbEntity
  8
0
  6
Continuous
100
AcDbLine
 10
29.6867861031
 20
42.53109347459999
 30
0.0
 11
29.6867861031
 21
42.3237112491
 31
0.0
  0
LINE
  5
39E
330
1F
100
AcDbEntity
  8
0
  6
Continuous
100
AcDbLine
 10
29.6476093628
 20
42.55371124909999
 30
0.0
 11
29.52286096849999
 21
42.55371124909999
 31
0.0
  0
LINE
  5
39F
330
1F
100
AcDbEntity
  8
0
  6
Continuous
100
AcDbLine
 10
29.6476109685
 20
42.55371124909999
 30
0.0
 11
29.6867861031
 21
42.53109347459999
 31
0.0
  0
LINE
  5
3A0
330
1F
100
AcDbEntity
  8
0
  6
Continuous
100
AcDbLine
 10
29.1486109685
 20
42.55371124909999
 30
0.0
 11
29.10943583389999
 21
42.53109347459999
 31
0.0
  0
SPLINE
  5
3A1
330
1F
100
AcDbEntity
  8
0
  6
Continuous
100
AcDbSpline
210
0.0
220
0.0
230
1.0
 70
     8
 71
     3
 72
    17
 73
    13
 74
    11
 42
0.0000000001
 43
0.0000000001
 44
0.0000000001
 12
-0.8660254037637811
 22
0.5000000000357799
 32
0.0
 13
-0.8660254037637811
 23
-0.5000000000357799
 33
0.0
 40
0.0
 40
0.0
 40
0.0
 40
0.0
 40
0.016267141661515
 40
0.0318539087111315
 40
0.0469825673375919
 40
0.0617833092612168
 40
0.0764018809607263
 40
0.0910204526602358
 40
0.1058211944857754
 40
0.1209498531122324
 40
0.1365366201618522
 40
0.1528037618233673
 40
0.1528037618233673
 40
0.1528037618233673
 40
0.1528037618233673
 10
29.6867861031
 20
42.53109347459999
 30
0.0
 10
29.6820901837915
 20
42.53380466487711
 30
0.0
 10
29.67272285199375
 20
42.53882634007201
 30
0.0
 10
29.65835607273945
 20
42.54510907978337
 30
0.0
 10
29.64390160132625
 20
42.54981418324476
 30
0.0
 10
29.62930710081829
 20
42.55275301395608
 30
0.0
 10
29.61461731940041
 20
42.55375528099579
 30
0.0
 10
29.59992753801274
 20
42.55275301396589
 30
0.0
 10
29.58533303754375
 20
42.54981418322884
 30
0.0
 10
29.57087856616022
 20
42.54510907978499
 30
0.0
 10
29.55651178690634
 20
42.5388263400715
 30
0.0
 10
29.5471444551085
 20
42.53380466487711
 30
0.0
 10
29.5424485358
 20
42.53109347459999
 30
0.0
 11
29.6867861031
 21
42.53109347459999
 31
0.0
 11
29.6724254289
 21
42.5387348707
 31
0.0
 11
29.6581228263
 21
42.54493026139999
 31
0.0
 11
29.6437206472
 21
42.549562059
 31
0.0
 11
29.6292030526
 21
42.5524432755
 31
0.0
 11
29.6146173194
 21
42.553422574
 31
0.0
 11
29.6000315862
 21
42.5524432755
 31
0.0
 11
29.5855139917
 21
42.549562059
 31
0.0
 11
29.5711118126
 21
42.54493026139999
 31
0.0
 11
29.55680921
 21
42.5387348707
 31
0.0
 11
29.5424485358
 21
42.53109347459999
 31
0.0
  0
SPLINE
  5
3A2
330
1F
100
AcDbEntity
  8
0
  6
Continuous
100
AcDbSpline
210
0.0
220
0.0
230
1.0
 70
     8
 71
     3
 72
    17
 73
    13
 74
    11
 42
0.0000000001
 43
0.0000000001
 44
0.0000000001
 12
-0.9607689228259438
 22
0.2773500981284766
 32
0.0
 13
-0.9607689228259438
 23
-0.2773500981284766
 33
0.0
 40
0.0
 40
0.0
 40
0.0
 40
0.0
 40
0.0297204775915772
 40
0.0589889013697645
 40
0.0881632840724408
 40
0.1173410772479473
 40
0.1465289766523939
 40
0.1757168761567825
 40
0.204894669332289
 40
0.2340690519362354
 40
0.2633374757144227
 40
0.2930579533059998
 40
0.2930579533059998
 40
0.2930579533059998
 40
0.2930579533059998
 10
29.5424485358
 20
42.53109347459999
 30
0.0
 10
29.53293036538615
 20
42.53384113372548
 30
0.0
 10
29.51392802326934
 20
42.53892261457423
 30
0.0
 10
29.48520253156064
 20
42.54518260756351
 30
0.0
 10
29.45635551541667
 20
42.54985568664256
 30
0.0
 10
29.42730086505955
 20
42.5527633531483
 30
0.0
 10
29.39811096846664
 20
42.55375224149893
 30
0.0
 10
29.3689210718739
 20
42.55276335315004
 30
0.0
 10
29.33986642151507
 20
42.54985568665214
 30
0.0
 10
29.31101940540803
 20
42.54518260755133
 30
0.0
 10
29.28229391373041
 20
42.53892261457573
 30
0.0
 10
29.26329157161384
 20
42.53384113372548
 30
0.0
 10
29.2537734012
 20
42.53109347459999
 30
0.0
 11
29.5424485358
 21
42.53109347459999
 31
0.0
 11
29.5137271874
 21
42.5387348707
 31
0.0
 11
29.48512198219999
 21
42.54493026139999
 31
0.0
 11
29.4563176239
 21
42.549562059
 31
0.0
 11
29.42728243479999
 21
42.5524432755
 31
0.0
 11
29.3981109685
 21
42.553422574
 31
0.0
 11
29.3689395021
 21
42.5524432755
 31
0.0
 11
29.339904313
 21
42.549562059
 31
0.0
 11
29.31109995479999
 21
42.54493026139999
 31
0.0
 11
29.2824947496
 21
42.5387348707
 31
0.0
 11
29.2537734012
 21
42.53109347459999
 31
0.0
  0
LINE
  5
3A3
330
1F
100
AcDbEntity
  8
0
  6
Continuous
100
AcDbLine
 10
29.5424485358
 20
42.53109347459999
 30
0.0
 11
29.5424485358
 21
42.3237112491
 31
0.0
  0
SPLINE
  5
3A4
330
1F
100
AcDbEntity
  8
0
  6
Continuous
100
AcDbSpline
210
0.0
220
0.0
230
1.0
 70
     8
 71
     3
 72
    17
 73
    13
 74
    11
 42
0.0000000001
 43
0.0000000001
 44
0.0000000001
 12
-0.8660254037637811
 22
0.5000000000357799
 32
0.0
 13
-0.8660254037637811
 23
-0.5000000000357799
 33
0.0
 40
0.0
 40
0.0
 40
0.0
 40
0.0
 40
0.016267141661515
 40
0.0318539087111315
 40
0.0469825673375886
 40
0.0617833092612169
 40
0.0764018809607264
 40
0.0910204525604587
 40
0.1058211944840871
 40
0.1209498531105441
 40
0.1365366201601639
 40
0.1528037618216789
 40
0.1528037618216789
 40
0.1528037618216789
 40
0.1528037618216789
 10
29.2537734012
 20
42.53109347459999
 30
0.0
 10
29.2490774818915
 20
42.53380466487711
 30
0.0
 10
29.23971015009374
 20
42.53882634007204
 30
0.0
 10
29.22534337083947
 20
42.54510907978324
 30
0.0
 10
29.21088889942621
 20
42.54981418324521
 30
0.0
 10
29.19629439891846
 20
42.55275301395445
 30
0.0
 10
29.18160461753307
 20
42.55375528099956
 30
0.0
 10
29.16691483614892
 20
42.55275301394783
 30
0.0
 10
29.15232033567377
 20
42.54981418324522
 30
0.0
 10
29.13786586426053
 20
42.54510907978323
 30
0.0
 10
29.12349908500625
 20
42.53882634007204
 30
0.0
 10
29.11413175320849
 20
42.53380466487711
 30
0.0
 10
29.10943583389999
 20
42.53109347459999
 30
0.0
 11
29.2537734012
 21
42.53109347459999
 31
0.0
 11
29.239412727
 21
42.5387348707
 31
0.0
 11
29.2251101244
 21
42.54493026139999
 31
0.0
 11
29.2107079453
 21
42.549562059
 31
0.0
 11
29.1961903507
 21
42.5524432755
 31
0.0
 11
29.1816046175
 21
42.553422574
 31
0.0
 11
29.1670188844
 21
42.5524432755
 31
0.0
 11
29.1525012898
 21
42.549562059
 31
0.0
 11
29.1380991107
 21
42.54493026139999
 31
0.0
 11
29.1237965081
 21
42.5387348707
 31
0.0
 11
29.10943583389999
 21
42.53109347459999
 31
0.0
  0
LINE
  5
3A5
330
1F
100
AcDbEntity
  8
0
  6
Continuous
100
AcDbLine
 10
29.2537734012
 20
42.53109347459999
 30
0.0
 11
29.2537734012
 21
42.3237112491
 31
0.0
  0
LINE
  5
3A6
330
1F
100
AcDbEntity
  8
0
  6
Continuous
100
AcDbLine
 10
20.5228609685
 20
42.55371124909999
 30
0.0
 11
20.1486125741
 21
42.55371124909999
 31
0.0
  0
LINE
  5
3A7
330
1F
100
AcDbEntity
  8
0
  6
Continuous
100
AcDbLine
 10
20.1094358339
 20
42.53109347459999
 30
0.0
 11
20.1094358339
 21
42.3237112491
 31
0.0
  0
LINE
  5
3A8
330
1F
100
AcDbEntity
  8
0
  6
Continuous
100
AcDbLine
 10
20.6867861031
 20
42.53109347459999
 30
0.0
 11
20.6867861031
 21
42.3237112491
 31
0.0
  0
LINE
  5
3A9
330
1F
100
AcDbEntity
  8
0
  6
Continuous
100
AcDbLine
 10
20.6476093628
 20
42.55371124909999
 30
0.0
 11
20.5228609685
 21
42.55371124909999
 31
0.0
  0
LINE
  5
3AA
330
1F
100
AcDbEntity
  8
0
  6
Continuous
100
AcDbLine
 10
20.6476109685
 20
42.55371124909999
 30
0.0
 11
20.6867861031
 21
42.53109347459999
 31
0.0
  0
LINE
  5
3AB
330
1F
100
AcDbEntity
  8
0
  6
Continuous
100
AcDbLine
 10
20.14861096849999
 20
42.55371124909999
 30
0.0
 11
20.1094358339
 21
42.53109347459999
 31
0.0
  0
SPLINE
  5
3AC
330
1F
100
AcDbEntity
  8
0
  6
Continuous
100
AcDbSpline
210
0.0
220
0.0
230
1.0
 70
     8
 71
     3
 72
    17
 73
    13
 74
    11
 42
0.0000000001
 43
0.0000000001
 44
0.0000000001
 12
-0.8660254037637811
 22
0.5000000000357799
 32
0.0
 13
-0.8660254037637811
 23
-0.5000000000357799
 33
0.0
 40
0.0
 40
0.0
 40
0.0
 40
0.0
 40
0.0162671416615119
 40
0.0318539087111316
 40
0.0469825673375921
 40
0.061783309261217
 40
0.0764018809607264
 40
0.0910204526602359
 40
0.1058211944857756
 40
0.1209498531122326
 40
0.1365366201618523
 40
0.1528037618233674
 40
0.1528037618233674
 40
0.1528037618233674
 40
0.1528037618233674
 10
20.6867861031
 20
42.53109347459999
 30
0.0
 10
20.6820901837915
 20
42.53380466487711
 30
0.0
 10
20.67272285199375
 20
42.53882634007202
 30
0.0
 10
20.65835607273945
 20
42.54510907978336
 30
0.0
 10
20.64390160132625
 20
42.54981418324475
 30
0.0
 10
20.6293071008183
 20
42.55275301395609
 30
0.0
 10
20.61461731940041
 20
42.55375528099579
 30
0.0
 10
20.59992753801273
 20
42.55275301396589
 30
0.0
 10
20.58533303754376
 20
42.54981418322885
 30
0.0
 10
20.57087856616022
 20
42.54510907978498
 30
0.0
 10
20.55651178690634
 20
42.53882634007151
 30
0.0
 10
20.54714445510849
 20
42.53380466487711
 30
0.0
 10
20.54244853579999
 20
42.53109347459999
 30
0.0
 11
20.6867861031
 21
42.53109347459999
 31
0.0
 11
20.6724254289
 21
42.5387348707
 31
0.0
 11
20.6581228263
 21
42.54493026139999
 31
0.0
 11
20.6437206472
 21
42.549562059
 31
0.0
 11
20.6292030526
 21
42.5524432755
 31
0.0
 11
20.6146173194
 21
42.553422574
 31
0.0
 11
20.6000315862
 21
42.5524432755
 31
0.0
 11
20.5855139917
 21
42.549562059
 31
0.0
 11
20.5711118126
 21
42.54493026139999
 31
0.0
 11
20.55680920999999
 21
42.5387348707
 31
0.0
 11
20.54244853579999
 21
42.53109347459999
 31
0.0
  0
SPLINE
  5
3AD
330
1F
100
AcDbEntity
  8
0
  6
Continuous
100
AcDbSpline
210
0.0
220
0.0
230
1.0
 70
     8
 71
     3
 72
    17
 73
    13
 74
    11
 42
0.0000000001
 43
0.0000000001
 44
0.0000000001
 12
-0.9607689228259438
 22
0.2773500981284766
 32
0.0
 13
-0.9607689228259438
 23
-0.2773500981284766
 33
0.0
 40
0.0
 40
0.0
 40
0.0
 40
0.0
 40
0.0297204775915737
 40
0.0589889013697645
 40
0.0881632840724373
 40
0.1173410772479473
 40
0.146528976652394
 40
0.1757168761567825
 40
0.2048946693322926
 40
0.2340690519362354
 40
0.2633374757144228
 40
0.2930579533059999
 40
0.2930579533059999
 40
0.2930579533059999
 40
0.2930579533059999
 10
20.54244853579999
 20
42.53109347459999
 30
0.0
 10
20.53293036538615
 20
42.53384113372548
 30
0.0
 10
20.51392802326934
 20
42.53892261457423
 30
0.0
 10
20.48520253156064
 20
42.54518260756354
 30
0.0
 10
20.45635551541667
 20
42.54985568664257
 30
0.0
 10
20.42730086505954
 20
42.55276335314828
 30
0.0
 10
20.39811096846666
 20
42.55375224149894
 30
0.0
 10
20.36892107187389
 20
42.55276335315002
 30
0.0
 10
20.33986642151508
 20
42.54985568665218
 30
0.0
 10
20.31101940540801
 20
42.5451826075513
 30
0.0
 10
20.28229391373041
 20
42.53892261457575
 30
0.0
 10
20.26329157161384
 20
42.53384113372548
 30
0.0
 10
20.25377340119999
 20
42.53109347459999
 30
0.0
 11
20.54244853579999
 21
42.53109347459999
 31
0.0
 11
20.5137271874
 21
42.5387348707
 31
0.0
 11
20.4851219822
 21
42.54493026139999
 31
0.0
 11
20.4563176239
 21
42.549562059
 31
0.0
 11
20.4272824348
 21
42.5524432755
 31
0.0
 11
20.39811096849999
 21
42.553422574
 31
0.0
 11
20.3689395021
 21
42.5524432755
 31
0.0
 11
20.33990431299999
 21
42.549562059
 31
0.0
 11
20.3110999548
 21
42.54493026139999
 31
0.0
 11
20.2824947496
 21
42.5387348707
 31
0.0
 11
20.25377340119999
 21
42.53109347459999
 31
0.0
  0
LINE
  5
3AE
330
1F
100
AcDbEntity
  8
0
  6
Continuous
100
AcDbLine
 10
20.54244853579999
 20
42.53109347459999
 30
0.0
 11
20.54244853579999
 21
42.3237112491
 31
0.0
  0
SPLINE
  5
3AF
330
1F
100
AcDbEntity
  8
0
  6
Continuous
100
AcDbSpline
210
0.0
220
0.0
230
1.0
 70
     8
 71
     3
 72
    17
 73
    13
 74
    11
 42
0.0000000001
 43
0.0000000001
 44
0.0000000001
 12
-0.8660254037637811
 22
0.5000000000357799
 32
0.0
 13
-0.8660254037637811
 23
-0.5000000000357799
 33
0.0
 40
0.0
 40
0.0
 40
0.0
 40
0.0
 40
0.0162671416615119
 40
0.0318539087111316
 40
0.0469825673375887
 40
0.0617833092612171
 40
0.0764018809607265
 40
0.0910204525604588
 40
0.1058211944840872
 40
0.1209498531105442
 40
0.136536620160164
 40
0.1528037618216759
 40
0.1528037618216759
 40
0.1528037618216759
 40
0.1528037618216759
 10
20.25377340119999
 20
42.53109347459999
 30
0.0
 10
20.24907748189149
 20
42.53380466487711
 30
0.0
 10
20.23971015009375
 20
42.53882634007204
 30
0.0
 10
20.22534337083946
 20
42.54510907978324
 30
0.0
 10
20.21088889942621
 20
42.54981418324521
 30
0.0
 10
20.19629439891846
 20
42.55275301395443
 30
0.0
 10
20.18160461753307
 20
42.55375528099957
 30
0.0
 10
20.16691483614891
 20
42.55275301394783
 30
0.0
 10
20.15232033567377
 20
42.54981418324524
 30
0.0
 10
20.13786586426054
 20
42.54510907978323
 30
0.0
 10
20.12349908500624
 20
42.53882634007204
 30
0.0
 10
20.11413175320849
 20
42.53380466487711
 30
0.0
 10
20.1094358339
 20
42.53109347459999
 30
0.0
 11
20.25377340119999
 21
42.53109347459999
 31
0.0
 11
20.239412727
 21
42.5387348707
 31
0.0
 11
20.2251101244
 21
42.54493026139999
 31
0.0
 11
20.2107079453
 21
42.549562059
 31
0.0
 11
20.1961903507
 21
42.5524432755
 31
0.0
 11
20.18160461749999
 21
42.553422574
 31
0.0
 11
20.1670188844
 21
42.5524432755
 31
0.0
 11
20.15250128979999
 21
42.549562059
 31
0.0
 11
20.1380991107
 21
42.54493026139999
 31
0.0
 11
20.1237965081
 21
42.5387348707
 31
0.0
 11
20.1094358339
 21
42.53109347459999
 31
0.0
  0
LINE
  5
3B0
330
1F
100
AcDbEntity
  8
0
  6
Continuous
100
AcDbLine
 10
20.25377340119999
 20
42.53109347459999
 30
0.0
 11
20.25377340119999
 21
42.3237112491
 31
0.0
  0
LINE
  5
3B1
330
1F
100
AcDbEntity
  8
0
  6
Continuous
100
AcDbLine
 10
38.52286096849999
 20
42.55371124909999
 30
0.0
 11
38.14861257409999
 21
42.55371124909999
 31
0.0
  0
LINE
  5
3B2
330
1F
100
AcDbEntity
  8
0
  6
Continuous
100
AcDbLine
 10
38.1094358339
 20
42.53109347459999
 30
0.0
 11
38.1094358339
 21
42.3237112491
 31
0.0
  0
LINE
  5
3B3
330
1F
100
AcDbEntity
  8
0
  6
Continuous
100
AcDbLine
 10
38.68678610309999
 20
42.53109347459999
 30
0.0
 11
38.68678610309999
 21
42.3237112491
 31
0.0
  0
LINE
  5
3B4
330
1F
100
AcDbEntity
  8
0
  6
Continuous
100
AcDbLine
 10
38.6476093628
 20
42.55371124909999
 30
0.0
 11
38.52286096849999
 21
42.55371124909999
 31
0.0
  0
LINE
  5
3B5
330
1F
100
AcDbEntity
  8
0
  6
Continuous
100
AcDbLine
 10
38.64761096849999
 20
42.55371124909999
 30
0.0
 11
38.68678610309999
 21
42.53109347459999
 31
0.0
  0
LINE
  5
3B6
330
1F
100
AcDbEntity
  8
0
  6
Continuous
100
AcDbLine
 10
38.1486109685
 20
42.55371124909999
 30
0.0
 11
38.1094358339
 21
42.53109347459999
 31
0.0
  0
SPLINE
  5
3B7
330
1F
100
AcDbEntity
  8
0
  6
Continuous
100
AcDbSpline
210
0.0
220
0.0
230
1.0
 70
     8
 71
     3
 72
    17
 73
    13
 74
    11
 42
0.0000000001
 43
0.0000000001
 44
0.0000000001
 12
-0.8660254037637811
 22
0.5000000000357799
 32
0.0
 13
-0.8660254037637811
 23
-0.5000000000357799
 33
0.0
 40
0.0
 40
0.0
 40
0.0
 40
0.0
 40
0.0162671416615119
 40
0.0318539087111284
 40
0.0469825673375888
 40
0.0617833092612102
 40
0.0764018809607268
 40
0.0910204526602362
 40
0.1058211944857759
 40
0.1209498531122295
 40
0.1365366201618526
 40
0.1528037618233645
 40
0.1528037618233645
 40
0.1528037618233645
 40
0.1528037618233645
 10
38.68678610309999
 20
42.53109347459999
 30
0.0
 10
38.6820901837915
 20
42.53380466487711
 30
0.0
 10
38.67272285199375
 20
42.53882634007201
 30
0.0
 10
38.65835607273945
 20
42.54510907978336
 30
0.0
 10
38.64390160132625
 20
42.54981418324476
 30
0.0
 10
38.62930710081829
 20
42.55275301395609
 30
0.0
 10
38.61461731940041
 20
42.55375528099579
 30
0.0
 10
38.59992753801273
 20
42.5527530139659
 30
0.0
 10
38.58533303754376
 20
42.54981418322884
 30
0.0
 10
38.57087856616022
 20
42.54510907978498
 30
0.0
 10
38.55651178690635
 20
42.53882634007152
 30
0.0
 10
38.54714445510849
 20
42.53380466487711
 30
0.0
 10
38.5424485358
 20
42.53109347459999
 30
0.0
 11
38.68678610309999
 21
42.53109347459999
 31
0.0
 11
38.6724254289
 21
42.5387348707
 31
0.0
 11
38.6581228263
 21
42.54493026139999
 31
0.0
 11
38.64372064719999
 21
42.549562059
 31
0.0
 11
38.6292030526
 21
42.5524432755
 31
0.0
 11
38.6146173194
 21
42.553422574
 31
0.0
 11
38.60003158619999
 21
42.5524432755
 31
0.0
 11
38.5855139917
 21
42.549562059
 31
0.0
 11
38.5711118126
 21
42.54493026139999
 31
0.0
 11
38.55680920999999
 21
42.5387348707
 31
0.0
 11
38.5424485358
 21
42.53109347459999
 31
0.0
  0
SPLINE
  5
3B8
330
1F
100
AcDbEntity
  8
0
  6
Continuous
100
AcDbSpline
210
0.0
220
0.0
230
1.0
 70
     8
 71
     3
 72
    17
 73
    13
 74
    11
 42
0.0000000001
 43
0.0000000001
 44
0.0000000001
 12
-0.9607689228259438
 22
0.2773500981284766
 32
0.0
 13
-0.9607689228259438
 23
-0.2773500981284766
 33
0.0
 40
0.0
 40
0.0
 40
0.0
 40
0.0
 40
0.0297204775915737
 40
0.0589889013697645
 40
0.0881632840724408
 40
0.1173410772479473
 40
0.1465289766523939
 40
0.1757168761567861
 40
0.2048946693322855
 40
0.2340690519362354
 40
0.2633374757144262
 40
0.2930579533059999
 40
0.2930579533059999
 40
0.2930579533059999
 40
0.2930579533059999
 10
38.5424485358
 20
42.53109347459999
 30
0.0
 10
38.53293036538616
 20
42.53384113372548
 30
0.0
 10
38.51392802326934
 20
42.53892261457423
 30
0.0
 10
38.48520253156063
 20
42.54518260756352
 30
0.0
 10
38.45635551541668
 20
42.54985568664257
 30
0.0
 10
38.42730086505955
 20
42.55276335314829
 30
0.0
 10
38.39811096846666
 20
42.55375224149893
 30
0.0
 10
38.3689210718739
 20
42.55276335315003
 30
0.0
 10
38.33986642151508
 20
42.54985568665217
 30
0.0
 10
38.31101940540801
 20
42.54518260755131
 30
0.0
 10
38.28229391373041
 20
42.53892261457575
 30
0.0
 10
38.26329157161384
 20
42.53384113372548
 30
0.0
 10
38.2537734012
 20
42.53109347459999
 30
0.0
 11
38.5424485358
 21
42.53109347459999
 31
0.0
 11
38.5137271874
 21
42.5387348707
 31
0.0
 11
38.48512198219999
 21
42.54493026139999
 31
0.0
 11
38.4563176239
 21
42.549562059
 31
0.0
 11
38.42728243479999
 21
42.5524432755
 31
0.0
 11
38.3981109685
 21
42.553422574
 31
0.0
 11
38.36893950209999
 21
42.5524432755
 31
0.0
 11
38.339904313
 21
42.549562059
 31
0.0
 11
38.3110999548
 21
42.54493026139999
 31
0.0
 11
38.28249474959999
 21
42.5387348707
 31
0.0
 11
38.2537734012
 21
42.53109347459999
 31
0.0
  0
LINE
  5
3B9
330
1F
100
AcDbEntity
  8
0
  6
Continuous
100
AcDbLine
 10
38.5424485358
 20
42.53109347459999
 30
0.0
 11
38.5424485358
 21
42.3237112491
 31
0.0
  0
SPLINE
  5
3BA
330
1F
100
AcDbEntity
  8
0
  6
Continuous
100
AcDbSpline
210
0.0
220
0.0
230
1.0
 70
     8
 71
     3
 72
    17
 73
    13
 74
    11
 42
0.0000000001
 43
0.0000000001
 44
0.0000000001
 12
-0.8660254037637811
 22
0.5000000000357799
 32
0.0
 13
-0.8660254037637811
 23
-0.5000000000357799
 33
0.0
 40
0.0
 40
0.0
 40
0.0
 40
0.0
 40
0.0162671416615119
 40
0.0318539087111284
 40
0.0469825673375888
 40
0.0617833092612172
 40
0.0764018809607266
 40
0.091020452560459
 40
0.1058211944840873
 40
0.120949853110541
 40
0.136536620160164
 40
0.1528037618216759
 40
0.1528037618216759
 40
0.1528037618216759
 40
0.1528037618216759
 10
38.2537734012
 20
42.53109347459999
 30
0.0
 10
38.2490774818915
 20
42.53380466487711
 30
0.0
 10
38.23971015009375
 20
42.53882634007204
 30
0.0
 10
38.22534337083946
 20
42.54510907978324
 30
0.0
 10
38.21088889942621
 20
42.54981418324522
 30
0.0
 10
38.19629439891846
 20
42.55275301395445
 30
0.0
 10
38.18160461753308
 20
42.55375528099956
 30
0.0
 10
38.16691483614892
 20
42.55275301394783
 30
0.0
 10
38.15232033567377
 20
42.54981418324523
 30
0.0
 10
38.13786586426055
 20
42.54510907978324
 30
0.0
 10
38.12349908500624
 20
42.53882634007205
 30
0.0
 10
38.11413175320849
 20
42.53380466487711
 30
0.0
 10
38.1094358339
 20
42.53109347459999
 30
0.0
 11
38.2537734012
 21
42.53109347459999
 31
0.0
 11
38.239412727
 21
42.5387348707
 31
0.0
 11
38.2251101244
 21
42.54493026139999
 31
0.0
 11
38.2107079453
 21
42.549562059
 31
0.0
 11
38.1961903507
 21
42.5524432755
 31
0.0
 11
38.1816046175
 21
42.553422574
 31
0.0
 11
38.1670188844
 21
42.5524432755
 31
0.0
 11
38.1525012898
 21
42.549562059
 31
0.0
 11
38.1380991107
 21
42.54493026139999
 31
0.0
 11
38.12379650809999
 21
42.5387348707
 31
0.0
 11
38.1094358339
 21
42.53109347459999
 31
0.0
  0
LINE
  5
3BB
330
1F
100
AcDbEntity
  8
0
  6
Continuous
100
AcDbLine
 10
38.2537734012
 20
42.53109347459999
 30
0.0
 11
38.2537734012
 21
42.3237112491
 31
0.0
  0
ARC
  5
3BC
330
1F
100
AcDbEntity
  8
0
  6
Continuous
100
AcDbCircle
 10
17.02311096849999
 20
23.7347112491
 30
0.0
 40
0.125
100
AcDbArc
 50
270.0
 51
360.0
  0
LINE
  5
3BD
330
1F
100
AcDbEntity
  8
0
  6
Continuous
100
AcDbLine
 10
16.39811096849999
 20
23.60971124909999
 30
0.0
 11
16.7722752699
 21
23.60971124909999
 31
0.0
  0
LINE
  5
3BE
330
1F
100
AcDbEntity
  8
0
  6
Continuous
100
AcDbLine
 10
16.7722752699
 20
23.60971124909999
 30
0.0
 11
16.77311004219999
 21
23.60971124909999
 31
0.0
  0
LINE
  5
3BF
330
1F
100
AcDbEntity
  8
0
  6
Continuous
100
AcDbLine
 10
16.77311004219999
 20
23.60971124909999
 30
0.0
 11
17.02311096849999
 21
23.60971124909999
 31
0.0
  0
LINE
  5
3C0
330
1F
100
AcDbEntity
  8
0
  6
Continuous
100
AcDbLine
 10
17.1481109685
 20
23.7347112491
 30
0.0
 11
17.1481109685
 21
24.3597112491
 31
0.0
  0
LINE
  5
3C1
330
1F
100
AcDbEntity
  8
0
  6
Continuous
100
AcDbLine
 10
15.64811096849999
 20
23.7347112491
 30
0.0
 11
15.64811096849999
 21
24.3597112491
 31
0.0
  0
ARC
  5
3C2
330
1F
100
AcDbEntity
  8
0
  6
Continuous
100
AcDbCircle
 10
15.77311096849999
 20
23.7347112491
 30
0.0
 40
0.125
100
AcDbArc
 50
180.0
 51
270.0
  0
LINE
  5
3C3
330
1F
100
AcDbEntity
  8
0
  6
Continuous
100
AcDbLine
 10
15.77311096849999
 20
23.60971124909999
 30
0.0
 11
16.0231118947
 21
23.60971124909999
 31
0.0
  0
LINE
  5
3C4
330
1F
100
AcDbEntity
  8
0
  6
Continuous
100
AcDbLine
 10
16.0231118947
 20
23.60971124909999
 30
0.0
 11
16.023946667
 21
23.60971124909999
 31
0.0
  0
LINE
  5
3C5
330
1F
100
AcDbEntity
  8
0
  6
Continuous
100
AcDbLine
 10
16.023946667
 20
23.60971124909999
 30
0.0
 11
16.39811096849999
 21
23.60971124909999
 31
0.0
  0
ARC
  5
3C6
330
1F
100
AcDbEntity
  8
0
  6
Continuous
100
AcDbCircle
 10
43.0231109685
 20
23.7347112491
 30
0.0
 40
0.125
100
AcDbArc
 50
270.0
 51
360.0
  0
LINE
  5
3C7
330
1F
100
AcDbEntity
  8
0
  6
Continuous
100
AcDbLine
 10
42.3981109685
 20
23.60971124909999
 30
0.0
 11
42.77227526989999
 21
23.60971124909999
 31
0.0
  0
LINE
  5
3C8
330
1F
100
AcDbEntity
  8
0
  6
Continuous
100
AcDbLine
 10
42.77227526989999
 20
23.60971124909999
 30
0.0
 11
42.77311004219999
 21
23.60971124909999
 31
0.0
  0
LINE
  5
3C9
330
1F
100
AcDbEntity
  8
0
  6
Continuous
100
AcDbLine
 10
42.77311004219999
 20
23.60971124909999
 30
0.0
 11
43.0231109685
 21
23.60971124909999
 31
0.0
  0
LINE
  5
3CA
330
1F
100
AcDbEntity
  8
0
  6
Continuous
100
AcDbLine
 10
43.1481109685
 20
23.7347112491
 30
0.0
 11
43.1481109685
 21
24.3597112491
 31
0.0
  0
LINE
  5
3CB
330
1F
100
AcDbEntity
  8
0
  6
Continuous
100
AcDbLine
 10
41.6481109685
 20
23.7347112491
 30
0.0
 11
41.6481109685
 21
24.3597112491
 31
0.0
  0
ARC
  5
3CC
330
1F
100
AcDbEntity
  8
0
  6
Continuous
100
AcDbCircle
 10
41.7731109685
 20
23.7347112491
 30
0.0
 40
0.125
100
AcDbArc
 50
180.0
 51
270.0
  0
LINE
  5
3CD
330
1F
100
AcDbEntity
  8
0
  6
Continuous
100
AcDbLine
 10
41.7731109685
 20
23.60971124909999
 30
0.0
 11
42.0231118947
 21
23.60971124909999
 31
0.0
  0
LINE
  5
3CE
330
1F
100
AcDbEntity
  8
0
  6
Continuous
100
AcDbLine
 10
42.0231118947
 20
23.60971124909999
 30
0.0
 11
42.023946667
 21
23.60971124909999
 31
0.0
  0
LINE
  5
3CF
330
1F
100
AcDbEntity
  8
0
  6
Continuous
100
AcDbLine
 10
42.023946667
 20
23.60971124909999
 30
0.0
 11
42.3981109685
 21
23.60971124909999
 31
0.0
  0
ARC
  5
3D0
330
1F
100
AcDbEntity
  8
0
  6
Continuous
100
AcDbCircle
 10
29.3981109685
 20
33.29771124909999
 30
0.0
 40
6.889999999999999
100
AcDbArc
 50
180.0
 51
360.0
  0
ARC
  5
3D1
330
1F
100
AcDbEntity
  8
0
  6
Continuous
100
AcDbCircle
 10
29.3981109685
 20
33.29771124909999
 30
0.0
 40
7.65
100
AcDbArc
 50
0.0
 51
180.0
  0
ARC
  5
3D2
330
1F
100
AcDbEntity
  8
0
  6
Continuous
100
AcDbCircle
 10
29.3981109685
 20
33.29771124909999
 30
0.0
 40
7.65
100
AcDbArc
 50
180.0
 51
360.0
  0
ARC
  5
3D3
330
1F
100
AcDbEntity
  8
0
  6
Continuous
100
AcDbCircle
 10
29.3981109685
 20
33.29771124909999
 30
0.0
 40
7.49
100
AcDbArc
 50
0.0
 51
180.0
  0
ARC
  5
3D4
330
1F
100
AcDbEntity
  8
0
  6
Continuous
100
AcDbCircle
 10
29.3981109685
 20
33.29771124909999
 30
0.0
 40
7.49
100
AcDbArc
 50
180.0
 51
360.0
  0
ARC
  5
3D5
330
1F
100
AcDbEntity
  8
0
  6
Continuous
100
AcDbCircle
 10
29.3981109685
 20
33.29771124909999
 30
0.0
 40
6.889999999999999
100
AcDbArc
 50
0.0
 51
180.0
  0
ARC
  5
3D6
330
1F
100
AcDbEntity
  8
0
  6
Continuous
100
AcDbCircle
 10
29.3981109685
 20
33.29771124909999
 30
0.0
 40
5.8539
100
AcDbArc
 50
180.0
 51
360.0
  0
ARC
  5
3D7
330
1F
100
AcDbEntity
  8
0
  6
Continuous
100
AcDbCircle
 10
29.3981109685
 20
33.29771124909999
 30
0.0
 40
2.6
100
AcDbArc
 50
180.0
 51
360.0
  0
ARC
  5
3D8
330
1F
100
AcDbEntity
  8
0
  6
Continuous
100
AcDbCircle
 10
29.3981109685
 20
33.29771124909999
 30
0.0
 40
2.6
100
AcDbArc
 50
0.0
 51
180.0
  0
ARC
  5
3D9
330
1F
100
AcDbEntity
  8
0
  6
Continuous
100
AcDbCircle
 10
29.3981109685
 20
33.29771124909999
 30
0.0
 40
5.8539
100
AcDbArc
 50
0.0
 51
180.0
  0
ARC
  5
3DA
330
1F
100
AcDbEntity
  8
0
  6
Continuous
100
AcDbCircle
 10
44.14811096850001
 20
24.60971124909999
 30
0.0
 40
0.25
100
AcDbArc
 50
270.0
 51
360.0
  0
ARC
  5
3DB
330
1F
100
AcDbEntity
  8
0
  6
Continuous
100
AcDbCircle
 10
44.14811096850001
 20
41.98971124909999
 30
0.0
 40
0.25
100
AcDbArc
 50
0.0
 51
90.0
  0
ARC
  5
3DC
330
1F
100
AcDbEntity
  8
0
  6
Continuous
100
AcDbCircle
 10
14.6481109685
 20
24.60971124909999
 30
0.0
 40
0.25
100
AcDbArc
 50
180.0
 51
270.0
  0
LINE
  5
3DD
330
1F
100
AcDbEntity
  8
0
  6
Continuous
100
AcDbLine
 10
14.6481109685
 20
24.3597112491
 30
0.0
 11
44.14811096850001
 21
24.3597112491
 31
0.0
  0
LINE
  5
3DE
330
1F
100
AcDbEntity
  8
0
  6
Continuous
100
AcDbLine
 10
44.14811096850001
 20
42.2397112491
 30
0.0
 11
14.6481109685
 21
42.2397112491
 31
0.0
  0
LINE
  5
3DF
330
1F
100
AcDbEntity
  8
0
  6
Continuous
100
AcDbLine
 10
14.39811096849999
 20
41.98971124909999
 30
0.0
 11
14.39811096849999
 21
24.60971124909999
 31
0.0
  0
LINE
  5
3E0
330
1F
100
AcDbEntity
  8
0
  6
Continuous
100
AcDbLine
 10
44.3981109685
 20
24.60971124909999
 30
0.0
 11
44.3981109685
 21
41.98971124909999
 31
0.0
  0
LINE
  5
3E1
330
1F
100
AcDbEntity
  8
0
  6
Continuous
100
AcDbLine
 10
43.6481109685
 20
25.1097112491
 30
0.0
 11
15.14811096849999
 21
25.1097112491
 31
0.0
  0
LINE
  5
3E2
330
1F
100
AcDbEntity
  8
0
  6
Continuous
100
AcDbLine
 10
43.6481109685
 20
41.4897112491
 30
0.0
 11
43.6481109685
 21
25.1097112491
 31
0.0
  0
LINE
  5
3E3
330
1F
100
AcDbEntity
  8
0
  6
Continuous
100
AcDbLine
 10
15.14811096849999
 20
41.4897112491
 30
0.0
 11
43.6481109685
 21
41.4897112491
 31
0.0
  0
LINE
  5
3E4
330
1F
100
AcDbEntity
  8
0
  6
Continuous
100
AcDbLine
 10
15.14811096849999
 20
25.1097112491
 30
0.0
 11
15.14811096849999
 21
41.4897112491
 31
0.0
  0
ARC
  5
3E5
330
1F
100
AcDbEntity
  8
0
  6
Continuous
100
AcDbCircle
 10
44.14811096850001
 20
24.60971124909999
 30
0.0
 40
0.25
100
AcDbArc
 50
270.0
 51
276.0151840248
  0
ARC
  5
3E6
330
1F
100
AcDbEntity
  8
0
  6
Continuous
100
AcDbCircle
 10
44.14811096850001
 20
24.60971124909999
 30
0.0
 40
0.25
100
AcDbArc
 50
276.0151840248
 51
354.0673234189999
  0
ARC
  5
3E7
330
1F
100
AcDbEntity
  8
0
  6
Continuous
100
AcDbCircle
 10
14.6481109685
 20
41.98971124909999
 30
0.0
 40
0.25
100
AcDbArc
 50
173.9696567098
 51
180.0
  0
ARC
  5
3E8
330
1F
100
AcDbEntity
  8
0
  6
Continuous
100
AcDbCircle
 10
14.6481109685
 20
24.60971124909999
 30
0.0
 40
0.25
100
AcDbArc
 50
180.0
 51
185.9326765809999
  0
ARC
  5
3E9
330
1F
100
AcDbEntity
  8
0
  6
Continuous
100
AcDbCircle
 10
14.6481109685
 20
24.60971124909999
 30
0.0
 40
0.25
100
AcDbArc
 50
185.9326765809999
 51
263.9848159751999
  0
ARC
  5
3EA
330
1F
100
AcDbEntity
  8
0
  6
Continuous
100
AcDbCircle
 10
14.6481109685
 20
24.60971124909999
 30
0.0
 40
0.25
100
AcDbArc
 50
263.9848159751999
 51
270.0
  0
ARC
  5
3EB
330
1F
100
AcDbEntity
  8
0
  6
Continuous
100
AcDbCircle
 10
14.6481109685
 20
41.98971124909999
 30
0.0
 40
0.25
100
AcDbArc
 50
90.0
 51
180.0
  0
ARC
  5
3EC
330
1F
100
AcDbEntity
  8
0
  6
Continuous
100
AcDbCircle
 10
39.89811096849999
 20
37.73271124909999
 30
0.0
 40
2.0
100
AcDbArc
 50
0.0
 51
180.0
  0
ARC
  5
3ED
330
1F
100
AcDbEntity
  8
0
  6
Continuous
100
AcDbCircle
 10
39.89811096849999
 20
37.73271124909999
 30
0.0
 40
2.0
100
AcDbArc
 50
180.0
 51
360.0
  0
ARC
  5
3EE
330
1F
100
AcDbEntity
  8
0
  6
Continuous
100
AcDbCircle
 10
18.89811096849999
 20
28.8577112491
 30
0.0
 40
2.0
100
AcDbArc
 50
0.0
 51
180.0
  0
ARC
  5
3EF
330
1F
100
AcDbEntity
  8
0
  6
Continuous
100
AcDbCircle
 10
18.89811096849999
 20
28.8577112491
 30
0.0
 40
2.0
100
AcDbArc
 50
180.0
 51
360.0
  0
LINE
  5
3F0
330
1F
100
AcDbEntity
  8
0
  6
Continuous
100
AcDbLine
 10
87.78361670049999
 20
42.3237112491
 30
0.0
 11
87.6097655176
 21
42.3237112491
 31
0.0
  0
LINE
  5
3F1
330
1F
100
AcDbEntity
  8
0
  6
Continuous
100
AcDbLine
 10
87.6097655176
 20
42.3237112491
 30
0.0
 11
87.6077052904
 21
42.3237112491
 31
0.0
  0
LINE
  5
3F2
330
1F
100
AcDbEntity
  8
0
  6
Continuous
100
AcDbLine
 10
87.6077052904
 20
42.3237112491
 30
0.0
 11
87.59611670049999
 21
42.3237112491
 31
0.0
  0
LINE
  5
3F3
330
1F
100
AcDbEntity
  8
0
  6
Continuous
100
AcDbLine
 10
87.59611670049999
 20
42.3237112491
 30
0.0
 11
87.5804939856
 21
42.3237112491
 31
0.0
  0
LINE
  5
3F4
330
1F
100
AcDbEntity
  8
0
  6
Continuous
100
AcDbLine
 10
87.5804939856
 20
42.3237112491
 30
0.0
 11
87.53361670049999
 21
42.3237112491
 31
0.0
  0
LINE
  5
3F5
330
1F
100
AcDbEntity
  8
0
  6
Continuous
100
AcDbLine
 10
87.53361670049999
 20
42.3237112491
 30
0.0
 11
87.36511670049999
 21
42.3237112491
 31
0.0
  0
LINE
  5
3F6
330
1F
100
AcDbEntity
  8
0
  6
Continuous
100
AcDbLine
 10
88.20211670049998
 20
42.3237112491
 30
0.0
 11
88.0336167005
 21
42.3237112491
 31
0.0
  0
LINE
  5
3F7
330
1F
100
AcDbEntity
  8
0
  6
Continuous
100
AcDbLine
 10
88.0336167005
 20
42.3237112491
 30
0.0
 11
87.98674170049999
 21
42.3237112491
 31
0.0
  0
LINE
  5
3F8
330
1F
100
AcDbEntity
  8
0
  6
Continuous
100
AcDbLine
 10
87.98674170049999
 20
42.3237112491
 30
0.0
 11
87.97111670049998
 21
42.3237112491
 31
0.0
  0
LINE
  5
3F9
330
1F
100
AcDbEntity
  8
0
  6
Continuous
100
AcDbLine
 10
87.97111670049998
 20
42.3237112491
 30
0.0
 11
87.78361670049999
 21
42.3237112491
 31
0.0
  0
LINE
  5
3FA
330
1F
100
AcDbEntity
  8
0
  6
Continuous
100
AcDbLine
 10
87.36511670049999
 20
42.3237112491
 30
0.0
 11
87.36511670049999
 21
42.2397112491
 31
0.0
  0
LINE
  5
3FB
330
1F
100
AcDbEntity
  8
0
  6
Continuous
100
AcDbLine
 10
88.20211670049998
 20
42.3237112491
 30
0.0
 11
88.20211670049998
 21
42.2397112491
 31
0.0
  0
LINE
  5
3FC
330
1F
100
AcDbEntity
  8
0
  6
Continuous
100
AcDbLine
 10
72.1936167005
 20
42.3237112491
 30
0.0
 11
72.01976551760001
 21
42.3237112491
 31
0.0
  0
LINE
  5
3FD
330
1F
100
AcDbEntity
  8
0
  6
Continuous
100
AcDbLine
 10
72.01976551760001
 20
42.3237112491
 30
0.0
 11
72.0177052904
 21
42.3237112491
 31
0.0
  0
LINE
  5
3FE
330
1F
100
AcDbEntity
  8
0
  6
Continuous
100
AcDbLine
 10
72.0177052904
 20
42.3237112491
 30
0.0
 11
72.0061167005
 21
42.3237112491
 31
0.0
  0
LINE
  5
3FF
330
1F
100
AcDbEntity
  8
0
  6
Continuous
100
AcDbLine
 10
72.0061167005
 20
42.3237112491
 30
0.0
 11
71.99049398560001
 21
42.3237112491
 31
0.0
  0
LINE
  5
400
330
1F
100
AcDbEntity
  8
0
  6
Continuous
100
AcDbLine
 10
71.99049398560001
 20
42.3237112491
 30
0.0
 11
71.9436167005
 21
42.3237112491
 31
0.0
  0
LINE
  5
401
330
1F
100
AcDbEntity
  8
0
  6
Continuous
100
AcDbLine
 10
71.9436167005
 20
42.3237112491
 30
0.0
 11
71.77511670050001
 21
42.3237112491
 31
0.0
  0
LINE
  5
402
330
1F
100
AcDbEntity
  8
0
  6
Continuous
100
AcDbLine
 10
72.61211670049999
 20
42.3237112491
 30
0.0
 11
72.4436167005
 21
42.3237112491
 31
0.0
  0
LINE
  5
403
330
1F
100
AcDbEntity
  8
0
  6
Continuous
100
AcDbLine
 10
72.4436167005
 20
42.3237112491
 30
0.0
 11
72.3967417005
 21
42.3237112491
 31
0.0
  0
LINE
  5
404
330
1F
100
AcDbEntity
  8
0
  6
Continuous
100
AcDbLine
 10
72.3967417005
 20
42.3237112491
 30
0.0
 11
72.3811167005
 21
42.3237112491
 31
0.0
  0
LINE
  5
405
330
1F
100
AcDbEntity
  8
0
  6
Continuous
100
AcDbLine
 10
72.3811167005
 20
42.3237112491
 30
0.0
 11
72.1936167005
 21
42.3237112491
 31
0.0
  0
LINE
  5
406
330
1F
100
AcDbEntity
  8
0
  6
Continuous
100
AcDbLine
 10
71.77511670050001
 20
42.3237112491
 30
0.0
 11
71.77511670050001
 21
42.2397112491
 31
0.0
  0
LINE
  5
407
330
1F
100
AcDbEntity
  8
0
  6
Continuous
100
AcDbLine
 10
72.61211670049999
 20
42.3237112491
 30
0.0
 11
72.61211670049999
 21
42.2397112491
 31
0.0
  0
ARC
  5
408
330
1F
100
AcDbEntity
  8
0
  6
Continuous
100
AcDbCircle
 10
84.8136167005
 20
40.9652112491
 30
0.0
 40
0.1395
100
AcDbArc
 50
90.0
 51
270.0
  0
ARC
  5
409
330
1F
100
AcDbEntity
  8
0
  6
Continuous
100
AcDbCircle
 10
84.8136167005
 20
40.9652112491
 30
0.0
 40
0.1395
100
AcDbArc
 50
270.0
 51
90.0
  0
LINE
  5
40A
330
1F
100
AcDbEntity
  8
0
  6
Continuous
100
AcDbLine
 10
84.8440388056
 20
40.934789144
 30
0.0
 11
84.82811670050001
 21
40.90721124909999
 31
0.0
  0
LINE
  5
40B
330
1F
100
AcDbEntity
  8
0
  6
Continuous
100
AcDbLine
 10
84.87161670049999
 20
40.95071124909999
 30
0.0
 11
84.8440388056
 21
40.934789144
 31
0.0
  0
LINE
  5
40C
330
1F
100
AcDbEntity
  8
0
  6
Continuous
100
AcDbLine
 10
84.9006167005
 20
40.95071124909999
 30
0.0
 11
84.87161670049999
 21
40.95071124909999
 31
0.0
  0
LINE
  5
40D
330
1F
100
AcDbEntity
  8
0
  6
Continuous
100
AcDbLine
 10
84.9006167005
 20
40.97971124909999
 30
0.0
 11
84.9006167005
 21
40.95071124909999
 31
0.0
  0
LINE
  5
40E
330
1F
100
AcDbEntity
  8
0
  6
Continuous
100
AcDbLine
 10
84.87161670049999
 20
40.97971124909999
 30
0.0
 11
84.9006167005
 21
40.97971124909999
 31
0.0
  0
LINE
  5
40F
330
1F
100
AcDbEntity
  8
0
  6
Continuous
100
AcDbLine
 10
84.8440388056
 20
40.9956333542
 30
0.0
 11
84.87161670049999
 21
40.97971124909999
 31
0.0
  0
LINE
  5
410
330
1F
100
AcDbEntity
  8
0
  6
Continuous
100
AcDbLine
 10
84.82811670050001
 20
41.0232112491
 30
0.0
 11
84.8440388056
 21
40.9956333542
 31
0.0
  0
LINE
  5
411
330
1F
100
AcDbEntity
  8
0
  6
Continuous
100
AcDbLine
 10
84.82811670050001
 20
41.05221124909999
 30
0.0
 11
84.82811670050001
 21
41.0232112491
 31
0.0
  0
LINE
  5
412
330
1F
100
AcDbEntity
  8
0
  6
Continuous
100
AcDbLine
 10
84.7991167005
 20
41.05221124909999
 30
0.0
 11
84.82811670050001
 21
41.05221124909999
 31
0.0
  0
LINE
  5
413
330
1F
100
AcDbEntity
  8
0
  6
Continuous
100
AcDbLine
 10
84.7991167005
 20
41.0232112491
 30
0.0
 11
84.7991167005
 21
41.05221124909999
 31
0.0
  0
LINE
  5
414
330
1F
100
AcDbEntity
  8
0
  6
Continuous
100
AcDbLine
 10
84.78319459540001
 20
40.9956333542
 30
0.0
 11
84.7991167005
 21
41.0232112491
 31
0.0
  0
LINE
  5
415
330
1F
100
AcDbEntity
  8
0
  6
Continuous
100
AcDbLine
 10
84.7556167005
 20
40.97971124909999
 30
0.0
 11
84.78319459540001
 21
40.9956333542
 31
0.0
  0
LINE
  5
416
330
1F
100
AcDbEntity
  8
0
  6
Continuous
100
AcDbLine
 10
84.72661670049999
 20
40.97971124909999
 30
0.0
 11
84.7556167005
 21
40.97971124909999
 31
0.0
  0
LINE
  5
417
330
1F
100
AcDbEntity
  8
0
  6
Continuous
100
AcDbLine
 10
84.72661670049999
 20
40.95071124909999
 30
0.0
 11
84.72661670049999
 21
40.97971124909999
 31
0.0
  0
LINE
  5
418
330
1F
100
AcDbEntity
  8
0
  6
Continuous
100
AcDbLine
 10
84.7556167005
 20
40.95071124909999
 30
0.0
 11
84.72661670049999
 21
40.95071124909999
 31
0.0
  0
LINE
  5
419
330
1F
100
AcDbEntity
  8
0
  6
Continuous
100
AcDbLine
 10
84.78319459540001
 20
40.934789144
 30
0.0
 11
84.7556167005
 21
40.95071124909999
 31
0.0
  0
LINE
  5
41A
330
1F
100
AcDbEntity
  8
0
  6
Continuous
100
AcDbLine
 10
84.7991167005
 20
40.90721124909999
 30
0.0
 11
84.78319459540001
 21
40.934789144
 31
0.0
  0
LINE
  5
41B
330
1F
100
AcDbEntity
  8
0
  6
Continuous
100
AcDbLine
 10
84.7991167005
 20
40.87821124909999
 30
0.0
 11
84.7991167005
 21
40.90721124909999
 31
0.0
  0
LINE
  5
41C
330
1F
100
AcDbEntity
  8
0
  6
Continuous
100
AcDbLine
 10
84.82811670050001
 20
40.87821124909999
 30
0.0
 11
84.7991167005
 21
40.87821124909999
 31
0.0
  0
LINE
  5
41D
330
1F
100
AcDbEntity
  8
0
  6
Continuous
100
AcDbLine
 10
84.7991167005
 20
40.90721124909999
 30
0.0
 11
84.8006535018
 21
40.91335845439999
 31
0.0
  0
LINE
  5
41E
330
1F
100
AcDbEntity
  8
0
  6
Continuous
100
AcDbLine
 10
84.8006535018
 20
40.91335845439999
 30
0.0
 11
84.8136167005
 21
40.9652112491
 31
0.0
  0
LINE
  5
41F
330
1F
100
AcDbEntity
  8
0
  6
Continuous
100
AcDbLine
 10
84.78319459540001
 20
40.934789144
 30
0.0
 11
84.8136167005
 21
40.9652112491
 31
0.0
  0
LINE
  5
420
330
1F
100
AcDbEntity
  8
0
  6
Continuous
100
AcDbLine
 10
84.7556167005
 20
40.95071124909999
 30
0.0
 11
84.76176390579999
 21
40.95224805039999
 31
0.0
  0
LINE
  5
421
330
1F
100
AcDbEntity
  8
0
  6
Continuous
100
AcDbLine
 10
84.76176390579999
 20
40.95224805039999
 30
0.0
 11
84.7666325165
 21
40.9534652031
 31
0.0
  0
LINE
  5
422
330
1F
100
AcDbEntity
  8
0
  6
Continuous
100
AcDbLine
 10
84.7666325165
 20
40.9534652031
 30
0.0
 11
84.8136167005
 21
40.9652112491
 31
0.0
  0
LINE
  5
423
330
1F
100
AcDbEntity
  8
0
  6
Continuous
100
AcDbLine
 10
84.72661670049999
 20
40.95071124909999
 30
0.0
 11
84.75200434559999
 21
40.95494252329999
 31
0.0
  0
LINE
  5
424
330
1F
100
AcDbEntity
  8
0
  6
Continuous
100
AcDbLine
 10
84.75200434559999
 20
40.95494252329999
 30
0.0
 11
84.7609319726
 21
40.9564304611
 31
0.0
  0
LINE
  5
425
330
1F
100
AcDbEntity
  8
0
  6
Continuous
100
AcDbLine
 10
84.7609319726
 20
40.9564304611
 30
0.0
 11
84.7709363062
 21
40.9580978501
 31
0.0
  0
LINE
  5
426
330
1F
100
AcDbEntity
  8
0
  6
Continuous
100
AcDbLine
 10
84.7709363062
 20
40.9580978501
 30
0.0
 11
84.8136167005
 21
40.9652112491
 31
0.0
  0
LINE
  5
427
330
1F
100
AcDbEntity
  8
0
  6
Continuous
100
AcDbLine
 10
84.7991167005
 20
40.87821124909999
 30
0.0
 11
84.80483591249999
 21
40.9125265212
 31
0.0
  0
LINE
  5
428
330
1F
100
AcDbEntity
  8
0
  6
Continuous
100
AcDbLine
 10
84.80483591249999
 20
40.9125265212
 30
0.0
 11
84.8136167005
 21
40.9652112491
 31
0.0
  0
LINE
  5
429
330
1F
100
AcDbEntity
  8
0
  6
Continuous
100
AcDbLine
 10
84.72661670049999
 20
40.97971124909999
 30
0.0
 11
84.75200434559999
 21
40.97547997489999
 31
0.0
  0
LINE
  5
42A
330
1F
100
AcDbEntity
  8
0
  6
Continuous
100
AcDbLine
 10
84.75200434559999
 20
40.97547997489999
 30
0.0
 11
84.7609319726
 21
40.9739920371
 31
0.0
  0
LINE
  5
42B
330
1F
100
AcDbEntity
  8
0
  6
Continuous
100
AcDbLine
 10
84.7609319726
 20
40.9739920371
 30
0.0
 11
84.7709363062
 21
40.9723246482
 31
0.0
  0
LINE
  5
42C
330
1F
100
AcDbEntity
  8
0
  6
Continuous
100
AcDbLine
 10
84.7709363062
 20
40.9723246482
 30
0.0
 11
84.8136167005
 21
40.9652112491
 31
0.0
  0
LINE
  5
42D
330
1F
100
AcDbEntity
  8
0
  6
Continuous
100
AcDbLine
 10
84.82811670050001
 20
40.90721124909999
 30
0.0
 11
84.82811670050001
 21
40.87821124909999
 31
0.0
  0
LINE
  5
42E
330
1F
100
AcDbEntity
  8
0
  6
Continuous
100
AcDbLine
 10
84.82811670050001
 20
40.87821124909999
 30
0.0
 11
84.8223974885
 21
40.9125265212
 31
0.0
  0
LINE
  5
42F
330
1F
100
AcDbEntity
  8
0
  6
Continuous
100
AcDbLine
 10
84.8223974885
 20
40.9125265212
 30
0.0
 11
84.8136167005
 21
40.9652112491
 31
0.0
  0
LINE
  5
430
330
1F
100
AcDbEntity
  8
0
  6
Continuous
100
AcDbLine
 10
84.82811670050001
 20
40.90721124909999
 30
0.0
 11
84.82657989919999
 21
40.91335845439999
 31
0.0
  0
LINE
  5
431
330
1F
100
AcDbEntity
  8
0
  6
Continuous
100
AcDbLine
 10
84.82657989919999
 20
40.91335845439999
 30
0.0
 11
84.8136167005
 21
40.9652112491
 31
0.0
  0
LINE
  5
432
330
1F
100
AcDbEntity
  8
0
  6
Continuous
100
AcDbLine
 10
84.8440388056
 20
40.934789144
 30
0.0
 11
84.8136167005
 21
40.9652112491
 31
0.0
  0
LINE
  5
433
330
1F
100
AcDbEntity
  8
0
  6
Continuous
100
AcDbLine
 10
84.87161670049999
 20
40.95071124909999
 30
0.0
 11
84.8654694952
 21
40.95224805039999
 31
0.0
  0
LINE
  5
434
330
1F
100
AcDbEntity
  8
0
  6
Continuous
100
AcDbLine
 10
84.8654694952
 20
40.95224805039999
 30
0.0
 11
84.86060088450001
 21
40.9534652031
 31
0.0
  0
LINE
  5
435
330
1F
100
AcDbEntity
  8
0
  6
Continuous
100
AcDbLine
 10
84.86060088450001
 20
40.9534652031
 30
0.0
 11
84.8136167005
 21
40.9652112491
 31
0.0
  0
LINE
  5
436
330
1F
100
AcDbEntity
  8
0
  6
Continuous
100
AcDbLine
 10
84.9006167005
 20
40.95071124909999
 30
0.0
 11
84.8752290554
 21
40.95494252329999
 31
0.0
  0
LINE
  5
437
330
1F
100
AcDbEntity
  8
0
  6
Continuous
100
AcDbLine
 10
84.8752290554
 20
40.95494252329999
 30
0.0
 11
84.86630142840001
 21
40.9564304611
 31
0.0
  0
LINE
  5
438
330
1F
100
AcDbEntity
  8
0
  6
Continuous
100
AcDbLine
 10
84.86630142840001
 20
40.9564304611
 30
0.0
 11
84.85629709479999
 21
40.9580978501
 31
0.0
  0
LINE
  5
439
330
1F
100
AcDbEntity
  8
0
  6
Continuous
100
AcDbLine
 10
84.85629709479999
 20
40.9580978501
 30
0.0
 11
84.8136167005
 21
40.9652112491
 31
0.0
  0
LINE
  5
43A
330
1F
100
AcDbEntity
  8
0
  6
Continuous
100
AcDbLine
 10
84.9006167005
 20
40.97971124909999
 30
0.0
 11
84.8752290554
 21
40.97547997489999
 31
0.0
  0
LINE
  5
43B
330
1F
100
AcDbEntity
  8
0
  6
Continuous
100
AcDbLine
 10
84.8752290554
 20
40.97547997489999
 30
0.0
 11
84.86630142840001
 21
40.9739920371
 31
0.0
  0
LINE
  5
43C
330
1F
100
AcDbEntity
  8
0
  6
Continuous
100
AcDbLine
 10
84.86630142840001
 20
40.9739920371
 30
0.0
 11
84.85629709479999
 21
40.9723246482
 31
0.0
  0
LINE
  5
43D
330
1F
100
AcDbEntity
  8
0
  6
Continuous
100
AcDbLine
 10
84.85629709479999
 20
40.9723246482
 30
0.0
 11
84.8136167005
 21
40.9652112491
 31
0.0
  0
LINE
  5
43E
330
1F
100
AcDbEntity
  8
0
  6
Continuous
100
AcDbLine
 10
84.87161670049999
 20
40.97971124909999
 30
0.0
 11
84.8654694952
 21
40.9781744478
 31
0.0
  0
LINE
  5
43F
330
1F
100
AcDbEntity
  8
0
  6
Continuous
100
AcDbLine
 10
84.8654694952
 20
40.9781744478
 30
0.0
 11
84.86060088450001
 21
40.97695729509999
 31
0.0
  0
LINE
  5
440
330
1F
100
AcDbEntity
  8
0
  6
Continuous
100
AcDbLine
 10
84.86060088450001
 20
40.97695729509999
 30
0.0
 11
84.8136167005
 21
40.9652112491
 31
0.0
  0
LINE
  5
441
330
1F
100
AcDbEntity
  8
0
  6
Continuous
100
AcDbLine
 10
84.8440388056
 20
40.9956333542
 30
0.0
 11
84.8136167005
 21
40.9652112491
 31
0.0
  0
LINE
  5
442
330
1F
100
AcDbEntity
  8
0
  6
Continuous
100
AcDbLine
 10
84.82811670050001
 20
41.0232112491
 30
0.0
 11
84.82657989919999
 21
41.01706404379999
 31
0.0
  0
LINE
  5
443
330
1F
100
AcDbEntity
  8
0
  6
Continuous
100
AcDbLine
 10
84.82657989919999
 20
41.01706404379999
 30
0.0
 11
84.8136167005
 21
40.9652112491
 31
0.0
  0
LINE
  5
444
330
1F
100
AcDbEntity
  8
0
  6
Continuous
100
AcDbLine
 10
84.82811670050001
 20
41.05221124909999
 30
0.0
 11
84.8223974885
 21
41.01789597699999
 31
0.0
  0
LINE
  5
445
330
1F
100
AcDbEntity
  8
0
  6
Continuous
100
AcDbLine
 10
84.8223974885
 20
41.01789597699999
 30
0.0
 11
84.8136167005
 21
40.9652112491
 31
0.0
  0
LINE
  5
446
330
1F
100
AcDbEntity
  8
0
  6
Continuous
100
AcDbLine
 10
84.7991167005
 20
41.05221124909999
 30
0.0
 11
84.80483591249999
 21
41.01789597699999
 31
0.0
  0
LINE
  5
447
330
1F
100
AcDbEntity
  8
0
  6
Continuous
100
AcDbLine
 10
84.80483591249999
 20
41.01789597699999
 30
0.0
 11
84.8136167005
 21
40.9652112491
 31
0.0
  0
LINE
  5
448
330
1F
100
AcDbEntity
  8
0
  6
Continuous
100
AcDbLine
 10
84.7991167005
 20
41.0232112491
 30
0.0
 11
84.8006535018
 21
41.01706404379999
 31
0.0
  0
LINE
  5
449
330
1F
100
AcDbEntity
  8
0
  6
Continuous
100
AcDbLine
 10
84.8006535018
 20
41.01706404379999
 30
0.0
 11
84.8136167005
 21
40.9652112491
 31
0.0
  0
LINE
  5
44A
330
1F
100
AcDbEntity
  8
0
  6
Continuous
100
AcDbLine
 10
84.78319459540001
 20
40.9956333542
 30
0.0
 11
84.8136167005
 21
40.9652112491
 31
0.0
  0
LINE
  5
44B
330
1F
100
AcDbEntity
  8
0
  6
Continuous
100
AcDbLine
 10
84.7556167005
 20
40.97971124909999
 30
0.0
 11
84.76176390579999
 21
40.9781744478
 31
0.0
  0
LINE
  5
44C
330
1F
100
AcDbEntity
  8
0
  6
Continuous
100
AcDbLine
 10
84.76176390579999
 20
40.9781744478
 30
0.0
 11
84.7666325165
 21
40.97695729509999
 31
0.0
  0
LINE
  5
44D
330
1F
100
AcDbEntity
  8
0
  6
Continuous
100
AcDbLine
 10
84.7666325165
 20
40.97695729509999
 30
0.0
 11
84.8136167005
 21
40.9652112491
 31
0.0
  0
ARC
  5
44E
330
1F
100
AcDbEntity
  8
0
  6
Continuous
100
AcDbCircle
 10
82.81361670050001
 20
40.9652112491
 30
0.0
 40
0.1395
100
AcDbArc
 50
90.0
 51
270.0
  0
ARC
  5
44F
330
1F
100
AcDbEntity
  8
0
  6
Continuous
100
AcDbCircle
 10
82.81361670050001
 20
40.9652112491
 30
0.0
 40
0.1395
100
AcDbArc
 50
270.0
 51
90.0
  0
LINE
  5
450
330
1F
100
AcDbEntity
  8
0
  6
Continuous
100
AcDbLine
 10
82.84403880560001
 20
40.934789144
 30
0.0
 11
82.8281167005
 21
40.90721124909999
 31
0.0
  0
LINE
  5
451
330
1F
100
AcDbEntity
  8
0
  6
Continuous
100
AcDbLine
 10
82.8716167005
 20
40.95071124909999
 30
0.0
 11
82.84403880560001
 21
40.934789144
 31
0.0
  0
LINE
  5
452
330
1F
100
AcDbEntity
  8
0
  6
Continuous
100
AcDbLine
 10
82.90061670049999
 20
40.95071124909999
 30
0.0
 11
82.8716167005
 21
40.95071124909999
 31
0.0
  0
LINE
  5
453
330
1F
100
AcDbEntity
  8
0
  6
Continuous
100
AcDbLine
 10
82.90061670049999
 20
40.97971124909999
 30
0.0
 11
82.90061670049999
 21
40.95071124909999
 31
0.0
  0
LINE
  5
454
330
1F
100
AcDbEntity
  8
0
  6
Continuous
100
AcDbLine
 10
82.8716167005
 20
40.97971124909999
 30
0.0
 11
82.90061670049999
 21
40.97971124909999
 31
0.0
  0
LINE
  5
455
330
1F
100
AcDbEntity
  8
0
  6
Continuous
100
AcDbLine
 10
82.84403880560001
 20
40.9956333542
 30
0.0
 11
82.8716167005
 21
40.97971124909999
 31
0.0
  0
LINE
  5
456
330
1F
100
AcDbEntity
  8
0
  6
Continuous
100
AcDbLine
 10
82.8281167005
 20
41.0232112491
 30
0.0
 11
82.84403880560001
 21
40.9956333542
 31
0.0
  0
LINE
  5
457
330
1F
100
AcDbEntity
  8
0
  6
Continuous
100
AcDbLine
 10
82.8281167005
 20
41.05221124909999
 30
0.0
 11
82.8281167005
 21
41.0232112491
 31
0.0
  0
LINE
  5
458
330
1F
100
AcDbEntity
  8
0
  6
Continuous
100
AcDbLine
 10
82.79911670050001
 20
41.05221124909999
 30
0.0
 11
82.8281167005
 21
41.05221124909999
 31
0.0
  0
LINE
  5
459
330
1F
100
AcDbEntity
  8
0
  6
Continuous
100
AcDbLine
 10
82.79911670050001
 20
41.0232112491
 30
0.0
 11
82.79911670050001
 21
41.05221124909999
 31
0.0
  0
LINE
  5
45A
330
1F
100
AcDbEntity
  8
0
  6
Continuous
100
AcDbLine
 10
82.7831945954
 20
40.9956333542
 30
0.0
 11
82.79911670050001
 21
41.0232112491
 31
0.0
  0
LINE
  5
45B
330
1F
100
AcDbEntity
  8
0
  6
Continuous
100
AcDbLine
 10
82.7556167005
 20
40.97971124909999
 30
0.0
 11
82.7831945954
 21
40.9956333542
 31
0.0
  0
LINE
  5
45C
330
1F
100
AcDbEntity
  8
0
  6
Continuous
100
AcDbLine
 10
82.7266167005
 20
40.97971124909999
 30
0.0
 11
82.7556167005
 21
40.97971124909999
 31
0.0
  0
LINE
  5
45D
330
1F
100
AcDbEntity
  8
0
  6
Continuous
100
AcDbLine
 10
82.7266167005
 20
40.95071124909999
 30
0.0
 11
82.7266167005
 21
40.97971124909999
 31
0.0
  0
LINE
  5
45E
330
1F
100
AcDbEntity
  8
0
  6
Continuous
100
AcDbLine
 10
82.7556167005
 20
40.95071124909999
 30
0.0
 11
82.7266167005
 21
40.95071124909999
 31
0.0
  0
LINE
  5
45F
330
1F
100
AcDbEntity
  8
0
  6
Continuous
100
AcDbLine
 10
82.7831945954
 20
40.934789144
 30
0.0
 11
82.7556167005
 21
40.95071124909999
 31
0.0
  0
LINE
  5
460
330
1F
100
AcDbEntity
  8
0
  6
Continuous
100
AcDbLine
 10
82.79911670050001
 20
40.90721124909999
 30
0.0
 11
82.7831945954
 21
40.934789144
 31
0.0
  0
LINE
  5
461
330
1F
100
AcDbEntity
  8
0
  6
Continuous
100
AcDbLine
 10
82.79911670050001
 20
40.87821124909999
 30
0.0
 11
82.79911670050001
 21
40.90721124909999
 31
0.0
  0
LINE
  5
462
330
1F
100
AcDbEntity
  8
0
  6
Continuous
100
AcDbLine
 10
82.8281167005
 20
40.87821124909999
 30
0.0
 11
82.79911670050001
 21
40.87821124909999
 31
0.0
  0
LINE
  5
463
330
1F
100
AcDbEntity
  8
0
  6
Continuous
100
AcDbLine
 10
82.79911670050001
 20
40.90721124909999
 30
0.0
 11
82.80065350180001
 21
40.91335845439999
 31
0.0
  0
LINE
  5
464
330
1F
100
AcDbEntity
  8
0
  6
Continuous
100
AcDbLine
 10
82.80065350180001
 20
40.91335845439999
 30
0.0
 11
82.81361670050001
 21
40.9652112491
 31
0.0
  0
LINE
  5
465
330
1F
100
AcDbEntity
  8
0
  6
Continuous
100
AcDbLine
 10
82.7831945954
 20
40.934789144
 30
0.0
 11
82.81361670050001
 21
40.9652112491
 31
0.0
  0
LINE
  5
466
330
1F
100
AcDbEntity
  8
0
  6
Continuous
100
AcDbLine
 10
82.7556167005
 20
40.95071124909999
 30
0.0
 11
82.76176390579999
 21
40.95224805039999
 31
0.0
  0
LINE
  5
467
330
1F
100
AcDbEntity
  8
0
  6
Continuous
100
AcDbLine
 10
82.76176390579999
 20
40.95224805039999
 30
0.0
 11
82.76663251649999
 21
40.9534652031
 31
0.0
  0
LINE
  5
468
330
1F
100
AcDbEntity
  8
0
  6
Continuous
100
AcDbLine
 10
82.76663251649999
 20
40.9534652031
 30
0.0
 11
82.81361670050001
 21
40.9652112491
 31
0.0
  0
LINE
  5
469
330
1F
100
AcDbEntity
  8
0
  6
Continuous
100
AcDbLine
 10
82.7266167005
 20
40.95071124909999
 30
0.0
 11
82.7520043456
 21
40.95494252329999
 31
0.0
  0
LINE
  5
46A
330
1F
100
AcDbEntity
  8
0
  6
Continuous
100
AcDbLine
 10
82.7520043456
 20
40.95494252329999
 30
0.0
 11
82.76093197260001
 21
40.9564304611
 31
0.0
  0
LINE
  5
46B
330
1F
100
AcDbEntity
  8
0
  6
Continuous
100
AcDbLine
 10
82.76093197260001
 20
40.9564304611
 30
0.0
 11
82.77093630619999
 21
40.9580978501
 31
0.0
  0
LINE
  5
46C
330
1F
100
AcDbEntity
  8
0
  6
Continuous
100
AcDbLine
 10
82.77093630619999
 20
40.9580978501
 30
0.0
 11
82.81361670050001
 21
40.9652112491
 31
0.0
  0
LINE
  5
46D
330
1F
100
AcDbEntity
  8
0
  6
Continuous
100
AcDbLine
 10
82.79911670050001
 20
40.87821124909999
 30
0.0
 11
82.8048359125
 21
40.9125265212
 31
0.0
  0
LINE
  5
46E
330
1F
100
AcDbEntity
  8
0
  6
Continuous
100
AcDbLine
 10
82.8048359125
 20
40.9125265212
 30
0.0
 11
82.81361670050001
 21
40.9652112491
 31
0.0
  0
LINE
  5
46F
330
1F
100
AcDbEntity
  8
0
  6
Continuous
100
AcDbLine
 10
82.7266167005
 20
40.97971124909999
 30
0.0
 11
82.7520043456
 21
40.97547997489999
 31
0.0
  0
LINE
  5
470
330
1F
100
AcDbEntity
  8
0
  6
Continuous
100
AcDbLine
 10
82.7520043456
 20
40.97547997489999
 30
0.0
 11
82.76093197260001
 21
40.9739920371
 31
0.0
  0
LINE
  5
471
330
1F
100
AcDbEntity
  8
0
  6
Continuous
100
AcDbLine
 10
82.76093197260001
 20
40.9739920371
 30
0.0
 11
82.77093630619999
 21
40.9723246482
 31
0.0
  0
LINE
  5
472
330
1F
100
AcDbEntity
  8
0
  6
Continuous
100
AcDbLine
 10
82.77093630619999
 20
40.9723246482
 30
0.0
 11
82.81361670050001
 21
40.9652112491
 31
0.0
  0
LINE
  5
473
330
1F
100
AcDbEntity
  8
0
  6
Continuous
100
AcDbLine
 10
82.8281167005
 20
40.90721124909999
 30
0.0
 11
82.8281167005
 21
40.87821124909999
 31
0.0
  0
LINE
  5
474
330
1F
100
AcDbEntity
  8
0
  6
Continuous
100
AcDbLine
 10
82.8281167005
 20
40.87821124909999
 30
0.0
 11
82.82239748850001
 21
40.9125265212
 31
0.0
  0
LINE
  5
475
330
1F
100
AcDbEntity
  8
0
  6
Continuous
100
AcDbLine
 10
82.82239748850001
 20
40.9125265212
 30
0.0
 11
82.81361670050001
 21
40.9652112491
 31
0.0
  0
LINE
  5
476
330
1F
100
AcDbEntity
  8
0
  6
Continuous
100
AcDbLine
 10
82.8281167005
 20
40.90721124909999
 30
0.0
 11
82.8265798992
 21
40.91335845439999
 31
0.0
  0
LINE
  5
477
330
1F
100
AcDbEntity
  8
0
  6
Continuous
100
AcDbLine
 10
82.8265798992
 20
40.91335845439999
 30
0.0
 11
82.81361670050001
 21
40.9652112491
 31
0.0
  0
LINE
  5
478
330
1F
100
AcDbEntity
  8
0
  6
Continuous
100
AcDbLine
 10
82.84403880560001
 20
40.934789144
 30
0.0
 11
82.81361670050001
 21
40.9652112491
 31
0.0
  0
LINE
  5
479
330
1F
100
AcDbEntity
  8
0
  6
Continuous
100
AcDbLine
 10
82.8716167005
 20
40.95071124909999
 30
0.0
 11
82.86546949519999
 21
40.95224805039999
 31
0.0
  0
LINE
  5
47A
330
1F
100
AcDbEntity
  8
0
  6
Continuous
100
AcDbLine
 10
82.86546949519999
 20
40.95224805039999
 30
0.0
 11
82.8606008845
 21
40.9534652031
 31
0.0
  0
LINE
  5
47B
330
1F
100
AcDbEntity
  8
0
  6
Continuous
100
AcDbLine
 10
82.8606008845
 20
40.9534652031
 30
0.0
 11
82.81361670050001
 21
40.9652112491
 31
0.0
  0
LINE
  5
47C
330
1F
100
AcDbEntity
  8
0
  6
Continuous
100
AcDbLine
 10
82.90061670049999
 20
40.95071124909999
 30
0.0
 11
82.87522905539999
 21
40.95494252329999
 31
0.0
  0
LINE
  5
47D
330
1F
100
AcDbEntity
  8
0
  6
Continuous
100
AcDbLine
 10
82.87522905539999
 20
40.95494252329999
 30
0.0
 11
82.86630142840001
 21
40.9564304611
 31
0.0
  0
LINE
  5
47E
330
1F
100
AcDbEntity
  8
0
  6
Continuous
100
AcDbLine
 10
82.86630142840001
 20
40.9564304611
 30
0.0
 11
82.8562970948
 21
40.9580978501
 31
0.0
  0
LINE
  5
47F
330
1F
100
AcDbEntity
  8
0
  6
Continuous
100
AcDbLine
 10
82.8562970948
 20
40.9580978501
 30
0.0
 11
82.81361670050001
 21
40.9652112491
 31
0.0
  0
LINE
  5
480
330
1F
100
AcDbEntity
  8
0
  6
Continuous
100
AcDbLine
 10
82.90061670049999
 20
40.97971124909999
 30
0.0
 11
82.87522905539999
 21
40.97547997489999
 31
0.0
  0
LINE
  5
481
330
1F
100
AcDbEntity
  8
0
  6
Continuous
100
AcDbLine
 10
82.87522905539999
 20
40.97547997489999
 30
0.0
 11
82.86630142840001
 21
40.9739920371
 31
0.0
  0
LINE
  5
482
330
1F
100
AcDbEntity
  8
0
  6
Continuous
100
AcDbLine
 10
82.86630142840001
 20
40.9739920371
 30
0.0
 11
82.8562970948
 21
40.9723246482
 31
0.0
  0
LINE
  5
483
330
1F
100
AcDbEntity
  8
0
  6
Continuous
100
AcDbLine
 10
82.8562970948
 20
40.9723246482
 30
0.0
 11
82.81361670050001
 21
40.9652112491
 31
0.0
  0
LINE
  5
484
330
1F
100
AcDbEntity
  8
0
  6
Continuous
100
AcDbLine
 10
82.8716167005
 20
40.97971124909999
 30
0.0
 11
82.86546949519999
 21
40.9781744478
 31
0.0
  0
LINE
  5
485
330
1F
100
AcDbEntity
  8
0
  6
Continuous
100
AcDbLine
 10
82.86546949519999
 20
40.9781744478
 30
0.0
 11
82.8606008845
 21
40.97695729509999
 31
0.0
  0
LINE
  5
486
330
1F
100
AcDbEntity
  8
0
  6
Continuous
100
AcDbLine
 10
82.8606008845
 20
40.97695729509999
 30
0.0
 11
82.81361670050001
 21
40.9652112491
 31
0.0
  0
LINE
  5
487
330
1F
100
AcDbEntity
  8
0
  6
Continuous
100
AcDbLine
 10
82.84403880560001
 20
40.9956333542
 30
0.0
 11
82.81361670050001
 21
40.9652112491
 31
0.0
  0
LINE
  5
488
330
1F
100
AcDbEntity
  8
0
  6
Continuous
100
AcDbLine
 10
82.8281167005
 20
41.0232112491
 30
0.0
 11
82.8265798992
 21
41.01706404379999
 31
0.0
  0
LINE
  5
489
330
1F
100
AcDbEntity
  8
0
  6
Continuous
100
AcDbLine
 10
82.8265798992
 20
41.01706404379999
 30
0.0
 11
82.81361670050001
 21
40.9652112491
 31
0.0
  0
LINE
  5
48A
330
1F
100
AcDbEntity
  8
0
  6
Continuous
100
AcDbLine
 10
82.8281167005
 20
41.05221124909999
 30
0.0
 11
82.82239748850001
 21
41.01789597699999
 31
0.0
  0
LINE
  5
48B
330
1F
100
AcDbEntity
  8
0
  6
Continuous
100
AcDbLine
 10
82.82239748850001
 20
41.01789597699999
 30
0.0
 11
82.81361670050001
 21
40.9652112491
 31
0.0
  0
LINE
  5
48C
330
1F
100
AcDbEntity
  8
0
  6
Continuous
100
AcDbLine
 10
82.79911670050001
 20
41.05221124909999
 30
0.0
 11
82.8048359125
 21
41.01789597699999
 31
0.0
  0
LINE
  5
48D
330
1F
100
AcDbEntity
  8
0
  6
Continuous
100
AcDbLine
 10
82.8048359125
 20
41.01789597699999
 30
0.0
 11
82.81361670050001
 21
40.9652112491
 31
0.0
  0
LINE
  5
48E
330
1F
100
AcDbEntity
  8
0
  6
Continuous
100
AcDbLine
 10
82.79911670050001
 20
41.0232112491
 30
0.0
 11
82.80065350180001
 21
41.01706404379999
 31
0.0
  0
LINE
  5
48F
330
1F
100
AcDbEntity
  8
0
  6
Continuous
100
AcDbLine
 10
82.80065350180001
 20
41.01706404379999
 30
0.0
 11
82.81361670050001
 21
40.9652112491
 31
0.0
  0
LINE
  5
490
330
1F
100
AcDbEntity
  8
0
  6
Continuous
100
AcDbLine
 10
82.7831945954
 20
40.9956333542
 30
0.0
 11
82.81361670050001
 21
40.9652112491
 31
0.0
  0
LINE
  5
491
330
1F
100
AcDbEntity
  8
0
  6
Continuous
100
AcDbLine
 10
82.7556167005
 20
40.97971124909999
 30
0.0
 11
82.76176390579999
 21
40.9781744478
 31
0.0
  0
LINE
  5
492
330
1F
100
AcDbEntity
  8
0
  6
Continuous
100
AcDbLine
 10
82.76176390579999
 20
40.9781744478
 30
0.0
 11
82.76663251649999
 21
40.97695729509999
 31
0.0
  0
LINE
  5
493
330
1F
100
AcDbEntity
  8
0
  6
Continuous
100
AcDbLine
 10
82.76663251649999
 20
40.97695729509999
 30
0.0
 11
82.81361670050001
 21
40.9652112491
 31
0.0
  0
ARC
  5
494
330
1F
100
AcDbEntity
  8
0
  6
Continuous
100
AcDbCircle
 10
86.12361670049999
 20
39.2327112491
 30
0.0
 40
0.1395
100
AcDbArc
 50
90.0
 51
270.0
  0
ARC
  5
495
330
1F
100
AcDbEntity
  8
0
  6
Continuous
100
AcDbCircle
 10
86.12361670049999
 20
39.2327112491
 30
0.0
 40
0.1395
100
AcDbArc
 50
270.0
 51
90.0
  0
LINE
  5
496
330
1F
100
AcDbEntity
  8
0
  6
Continuous
100
AcDbLine
 10
86.1540388056
 20
39.20228914399999
 30
0.0
 11
86.13811670049999
 21
39.17471124909999
 31
0.0
  0
LINE
  5
497
330
1F
100
AcDbEntity
  8
0
  6
Continuous
100
AcDbLine
 10
86.18161670049998
 20
39.2182112491
 30
0.0
 11
86.1540388056
 21
39.20228914399999
 31
0.0
  0
LINE
  5
498
330
1F
100
AcDbEntity
  8
0
  6
Continuous
100
AcDbLine
 10
86.2106167005
 20
39.2182112491
 30
0.0
 11
86.18161670049998
 21
39.2182112491
 31
0.0
  0
LINE
  5
499
330
1F
100
AcDbEntity
  8
0
  6
Continuous
100
AcDbLine
 10
86.2106167005
 20
39.2472112491
 30
0.0
 11
86.2106167005
 21
39.2182112491
 31
0.0
  0
LINE
  5
49A
330
1F
100
AcDbEntity
  8
0
  6
Continuous
100
AcDbLine
 10
86.18161670049998
 20
39.2472112491
 30
0.0
 11
86.2106167005
 21
39.2472112491
 31
0.0
  0
LINE
  5
49B
330
1F
100
AcDbEntity
  8
0
  6
Continuous
100
AcDbLine
 10
86.1540388056
 20
39.2631333542
 30
0.0
 11
86.18161670049998
 21
39.2472112491
 31
0.0
  0
LINE
  5
49C
330
1F
100
AcDbEntity
  8
0
  6
Continuous
100
AcDbLine
 10
86.13811670049999
 20
39.2907112491
 30
0.0
 11
86.1540388056
 21
39.2631333542
 31
0.0
  0
LINE
  5
49D
330
1F
100
AcDbEntity
  8
0
  6
Continuous
100
AcDbLine
 10
86.13811670049999
 20
39.31971124909999
 30
0.0
 11
86.13811670049999
 21
39.2907112491
 31
0.0
  0
LINE
  5
49E
330
1F
100
AcDbEntity
  8
0
  6
Continuous
100
AcDbLine
 10
86.10911670049999
 20
39.31971124909999
 30
0.0
 11
86.13811670049999
 21
39.31971124909999
 31
0.0
  0
LINE
  5
49F
330
1F
100
AcDbEntity
  8
0
  6
Continuous
100
AcDbLine
 10
86.10911670049999
 20
39.2907112491
 30
0.0
 11
86.10911670049999
 21
39.31971124909999
 31
0.0
  0
LINE
  5
4A0
330
1F
100
AcDbEntity
  8
0
  6
Continuous
100
AcDbLine
 10
86.09319459540001
 20
39.2631333542
 30
0.0
 11
86.10911670049999
 21
39.2907112491
 31
0.0
  0
LINE
  5
4A1
330
1F
100
AcDbEntity
  8
0
  6
Continuous
100
AcDbLine
 10
86.06561670049998
 20
39.2472112491
 30
0.0
 11
86.09319459540001
 21
39.2631333542
 31
0.0
  0
LINE
  5
4A2
330
1F
100
AcDbEntity
  8
0
  6
Continuous
100
AcDbLine
 10
86.0366167005
 20
39.2472112491
 30
0.0
 11
86.06561670049998
 21
39.2472112491
 31
0.0
  0
LINE
  5
4A3
330
1F
100
AcDbEntity
  8
0
  6
Continuous
100
AcDbLine
 10
86.0366167005
 20
39.2182112491
 30
0.0
 11
86.0366167005
 21
39.2472112491
 31
0.0
  0
LINE
  5
4A4
330
1F
100
AcDbEntity
  8
0
  6
Continuous
100
AcDbLine
 10
86.06561670049998
 20
39.2182112491
 30
0.0
 11
86.0366167005
 21
39.2182112491
 31
0.0
  0
LINE
  5
4A5
330
1F
100
AcDbEntity
  8
0
  6
Continuous
100
AcDbLine
 10
86.09319459540001
 20
39.20228914399999
 30
0.0
 11
86.06561670049998
 21
39.2182112491
 31
0.0
  0
LINE
  5
4A6
330
1F
100
AcDbEntity
  8
0
  6
Continuous
100
AcDbLine
 10
86.10911670049999
 20
39.17471124909999
 30
0.0
 11
86.09319459540001
 21
39.20228914399999
 31
0.0
  0
LINE
  5
4A7
330
1F
100
AcDbEntity
  8
0
  6
Continuous
100
AcDbLine
 10
86.10911670049999
 20
39.14571124909999
 30
0.0
 11
86.10911670049999
 21
39.17471124909999
 31
0.0
  0
LINE
  5
4A8
330
1F
100
AcDbEntity
  8
0
  6
Continuous
100
AcDbLine
 10
86.13811670049999
 20
39.14571124909999
 30
0.0
 11
86.10911670049999
 21
39.14571124909999
 31
0.0
  0
LINE
  5
4A9
330
1F
100
AcDbEntity
  8
0
  6
Continuous
100
AcDbLine
 10
86.10911670049999
 20
39.17471124909999
 30
0.0
 11
86.1106535018
 21
39.1808584544
 31
0.0
  0
LINE
  5
4AA
330
1F
100
AcDbEntity
  8
0
  6
Continuous
100
AcDbLine
 10
86.1106535018
 20
39.1808584544
 30
0.0
 11
86.12361670049999
 21
39.2327112491
 31
0.0
  0
LINE
  5
4AB
330
1F
100
AcDbEntity
  8
0
  6
Continuous
100
AcDbLine
 10
86.09319459540001
 20
39.20228914399999
 30
0.0
 11
86.12361670049999
 21
39.2327112491
 31
0.0
  0
LINE
  5
4AC
330
1F
100
AcDbEntity
  8
0
  6
Continuous
100
AcDbLine
 10
86.06561670049998
 20
39.2182112491
 30
0.0
 11
86.07176390579999
 21
39.21974805039999
 31
0.0
  0
LINE
  5
4AD
330
1F
100
AcDbEntity
  8
0
  6
Continuous
100
AcDbLine
 10
86.07176390579999
 20
39.21974805039999
 30
0.0
 11
86.0766325165
 21
39.2209652031
 31
0.0
  0
LINE
  5
4AE
330
1F
100
AcDbEntity
  8
0
  6
Continuous
100
AcDbLine
 10
86.0766325165
 20
39.2209652031
 30
0.0
 11
86.12361670049999
 21
39.2327112491
 31
0.0
  0
LINE
  5
4AF
330
1F
100
AcDbEntity
  8
0
  6
Continuous
100
AcDbLine
 10
86.0366167005
 20
39.2182112491
 30
0.0
 11
86.06200434559999
 21
39.22244252329999
 31
0.0
  0
LINE
  5
4B0
330
1F
100
AcDbEntity
  8
0
  6
Continuous
100
AcDbLine
 10
86.06200434559999
 20
39.22244252329999
 30
0.0
 11
86.07093197260001
 21
39.2239304611
 31
0.0
  0
LINE
  5
4B1
330
1F
100
AcDbEntity
  8
0
  6
Continuous
100
AcDbLine
 10
86.07093197260001
 20
39.2239304611
 30
0.0
 11
86.0809363062
 21
39.2255978501
 31
0.0
  0
LINE
  5
4B2
330
1F
100
AcDbEntity
  8
0
  6
Continuous
100
AcDbLine
 10
86.0809363062
 20
39.2255978501
 30
0.0
 11
86.12361670049999
 21
39.2327112491
 31
0.0
  0
LINE
  5
4B3
330
1F
100
AcDbEntity
  8
0
  6
Continuous
100
AcDbLine
 10
86.10911670049999
 20
39.14571124909999
 30
0.0
 11
86.11483591249999
 21
39.1800265212
 31
0.0
  0
LINE
  5
4B4
330
1F
100
AcDbEntity
  8
0
  6
Continuous
100
AcDbLine
 10
86.11483591249999
 20
39.1800265212
 30
0.0
 11
86.12361670049999
 21
39.2327112491
 31
0.0
  0
LINE
  5
4B5
330
1F
100
AcDbEntity
  8
0
  6
Continuous
100
AcDbLine
 10
86.0366167005
 20
39.2472112491
 30
0.0
 11
86.06200434559999
 21
39.24297997489999
 31
0.0
  0
LINE
  5
4B6
330
1F
100
AcDbEntity
  8
0
  6
Continuous
100
AcDbLine
 10
86.06200434559999
 20
39.24297997489999
 30
0.0
 11
86.07093197260001
 21
39.2414920371
 31
0.0
  0
LINE
  5
4B7
330
1F
100
AcDbEntity
  8
0
  6
Continuous
100
AcDbLine
 10
86.07093197260001
 20
39.2414920371
 30
0.0
 11
86.0809363062
 21
39.23982464819999
 31
0.0
  0
LINE
  5
4B8
330
1F
100
AcDbEntity
  8
0
  6
Continuous
100
AcDbLine
 10
86.0809363062
 20
39.23982464819999
 30
0.0
 11
86.12361670049999
 21
39.2327112491
 31
0.0
  0
LINE
  5
4B9
330
1F
100
AcDbEntity
  8
0
  6
Continuous
100
AcDbLine
 10
86.13811670049999
 20
39.17471124909999
 30
0.0
 11
86.13811670049999
 21
39.14571124909999
 31
0.0
  0
LINE
  5
4BA
330
1F
100
AcDbEntity
  8
0
  6
Continuous
100
AcDbLine
 10
86.13811670049999
 20
39.14571124909999
 30
0.0
 11
86.1323974885
 21
39.1800265212
 31
0.0
  0
LINE
  5
4BB
330
1F
100
AcDbEntity
  8
0
  6
Continuous
100
AcDbLine
 10
86.1323974885
 20
39.1800265212
 30
0.0
 11
86.12361670049999
 21
39.2327112491
 31
0.0
  0
LINE
  5
4BC
330
1F
100
AcDbEntity
  8
0
  6
Continuous
100
AcDbLine
 10
86.13811670049999
 20
39.17471124909999
 30
0.0
 11
86.1365798992
 21
39.1808584544
 31
0.0
  0
LINE
  5
4BD
330
1F
100
AcDbEntity
  8
0
  6
Continuous
100
AcDbLine
 10
86.1365798992
 20
39.1808584544
 30
0.0
 11
86.12361670049999
 21
39.2327112491
 31
0.0
  0
LINE
  5
4BE
330
1F
100
AcDbEntity
  8
0
  6
Continuous
100
AcDbLine
 10
86.1540388056
 20
39.20228914399999
 30
0.0
 11
86.12361670049999
 21
39.2327112491
 31
0.0
  0
LINE
  5
4BF
330
1F
100
AcDbEntity
  8
0
  6
Continuous
100
AcDbLine
 10
86.18161670049998
 20
39.2182112491
 30
0.0
 11
86.17546949520001
 21
39.21974805039999
 31
0.0
  0
LINE
  5
4C0
330
1F
100
AcDbEntity
  8
0
  6
Continuous
100
AcDbLine
 10
86.17546949520001
 20
39.21974805039999
 30
0.0
 11
86.17060088450001
 21
39.2209652031
 31
0.0
  0
LINE
  5
4C1
330
1F
100
AcDbEntity
  8
0
  6
Continuous
100
AcDbLine
 10
86.17060088450001
 20
39.2209652031
 30
0.0
 11
86.12361670049999
 21
39.2327112491
 31
0.0
  0
LINE
  5
4C2
330
1F
100
AcDbEntity
  8
0
  6
Continuous
100
AcDbLine
 10
86.2106167005
 20
39.2182112491
 30
0.0
 11
86.18522905540002
 21
39.22244252329999
 31
0.0
  0
LINE
  5
4C3
330
1F
100
AcDbEntity
  8
0
  6
Continuous
100
AcDbLine
 10
86.18522905540002
 20
39.22244252329999
 30
0.0
 11
86.17630142839999
 21
39.2239304611
 31
0.0
  0
LINE
  5
4C4
330
1F
100
AcDbEntity
  8
0
  6
Continuous
100
AcDbLine
 10
86.17630142839999
 20
39.2239304611
 30
0.0
 11
86.16629709479999
 21
39.2255978501
 31
0.0
  0
LINE
  5
4C5
330
1F
100
AcDbEntity
  8
0
  6
Continuous
100
AcDbLine
 10
86.16629709479999
 20
39.2255978501
 30
0.0
 11
86.12361670049999
 21
39.2327112491
 31
0.0
  0
LINE
  5
4C6
330
1F
100
AcDbEntity
  8
0
  6
Continuous
100
AcDbLine
 10
86.2106167005
 20
39.2472112491
 30
0.0
 11
86.18522905540002
 21
39.24297997489999
 31
0.0
  0
LINE
  5
4C7
330
1F
100
AcDbEntity
  8
0
  6
Continuous
100
AcDbLine
 10
86.18522905540002
 20
39.24297997489999
 30
0.0
 11
86.17630142839999
 21
39.2414920371
 31
0.0
  0
LINE
  5
4C8
330
1F
100
AcDbEntity
  8
0
  6
Continuous
100
AcDbLine
 10
86.17630142839999
 20
39.2414920371
 30
0.0
 11
86.16629709479999
 21
39.23982464819999
 31
0.0
  0
LINE
  5
4C9
330
1F
100
AcDbEntity
  8
0
  6
Continuous
100
AcDbLine
 10
86.16629709479999
 20
39.23982464819999
 30
0.0
 11
86.12361670049999
 21
39.2327112491
 31
0.0
  0
LINE
  5
4CA
330
1F
100
AcDbEntity
  8
0
  6
Continuous
100
AcDbLine
 10
86.18161670049998
 20
39.2472112491
 30
0.0
 11
86.17546949520001
 21
39.2456744478
 31
0.0
  0
LINE
  5
4CB
330
1F
100
AcDbEntity
  8
0
  6
Continuous
100
AcDbLine
 10
86.17546949520001
 20
39.2456744478
 30
0.0
 11
86.17060088450001
 21
39.2444572951
 31
0.0
  0
LINE
  5
4CC
330
1F
100
AcDbEntity
  8
0
  6
Continuous
100
AcDbLine
 10
86.17060088450001
 20
39.2444572951
 30
0.0
 11
86.12361670049999
 21
39.2327112491
 31
0.0
  0
LINE
  5
4CD
330
1F
100
AcDbEntity
  8
0
  6
Continuous
100
AcDbLine
 10
86.1540388056
 20
39.2631333542
 30
0.0
 11
86.12361670049999
 21
39.2327112491
 31
0.0
  0
LINE
  5
4CE
330
1F
100
AcDbEntity
  8
0
  6
Continuous
100
AcDbLine
 10
86.13811670049999
 20
39.2907112491
 30
0.0
 11
86.1365798992
 21
39.2845640438
 31
0.0
  0
LINE
  5
4CF
330
1F
100
AcDbEntity
  8
0
  6
Continuous
100
AcDbLine
 10
86.1365798992
 20
39.2845640438
 30
0.0
 11
86.12361670049999
 21
39.2327112491
 31
0.0
  0
LINE
  5
4D0
330
1F
100
AcDbEntity
  8
0
  6
Continuous
100
AcDbLine
 10
86.13811670049999
 20
39.31971124909999
 30
0.0
 11
86.1323974885
 21
39.285395977
 31
0.0
  0
LINE
  5
4D1
330
1F
100
AcDbEntity
  8
0
  6
Continuous
100
AcDbLine
 10
86.1323974885
 20
39.285395977
 30
0.0
 11
86.12361670049999
 21
39.2327112491
 31
0.0
  0
LINE
  5
4D2
330
1F
100
AcDbEntity
  8
0
  6
Continuous
100
AcDbLine
 10
86.10911670049999
 20
39.31971124909999
 30
0.0
 11
86.11483591249999
 21
39.285395977
 31
0.0
  0
LINE
  5
4D3
330
1F
100
AcDbEntity
  8
0
  6
Continuous
100
AcDbLine
 10
86.11483591249999
 20
39.285395977
 30
0.0
 11
86.12361670049999
 21
39.2327112491
 31
0.0
  0
LINE
  5
4D4
330
1F
100
AcDbEntity
  8
0
  6
Continuous
100
AcDbLine
 10
86.10911670049999
 20
39.2907112491
 30
0.0
 11
86.1106535018
 21
39.2845640438
 31
0.0
  0
LINE
  5
4D5
330
1F
100
AcDbEntity
  8
0
  6
Continuous
100
AcDbLine
 10
86.1106535018
 20
39.2845640438
 30
0.0
 11
86.12361670049999
 21
39.2327112491
 31
0.0
  0
LINE
  5
4D6
330
1F
100
AcDbEntity
  8
0
  6
Continuous
100
AcDbLine
 10
86.09319459540001
 20
39.2631333542
 30
0.0
 11
86.12361670049999
 21
39.2327112491
 31
0.0
  0
LINE
  5
4D7
330
1F
100
AcDbEntity
  8
0
  6
Continuous
100
AcDbLine
 10
86.06561670049998
 20
39.2472112491
 30
0.0
 11
86.07176390579999
 21
39.2456744478
 31
0.0
  0
LINE
  5
4D8
330
1F
100
AcDbEntity
  8
0
  6
Continuous
100
AcDbLine
 10
86.07176390579999
 20
39.2456744478
 30
0.0
 11
86.0766325165
 21
39.2444572951
 31
0.0
  0
LINE
  5
4D9
330
1F
100
AcDbEntity
  8
0
  6
Continuous
100
AcDbLine
 10
86.0766325165
 20
39.2444572951
 30
0.0
 11
86.12361670049999
 21
39.2327112491
 31
0.0
  0
ARC
  5
4DA
330
1F
100
AcDbEntity
  8
0
  6
Continuous
100
AcDbCircle
 10
81.50361670050001
 20
39.2327112491
 30
0.0
 40
0.1395
100
AcDbArc
 50
90.0
 51
270.0
  0
ARC
  5
4DB
330
1F
100
AcDbEntity
  8
0
  6
Continuous
100
AcDbCircle
 10
81.50361670050001
 20
39.2327112491
 30
0.0
 40
0.1395
100
AcDbArc
 50
270.0
 51
90.0
  0
LINE
  5
4DC
330
1F
100
AcDbEntity
  8
0
  6
Continuous
100
AcDbLine
 10
81.5340388056
 20
39.20228914399999
 30
0.0
 11
81.51811670049999
 21
39.17471124909999
 31
0.0
  0
LINE
  5
4DD
330
1F
100
AcDbEntity
  8
0
  6
Continuous
100
AcDbLine
 10
81.5616167005
 20
39.2182112491
 30
0.0
 11
81.5340388056
 21
39.20228914399999
 31
0.0
  0
LINE
  5
4DE
330
1F
100
AcDbEntity
  8
0
  6
Continuous
100
AcDbLine
 10
81.5906167005
 20
39.2182112491
 30
0.0
 11
81.5616167005
 21
39.2182112491
 31
0.0
  0
LINE
  5
4DF
330
1F
100
AcDbEntity
  8
0
  6
Continuous
100
AcDbLine
 10
81.5906167005
 20
39.2472112491
 30
0.0
 11
81.5906167005
 21
39.2182112491
 31
0.0
  0
LINE
  5
4E0
330
1F
100
AcDbEntity
  8
0
  6
Continuous
100
AcDbLine
 10
81.5616167005
 20
39.2472112491
 30
0.0
 11
81.5906167005
 21
39.2472112491
 31
0.0
  0
LINE
  5
4E1
330
1F
100
AcDbEntity
  8
0
  6
Continuous
100
AcDbLine
 10
81.5340388056
 20
39.2631333542
 30
0.0
 11
81.5616167005
 21
39.2472112491
 31
0.0
  0
LINE
  5
4E2
330
1F
100
AcDbEntity
  8
0
  6
Continuous
100
AcDbLine
 10
81.51811670049999
 20
39.2907112491
 30
0.0
 11
81.5340388056
 21
39.2631333542
 31
0.0
  0
LINE
  5
4E3
330
1F
100
AcDbEntity
  8
0
  6
Continuous
100
AcDbLine
 10
81.51811670049999
 20
39.31971124909999
 30
0.0
 11
81.51811670049999
 21
39.2907112491
 31
0.0
  0
LINE
  5
4E4
330
1F
100
AcDbEntity
  8
0
  6
Continuous
100
AcDbLine
 10
81.48911670050001
 20
39.31971124909999
 30
0.0
 11
81.51811670049999
 21
39.31971124909999
 31
0.0
  0
LINE
  5
4E5
330
1F
100
AcDbEntity
  8
0
  6
Continuous
100
AcDbLine
 10
81.48911670050001
 20
39.2907112491
 30
0.0
 11
81.48911670050001
 21
39.31971124909999
 31
0.0
  0
LINE
  5
4E6
330
1F
100
AcDbEntity
  8
0
  6
Continuous
100
AcDbLine
 10
81.4731945954
 20
39.2631333542
 30
0.0
 11
81.48911670050001
 21
39.2907112491
 31
0.0
  0
LINE
  5
4E7
330
1F
100
AcDbEntity
  8
0
  6
Continuous
100
AcDbLine
 10
81.4456167005
 20
39.2472112491
 30
0.0
 11
81.4731945954
 21
39.2631333542
 31
0.0
  0
LINE
  5
4E8
330
1F
100
AcDbEntity
  8
0
  6
Continuous
100
AcDbLine
 10
81.4166167005
 20
39.2472112491
 30
0.0
 11
81.4456167005
 21
39.2472112491
 31
0.0
  0
LINE
  5
4E9
330
1F
100
AcDbEntity
  8
0
  6
Continuous
100
AcDbLine
 10
81.4166167005
 20
39.2182112491
 30
0.0
 11
81.4166167005
 21
39.2472112491
 31
0.0
  0
LINE
  5
4EA
330
1F
100
AcDbEntity
  8
0
  6
Continuous
100
AcDbLine
 10
81.4456167005
 20
39.2182112491
 30
0.0
 11
81.4166167005
 21
39.2182112491
 31
0.0
  0
LINE
  5
4EB
330
1F
100
AcDbEntity
  8
0
  6
Continuous
100
AcDbLine
 10
81.4731945954
 20
39.20228914399999
 30
0.0
 11
81.4456167005
 21
39.2182112491
 31
0.0
  0
LINE
  5
4EC
330
1F
100
AcDbEntity
  8
0
  6
Continuous
100
AcDbLine
 10
81.48911670050001
 20
39.17471124909999
 30
0.0
 11
81.4731945954
 21
39.20228914399999
 31
0.0
  0
LINE
  5
4ED
330
1F
100
AcDbEntity
  8
0
  6
Continuous
100
AcDbLine
 10
81.48911670050001
 20
39.14571124909999
 30
0.0
 11
81.48911670050001
 21
39.17471124909999
 31
0.0
  0
LINE
  5
4EE
330
1F
100
AcDbEntity
  8
0
  6
Continuous
100
AcDbLine
 10
81.51811670049999
 20
39.14571124909999
 30
0.0
 11
81.48911670050001
 21
39.14571124909999
 31
0.0
  0
LINE
  5
4EF
330
1F
100
AcDbEntity
  8
0
  6
Continuous
100
AcDbLine
 10
81.48911670050001
 20
39.17471124909999
 30
0.0
 11
81.4906535018
 21
39.1808584544
 31
0.0
  0
LINE
  5
4F0
330
1F
100
AcDbEntity
  8
0
  6
Continuous
100
AcDbLine
 10
81.4906535018
 20
39.1808584544
 30
0.0
 11
81.50361670050001
 21
39.2327112491
 31
0.0
  0
LINE
  5
4F1
330
1F
100
AcDbEntity
  8
0
  6
Continuous
100
AcDbLine
 10
81.4731945954
 20
39.20228914399999
 30
0.0
 11
81.50361670050001
 21
39.2327112491
 31
0.0
  0
LINE
  5
4F2
330
1F
100
AcDbEntity
  8
0
  6
Continuous
100
AcDbLine
 10
81.4456167005
 20
39.2182112491
 30
0.0
 11
81.45176390579999
 21
39.21974805039999
 31
0.0
  0
LINE
  5
4F3
330
1F
100
AcDbEntity
  8
0
  6
Continuous
100
AcDbLine
 10
81.45176390579999
 20
39.21974805039999
 30
0.0
 11
81.45663251649999
 21
39.2209652031
 31
0.0
  0
LINE
  5
4F4
330
1F
100
AcDbEntity
  8
0
  6
Continuous
100
AcDbLine
 10
81.45663251649999
 20
39.2209652031
 30
0.0
 11
81.50361670050001
 21
39.2327112491
 31
0.0
  0
LINE
  5
4F5
330
1F
100
AcDbEntity
  8
0
  6
Continuous
100
AcDbLine
 10
81.4166167005
 20
39.2182112491
 30
0.0
 11
81.4420043456
 21
39.22244252329999
 31
0.0
  0
LINE
  5
4F6
330
1F
100
AcDbEntity
  8
0
  6
Continuous
100
AcDbLine
 10
81.4420043456
 20
39.22244252329999
 30
0.0
 11
81.45093197260001
 21
39.2239304611
 31
0.0
  0
LINE
  5
4F7
330
1F
100
AcDbEntity
  8
0
  6
Continuous
100
AcDbLine
 10
81.45093197260001
 20
39.2239304611
 30
0.0
 11
81.46093630619999
 21
39.2255978501
 31
0.0
  0
LINE
  5
4F8
330
1F
100
AcDbEntity
  8
0
  6
Continuous
100
AcDbLine
 10
81.46093630619999
 20
39.2255978501
 30
0.0
 11
81.50361670050001
 21
39.2327112491
 31
0.0
  0
LINE
  5
4F9
330
1F
100
AcDbEntity
  8
0
  6
Continuous
100
AcDbLine
 10
81.48911670050001
 20
39.14571124909999
 30
0.0
 11
81.4948359125
 21
39.1800265212
 31
0.0
  0
LINE
  5
4FA
330
1F
100
AcDbEntity
  8
0
  6
Continuous
100
AcDbLine
 10
81.4948359125
 20
39.1800265212
 30
0.0
 11
81.50361670050001
 21
39.2327112491
 31
0.0
  0
LINE
  5
4FB
330
1F
100
AcDbEntity
  8
0
  6
Continuous
100
AcDbLine
 10
81.4166167005
 20
39.2472112491
 30
0.0
 11
81.4420043456
 21
39.24297997489999
 31
0.0
  0
LINE
  5
4FC
330
1F
100
AcDbEntity
  8
0
  6
Continuous
100
AcDbLine
 10
81.4420043456
 20
39.24297997489999
 30
0.0
 11
81.45093197260001
 21
39.2414920371
 31
0.0
  0
LINE
  5
4FD
330
1F
100
AcDbEntity
  8
0
  6
Continuous
100
AcDbLine
 10
81.45093197260001
 20
39.2414920371
 30
0.0
 11
81.46093630619999
 21
39.23982464819999
 31
0.0
  0
LINE
  5
4FE
330
1F
100
AcDbEntity
  8
0
  6
Continuous
100
AcDbLine
 10
81.46093630619999
 20
39.23982464819999
 30
0.0
 11
81.50361670050001
 21
39.2327112491
 31
0.0
  0
LINE
  5
4FF
330
1F
100
AcDbEntity
  8
0
  6
Continuous
100
AcDbLine
 10
81.51811670049999
 20
39.17471124909999
 30
0.0
 11
81.51811670049999
 21
39.14571124909999
 31
0.0
  0
LINE
  5
500
330
1F
100
AcDbEntity
  8
0
  6
Continuous
100
AcDbLine
 10
81.51811670049999
 20
39.14571124909999
 30
0.0
 11
81.51239748850001
 21
39.1800265212
 31
0.0
  0
LINE
  5
501
330
1F
100
AcDbEntity
  8
0
  6
Continuous
100
AcDbLine
 10
81.51239748850001
 20
39.1800265212
 30
0.0
 11
81.50361670050001
 21
39.2327112491
 31
0.0
  0
LINE
  5
502
330
1F
100
AcDbEntity
  8
0
  6
Continuous
100
AcDbLine
 10
81.51811670049999
 20
39.17471124909999
 30
0.0
 11
81.5165798992
 21
39.1808584544
 31
0.0
  0
LINE
  5
503
330
1F
100
AcDbEntity
  8
0
  6
Continuous
100
AcDbLine
 10
81.5165798992
 20
39.1808584544
 30
0.0
 11
81.50361670050001
 21
39.2327112491
 31
0.0
  0
LINE
  5
504
330
1F
100
AcDbEntity
  8
0
  6
Continuous
100
AcDbLine
 10
81.5340388056
 20
39.20228914399999
 30
0.0
 11
81.50361670050001
 21
39.2327112491
 31
0.0
  0
LINE
  5
505
330
1F
100
AcDbEntity
  8
0
  6
Continuous
100
AcDbLine
 10
81.5616167005
 20
39.2182112491
 30
0.0
 11
81.55546949519999
 21
39.21974805039999
 31
0.0
  0
LINE
  5
506
330
1F
100
AcDbEntity
  8
0
  6
Continuous
100
AcDbLine
 10
81.55546949519999
 20
39.21974805039999
 30
0.0
 11
81.55060088449999
 21
39.2209652031
 31
0.0
  0
LINE
  5
507
330
1F
100
AcDbEntity
  8
0
  6
Continuous
100
AcDbLine
 10
81.55060088449999
 20
39.2209652031
 30
0.0
 11
81.50361670050001
 21
39.2327112491
 31
0.0
  0
LINE
  5
508
330
1F
100
AcDbEntity
  8
0
  6
Continuous
100
AcDbLine
 10
81.5906167005
 20
39.2182112491
 30
0.0
 11
81.56522905539999
 21
39.22244252329999
 31
0.0
  0
LINE
  5
509
330
1F
100
AcDbEntity
  8
0
  6
Continuous
100
AcDbLine
 10
81.56522905539999
 20
39.22244252329999
 30
0.0
 11
81.55630142840001
 21
39.2239304611
 31
0.0
  0
LINE
  5
50A
330
1F
100
AcDbEntity
  8
0
  6
Continuous
100
AcDbLine
 10
81.55630142840001
 20
39.2239304611
 30
0.0
 11
81.54629709479999
 21
39.2255978501
 31
0.0
  0
LINE
  5
50B
330
1F
100
AcDbEntity
  8
0
  6
Continuous
100
AcDbLine
 10
81.54629709479999
 20
39.2255978501
 30
0.0
 11
81.50361670050001
 21
39.2327112491
 31
0.0
  0
LINE
  5
50C
330
1F
100
AcDbEntity
  8
0
  6
Continuous
100
AcDbLine
 10
81.5906167005
 20
39.2472112491
 30
0.0
 11
81.56522905539999
 21
39.24297997489999
 31
0.0
  0
LINE
  5
50D
330
1F
100
AcDbEntity
  8
0
  6
Continuous
100
AcDbLine
 10
81.56522905539999
 20
39.24297997489999
 30
0.0
 11
81.55630142840001
 21
39.2414920371
 31
0.0
  0
LINE
  5
50E
330
1F
100
AcDbEntity
  8
0
  6
Continuous
100
AcDbLine
 10
81.55630142840001
 20
39.2414920371
 30
0.0
 11
81.54629709479999
 21
39.23982464819999
 31
0.0
  0
LINE
  5
50F
330
1F
100
AcDbEntity
  8
0
  6
Continuous
100
AcDbLine
 10
81.54629709479999
 20
39.23982464819999
 30
0.0
 11
81.50361670050001
 21
39.2327112491
 31
0.0
  0
LINE
  5
510
330
1F
100
AcDbEntity
  8
0
  6
Continuous
100
AcDbLine
 10
81.5616167005
 20
39.2472112491
 30
0.0
 11
81.55546949519999
 21
39.2456744478
 31
0.0
  0
LINE
  5
511
330
1F
100
AcDbEntity
  8
0
  6
Continuous
100
AcDbLine
 10
81.55546949519999
 20
39.2456744478
 30
0.0
 11
81.55060088449999
 21
39.2444572951
 31
0.0
  0
LINE
  5
512
330
1F
100
AcDbEntity
  8
0
  6
Continuous
100
AcDbLine
 10
81.55060088449999
 20
39.2444572951
 30
0.0
 11
81.50361670050001
 21
39.2327112491
 31
0.0
  0
LINE
  5
513
330
1F
100
AcDbEntity
  8
0
  6
Continuous
100
AcDbLine
 10
81.5340388056
 20
39.2631333542
 30
0.0
 11
81.50361670050001
 21
39.2327112491
 31
0.0
  0
LINE
  5
514
330
1F
100
AcDbEntity
  8
0
  6
Continuous
100
AcDbLine
 10
81.51811670049999
 20
39.2907112491
 30
0.0
 11
81.5165798992
 21
39.2845640438
 31
0.0
  0
LINE
  5
515
330
1F
100
AcDbEntity
  8
0
  6
Continuous
100
AcDbLine
 10
81.5165798992
 20
39.2845640438
 30
0.0
 11
81.50361670050001
 21
39.2327112491
 31
0.0
  0
LINE
  5
516
330
1F
100
AcDbEntity
  8
0
  6
Continuous
100
AcDbLine
 10
81.51811670049999
 20
39.31971124909999
 30
0.0
 11
81.51239748850001
 21
39.285395977
 31
0.0
  0
LINE
  5
517
330
1F
100
AcDbEntity
  8
0
  6
Continuous
100
AcDbLine
 10
81.51239748850001
 20
39.285395977
 30
0.0
 11
81.50361670050001
 21
39.2327112491
 31
0.0
  0
LINE
  5
518
330
1F
100
AcDbEntity
  8
0
  6
Continuous
100
AcDbLine
 10
81.48911670050001
 20
39.31971124909999
 30
0.0
 11
81.4948359125
 21
39.285395977
 31
0.0
  0
LINE
  5
519
330
1F
100
AcDbEntity
  8
0
  6
Continuous
100
AcDbLine
 10
81.4948359125
 20
39.285395977
 30
0.0
 11
81.50361670050001
 21
39.2327112491
 31
0.0
  0
LINE
  5
51A
330
1F
100
AcDbEntity
  8
0
  6
Continuous
100
AcDbLine
 10
81.48911670050001
 20
39.2907112491
 30
0.0
 11
81.4906535018
 21
39.2845640438
 31
0.0
  0
LINE
  5
51B
330
1F
100
AcDbEntity
  8
0
  6
Continuous
100
AcDbLine
 10
81.4906535018
 20
39.2845640438
 30
0.0
 11
81.50361670050001
 21
39.2327112491
 31
0.0
  0
LINE
  5
51C
330
1F
100
AcDbEntity
  8
0
  6
Continuous
100
AcDbLine
 10
81.4731945954
 20
39.2631333542
 30
0.0
 11
81.50361670050001
 21
39.2327112491
 31
0.0
  0
LINE
  5
51D
330
1F
100
AcDbEntity
  8
0
  6
Continuous
100
AcDbLine
 10
81.4456167005
 20
39.2472112491
 30
0.0
 11
81.45176390579999
 21
39.2456744478
 31
0.0
  0
LINE
  5
51E
330
1F
100
AcDbEntity
  8
0
  6
Continuous
100
AcDbLine
 10
81.45176390579999
 20
39.2456744478
 30
0.0
 11
81.45663251649999
 21
39.2444572951
 31
0.0
  0
LINE
  5
51F
330
1F
100
AcDbEntity
  8
0
  6
Continuous
100
AcDbLine
 10
81.45663251649999
 20
39.2444572951
 30
0.0
 11
81.50361670050001
 21
39.2327112491
 31
0.0
  0
ARC
  5
520
330
1F
100
AcDbEntity
  8
0
  6
Continuous
100
AcDbCircle
 10
86.12361670049999
 20
36.07271124909999
 30
0.0
 40
0.1395
100
AcDbArc
 50
90.0
 51
270.0
  0
ARC
  5
521
330
1F
100
AcDbEntity
  8
0
  6
Continuous
100
AcDbCircle
 10
86.12361670049999
 20
36.07271124909999
 30
0.0
 40
0.1395
100
AcDbArc
 50
270.0
 51
90.0
  0
LINE
  5
522
330
1F
100
AcDbEntity
  8
0
  6
Continuous
100
AcDbLine
 10
86.1540388056
 20
36.042289144
 30
0.0
 11
86.13811670049999
 21
36.01471124909999
 31
0.0
  0
LINE
  5
523
330
1F
100
AcDbEntity
  8
0
  6
Continuous
100
AcDbLine
 10
86.18161670049998
 20
36.05821124909999
 30
0.0
 11
86.1540388056
 21
36.042289144
 31
0.0
  0
LINE
  5
524
330
1F
100
AcDbEntity
  8
0
  6
Continuous
100
AcDbLine
 10
86.2106167005
 20
36.05821124909999
 30
0.0
 11
86.18161670049998
 21
36.05821124909999
 31
0.0
  0
LINE
  5
525
330
1F
100
AcDbEntity
  8
0
  6
Continuous
100
AcDbLine
 10
86.2106167005
 20
36.0872112491
 30
0.0
 11
86.2106167005
 21
36.05821124909999
 31
0.0
  0
LINE
  5
526
330
1F
100
AcDbEntity
  8
0
  6
Continuous
100
AcDbLine
 10
86.18161670049998
 20
36.0872112491
 30
0.0
 11
86.2106167005
 21
36.0872112491
 31
0.0
  0
LINE
  5
527
330
1F
100
AcDbEntity
  8
0
  6
Continuous
100
AcDbLine
 10
86.1540388056
 20
36.1031333542
 30
0.0
 11
86.18161670049998
 21
36.0872112491
 31
0.0
  0
LINE
  5
528
330
1F
100
AcDbEntity
  8
0
  6
Continuous
100
AcDbLine
 10
86.13811670049999
 20
36.13071124909999
 30
0.0
 11
86.1540388056
 21
36.1031333542
 31
0.0
  0
LINE
  5
529
330
1F
100
AcDbEntity
  8
0
  6
Continuous
100
AcDbLine
 10
86.13811670049999
 20
36.1597112491
 30
0.0
 11
86.13811670049999
 21
36.13071124909999
 31
0.0
  0
LINE
  5
52A
330
1F
100
AcDbEntity
  8
0
  6
Continuous
100
AcDbLine
 10
86.10911670049999
 20
36.1597112491
 30
0.0
 11
86.13811670049999
 21
36.1597112491
 31
0.0
  0
LINE
  5
52B
330
1F
100
AcDbEntity
  8
0
  6
Continuous
100
AcDbLine
 10
86.10911670049999
 20
36.13071124909999
 30
0.0
 11
86.10911670049999
 21
36.1597112491
 31
0.0
  0
LINE
  5
52C
330
1F
100
AcDbEntity
  8
0
  6
Continuous
100
AcDbLine
 10
86.09319459540001
 20
36.1031333542
 30
0.0
 11
86.10911670049999
 21
36.13071124909999
 31
0.0
  0
LINE
  5
52D
330
1F
100
AcDbEntity
  8
0
  6
Continuous
100
AcDbLine
 10
86.06561670049998
 20
36.0872112491
 30
0.0
 11
86.09319459540001
 21
36.1031333542
 31
0.0
  0
LINE
  5
52E
330
1F
100
AcDbEntity
  8
0
  6
Continuous
100
AcDbLine
 10
86.0366167005
 20
36.0872112491
 30
0.0
 11
86.06561670049998
 21
36.0872112491
 31
0.0
  0
LINE
  5
52F
330
1F
100
AcDbEntity
  8
0
  6
Continuous
100
AcDbLine
 10
86.0366167005
 20
36.05821124909999
 30
0.0
 11
86.0366167005
 21
36.0872112491
 31
0.0
  0
LINE
  5
530
330
1F
100
AcDbEntity
  8
0
  6
Continuous
100
AcDbLine
 10
86.06561670049998
 20
36.05821124909999
 30
0.0
 11
86.0366167005
 21
36.05821124909999
 31
0.0
  0
LINE
  5
531
330
1F
100
AcDbEntity
  8
0
  6
Continuous
100
AcDbLine
 10
86.09319459540001
 20
36.042289144
 30
0.0
 11
86.06561670049998
 21
36.05821124909999
 31
0.0
  0
LINE
  5
532
330
1F
100
AcDbEntity
  8
0
  6
Continuous
100
AcDbLine
 10
86.10911670049999
 20
36.01471124909999
 30
0.0
 11
86.09319459540001
 21
36.042289144
 31
0.0
  0
LINE
  5
533
330
1F
100
AcDbEntity
  8
0
  6
Continuous
100
AcDbLine
 10
86.10911670049999
 20
35.9857112491
 30
0.0
 11
86.10911670049999
 21
36.01471124909999
 31
0.0
  0
LINE
  5
534
330
1F
100
AcDbEntity
  8
0
  6
Continuous
100
AcDbLine
 10
86.13811670049999
 20
35.9857112491
 30
0.0
 11
86.10911670049999
 21
35.9857112491
 31
0.0
  0
LINE
  5
535
330
1F
100
AcDbEntity
  8
0
  6
Continuous
100
AcDbLine
 10
86.10911670049999
 20
36.01471124909999
 30
0.0
 11
86.1106535018
 21
36.02085845439999
 31
0.0
  0
LINE
  5
536
330
1F
100
AcDbEntity
  8
0
  6
Continuous
100
AcDbLine
 10
86.1106535018
 20
36.02085845439999
 30
0.0
 11
86.12361670049999
 21
36.07271124909999
 31
0.0
  0
LINE
  5
537
330
1F
100
AcDbEntity
  8
0
  6
Continuous
100
AcDbLine
 10
86.09319459540001
 20
36.042289144
 30
0.0
 11
86.12361670049999
 21
36.07271124909999
 31
0.0
  0
LINE
  5
538
330
1F
100
AcDbEntity
  8
0
  6
Continuous
100
AcDbLine
 10
86.06561670049998
 20
36.05821124909999
 30
0.0
 11
86.07176390579999
 21
36.05974805039999
 31
0.0
  0
LINE
  5
539
330
1F
100
AcDbEntity
  8
0
  6
Continuous
100
AcDbLine
 10
86.07176390579999
 20
36.05974805039999
 30
0.0
 11
86.0766325165
 21
36.06096520309999
 31
0.0
  0
LINE
  5
53A
330
1F
100
AcDbEntity
  8
0
  6
Continuous
100
AcDbLine
 10
86.0766325165
 20
36.06096520309999
 30
0.0
 11
86.12361670049999
 21
36.07271124909999
 31
0.0
  0
LINE
  5
53B
330
1F
100
AcDbEntity
  8
0
  6
Continuous
100
AcDbLine
 10
86.0366167005
 20
36.05821124909999
 30
0.0
 11
86.06200434559999
 21
36.0624425233
 31
0.0
  0
LINE
  5
53C
330
1F
100
AcDbEntity
  8
0
  6
Continuous
100
AcDbLine
 10
86.06200434559999
 20
36.0624425233
 30
0.0
 11
86.07093197260001
 21
36.0639304611
 31
0.0
  0
LINE
  5
53D
330
1F
100
AcDbEntity
  8
0
  6
Continuous
100
AcDbLine
 10
86.07093197260001
 20
36.0639304611
 30
0.0
 11
86.0809363062
 21
36.0655978501
 31
0.0
  0
LINE
  5
53E
330
1F
100
AcDbEntity
  8
0
  6
Continuous
100
AcDbLine
 10
86.0809363062
 20
36.0655978501
 30
0.0
 11
86.12361670049999
 21
36.07271124909999
 31
0.0
  0
LINE
  5
53F
330
1F
100
AcDbEntity
  8
0
  6
Continuous
100
AcDbLine
 10
86.10911670049999
 20
35.9857112491
 30
0.0
 11
86.11483591249999
 21
36.0200265212
 31
0.0
  0
LINE
  5
540
330
1F
100
AcDbEntity
  8
0
  6
Continuous
100
AcDbLine
 10
86.11483591249999
 20
36.0200265212
 30
0.0
 11
86.12361670049999
 21
36.07271124909999
 31
0.0
  0
LINE
  5
541
330
1F
100
AcDbEntity
  8
0
  6
Continuous
100
AcDbLine
 10
86.0366167005
 20
36.0872112491
 30
0.0
 11
86.06200434559999
 21
36.0829799749
 31
0.0
  0
LINE
  5
542
330
1F
100
AcDbEntity
  8
0
  6
Continuous
100
AcDbLine
 10
86.06200434559999
 20
36.0829799749
 30
0.0
 11
86.07093197260001
 21
36.0814920371
 31
0.0
  0
LINE
  5
543
330
1F
100
AcDbEntity
  8
0
  6
Continuous
100
AcDbLine
 10
86.07093197260001
 20
36.0814920371
 30
0.0
 11
86.0809363062
 21
36.0798246482
 31
0.0
  0
LINE
  5
544
330
1F
100
AcDbEntity
  8
0
  6
Continuous
100
AcDbLine
 10
86.0809363062
 20
36.0798246482
 30
0.0
 11
86.12361670049999
 21
36.07271124909999
 31
0.0
  0
LINE
  5
545
330
1F
100
AcDbEntity
  8
0
  6
Continuous
100
AcDbLine
 10
86.13811670049999
 20
36.01471124909999
 30
0.0
 11
86.13811670049999
 21
35.9857112491
 31
0.0
  0
LINE
  5
546
330
1F
100
AcDbEntity
  8
0
  6
Continuous
100
AcDbLine
 10
86.13811670049999
 20
35.9857112491
 30
0.0
 11
86.1323974885
 21
36.0200265212
 31
0.0
  0
LINE
  5
547
330
1F
100
AcDbEntity
  8
0
  6
Continuous
100
AcDbLine
 10
86.1323974885
 20
36.0200265212
 30
0.0
 11
86.12361670049999
 21
36.07271124909999
 31
0.0
  0
LINE
  5
548
330
1F
100
AcDbEntity
  8
0
  6
Continuous
100
AcDbLine
 10
86.13811670049999
 20
36.01471124909999
 30
0.0
 11
86.1365798992
 21
36.02085845439999
 31
0.0
  0
LINE
  5
549
330
1F
100
AcDbEntity
  8
0
  6
Continuous
100
AcDbLine
 10
86.1365798992
 20
36.02085845439999
 30
0.0
 11
86.12361670049999
 21
36.07271124909999
 31
0.0
  0
LINE
  5
54A
330
1F
100
AcDbEntity
  8
0
  6
Continuous
100
AcDbLine
 10
86.1540388056
 20
36.042289144
 30
0.0
 11
86.12361670049999
 21
36.07271124909999
 31
0.0
  0
LINE
  5
54B
330
1F
100
AcDbEntity
  8
0
  6
Continuous
100
AcDbLine
 10
86.18161670049998
 20
36.05821124909999
 30
0.0
 11
86.17546949520001
 21
36.05974805039999
 31
0.0
  0
LINE
  5
54C
330
1F
100
AcDbEntity
  8
0
  6
Continuous
100
AcDbLine
 10
86.17546949520001
 20
36.05974805039999
 30
0.0
 11
86.17060088450001
 21
36.06096520309999
 31
0.0
  0
LINE
  5
54D
330
1F
100
AcDbEntity
  8
0
  6
Continuous
100
AcDbLine
 10
86.17060088450001
 20
36.06096520309999
 30
0.0
 11
86.12361670049999
 21
36.07271124909999
 31
0.0
  0
LINE
  5
54E
330
1F
100
AcDbEntity
  8
0
  6
Continuous
100
AcDbLine
 10
86.2106167005
 20
36.05821124909999
 30
0.0
 11
86.18522905540002
 21
36.0624425233
 31
0.0
  0
LINE
  5
54F
330
1F
100
AcDbEntity
  8
0
  6
Continuous
100
AcDbLine
 10
86.18522905540002
 20
36.0624425233
 30
0.0
 11
86.17630142839999
 21
36.0639304611
 31
0.0
  0
LINE
  5
550
330
1F
100
AcDbEntity
  8
0
  6
Continuous
100
AcDbLine
 10
86.17630142839999
 20
36.0639304611
 30
0.0
 11
86.16629709479999
 21
36.0655978501
 31
0.0
  0
LINE
  5
551
330
1F
100
AcDbEntity
  8
0
  6
Continuous
100
AcDbLine
 10
86.16629709479999
 20
36.0655978501
 30
0.0
 11
86.12361670049999
 21
36.07271124909999
 31
0.0
  0
LINE
  5
552
330
1F
100
AcDbEntity
  8
0
  6
Continuous
100
AcDbLine
 10
86.2106167005
 20
36.0872112491
 30
0.0
 11
86.18522905540002
 21
36.0829799749
 31
0.0
  0
LINE
  5
553
330
1F
100
AcDbEntity
  8
0
  6
Continuous
100
AcDbLine
 10
86.18522905540002
 20
36.0829799749
 30
0.0
 11
86.17630142839999
 21
36.0814920371
 31
0.0
  0
LINE
  5
554
330
1F
100
AcDbEntity
  8
0
  6
Continuous
100
AcDbLine
 10
86.17630142839999
 20
36.0814920371
 30
0.0
 11
86.16629709479999
 21
36.0798246482
 31
0.0
  0
LINE
  5
555
330
1F
100
AcDbEntity
  8
0
  6
Continuous
100
AcDbLine
 10
86.16629709479999
 20
36.0798246482
 30
0.0
 11
86.12361670049999
 21
36.07271124909999
 31
0.0
  0
LINE
  5
556
330
1F
100
AcDbEntity
  8
0
  6
Continuous
100
AcDbLine
 10
86.18161670049998
 20
36.0872112491
 30
0.0
 11
86.17546949520001
 21
36.0856744478
 31
0.0
  0
LINE
  5
557
330
1F
100
AcDbEntity
  8
0
  6
Continuous
100
AcDbLine
 10
86.17546949520001
 20
36.0856744478
 30
0.0
 11
86.17060088450001
 21
36.0844572951
 31
0.0
  0
LINE
  5
558
330
1F
100
AcDbEntity
  8
0
  6
Continuous
100
AcDbLine
 10
86.17060088450001
 20
36.0844572951
 30
0.0
 11
86.12361670049999
 21
36.07271124909999
 31
0.0
  0
LINE
  5
559
330
1F
100
AcDbEntity
  8
0
  6
Continuous
100
AcDbLine
 10
86.1540388056
 20
36.1031333542
 30
0.0
 11
86.12361670049999
 21
36.07271124909999
 31
0.0
  0
LINE
  5
55A
330
1F
100
AcDbEntity
  8
0
  6
Continuous
100
AcDbLine
 10
86.13811670049999
 20
36.13071124909999
 30
0.0
 11
86.1365798992
 21
36.1245640438
 31
0.0
  0
LINE
  5
55B
330
1F
100
AcDbEntity
  8
0
  6
Continuous
100
AcDbLine
 10
86.1365798992
 20
36.1245640438
 30
0.0
 11
86.12361670049999
 21
36.07271124909999
 31
0.0
  0
LINE
  5
55C
330
1F
100
AcDbEntity
  8
0
  6
Continuous
100
AcDbLine
 10
86.13811670049999
 20
36.1597112491
 30
0.0
 11
86.1323974885
 21
36.12539597699999
 31
0.0
  0
LINE
  5
55D
330
1F
100
AcDbEntity
  8
0
  6
Continuous
100
AcDbLine
 10
86.1323974885
 20
36.12539597699999
 30
0.0
 11
86.12361670049999
 21
36.07271124909999
 31
0.0
  0
LINE
  5
55E
330
1F
100
AcDbEntity
  8
0
  6
Continuous
100
AcDbLine
 10
86.10911670049999
 20
36.1597112491
 30
0.0
 11
86.11483591249999
 21
36.12539597699999
 31
0.0
  0
LINE
  5
55F
330
1F
100
AcDbEntity
  8
0
  6
Continuous
100
AcDbLine
 10
86.11483591249999
 20
36.12539597699999
 30
0.0
 11
86.12361670049999
 21
36.07271124909999
 31
0.0
  0
LINE
  5
560
330
1F
100
AcDbEntity
  8
0
  6
Continuous
100
AcDbLine
 10
86.10911670049999
 20
36.13071124909999
 30
0.0
 11
86.1106535018
 21
36.1245640438
 31
0.0
  0
LINE
  5
561
330
1F
100
AcDbEntity
  8
0
  6
Continuous
100
AcDbLine
 10
86.1106535018
 20
36.1245640438
 30
0.0
 11
86.12361670049999
 21
36.07271124909999
 31
0.0
  0
LINE
  5
562
330
1F
100
AcDbEntity
  8
0
  6
Continuous
100
AcDbLine
 10
86.09319459540001
 20
36.1031333542
 30
0.0
 11
86.12361670049999
 21
36.07271124909999
 31
0.0
  0
LINE
  5
563
330
1F
100
AcDbEntity
  8
0
  6
Continuous
100
AcDbLine
 10
86.06561670049998
 20
36.0872112491
 30
0.0
 11
86.07176390579999
 21
36.0856744478
 31
0.0
  0
LINE
  5
564
330
1F
100
AcDbEntity
  8
0
  6
Continuous
100
AcDbLine
 10
86.07176390579999
 20
36.0856744478
 30
0.0
 11
86.0766325165
 21
36.0844572951
 31
0.0
  0
LINE
  5
565
330
1F
100
AcDbEntity
  8
0
  6
Continuous
100
AcDbLine
 10
86.0766325165
 20
36.0844572951
 30
0.0
 11
86.12361670049999
 21
36.07271124909999
 31
0.0
  0
ARC
  5
566
330
1F
100
AcDbEntity
  8
0
  6
Continuous
100
AcDbCircle
 10
84.8136167005
 20
34.3402112491
 30
0.0
 40
0.1395
100
AcDbArc
 50
90.0
 51
270.0
  0
ARC
  5
567
330
1F
100
AcDbEntity
  8
0
  6
Continuous
100
AcDbCircle
 10
84.8136167005
 20
34.3402112491
 30
0.0
 40
0.1395
100
AcDbArc
 50
270.0
 51
90.0
  0
LINE
  5
568
330
1F
100
AcDbEntity
  8
0
  6
Continuous
100
AcDbLine
 10
84.8440388056
 20
34.309789144
 30
0.0
 11
84.82811670050001
 21
34.2822112491
 31
0.0
  0
LINE
  5
569
330
1F
100
AcDbEntity
  8
0
  6
Continuous
100
AcDbLine
 10
84.87161670049999
 20
34.32571124909999
 30
0.0
 11
84.8440388056
 21
34.309789144
 31
0.0
  0
LINE
  5
56A
330
1F
100
AcDbEntity
  8
0
  6
Continuous
100
AcDbLine
 10
84.9006167005
 20
34.32571124909999
 30
0.0
 11
84.87161670049999
 21
34.32571124909999
 31
0.0
  0
LINE
  5
56B
330
1F
100
AcDbEntity
  8
0
  6
Continuous
100
AcDbLine
 10
84.9006167005
 20
34.3547112491
 30
0.0
 11
84.9006167005
 21
34.32571124909999
 31
0.0
  0
LINE
  5
56C
330
1F
100
AcDbEntity
  8
0
  6
Continuous
100
AcDbLine
 10
84.87161670049999
 20
34.3547112491
 30
0.0
 11
84.9006167005
 21
34.3547112491
 31
0.0
  0
LINE
  5
56D
330
1F
100
AcDbEntity
  8
0
  6
Continuous
100
AcDbLine
 10
84.8440388056
 20
34.3706333542
 30
0.0
 11
84.87161670049999
 21
34.3547112491
 31
0.0
  0
LINE
  5
56E
330
1F
100
AcDbEntity
  8
0
  6
Continuous
100
AcDbLine
 10
84.82811670050001
 20
34.3982112491
 30
0.0
 11
84.8440388056
 21
34.3706333542
 31
0.0
  0
LINE
  5
56F
330
1F
100
AcDbEntity
  8
0
  6
Continuous
100
AcDbLine
 10
84.82811670050001
 20
34.42721124909999
 30
0.0
 11
84.82811670050001
 21
34.3982112491
 31
0.0
  0
LINE
  5
570
330
1F
100
AcDbEntity
  8
0
  6
Continuous
100
AcDbLine
 10
84.7991167005
 20
34.42721124909999
 30
0.0
 11
84.82811670050001
 21
34.42721124909999
 31
0.0
  0
LINE
  5
571
330
1F
100
AcDbEntity
  8
0
  6
Continuous
100
AcDbLine
 10
84.7991167005
 20
34.3982112491
 30
0.0
 11
84.7991167005
 21
34.42721124909999
 31
0.0
  0
LINE
  5
572
330
1F
100
AcDbEntity
  8
0
  6
Continuous
100
AcDbLine
 10
84.78319459540001
 20
34.3706333542
 30
0.0
 11
84.7991167005
 21
34.3982112491
 31
0.0
  0
LINE
  5
573
330
1F
100
AcDbEntity
  8
0
  6
Continuous
100
AcDbLine
 10
84.7556167005
 20
34.3547112491
 30
0.0
 11
84.78319459540001
 21
34.3706333542
 31
0.0
  0
LINE
  5
574
330
1F
100
AcDbEntity
  8
0
  6
Continuous
100
AcDbLine
 10
84.72661670049999
 20
34.3547112491
 30
0.0
 11
84.7556167005
 21
34.3547112491
 31
0.0
  0
LINE
  5
575
330
1F
100
AcDbEntity
  8
0
  6
Continuous
100
AcDbLine
 10
84.72661670049999
 20
34.32571124909999
 30
0.0
 11
84.72661670049999
 21
34.3547112491
 31
0.0
  0
LINE
  5
576
330
1F
100
AcDbEntity
  8
0
  6
Continuous
100
AcDbLine
 10
84.7556167005
 20
34.32571124909999
 30
0.0
 11
84.72661670049999
 21
34.32571124909999
 31
0.0
  0
LINE
  5
577
330
1F
100
AcDbEntity
  8
0
  6
Continuous
100
AcDbLine
 10
84.78319459540001
 20
34.309789144
 30
0.0
 11
84.7556167005
 21
34.32571124909999
 31
0.0
  0
LINE
  5
578
330
1F
100
AcDbEntity
  8
0
  6
Continuous
100
AcDbLine
 10
84.7991167005
 20
34.2822112491
 30
0.0
 11
84.78319459540001
 21
34.309789144
 31
0.0
  0
LINE
  5
579
330
1F
100
AcDbEntity
  8
0
  6
Continuous
100
AcDbLine
 10
84.7991167005
 20
34.25321124909999
 30
0.0
 11
84.7991167005
 21
34.2822112491
 31
0.0
  0
LINE
  5
57A
330
1F
100
AcDbEntity
  8
0
  6
Continuous
100
AcDbLine
 10
84.82811670050001
 20
34.25321124909999
 30
0.0
 11
84.7991167005
 21
34.25321124909999
 31
0.0
  0
LINE
  5
57B
330
1F
100
AcDbEntity
  8
0
  6
Continuous
100
AcDbLine
 10
84.7991167005
 20
34.2822112491
 30
0.0
 11
84.8006535018
 21
34.2883584544
 31
0.0
  0
LINE
  5
57C
330
1F
100
AcDbEntity
  8
0
  6
Continuous
100
AcDbLine
 10
84.8006535018
 20
34.2883584544
 30
0.0
 11
84.8136167005
 21
34.3402112491
 31
0.0
  0
LINE
  5
57D
330
1F
100
AcDbEntity
  8
0
  6
Continuous
100
AcDbLine
 10
84.78319459540001
 20
34.309789144
 30
0.0
 11
84.8136167005
 21
34.3402112491
 31
0.0
  0
LINE
  5
57E
330
1F
100
AcDbEntity
  8
0
  6
Continuous
100
AcDbLine
 10
84.7556167005
 20
34.32571124909999
 30
0.0
 11
84.76176390579999
 21
34.3272480504
 31
0.0
  0
LINE
  5
57F
330
1F
100
AcDbEntity
  8
0
  6
Continuous
100
AcDbLine
 10
84.76176390579999
 20
34.3272480504
 30
0.0
 11
84.7666325165
 21
34.3284652031
 31
0.0
  0
LINE
  5
580
330
1F
100
AcDbEntity
  8
0
  6
Continuous
100
AcDbLine
 10
84.7666325165
 20
34.3284652031
 30
0.0
 11
84.8136167005
 21
34.3402112491
 31
0.0
  0
LINE
  5
581
330
1F
100
AcDbEntity
  8
0
  6
Continuous
100
AcDbLine
 10
84.72661670049999
 20
34.32571124909999
 30
0.0
 11
84.75200434559999
 21
34.32994252329999
 31
0.0
  0
LINE
  5
582
330
1F
100
AcDbEntity
  8
0
  6
Continuous
100
AcDbLine
 10
84.75200434559999
 20
34.32994252329999
 30
0.0
 11
84.7609319726
 21
34.3314304611
 31
0.0
  0
LINE
  5
583
330
1F
100
AcDbEntity
  8
0
  6
Continuous
100
AcDbLine
 10
84.7609319726
 20
34.3314304611
 30
0.0
 11
84.7709363062
 21
34.3330978501
 31
0.0
  0
LINE
  5
584
330
1F
100
AcDbEntity
  8
0
  6
Continuous
100
AcDbLine
 10
84.7709363062
 20
34.3330978501
 30
0.0
 11
84.8136167005
 21
34.3402112491
 31
0.0
  0
LINE
  5
585
330
1F
100
AcDbEntity
  8
0
  6
Continuous
100
AcDbLine
 10
84.7991167005
 20
34.25321124909999
 30
0.0
 11
84.80483591249999
 21
34.2875265212
 31
0.0
  0
LINE
  5
586
330
1F
100
AcDbEntity
  8
0
  6
Continuous
100
AcDbLine
 10
84.80483591249999
 20
34.2875265212
 30
0.0
 11
84.8136167005
 21
34.3402112491
 31
0.0
  0
LINE
  5
587
330
1F
100
AcDbEntity
  8
0
  6
Continuous
100
AcDbLine
 10
84.72661670049999
 20
34.3547112491
 30
0.0
 11
84.75200434559999
 21
34.35047997489999
 31
0.0
  0
LINE
  5
588
330
1F
100
AcDbEntity
  8
0
  6
Continuous
100
AcDbLine
 10
84.75200434559999
 20
34.35047997489999
 30
0.0
 11
84.7609319726
 21
34.3489920371
 31
0.0
  0
LINE
  5
589
330
1F
100
AcDbEntity
  8
0
  6
Continuous
100
AcDbLine
 10
84.7609319726
 20
34.3489920371
 30
0.0
 11
84.7709363062
 21
34.3473246482
 31
0.0
  0
LINE
  5
58A
330
1F
100
AcDbEntity
  8
0
  6
Continuous
100
AcDbLine
 10
84.7709363062
 20
34.3473246482
 30
0.0
 11
84.8136167005
 21
34.3402112491
 31
0.0
  0
LINE
  5
58B
330
1F
100
AcDbEntity
  8
0
  6
Continuous
100
AcDbLine
 10
84.82811670050001
 20
34.2822112491
 30
0.0
 11
84.82811670050001
 21
34.25321124909999
 31
0.0
  0
LINE
  5
58C
330
1F
100
AcDbEntity
  8
0
  6
Continuous
100
AcDbLine
 10
84.82811670050001
 20
34.25321124909999
 30
0.0
 11
84.8223974885
 21
34.2875265212
 31
0.0
  0
LINE
  5
58D
330
1F
100
AcDbEntity
  8
0
  6
Continuous
100
AcDbLine
 10
84.8223974885
 20
34.2875265212
 30
0.0
 11
84.8136167005
 21
34.3402112491
 31
0.0
  0
LINE
  5
58E
330
1F
100
AcDbEntity
  8
0
  6
Continuous
100
AcDbLine
 10
84.82811670050001
 20
34.2822112491
 30
0.0
 11
84.82657989919999
 21
34.2883584544
 31
0.0
  0
LINE
  5
58F
330
1F
100
AcDbEntity
  8
0
  6
Continuous
100
AcDbLine
 10
84.82657989919999
 20
34.2883584544
 30
0.0
 11
84.8136167005
 21
34.3402112491
 31
0.0
  0
LINE
  5
590
330
1F
100
AcDbEntity
  8
0
  6
Continuous
100
AcDbLine
 10
84.8440388056
 20
34.309789144
 30
0.0
 11
84.8136167005
 21
34.3402112491
 31
0.0
  0
LINE
  5
591
330
1F
100
AcDbEntity
  8
0
  6
Continuous
100
AcDbLine
 10
84.87161670049999
 20
34.32571124909999
 30
0.0
 11
84.8654694952
 21
34.3272480504
 31
0.0
  0
LINE
  5
592
330
1F
100
AcDbEntity
  8
0
  6
Continuous
100
AcDbLine
 10
84.8654694952
 20
34.3272480504
 30
0.0
 11
84.86060088450001
 21
34.3284652031
 31
0.0
  0
LINE
  5
593
330
1F
100
AcDbEntity
  8
0
  6
Continuous
100
AcDbLine
 10
84.86060088450001
 20
34.3284652031
 30
0.0
 11
84.8136167005
 21
34.3402112491
 31
0.0
  0
LINE
  5
594
330
1F
100
AcDbEntity
  8
0
  6
Continuous
100
AcDbLine
 10
84.9006167005
 20
34.32571124909999
 30
0.0
 11
84.8752290554
 21
34.32994252329999
 31
0.0
  0
LINE
  5
595
330
1F
100
AcDbEntity
  8
0
  6
Continuous
100
AcDbLine
 10
84.8752290554
 20
34.32994252329999
 30
0.0
 11
84.86630142840001
 21
34.3314304611
 31
0.0
  0
LINE
  5
596
330
1F
100
AcDbEntity
  8
0
  6
Continuous
100
AcDbLine
 10
84.86630142840001
 20
34.3314304611
 30
0.0
 11
84.85629709479999
 21
34.3330978501
 31
0.0
  0
LINE
  5
597
330
1F
100
AcDbEntity
  8
0
  6
Continuous
100
AcDbLine
 10
84.85629709479999
 20
34.3330978501
 30
0.0
 11
84.8136167005
 21
34.3402112491
 31
0.0
  0
LINE
  5
598
330
1F
100
AcDbEntity
  8
0
  6
Continuous
100
AcDbLine
 10
84.9006167005
 20
34.3547112491
 30
0.0
 11
84.8752290554
 21
34.35047997489999
 31
0.0
  0
LINE
  5
599
330
1F
100
AcDbEntity
  8
0
  6
Continuous
100
AcDbLine
 10
84.8752290554
 20
34.35047997489999
 30
0.0
 11
84.86630142840001
 21
34.3489920371
 31
0.0
  0
LINE
  5
59A
330
1F
100
AcDbEntity
  8
0
  6
Continuous
100
AcDbLine
 10
84.86630142840001
 20
34.3489920371
 30
0.0
 11
84.85629709479999
 21
34.3473246482
 31
0.0
  0
LINE
  5
59B
330
1F
100
AcDbEntity
  8
0
  6
Continuous
100
AcDbLine
 10
84.85629709479999
 20
34.3473246482
 30
0.0
 11
84.8136167005
 21
34.3402112491
 31
0.0
  0
LINE
  5
59C
330
1F
100
AcDbEntity
  8
0
  6
Continuous
100
AcDbLine
 10
84.87161670049999
 20
34.3547112491
 30
0.0
 11
84.8654694952
 21
34.3531744478
 31
0.0
  0
LINE
  5
59D
330
1F
100
AcDbEntity
  8
0
  6
Continuous
100
AcDbLine
 10
84.8654694952
 20
34.3531744478
 30
0.0
 11
84.86060088450001
 21
34.3519572951
 31
0.0
  0
LINE
  5
59E
330
1F
100
AcDbEntity
  8
0
  6
Continuous
100
AcDbLine
 10
84.86060088450001
 20
34.3519572951
 30
0.0
 11
84.8136167005
 21
34.3402112491
 31
0.0
  0
LINE
  5
59F
330
1F
100
AcDbEntity
  8
0
  6
Continuous
100
AcDbLine
 10
84.8440388056
 20
34.3706333542
 30
0.0
 11
84.8136167005
 21
34.3402112491
 31
0.0
  0
LINE
  5
5A0
330
1F
100
AcDbEntity
  8
0
  6
Continuous
100
AcDbLine
 10
84.82811670050001
 20
34.3982112491
 30
0.0
 11
84.82657989919999
 21
34.3920640438
 31
0.0
  0
LINE
  5
5A1
330
1F
100
AcDbEntity
  8
0
  6
Continuous
100
AcDbLine
 10
84.82657989919999
 20
34.3920640438
 30
0.0
 11
84.8136167005
 21
34.3402112491
 31
0.0
  0
LINE
  5
5A2
330
1F
100
AcDbEntity
  8
0
  6
Continuous
100
AcDbLine
 10
84.82811670050001
 20
34.42721124909999
 30
0.0
 11
84.8223974885
 21
34.39289597699999
 31
0.0
  0
LINE
  5
5A3
330
1F
100
AcDbEntity
  8
0
  6
Continuous
100
AcDbLine
 10
84.8223974885
 20
34.39289597699999
 30
0.0
 11
84.8136167005
 21
34.3402112491
 31
0.0
  0
LINE
  5
5A4
330
1F
100
AcDbEntity
  8
0
  6
Continuous
100
AcDbLine
 10
84.7991167005
 20
34.42721124909999
 30
0.0
 11
84.80483591249999
 21
34.39289597699999
 31
0.0
  0
LINE
  5
5A5
330
1F
100
AcDbEntity
  8
0
  6
Continuous
100
AcDbLine
 10
84.80483591249999
 20
34.39289597699999
 30
0.0
 11
84.8136167005
 21
34.3402112491
 31
0.0
  0
LINE
  5
5A6
330
1F
100
AcDbEntity
  8
0
  6
Continuous
100
AcDbLine
 10
84.7991167005
 20
34.3982112491
 30
0.0
 11
84.8006535018
 21
34.3920640438
 31
0.0
  0
LINE
  5
5A7
330
1F
100
AcDbEntity
  8
0
  6
Continuous
100
AcDbLine
 10
84.8006535018
 20
34.3920640438
 30
0.0
 11
84.8136167005
 21
34.3402112491
 31
0.0
  0
LINE
  5
5A8
330
1F
100
AcDbEntity
  8
0
  6
Continuous
100
AcDbLine
 10
84.78319459540001
 20
34.3706333542
 30
0.0
 11
84.8136167005
 21
34.3402112491
 31
0.0
  0
LINE
  5
5A9
330
1F
100
AcDbEntity
  8
0
  6
Continuous
100
AcDbLine
 10
84.7556167005
 20
34.3547112491
 30
0.0
 11
84.76176390579999
 21
34.3531744478
 31
0.0
  0
LINE
  5
5AA
330
1F
100
AcDbEntity
  8
0
  6
Continuous
100
AcDbLine
 10
84.76176390579999
 20
34.3531744478
 30
0.0
 11
84.7666325165
 21
34.3519572951
 31
0.0
  0
LINE
  5
5AB
330
1F
100
AcDbEntity
  8
0
  6
Continuous
100
AcDbLine
 10
84.7666325165
 20
34.3519572951
 30
0.0
 11
84.8136167005
 21
34.3402112491
 31
0.0
  0
ARC
  5
5AC
330
1F
100
AcDbEntity
  8
0
  6
Continuous
100
AcDbCircle
 10
82.81361670050001
 20
34.3402112491
 30
0.0
 40
0.1395
100
AcDbArc
 50
90.0
 51
270.0
  0
ARC
  5
5AD
330
1F
100
AcDbEntity
  8
0
  6
Continuous
100
AcDbCircle
 10
82.81361670050001
 20
34.3402112491
 30
0.0
 40
0.1395
100
AcDbArc
 50
270.0
 51
90.0
  0
LINE
  5
5AE
330
1F
100
AcDbEntity
  8
0
  6
Continuous
100
AcDbLine
 10
82.84403880560001
 20
34.309789144
 30
0.0
 11
82.8281167005
 21
34.2822112491
 31
0.0
  0
LINE
  5
5AF
330
1F
100
AcDbEntity
  8
0
  6
Continuous
100
AcDbLine
 10
82.8716167005
 20
34.32571124909999
 30
0.0
 11
82.84403880560001
 21
34.309789144
 31
0.0
  0
LINE
  5
5B0
330
1F
100
AcDbEntity
  8
0
  6
Continuous
100
AcDbLine
 10
82.90061670049999
 20
34.32571124909999
 30
0.0
 11
82.8716167005
 21
34.32571124909999
 31
0.0
  0
LINE
  5
5B1
330
1F
100
AcDbEntity
  8
0
  6
Continuous
100
AcDbLine
 10
82.90061670049999
 20
34.3547112491
 30
0.0
 11
82.90061670049999
 21
34.32571124909999
 31
0.0
  0
LINE
  5
5B2
330
1F
100
AcDbEntity
  8
0
  6
Continuous
100
AcDbLine
 10
82.8716167005
 20
34.3547112491
 30
0.0
 11
82.90061670049999
 21
34.3547112491
 31
0.0
  0
LINE
  5
5B3
330
1F
100
AcDbEntity
  8
0
  6
Continuous
100
AcDbLine
 10
82.84403880560001
 20
34.3706333542
 30
0.0
 11
82.8716167005
 21
34.3547112491
 31
0.0
  0
LINE
  5
5B4
330
1F
100
AcDbEntity
  8
0
  6
Continuous
100
AcDbLine
 10
82.8281167005
 20
34.3982112491
 30
0.0
 11
82.84403880560001
 21
34.3706333542
 31
0.0
  0
LINE
  5
5B5
330
1F
100
AcDbEntity
  8
0
  6
Continuous
100
AcDbLine
 10
82.8281167005
 20
34.42721124909999
 30
0.0
 11
82.8281167005
 21
34.3982112491
 31
0.0
  0
LINE
  5
5B6
330
1F
100
AcDbEntity
  8
0
  6
Continuous
100
AcDbLine
 10
82.79911670050001
 20
34.42721124909999
 30
0.0
 11
82.8281167005
 21
34.42721124909999
 31
0.0
  0
LINE
  5
5B7
330
1F
100
AcDbEntity
  8
0
  6
Continuous
100
AcDbLine
 10
82.79911670050001
 20
34.3982112491
 30
0.0
 11
82.79911670050001
 21
34.42721124909999
 31
0.0
  0
LINE
  5
5B8
330
1F
100
AcDbEntity
  8
0
  6
Continuous
100
AcDbLine
 10
82.7831945954
 20
34.3706333542
 30
0.0
 11
82.79911670050001
 21
34.3982112491
 31
0.0
  0
LINE
  5
5B9
330
1F
100
AcDbEntity
  8
0
  6
Continuous
100
AcDbLine
 10
82.7556167005
 20
34.3547112491
 30
0.0
 11
82.7831945954
 21
34.3706333542
 31
0.0
  0
LINE
  5
5BA
330
1F
100
AcDbEntity
  8
0
  6
Continuous
100
AcDbLine
 10
82.7266167005
 20
34.3547112491
 30
0.0
 11
82.7556167005
 21
34.3547112491
 31
0.0
  0
LINE
  5
5BB
330
1F
100
AcDbEntity
  8
0
  6
Continuous
100
AcDbLine
 10
82.7266167005
 20
34.32571124909999
 30
0.0
 11
82.7266167005
 21
34.3547112491
 31
0.0
  0
LINE
  5
5BC
330
1F
100
AcDbEntity
  8
0
  6
Continuous
100
AcDbLine
 10
82.7556167005
 20
34.32571124909999
 30
0.0
 11
82.7266167005
 21
34.32571124909999
 31
0.0
  0
LINE
  5
5BD
330
1F
100
AcDbEntity
  8
0
  6
Continuous
100
AcDbLine
 10
82.7831945954
 20
34.309789144
 30
0.0
 11
82.7556167005
 21
34.32571124909999
 31
0.0
  0
LINE
  5
5BE
330
1F
100
AcDbEntity
  8
0
  6
Continuous
100
AcDbLine
 10
82.79911670050001
 20
34.2822112491
 30
0.0
 11
82.7831945954
 21
34.309789144
 31
0.0
  0
LINE
  5
5BF
330
1F
100
AcDbEntity
  8
0
  6
Continuous
100
AcDbLine
 10
82.79911670050001
 20
34.25321124909999
 30
0.0
 11
82.79911670050001
 21
34.2822112491
 31
0.0
  0
LINE
  5
5C0
330
1F
100
AcDbEntity
  8
0
  6
Continuous
100
AcDbLine
 10
82.8281167005
 20
34.25321124909999
 30
0.0
 11
82.79911670050001
 21
34.25321124909999
 31
0.0
  0
LINE
  5
5C1
330
1F
100
AcDbEntity
  8
0
  6
Continuous
100
AcDbLine
 10
82.79911670050001
 20
34.2822112491
 30
0.0
 11
82.80065350180001
 21
34.2883584544
 31
0.0
  0
LINE
  5
5C2
330
1F
100
AcDbEntity
  8
0
  6
Continuous
100
AcDbLine
 10
82.80065350180001
 20
34.2883584544
 30
0.0
 11
82.81361670050001
 21
34.3402112491
 31
0.0
  0
LINE
  5
5C3
330
1F
100
AcDbEntity
  8
0
  6
Continuous
100
AcDbLine
 10
82.7831945954
 20
34.309789144
 30
0.0
 11
82.81361670050001
 21
34.3402112491
 31
0.0
  0
LINE
  5
5C4
330
1F
100
AcDbEntity
  8
0
  6
Continuous
100
AcDbLine
 10
82.7556167005
 20
34.32571124909999
 30
0.0
 11
82.76176390579999
 21
34.3272480504
 31
0.0
  0
LINE
  5
5C5
330
1F
100
AcDbEntity
  8
0
  6
Continuous
100
AcDbLine
 10
82.76176390579999
 20
34.3272480504
 30
0.0
 11
82.76663251649999
 21
34.3284652031
 31
0.0
  0
LINE
  5
5C6
330
1F
100
AcDbEntity
  8
0
  6
Continuous
100
AcDbLine
 10
82.76663251649999
 20
34.3284652031
 30
0.0
 11
82.81361670050001
 21
34.3402112491
 31
0.0
  0
LINE
  5
5C7
330
1F
100
AcDbEntity
  8
0
  6
Continuous
100
AcDbLine
 10
82.7266167005
 20
34.32571124909999
 30
0.0
 11
82.7520043456
 21
34.32994252329999
 31
0.0
  0
LINE
  5
5C8
330
1F
100
AcDbEntity
  8
0
  6
Continuous
100
AcDbLine
 10
82.7520043456
 20
34.32994252329999
 30
0.0
 11
82.76093197260001
 21
34.3314304611
 31
0.0
  0
LINE
  5
5C9
330
1F
100
AcDbEntity
  8
0
  6
Continuous
100
AcDbLine
 10
82.76093197260001
 20
34.3314304611
 30
0.0
 11
82.77093630619999
 21
34.3330978501
 31
0.0
  0
LINE
  5
5CA
330
1F
100
AcDbEntity
  8
0
  6
Continuous
100
AcDbLine
 10
82.77093630619999
 20
34.3330978501
 30
0.0
 11
82.81361670050001
 21
34.3402112491
 31
0.0
  0
LINE
  5
5CB
330
1F
100
AcDbEntity
  8
0
  6
Continuous
100
AcDbLine
 10
82.79911670050001
 20
34.25321124909999
 30
0.0
 11
82.8048359125
 21
34.2875265212
 31
0.0
  0
LINE
  5
5CC
330
1F
100
AcDbEntity
  8
0
  6
Continuous
100
AcDbLine
 10
82.8048359125
 20
34.2875265212
 30
0.0
 11
82.81361670050001
 21
34.3402112491
 31
0.0
  0
LINE
  5
5CD
330
1F
100
AcDbEntity
  8
0
  6
Continuous
100
AcDbLine
 10
82.7266167005
 20
34.3547112491
 30
0.0
 11
82.7520043456
 21
34.35047997489999
 31
0.0
  0
LINE
  5
5CE
330
1F
100
AcDbEntity
  8
0
  6
Continuous
100
AcDbLine
 10
82.7520043456
 20
34.35047997489999
 30
0.0
 11
82.76093197260001
 21
34.3489920371
 31
0.0
  0
LINE
  5
5CF
330
1F
100
AcDbEntity
  8
0
  6
Continuous
100
AcDbLine
 10
82.76093197260001
 20
34.3489920371
 30
0.0
 11
82.77093630619999
 21
34.3473246482
 31
0.0
  0
LINE
  5
5D0
330
1F
100
AcDbEntity
  8
0
  6
Continuous
100
AcDbLine
 10
82.77093630619999
 20
34.3473246482
 30
0.0
 11
82.81361670050001
 21
34.3402112491
 31
0.0
  0
LINE
  5
5D1
330
1F
100
AcDbEntity
  8
0
  6
Continuous
100
AcDbLine
 10
82.8281167005
 20
34.2822112491
 30
0.0
 11
82.8281167005
 21
34.25321124909999
 31
0.0
  0
LINE
  5
5D2
330
1F
100
AcDbEntity
  8
0
  6
Continuous
100
AcDbLine
 10
82.8281167005
 20
34.25321124909999
 30
0.0
 11
82.82239748850001
 21
34.2875265212
 31
0.0
  0
LINE
  5
5D3
330
1F
100
AcDbEntity
  8
0
  6
Continuous
100
AcDbLine
 10
82.82239748850001
 20
34.2875265212
 30
0.0
 11
82.81361670050001
 21
34.3402112491
 31
0.0
  0
LINE
  5
5D4
330
1F
100
AcDbEntity
  8
0
  6
Continuous
100
AcDbLine
 10
82.8281167005
 20
34.2822112491
 30
0.0
 11
82.8265798992
 21
34.2883584544
 31
0.0
  0
LINE
  5
5D5
330
1F
100
AcDbEntity
  8
0
  6
Continuous
100
AcDbLine
 10
82.8265798992
 20
34.2883584544
 30
0.0
 11
82.81361670050001
 21
34.3402112491
 31
0.0
  0
LINE
  5
5D6
330
1F
100
AcDbEntity
  8
0
  6
Continuous
100
AcDbLine
 10
82.84403880560001
 20
34.309789144
 30
0.0
 11
82.81361670050001
 21
34.3402112491
 31
0.0
  0
LINE
  5
5D7
330
1F
100
AcDbEntity
  8
0
  6
Continuous
100
AcDbLine
 10
82.8716167005
 20
34.32571124909999
 30
0.0
 11
82.86546949519999
 21
34.3272480504
 31
0.0
  0
LINE
  5
5D8
330
1F
100
AcDbEntity
  8
0
  6
Continuous
100
AcDbLine
 10
82.86546949519999
 20
34.3272480504
 30
0.0
 11
82.8606008845
 21
34.3284652031
 31
0.0
  0
LINE
  5
5D9
330
1F
100
AcDbEntity
  8
0
  6
Continuous
100
AcDbLine
 10
82.8606008845
 20
34.3284652031
 30
0.0
 11
82.81361670050001
 21
34.3402112491
 31
0.0
  0
LINE
  5
5DA
330
1F
100
AcDbEntity
  8
0
  6
Continuous
100
AcDbLine
 10
82.90061670049999
 20
34.32571124909999
 30
0.0
 11
82.87522905539999
 21
34.32994252329999
 31
0.0
  0
LINE
  5
5DB
330
1F
100
AcDbEntity
  8
0
  6
Continuous
100
AcDbLine
 10
82.87522905539999
 20
34.32994252329999
 30
0.0
 11
82.86630142840001
 21
34.3314304611
 31
0.0
  0
LINE
  5
5DC
330
1F
100
AcDbEntity
  8
0
  6
Continuous
100
AcDbLine
 10
82.86630142840001
 20
34.3314304611
 30
0.0
 11
82.8562970948
 21
34.3330978501
 31
0.0
  0
LINE
  5
5DD
330
1F
100
AcDbEntity
  8
0
  6
Continuous
100
AcDbLine
 10
82.8562970948
 20
34.3330978501
 30
0.0
 11
82.81361670050001
 21
34.3402112491
 31
0.0
  0
LINE
  5
5DE
330
1F
100
AcDbEntity
  8
0
  6
Continuous
100
AcDbLine
 10
82.90061670049999
 20
34.3547112491
 30
0.0
 11
82.87522905539999
 21
34.35047997489999
 31
0.0
  0
LINE
  5
5DF
330
1F
100
AcDbEntity
  8
0
  6
Continuous
100
AcDbLine
 10
82.87522905539999
 20
34.35047997489999
 30
0.0
 11
82.86630142840001
 21
34.3489920371
 31
0.0
  0
LINE
  5
5E0
330
1F
100
AcDbEntity
  8
0
  6
Continuous
100
AcDbLine
 10
82.86630142840001
 20
34.3489920371
 30
0.0
 11
82.8562970948
 21
34.3473246482
 31
0.0
  0
LINE
  5
5E1
330
1F
100
AcDbEntity
  8
0
  6
Continuous
100
AcDbLine
 10
82.8562970948
 20
34.3473246482
 30
0.0
 11
82.81361670050001
 21
34.3402112491
 31
0.0
  0
LINE
  5
5E2
330
1F
100
AcDbEntity
  8
0
  6
Continuous
100
AcDbLine
 10
82.8716167005
 20
34.3547112491
 30
0.0
 11
82.86546949519999
 21
34.3531744478
 31
0.0
  0
LINE
  5
5E3
330
1F
100
AcDbEntity
  8
0
  6
Continuous
100
AcDbLine
 10
82.86546949519999
 20
34.3531744478
 30
0.0
 11
82.8606008845
 21
34.3519572951
 31
0.0
  0
LINE
  5
5E4
330
1F
100
AcDbEntity
  8
0
  6
Continuous
100
AcDbLine
 10
82.8606008845
 20
34.3519572951
 30
0.0
 11
82.81361670050001
 21
34.3402112491
 31
0.0
  0
LINE
  5
5E5
330
1F
100
AcDbEntity
  8
0
  6
Continuous
100
AcDbLine
 10
82.84403880560001
 20
34.3706333542
 30
0.0
 11
82.81361670050001
 21
34.3402112491
 31
0.0
  0
LINE
  5
5E6
330
1F
100
AcDbEntity
  8
0
  6
Continuous
100
AcDbLine
 10
82.8281167005
 20
34.3982112491
 30
0.0
 11
82.8265798992
 21
34.3920640438
 31
0.0
  0
LINE
  5
5E7
330
1F
100
AcDbEntity
  8
0
  6
Continuous
100
AcDbLine
 10
82.8265798992
 20
34.3920640438
 30
0.0
 11
82.81361670050001
 21
34.3402112491
 31
0.0
  0
LINE
  5
5E8
330
1F
100
AcDbEntity
  8
0
  6
Continuous
100
AcDbLine
 10
82.8281167005
 20
34.42721124909999
 30
0.0
 11
82.82239748850001
 21
34.39289597699999
 31
0.0
  0
LINE
  5
5E9
330
1F
100
AcDbEntity
  8
0
  6
Continuous
100
AcDbLine
 10
82.82239748850001
 20
34.39289597699999
 30
0.0
 11
82.81361670050001
 21
34.3402112491
 31
0.0
  0
LINE
  5
5EA
330
1F
100
AcDbEntity
  8
0
  6
Continuous
100
AcDbLine
 10
82.79911670050001
 20
34.42721124909999
 30
0.0
 11
82.8048359125
 21
34.39289597699999
 31
0.0
  0
LINE
  5
5EB
330
1F
100
AcDbEntity
  8
0
  6
Continuous
100
AcDbLine
 10
82.8048359125
 20
34.39289597699999
 30
0.0
 11
82.81361670050001
 21
34.3402112491
 31
0.0
  0
LINE
  5
5EC
330
1F
100
AcDbEntity
  8
0
  6
Continuous
100
AcDbLine
 10
82.79911670050001
 20
34.3982112491
 30
0.0
 11
82.80065350180001
 21
34.3920640438
 31
0.0
  0
LINE
  5
5ED
330
1F
100
AcDbEntity
  8
0
  6
Continuous
100
AcDbLine
 10
82.80065350180001
 20
34.3920640438
 30
0.0
 11
82.81361670050001
 21
34.3402112491
 31
0.0
  0
LINE
  5
5EE
330
1F
100
AcDbEntity
  8
0
  6
Continuous
100
AcDbLine
 10
82.7831945954
 20
34.3706333542
 30
0.0
 11
82.81361670050001
 21
34.3402112491
 31
0.0
  0
LINE
  5
5EF
330
1F
100
AcDbEntity
  8
0
  6
Continuous
100
AcDbLine
 10
82.7556167005
 20
34.3547112491
 30
0.0
 11
82.76176390579999
 21
34.3531744478
 31
0.0
  0
LINE
  5
5F0
330
1F
100
AcDbEntity
  8
0
  6
Continuous
100
AcDbLine
 10
82.76176390579999
 20
34.3531744478
 30
0.0
 11
82.76663251649999
 21
34.3519572951
 31
0.0
  0
LINE
  5
5F1
330
1F
100
AcDbEntity
  8
0
  6
Continuous
100
AcDbLine
 10
82.76663251649999
 20
34.3519572951
 30
0.0
 11
82.81361670050001
 21
34.3402112491
 31
0.0
  0
ARC
  5
5F2
330
1F
100
AcDbEntity
  8
0
  6
Continuous
100
AcDbCircle
 10
81.50361670050001
 20
36.07271124909999
 30
0.0
 40
0.1395
100
AcDbArc
 50
90.0
 51
270.0
  0
ARC
  5
5F3
330
1F
100
AcDbEntity
  8
0
  6
Continuous
100
AcDbCircle
 10
81.50361670050001
 20
36.07271124909999
 30
0.0
 40
0.1395
100
AcDbArc
 50
270.0
 51
90.0
  0
LINE
  5
5F4
330
1F
100
AcDbEntity
  8
0
  6
Continuous
100
AcDbLine
 10
81.5340388056
 20
36.042289144
 30
0.0
 11
81.51811670049999
 21
36.01471124909999
 31
0.0
  0
LINE
  5
5F5
330
1F
100
AcDbEntity
  8
0
  6
Continuous
100
AcDbLine
 10
81.5616167005
 20
36.05821124909999
 30
0.0
 11
81.5340388056
 21
36.042289144
 31
0.0
  0
LINE
  5
5F6
330
1F
100
AcDbEntity
  8
0
  6
Continuous
100
AcDbLine
 10
81.5906167005
 20
36.05821124909999
 30
0.0
 11
81.5616167005
 21
36.05821124909999
 31
0.0
  0
LINE
  5
5F7
330
1F
100
AcDbEntity
  8
0
  6
Continuous
100
AcDbLine
 10
81.5906167005
 20
36.0872112491
 30
0.0
 11
81.5906167005
 21
36.05821124909999
 31
0.0
  0
LINE
  5
5F8
330
1F
100
AcDbEntity
  8
0
  6
Continuous
100
AcDbLine
 10
81.5616167005
 20
36.0872112491
 30
0.0
 11
81.5906167005
 21
36.0872112491
 31
0.0
  0
LINE
  5
5F9
330
1F
100
AcDbEntity
  8
0
  6
Continuous
100
AcDbLine
 10
81.5340388056
 20
36.1031333542
 30
0.0
 11
81.5616167005
 21
36.0872112491
 31
0.0
  0
LINE
  5
5FA
330
1F
100
AcDbEntity
  8
0
  6
Continuous
100
AcDbLine
 10
81.51811670049999
 20
36.13071124909999
 30
0.0
 11
81.5340388056
 21
36.1031333542
 31
0.0
  0
LINE
  5
5FB
330
1F
100
AcDbEntity
  8
0
  6
Continuous
100
AcDbLine
 10
81.51811670049999
 20
36.1597112491
 30
0.0
 11
81.51811670049999
 21
36.13071124909999
 31
0.0
  0
LINE
  5
5FC
330
1F
100
AcDbEntity
  8
0
  6
Continuous
100
AcDbLine
 10
81.48911670050001
 20
36.1597112491
 30
0.0
 11
81.51811670049999
 21
36.1597112491
 31
0.0
  0
LINE
  5
5FD
330
1F
100
AcDbEntity
  8
0
  6
Continuous
100
AcDbLine
 10
81.48911670050001
 20
36.13071124909999
 30
0.0
 11
81.48911670050001
 21
36.1597112491
 31
0.0
  0
LINE
  5
5FE
330
1F
100
AcDbEntity
  8
0
  6
Continuous
100
AcDbLine
 10
81.4731945954
 20
36.1031333542
 30
0.0
 11
81.48911670050001
 21
36.13071124909999
 31
0.0
  0
LINE
  5
5FF
330
1F
100
AcDbEntity
  8
0
  6
Continuous
100
AcDbLine
 10
81.4456167005
 20
36.0872112491
 30
0.0
 11
81.4731945954
 21
36.1031333542
 31
0.0
  0
LINE
  5
600
330
1F
100
AcDbEntity
  8
0
  6
Continuous
100
AcDbLine
 10
81.4166167005
 20
36.0872112491
 30
0.0
 11
81.4456167005
 21
36.0872112491
 31
0.0
  0
LINE
  5
601
330
1F
100
AcDbEntity
  8
0
  6
Continuous
100
AcDbLine
 10
81.4166167005
 20
36.05821124909999
 30
0.0
 11
81.4166167005
 21
36.0872112491
 31
0.0
  0
LINE
  5
602
330
1F
100
AcDbEntity
  8
0
  6
Continuous
100
AcDbLine
 10
81.4456167005
 20
36.05821124909999
 30
0.0
 11
81.4166167005
 21
36.05821124909999
 31
0.0
  0
LINE
  5
603
330
1F
100
AcDbEntity
  8
0
  6
Continuous
100
AcDbLine
 10
81.4731945954
 20
36.042289144
 30
0.0
 11
81.4456167005
 21
36.05821124909999
 31
0.0
  0
LINE
  5
604
330
1F
100
AcDbEntity
  8
0
  6
Continuous
100
AcDbLine
 10
81.48911670050001
 20
36.01471124909999
 30
0.0
 11
81.4731945954
 21
36.042289144
 31
0.0
  0
LINE
  5
605
330
1F
100
AcDbEntity
  8
0
  6
Continuous
100
AcDbLine
 10
81.48911670050001
 20
35.9857112491
 30
0.0
 11
81.48911670050001
 21
36.01471124909999
 31
0.0
  0
LINE
  5
606
330
1F
100
AcDbEntity
  8
0
  6
Continuous
100
AcDbLine
 10
81.51811670049999
 20
35.9857112491
 30
0.0
 11
81.48911670050001
 21
35.9857112491
 31
0.0
  0
LINE
  5
607
330
1F
100
AcDbEntity
  8
0
  6
Continuous
100
AcDbLine
 10
81.48911670050001
 20
36.01471124909999
 30
0.0
 11
81.4906535018
 21
36.02085845439999
 31
0.0
  0
LINE
  5
608
330
1F
100
AcDbEntity
  8
0
  6
Continuous
100
AcDbLine
 10
81.4906535018
 20
36.02085845439999
 30
0.0
 11
81.50361670050001
 21
36.07271124909999
 31
0.0
  0
LINE
  5
609
330
1F
100
AcDbEntity
  8
0
  6
Continuous
100
AcDbLine
 10
81.4731945954
 20
36.042289144
 30
0.0
 11
81.50361670050001
 21
36.07271124909999
 31
0.0
  0
LINE
  5
60A
330
1F
100
AcDbEntity
  8
0
  6
Continuous
100
AcDbLine
 10
81.4456167005
 20
36.05821124909999
 30
0.0
 11
81.45176390579999
 21
36.05974805039999
 31
0.0
  0
LINE
  5
60B
330
1F
100
AcDbEntity
  8
0
  6
Continuous
100
AcDbLine
 10
81.45176390579999
 20
36.05974805039999
 30
0.0
 11
81.45663251649999
 21
36.06096520309999
 31
0.0
  0
LINE
  5
60C
330
1F
100
AcDbEntity
  8
0
  6
Continuous
100
AcDbLine
 10
81.45663251649999
 20
36.06096520309999
 30
0.0
 11
81.50361670050001
 21
36.07271124909999
 31
0.0
  0
LINE
  5
60D
330
1F
100
AcDbEntity
  8
0
  6
Continuous
100
AcDbLine
 10
81.4166167005
 20
36.05821124909999
 30
0.0
 11
81.4420043456
 21
36.0624425233
 31
0.0
  0
LINE
  5
60E
330
1F
100
AcDbEntity
  8
0
  6
Continuous
100
AcDbLine
 10
81.4420043456
 20
36.0624425233
 30
0.0
 11
81.45093197260001
 21
36.0639304611
 31
0.0
  0
LINE
  5
60F
330
1F
100
AcDbEntity
  8
0
  6
Continuous
100
AcDbLine
 10
81.45093197260001
 20
36.0639304611
 30
0.0
 11
81.46093630619999
 21
36.0655978501
 31
0.0
  0
LINE
  5
610
330
1F
100
AcDbEntity
  8
0
  6
Continuous
100
AcDbLine
 10
81.46093630619999
 20
36.0655978501
 30
0.0
 11
81.50361670050001
 21
36.07271124909999
 31
0.0
  0
LINE
  5
611
330
1F
100
AcDbEntity
  8
0
  6
Continuous
100
AcDbLine
 10
81.48911670050001
 20
35.9857112491
 30
0.0
 11
81.4948359125
 21
36.0200265212
 31
0.0
  0
LINE
  5
612
330
1F
100
AcDbEntity
  8
0
  6
Continuous
100
AcDbLine
 10
81.4948359125
 20
36.0200265212
 30
0.0
 11
81.50361670050001
 21
36.07271124909999
 31
0.0
  0
LINE
  5
613
330
1F
100
AcDbEntity
  8
0
  6
Continuous
100
AcDbLine
 10
81.4166167005
 20
36.0872112491
 30
0.0
 11
81.4420043456
 21
36.0829799749
 31
0.0
  0
LINE
  5
614
330
1F
100
AcDbEntity
  8
0
  6
Continuous
100
AcDbLine
 10
81.4420043456
 20
36.0829799749
 30
0.0
 11
81.45093197260001
 21
36.0814920371
 31
0.0
  0
LINE
  5
615
330
1F
100
AcDbEntity
  8
0
  6
Continuous
100
AcDbLine
 10
81.45093197260001
 20
36.0814920371
 30
0.0
 11
81.46093630619999
 21
36.0798246482
 31
0.0
  0
LINE
  5
616
330
1F
100
AcDbEntity
  8
0
  6
Continuous
100
AcDbLine
 10
81.46093630619999
 20
36.0798246482
 30
0.0
 11
81.50361670050001
 21
36.07271124909999
 31
0.0
  0
LINE
  5
617
330
1F
100
AcDbEntity
  8
0
  6
Continuous
100
AcDbLine
 10
81.51811670049999
 20
36.01471124909999
 30
0.0
 11
81.51811670049999
 21
35.9857112491
 31
0.0
  0
LINE
  5
618
330
1F
100
AcDbEntity
  8
0
  6
Continuous
100
AcDbLine
 10
81.51811670049999
 20
35.9857112491
 30
0.0
 11
81.51239748850001
 21
36.0200265212
 31
0.0
  0
LINE
  5
619
330
1F
100
AcDbEntity
  8
0
  6
Continuous
100
AcDbLine
 10
81.51239748850001
 20
36.0200265212
 30
0.0
 11
81.50361670050001
 21
36.07271124909999
 31
0.0
  0
LINE
  5
61A
330
1F
100
AcDbEntity
  8
0
  6
Continuous
100
AcDbLine
 10
81.51811670049999
 20
36.01471124909999
 30
0.0
 11
81.5165798992
 21
36.02085845439999
 31
0.0
  0
LINE
  5
61B
330
1F
100
AcDbEntity
  8
0
  6
Continuous
100
AcDbLine
 10
81.5165798992
 20
36.02085845439999
 30
0.0
 11
81.50361670050001
 21
36.07271124909999
 31
0.0
  0
LINE
  5
61C
330
1F
100
AcDbEntity
  8
0
  6
Continuous
100
AcDbLine
 10
81.5340388056
 20
36.042289144
 30
0.0
 11
81.50361670050001
 21
36.07271124909999
 31
0.0
  0
LINE
  5
61D
330
1F
100
AcDbEntity
  8
0
  6
Continuous
100
AcDbLine
 10
81.5616167005
 20
36.05821124909999
 30
0.0
 11
81.55546949519999
 21
36.05974805039999
 31
0.0
  0
LINE
  5
61E
330
1F
100
AcDbEntity
  8
0
  6
Continuous
100
AcDbLine
 10
81.55546949519999
 20
36.05974805039999
 30
0.0
 11
81.55060088449999
 21
36.06096520309999
 31
0.0
  0
LINE
  5
61F
330
1F
100
AcDbEntity
  8
0
  6
Continuous
100
AcDbLine
 10
81.55060088449999
 20
36.06096520309999
 30
0.0
 11
81.50361670050001
 21
36.07271124909999
 31
0.0
  0
LINE
  5
620
330
1F
100
AcDbEntity
  8
0
  6
Continuous
100
AcDbLine
 10
81.5906167005
 20
36.05821124909999
 30
0.0
 11
81.56522905539999
 21
36.0624425233
 31
0.0
  0
LINE
  5
621
330
1F
100
AcDbEntity
  8
0
  6
Continuous
100
AcDbLine
 10
81.56522905539999
 20
36.0624425233
 30
0.0
 11
81.55630142840001
 21
36.0639304611
 31
0.0
  0
LINE
  5
622
330
1F
100
AcDbEntity
  8
0
  6
Continuous
100
AcDbLine
 10
81.55630142840001
 20
36.0639304611
 30
0.0
 11
81.54629709479999
 21
36.0655978501
 31
0.0
  0
LINE
  5
623
330
1F
100
AcDbEntity
  8
0
  6
Continuous
100
AcDbLine
 10
81.54629709479999
 20
36.0655978501
 30
0.0
 11
81.50361670050001
 21
36.07271124909999
 31
0.0
  0
LINE
  5
624
330
1F
100
AcDbEntity
  8
0
  6
Continuous
100
AcDbLine
 10
81.5906167005
 20
36.0872112491
 30
0.0
 11
81.56522905539999
 21
36.0829799749
 31
0.0
  0
LINE
  5
625
330
1F
100
AcDbEntity
  8
0
  6
Continuous
100
AcDbLine
 10
81.56522905539999
 20
36.0829799749
 30
0.0
 11
81.55630142840001
 21
36.0814920371
 31
0.0
  0
LINE
  5
626
330
1F
100
AcDbEntity
  8
0
  6
Continuous
100
AcDbLine
 10
81.55630142840001
 20
36.0814920371
 30
0.0
 11
81.54629709479999
 21
36.0798246482
 31
0.0
  0
LINE
  5
627
330
1F
100
AcDbEntity
  8
0
  6
Continuous
100
AcDbLine
 10
81.54629709479999
 20
36.0798246482
 30
0.0
 11
81.50361670050001
 21
36.07271124909999
 31
0.0
  0
LINE
  5
628
330
1F
100
AcDbEntity
  8
0
  6
Continuous
100
AcDbLine
 10
81.5616167005
 20
36.0872112491
 30
0.0
 11
81.55546949519999
 21
36.0856744478
 31
0.0
  0
LINE
  5
629
330
1F
100
AcDbEntity
  8
0
  6
Continuous
100
AcDbLine
 10
81.55546949519999
 20
36.0856744478
 30
0.0
 11
81.55060088449999
 21
36.0844572951
 31
0.0
  0
LINE
  5
62A
330
1F
100
AcDbEntity
  8
0
  6
Continuous
100
AcDbLine
 10
81.55060088449999
 20
36.0844572951
 30
0.0
 11
81.50361670050001
 21
36.07271124909999
 31
0.0
  0
LINE
  5
62B
330
1F
100
AcDbEntity
  8
0
  6
Continuous
100
AcDbLine
 10
81.5340388056
 20
36.1031333542
 30
0.0
 11
81.50361670050001
 21
36.07271124909999
 31
0.0
  0
LINE
  5
62C
330
1F
100
AcDbEntity
  8
0
  6
Continuous
100
AcDbLine
 10
81.51811670049999
 20
36.13071124909999
 30
0.0
 11
81.5165798992
 21
36.1245640438
 31
0.0
  0
LINE
  5
62D
330
1F
100
AcDbEntity
  8
0
  6
Continuous
100
AcDbLine
 10
81.5165798992
 20
36.1245640438
 30
0.0
 11
81.50361670050001
 21
36.07271124909999
 31
0.0
  0
LINE
  5
62E
330
1F
100
AcDbEntity
  8
0
  6
Continuous
100
AcDbLine
 10
81.51811670049999
 20
36.1597112491
 30
0.0
 11
81.51239748850001
 21
36.12539597699999
 31
0.0
  0
LINE
  5
62F
330
1F
100
AcDbEntity
  8
0
  6
Continuous
100
AcDbLine
 10
81.51239748850001
 20
36.12539597699999
 30
0.0
 11
81.50361670050001
 21
36.07271124909999
 31
0.0
  0
LINE
  5
630
330
1F
100
AcDbEntity
  8
0
  6
Continuous
100
AcDbLine
 10
81.48911670050001
 20
36.1597112491
 30
0.0
 11
81.4948359125
 21
36.12539597699999
 31
0.0
  0
LINE
  5
631
330
1F
100
AcDbEntity
  8
0
  6
Continuous
100
AcDbLine
 10
81.4948359125
 20
36.12539597699999
 30
0.0
 11
81.50361670050001
 21
36.07271124909999
 31
0.0
  0
LINE
  5
632
330
1F
100
AcDbEntity
  8
0
  6
Continuous
100
AcDbLine
 10
81.48911670050001
 20
36.13071124909999
 30
0.0
 11
81.4906535018
 21
36.1245640438
 31
0.0
  0
LINE
  5
633
330
1F
100
AcDbEntity
  8
0
  6
Continuous
100
AcDbLine
 10
81.4906535018
 20
36.1245640438
 30
0.0
 11
81.50361670050001
 21
36.07271124909999
 31
0.0
  0
LINE
  5
634
330
1F
100
AcDbEntity
  8
0
  6
Continuous
100
AcDbLine
 10
81.4731945954
 20
36.1031333542
 30
0.0
 11
81.50361670050001
 21
36.07271124909999
 31
0.0
  0
LINE
  5
635
330
1F
100
AcDbEntity
  8
0
  6
Continuous
100
AcDbLine
 10
81.4456167005
 20
36.0872112491
 30
0.0
 11
81.45176390579999
 21
36.0856744478
 31
0.0
  0
LINE
  5
636
330
1F
100
AcDbEntity
  8
0
  6
Continuous
100
AcDbLine
 10
81.45176390579999
 20
36.0856744478
 30
0.0
 11
81.45663251649999
 21
36.0844572951
 31
0.0
  0
LINE
  5
637
330
1F
100
AcDbEntity
  8
0
  6
Continuous
100
AcDbLine
 10
81.45663251649999
 20
36.0844572951
 30
0.0
 11
81.50361670050001
 21
36.07271124909999
 31
0.0
  0
LINE
  5
638
330
1F
100
AcDbEntity
  8
0
  6
Continuous
100
AcDbLine
 10
87.56754336230001
 20
42.55371124909999
 30
0.0
 11
87.5341173275
 21
42.55371124909999
 31
0.0
  0
LINE
  5
639
330
1F
100
AcDbEntity
  8
0
  6
Continuous
100
AcDbLine
 10
87.53361670049999
 20
42.53109347459999
 30
0.0
 11
87.53361670049999
 21
42.553422574
 31
0.0
  0
LINE
  5
63A
330
1F
100
AcDbEntity
  8
0
  6
Continuous
100
AcDbLine
 10
87.53361670049999
 20
42.53109347459999
 30
0.0
 11
87.53361670049999
 21
42.3237112491
 31
0.0
  0
LINE
  5
63B
330
1F
100
AcDbEntity
  8
0
  6
Continuous
100
AcDbLine
 10
88.0336167005
 20
42.553422574
 30
0.0
 11
88.0336167005
 21
42.5524432755
 31
0.0
  0
LINE
  5
63C
330
1F
100
AcDbEntity
  8
0
  6
Continuous
100
AcDbLine
 10
88.0336167005
 20
42.5524432755
 30
0.0
 11
88.0336167005
 21
42.53109347459999
 31
0.0
  0
LINE
  5
63D
330
1F
100
AcDbEntity
  8
0
  6
Continuous
100
AcDbLine
 10
88.0331160735
 20
42.55371124909999
 30
0.0
 11
88.03253399299999
 21
42.55371124909999
 31
0.0
  0
LINE
  5
63E
330
1F
100
AcDbEntity
  8
0
  6
Continuous
100
AcDbLine
 10
88.03253399299999
 20
42.55371124909999
 30
0.0
 11
87.56754336230001
 21
42.55371124909999
 31
0.0
  0
LINE
  5
63F
330
1F
100
AcDbEntity
  8
0
  6
Continuous
100
AcDbLine
 10
88.03311670049998
 20
42.55371124909999
 30
0.0
 11
88.0336167005
 21
42.553422574
 31
0.0
  0
LINE
  5
640
330
1F
100
AcDbEntity
  8
0
  6
Continuous
100
AcDbLine
 10
87.53411670049999
 20
42.55371124909999
 30
0.0
 11
87.53361670049999
 21
42.553422574
 31
0.0
  0
LINE
  5
641
330
1F
100
AcDbEntity
  8
0
  6
Continuous
100
AcDbLine
 10
88.0336167005
 20
42.53109347459999
 30
0.0
 11
88.0336167005
 21
42.3237112491
 31
0.0
  0
SPLINE
  5
642
330
1F
100
AcDbEntity
  8
0
  6
Continuous
100
AcDbSpline
210
0.0
220
0.0
230
1.0
 70
     8
 71
     3
 72
    17
 73
    13
 74
    11
 42
0.0000000001
 43
0.0000000001
 44
0.0000000001
 12
-0.9486832980897231
 22
0.3162277658992095
 32
0.0
 13
-0.9486832980897231
 23
-0.3162277658992095
 33
0.0
 40
0.0
 40
0.0
 40
0.0
 40
0.0
 40
0.0260207191966692
 40
0.0515565016436702
 40
0.0769281756215666
 40
0.102237918110787
 40
0.1275201225451174
 40
0.1528023269794336
 40
0.1781120694686541
 40
0.2034837434465644
 40
0.2290195258935516
 40
0.2550402450902344
 40
0.2550402450902344
 40
0.2550402450902344
 40
0.2550402450902344
 10
87.78361670049999
 20
42.53109347459999
 30
0.0
 10
87.77538822659794
 20
42.53383629923288
 30
0.0
 10
87.75896063728195
 20
42.53891040571273
 30
0.0
 10
87.7340807163525
 20
42.54517374127818
 30
0.0
 10
87.70909043043316
 20
42.54985091796421
 30
0.0
 10
87.68391426559363
 20
42.5527622082518
 30
0.0
 10
87.6586167005
 20
42.55375257714996
 30
0.0
 10
87.63331913540637
 20
42.5527622082518
 30
0.0
 10
87.60814297056681
 20
42.54985091796421
 30
0.0
 10
87.5831526846475
 20
42.54517374127818
 30
0.0
 10
87.55827276371803
 20
42.53891040571273
 30
0.0
 10
87.54184517440206
 20
42.53383629923288
 30
0.0
 10
87.53361670049999
 20
42.53109347459999
 30
0.0
 11
87.78361670049999
 21
42.53109347459999
 31
0.0
 11
87.75874328309999
 21
42.5387348707
 31
0.0
 11
87.73397044879999
 21
42.54493026139999
 31
0.0
 11
87.70902514280001
 21
42.549562059
 31
0.0
 11
87.68387993140001
 21
42.5524432755
 31
0.0
 11
87.65861670049998
 21
42.553422574
 31
0.0
 11
87.63335346959999
 21
42.5524432755
 31
0.0
 11
87.60820825819999
 21
42.549562059
 31
0.0
 11
87.58326295219999
 21
42.54493026139999
 31
0.0
 11
87.55849011790001
 21
42.5387348707
 31
0.0
 11
87.53361670049999
 21
42.53109347459999
 31
0.0
  0
LINE
  5
643
330
1F
100
AcDbEntity
  8
0
  6
Continuous
100
AcDbLine
 10
87.78361670049999
 20
42.53109347459999
 30
0.0
 11
87.78361670049999
 21
42.3237112491
 31
0.0
  0
SPLINE
  5
644
330
1F
100
AcDbEntity
  8
0
  6
Continuous
100
AcDbSpline
210
0.0
220
0.0
230
1.0
 70
     8
 71
     3
 72
    17
 73
    13
 74
    11
 42
0.0000000001
 43
0.0000000001
 44
0.0000000001
 12
-0.9486832980897231
 22
0.3162277658992095
 32
0.0
 13
-0.9486832980897231
 23
-0.3162277658992095
 33
0.0
 40
0.0
 40
0.0
 40
0.0
 40
0.0
 40
0.0260207191966692
 40
0.0515565016436702
 40
0.0769281756215666
 40
0.102237918110787
 40
0.1275201225451174
 40
0.1528023269794336
 40
0.1781120694686541
 40
0.2034837434465644
 40
0.2290195258935516
 40
0.2550402450902344
 40
0.2550402450902344
 40
0.2550402450902344
 40
0.2550402450902344
 10
88.0336167005
 20
42.53109347459999
 30
0.0
 10
88.02538822659794
 20
42.53383629923288
 30
0.0
 10
88.00896063728194
 20
42.53891040571273
 30
0.0
 10
87.98408071635249
 20
42.54517374127818
 30
0.0
 10
87.95909043043319
 20
42.54985091796421
 30
0.0
 10
87.93391426559361
 20
42.5527622082518
 30
0.0
 10
87.90861670050002
 20
42.55375257714996
 30
0.0
 10
87.88331913540638
 20
42.5527622082518
 30
0.0
 10
87.85814297056679
 20
42.54985091796421
 30
0.0
 10
87.83315268464749
 20
42.54517374127818
 30
0.0
 10
87.80827276371804
 20
42.53891040571273
 30
0.0
 10
87.79184517440205
 20
42.53383629923288
 30
0.0
 10
87.78361670049999
 20
42.53109347459999
 30
0.0
 11
88.0336167005
 21
42.53109347459999
 31
0.0
 11
88.00874328309999
 21
42.5387348707
 31
0.0
 11
87.98397044879999
 21
42.54493026139999
 31
0.0
 11
87.95902514279999
 21
42.549562059
 31
0.0
 11
87.93387993139999
 21
42.5524432755
 31
0.0
 11
87.90861670049999
 21
42.553422574
 31
0.0
 11
87.8833534696
 21
42.5524432755
 31
0.0
 11
87.8582082582
 21
42.549562059
 31
0.0
 11
87.83326295219998
 21
42.54493026139999
 31
0.0
 11
87.80849011790001
 21
42.5387348707
 31
0.0
 11
87.78361670049999
 21
42.53109347459999
 31
0.0
  0
LINE
  5
645
330
1F
100
AcDbEntity
  8
0
  6
Continuous
100
AcDbLine
 10
71.9775433623
 20
42.55371124909999
 30
0.0
 11
71.94411732749999
 21
42.55371124909999
 31
0.0
  0
LINE
  5
646
330
1F
100
AcDbEntity
  8
0
  6
Continuous
100
AcDbLine
 10
71.9436167005
 20
42.53109347459999
 30
0.0
 11
71.9436167005
 21
42.553422574
 31
0.0
  0
LINE
  5
647
330
1F
100
AcDbEntity
  8
0
  6
Continuous
100
AcDbLine
 10
71.9436167005
 20
42.53109347459999
 30
0.0
 11
71.9436167005
 21
42.3237112491
 31
0.0
  0
LINE
  5
648
330
1F
100
AcDbEntity
  8
0
  6
Continuous
100
AcDbLine
 10
72.4436167005
 20
42.553422574
 30
0.0
 11
72.4436167005
 21
42.5524432755
 31
0.0
  0
LINE
  5
649
330
1F
100
AcDbEntity
  8
0
  6
Continuous
100
AcDbLine
 10
72.4436167005
 20
42.5524432755
 30
0.0
 11
72.4436167005
 21
42.53109347459999
 31
0.0
  0
LINE
  5
64A
330
1F
100
AcDbEntity
  8
0
  6
Continuous
100
AcDbLine
 10
72.44311607350001
 20
42.55371124909999
 30
0.0
 11
72.44253399299999
 21
42.55371124909999
 31
0.0
  0
LINE
  5
64B
330
1F
100
AcDbEntity
  8
0
  6
Continuous
100
AcDbLine
 10
72.44253399299999
 20
42.55371124909999
 30
0.0
 11
71.9775433623
 21
42.55371124909999
 31
0.0
  0
LINE
  5
64C
330
1F
100
AcDbEntity
  8
0
  6
Continuous
100
AcDbLine
 10
72.4431167005
 20
42.55371124909999
 30
0.0
 11
72.4436167005
 21
42.553422574
 31
0.0
  0
LINE
  5
64D
330
1F
100
AcDbEntity
  8
0
  6
Continuous
100
AcDbLine
 10
71.9441167005
 20
42.55371124909999
 30
0.0
 11
71.9436167005
 21
42.553422574
 31
0.0
  0
LINE
  5
64E
330
1F
100
AcDbEntity
  8
0
  6
Continuous
100
AcDbLine
 10
72.4436167005
 20
42.53109347459999
 30
0.0
 11
72.4436167005
 21
42.3237112491
 31
0.0
  0
SPLINE
  5
64F
330
1F
100
AcDbEntity
  8
0
  6
Continuous
100
AcDbSpline
210
0.0
220
0.0
230
1.0
 70
     8
 71
     3
 72
    17
 73
    13
 74
    11
 42
0.0000000001
 43
0.0000000001
 44
0.0000000001
 12
-0.9486832980897231
 22
0.3162277658992095
 32
0.0
 13
-0.9486832980897231
 23
-0.3162277658992095
 33
0.0
 40
0.0
 40
0.0
 40
0.0
 40
0.0
 40
0.0260207191966692
 40
0.0515565016436702
 40
0.0769281756215805
 40
0.102237918110801
 40
0.1275201225451172
 40
0.1528023269794334
 40
0.178112069468668
 40
0.2034837434465643
 40
0.2290195258935654
 40
0.2550402450902345
 40
0.2550402450902345
 40
0.2550402450902345
 40
0.2550402450902345
 10
72.1936167005
 20
42.53109347459999
 30
0.0
 10
72.18538822659795
 20
42.53383629923288
 30
0.0
 10
72.16896063728197
 20
42.53891040571272
 30
0.0
 10
72.14408071635251
 20
42.54517374127819
 30
0.0
 10
72.11909043043316
 20
42.54985091796421
 30
0.0
 10
72.09391426559363
 20
42.5527622082518
 30
0.0
 10
72.0686167005
 20
42.55375257714996
 30
0.0
 10
72.04331913540636
 20
42.55276220825179
 30
0.0
 10
72.01814297056682
 20
42.54985091796422
 30
0.0
 10
71.99315268464747
 20
42.54517374127817
 30
0.0
 10
71.96827276371803
 20
42.53891040571272
 30
0.0
 10
71.95184517440205
 20
42.53383629923288
 30
0.0
 10
71.9436167005
 20
42.53109347459999
 30
0.0
 11
72.1936167005
 21
42.53109347459999
 31
0.0
 11
72.1687432831
 21
42.5387348707
 31
0.0
 11
72.1439704488
 21
42.54493026139999
 31
0.0
 11
72.1190251428
 21
42.549562059
 31
0.0
 11
72.0938799314
 21
42.5524432755
 31
0.0
 11
72.0686167005
 21
42.553422574
 31
0.0
 11
72.0433534696
 21
42.5524432755
 31
0.0
 11
72.01820825819999
 21
42.549562059
 31
0.0
 11
71.9932629522
 21
42.54493026139999
 31
0.0
 11
71.9684901179
 21
42.5387348707
 31
0.0
 11
71.9436167005
 21
42.53109347459999
 31
0.0
  0
LINE
  5
650
330
1F
100
AcDbEntity
  8
0
  6
Continuous
100
AcDbLine
 10
72.1936167005
 20
42.53109347459999
 30
0.0
 11
72.1936167005
 21
42.3237112491
 31
0.0
  0
SPLINE
  5
651
330
1F
100
AcDbEntity
  8
0
  6
Continuous
100
AcDbSpline
210
0.0
220
0.0
230
1.0
 70
     8
 71
     3
 72
    17
 73
    13
 74
    11
 42
0.0000000001
 43
0.0000000001
 44
0.0000000001
 12
-0.9486832980897231
 22
0.3162277658992095
 32
0.0
 13
-0.9486832980897231
 23
-0.3162277658992095
 33
0.0
 40
0.0
 40
0.0
 40
0.0
 40
0.0
 40
0.0260207191966692
 40
0.0515565016436702
 40
0.0769281756215805
 40
0.102237918110801
 40
0.1275201225451172
 40
0.1528023269794334
 40
0.178112069468668
 40
0.2034837434465643
 40
0.2290195258935654
 40
0.2550402450902345
 40
0.2550402450902345
 40
0.2550402450902345
 40
0.2550402450902345
 10
72.4436167005
 20
42.53109347459999
 30
0.0
 10
72.43538822659795
 20
42.53383629923288
 30
0.0
 10
72.41896063728197
 20
42.53891040571272
 30
0.0
 10
72.39408071635253
 20
42.54517374127819
 30
0.0
 10
72.36909043043316
 20
42.54985091796421
 30
0.0
 10
72.34391426559362
 20
42.5527622082518
 30
0.0
 10
72.3186167005
 20
42.55375257714996
 30
0.0
 10
72.29331913540637
 20
42.55276220825179
 30
0.0
 10
72.26814297056683
 20
42.54985091796422
 30
0.0
 10
72.24315268464747
 20
42.54517374127817
 30
0.0
 10
72.21827276371803
 20
42.53891040571272
 30
0.0
 10
72.20184517440205
 20
42.53383629923288
 30
0.0
 10
72.1936167005
 20
42.53109347459999
 30
0.0
 11
72.4436167005
 21
42.53109347459999
 31
0.0
 11
72.4187432831
 21
42.5387348707
 31
0.0
 11
72.3939704488
 21
42.54493026139999
 31
0.0
 11
72.3690251428
 21
42.549562059
 31
0.0
 11
72.3438799314
 21
42.5524432755
 31
0.0
 11
72.3186167005
 21
42.553422574
 31
0.0
 11
72.29335346960001
 21
42.5524432755
 31
0.0
 11
72.26820825819999
 21
42.549562059
 31
0.0
 11
72.2432629522
 21
42.54493026139999
 31
0.0
 11
72.2184901179
 21
42.5387348707
 31
0.0
 11
72.1936167005
 21
42.53109347459999
 31
0.0
  0
ARC
  5
652
330
1F
100
AcDbEntity
  8
0
  6
Continuous
100
AcDbCircle
 10
87.25861670049999
 20
23.7347112491
 30
0.0
 40
0.125
100
AcDbArc
 50
180.0
 51
270.0
  0
ARC
  5
653
330
1F
100
AcDbEntity
  8
0
  6
Continuous
100
AcDbCircle
 10
88.50861670049999
 20
23.7347112491
 30
0.0
 40
0.125
100
AcDbArc
 50
270.0
 51
360.0
  0
LINE
  5
654
330
1F
100
AcDbEntity
  8
0
  6
Continuous
100
AcDbLine
 10
87.25861670049999
 20
23.60971124909999
 30
0.0
 11
87.50861670049999
 21
23.60971124909999
 31
0.0
  0
LINE
  5
655
330
1F
100
AcDbEntity
  8
0
  6
Continuous
100
AcDbLine
 10
87.50861670049999
 20
23.60971124909999
 30
0.0
 11
88.2586167005
 21
23.60971124909999
 31
0.0
  0
LINE
  5
656
330
1F
100
AcDbEntity
  8
0
  6
Continuous
100
AcDbLine
 10
88.2586167005
 20
23.60971124909999
 30
0.0
 11
88.50861670049999
 21
23.60971124909999
 31
0.0
  0
LINE
  5
657
330
1F
100
AcDbEntity
  8
0
  6
Continuous
100
AcDbLine
 10
88.6336167005
 20
23.7347112491
 30
0.0
 11
88.6336167005
 21
24.3597112491
 31
0.0
  0
LINE
  5
658
330
1F
100
AcDbEntity
  8
0
  6
Continuous
100
AcDbLine
 10
87.1336167005
 20
23.7347112491
 30
0.0
 11
87.1336167005
 21
24.3597112491
 31
0.0
  0
ARC
  5
659
330
1F
100
AcDbEntity
  8
0
  6
Continuous
100
AcDbCircle
 10
87.25861670049999
 20
23.7347112491
 30
0.0
 40
0.125
100
AcDbArc
 50
180.0
 51
270.0
  0
ARC
  5
65A
330
1F
100
AcDbEntity
  8
0
  6
Continuous
100
AcDbCircle
 10
88.50861670049999
 20
23.7347112491
 30
0.0
 40
0.125
100
AcDbArc
 50
270.0
 51
360.0
  0
LINE
  5
65B
330
1F
100
AcDbEntity
  8
0
  6
Continuous
100
AcDbLine
 10
88.6336167005
 20
23.7347112491
 30
0.0
 11
88.6336167005
 21
24.3597112491
 31
0.0
  0
LINE
  5
65C
330
1F
100
AcDbEntity
  8
0
  6
Continuous
100
AcDbLine
 10
87.1336167005
 20
23.7347112491
 30
0.0
 11
87.1336167005
 21
24.3597112491
 31
0.0
  0
ARC
  5
65D
330
1F
100
AcDbEntity
  8
0
  6
Continuous
100
AcDbCircle
 10
72.0086167005
 20
23.7347112491
 30
0.0
 40
0.125
100
AcDbArc
 50
180.0
 51
270.0
  0
ARC
  5
65E
330
1F
100
AcDbEntity
  8
0
  6
Continuous
100
AcDbCircle
 10
73.2586167005
 20
23.7347112491
 30
0.0
 40
0.125
100
AcDbArc
 50
270.0
 51
360.0
  0
LINE
  5
65F
330
1F
100
AcDbEntity
  8
0
  6
Continuous
100
AcDbLine
 10
72.0086167005
 20
23.60971124909999
 30
0.0
 11
72.2586167005
 21
23.60971124909999
 31
0.0
  0
LINE
  5
660
330
1F
100
AcDbEntity
  8
0
  6
Continuous
100
AcDbLine
 10
72.2586167005
 20
23.60971124909999
 30
0.0
 11
73.0086167005
 21
23.60971124909999
 31
0.0
  0
LINE
  5
661
330
1F
100
AcDbEntity
  8
0
  6
Continuous
100
AcDbLine
 10
73.0086167005
 20
23.60971124909999
 30
0.0
 11
73.2586167005
 21
23.60971124909999
 31
0.0
  0
LINE
  5
662
330
1F
100
AcDbEntity
  8
0
  6
Continuous
100
AcDbLine
 10
73.3836167005
 20
23.7347112491
 30
0.0
 11
73.3836167005
 21
24.3597112491
 31
0.0
  0
LINE
  5
663
330
1F
100
AcDbEntity
  8
0
  6
Continuous
100
AcDbLine
 10
71.88361670049999
 20
23.7347112491
 30
0.0
 11
71.88361670049999
 21
24.3597112491
 31
0.0
  0
ARC
  5
664
330
1F
100
AcDbEntity
  8
0
  6
Continuous
100
AcDbCircle
 10
72.0086167005
 20
23.7347112491
 30
0.0
 40
0.125
100
AcDbArc
 50
180.0
 51
270.0
  0
ARC
  5
665
330
1F
100
AcDbEntity
  8
0
  6
Continuous
100
AcDbCircle
 10
73.2586167005
 20
23.7347112491
 30
0.0
 40
0.125
100
AcDbArc
 50
270.0
 51
360.0
  0
LINE
  5
666
330
1F
100
AcDbEntity
  8
0
  6
Continuous
100
AcDbLine
 10
73.3836167005
 20
23.7347112491
 30
0.0
 11
73.3836167005
 21
24.3597112491
 31
0.0
  0
LINE
  5
667
330
1F
100
AcDbEntity
  8
0
  6
Continuous
100
AcDbLine
 10
71.88361670049999
 20
23.7347112491
 30
0.0
 11
71.88361670049999
 21
24.3597112491
 31
0.0
  0
LINE
  5
668
330
1F
100
AcDbEntity
  8
0
  6
Continuous
100
AcDbLine
 10
85.4096167005
 20
39.57271124909999
 30
0.0
 11
85.4096167005
 21
38.8727112491
 31
0.0
  0
ARC
  5
669
330
1F
100
AcDbEntity
  8
0
  6
Continuous
100
AcDbCircle
 10
83.0321167005
 20
39.2227112491
 30
0.0
 40
0.135
100
AcDbArc
 50
179.9999999969
 51
356.8418838393999
  0
ARC
  5
66A
330
1F
100
AcDbEntity
  8
0
  6
Continuous
100
AcDbCircle
 10
83.0321167005
 20
39.2227112491
 30
0.0
 40
0.135
100
AcDbArc
 50
356.8418838393999
 51
359.9999999993
  0
ARC
  5
66B
330
1F
100
AcDbEntity
  8
0
  6
Continuous
100
AcDbCircle
 10
83.0321167005
 20
39.2227112491
 30
0.0
 40
0.135
100
AcDbArc
 50
0.0
 51
176.8418838394
  0
ARC
  5
66C
330
1F
100
AcDbEntity
  8
0
  6
Continuous
100
AcDbCircle
 10
83.0321167005
 20
39.2227112491
 30
0.0
 40
0.135
100
AcDbArc
 50
176.8418838394
 51
179.9999999993
  0
ARC
  5
66D
330
1F
100
AcDbEntity
  8
0
  6
Continuous
100
AcDbCircle
 10
83.5483667005
 20
39.2227112491
 30
0.0
 40
0.135
100
AcDbArc
 50
179.9999999969
 51
356.8418838393
  0
ARC
  5
66E
330
1F
100
AcDbEntity
  8
0
  6
Continuous
100
AcDbCircle
 10
83.5483667005
 20
39.2227112491
 30
0.0
 40
0.135
100
AcDbArc
 50
356.8418838393
 51
359.9999999993
  0
ARC
  5
66F
330
1F
100
AcDbEntity
  8
0
  6
Continuous
100
AcDbCircle
 10
83.5483667005
 20
39.2227112491
 30
0.0
 40
0.135
100
AcDbArc
 50
0.0
 51
176.8418838393
  0
ARC
  5
670
330
1F
100
AcDbEntity
  8
0
  6
Continuous
100
AcDbCircle
 10
83.5483667005
 20
39.2227112491
 30
0.0
 40
0.135
100
AcDbArc
 50
176.8418838393
 51
179.9999999993
  0
ARC
  5
671
330
1F
100
AcDbEntity
  8
0
  6
Continuous
100
AcDbCircle
 10
84.0808667005
 20
39.2227112491
 30
0.0
 40
0.135
100
AcDbArc
 50
179.9999999969
 51
356.8418838393
  0
ARC
  5
672
330
1F
100
AcDbEntity
  8
0
  6
Continuous
100
AcDbCircle
 10
84.0808667005
 20
39.2227112491
 30
0.0
 40
0.135
100
AcDbArc
 50
356.8418838393
 51
359.9999999993
  0
ARC
  5
673
330
1F
100
AcDbEntity
  8
0
  6
Continuous
100
AcDbCircle
 10
84.0808667005
 20
39.2227112491
 30
0.0
 40
0.135
100
AcDbArc
 50
0.0
 51
176.8418838393
  0
ARC
  5
674
330
1F
100
AcDbEntity
  8
0
  6
Continuous
100
AcDbCircle
 10
84.0808667005
 20
39.2227112491
 30
0.0
 40
0.135
100
AcDbArc
 50
176.8418838393
 51
179.9999999993
  0
ARC
  5
675
330
1F
100
AcDbEntity
  8
0
  6
Continuous
100
AcDbCircle
 10
84.59711670049999
 20
39.2227112491
 30
0.0
 40
0.135
100
AcDbArc
 50
179.9999999969
 51
356.8418838393999
  0
ARC
  5
676
330
1F
100
AcDbEntity
  8
0
  6
Continuous
100
AcDbCircle
 10
84.59711670049999
 20
39.2227112491
 30
0.0
 40
0.135
100
AcDbArc
 50
356.8418838393999
 51
359.9999999993
  0
ARC
  5
677
330
1F
100
AcDbEntity
  8
0
  6
Continuous
100
AcDbCircle
 10
84.59711670049999
 20
39.2227112491
 30
0.0
 40
0.135
100
AcDbArc
 50
0.0
 51
176.8418838394
  0
ARC
  5
678
330
1F
100
AcDbEntity
  8
0
  6
Continuous
100
AcDbCircle
 10
84.59711670049999
 20
39.2227112491
 30
0.0
 40
0.135
100
AcDbArc
 50
176.8418838394
 51
179.9999999993
  0
LINE
  5
679
330
1F
100
AcDbEntity
  8
0
  6
Continuous
100
AcDbLine
 10
85.28461670049999
 20
39.57271124909999
 30
0.0
 11
85.4096167005
 21
39.57271124909999
 31
0.0
  0
LINE
  5
67A
330
1F
100
AcDbEntity
  8
0
  6
Continuous
100
AcDbLine
 10
84.7846167005
 20
39.57271124909999
 30
0.0
 11
84.90961670049999
 21
39.57271124909999
 31
0.0
  0
LINE
  5
67B
330
1F
100
AcDbEntity
  8
0
  6
Continuous
100
AcDbLine
 10
84.28461670049999
 20
39.57271124909999
 30
0.0
 11
84.40961670049999
 21
39.57271124909999
 31
0.0
  0
LINE
  5
67C
330
1F
100
AcDbEntity
  8
0
  6
Continuous
100
AcDbLine
 10
83.75211670049999
 20
39.57271124909999
 30
0.0
 11
83.8771167005
 21
39.57271124909999
 31
0.0
  0
LINE
  5
67D
330
1F
100
AcDbEntity
  8
0
  6
Continuous
100
AcDbLine
 10
83.21961670049999
 20
39.57271124909999
 30
0.0
 11
83.3446167005
 21
39.57271124909999
 31
0.0
  0
LINE
  5
67E
330
1F
100
AcDbEntity
  8
0
  6
Continuous
100
AcDbLine
 10
82.7196167005
 20
39.57271124909999
 30
0.0
 11
82.84461670049999
 21
39.57271124909999
 31
0.0
  0
LINE
  5
67F
330
1F
100
AcDbEntity
  8
0
  6
Continuous
100
AcDbLine
 10
82.21961670049999
 20
39.57271124909999
 30
0.0
 11
82.3446167005
 21
39.57271124909999
 31
0.0
  0
LINE
  5
680
330
1F
100
AcDbEntity
  8
0
  6
Continuous
100
AcDbLine
 10
82.3446167005
 20
39.57271124909999
 30
0.0
 11
82.7196167005
 21
39.57271124909999
 31
0.0
  0
LINE
  5
681
330
1F
100
AcDbEntity
  8
0
  6
Continuous
100
AcDbLine
 10
82.84461670049999
 20
39.57271124909999
 30
0.0
 11
82.84461670049999
 21
38.8727112491
 31
0.0
  0
LINE
  5
682
330
1F
100
AcDbEntity
  8
0
  6
Continuous
100
AcDbLine
 10
82.7196167005
 20
39.57271124909999
 30
0.0
 11
82.7196167005
 21
38.8727112491
 31
0.0
  0
LINE
  5
683
330
1F
100
AcDbEntity
  8
0
  6
Continuous
100
AcDbLine
 10
84.90961670049999
 20
39.57271124909999
 30
0.0
 11
85.28461670049999
 21
39.57271124909999
 31
0.0
  0
LINE
  5
684
330
1F
100
AcDbEntity
  8
0
  6
Continuous
100
AcDbLine
 10
83.3446167005
 20
39.57271124909999
 30
0.0
 11
83.3446167005
 21
38.8727112491
 31
0.0
  0
LINE
  5
685
330
1F
100
AcDbEntity
  8
0
  6
Continuous
100
AcDbLine
 10
83.21961670049999
 20
39.57271124909999
 30
0.0
 11
83.21961670049999
 21
38.8727112491
 31
0.0
  0
LINE
  5
686
330
1F
100
AcDbEntity
  8
0
  6
Continuous
100
AcDbLine
 10
83.3446167005
 20
39.57271124909999
 30
0.0
 11
83.75211670049999
 21
39.57271124909999
 31
0.0
  0
LINE
  5
687
330
1F
100
AcDbEntity
  8
0
  6
Continuous
100
AcDbLine
 10
84.40961670049999
 20
39.57271124909999
 30
0.0
 11
84.40961670049999
 21
38.8727112491
 31
0.0
  0
LINE
  5
688
330
1F
100
AcDbEntity
  8
0
  6
Continuous
100
AcDbLine
 10
83.8771167005
 20
39.57271124909999
 30
0.0
 11
84.28461670049999
 21
39.57271124909999
 31
0.0
  0
LINE
  5
689
330
1F
100
AcDbEntity
  8
0
  6
Continuous
100
AcDbLine
 10
84.28461670049999
 20
39.57271124909999
 30
0.0
 11
84.28461670049999
 21
38.8727112491
 31
0.0
  0
LINE
  5
68A
330
1F
100
AcDbEntity
  8
0
  6
Continuous
100
AcDbLine
 10
84.90961670049999
 20
39.57271124909999
 30
0.0
 11
84.90961670049999
 21
38.8727112491
 31
0.0
  0
LINE
  5
68B
330
1F
100
AcDbEntity
  8
0
  6
Continuous
100
AcDbLine
 10
84.7846167005
 20
39.57271124909999
 30
0.0
 11
84.7846167005
 21
38.8727112491
 31
0.0
  0
LINE
  5
68C
330
1F
100
AcDbEntity
  8
0
  6
Continuous
100
AcDbLine
 10
84.40961670049999
 20
39.57271124909999
 30
0.0
 11
84.7846167005
 21
39.57271124909999
 31
0.0
  0
LINE
  5
68D
330
1F
100
AcDbEntity
  8
0
  6
Continuous
100
AcDbLine
 10
83.8771167005
 20
39.57271124909999
 30
0.0
 11
83.8771167005
 21
38.8727112491
 31
0.0
  0
LINE
  5
68E
330
1F
100
AcDbEntity
  8
0
  6
Continuous
100
AcDbLine
 10
83.75211670049999
 20
39.57271124909999
 30
0.0
 11
83.75211670049999
 21
38.8727112491
 31
0.0
  0
LINE
  5
68F
330
1F
100
AcDbEntity
  8
0
  6
Continuous
100
AcDbLine
 10
82.84461670049999
 20
39.57271124909999
 30
0.0
 11
83.21961670049999
 21
39.57271124909999
 31
0.0
  0
LINE
  5
690
330
1F
100
AcDbEntity
  8
0
  6
Continuous
100
AcDbLine
 10
85.28461670049999
 20
39.57271124909999
 30
0.0
 11
85.28461670049999
 21
38.8727112491
 31
0.0
  0
LINE
  5
691
330
1F
100
AcDbEntity
  8
0
  6
Continuous
100
AcDbLine
 10
82.3446167005
 20
39.57271124909999
 30
0.0
 11
82.3446167005
 21
38.8727112491
 31
0.0
  0
LINE
  5
692
330
1F
100
AcDbEntity
  8
0
  6
Continuous
100
AcDbLine
 10
82.21961670049999
 20
39.57271124909999
 30
0.0
 11
82.21961670049999
 21
38.8727112491
 31
0.0
  0
LINE
  5
693
330
1F
100
AcDbEntity
  8
0
  6
Continuous
100
AcDbLine
 10
84.7846167005
 20
38.8727112491
 30
0.0
 11
84.90961670049999
 21
38.8727112491
 31
0.0
  0
LINE
  5
694
330
1F
100
AcDbEntity
  8
0
  6
Continuous
100
AcDbLine
 10
84.40961670049999
 20
38.8727112491
 30
0.0
 11
84.7846167005
 21
38.8727112491
 31
0.0
  0
LINE
  5
695
330
1F
100
AcDbEntity
  8
0
  6
Continuous
100
AcDbLine
 10
84.28461670049999
 20
38.8727112491
 30
0.0
 11
84.40961670049999
 21
38.8727112491
 31
0.0
  0
LINE
  5
696
330
1F
100
AcDbEntity
  8
0
  6
Continuous
100
AcDbLine
 10
83.8771167005
 20
38.8727112491
 30
0.0
 11
84.28461670049999
 21
38.8727112491
 31
0.0
  0
LINE
  5
697
330
1F
100
AcDbEntity
  8
0
  6
Continuous
100
AcDbLine
 10
83.75211670049999
 20
38.8727112491
 30
0.0
 11
83.8771167005
 21
38.8727112491
 31
0.0
  0
LINE
  5
698
330
1F
100
AcDbEntity
  8
0
  6
Continuous
100
AcDbLine
 10
83.3446167005
 20
38.8727112491
 30
0.0
 11
83.75211670049999
 21
38.8727112491
 31
0.0
  0
LINE
  5
699
330
1F
100
AcDbEntity
  8
0
  6
Continuous
100
AcDbLine
 10
83.21961670049999
 20
38.8727112491
 30
0.0
 11
83.3446167005
 21
38.8727112491
 31
0.0
  0
LINE
  5
69A
330
1F
100
AcDbEntity
  8
0
  6
Continuous
100
AcDbLine
 10
82.84461670049999
 20
38.8727112491
 30
0.0
 11
83.21961670049999
 21
38.8727112491
 31
0.0
  0
LINE
  5
69B
330
1F
100
AcDbEntity
  8
0
  6
Continuous
100
AcDbLine
 10
82.7196167005
 20
38.8727112491
 30
0.0
 11
82.84461670049999
 21
38.8727112491
 31
0.0
  0
LINE
  5
69C
330
1F
100
AcDbEntity
  8
0
  6
Continuous
100
AcDbLine
 10
82.3446167005
 20
38.8727112491
 30
0.0
 11
82.7196167005
 21
38.8727112491
 31
0.0
  0
LINE
  5
69D
330
1F
100
AcDbEntity
  8
0
  6
Continuous
100
AcDbLine
 10
82.21961670049999
 20
38.8727112491
 30
0.0
 11
82.3446167005
 21
38.8727112491
 31
0.0
  0
LINE
  5
69E
330
1F
100
AcDbEntity
  8
0
  6
Continuous
100
AcDbLine
 10
85.28461670049999
 20
38.8727112491
 30
0.0
 11
85.4096167005
 21
38.8727112491
 31
0.0
  0
LINE
  5
69F
330
1F
100
AcDbEntity
  8
0
  6
Continuous
100
AcDbLine
 10
84.90961670049999
 20
38.8727112491
 30
0.0
 11
85.28461670049999
 21
38.8727112491
 31
0.0
  0
LINE
  5
6A0
330
1F
100
AcDbEntity
  8
0
  6
Continuous
100
AcDbLine
 10
82.84461670049999
 20
38.9727112491
 30
0.0
 11
83.21961670049999
 21
38.9727112491
 31
0.0
  0
LINE
  5
6A1
330
1F
100
AcDbEntity
  8
0
  6
Continuous
100
AcDbLine
 10
84.40961670049999
 20
38.9727112491
 30
0.0
 11
84.7846167005
 21
38.9727112491
 31
0.0
  0
LINE
  5
6A2
330
1F
100
AcDbEntity
  8
0
  6
Continuous
100
AcDbLine
 10
83.8771167005
 20
38.9727112491
 30
0.0
 11
84.28461670049999
 21
38.9727112491
 31
0.0
  0
LINE
  5
6A3
330
1F
100
AcDbEntity
  8
0
  6
Continuous
100
AcDbLine
 10
82.3446167005
 20
39.4727112491
 30
0.0
 11
82.7196167005
 21
39.4727112491
 31
0.0
  0
LINE
  5
6A4
330
1F
100
AcDbEntity
  8
0
  6
Continuous
100
AcDbLine
 10
83.3446167005
 20
38.9727112491
 30
0.0
 11
83.75211670049999
 21
38.9727112491
 31
0.0
  0
LINE
  5
6A5
330
1F
100
AcDbEntity
  8
0
  6
Continuous
100
AcDbLine
 10
84.90961670049999
 20
38.9727112491
 30
0.0
 11
85.28461670049999
 21
38.9727112491
 31
0.0
  0
LINE
  5
6A6
330
1F
100
AcDbEntity
  8
0
  6
Continuous
100
AcDbLine
 10
82.3446167005
 20
38.9727112491
 30
0.0
 11
82.7196167005
 21
38.9727112491
 31
0.0
  0
LINE
  5
6A7
330
1F
100
AcDbEntity
  8
0
  6
Continuous
100
AcDbLine
 10
84.90961670049999
 20
39.4727112491
 30
0.0
 11
85.28461670049999
 21
39.4727112491
 31
0.0
  0
ARC
  5
6A8
330
1F
100
AcDbEntity
  8
0
  6
Continuous
100
AcDbCircle
 10
85.0971167005
 20
39.2227112491
 30
0.0
 40
0.0835
100
AcDbArc
 50
0.0
 51
180.0
  0
ARC
  5
6A9
330
1F
100
AcDbEntity
  8
0
  6
Continuous
100
AcDbCircle
 10
85.0971167005
 20
39.2227112491
 30
0.0
 40
0.0835
100
AcDbArc
 50
180.0
 51
360.0
  0
LINE
  5
6AA
330
1F
100
AcDbEntity
  8
0
  6
Continuous
100
AcDbLine
 10
83.3446167005
 20
39.4727112491
 30
0.0
 11
83.75211670049999
 21
39.4727112491
 31
0.0
  0
ARC
  5
6AB
330
1F
100
AcDbEntity
  8
0
  6
Continuous
100
AcDbCircle
 10
82.53211670049999
 20
39.2227112491
 30
0.0
 40
0.0835
100
AcDbArc
 50
0.0
 51
180.0
  0
LINE
  5
6AC
330
1F
100
AcDbEntity
  8
0
  6
Continuous
100
AcDbLine
 10
83.8771167005
 20
39.4727112491
 30
0.0
 11
84.28461670049999
 21
39.4727112491
 31
0.0
  0
ARC
  5
6AD
330
1F
100
AcDbEntity
  8
0
  6
Continuous
100
AcDbCircle
 10
82.53211670049999
 20
39.2227112491
 30
0.0
 40
0.0835
100
AcDbArc
 50
180.0
 51
360.0
  0
LINE
  5
6AE
330
1F
100
AcDbEntity
  8
0
  6
Continuous
100
AcDbLine
 10
82.84461670049999
 20
39.4727112491
 30
0.0
 11
83.21961670049999
 21
39.4727112491
 31
0.0
  0
LINE
  5
6AF
330
1F
100
AcDbEntity
  8
0
  6
Continuous
100
AcDbLine
 10
84.40961670049999
 20
39.4727112491
 30
0.0
 11
84.7846167005
 21
39.4727112491
 31
0.0
  0
ARC
  5
6B0
330
1F
100
AcDbEntity
  8
0
  6
Continuous
100
AcDbCircle
 10
82.2011167005
 20
40.2802112491
 30
0.0
 40
0.1875
100
AcDbArc
 50
90.0
 51
180.0
  0
ARC
  5
6B1
330
1F
100
AcDbEntity
  8
0
  6
Continuous
100
AcDbCircle
 10
85.4261167005
 20
40.2802112491
 30
0.0
 40
0.1875
100
AcDbArc
 50
0.0
 51
90.0
  0
ARC
  5
6B2
330
1F
100
AcDbEntity
  8
0
  6
Continuous
100
AcDbCircle
 10
82.2011167005
 20
35.02521124909999
 30
0.0
 40
0.1875
100
AcDbArc
 50
180.0
 51
270.0
  0
ARC
  5
6B3
330
1F
100
AcDbEntity
  8
0
  6
Continuous
100
AcDbCircle
 10
85.4261167005
 20
35.02521124909999
 30
0.0
 40
0.1875
100
AcDbArc
 50
270.0
 51
360.0
  0
ARC
  5
6B4
330
1F
100
AcDbEntity
  8
0
  6
Continuous
100
AcDbCircle
 10
86.13161670049999
 20
34.31971124909999
 30
0.0
 40
0.187
100
AcDbArc
 50
270.0
 51
360.0
  0
ARC
  5
6B5
330
1F
100
AcDbEntity
  8
0
  6
Continuous
100
AcDbCircle
 10
86.13161670049999
 20
40.9857112491
 30
0.0
 40
0.187
100
AcDbArc
 50
0.0
 51
90.0
  0
ARC
  5
6B6
330
1F
100
AcDbEntity
  8
0
  6
Continuous
100
AcDbCircle
 10
81.49561670050001
 20
40.9857112491
 30
0.0
 40
0.187
100
AcDbArc
 50
90.0
 51
180.0
  0
ARC
  5
6B7
330
1F
100
AcDbEntity
  8
0
  6
Continuous
100
AcDbCircle
 10
81.49561670050001
 20
34.31971124909999
 30
0.0
 40
0.187
100
AcDbArc
 50
180.0
 51
270.0
  0
LINE
  5
6B8
330
1F
100
AcDbEntity
  8
0
  6
Continuous
100
AcDbLine
 10
81.3086167005
 20
40.9857112491
 30
0.0
 11
81.3086167005
 21
34.31971124909999
 31
0.0
  0
LINE
  5
6B9
330
1F
100
AcDbEntity
  8
0
  6
Continuous
100
AcDbLine
 10
86.13161670049999
 20
41.1727112491
 30
0.0
 11
81.49561670050001
 21
41.1727112491
 31
0.0
  0
LINE
  5
6BA
330
1F
100
AcDbEntity
  8
0
  6
Continuous
100
AcDbLine
 10
86.31861670049998
 20
34.31971124909999
 30
0.0
 11
86.31861670049998
 21
40.9857112491
 31
0.0
  0
LINE
  5
6BB
330
1F
100
AcDbEntity
  8
0
  6
Continuous
100
AcDbLine
 10
81.49561670050001
 20
34.1327112491
 30
0.0
 11
86.13161670049999
 21
34.1327112491
 31
0.0
  0
LINE
  5
6BC
330
1F
100
AcDbEntity
  8
0
  6
Continuous
100
AcDbLine
 10
82.01361670050001
 20
35.02521124909999
 30
0.0
 11
82.01361670050001
 21
40.2802112491
 31
0.0
  0
LINE
  5
6BD
330
1F
100
AcDbEntity
  8
0
  6
Continuous
100
AcDbLine
 10
85.4261167005
 20
34.83771124909999
 30
0.0
 11
82.2011167005
 21
34.83771124909999
 31
0.0
  0
LINE
  5
6BE
330
1F
100
AcDbEntity
  8
0
  6
Continuous
100
AcDbLine
 10
85.61361670050001
 20
40.2802112491
 30
0.0
 11
85.61361670050001
 21
35.02521124909999
 31
0.0
  0
LINE
  5
6BF
330
1F
100
AcDbEntity
  8
0
  6
Continuous
100
AcDbLine
 10
82.2011167005
 20
40.4677112491
 30
0.0
 11
85.4261167005
 21
40.4677112491
 31
0.0
  0
ARC
  5
6C0
330
1F
100
AcDbEntity
  8
0
  6
Continuous
100
AcDbCircle
 10
82.81361670050001
 20
40.9652112491
 30
0.0
 40
0.1395
100
AcDbArc
 50
180.0
 51
267.2561363743
  0
ARC
  5
6C1
330
1F
100
AcDbEntity
  8
0
  6
Continuous
100
AcDbCircle
 10
82.81361670050001
 20
40.9652112491
 30
0.0
 40
0.1395
100
AcDbArc
 50
267.2561363743
 51
272.7438636256999
  0
ARC
  5
6C2
330
1F
100
AcDbEntity
  8
0
  6
Continuous
100
AcDbCircle
 10
82.81361670050001
 20
40.9652112491
 30
0.0
 40
0.1395
100
AcDbArc
 50
272.7438636256999
 51
354.7658917605001
  0
ARC
  5
6C3
330
1F
100
AcDbEntity
  8
0
  6
Continuous
100
AcDbCircle
 10
82.81361670050001
 20
40.9652112491
 30
0.0
 40
0.1395
100
AcDbArc
 50
354.7658917605001
 51
360.0
  0
ARC
  5
6C4
330
1F
100
AcDbEntity
  8
0
  6
Continuous
100
AcDbCircle
 10
82.81361670050001
 20
40.9652112491
 30
0.0
 40
0.1395
100
AcDbArc
 50
0.0
 51
5.2341082395
  0
ARC
  5
6C5
330
1F
100
AcDbEntity
  8
0
  6
Continuous
100
AcDbCircle
 10
82.81361670050001
 20
40.9652112491
 30
0.0
 40
0.1395
100
AcDbArc
 50
5.2341082395
 51
87.25613637429999
  0
ARC
  5
6C6
330
1F
100
AcDbEntity
  8
0
  6
Continuous
100
AcDbCircle
 10
82.81361670050001
 20
40.9652112491
 30
0.0
 40
0.1395
100
AcDbArc
 50
87.25613637429999
 51
92.7438636257
  0
ARC
  5
6C7
330
1F
100
AcDbEntity
  8
0
  6
Continuous
100
AcDbCircle
 10
82.81361670050001
 20
40.9652112491
 30
0.0
 40
0.1395
100
AcDbArc
 50
92.7438636257
 51
180.0
  0
ARC
  5
6C8
330
1F
100
AcDbEntity
  8
0
  6
Continuous
100
AcDbCircle
 10
84.8136167005
 20
40.9652112491
 30
0.0
 40
0.1395
100
AcDbArc
 50
180.0
 51
185.2341082393999
  0
ARC
  5
6C9
330
1F
100
AcDbEntity
  8
0
  6
Continuous
100
AcDbCircle
 10
84.8136167005
 20
40.9652112491
 30
0.0
 40
0.1395
100
AcDbArc
 50
185.2341082393999
 51
267.2561363743
  0
ARC
  5
6CA
330
1F
100
AcDbEntity
  8
0
  6
Continuous
100
AcDbCircle
 10
84.8136167005
 20
40.9652112491
 30
0.0
 40
0.1395
100
AcDbArc
 50
267.2561363743
 51
272.7438636256999
  0
ARC
  5
6CB
330
1F
100
AcDbEntity
  8
0
  6
Continuous
100
AcDbCircle
 10
84.8136167005
 20
40.9652112491
 30
0.0
 40
0.1395
100
AcDbArc
 50
272.7438636256999
 51
360.0
  0
ARC
  5
6CC
330
1F
100
AcDbEntity
  8
0
  6
Continuous
100
AcDbCircle
 10
84.8136167005
 20
40.9652112491
 30
0.0
 40
0.1395
100
AcDbArc
 50
0.0
 51
87.25613637429999
  0
ARC
  5
6CD
330
1F
100
AcDbEntity
  8
0
  6
Continuous
100
AcDbCircle
 10
84.8136167005
 20
40.9652112491
 30
0.0
 40
0.1395
100
AcDbArc
 50
87.25613637429999
 51
92.7438636257
  0
ARC
  5
6CE
330
1F
100
AcDbEntity
  8
0
  6
Continuous
100
AcDbCircle
 10
84.8136167005
 20
40.9652112491
 30
0.0
 40
0.1395
100
AcDbArc
 50
92.7438636257
 51
174.7658917606
  0
ARC
  5
6CF
330
1F
100
AcDbEntity
  8
0
  6
Continuous
100
AcDbCircle
 10
84.8136167005
 20
40.9652112491
 30
0.0
 40
0.1395
100
AcDbArc
 50
174.7658917606
 51
180.0
  0
ARC
  5
6D0
330
1F
100
AcDbEntity
  8
0
  6
Continuous
100
AcDbCircle
 10
86.12361670049999
 20
36.07271124909999
 30
0.0
 40
0.1395
100
AcDbArc
 50
0.0
 51
5.2341082394
  0
ARC
  5
6D1
330
1F
100
AcDbEntity
  8
0
  6
Continuous
100
AcDbCircle
 10
86.12361670049999
 20
36.07271124909999
 30
0.0
 40
0.1395
100
AcDbArc
 50
5.2341082394
 51
87.25613637429999
  0
ARC
  5
6D2
330
1F
100
AcDbEntity
  8
0
  6
Continuous
100
AcDbCircle
 10
86.12361670049999
 20
36.07271124909999
 30
0.0
 40
0.1395
100
AcDbArc
 50
87.25613637429999
 51
92.7438636257
  0
ARC
  5
6D3
330
1F
100
AcDbEntity
  8
0
  6
Continuous
100
AcDbCircle
 10
86.12361670049999
 20
36.07271124909999
 30
0.0
 40
0.1395
100
AcDbArc
 50
92.7438636257
 51
174.7658917606
  0
ARC
  5
6D4
330
1F
100
AcDbEntity
  8
0
  6
Continuous
100
AcDbCircle
 10
86.12361670049999
 20
36.07271124909999
 30
0.0
 40
0.1395
100
AcDbArc
 50
174.7658917606
 51
180.0
  0
ARC
  5
6D5
330
1F
100
AcDbEntity
  8
0
  6
Continuous
100
AcDbCircle
 10
86.12361670049999
 20
36.07271124909999
 30
0.0
 40
0.1395
100
AcDbArc
 50
180.0
 51
267.2561363743
  0
ARC
  5
6D6
330
1F
100
AcDbEntity
  8
0
  6
Continuous
100
AcDbCircle
 10
86.12361670049999
 20
36.07271124909999
 30
0.0
 40
0.1395
100
AcDbArc
 50
267.2561363743
 51
272.7438636256999
  0
ARC
  5
6D7
330
1F
100
AcDbEntity
  8
0
  6
Continuous
100
AcDbCircle
 10
86.12361670049999
 20
36.07271124909999
 30
0.0
 40
0.1395
100
AcDbArc
 50
272.7438636256999
 51
360.0
  0
ARC
  5
6D8
330
1F
100
AcDbEntity
  8
0
  6
Continuous
100
AcDbCircle
 10
81.50361670050001
 20
36.07271124909999
 30
0.0
 40
0.1395
100
AcDbArc
 50
0.0
 51
5.2341082394
  0
ARC
  5
6D9
330
1F
100
AcDbEntity
  8
0
  6
Continuous
100
AcDbCircle
 10
81.50361670050001
 20
36.07271124909999
 30
0.0
 40
0.1395
100
AcDbArc
 50
5.2341082394
 51
87.25613637429999
  0
ARC
  5
6DA
330
1F
100
AcDbEntity
  8
0
  6
Continuous
100
AcDbCircle
 10
81.50361670050001
 20
36.07271124909999
 30
0.0
 40
0.1395
100
AcDbArc
 50
87.25613637429999
 51
92.7438636257
  0
ARC
  5
6DB
330
1F
100
AcDbEntity
  8
0
  6
Continuous
100
AcDbCircle
 10
81.50361670050001
 20
36.07271124909999
 30
0.0
 40
0.1395
100
AcDbArc
 50
92.7438636257
 51
174.7658917604999
  0
ARC
  5
6DC
330
1F
100
AcDbEntity
  8
0
  6
Continuous
100
AcDbCircle
 10
81.50361670050001
 20
36.07271124909999
 30
0.0
 40
0.1395
100
AcDbArc
 50
174.7658917604999
 51
180.0
  0
ARC
  5
6DD
330
1F
100
AcDbEntity
  8
0
  6
Continuous
100
AcDbCircle
 10
81.50361670050001
 20
36.07271124909999
 30
0.0
 40
0.1395
100
AcDbArc
 50
180.0
 51
267.2561363743
  0
ARC
  5
6DE
330
1F
100
AcDbEntity
  8
0
  6
Continuous
100
AcDbCircle
 10
81.50361670050001
 20
36.07271124909999
 30
0.0
 40
0.1395
100
AcDbArc
 50
267.2561363743
 51
272.7438636256999
  0
ARC
  5
6DF
330
1F
100
AcDbEntity
  8
0
  6
Continuous
100
AcDbCircle
 10
81.50361670050001
 20
36.07271124909999
 30
0.0
 40
0.1395
100
AcDbArc
 50
272.7438636256999
 51
360.0
  0
ARC
  5
6E0
330
1F
100
AcDbEntity
  8
0
  6
Continuous
100
AcDbCircle
 10
86.12361670049999
 20
39.2327112491
 30
0.0
 40
0.1395
100
AcDbArc
 50
0.0
 51
87.25613637429999
  0
ARC
  5
6E1
330
1F
100
AcDbEntity
  8
0
  6
Continuous
100
AcDbCircle
 10
86.12361670049999
 20
39.2327112491
 30
0.0
 40
0.1395
100
AcDbArc
 50
87.25613637429999
 51
92.7438636257
  0
ARC
  5
6E2
330
1F
100
AcDbEntity
  8
0
  6
Continuous
100
AcDbCircle
 10
86.12361670049999
 20
39.2327112491
 30
0.0
 40
0.1395
100
AcDbArc
 50
92.7438636257
 51
174.7658917606
  0
ARC
  5
6E3
330
1F
100
AcDbEntity
  8
0
  6
Continuous
100
AcDbCircle
 10
86.12361670049999
 20
39.2327112491
 30
0.0
 40
0.1395
100
AcDbArc
 50
174.7658917606
 51
180.0
  0
ARC
  5
6E4
330
1F
100
AcDbEntity
  8
0
  6
Continuous
100
AcDbCircle
 10
86.12361670049999
 20
39.2327112491
 30
0.0
 40
0.1395
100
AcDbArc
 50
180.0
 51
185.2341082393999
  0
ARC
  5
6E5
330
1F
100
AcDbEntity
  8
0
  6
Continuous
100
AcDbCircle
 10
86.12361670049999
 20
39.2327112491
 30
0.0
 40
0.1395
100
AcDbArc
 50
185.2341082393999
 51
267.2561363743
  0
ARC
  5
6E6
330
1F
100
AcDbEntity
  8
0
  6
Continuous
100
AcDbCircle
 10
86.12361670049999
 20
39.2327112491
 30
0.0
 40
0.1395
100
AcDbArc
 50
267.2561363743
 51
272.7438636256999
  0
ARC
  5
6E7
330
1F
100
AcDbEntity
  8
0
  6
Continuous
100
AcDbCircle
 10
86.12361670049999
 20
39.2327112491
 30
0.0
 40
0.1395
100
AcDbArc
 50
272.7438636256999
 51
360.0
  0
ARC
  5
6E8
330
1F
100
AcDbEntity
  8
0
  6
Continuous
100
AcDbCircle
 10
81.50361670050001
 20
39.2327112491
 30
0.0
 40
0.1395
100
AcDbArc
 50
0.0
 51
87.25613637429999
  0
ARC
  5
6E9
330
1F
100
AcDbEntity
  8
0
  6
Continuous
100
AcDbCircle
 10
81.50361670050001
 20
39.2327112491
 30
0.0
 40
0.1395
100
AcDbArc
 50
87.25613637429999
 51
92.7438636257
  0
ARC
  5
6EA
330
1F
100
AcDbEntity
  8
0
  6
Continuous
100
AcDbCircle
 10
81.50361670050001
 20
39.2327112491
 30
0.0
 40
0.1395
100
AcDbArc
 50
92.7438636257
 51
174.7658917604999
  0
ARC
  5
6EB
330
1F
100
AcDbEntity
  8
0
  6
Continuous
100
AcDbCircle
 10
81.50361670050001
 20
39.2327112491
 30
0.0
 40
0.1395
100
AcDbArc
 50
174.7658917604999
 51
180.0
  0
ARC
  5
6EC
330
1F
100
AcDbEntity
  8
0
  6
Continuous
100
AcDbCircle
 10
81.50361670050001
 20
39.2327112491
 30
0.0
 40
0.1395
100
AcDbArc
 50
180.0
 51
185.2341082393999
  0
ARC
  5
6ED
330
1F
100
AcDbEntity
  8
0
  6
Continuous
100
AcDbCircle
 10
81.50361670050001
 20
39.2327112491
 30
0.0
 40
0.1395
100
AcDbArc
 50
185.2341082393999
 51
267.2561363743
  0
ARC
  5
6EE
330
1F
100
AcDbEntity
  8
0
  6
Continuous
100
AcDbCircle
 10
81.50361670050001
 20
39.2327112491
 30
0.0
 40
0.1395
100
AcDbArc
 50
267.2561363743
 51
272.7438636256999
  0
ARC
  5
6EF
330
1F
100
AcDbEntity
  8
0
  6
Continuous
100
AcDbCircle
 10
81.50361670050001
 20
39.2327112491
 30
0.0
 40
0.1395
100
AcDbArc
 50
272.7438636256999
 51
360.0
  0
ARC
  5
6F0
330
1F
100
AcDbEntity
  8
0
  6
Continuous
100
AcDbCircle
 10
84.8136167005
 20
34.3402112491
 30
0.0
 40
0.1395
100
AcDbArc
 50
0.0
 51
5.2341082395
  0
ARC
  5
6F1
330
1F
100
AcDbEntity
  8
0
  6
Continuous
100
AcDbCircle
 10
84.8136167005
 20
34.3402112491
 30
0.0
 40
0.1395
100
AcDbArc
 50
5.2341082395
 51
87.25613637429999
  0
ARC
  5
6F2
330
1F
100
AcDbEntity
  8
0
  6
Continuous
100
AcDbCircle
 10
84.8136167005
 20
34.3402112491
 30
0.0
 40
0.1395
100
AcDbArc
 50
87.25613637429999
 51
92.7438636257
  0
ARC
  5
6F3
330
1F
100
AcDbEntity
  8
0
  6
Continuous
100
AcDbCircle
 10
84.8136167005
 20
34.3402112491
 30
0.0
 40
0.1395
100
AcDbArc
 50
92.7438636257
 51
174.7658917606
  0
ARC
  5
6F4
330
1F
100
AcDbEntity
  8
0
  6
Continuous
100
AcDbCircle
 10
84.8136167005
 20
34.3402112491
 30
0.0
 40
0.1395
100
AcDbArc
 50
174.7658917606
 51
180.0
  0
ARC
  5
6F5
330
1F
100
AcDbEntity
  8
0
  6
Continuous
100
AcDbCircle
 10
84.8136167005
 20
34.3402112491
 30
0.0
 40
0.1395
100
AcDbArc
 50
180.0
 51
267.2561363743
  0
ARC
  5
6F6
330
1F
100
AcDbEntity
  8
0
  6
Continuous
100
AcDbCircle
 10
84.8136167005
 20
34.3402112491
 30
0.0
 40
0.1395
100
AcDbArc
 50
267.2561363743
 51
272.7438636256999
  0
ARC
  5
6F7
330
1F
100
AcDbEntity
  8
0
  6
Continuous
100
AcDbCircle
 10
84.8136167005
 20
34.3402112491
 30
0.0
 40
0.1395
100
AcDbArc
 50
272.7438636256999
 51
360.0
  0
ARC
  5
6F8
330
1F
100
AcDbEntity
  8
0
  6
Continuous
100
AcDbCircle
 10
82.81361670050001
 20
34.3402112491
 30
0.0
 40
0.1395
100
AcDbArc
 50
0.0
 51
5.2341082395
  0
ARC
  5
6F9
330
1F
100
AcDbEntity
  8
0
  6
Continuous
100
AcDbCircle
 10
82.81361670050001
 20
34.3402112491
 30
0.0
 40
0.1395
100
AcDbArc
 50
5.2341082395
 51
87.25613637429999
  0
ARC
  5
6FA
330
1F
100
AcDbEntity
  8
0
  6
Continuous
100
AcDbCircle
 10
82.81361670050001
 20
34.3402112491
 30
0.0
 40
0.1395
100
AcDbArc
 50
87.25613637429999
 51
92.7438636257
  0
ARC
  5
6FB
330
1F
100
AcDbEntity
  8
0
  6
Continuous
100
AcDbCircle
 10
82.81361670050001
 20
34.3402112491
 30
0.0
 40
0.1395
100
AcDbArc
 50
92.7438636257
 51
180.0
  0
ARC
  5
6FC
330
1F
100
AcDbEntity
  8
0
  6
Continuous
100
AcDbCircle
 10
82.81361670050001
 20
34.3402112491
 30
0.0
 40
0.1395
100
AcDbArc
 50
180.0
 51
267.2561363743
  0
ARC
  5
6FD
330
1F
100
AcDbEntity
  8
0
  6
Continuous
100
AcDbCircle
 10
82.81361670050001
 20
34.3402112491
 30
0.0
 40
0.1395
100
AcDbArc
 50
267.2561363743
 51
272.7438636256999
  0
ARC
  5
6FE
330
1F
100
AcDbEntity
  8
0
  6
Continuous
100
AcDbCircle
 10
82.81361670050001
 20
34.3402112491
 30
0.0
 40
0.1395
100
AcDbArc
 50
272.7438636256999
 51
354.7658917605001
  0
ARC
  5
6FF
330
1F
100
AcDbEntity
  8
0
  6
Continuous
100
AcDbCircle
 10
82.81361670050001
 20
34.3402112491
 30
0.0
 40
0.1395
100
AcDbArc
 50
354.7658917605001
 51
360.0
  0
ARC
  5
700
330
1F
100
AcDbEntity
  8
0
  6
Continuous
100
AcDbCircle
 10
70.3836167005
 20
41.98971124909999
 30
0.0
 40
0.25
100
AcDbArc
 50
90.0
 51
173.9847622002999
  0
ARC
  5
701
330
1F
100
AcDbEntity
  8
0
  6
Continuous
100
AcDbCircle
 10
70.3836167005
 20
41.98971124909999
 30
0.0
 40
0.25
100
AcDbArc
 50
173.9847622002999
 51
180.0
  0
LINE
  5
702
330
1F
100
AcDbEntity
  8
0
  6
Continuous
100
AcDbLine
 10
70.1336167005
 20
24.60971124909999
 30
0.0
 11
70.1336167005
 21
41.98971124909999
 31
0.0
  0
LINE
  5
703
330
1F
100
AcDbEntity
  8
0
  6
Continuous
100
AcDbLine
 10
70.3836167005
 20
42.2397112491
 30
0.0
 11
90.1336167005
 21
42.2397112491
 31
0.0
  0
LINE
  5
704
330
1F
100
AcDbEntity
  8
0
  6
Continuous
100
AcDbLine
 10
90.38361670049999
 20
41.98971124909999
 30
0.0
 11
90.38361670049999
 21
24.60971124909999
 31
0.0
  0
LINE
  5
705
330
1F
100
AcDbEntity
  8
0
  6
Continuous
100
AcDbLine
 10
90.1336167005
 20
24.3597112491
 30
0.0
 11
70.3836167005
 21
24.3597112491
 31
0.0
  0
LINE
  5
706
330
1F
100
AcDbEntity
  8
0
  6
Continuous
100
AcDbLine
 10
86.1336167005
 20
41.23971124909999
 30
0.0
 11
81.50361670050001
 21
41.23971124909999
 31
0.0
  0
ARC
  5
707
330
1F
100
AcDbEntity
  8
0
  6
Continuous
100
AcDbCircle
 10
81.50361670050001
 20
40.9897112491
 30
0.0
 40
0.25
100
AcDbArc
 50
90.0
 51
180.0
  0
LINE
  5
708
330
1F
100
AcDbEntity
  8
0
  6
Continuous
100
AcDbLine
 10
81.25361670050001
 20
40.9897112491
 30
0.0
 11
81.25361670050001
 21
34.3097112491
 31
0.0
  0
ARC
  5
709
330
1F
100
AcDbEntity
  8
0
  6
Continuous
100
AcDbCircle
 10
81.50361670050001
 20
34.3097112491
 30
0.0
 40
0.25
100
AcDbArc
 50
180.0
 51
270.0
  0
LINE
  5
70A
330
1F
100
AcDbEntity
  8
0
  6
Continuous
100
AcDbLine
 10
81.50361670050001
 20
34.05971124909999
 30
0.0
 11
86.1336167005
 21
34.05971124909999
 31
0.0
  0
ARC
  5
70B
330
1F
100
AcDbEntity
  8
0
  6
Continuous
100
AcDbCircle
 10
86.1336167005
 20
34.3097112491
 30
0.0
 40
0.25
100
AcDbArc
 50
270.0
 51
360.0
  0
LINE
  5
70C
330
1F
100
AcDbEntity
  8
0
  6
Continuous
100
AcDbLine
 10
86.3836167005
 20
34.3097112491
 30
0.0
 11
86.3836167005
 21
40.9897112491
 31
0.0
  0
ARC
  5
70D
330
1F
100
AcDbEntity
  8
0
  6
Continuous
100
AcDbCircle
 10
86.1336167005
 20
40.9897112491
 30
0.0
 40
0.25
100
AcDbArc
 50
0.0
 51
90.0
  0
ARC
  5
70E
330
1F
100
AcDbEntity
  8
0
  6
Continuous
100
AcDbCircle
 10
90.1336167005
 20
24.60971124909999
 30
0.0
 40
0.25
100
AcDbArc
 50
270.0
 51
360.0
  0
ARC
  5
70F
330
1F
100
AcDbEntity
  8
0
  6
Continuous
100
AcDbCircle
 10
90.1336167005
 20
41.98971124909999
 30
0.0
 40
0.25
100
AcDbArc
 50
0.0
 51
90.0
  0
ARC
  5
710
330
1F
100
AcDbEntity
  8
0
  6
Continuous
100
AcDbCircle
 10
90.1336167005
 20
24.60971124909999
 30
0.0
 40
0.25
100
AcDbArc
 50
270.0
 51
360.0
  0
ARC
  5
711
330
1F
100
AcDbEntity
  8
0
  6
Continuous
100
AcDbCircle
 10
70.3836167005
 20
24.60971124909999
 30
0.0
 40
0.25
100
AcDbArc
 50
180.0
 51
270.0
  0
ARC
  5
712
330
1F
100
AcDbEntity
  8
0
  6
Continuous
100
AcDbCircle
 10
70.3836167005
 20
41.98971124909999
 30
0.0
 40
0.25
100
AcDbArc
 50
90.0
 51
180.0
  0
ARC
  5
713
330
1F
100
AcDbEntity
  8
0
  6
Continuous
100
AcDbCircle
 10
70.3836167005
 20
24.60971124909999
 30
0.0
 40
0.25
100
AcDbArc
 50
180.0
 51
270.0
  0
LINE
  5
714
330
1F
100
AcDbEntity
  8
0
  6
Continuous
100
AcDbLine
 10
29.5424485358
 20
76.35812186529999
 30
0.0
 11
29.2537734012
 21
76.35812186529999
 31
0.0
  0
LINE
  5
715
330
1F
100
AcDbEntity
  8
0
  6
Continuous
100
AcDbLine
 10
29.6867861031
 20
76.60812186529999
 30
0.0
 11
29.5424485358
 21
76.35812186529999
 31
0.0
  0
LINE
  5
716
330
1F
100
AcDbEntity
  8
0
  6
Continuous
100
AcDbLine
 10
29.2537734012
 20
76.35812186529999
 30
0.0
 11
29.10943583389999
 21
76.60812186529999
 31
0.0
  0
LINE
  5
717
330
1F
100
AcDbEntity
  8
0
  6
Continuous
100
AcDbLine
 10
29.5424485358
 20
76.85812186529999
 30
0.0
 11
29.6867861031
 21
76.60812186529999
 31
0.0
  0
LINE
  5
718
330
1F
100
AcDbEntity
  8
0
  6
Continuous
100
AcDbLine
 10
29.10943583389999
 20
76.60812186529999
 30
0.0
 11
29.2537734012
 21
76.85812186529999
 31
0.0
  0
LINE
  5
719
330
1F
100
AcDbEntity
  8
0
  6
Continuous
100
AcDbLine
 10
29.2537734012
 20
76.85812186529999
 30
0.0
 11
29.5424485358
 21
76.85812186529999
 31
0.0
  0
ARC
  5
71A
330
1F
100
AcDbEntity
  8
0
  6
Continuous
100
AcDbCircle
 10
29.3981109685
 20
76.60812186529999
 30
0.0
 40
0.2495
100
AcDbArc
 50
119.9999999999999
 51
300.0
  0
ARC
  5
71B
330
1F
100
AcDbEntity
  8
0
  6
Continuous
100
AcDbCircle
 10
29.3981109685
 20
76.60812186529999
 30
0.0
 40
0.2495
100
AcDbArc
 50
300.0
 51
119.9999999999999
  0
LINE
  5
71C
330
1F
100
AcDbEntity
  8
0
  6
Continuous
100
AcDbLine
 10
20.54244853579999
 20
60.76812186529999
 30
0.0
 11
20.25377340119999
 21
60.76812186529999
 31
0.0
  0
LINE
  5
71D
330
1F
100
AcDbEntity
  8
0
  6
Continuous
100
AcDbLine
 10
20.6867861031
 20
61.0181218653
 30
0.0
 11
20.54244853579999
 21
60.76812186529999
 31
0.0
  0
LINE
  5
71E
330
1F
100
AcDbEntity
  8
0
  6
Continuous
100
AcDbLine
 10
20.25377340119999
 20
60.76812186529999
 30
0.0
 11
20.1094358339
 21
61.0181218653
 31
0.0
  0
LINE
  5
71F
330
1F
100
AcDbEntity
  8
0
  6
Continuous
100
AcDbLine
 10
20.54244853579999
 20
61.26812186529999
 30
0.0
 11
20.6867861031
 21
61.0181218653
 31
0.0
  0
LINE
  5
720
330
1F
100
AcDbEntity
  8
0
  6
Continuous
100
AcDbLine
 10
20.1094358339
 20
61.0181218653
 30
0.0
 11
20.25377340119999
 21
61.26812186529999
 31
0.0
  0
LINE
  5
721
330
1F
100
AcDbEntity
  8
0
  6
Continuous
100
AcDbLine
 10
20.25377340119999
 20
61.26812186529999
 30
0.0
 11
20.54244853579999
 21
61.26812186529999
 31
0.0
  0
ARC
  5
722
330
1F
100
AcDbEntity
  8
0
  6
Continuous
100
AcDbCircle
 10
20.39811096849999
 20
61.0181218653
 30
0.0
 40
0.2495
100
AcDbArc
 50
119.9999999999999
 51
300.0
  0
ARC
  5
723
330
1F
100
AcDbEntity
  8
0
  6
Continuous
100
AcDbCircle
 10
20.39811096849999
 20
61.0181218653
 30
0.0
 40
0.2495
100
AcDbArc
 50
300.0
 51
119.9999999999999
  0
LINE
  5
724
330
1F
100
AcDbEntity
  8
0
  6
Continuous
100
AcDbLine
 10
38.5424485358
 20
60.76812186529999
 30
0.0
 11
38.2537734012
 21
60.76812186529999
 31
0.0
  0
LINE
  5
725
330
1F
100
AcDbEntity
  8
0
  6
Continuous
100
AcDbLine
 10
38.68678610309999
 20
61.0181218653
 30
0.0
 11
38.5424485358
 21
60.76812186529999
 31
0.0
  0
LINE
  5
726
330
1F
100
AcDbEntity
  8
0
  6
Continuous
100
AcDbLine
 10
38.2537734012
 20
60.76812186529999
 30
0.0
 11
38.1094358339
 21
61.0181218653
 31
0.0
  0
LINE
  5
727
330
1F
100
AcDbEntity
  8
0
  6
Continuous
100
AcDbLine
 10
38.5424485358
 20
61.26812186529999
 30
0.0
 11
38.68678610309999
 21
61.0181218653
 31
0.0
  0
LINE
  5
728
330
1F
100
AcDbEntity
  8
0
  6
Continuous
100
AcDbLine
 10
38.1094358339
 20
61.0181218653
 30
0.0
 11
38.2537734012
 21
61.26812186529999
 31
0.0
  0
LINE
  5
729
330
1F
100
AcDbEntity
  8
0
  6
Continuous
100
AcDbLine
 10
38.2537734012
 20
61.26812186529999
 30
0.0
 11
38.5424485358
 21
61.26812186529999
 31
0.0
  0
ARC
  5
72A
330
1F
100
AcDbEntity
  8
0
  6
Continuous
100
AcDbCircle
 10
38.3981109685
 20
61.0181218653
 30
0.0
 40
0.2495
100
AcDbArc
 50
119.9999999999999
 51
300.0
  0
ARC
  5
72B
330
1F
100
AcDbEntity
  8
0
  6
Continuous
100
AcDbCircle
 10
38.3981109685
 20
61.0181218653
 30
0.0
 40
0.2495
100
AcDbArc
 50
300.0
 51
119.9999999999999
  0
ARC
  5
72C
330
1F
100
AcDbEntity
  8
0
  6
Continuous
100
AcDbCircle
 10
20.39811096849999
 20
61.0181218653
 30
0.0
 40
0.4185
100
AcDbArc
 50
180.0
 51
360.0
  0
ARC
  5
72D
330
1F
100
AcDbEntity
  8
0
  6
Continuous
100
AcDbCircle
 10
20.39811096849999
 20
61.0181218653
 30
0.0
 40
0.4185
100
AcDbArc
 50
0.0
 51
180.0
  0
ARC
  5
72E
330
1F
100
AcDbEntity
  8
0
  6
Continuous
100
AcDbCircle
 10
38.3981109685
 20
61.0181218653
 30
0.0
 40
0.4185
100
AcDbArc
 50
180.0
 51
360.0
  0
ARC
  5
72F
330
1F
100
AcDbEntity
  8
0
  6
Continuous
100
AcDbCircle
 10
38.3981109685
 20
61.0181218653
 30
0.0
 40
0.4185
100
AcDbArc
 50
0.0
 51
180.0
  0
ARC
  5
730
330
1F
100
AcDbEntity
  8
0
  6
Continuous
100
AcDbCircle
 10
29.3981109685
 20
76.60812186529999
 30
0.0
 40
0.4185
100
AcDbArc
 50
180.0
 51
360.0
  0
ARC
  5
731
330
1F
100
AcDbEntity
  8
0
  6
Continuous
100
AcDbCircle
 10
29.3981109685
 20
76.60812186529999
 30
0.0
 40
0.4185
100
AcDbArc
 50
0.0
 51
180.0
  0
ARC
  5
732
330
1F
100
AcDbEntity
  8
0
  6
Continuous
100
AcDbCircle
 10
14.6481109685
 20
78.9581218653
 30
0.0
 40
0.25
100
AcDbArc
 50
173.9847622002999
 51
180.0
  0
LINE
  5
733
330
1F
100
AcDbEntity
  8
0
  6
Continuous
100
AcDbLine
 10
44.14811096850001
 20
58.9581218653
 30
0.0
 11
14.6481109685
 21
58.9581218653
 31
0.0
  0
LINE
  5
734
330
1F
100
AcDbEntity
  8
0
  6
Continuous
100
AcDbLine
 10
14.39811096849999
 20
59.2081218653
 30
0.0
 11
14.39811096849999
 21
78.9581218653
 31
0.0
  0
LINE
  5
735
330
1F
100
AcDbEntity
  8
0
  6
Continuous
100
AcDbLine
 10
44.3981109685
 20
59.2081218653
 30
0.0
 11
44.3981109685
 21
78.9581218653
 31
0.0
  0
LINE
  5
736
330
1F
100
AcDbEntity
  8
0
  6
Continuous
100
AcDbLine
 10
44.14811096850001
 20
79.2081218653
 30
0.0
 11
14.6481109685
 21
79.2081218653
 31
0.0
  0
ARC
  5
737
330
1F
100
AcDbEntity
  8
0
  6
Continuous
100
AcDbCircle
 10
44.14811096850001
 20
78.9581218653
 30
0.0
 40
0.25
100
AcDbArc
 50
0.0
 51
90.0
  0
ARC
  5
738
330
1F
100
AcDbEntity
  8
0
  6
Continuous
100
AcDbCircle
 10
14.6481109685
 20
78.9581218653
 30
0.0
 40
0.25
100
AcDbArc
 50
90.0
 51
180.0
  0
ARC
  5
739
330
1F
100
AcDbEntity
  8
0
  6
Continuous
100
AcDbCircle
 10
44.14811096850001
 20
59.2081218653
 30
0.0
 40
0.25
100
AcDbArc
 50
276.0303432901999
 51
354.1357156897
  0
ARC
  5
73A
330
1F
100
AcDbEntity
  8
0
  6
Continuous
100
AcDbCircle
 10
44.14811096850001
 20
59.2081218653
 30
0.0
 40
0.25
100
AcDbArc
 50
270.0
 51
360.0
  0
ARC
  5
73B
330
1F
100
AcDbEntity
  8
0
  6
Continuous
100
AcDbCircle
 10
14.6481109685
 20
59.2081218653
 30
0.0
 40
0.25
100
AcDbArc
 50
180.0
 51
185.9481865572
  0
ARC
  5
73C
330
1F
100
AcDbEntity
  8
0
  6
Continuous
100
AcDbCircle
 10
14.6481109685
 20
59.2081218653
 30
0.0
 40
0.25
100
AcDbArc
 50
185.9481865572
 51
264.0518644955
  0
ARC
  5
73D
330
1F
100
AcDbEntity
  8
0
  6
Continuous
100
AcDbCircle
 10
14.6481109685
 20
59.2081218653
 30
0.0
 40
0.25
100
AcDbArc
 50
180.0
 51
270.0
  0
DIMENSION
  5
73E
330
1F
100
AcDbEntity
  8
0
  6
Continuous
100
AcDbDimension
  2
*D2
 10
51.01650943400001
 20
58.97312186529998
 30
0.0
 11
51.016509434
 21
69.3553415204
 31
0.0
 70
   160
 71
     5
 42
20.23500000000001
  3
DIMSTYLE_1
100
AcDbAlignedDimension
 13
44.46061096850001
 23
79.2081218653
 33
0.0
 14
44.67332903169999
 24
58.97312186529999
 34
0.0
 50
270.0
100
AcDbRotatedDimension
1001
ACAD
1000
DSTYLE
1002
{
1070
     3
1000
\X
1070
   147
1040
1.0
1070
   170
1070
     1
1070
   171
1070
     1
1002
}
  0
DIMENSION
  5
73F
330
1F
100
AcDbEntity
  8
0
  6
Continuous
100
AcDbDimension
  2
*D3
 10
44.3981109685
 20
46.8061999377
 30
0.0
 11
28.7665055402
 21
46.8061999377
 31
0.0
 70
   160
 71
     5
 42
30.0
  3
DIMSTYLE_1
100
AcDbAlignedDimension
 13
14.39811096849999
 23
42.30221124909999
 33
0.0
 14
44.3981109685
 24
42.23627820069999
 34
0.0
100
AcDbRotatedDimension
1001
ACAD
1000
DSTYLE
1002
{
1070
     3
1000
\X
1070
   147
1040
1.0
1070
   170
1070
     1
1070
   171
1070
     1
1002
}
  0
DIMENSION
  5
741
330
1F
100
AcDbEntity
  8
0
  6
Continuous
100
AcDbDimension
  2
*D5
 10
86.3836167005
 20
44.6294348481
 30
0.0
 11
90.8604984169
 21
44.6294348481
 31
0.0
 70
   160
 71
     5
 42
5.129999999999995
  3
DIMSTYLE_1
100
AcDbAlignedDimension
 13
81.25361670050001
 23
41.3022112491
 33
0.0
 14
86.3836167005
 24
41.3022112491
 34
0.0
100
AcDbRotatedDimension
1001
ACAD
1000
DSTYLE
1002
{
1070
     3
1000
\X
1070
   147
1040
1.0
1070
   170
1070
     1
1070
   171
1070
     1
1002
}
  0
DIMENSION
  5
742
330
1F
100
AcDbEntity
  8
0
  6
Continuous
100
AcDbDimension
  2
*D6
 10
94.17201228200001
 20
23.60971124909999
 30
0.0
 11
94.17201228200001
 21
28.5549823113
 31
0.0
 70
   160
 71
     5
 42
10.45
  3
DIMSTYLE_1
100
AcDbAlignedDimension
 13
86.4461167005
 23
34.05971124909999
 33
0.0
 14
87.57111670049999
 24
23.60971124909999
 34
0.0
 50
270.0
100
AcDbRotatedDimension
1001
ACAD
1000
DSTYLE
1002
{
1070
     3
1000
\X
1070
   147
1040
1.0
1070
   170
1070
     1
1070
   171
1070
     1
1002
}
  0
DIMENSION
  5
743
330
1F
100
AcDbEntity
  8
0
  6
Continuous
100
AcDbDimension
  2
*D7
 10
50.6947116757
 20
23.60971124909999
 30
0.0
 11
50.6947116757
 21
34.14646495639999
 31
0.0
 70
   160
 71
     5
 42
18.62999999999999
  3
DIMSTYLE_1
100
AcDbAlignedDimension
 13
44.46061096850001
 23
42.2397112491
 33
0.0
 14
43.3356109685
 24
23.60971124909999
 34
0.0
 50
270.0
100
AcDbRotatedDimension
1001
ACAD
1000
DSTYLE
1002
{
1070
     3
1000
\X
1070
   147
1040
1.0
1070
   170
1070
     1
1070
   171
1070
     1
1002
}
  0
DIMENSION
  5
744
330
1F
100
AcDbEntity
  8
0
  6
Continuous
100
AcDbDimension
  2
*D8
 10
45.38126376436667
 20
42.55371124909999
 30
0.0
 11
48.62084709770001
 21
44.5292906474
 31
0.0
 70
   160
 71
     5
 42
0.3140000000000001
  3
DIMSTYLE_1
100
AcDbAlignedDimension
 13
44.46061096850001
 23
42.2397112491
 33
0.0
 14
38.96011096849999
 24
42.55371124909999
 34
0.0
 50
90.0
100
AcDbRotatedDimension
1001
ACAD
1000
DSTYLE
1002
{
1070
     3
1000
\X
1070
   147
1040
1.0
1070
   170
1070
     1
1070
   171
1070
     1
1002
}
  0
DIMENSION
  5
746
330
1F
100
AcDbEntity
  8
0
  6
Continuous
100
AcDbDimension
  2
*D10
 10
81.25361670050001
 20
47.95850129539999
 30
0.0
 11
76.09886032760001
 21
47.95850129539999
 31
0.0
 70
   160
 71
     5
 42
11.12
  3
DIMSTYLE_1
100
AcDbAlignedDimension
 13
70.1336167005
 23
41.8022112491
 33
0.0
 14
81.25361670050001
 24
41.3022112491
 34
0.0
100
AcDbRotatedDimension
1001
ACAD
1000
DSTYLE
1002
{
1070
     3
1000
\X
1070
   147
1040
1.0
1070
   170
1070
     1
1070
   171
1070
     1
1002
}
  0
LINE
  5
747
330
1F
100
AcDbEntity
  8
0
  6
Continuous
100
AcDbLine
 10
106.7858490566
 20
83.41922169810001
 30
0.0
 11
71.06084905659999
 21
83.41922169810001
 31
0.0
  0
LINE
  5
748
330
1F
100
AcDbEntity
  8
0
  6
Continuous
100
AcDbLine
 10
106.7358490566
 20
83.41922169810001
 30
0.0
 11
106.7358490566
 21
77.16922169810001
 31
0.0
  0
LINE
  5
749
330
1F
100
AcDbEntity
  8
0
  6
Continuous
100
AcDbLine
 10
106.7358490566
 20
82.16922169810001
 30
0.0
 11
71.1108490566
 21
82.16922169810001
 31
0.0
  0
LINE
  5
74A
330
1F
100
AcDbEntity
  8
0
  6
Continuous
100
AcDbLine
 10
106.7358490566
 20
80.91922169810001
 30
0.0
 11
71.1108490566
 21
80.91922169810001
 31
0.0
  0
LINE
  5
74B
330
1F
100
AcDbEntity
  8
0
  6
Continuous
100
AcDbLine
 10
106.7358490566
 20
79.66922169810001
 30
0.0
 11
71.1108490566
 21
79.66922169810001
 31
0.0
  0
LINE
  5
74C
330
1F
100
AcDbEntity
  8
0
  6
Continuous
100
AcDbLine
 10
106.7358490566
 20
78.41922169810001
 30
0.0
 11
71.1108490566
 21
78.41922169810001
 31
0.0
  0
LINE
  5
74D
330
1F
100
AcDbEntity
  8
0
  6
Continuous
100
AcDbLine
 10
106.7858490566
 20
77.16922169810001
 30
0.0
 11
71.06084905659999
 21
77.16922169810001
 31
0.0
  0
LINE
  5
74E
330
1F
100
AcDbEntity
  8
0
  6
Continuous
100
AcDbLine
 10
101.1108490565999
 20
82.16922169810001
 30
0.0
 11
101.1108490565999
 21
77.16922169810001
 31
0.0
  0
LINE
  5
74F
330
1F
100
AcDbEntity
  8
0
  6
Continuous
100
AcDbLine
 10
98.6108490566
 20
82.16922169810001
 30
0.0
 11
98.6108490566
 21
77.16922169810001
 31
0.0
  0
LINE
  5
750
330
1F
100
AcDbEntity
  8
0
  6
Continuous
100
AcDbLine
 10
93.6108490566
 20
82.16922169810001
 30
0.0
 11
93.6108490566
 21
77.16922169810001
 31
0.0
  0
LINE
  5
751
330
1F
100
AcDbEntity
  8
0
  6
Continuous
100
AcDbLine
 10
73.6108490566
 20
82.16922169810001
 30
0.0
 11
73.6108490566
 21
77.16922169810001
 31
0.0
  0
LINE
  5
752
330
1F
100
AcDbEntity
  8
0
  6
Continuous
100
AcDbLine
 10
71.1108490566
 20
83.41922169810001
 30
0.0
 11
71.1108490566
 21
77.16922169810001
 31
0.0
  0
TEXT
  5
753
330
1F
100
AcDbEntity
  8
0
  6
Continuous
100
AcDbText
 10
86.84001572326668
 20
82.48172169810001
 30
0.0
 40
0.625
  1
REVISIONS
 41
0.8
 72
     1
 11
88.9233490566
 21
82.48172169810001
 31
0.0
100
AcDbText
  0
TEXT
  5
754
330
1F
100
AcDbEntity
  8
0
  6
Continuous
100
AcDbText
 10
101.4858490566
 20
81.23172169810001
 30
0.0
 40
0.625
  1
APPROVED DATE
 41
0.6
 72
     1
 11
103.9233490566
 21
81.23172169810001
 31
0.0
100
AcDbText
  0
TEXT
  5
755
330
1F
100
AcDbEntity
  8
0
  6
Continuous
100
AcDbText
 10
99.36084905660001
 20
81.23172169810001
 30
0.0
 40
0.625
  1
CHK
 41
0.6
 72
     1
 11
99.8608490566
 21
81.23172169810001
 31
0.0
100
AcDbText
  0
TEXT
  5
756
330
1F
100
AcDbEntity
  8
0
  6
Continuous
100
AcDbText
 10
94.67334905660001
 20
81.23172169810001
 30
0.0
 40
0.625
  1
EFF DATE
 41
0.6
 72
     1
 11
96.1108490566
 21
81.23172169810001
 31
0.0
100
AcDbText
  0
TEXT
  5
757
330
1F
100
AcDbEntity
  8
0
  6
Continuous
100
AcDbText
 10
81.7358490566
 20
81.23172169810001
 30
0.0
 40
0.625
  1
DESCRIPTION
 41
0.6
 72
     1
 11
83.6108490566
 21
81.23172169810001
 31
0.0
100
AcDbText
  0
TEXT
  5
758
330
1F
100
AcDbEntity
  8
0
  6
Continuous
100
AcDbText
 10
71.7983490566
 20
81.23172169810001
 30
0.0
 40
0.625
  1
REV
 41
0.6
 72
     1
 11
72.3608490566
 21
81.23172169810001
 31
0.0
100
AcDbText
  0
TEXT
  5
759
330
1F
100
AcDbEntity
  8
0
  6
Continuous
100
AcDbText
 10
103.1941823899333
 20
79.90359669810001
 30
0.0
 40
0.78125
  1
B.H.
 41
0.8
 72
     1
 11
103.9233490566
 21
79.90359669810001
 31
0.0
100
AcDbText
  0
TEXT
  5
75A
330
1F
100
AcDbEntity
  8
0
  6
Continuous
100
AcDbText
 10
93.81918238993334
 20
79.90359669810001
 30
0.0
 40
0.78125
  1
09-22-06
 41
0.8
 72
     1
 11
96.1108490566
 21
79.90359669810001
 31
0.0
100
AcDbText
  0
TEXT
  5
75B
330
1F
100
AcDbEntity
  8
0
  6
Continuous
100
AcDbText
 10
73.9233490566
 20
79.90359669810001
 30
0.0
 40
0.78125
  1
RELEASE PER ECO 7444 JD
 41
0.8
100
AcDbText
  0
TEXT
  5
75C
330
1F
100
AcDbEntity
  8
0
  6
Continuous
100
AcDbText
 10
72.15251572326668
 20
79.90359669810001
 30
0.0
 40
0.78125
  1
A
 41
0.8
 72
     1
 11
72.3608490566
 21
79.90359669810001
 31
0.0
100
AcDbText
  0
LINE
  5
75D
330
1F
100
AcDbEntity
  8
DRW_FORMAT
  6
Continuous
100
AcDbLine
 10
106.8063931601999
 20
1.600452834599999
 30
0.0
 11
57.9916872779
 21
1.600452834599999
 31
0.0
  0
LINE
  5
75E
330
1F
100
AcDbEntity
  8
DRW_FORMAT
  6
Continuous
100
AcDbLine
 10
106.7740402190999
 20
1.600452834599999
 30
0.0
 11
106.7740402190999
 21
14.4129528346
 31
0.0
  0
LINE
  5
75F
330
1F
100
AcDbEntity
  8
DRW_FORMAT
  6
Continuous
100
AcDbLine
 10
106.7740402190999
 20
2.8504528346
 30
0.0
 11
58.0240402191
 21
2.8504528346
 31
0.0
  0
LINE
  5
760
330
1F
100
AcDbEntity
  8
DRW_FORMAT
  6
Continuous
100
AcDbLine
 10
81.7740402191
 20
4.725452834599999
 30
0.0
 11
69.2740402191
 21
4.725452834599999
 31
0.0
  0
LINE
  5
761
330
1F
100
AcDbEntity
  8
DRW_FORMAT
  6
Continuous
100
AcDbLine
 10
106.7740402190999
 20
5.350452834599999
 30
0.0
 11
81.7740402191
 21
5.350452834599999
 31
0.0
  0
LINE
  5
762
330
1F
100
AcDbEntity
  8
DRW_FORMAT
  6
Continuous
100
AcDbLine
 10
69.2740402191
 20
5.350452834599999
 30
0.0
 11
58.0240402191
 21
5.350452834599999
 31
0.0
  0
LINE
  5
763
330
1F
100
AcDbEntity
  8
DRW_FORMAT
  6
Continuous
100
AcDbLine
 10
81.7740402191
 20
6.6004528346
 30
0.0
 11
69.2740402191
 21
6.6004528346
 31
0.0
  0
LINE
  5
764
330
1F
100
AcDbEntity
  8
DRW_FORMAT
  6
Continuous
100
AcDbLine
 10
69.2740402191
 20
7.8504528346
 30
0.0
 11
58.0240402191
 21
7.8504528346
 31
0.0
  0
LINE
  5
765
330
1F
100
AcDbEntity
  8
DRW_FORMAT
  6
Continuous
100
AcDbLine
 10
81.7740402191
 20
8.4754528346
 30
0.0
 11
69.2740402191
 21
8.4754528346
 31
0.0
  0
LINE
  5
766
330
1F
100
AcDbEntity
  8
DRW_FORMAT
  6
Continuous
100
AcDbLine
 10
81.7740402191
 20
10.3504528346
 30
0.0
 11
69.2740402191
 21
10.3504528346
 31
0.0
  0
LINE
  5
767
330
1F
100
AcDbEntity
  8
DRW_FORMAT
  6
Continuous
100
AcDbLine
 10
106.7740402190999
 20
10.9754528346
 30
0.0
 11
81.7740402191
 21
10.9754528346
 31
0.0
  0
LINE
  5
768
330
1F
100
AcDbEntity
  8
DRW_FORMAT
  6
Continuous
100
AcDbLine
 10
81.7740402191
 20
11.9129528346
 30
0.0
 11
69.2740402191
 21
11.9129528346
 31
0.0
  0
LINE
  5
769
330
1F
100
AcDbEntity
  8
DRW_FORMAT
  6
Continuous
100
AcDbLine
 10
106.8063931601999
 20
14.4129528346
 30
0.0
 11
57.9916872779
 21
14.4129528346
 31
0.0
  0
LINE
  5
76A
330
1F
100
AcDbEntity
  8
DRW_FORMAT
  6
Continuous
100
AcDbLine
 10
104.2740402191
 20
2.8504528346
 30
0.0
 11
104.2740402191
 21
5.350452834599999
 31
0.0
  0
LINE
  5
76B
330
1F
100
AcDbEntity
  8
DRW_FORMAT
  6
Continuous
100
AcDbLine
 10
99.8990402191
 20
1.600452834599999
 30
0.0
 11
99.8990402191
 21
2.8504528346
 31
0.0
  0
LINE
  5
76C
330
1F
100
AcDbEntity
  8
DRW_FORMAT
  6
Continuous
100
AcDbLine
 10
89.2740402191
 20
2.8504528346
 30
0.0
 11
89.2740402191
 21
5.350452834599999
 31
0.0
  0
LINE
  5
76D
330
1F
100
AcDbEntity
  8
DRW_FORMAT
  6
Continuous
100
AcDbLine
 10
86.7740402191
 20
1.600452834599999
 30
0.0
 11
86.7740402191
 21
2.8504528346
 31
0.0
  0
LINE
  5
76E
330
1F
100
AcDbEntity
  8
DRW_FORMAT
  6
Continuous
100
AcDbLine
 10
84.2740402191
 20
2.8504528346
 30
0.0
 11
84.2740402191
 21
5.350452834599999
 31
0.0
  0
LINE
  5
76F
330
1F
100
AcDbEntity
  8
DRW_FORMAT
  6
Continuous
100
AcDbLine
 10
81.7740402191
 20
1.600452834599999
 30
0.0
 11
81.7740402191
 21
14.4129528346
 31
0.0
  0
LINE
  5
770
330
1F
100
AcDbEntity
  8
DRW_FORMAT
  6
Continuous
100
AcDbLine
 10
78.0240402191
 20
2.8504528346
 30
0.0
 11
78.0240402191
 21
11.9129528346
 31
0.0
  0
LINE
  5
771
330
1F
100
AcDbEntity
  8
DRW_FORMAT
  6
Continuous
100
AcDbLine
 10
69.2740402191
 20
1.600452834599999
 30
0.0
 11
69.2740402191
 21
14.4129528346
 31
0.0
  0
LINE
  5
772
330
1F
100
AcDbEntity
  8
DRW_FORMAT
  6
Continuous
100
AcDbLine
 10
58.0240402191
 20
1.600452834599999
 30
0.0
 11
58.0240402191
 21
14.4129528346
 31
0.0
  0
MTEXT
  5
773
330
1F
100
AcDbEntity
  8
DRW_FORMAT
  6
Continuous
100
AcDbMText
 10
104.2740402191
 20
2.537952834599999
 30
0.0
 40
0.625
 41
3.0
 71
     2
 72
     1
  1
1 of 1
 73
     1
 44
1.0
  0
MTEXT
  5
774
330
1F
100
AcDbEntity
  8
DRW_FORMAT
  6
Continuous
100
AcDbMText
 10
93.3365402191
 20
2.475452834599999
 30
0.0
 40
0.5
 41
6.799999999999999
 71
     2
 72
     1
  1
RD-000404-01.A.2+
 73
     1
 44
1.0
  0
TEXT
  5
775
330
1F
100
AcDbEntity
  8
DRW_FORMAT
  6
Continuous
100
AcDbText
 10
84.71154021910001
 20
1.9129528346
 30
0.0
 40
0.625
  1
0.200
 41
0.8
 72
     2
 11
86.4615402191
 21
1.9129528346
 31
0.0
100
AcDbText
  0
MTEXT
  5
776
330
1F
100
AcDbEntity
  8
DRW_FORMAT
  6
Continuous
100
AcDbMText
 10
75.5240402191
 20
2.475452834599999
 30
0.0
 40
0.5
 41
8.4
 71
     2
 72
     1
  1
WP-041150-00.main.1.3
 73
     1
 44
1.0
  0
TEXT
  5
777
330
1F
100
AcDbEntity
  8
DRW_FORMAT
  6
Continuous
100
AcDbText
 10
58.73237355243333
 20
1.9129528346
 30
0.0
 40
0.625
  1
DO NOT SCALE DRAWING
 41
0.8
 72
     1
 11
63.6490402191
 21
1.9129528346
 31
0.0
100
AcDbText
  0
TEXT
  5
778
330
1F
100
AcDbEntity
  8
DRW_FORMAT
  6
Continuous
100
AcDbText
 10
100.2115402190999
 20
2.312952834599999
 30
0.0
 40
0.45
  1
SHEET
 41
0.8
100
AcDbText
  0
TEXT
  5
779
330
1F
100
AcDbEntity
  8
DRW_FORMAT
  6
Continuous
100
AcDbText
 10
82.0865402191
 20
2.312952834599999
 30
0.0
 40
0.45
  1
SCALE
 41
0.8
100
AcDbText
  0
TEXT
  5
77A
330
1F
100
AcDbEntity
  8
DRW_FORMAT
  6
Continuous
100
AcDbText
 10
105.3157068857666
 20
3.397327834599999
 30
0.0
 40
0.78125
  1
A
 41
0.8
 72
     1
 11
105.5240402191
 21
3.397327834599999
 31
0.0
100
AcDbText
  0
TEXT
  5
77B
330
1F
100
AcDbEntity
  8
DRW_FORMAT
  6
Continuous
100
AcDbText
 10
93.4927902191
 20
3.397327834599999
 30
0.0
 40
0.78125
  1
RD-000404-01
 41
0.8
 72
     1
 11
96.7740402191
 21
3.397327834599999
 31
0.0
100
AcDbText
  0
TEXT
  5
77C
330
1F
100
AcDbEntity
  8
DRW_FORMAT
  6
Continuous
100
AcDbText
 10
85.22820688576667
 20
3.241077834599999
 30
0.0
 40
1.0
  1
00PW4
 41
0.8
 72
     2
 11
88.9615402191
 21
3.241077834599999
 31
0.0
100
AcDbText
  0
TEXT
  5
77D
330
1F
100
AcDbEntity
  8
DRW_FORMAT
  6
Continuous
100
AcDbText
 10
82.75737355243334
 20
3.287952834599999
 30
0.0
 40
1.0
  1
C
 41
0.8
 72
     1
 11
83.0240402191
 21
3.287952834599999
 31
0.0
100
AcDbText
  0
MTEXT
  5
77E
330
1F
100
AcDbEntity
  8
DRW_FORMAT
  6
Continuous
100
AcDbMText
 10
79.8990402191
 20
4.100452834599999
 30
0.0
 40
0.625
 41
3.75
 71
     2
 72
     1
  1
19-Sep-06 
  7
TEXTSTYLE_1
 73
     1
 44
1.0
  0
TEXT
  5
77F
330
1F
100
AcDbEntity
  8
DRW_FORMAT
  6
Continuous
100
AcDbText
 10
71.1490402191
 20
3.084827834599999
 30
0.0
 40
0.78125
  1
D. DELARM
 41
0.8
 72
     1
 11
73.6490402191
 21
3.084827834599999
 31
0.0
100
AcDbText
  0
TEXT
  5
780
330
1F
100
AcDbEntity
  8
DRW_FORMAT
  6
Continuous
100
AcDbText
 10
62.50320688576667
 20
3.397327834599999
 30
0.0
 40
0.78125
  1
NONE
 41
0.8
 72
     1
 11
63.6490402191
 21
3.397327834599999
 31
0.0
100
AcDbText
  0
TEXT
  5
781
330
1F
100
AcDbEntity
  8
DRW_FORMAT
  6
Continuous
100
AcDbText
 10
69.5865402191
 20
4.187952834599999
 30
0.0
 40
0.45
  1
ISSUED
 41
0.8
100
AcDbText
  0
TEXT
  5
782
330
1F
100
AcDbEntity
  8
DRW_FORMAT
  6
Continuous
100
AcDbText
 10
104.9840402190999
 20
4.812952834599999
 30
0.0
 40
0.45
  1
REV
 41
0.8
 72
     1
 11
105.5240402191
 21
4.812952834599999
 31
0.0
100
AcDbText
  0
TEXT
  5
783
330
1F
100
AcDbEntity
  8
DRW_FORMAT
  6
Continuous
100
AcDbText
 10
89.5865402191
 20
4.812952834599999
 30
0.0
 40
0.45
  1
DWG NO.
 41
0.8
100
AcDbText
  0
TEXT
  5
784
330
1F
100
AcDbEntity
  8
DRW_FORMAT
  6
Continuous
100
AcDbText
 10
84.5865402191
 20
4.812952834599999
 30
0.0
 40
0.45
  1
CAGE CODE
 41
0.8
100
AcDbText
  0
TEXT
  5
785
330
1F
100
AcDbEntity
  8
DRW_FORMAT
  6
Continuous
100
AcDbText
 10
82.42404021910001
 20
4.812952834599999
 30
0.0
 40
0.45
  1
SIZE
 41
0.8
 72
     1
 11
83.0240402191
 21
4.812952834599999
 31
0.0
100
AcDbText
  0
MTEXT
  5
786
330
1F
100
AcDbEntity
  8
DRW_FORMAT
  6
Continuous
100
AcDbMText
 10
79.8990402191
 20
5.9754528346
 30
0.0
 40
0.625
 41
3.75
 71
     2
 72
     1
  1
19-Sep-06 
  7
TEXTSTYLE_1
 73
     1
 44
1.0
  0
TEXT
  5
787
330
1F
100
AcDbEntity
  8
DRW_FORMAT
  6
Continuous
100
AcDbText
 10
71.25320688576668
 20
4.959827834599999
 30
0.0
 40
0.78125
  1
A. RUTKIN
 41
0.8
 72
     1
 11
73.6490402191
 21
4.959827834599999
 31
0.0
100
AcDbText
  0
TEXT
  5
788
330
1F
100
AcDbEntity
  8
DRW_FORMAT
  6
Continuous
100
AcDbText
 10
58.3365402191
 20
4.509827834599999
 30
0.0
 40
0.45
  1
FINISH
 41
0.8
100
AcDbText
  0
MTEXT
  5
789
330
1F
100
AcDbEntity
  8
DRW_FORMAT
  6
Continuous
100
AcDbMText
 10
94.2740402191
 20
10.1629528346
 30
0.0
 40
1.0
 41
14.4
 71
     2
 72
     1
  1
SPEAKER, FINISHED,\PLF-3115, LF-4115\P 
 73
     1
 44
1.0
  0
TEXT
  5
78A
330
1F
100
AcDbEntity
  8
DRW_FORMAT
  6
Continuous
100
AcDbText
 10
62.50320688576667
 20
5.8973278346
 30
0.0
 40
0.78125
  1
NONE
 41
0.8
 72
     1
 11
63.6490402191
 21
5.8973278346
 31
0.0
100
AcDbText
  0
TEXT
  5
78B
330
1F
100
AcDbEntity
  8
DRW_FORMAT
  6
Continuous
100
AcDbText
 10
69.5865402191
 20
6.0629528346
 30
0.0
 40
0.45
  1
MFG ENG
 41
0.8
100
AcDbText
  0
TEXT
  5
78C
330
1F
100
AcDbEntity
  8
DRW_FORMAT
  6
Continuous
100
AcDbText
 10
78.3677902191
 20
7.2254528346
 30
0.0
 40
0.625
  1
19-Sep-06
 41
0.6
 72
     1
 11
79.8990402191
 21
7.2254528346
 31
0.0
100
AcDbText
  0
TEXT
  5
78D
330
1F
100
AcDbEntity
  8
DRW_FORMAT
  6
Continuous
100
AcDbText
 10
70.8365402191
 20
6.8348278346
 30
0.0
 40
0.78125
  1
B. HAWKINS
 41
0.8
 72
     1
 11
73.6490402191
 21
6.8348278346
 31
0.0
100
AcDbText
  0
TEXT
  5
78E
330
1F
100
AcDbEntity
  8
DRW_FORMAT
  6
Continuous
100
AcDbText
 10
58.3365402191
 20
7.0098278346
 30
0.0
 40
0.45
  1
MATERIAL
 41
0.8
100
AcDbText
  0
TEXT
  5
78F
330
1F
100
AcDbEntity
  8
DRW_FORMAT
  6
Continuous
100
AcDbText
 10
69.5865402191
 20
7.9379528346
 30
0.0
 40
0.45
  1
CHECKED
 41
0.8
100
AcDbText
  0
TEXT
  5
790
330
1F
100
AcDbEntity
  8
DRW_FORMAT
  6
Continuous
100
AcDbText
 10
59.80904021909999
 20
8.2410778346
 30
0.0
 40
0.45
  1
DEBURR EDGES .010 R MAX
 41
0.8
 72
     1
 11
63.6490402191
 21
8.2410778346
 31
0.0
100
AcDbText
  0
TEXT
  5
791
330
1F
100
AcDbEntity
  8
DRW_FORMAT
  6
Continuous
100
AcDbText
 10
78.3677902191
 20
9.1004528346
 30
0.0
 40
0.625
  1
19-Sep-06
 41
0.6
 72
     1
 11
79.8990402191
 21
9.1004528346
 31
0.0
100
AcDbText
  0
TEXT
  5
792
330
1F
100
AcDbEntity
  8
DRW_FORMAT
  6
Continuous
100
AcDbText
 10
71.1490402191
 20
8.7098278346
 30
0.0
 40
0.78125
  1
J. DELARM
 41
0.8
 72
     1
 11
73.6490402191
 21
8.7098278346
 31
0.0
100
AcDbText
  0
TEXT
  5
793
330
1F
100
AcDbEntity
  8
DRW_FORMAT
  6
Continuous
100
AcDbText
 10
66.730290219075
 20
9.4910778346
 30
0.0
 40
0.45
  1
%%p1/2
 41
0.8916666667000001
 72
     1
 11
67.3990402191
 21
9.4910778346
 31
0.0
100
AcDbText
  0
TEXT
  5
794
330
1F
100
AcDbEntity
  8
DRW_FORMAT
  6
Continuous
100
AcDbText
 10
61.8865402191
 20
9.4910778346
 30
0.0
 40
0.45
  1
.XXX 
 41
0.8
 72
     1
 11
62.66654021909999
 21
9.4910778346
 31
0.0
100
AcDbText
  0
TEXT
  5
795
330
1F
100
AcDbEntity
  8
DRW_FORMAT
  6
Continuous
100
AcDbText
 10
63.894040219125
 20
9.4910778346
 30
0.0
 40
0.45
  1
%%p.010
 41
0.8733333332999999
 72
     1
 11
64.5490402191
 21
9.4910778346
 31
0.0
100
AcDbText
  0
TEXT
  5
796
330
1F
100
AcDbEntity
  8
DRW_FORMAT
  6
Continuous
100
AcDbText
 10
58.4965402191
 20
9.4910778346
 30
0.0
 40
0.45
  1
.XX 
 41
0.8
 72
     1
 11
59.0965402191
 21
9.4910778346
 31
0.0
100
AcDbText
  0
TEXT
  5
797
330
1F
100
AcDbEntity
  8
DRW_FORMAT
  6
Continuous
100
AcDbText
 10
60.05060271907876
 20
9.4910778346
 30
0.0
 40
0.45
  1
%%p.02
 41
0.8916666667000001
 72
     1
 11
60.6190402191
 21
9.4910778346
 31
0.0
100
AcDbText
  0
TEXT
  5
798
330
1F
100
AcDbEntity
  8
DRW_FORMAT
  6
Continuous
100
AcDbText
 10
69.5865402191
 20
9.8129528346
 30
0.0
 40
0.45
  1
DRAWN
 41
0.8
100
AcDbText
  0
TEXT
  5
799
330
1F
100
AcDbEntity
  8
DRW_FORMAT
  6
Continuous
100
AcDbText
 10
79.23904021910001
 20
10.9067028346
 30
0.0
 40
0.45
  1
DATE
 41
0.8
 72
     1
 11
79.8990402191
 21
10.9067028346
 31
0.0
100
AcDbText
  0
TEXT
  5
79A
330
1F
100
AcDbEntity
  8
DRW_FORMAT
  6
Continuous
100
AcDbText
 10
72.0290402191
 20
10.9067028346
 30
0.0
 40
0.45
  1
APPROVALS
 41
0.8
 72
     1
 11
73.6490402191
 21
10.9067028346
 31
0.0
100
AcDbText
  0
TEXT
  5
79B
330
1F
100
AcDbEntity
  8
DRW_FORMAT
  6
Continuous
100
AcDbText
 10
66.3790402191
 20
10.4379528346
 30
0.0
 40
0.45
  1
ANGLES
 41
0.8
 72
     1
 11
67.3990402191
 21
10.4379528346
 31
0.0
100
AcDbText
  0
TEXT
  5
79C
330
1F
100
AcDbEntity
  8
DRW_FORMAT
  6
Continuous
100
AcDbText
 10
62.3290402191
 20
10.4379528346
 30
0.0
 40
0.45
  1
DECIMALS
 41
0.8
 72
     1
 11
63.6490402191
 21
10.4379528346
 31
0.0
100
AcDbText
  0
TEXT
  5
79D
330
1F
100
AcDbEntity
  8
DRW_FORMAT
  6
Continuous
100
AcDbText
 10
58.5790402191
 20
10.4379528346
 30
0.0
 40
0.45
  1
DECIMALS
 41
0.8
 72
     1
 11
59.8990402191
 21
10.4379528346
 31
0.0
100
AcDbText
  0
TEXT
  5
79E
330
1F
100
AcDbEntity
  8
DRW_FORMAT
  6
Continuous
100
AcDbText
 10
90.8365402191
 20
11.3660778346
 30
0.0
 40
0.625
  1
COSTA MESA, CA  92626
 41
0.8
100
AcDbText
  0
TEXT
  5
79F
330
1F
100
AcDbEntity
  8
DRW_FORMAT
  6
Continuous
100
AcDbText
 10
61.1290402191
 20
11.3660778346
 30
0.0
 40
0.45
  1
TOLERANCES ARE:
 41
0.8
 72
     1
 11
63.6490402191
 21
11.3660778346
 31
0.0
100
AcDbText
  0
TEXT
  5
7A0
330
1F
100
AcDbEntity
  8
DRW_FORMAT
  6
Continuous
100
AcDbText
 10
90.8365402191
 20
12.3035778346
 30
0.0
 40
0.625
  1
1675 MACARTHUR BOULEVARD
 41
0.8
100
AcDbText
  0
TEXT
  5
7A1
330
1F
100
AcDbEntity
  8
DRW_FORMAT
  6
Continuous
100
AcDbText
 10
90.8365402191
 20
13.2410778346
 30
0.0
 40
0.78125
  1
QSC AUDIO PRODUCTS, INC.
 41
0.8
100
AcDbText
  0
TEXT
  5
7A2
330
1F
100
AcDbEntity
  8
DRW_FORMAT
  6
Continuous
100
AcDbText
 10
69.5865402191
 20
13.8660778346
 30
0.0
 40
0.45
  1
CONTRACT NO.
 41
0.8
100
AcDbText
  0
MTEXT
  5
7A3
330
1F
100
AcDbEntity
  8
DRW_FORMAT
  6
Continuous
100
AcDbMText
 10
63.6490402191
 20
13.7098278346
 30
0.0
 40
0.45
 41
9.359999999999999
 71
     2
 72
     1
  1
UNLESS OTHERWISE SPECIFIED\PDIMENSIONS ARE IN INCHES.
 73
     1
 44
1.0
  0
LINE
  5
7A4
330
1F
100
AcDbEntity
  8
DRW_FORMAT
  6
Continuous
100
AcDbLine
 10
106.7637011245999
 20
32.9208337261
 30
0.0
 11
106.7637011245999
 21
14.1061278437
 31
0.0
  0
LINE
  5
7A5
330
1F
100
AcDbEntity
  8
DRW_FORMAT
  6
Continuous
100
AcDbLine
 10
106.7637011245999
 20
32.8884807849
 30
0.0
 11
108.6387011245999
 21
32.8884807849
 31
0.0
  0
LINE
  5
7A6
330
1F
100
AcDbEntity
  8
DRW_FORMAT
  6
Continuous
100
AcDbLine
 10
108.6387011245999
 20
32.9208337261
 30
0.0
 11
108.6387011245999
 21
14.1061278437
 31
0.0
  0
LINE
  5
7A7
330
1F
100
AcDbEntity
  8
DRW_FORMAT
  6
Continuous
100
AcDbLine
 10
106.7637011245999
 20
19.1384807849
 30
0.0
 11
108.6387011245999
 21
19.1384807849
 31
0.0
  0
LINE
  5
7A8
330
1F
100
AcDbEntity
  8
DRW_FORMAT
  6
Continuous
100
AcDbLine
 10
106.7637011245999
 20
16.6384807849
 30
0.0
 11
108.6387011245999
 21
16.6384807849
 31
0.0
  0
LINE
  5
7A9
330
1F
100
AcDbEntity
  8
DRW_FORMAT
  6
Continuous
100
AcDbLine
 10
106.7637011245999
 20
14.1384807849
 30
0.0
 11
108.6387011245999
 21
14.1384807849
 31
0.0
  0
TEXT
  5
7AA
330
1F
100
AcDbEntity
  8
DRW_FORMAT
  6
Continuous
100
AcDbText
 10
106.9387011245999
 20
29.7934807849
 30
0.0
 40
0.9
  1
RD-000404-01
 50
270.0
 41
0.8
 72
     1
 11
106.9387011245999
 21
26.0134807849
 31
0.0
100
AcDbText
  0
TEXT
  5
7AB
330
1F
100
AcDbEntity
  8
DRW_FORMAT
  6
Continuous
100
AcDbText
 10
107.0762011245999
 20
17.97181411823333
 30
0.0
 40
0.625
  1
1
 50
270.0
 41
0.8
 72
     1
 11
107.0762011245999
 21
17.8884807849
 31
0.0
100
AcDbText
  0
TEXT
  5
7AC
330
1F
100
AcDbEntity
  8
DRW_FORMAT
  6
Continuous
100
AcDbText
 10
106.9980761245999
 20
15.59681411823333
 30
0.0
 40
0.78125
  1
A
 50
270.0
 41
0.8
 72
     1
 11
106.9980761245999
 21
15.3884807849
 31
0.0
100
AcDbText
  0
TEXT
  5
7AD
330
1F
100
AcDbEntity
  8
DRW_FORMAT
  6
Continuous
100
AcDbText
 10
108.1012011245999
 20
32.5759807849
 30
0.0
 40
0.45
  1
DWG NO.
 50
270.0
 41
0.8
100
AcDbText
  0
TEXT
  5
7AE
330
1F
100
AcDbEntity
  8
DRW_FORMAT
  6
Continuous
100
AcDbText
 10
108.1012011245999
 20
18.1884807849
 30
0.0
 40
0.45
  1
SH
 50
270.0
 41
0.8
 72
     1
 11
108.1012011245999
 21
17.8884807849
 31
0.0
100
AcDbText
  0
TEXT
  5
7AF
330
1F
100
AcDbEntity
  8
DRW_FORMAT
  6
Continuous
100
AcDbText
 10
108.1012011245999
 20
15.9284807849
 30
0.0
 40
0.45
  1
REV
 50
270.0
 41
0.8
 72
     1
 11
108.1012011245999
 21
15.3884807849
 31
0.0
100
AcDbText
  0
TEXT
  5
7B0
330
1F
100
AcDbEntity
  8
0
  6
Continuous
100
AcDbText
 10
4.332547169799999
 20
6.0934551887
 30
0.0
 40
0.78125
  1
2. TOLERANCES (INCHES): .XX %%p .13, ANGLES: %%p 1%%d.
 41
0.8125
100
AcDbText
  0
TEXT
  5
7B1
330
1F
100
AcDbEntity
  8
0
  6
Continuous
100
AcDbText
 10
4.332547169799999
 20
4.9215801887
 30
0.0
 40
0.78125
  1
1. NET WEIGHT APPROX. 83 LBS (38 KG).
 41
0.8
100
AcDbText
  0
TEXT
  5
7B2
330
1F
100
AcDbEntity
  8
0
  6
Continuous
100
AcDbText
 10
4.332547169799999
 20
3.7497051887
 30
0.0
 40
0.78125
  1
NOTE: UNLESS OTHERWISE SPECIFIED
 41
0.8
100
AcDbText
  0
TEXT
  5
7B3
330
1F
100
AcDbEntity
  8
0
  6
Continuous
100
AcDbText
 10
76.79945513319999
 20
7.9030832245
 30
0.0
 40
0.45
  1
MKT
 41
0.8
100
AcDbText
  0
TEXT
  5
7B4
330
1F
100
AcDbEntity
  8
0
  6
Continuous
100
AcDbText
 10
27.5648584906
 20
54.3083726415
 30
0.0
 40
1.25
  1
TOP
 41
0.8
100
AcDbText
  0
TEXT
  5
7B5
330
1F
100
AcDbEntity
  8
0
  6
Continuous
100
AcDbText
 10
26.63089622639999
 20
18.3508254717
 30
0.0
 40
1.25
  1
FRONT
 41
0.8
100
AcDbText
  0
TEXT
  5
7B6
330
1F
100
AcDbEntity
  8
0
  6
Continuous
100
AcDbText
 10
78.69929245279999
 20
18.58431603769999
 30
0.0
 40
1.25
  1
RIGHT
 41
0.8
100
AcDbText
  0
TEXT
  5
874
330
1F
100
AcDbEntity
  8
0
  6
Continuous
100
AcDbText
 10
47.65908027890001
 20
20.5295728482
 30
0.0
 40
0.78125
  1
.75
 41
0.8
100
AcDbText
  0
TEXT
  5
875
330
1F
100
AcDbEntity
  8
0
  6
Continuous
100
AcDbText
 10
48.28408027890001
 20
19.3576978482
 30
0.0
 40
0.78125
  1
19,1
 41
0.8
100
AcDbText
  0
TEXT
  5
876
330
1F
100
AcDbEntity
  8
0
  6
Continuous
100
AcDbText
 10
47.65908027890001
 20
19.3576978482
 30
0.0
 40
0.78125
  1
[
 41
0.8
100
AcDbText
  0
TEXT
  5
877
330
1F
100
AcDbEntity
  8
0
  6
Continuous
100
AcDbText
 10
50.19670025522074
 20
19.3576978482
 30
0.0
 40
0.78125
  1
]
 41
0.8
100
AcDbText
  0
LINE
  5
878
330
1F
100
AcDbEntity
  8
0
  6
Continuous
100
AcDbLine
 10
43.3356109685
 20
23.60971124909999
 30
0.0
 11
47.03408027890001
 21
23.60971124909999
 31
0.0
  0
LINE
  5
879
330
1F
100
AcDbEntity
  8
0
  6
Continuous
100
AcDbLine
 10
44.46061096850001
 20
24.3597112491
 30
0.0
 11
47.03408027890001
 21
24.3597112491
 31
0.0
  0
LINE
  5
87A
330
1F
100
AcDbEntity
  8
0
  6
Continuous
100
AcDbLine
 10
46.40908027890001
 20
23.60971124909999
 30
0.0
 11
46.40908027890001
 21
20.9201978482
 31
0.0
  0
LINE
  5
87B
330
1F
100
AcDbEntity
  8
0
  6
Continuous
100
AcDbLine
 10
46.40908027890001
 20
20.9201978482
 30
0.0
 11
47.26845527890001
 21
20.9201978482
 31
0.0
  0
LINE
  5
87C
330
1F
100
AcDbEntity
  8
0
  6
Continuous
100
AcDbLine
 10
46.40908027890001
 20
24.3597112491
 30
0.0
 11
46.40908027890001
 21
26.8597112491
 31
0.0
  0
INSERT
  5
87D
330
1F
100
AcDbEntity
  8
0
  6
Continuous
100
AcDbBlockReference
  2
_CLOSED
 10
46.40908027890001
 20
23.60971124909999
 30
0.0
 41
0.9375
 42
0.9375
 43
0.9375
 50
90.0
  0
INSERT
  5
87E
330
1F
100
AcDbEntity
  8
0
  6
Continuous
100
AcDbBlockReference
  2
_CLOSED
 10
46.40908027890001
 20
24.3597112491
 30
0.0
 41
0.9375
 42
0.9375
 43
0.9375
 50
270.0
  0
TEXT
  5
87F
330
1F
100
AcDbEntity
  8
0
  6
Continuous
100
AcDbText
 10
91.9656755073
 20
37.8818184852
 30
0.0
 40
0.78125
  1
7.18
 41
0.8
100
AcDbText
  0
TEXT
  5
880
330
1F
100
AcDbEntity
  8
0
  6
Continuous
100
AcDbText
 10
92.5906755073
 20
36.7099434852
 30
0.0
 40
0.78125
  1
182,4
 41
0.8
100
AcDbText
  0
TEXT
  5
881
330
1F
100
AcDbEntity
  8
0
  6
Continuous
100
AcDbText
 10
91.9656755073
 20
36.7099434852
 30
0.0
 40
0.78125
  1
[
 41
0.8
100
AcDbText
  0
TEXT
  5
882
330
1F
100
AcDbEntity
  8
0
  6
Continuous
100
AcDbText
 10
95.28084170610538
 20
36.71814445526996
 30
0.0
 40
0.78125
  1
]
 41
0.8
100
AcDbText
  0
LINE
  5
883
330
1F
100
AcDbEntity
  8
0
  6
Continuous
100
AcDbLine
 10
86.4461167005
 20
41.23971124909999
 30
0.0
 11
94.7781755073
 21
41.23971124909999
 31
0.0
  0
LINE
  5
884
330
1F
100
AcDbEntity
  8
0
  6
Continuous
100
AcDbLine
 10
86.4461167005
 20
34.05971124909999
 30
0.0
 11
94.7781755073
 21
34.05971124909999
 31
0.0
  0
LINE
  5
885
330
1F
100
AcDbEntity
  8
0
  6
Continuous
100
AcDbLine
 10
94.1531755073
 20
41.23971124909999
 30
0.0
 11
94.1531755073
 21
39.0536934852
 31
0.0
  0
LINE
  5
886
330
1F
100
AcDbEntity
  8
0
  6
Continuous
100
AcDbLine
 10
94.1531755073
 20
34.05971124909999
 30
0.0
 11
94.1531755073
 21
36.3193184852
 31
0.0
  0
INSERT
  5
887
330
1F
100
AcDbEntity
  8
0
  6
Continuous
100
AcDbBlockReference
  2
_CLOSED
 10
94.1531755073
 20
41.23971124909999
 30
0.0
 41
0.9375
 42
0.9375
 43
0.9375
 50
90.0
  0
INSERT
  5
888
330
1F
100
AcDbEntity
  8
0
  6
Continuous
100
AcDbBlockReference
  2
_CLOSED
 10
94.1531755073
 20
34.05971124909999
 30
0.0
 41
0.9375
 42
0.9375
 43
0.9375
 50
270.0
  0
ENDSEC
  0
SECTION
  2
OBJECTS
  0
DICTIONARY
  5
C
330
0
100
AcDbDictionary
281
     1
  3
ACAD_GROUP
350
D
  3
ACAD_LAYOUT
350
1A
  3
ACAD_MLINESTYLE
350
17
  3
ACAD_PLOTSETTINGS
350
19
  3
ACAD_PLOTSTYLENAME
350
E
  3
AcDbVariableDictionary
350
918
  0
DICTIONARY
  5
D
102
{ACAD_REACTORS
330
C
102
}
330
C
100
AcDbDictionary
281
     1
  0
DICTIONARY
  5
1A
102
{ACAD_REACTORS
330
C
102
}
330
C
100
AcDbDictionary
281
     1
  3
Layout1
350
1E
  3
Model
350
22
  0
DICTIONARY
  5
17
102
{ACAD_REACTORS
330
C
102
}
330
C
100
AcDbDictionary
281
     1
  3
Standard
350
18
  0
DICTIONARY
  5
19
102
{ACAD_REACTORS
330
C
102
}
330
C
100
AcDbDictionary
281
     1
  0
ACDBDICTIONARYWDFLT
  5
E
102
{ACAD_REACTORS
330
C
102
}
330
C
100
AcDbDictionary
281
     1
  3
Normal
350
F
100
AcDbDictionaryWithDefault
340
F
  0
DICTIONARY
  5
918
102
{ACAD_REACTORS
330
C
102
}
330
C
100
AcDbDictionary
281
     1
  3
DIMASSOC
350
919
  0
LAYOUT
  5
1E
102
{ACAD_REACTORS
330
1A
102
}
330
1A
100
AcDbPlotSettings
  1

  2

  4

  6

 40
0.0
 41
0.0
 42
0.0
 43
0.0
 44
0.0
 45
0.0
 46
0.0
 47
0.0
 48
0.0
 49
0.0
140
0.0
141
0.0
142
1.0
143
1.0
 70
     0
 72
     0
 73
     0
 74
     0
  7

 75
     0
147
1.0
148
0.0
149
0.0
100
AcDbLayout
  1
Layout1
 70
     1
 71
     1
 10
0.0
 20
0.0
 11
12.0
 21
9.0
 12
0.0
 22
0.0
 32
0.0
 14
1.000000000000000E+20
 24
1.000000000000000E+20
 34
1.000000000000000E+20
 15
-1.000000000000000E+20
 25
-1.000000000000000E+20
 35
-1.000000000000000E+20
146
0.0
 13
0.0
 23
0.0
 33
0.0
 16
1.0
 26
0.0
 36
0.0
 17
0.0
 27
1.0
 37
0.0
 76
     0
330
1B
  0
LAYOUT
  5
22
102
{ACAD_REACTORS
330
1A
102
}
330
1A
100
AcDbPlotSettings
  1

  2

  4

  6

 40
0.0
 41
0.0
 42
0.0
 43
0.0
 44
0.0
 45
0.0
 46
0.0
 47
0.0
 48
0.0
 49
0.0
140
0.0
141
0.0
142
1.0
143
1.0
 70
     0
 72
     0
 73
     0
 74
     0
  7

 75
     0
147
1.0
148
0.0
149
0.0
100
AcDbLayout
  1
Model
 70
     0
 71
     0
 10
0.0
 20
0.0
 11
0.0
 21
0.0
 12
0.0
 22
0.0
 32
0.0
 14
0.0
 24
0.0
 34
0.0
 15
0.0
 25
0.0
 35
0.0
146
0.0
 13
0.0
 23
0.0
 33
0.0
 16
0.0
 26
0.0
 36
0.0
 17
0.0
 27
0.0
 37
0.0
 76
     0
330
1F
  0
MLINESTYLE
  5
18
102
{ACAD_REACTORS
330
17
102
}
330
17
100
AcDbMlineStyle
  2
STANDARD
 70
     0
  3

 62
   256
 51
90.0
 52
90.0
 71
     2
 49
0.5
 62
   256
  6
BYLAYER
 49
-0.5
 62
   256
  6
BYLAYER
  0
ACDBPLACEHOLDER
  5
F
102
{ACAD_REACTORS
330
E
102
}
330
E
  0
DICTIONARYVAR
  5
919
102
{ACAD_REACTORS
330
918
102
}
330
918
100
DictionaryVariables
280
     0
  1
1
  0
ENDSEC
  0
EOF
