999
DXF file: FG-000393-2D-A.dxf
999
Pro/ENGINEER 2010370 by Parametric Technology Corporation
  0
SECTION
  2
HEADER
  9
$ACADVER
  1
AC1015
  9
$DWGCODEPAGE
  3
ANSI_1252
  9
$EXTMAX
 10
77.6255707763
 20
50.2283105023
 30
0.0
  9
$EXTMIN
 10
0.0
 20
0.0
 30
0.0
  9
$LIMMIN
 10
0.0
 20
0.0
  9
$LIMMAX
 10
77.6255707763
 20
50.2283105023
  9
$VIEWCTR
 10
38.8127853881
 20
25.1141552511
  9
$VIEWSIZE
 40
50.2283105023
  9
$CLAYER
  8
0
  9
$LTSCALE
 40
4.2694063927
  9
$CELTYPE
  6
BYLAYER
  9
$DIMSCALE
 40
1.0
  9
$DIMASZ
 40
0.8561643836
  9
$DIMEXO
 40
0.4851598174
  9
$DIMDLI
 40
2.9497716895
  9
$DIMEXE
 40
1.397260274
  9
$DIMCEN
 40
0.698630137
  9
$DIMLFAC
 40
1.0
  9
$DIMBLK
  1
_FILLED
  9
$DIMTXT
 40
0.7134703196
  9
$DIMTOL
 70
1
  9
$DIMLIM
 70
0
  9
$DIMTFAC
 40
1.0
  9
$DIMTP
 40
0.01
  9
$DIMTM
 40
0.01
  9
$PDMODE
 70
3
  9
$PDSIZE
 40
0.3125
  9
$HANDSEED
  5
6A4
  9
$TILEMODE
 70
1
  9
$MEASUREMENT
 70
0
  9
$INSUNITS
 70
1
  0
ENDSEC
  0
SECTION
  2
CLASSES
  0
CLASS
  1
ACDBDICTIONARYWDFLT
  2
AcDbDictionaryWithDefault
  3
AutoCAD 2000
 90
0
280
0
281
0
  0
CLASS
  1
ACDBPLACEHOLDER
  2
AcDbPlaceHolder
  3
AutoCAD 2000
 90
0
280
0
281
0
  0
CLASS
  1
LAYOUT
  2
AcDbLayout
  3
AutoCAD 2000
 90
0
280
0
281
0
  0
ENDSEC
  0
SECTION
  2
TABLES
  0
TABLE
  2
VPORT
  5
8
100
AcDbSymbolTable
 70
2
  0
VPORT
  5
1F4
100
AcDbSymbolTableRecord
100
AcDbViewportTableRecord
  2
*ACTIVE
 70
0
 10
0.0
 20
0.0
 11
1.0
 21
1.0
 12
38.8127853881
 22
25.1141552511
 13
0.0
 23
0.0
 14
1.0
 24
1.0
 15
0.0
 25
0.0
 16
0.0
 26
0.0
 36
1.0
 17
0.0
 27
0.0
 37
0.0
 40
50.2283105023
 41
1.5454545455
 42
50.0
 43
0.0
 44
0.0
 50
0.0
 51
0.0
 71
0
 72
100
 73
1
 74
1
 75
0
 76
0
 77
0
 78
0
  0
ENDTAB
  0
TABLE
  2
LTYPE
  5
5
100
AcDbSymbolTable
 70
6
  0
LTYPE
  5
14
100
AcDbSymbolTableRecord
100
AcDbLinetypeTableRecord
  2
BYBLOCK
 70
0
  3

 72
65
 73
0
 40
0.0
  0
LTYPE
  5
15
100
AcDbSymbolTableRecord
100
AcDbLinetypeTableRecord
  2
BYLAYER
 70
0
  3

 72
65
 73
0
 40
0.0
  0
LTYPE
  5
16
100
AcDbSymbolTableRecord
100
AcDbLinetypeTableRecord
  2
CONTINUOUS
 70
64
  3
Solid line
 72
65
 73
0
 40
0.0
  0
LTYPE
  5
1F5
100
AcDbSymbolTableRecord
100
AcDbLinetypeTableRecord
  2
CENTER
 70
64
  3
____ _ ____ _ ____ _ ____ _ ____ _ ____ _ ____
 72
65
 73
4
 40
0.6
 49
0.375
 74
0
 49
-0.075
 74
0
 49
0.075
 74
0
 49
-0.075
 74
0
  0
LTYPE
  5
1F6
100
AcDbSymbolTableRecord
100
AcDbLinetypeTableRecord
  2
HIDDEN
 70
64
  3
- - - - - - - - - - - - - - - - - - - -
 72
65
 73
2
 40
0.2
 49
0.1
 74
0
 49
-0.1
 74
0
  0
LTYPE
  5
1F7
100
AcDbSymbolTableRecord
100
AcDbLinetypeTableRecord
  2
PHANTOM
 70
64
  3
_____ _ _ _____ _ _ _____ _ _ _____
 72
65
 73
6
 40
0.8
 49
0.45
 74
0
 49
-0.05
 74
0
 49
0.1
 74
0
 49
-0.05
 74
0
 49
0.1
 74
0
 49
-0.05
 74
0
  0
LTYPE
  5
1F8
100
AcDbSymbolTableRecord
100
AcDbLinetypeTableRecord
  2
DOT
 70
64
  3
. . . . . . . . . . . . . . . . . . . .
 72
65
 73
2
 40
0.2
 49
0.1
 74
0
 49
-0.1
 74
0
  0
LTYPE
  5
1F9
100
AcDbSymbolTableRecord
100
AcDbLinetypeTableRecord
  2
DASHED
 70
64
  3
- - - - - - - - - - - - - - - - - - - -
 72
65
 73
2
 40
0.2
 49
0.1
 74
0
 49
-0.1
 74
0
  0
ENDTAB
  0
TABLE
  2
LAYER
  5
2
100
AcDbSymbolTable
 70
36
  0
LAYER
  5
10
100
AcDbSymbolTableRecord
100
AcDbLayerTableRecord
  2
0
 70
0
 62
7
  6
CONTINUOUS
370
-3
390
F
  0
LAYER
  5
1FA
100
AcDbSymbolTableRecord
100
AcDbLayerTableRecord
  2
DEFAULT_1
 70
0
 62
7
  6
CENTER
370
-3
390
F
  0
LAYER
  5
1FB
100
AcDbSymbolTableRecord
100
AcDbLayerTableRecord
  2
DEFAULT_2
 70
0
 62
8
  6
HIDDEN
370
-3
390
F
  0
LAYER
  5
1FC
100
AcDbSymbolTableRecord
100
AcDbLayerTableRecord
  2
DEFAULT_3
 70
0
 62
7
  6
PHANTOM
370
-3
390
F
  0
LAYER
  5
1FD
100
AcDbSymbolTableRecord
100
AcDbLayerTableRecord
  2
01_ALL_DTM_PLN
 70
0
 62
7
  6
CONTINUOUS
370
-3
390
F
  0
LAYER
  5
1FE
100
AcDbSymbolTableRecord
100
AcDbLayerTableRecord
  2
01__ASM_ALL_DTM_PLN
 70
0
 62
7
  6
CONTINUOUS
370
-3
390
F
  0
LAYER
  5
1FF
100
AcDbSymbolTableRecord
100
AcDbLayerTableRecord
  2
01__ASM_DEF_DTM_PLN
 70
0
 62
7
  6
CONTINUOUS
370
-3
390
F
  0
LAYER
  5
200
100
AcDbSymbolTableRecord
100
AcDbLayerTableRecord
  2
01___PRT_ALL_DTM_PLN
 70
0
 62
7
  6
CONTINUOUS
370
-3
390
F
  0
LAYER
  5
201
100
AcDbSymbolTableRecord
100
AcDbLayerTableRecord
  2
01___PRT_DEF_DTM_PLN
 70
0
 62
7
  6
CONTINUOUS
370
-3
390
F
  0
LAYER
  5
202
100
AcDbSymbolTableRecord
100
AcDbLayerTableRecord
  2
02_ALL_AXES
 70
0
 62
7
  6
CONTINUOUS
370
-3
390
F
  0
LAYER
  5
203
100
AcDbSymbolTableRecord
100
AcDbLayerTableRecord
  2
02__ASM_ALL_AXES
 70
0
 62
7
  6
CONTINUOUS
370
-3
390
F
  0
LAYER
  5
204
100
AcDbSymbolTableRecord
100
AcDbLayerTableRecord
  2
02___PRT_ALL_AXES
 70
0
 62
7
  6
CONTINUOUS
370
-3
390
F
  0
LAYER
  5
205
100
AcDbSymbolTableRecord
100
AcDbLayerTableRecord
  2
03_ALL_CURVES
 70
0
 62
7
  6
CONTINUOUS
370
-3
390
F
  0
LAYER
  5
206
100
AcDbSymbolTableRecord
100
AcDbLayerTableRecord
  2
03__ASM_ALL_CURVES
 70
0
 62
7
  6
CONTINUOUS
370
-3
390
F
  0
LAYER
  5
207
100
AcDbSymbolTableRecord
100
AcDbLayerTableRecord
  2
03___PRT_ALL_CURVES
 70
0
 62
7
  6
CONTINUOUS
370
-3
390
F
  0
LAYER
  5
208
100
AcDbSymbolTableRecord
100
AcDbLayerTableRecord
  2
04_ALL_DTM_PNT
 70
0
 62
7
  6
CONTINUOUS
370
-3
390
F
  0
LAYER
  5
209
100
AcDbSymbolTableRecord
100
AcDbLayerTableRecord
  2
04__ASM_ALL_DTM_PNT
 70
0
 62
7
  6
CONTINUOUS
370
-3
390
F
  0
LAYER
  5
20A
100
AcDbSymbolTableRecord
100
AcDbLayerTableRecord
  2
04___PRT_ALL_DTM_PNT
 70
0
 62
7
  6
CONTINUOUS
370
-3
390
F
  0
LAYER
  5
20B
100
AcDbSymbolTableRecord
100
AcDbLayerTableRecord
  2
05_ALL_DTM_CSYS
 70
0
 62
7
  6
CONTINUOUS
370
-3
390
F
  0
LAYER
  5
20C
100
AcDbSymbolTableRecord
100
AcDbLayerTableRecord
  2
05__ASM_ALL_DTM_CSYS
 70
0
 62
7
  6
CONTINUOUS
370
-3
390
F
  0
LAYER
  5
20D
100
AcDbSymbolTableRecord
100
AcDbLayerTableRecord
  2
05__ASM_DEF_DTM_CSYS
 70
0
 62
7
  6
CONTINUOUS
370
-3
390
F
  0
LAYER
  5
20E
100
AcDbSymbolTableRecord
100
AcDbLayerTableRecord
  2
05___PRT_ALL_DTM_CSYS
 70
0
 62
7
  6
CONTINUOUS
370
-3
390
F
  0
LAYER
  5
20F
100
AcDbSymbolTableRecord
100
AcDbLayerTableRecord
  2
05___PRT_DEF_DTM_CSYS
 70
0
 62
7
  6
CONTINUOUS
370
-3
390
F
  0
LAYER
  5
210
100
AcDbSymbolTableRecord
100
AcDbLayerTableRecord
  2
06_ALL_SURFS
 70
0
 62
7
  6
CONTINUOUS
370
-3
390
F
  0
LAYER
  5
211
100
AcDbSymbolTableRecord
100
AcDbLayerTableRecord
  2
06__ASM_ALL_SURFS
 70
0
 62
7
  6
CONTINUOUS
370
-3
390
F
  0
LAYER
  5
212
100
AcDbSymbolTableRecord
100
AcDbLayerTableRecord
  2
06___PRT_ALL_SURFS
 70
0
 62
7
  6
CONTINUOUS
370
-3
390
F
  0
LAYER
  5
213
100
AcDbSymbolTableRecord
100
AcDbLayerTableRecord
  2
07__ASM_ALL_SKELETONS
 70
0
 62
7
  6
CONTINUOUS
370
-3
390
F
  0
LAYER
  5
214
100
AcDbSymbolTableRecord
100
AcDbLayerTableRecord
  2
1_ALL_PLANES
 70
0
 62
7
  6
CONTINUOUS
370
-3
390
F
  0
LAYER
  5
215
100
AcDbSymbolTableRecord
100
AcDbLayerTableRecord
  2
1__DEF_ASM_PLN
 70
0
 62
7
  6
CONTINUOUS
370
-3
390
F
  0
LAYER
  5
216
100
AcDbSymbolTableRecord
100
AcDbLayerTableRecord
  2
1__DEF_PLANES
 70
0
 62
7
  6
CONTINUOUS
370
-3
390
F
  0
LAYER
  5
217
100
AcDbSymbolTableRecord
100
AcDbLayerTableRecord
  2
2_ALL_CSYS
 70
0
 62
7
  6
CONTINUOUS
370
-3
390
F
  0
LAYER
  5
218
100
AcDbSymbolTableRecord
100
AcDbLayerTableRecord
  2
2__DEF_ASM_CSYS
 70
0
 62
7
  6
CONTINUOUS
370
-3
390
F
  0
LAYER
  5
219
100
AcDbSymbolTableRecord
100
AcDbLayerTableRecord
  2
2__DEF_CSYS
 70
0
 62
7
  6
CONTINUOUS
370
-3
390
F
  0
LAYER
  5
21A
100
AcDbSymbolTableRecord
100
AcDbLayerTableRecord
  2
3_ALL_AXES
 70
0
 62
7
  6
CONTINUOUS
370
-3
390
F
  0
LAYER
  5
21B
100
AcDbSymbolTableRecord
100
AcDbLayerTableRecord
  2
3_AXES_OTHER
 70
0
 62
7
  6
CONTINUOUS
370
-3
390
F
  0
LAYER
  5
21C
100
AcDbSymbolTableRecord
100
AcDbLayerTableRecord
  2
3_HOLES
 70
0
 62
7
  6
CONTINUOUS
370
-3
390
F
  0
LAYER
  5
21D
100
AcDbSymbolTableRecord
100
AcDbLayerTableRecord
  2
4_ALL_POINTS
 70
0
 62
7
  6
CONTINUOUS
370
-3
390
F
  0
LAYER
  5
21E
100
AcDbSymbolTableRecord
100
AcDbLayerTableRecord
  2
5_ALL_CURVES
 70
0
 62
7
  6
CONTINUOUS
370
-3
390
F
  0
LAYER
  5
21F
100
AcDbSymbolTableRecord
100
AcDbLayerTableRecord
  2
6_ALL_SURFS
 70
0
 62
7
  6
CONTINUOUS
370
-3
390
F
  0
LAYER
  5
220
100
AcDbSymbolTableRecord
100
AcDbLayerTableRecord
  2
6_COPYGEOM
 70
0
 62
7
  6
CONTINUOUS
370
-3
390
F
  0
LAYER
  5
221
100
AcDbSymbolTableRecord
100
AcDbLayerTableRecord
  2
7_ALL_ROUNDS
 70
0
 62
7
  6
CONTINUOUS
370
-3
390
F
  0
LAYER
  5
222
100
AcDbSymbolTableRecord
100
AcDbLayerTableRecord
  2
7_MERGES
 70
0
 62
7
  6
CONTINUOUS
370
-3
390
F
  0
LAYER
  5
223
100
AcDbSymbolTableRecord
100
AcDbLayerTableRecord
  2
8_GDT
 70
0
 62
7
  6
CONTINUOUS
370
-3
390
F
  0
LAYER
  5
224
100
AcDbSymbolTableRecord
100
AcDbLayerTableRecord
  2
8_SET_DATUMS
 70
0
 62
7
  6
CONTINUOUS
370
-3
390
F
  0
LAYER
  5
225
100
AcDbSymbolTableRecord
100
AcDbLayerTableRecord
  2
9_COSMETICS
 70
0
 62
7
  6
CONTINUOUS
370
-3
390
F
  0
LAYER
  5
226
100
AcDbSymbolTableRecord
100
AcDbLayerTableRecord
  2
9_THREADS
 70
0
 62
7
  6
CONTINUOUS
370
-3
390
F
  0
ENDTAB
  0
TABLE
  2
STYLE
  5
3
100
AcDbSymbolTable
 70
1
  0
STYLE
  5
11
100
AcDbSymbolTableRecord
100
AcDbTextStyleTableRecord
  2
STANDARD
 70
0
 40
0.0
 41
0.8
 50
0.0
 71
0
 42
0.2
  3
txt
  4

  0
STYLE
  5
227
100
AcDbSymbolTableRecord
100
AcDbTextStyleTableRecord
  2
TEXTSTYLE_1
 70
0
 40
0.0
 41
0.8
 50
0.0
 71
0
 42
0.2
  3
gdt
  4

  0
ENDTAB
  0
TABLE
  2
VIEW
  5
6
100
AcDbSymbolTable
 70
0
  0
ENDTAB
  0
TABLE
  2
UCS
  5
7
100
AcDbSymbolTable
 70
0
  0
ENDTAB
  0
TABLE
  2
APPID
  5
9
100
AcDbSymbolTable
 70
1
  0
APPID
  5
228
100
AcDbSymbolTableRecord
100
AcDbRegAppTableRecord
  2
ACAD
 70
0
  0
ENDTAB
  0
TABLE
  2
BLOCK_RECORD
  5
1
100
AcDbSymbolTable
 70
0
  0
BLOCK_RECORD
  5
229
100
AcDbSymbolTableRecord
100
AcDbBlockTableRecord
  2
*Model_Space
  0
BLOCK_RECORD
  5
22A
100
AcDbSymbolTableRecord
100
AcDbBlockTableRecord
  2
*Paper_Space
  0
BLOCK_RECORD
  5
22B
100
AcDbSymbolTableRecord
100
AcDbBlockTableRecord
  2
_FILLED
  0
BLOCK_RECORD
  5
22C
100
AcDbSymbolTableRecord
100
AcDbBlockTableRecord
  2
*D0
  0
BLOCK_RECORD
  5
22D
100
AcDbSymbolTableRecord
100
AcDbBlockTableRecord
  2
*D1
  0
BLOCK_RECORD
  5
22E
100
AcDbSymbolTableRecord
100
AcDbBlockTableRecord
  2
*D2
  0
BLOCK_RECORD
  5
22F
100
AcDbSymbolTableRecord
100
AcDbBlockTableRecord
  2
*D3
  0
BLOCK_RECORD
  5
230
100
AcDbSymbolTableRecord
100
AcDbBlockTableRecord
  2
*D4
  0
BLOCK_RECORD
  5
231
100
AcDbSymbolTableRecord
100
AcDbBlockTableRecord
  2
*D5
  0
BLOCK_RECORD
  5
232
100
AcDbSymbolTableRecord
100
AcDbBlockTableRecord
  2
*D6
  0
BLOCK_RECORD
  5
233
100
AcDbSymbolTableRecord
100
AcDbBlockTableRecord
  2
*D7
  0
BLOCK_RECORD
  5
234
100
AcDbSymbolTableRecord
100
AcDbBlockTableRecord
  2
*D8
  0
BLOCK_RECORD
  5
235
100
AcDbSymbolTableRecord
100
AcDbBlockTableRecord
  2
*D9
  0
BLOCK_RECORD
  5
236
100
AcDbSymbolTableRecord
100
AcDbBlockTableRecord
  2
*D10
  0
BLOCK_RECORD
  5
237
100
AcDbSymbolTableRecord
100
AcDbBlockTableRecord
  2
*D11
  0
BLOCK_RECORD
  5
238
100
AcDbSymbolTableRecord
100
AcDbBlockTableRecord
  2
*D12
  0
BLOCK_RECORD
  5
239
100
AcDbSymbolTableRecord
100
AcDbBlockTableRecord
  2
*D13
  0
BLOCK_RECORD
  5
23A
100
AcDbSymbolTableRecord
100
AcDbBlockTableRecord
  2
*D14
  0
BLOCK_RECORD
  5
23B
100
AcDbSymbolTableRecord
100
AcDbBlockTableRecord
  2
SYMBOL_0_BL0
  0
ENDTAB
  0
TABLE
  2
DIMSTYLE
  5
A
100
AcDbSymbolTable
 70
1
100
AcDbDimStyleTable
 71
0
  0
DIMSTYLE
105
23C
100
AcDbSymbolTableRecord
100
AcDbDimStyleTableRecord
  2
STANDARD
 70
0
  3

  4

 40
1.0
 41
0.8561643836
 42
0.0625
 43
0.38
 44
0.18
 45
0.0
 46
0.0
 47
0.01
 48
0.01
140
0.7134703196
141
0.09
142
0.0
143
25.4
144
1.0
145
0.0
146
1.0
147
0.09
 71
1.0
 72
0.0
 73
1
 74
1
 75
0
 76
0
 77
0
 78
4
170
0
171
2
172
0
173
0
174
0
175
0
176
0
177
0
178
0
270
2
271
3
272
3
273
2
274
2
275
0
280
0
281
0
282
0
283
1
284
4
285
0
286
0
287
3
288
0
340
11
341
22B
342
22B
343
22B
344
22B
  0
DIMSTYLE
105
23D
100
AcDbSymbolTableRecord
100
AcDbDimStyleTableRecord
  2
DIMSTYLE_1
 70
0
  3

  4

 40
1.0
 41
0.8561643836
 42
0.0625
 43
0.38
 44
0.18
 45
0.0
 46
0.0
 47
0.01
 48
0.01
140
0.7134703196
141
0.09
142
0.0
143
25.4
144
1.0
145
0.0
146
1.0
147
0.09
 71
0.0
 72
0.0
 73
1
 74
1
 75
0
 76
0
 77
0
 78
4
170
0
171
2
172
0
173
0
174
0
175
0
176
0
177
0
178
0
270
2
271
0
272
0
273
2
274
2
275
0
280
0
281
0
282
0
283
1
284
4
285
0
286
0
287
3
288
0
340
11
341
22B
342
22B
343
22B
344
22B
  0
DIMSTYLE
105
23E
100
AcDbSymbolTableRecord
100
AcDbDimStyleTableRecord
  2
DIMSTYLE_2
 70
0
  3

  4

 40
1.0
 41
0.8561643836
 42
0.0625
 43
0.38
 44
0.18
 45
0.0
 46
0.0
 47
0.01
 48
0.01
140
0.7134703196
141
0.09
142
0.0
143
25.4
144
1.0
145
0.0
146
1.0
147
0.09
 71
0.0
 72
0.0
 73
1
 74
1
 75
0
 76
0
 77
0
 78
4
170
0
171
2
172
0
173
0
174
0
175
0
176
0
177
0
178
0
270
2
271
0
272
0
273
2
274
2
275
0
280
0
281
0
282
0
283
1
284
4
285
0
286
0
287
3
288
0
340
11
341
22B
342
22B
343
22B
344
22B
  0
ENDTAB
  0
ENDSEC
  0
SECTION
  2
BLOCKS
  0
BLOCK
  5
20
100
AcDbEntity
  8
0
100
AcDbBlockBegin
  2
*Model_Space
 70
0
 10
0.0
 20
0.0
 30
0.0
  3
*Model_Space
  1

  0
ENDBLK
  5
21
100
AcDbEntity
  8
0
100
AcDbBlockEnd
  0
BLOCK
  5
1C
100
AcDbEntity
  8
0
100
AcDbBlockBegin
  2
*Paper_Space
 70
0
 10
0.0
 20
0.0
 30
0.0
  3
*Paper_Space
  1

  0
ENDBLK
  5
1D
100
AcDbEntity
  8
0
100
AcDbBlockEnd
  0
BLOCK
  5
23F
100
AcDbEntity
  8
0
100
AcDbBlockBegin
 62
7
  6
CONTINUOUS
  2
SYMBOL_0_BL0
 70
64
 10
54.2868506795
 20
12.3338386538
  3
SYMBOL_0_BL0
  1

  0
ARC
  5
240
100
AcDbEntity
  8
0
100
AcDbCircle
 62
7
  6
CONTINUOUS
 10
57.2647573902
 20
12.7921809256
 40
0.0564909282
100
AcDbArc
 50
270.0
 51
360.0
  0
LINE
  5
241
100
AcDbEntity
  8
0
100
AcDbLine
 62
7
  6
CONTINUOUS
 10
57.3212483183
 20
12.7921809256
 11
57.3212483183
 21
12.9052016069
  0
ARC
  5
242
100
AcDbEntity
  8
0
100
AcDbCircle
 62
7
  6
CONTINUOUS
 10
57.2647573902
 20
12.9052016069
 40
0.0564909282
100
AcDbArc
 50
0.0
 51
90.0
  0
LINE
  5
243
100
AcDbEntity
  8
0
100
AcDbLine
 62
7
  6
CONTINUOUS
 10
57.2647573902
 20
12.961692535
 11
55.7460663755
 21
12.961692535
  0
SPLINE
  5
244
100
AcDbEntity
  8
0
100
AcDbSpline
 62
7
  6
CONTINUOUS
 70
0
 71
3
 72
13
 73
9
 74
0
 42
0.0000001
 43
0.0000001
 44
0.0000000001
 40
0.0
 40
0.0
 40
0.0
 40
0.0
 40
0.1310616762
 40
0.2699656353
 40
0.4157607805
 40
0.5899807757
 40
0.76586761
 40
0.9948829976
 40
0.9948829976
 40
0.9948829976
 40
0.9948829976
 10
55.7460663755
 20
12.961692535
 30
0.0
 10
55.7141421083
 20
12.9593147945
 30
0.0
 10
55.6483833358
 20
12.954417038
 30
0.0
 10
55.5592671037
 20
12.8991955409
 30
0.0
 10
55.4952922834
 20
12.8064885933
 30
0.0
 10
55.4536925499
 20
12.6931284033
 30
0.0
 10
55.4302610402
 20
12.5545551258
 30
0.0
 10
55.4281036317
 20
12.4566368144
 30
0.0
 10
55.4269854972
 20
12.4012462922
 30
0.0
  0
LINE
  5
245
100
AcDbEntity
  8
0
100
AcDbLine
 62
7
  6
CONTINUOUS
 10
55.4269854972
 20
12.4012462922
 11
55.4270846448
 21
12.3926507264
  0
SPLINE
  5
246
100
AcDbEntity
  8
0
100
AcDbSpline
 62
7
  6
CONTINUOUS
 70
0
 71
3
 72
13
 73
9
 74
0
 42
0.0000001
 43
0.0000001
 44
0.0000000001
 40
0.0
 40
0.0
 40
0.0
 40
0.0
 40
0.2222860645
 40
0.3981728988
 40
0.572392894
 40
0.7181880393
 40
0.8570919984
 40
0.9881536746
 40
0.9881536746
 40
0.9881536746
 40
0.9881536746
 10
55.4270846448
 20
12.3926507264
 30
0.0
 10
55.4281807427
 20
12.3388884952
 30
0.0
 10
55.4305328294
 20
12.242615436
 30
0.0
 10
55.4536925308
 20
12.1056484737
 30
0.0
 10
55.4952927623
 20
11.992300962
 30
0.0
 10
55.5592655871
 20
11.8995546697
 30
0.0
 10
55.6483886207
 20
11.8444651755
 30
0.0
 10
55.7141313611
 20
11.8392565946
 30
0.0
 10
55.7460663755
 20
11.8368780545
 30
0.0
  0
LINE
  5
247
100
AcDbEntity
  8
0
100
AcDbLine
 62
7
  6
CONTINUOUS
 10
55.7460663755
 20
11.8368780545
 11
57.2648806873
 21
11.8401930212
  0
ARC
  5
248
100
AcDbEntity
  8
0
100
AcDbCircle
 62
7
  6
CONTINUOUS
 10
57.2647573902
 20
11.8966838147
 40
0.056490928
100
AcDbArc
 50
270.125053868
 51
360.0
  0
LINE
  5
249
100
AcDbEntity
  8
0
100
AcDbLine
 62
7
  6
CONTINUOUS
 10
57.3212483183
 20
11.8966838147
 11
57.3212483183
 21
12.0052919391
  0
ARC
  5
24A
100
AcDbEntity
  8
0
100
AcDbCircle
 62
7
  6
CONTINUOUS
 10
57.2647573902
 20
12.0052919391
 40
0.0564909282
100
AcDbArc
 50
0.0
 51
90.0
  0
LINE
  5
24B
100
AcDbEntity
  8
0
100
AcDbLine
 62
7
  6
CONTINUOUS
 10
57.2647573902
 20
12.0617828673
 11
55.9630316221
 21
12.0617828673
  0
LINE
  5
24C
100
AcDbEntity
  8
0
100
AcDbLine
 62
7
  6
CONTINUOUS
 10
55.906540694
 20
12.1182737955
 11
55.906540694
 21
12.6791990693
  0
ARC
  5
24D
100
AcDbEntity
  8
0
100
AcDbCircle
 62
7
  6
CONTINUOUS
 10
55.9630316226
 20
12.6791990693
 40
0.0564909282
100
AcDbArc
 50
90.0
 51
180.0
  0
LINE
  5
24E
100
AcDbEntity
  8
0
100
AcDbLine
 62
7
  6
CONTINUOUS
 10
55.9630316221
 20
12.7356899974
 11
57.2647573902
 21
12.7356899974
  0
LINE
  5
24F
100
AcDbEntity
  8
0
100
AcDbLine
 62
7
  6
CONTINUOUS
 10
53.6419389635
 20
12.2852196374
 11
54.7269249645
 21
12.2852196374
  0
ARC
  5
250
100
AcDbEntity
  8
0
100
AcDbCircle
 62
7
  6
CONTINUOUS
 10
54.7269249644
 20
12.2287287093
 40
0.0564909282
100
AcDbArc
 50
0.0
 51
90.0
  0
LINE
  5
251
100
AcDbEntity
  8
0
100
AcDbLine
 62
7
  6
CONTINUOUS
 10
54.7834158927
 20
12.2287287092
 11
54.7834158927
 21
12.1133800689
  0
LINE
  5
252
100
AcDbEntity
  8
0
100
AcDbLine
 62
7
  6
CONTINUOUS
 10
54.7269249645
 20
12.0568891408
 11
53.4621754674
 21
12.0568891408
  0
ARC
  5
253
100
AcDbEntity
  8
0
100
AcDbCircle
 62
7
  6
CONTINUOUS
 10
53.4621754674
 20
12.0003982126
 40
0.0564909282
100
AcDbArc
 50
90.0
 51
180.0
  0
LINE
  5
254
100
AcDbEntity
  8
0
100
AcDbLine
 62
7
  6
CONTINUOUS
 10
53.4056845392
 20
12.0003982126
 11
53.4056845392
 21
11.8933684125
  0
ARC
  5
255
100
AcDbEntity
  8
0
100
AcDbCircle
 62
7
  6
CONTINUOUS
 10
53.4621754674
 20
11.8933684125
 40
0.0564909282
100
AcDbArc
 50
180.0
 51
270.0
  0
LINE
  5
256
100
AcDbEntity
  8
0
100
AcDbLine
 62
7
  6
CONTINUOUS
 10
53.4621754674
 20
11.8368774843
 11
55.032297463
 21
11.8368774843
  0
SPLINE
  5
257
100
AcDbEntity
  8
0
100
AcDbSpline
 62
7
  6
CONTINUOUS
 70
0
 71
3
 72
13
 73
9
 74
0
 42
0.0000001
 43
0.0000001
 44
0.0000000001
 40
0.0
 40
0.0
 40
0.0
 40
0.0
 40
0.1604571392
 40
0.3334692485
 40
0.4767982758
 40
0.6242014838
 40
0.7505998515
 40
1.0
 40
1.0
 40
1.0
 40
1.0
 10
55.032297463
 20
11.8368774843
 30
0.0
 10
55.0587699159
 20
11.8381520857
 30
0.0
 10
55.1137861579
 20
11.8408010183
 30
0.0
 10
55.1877674197
 20
11.8729202896
 30
0.0
 10
55.2435147378
 20
11.9269101036
 30
0.0
 10
55.274930544
 20
11.9888073396
 30
0.0
 10
55.2990165741
 20
12.0718431159
 30
0.0
 10
55.2999939862
 20
12.1339831517
 30
0.0
 10
55.300642649
 20
12.1752226278
 30
0.0
  0
SPLINE
  5
258
100
AcDbEntity
  8
0
100
AcDbSpline
 62
7
  6
CONTINUOUS
 70
0
 71
3
 72
13
 73
9
 74
0
 42
0.0000001
 43
0.0000001
 44
0.0000000001
 40
0.0
 40
0.0
 40
0.0
 40
0.0
 40
0.2494001485
 40
0.3757985162
 40
0.5232017242
 40
0.6665307515
 40
0.8395428608
 40
1.0
 40
1.0
 40
1.0
 40
1.0
 10
55.300642649
 20
12.1752226278
 30
0.0
 10
55.2999939862
 20
12.2164621048
 30
0.0
 10
55.2990165741
 20
12.2786021397
 30
0.0
 10
55.274930544
 20
12.3616379169
 30
0.0
 10
55.2435147378
 20
12.4235351529
 30
0.0
 10
55.1877674197
 20
12.4775249661
 30
0.0
 10
55.1137861579
 20
12.5096442373
 30
0.0
 10
55.0587699159
 20
12.5122931708
 30
0.0
 10
55.032297463
 20
12.5135677713
 30
0.0
  0
LINE
  5
259
100
AcDbEntity
  8
0
100
AcDbLine
 62
7
  6
CONTINUOUS
 10
55.032297463
 20
12.5135677713
 11
53.9617736072
 21
12.5135677713
  0
LINE
  5
25A
100
AcDbEntity
  8
0
100
AcDbLine
 62
7
  6
CONTINUOUS
 10
53.9052826791
 20
12.5700586995
 11
53.9052826791
 21
12.6769452029
  0
ARC
  5
25B
100
AcDbEntity
  8
0
100
AcDbCircle
 62
7
  6
CONTINUOUS
 10
53.9617736068
 20
12.6769452029
 40
0.0564909282
100
AcDbArc
 50
90.0
 51
180.0
  0
LINE
  5
25C
100
AcDbEntity
  8
0
100
AcDbLine
 62
7
  6
CONTINUOUS
 10
53.9617736072
 20
12.7334361311
 11
55.2282398159
 21
12.7334361311
  0
ARC
  5
25D
100
AcDbEntity
  8
0
100
AcDbCircle
 62
7
  6
CONTINUOUS
 10
55.2282398159
 20
12.7899270592
 40
0.0564909282
100
AcDbArc
 50
270.0
 51
360.0
  0
LINE
  5
25E
100
AcDbEntity
  8
0
100
AcDbLine
 62
7
  6
CONTINUOUS
 10
55.2847307441
 20
12.7899270592
 11
55.2847307441
 21
12.9052016069
  0
ARC
  5
25F
100
AcDbEntity
  8
0
100
AcDbCircle
 62
7
  6
CONTINUOUS
 10
55.2282398159
 20
12.9052016069
 40
0.0564909282
100
AcDbArc
 50
0.0
 51
90.0
  0
LINE
  5
260
100
AcDbEntity
  8
0
100
AcDbLine
 62
7
  6
CONTINUOUS
 10
55.2282398159
 20
12.961692535
 11
53.6419389635
 21
12.961692535
  0
SPLINE
  5
261
100
AcDbEntity
  8
0
100
AcDbSpline
 62
7
  6
CONTINUOUS
 70
0
 71
3
 72
13
 73
9
 74
0
 42
0.0000001
 43
0.0000001
 44
0.0000000001
 40
0.0
 40
0.0
 40
0.0
 40
0.0
 40
0.1133740464
 40
0.2392044088
 40
0.3655787964
 40
0.4912154373
 40
0.7445390876
 40
1.0
 40
1.0
 40
1.0
 40
1.0
 10
53.6419389635
 20
12.961692535
 30
0.0
 10
53.6238173829
 20
12.9607999627
 30
0.0
 10
53.585583219
 20
12.9589167507
 30
0.0
 10
53.5287901504
 20
12.9419486784
 30
0.0
 10
53.477983216
 20
12.9076848559
 30
0.0
 10
53.4260834794
 20
12.8445695877
 30
0.0
 10
53.3934248727
 20
12.745487014
 30
0.0
 10
53.3898830419
 20
12.6642468183
 30
0.0
 10
53.3881046884
 20
12.6234560862
 30
0.0
  0
SPLINE
  5
262
100
AcDbEntity
  8
0
100
AcDbSpline
 62
7
  6
CONTINUOUS
 70
0
 71
3
 72
13
 73
9
 74
0
 42
0.0000001
 43
0.0000001
 44
0.0000000001
 40
0.0
 40
0.0
 40
0.0
 40
0.0
 40
0.2554609124
 40
0.5087845627
 40
0.6344212036
 40
0.7607955912
 40
0.8866259536
 40
1.0
 40
1.0
 40
1.0
 40
1.0
 10
53.3881046884
 20
12.6234560862
 30
0.0
 10
53.3898830419
 20
12.582665354
 30
0.0
 10
53.3934248727
 20
12.5014251575
 30
0.0
 10
53.4260834794
 20
12.4023425847
 30
0.0
 10
53.477983216
 20
12.3392273164
 30
0.0
 10
53.5287901504
 20
12.304963494
 30
0.0
 10
53.585583219
 20
12.2879954217
 30
0.0
 10
53.6238173829
 20
12.2861122097
 30
0.0
 10
53.6419389635
 20
12.2852196374
 30
0.0
  0
LINE
  5
263
100
AcDbEntity
  8
0
100
AcDbLine
 62
7
  6
CONTINUOUS
 10
51.5546612137
 20
11.8368774843
 11
52.4324123409
 21
11.8368774843
  0
LINE
  5
264
100
AcDbEntity
  8
0
100
AcDbLine
 62
7
  6
CONTINUOUS
 10
52.4324123409
 20
11.8368774843
 11
52.4324123409
 21
11.7277120525
  0
ARC
  5
265
100
AcDbEntity
  8
0
100
AcDbCircle
 62
7
  6
CONTINUOUS
 10
52.454139621
 20
11.7277120525
 40
0.0217272801
100
AcDbArc
 50
180.0
 51
270.0
  0
LINE
  5
266
100
AcDbEntity
  8
0
100
AcDbLine
 62
7
  6
CONTINUOUS
 10
52.454139621
 20
11.7059847725
 11
52.79245547
 21
11.7059847725
  0
ARC
  5
267
100
AcDbEntity
  8
0
100
AcDbCircle
 62
7
  6
CONTINUOUS
 10
52.79245547
 20
11.7277120525
 40
0.0217272801
100
AcDbArc
 50
270.0
 51
360.0
  0
LINE
  5
268
100
AcDbEntity
  8
0
100
AcDbLine
 62
7
  6
CONTINUOUS
 10
52.8141827501
 20
11.7277120525
 11
52.8141827501
 21
11.8368774843
  0
LINE
  5
269
100
AcDbEntity
  8
0
100
AcDbLine
 62
7
  6
CONTINUOUS
 10
52.8141827501
 20
11.8368774843
 11
52.9867814732
 21
11.8368774843
  0
SPLINE
  5
26A
100
AcDbEntity
  8
0
100
AcDbSpline
 62
7
  6
CONTINUOUS
 70
0
 71
3
 72
12
 73
8
 74
0
 42
0.0000001
 43
0.0000001
 44
0.0000000001
 40
0.0
 40
0.0
 40
0.0
 40
0.0
 40
0.2415790084
 40
0.4893269843
 40
0.7378634303
 40
0.8656387112
 40
1.0
 40
1.0
 40
1.0
 40
1.0
 10
52.9867814732
 20
11.8368774843
 30
0.0
 10
53.0177301246
 20
11.837839643
 30
0.0
 10
53.0804177339
 20
11.8397885305
 30
0.0
 10
53.1721545089
 20
11.8725043043
 30
0.0
 10
53.2278680585
 20
11.9342630271
 30
0.0
 10
53.2524135988
 20
11.9959714157
 30
0.0
 10
53.2528559454
 20
12.0297751404
 30
0.0
 10
53.2530826756
 20
12.0471016503
 30
0.0
  0
LINE
  5
26B
100
AcDbEntity
  8
0
100
AcDbLine
 62
7
  6
CONTINUOUS
 10
53.2530826756
 20
12.0471016503
 11
53.2530826756
 21
12.7501490956
  0
SPLINE
  5
26C
100
AcDbEntity
  8
0
100
AcDbSpline
 62
7
  6
CONTINUOUS
 70
0
 71
3
 72
12
 73
8
 74
0
 42
0.0000001
 43
0.0000001
 44
0.0000000001
 40
0.0
 40
0.0
 40
0.0
 40
0.0
 40
0.1343612888
 40
0.2621365697
 40
0.5106730157
 40
0.7584209916
 40
1.0
 40
1.0
 40
1.0
 40
1.0
 10
53.2530826756
 20
12.7501490956
 30
0.0
 10
53.2528559454
 20
12.7674756063
 30
0.0
 10
53.2524135988
 20
12.801279331
 30
0.0
 10
53.2278680585
 20
12.8629877196
 30
0.0
 10
53.1721545089
 20
12.9247464425
 30
0.0
 10
53.0804177339
 20
12.9574622154
 30
0.0
 10
53.0177301246
 20
12.9594111028
 30
0.0
 10
52.9867814732
 20
12.9603732615
 30
0.0
  0
LINE
  5
26D
100
AcDbEntity
  8
0
100
AcDbLine
 62
7
  6
CONTINUOUS
 10
52.9867814732
 20
12.9603732615
 11
51.5546612137
 21
12.9603732615
  0
SPLINE
  5
26E
100
AcDbEntity
  8
0
100
AcDbSpline
 62
7
  6
CONTINUOUS
 70
0
 71
3
 72
12
 73
8
 74
0
 42
0.0000001
 43
0.0000001
 44
0.0000000001
 40
0.0
 40
0.0
 40
0.0
 40
0.0
 40
0.1341799809
 40
0.290831959
 40
0.5815217441
 40
0.760783857
 40
1.0
 40
1.0
 40
1.0
 40
1.0
 10
51.5546612137
 20
12.9603732615
 30
0.0
 10
51.5234241283
 20
12.9550345473
 30
0.0
 10
51.4557184794
 20
12.9434630081
 30
0.0
 10
51.3417468854
 20
12.8583150951
 30
0.0
 10
51.2877641545
 20
12.715062282
 30
0.0
 10
51.2561793413
 20
12.5526720154
 30
0.0
 10
51.2538083684
 20
12.4544509805
 30
0.0
 10
51.2524530406
 20
12.3983045575
 30
0.0
  0
SPLINE
  5
26F
100
AcDbEntity
  8
0
100
AcDbSpline
 62
7
  6
CONTINUOUS
 70
0
 71
3
 72
12
 73
8
 74
0
 42
0.0000001
 43
0.0000001
 44
0.0000000001
 40
0.0
 40
0.0
 40
0.0
 40
0.0
 40
0.2392679579
 40
0.4185688994
 40
0.7093216488
 40
0.8660075581
 40
1.0
 40
1.0
 40
1.0
 40
1.0
 10
51.2524530406
 20
12.3983045575
 30
0.0
 10
51.2538089098
 20
12.3421603228
 30
0.0
 10
51.2561808292
 20
12.2439431162
 30
0.0
 10
51.2877588269
 20
12.0815252925
 30
0.0
 10
51.3417745399
 20
11.9384058458
 30
0.0
 10
51.4556274733
 20
11.8529814401
 30
0.0
 10
51.5234140146
 20
11.8419586165
 30
0.0
 10
51.5546612137
 20
11.8368774843
 30
0.0
  0
LINE
  5
270
100
AcDbEntity
  8
0
100
AcDbLine
 62
7
  6
CONTINUOUS
 10
52.9637952128
 20
12.1261299471
 11
52.9637952128
 21
12.6894313093
  0
ARC
  5
271
100
AcDbEntity
  8
0
100
AcDbCircle
 62
7
  6
CONTINUOUS
 10
51.7786356835
 20
12.1261299471
 40
0.0564909282
100
AcDbArc
 50
180.0
 51
270.0
  0
LINE
  5
272
100
AcDbEntity
  8
0
100
AcDbLine
 62
7
  6
CONTINUOUS
 10
51.7786356835
 20
12.069639019
 11
52.4274708118
 21
12.069639019
  0
LINE
  5
273
100
AcDbEntity
  8
0
100
AcDbLine
 62
7
  6
CONTINUOUS
 10
52.4274708118
 20
12.069639019
 11
52.4274708118
 21
12.1784662083
  0
ARC
  5
274
100
AcDbEntity
  8
0
100
AcDbCircle
 62
7
  6
CONTINUOUS
 10
52.4491980923
 20
12.1784662083
 40
0.0217272801
100
AcDbArc
 50
90.0
 51
180.0
  0
LINE
  5
275
100
AcDbEntity
  8
0
100
AcDbLine
 62
7
  6
CONTINUOUS
 10
52.4491980918
 20
12.2001934883
 11
52.7857898073
 21
12.2001934883
  0
ARC
  5
276
100
AcDbEntity
  8
0
100
AcDbCircle
 62
7
  6
CONTINUOUS
 10
52.7857898065
 20
12.1784662091
 40
0.0217272801
100
AcDbArc
 50
0.0
 51
90.0
  0
LINE
  5
277
100
AcDbEntity
  8
0
100
AcDbLine
 62
7
  6
CONTINUOUS
 10
52.8075170874
 20
12.069639019
 11
52.9073042846
 21
12.069639019
  0
ARC
  5
278
100
AcDbEntity
  8
0
100
AcDbCircle
 62
7
  6
CONTINUOUS
 10
52.9073042846
 20
12.1261299471
 40
0.0564909282
100
AcDbArc
 50
270.0
 51
360.0
  0
LINE
  5
279
100
AcDbEntity
  8
0
100
AcDbLine
 62
7
  6
CONTINUOUS
 10
52.8075170874
 20
12.069639019
 11
52.8075170874
 21
12.1784662083
  0
LINE
  5
27A
100
AcDbEntity
  8
0
100
AcDbLine
 62
7
  6
CONTINUOUS
 10
51.7221447554
 20
12.1261299471
 11
51.7221447554
 21
12.6894313093
  0
ARC
  5
27B
100
AcDbEntity
  8
0
100
AcDbCircle
 62
7
  6
CONTINUOUS
 10
51.7786356843
 20
12.6894313093
 40
0.0564909282
100
AcDbArc
 50
90.0
 51
180.0
  0
LINE
  5
27C
100
AcDbEntity
  8
0
100
AcDbLine
 62
7
  6
CONTINUOUS
 10
51.7786356835
 20
12.7459222375
 11
52.9073042846
 21
12.7459222375
  0
ARC
  5
27D
100
AcDbEntity
  8
0
100
AcDbCircle
 62
7
  6
CONTINUOUS
 10
52.9073042851
 20
12.6894313088
 40
0.0564909282
100
AcDbArc
 50
0.0000000277
 51
90.0000000277
  0
ARC
  5
27E
100
AcDbEntity
  8
0
100
AcDbCircle
 62
7
  6
CONTINUOUS
 10
53.9617736072
 20
12.5700586995
 40
0.0564909282
100
AcDbArc
 50
180.0
 51
270.0
  0
ARC
  5
27F
100
AcDbEntity
  8
0
100
AcDbCircle
 62
7
  6
CONTINUOUS
 10
54.7269249645
 20
12.1133800689
 40
0.0564909282
100
AcDbArc
 50
270.0
 51
360.0
  0
ARC
  5
280
100
AcDbEntity
  8
0
100
AcDbCircle
 62
7
  6
CONTINUOUS
 10
55.9630316221
 20
12.1182737955
 40
0.0564909282
100
AcDbArc
 50
180.0
 51
270.0
  0
ENDBLK
  5
281
100
AcDbEntity
  8
0
  6
BYBLOCK
 62
0
100
AcDbBlockEnd
  0
BLOCK
  5
282
100
AcDbEntity
  8
0
100
AcDbBlockBegin
  2
_FILLED
 70
64
 10
0.0
 20
0.0
  3
_FILLED
  1

  0
SOLID
  5
283
100
AcDbEntity
  8
0
  6
BYBLOCK
 62
0
100
AcDbTrace
 10
0.0
 20
0.0
 11
-1.0
 21
0.1666666667
 12
-1.0
 22
-0.1666666667
 13
-1.0
 23
-0.1666666667
  0
ENDBLK
  5
284
100
AcDbEntity
  8
0
  6
BYBLOCK
 62
0
100
AcDbBlockEnd
  0
BLOCK
  5
285
100
AcDbEntity
  8
0
100
AcDbBlockBegin
 62
2
  6
CONTINUOUS
  2
*D0
 70
65
 10
0.0
 20
0.0
  3
*D0
  1

  0
MTEXT
  5
286
100
AcDbEntity
  8
0
100
AcDbMText
 62
2
  6
CONTINUOUS
  7
STANDARD
 71
2
 72
1
 10
27.9564448583
 20
34.8750307872
 30
0.0
 11
1.0
 21
0.0
 31
0.0
 44
0.9
  1
401\P[15.8]
 40
0.7134703196
 41
2.4971461187
  0
LINE
  5
287
100
AcDbEntity
  8
0
100
AcDbLine
 62
2
  6
CONTINUOUS
 10
31.8113742
 20
42.4119964148
 11
27.8698091766
 21
42.4119964148
  0
LINE
  5
288
100
AcDbEntity
  8
0
100
AcDbLine
 62
2
  6
CONTINUOUS
 10
31.8113742
 20
26.62459484
 11
27.8698091766
 21
26.62459484
  0
LINE
  5
289
100
AcDbEntity
  8
0
100
AcDbLine
 62
2
  6
CONTINUOUS
 10
28.4405854323
 20
42.4119964148
 11
28.4405854323
 21
35.231765947
  0
LINE
  5
28A
100
AcDbEntity
  8
0
100
AcDbLine
 62
2
  6
CONTINUOUS
 10
28.4405854323
 20
26.62459484
 11
28.4405854323
 21
32.7346198283
  0
INSERT
  5
28B
100
AcDbEntity
  8
0
100
AcDbBlockReference
 62
2
  6
CONTINUOUS
  2
_FILLED
 10
28.4405854323
 20
42.4119964148
 41
0.8561643836
 42
0.8561643836
 43
0.8561643836
 50
90.0
  0
INSERT
  5
28C
100
AcDbEntity
  8
0
100
AcDbBlockReference
 62
2
  6
CONTINUOUS
  2
_FILLED
 10
28.4405854323
 20
26.62459484
 41
0.8561643836
 42
0.8561643836
 43
0.8561643836
 50
270.0
  0
ENDBLK
  5
28D
100
AcDbEntity
  8
0
  6
BYBLOCK
 62
0
100
AcDbBlockEnd
  0
BLOCK
  5
28E
100
AcDbEntity
  8
0
100
AcDbBlockBegin
 62
2
  6
CONTINUOUS
  2
*D1
 70
65
 10
0.0
 20
0.0
  3
*D1
  1

  0
MTEXT
  5
28F
100
AcDbEntity
  8
0
100
AcDbMText
 62
2
  6
CONTINUOUS
  7
STANDARD
 71
2
 72
1
 10
40.577276065
 20
16.3505923026
 30
0.0
 11
1.0
 21
0.0
 31
0.0
 44
0.9
  1
454\P[17.9]
 40
0.7134703196
 41
2.5481082844
  0
LINE
  5
290
100
AcDbEntity
  8
0
100
AcDbLine
 62
2
  6
CONTINUOUS
 10
49.9751087845
 20
21.0089644399
 11
49.9751087845
 21
15.4230808871
  0
LINE
  5
291
100
AcDbEntity
  8
0
100
AcDbLine
 62
2
  6
CONTINUOUS
 10
32.0967623278
 20
21.6737509248
 11
32.0967623278
 21
15.4230808871
  0
LINE
  5
292
100
AcDbEntity
  8
0
100
AcDbLine
 62
2
  6
CONTINUOUS
 10
49.9751087845
 20
15.9938571428
 11
42.6667248582
 21
15.9938571428
  0
LINE
  5
293
100
AcDbEntity
  8
0
100
AcDbLine
 62
2
  6
CONTINUOUS
 10
32.0967623278
 20
15.9938571428
 11
39.4051462541
 21
15.9938571428
  0
INSERT
  5
294
100
AcDbEntity
  8
0
100
AcDbBlockReference
 62
2
  6
CONTINUOUS
  2
_FILLED
 10
49.9751087845
 20
15.9938571428
 41
0.8561643836
 42
0.8561643836
 43
0.8561643836
  0
INSERT
  5
295
100
AcDbEntity
  8
0
100
AcDbBlockReference
 62
2
  6
CONTINUOUS
  2
_FILLED
 10
32.0967623278
 20
15.9938571428
 41
0.8561643836
 42
0.8561643836
 43
0.8561643836
 50
180.0
  0
ENDBLK
  5
296
100
AcDbEntity
  8
0
  6
BYBLOCK
 62
0
100
AcDbBlockEnd
  0
BLOCK
  5
297
100
AcDbEntity
  8
0
100
AcDbBlockBegin
 62
2
  6
CONTINUOUS
  2
*D2
 70
65
 10
0.0
 20
0.0
  3
*D2
  1

  0
MTEXT
  5
298
100
AcDbEntity
  8
0
100
AcDbMText
 62
2
  6
CONTINUOUS
  7
STANDARD
 71
2
 72
1
 10
42.3047256517
 20
18.9731151854
 30
0.0
 11
1.0
 21
0.0
 31
0.0
 44
0.9
  1
368\P[14.5]
 40
0.7134703196
 41
2.4971461187
  0
LINE
  5
299
100
AcDbEntity
  8
0
100
AcDbLine
 62
2
  6
CONTINUOUS
 10
49.9751087845
 20
21.0089644399
 11
49.9751087845
 21
18.0456037699
  0
LINE
  5
29A
100
AcDbEntity
  8
0
100
AcDbLine
 62
2
  6
CONTINUOUS
 10
35.5006993357
 20
21.1929151594
 11
35.5006993357
 21
18.0456037699
  0
LINE
  5
29B
100
AcDbEntity
  8
0
100
AcDbLine
 62
2
  6
CONTINUOUS
 10
49.9751087845
 20
18.6163800256
 11
44.3432122793
 21
18.6163800256
  0
LINE
  5
29C
100
AcDbEntity
  8
0
100
AcDbLine
 62
2
  6
CONTINUOUS
 10
35.5006993357
 20
18.6163800256
 11
41.1325958409
 21
18.6163800256
  0
INSERT
  5
29D
100
AcDbEntity
  8
0
100
AcDbBlockReference
 62
2
  6
CONTINUOUS
  2
_FILLED
 10
49.9751087845
 20
18.6163800256
 41
0.8561643836
 42
0.8561643836
 43
0.8561643836
  0
INSERT
  5
29E
100
AcDbEntity
  8
0
100
AcDbBlockReference
 62
2
  6
CONTINUOUS
  2
_FILLED
 10
35.5006993357
 20
18.6163800256
 41
0.8561643836
 42
0.8561643836
 43
0.8561643836
 50
180.0
  0
ENDBLK
  5
29F
100
AcDbEntity
  8
0
  6
BYBLOCK
 62
0
100
AcDbBlockEnd
  0
BLOCK
  5
2A0
100
AcDbEntity
  8
0
100
AcDbBlockBegin
 62
2
  6
CONTINUOUS
  2
*D3
 70
65
 10
0.0
 20
0.0
  3
*D3
  1

  0
MTEXT
  5
2A1
100
AcDbEntity
  8
0
100
AcDbMText
 62
2
  6
CONTINUOUS
  7
STANDARD
 71
3
 72
1
 10
29.9742448325
 20
18.9731151854
 30
0.0
 11
1.0
 21
0.0
 31
0.0
 44
0.9
  1
40\P[1.6]
 40
0.7134703196
 41
1.9875244618
  0
LINE
  5
2A2
100
AcDbEntity
  8
0
100
AcDbLine
 62
2
  6
CONTINUOUS
 10
35.5006993357
 20
21.1929151594
 11
35.5006993357
 21
18.0456037699
  0
LINE
  5
2A3
100
AcDbEntity
  8
0
100
AcDbLine
 62
2
  6
CONTINUOUS
 10
33.9258961861
 20
21.1929151594
 11
33.9258961861
 21
18.0456037699
  0
LINE
  5
2A4
100
AcDbEntity
  8
0
100
AcDbLine
 62
2
  6
CONTINUOUS
 10
35.5006993357
 20
18.6163800256
 11
37.7838043585
 21
18.6163800256
  0
LINE
  5
2A5
100
AcDbEntity
  8
0
100
AcDbLine
 62
2
  6
CONTINUOUS
 10
33.9258961861
 20
18.6163800256
 11
31.197336809
 21
18.6163800256
  0
INSERT
  5
2A6
100
AcDbEntity
  8
0
100
AcDbBlockReference
 62
2
  6
CONTINUOUS
  2
_FILLED
 10
35.5006993357
 20
18.6163800256
 41
0.8561643836
 42
0.8561643836
 43
0.8561643836
 50
180.0
  0
INSERT
  5
2A7
100
AcDbEntity
  8
0
100
AcDbBlockReference
 62
2
  6
CONTINUOUS
  2
_FILLED
 10
33.9258961861
 20
18.6163800256
 41
0.8561643836
 42
0.8561643836
 43
0.8561643836
  0
ENDBLK
  5
2A8
100
AcDbEntity
  8
0
  6
BYBLOCK
 62
0
100
AcDbBlockEnd
  0
BLOCK
  5
2A9
100
AcDbEntity
  8
0
100
AcDbBlockBegin
 62
2
  6
CONTINUOUS
  2
*D4
 70
65
 10
0.0
 20
0.0
  3
*D4
  1

  0
MTEXT
  5
2AA
100
AcDbEntity
  8
0
100
AcDbMText
 62
2
  6
CONTINUOUS
  7
STANDARD
 71
2
 72
1
 10
53.1273163836
 20
23.0935408527
 30
0.0
 11
1.0
 21
0.0
 31
0.0
 44
0.9
  1
105\P[4.1]
 40
0.7134703196
 41
1.9875244618
  0
LINE
  5
2AB
100
AcDbEntity
  8
0
100
AcDbLine
 62
2
  6
CONTINUOUS
 10
50.1270323454
 20
24.0260681865
 11
53.9529034678
 21
24.0260681865
  0
LINE
  5
2AC
100
AcDbEntity
  8
0
100
AcDbLine
 62
2
  6
CONTINUOUS
 10
50.1270323454
 20
19.8922099188
 11
53.9529034678
 21
19.8922099188
  0
LINE
  5
2AD
100
AcDbEntity
  8
0
100
AcDbLine
 62
2
  6
CONTINUOUS
 10
53.3821272121
 20
24.0260681865
 11
53.3821272121
 21
26.3091732093
  0
LINE
  5
2AE
100
AcDbEntity
  8
0
100
AcDbLine
 62
2
  6
CONTINUOUS
 10
53.3821272121
 20
19.8922099188
 11
53.3821272121
 21
17.609104896
  0
INSERT
  5
2AF
100
AcDbEntity
  8
0
100
AcDbBlockReference
 62
2
  6
CONTINUOUS
  2
_FILLED
 10
53.3821272121
 20
24.0260681865
 41
0.8561643836
 42
0.8561643836
 43
0.8561643836
 50
270.0
  0
INSERT
  5
2B0
100
AcDbEntity
  8
0
100
AcDbBlockReference
 62
2
  6
CONTINUOUS
  2
_FILLED
 10
53.3821272121
 20
19.8922099188
 41
0.8561643836
 42
0.8561643836
 43
0.8561643836
 50
90.0
  0
ENDBLK
  5
2B1
100
AcDbEntity
  8
0
  6
BYBLOCK
 62
0
100
AcDbBlockEnd
  0
BLOCK
  5
2B2
100
AcDbEntity
  8
0
100
AcDbBlockBegin
 62
2
  6
CONTINUOUS
  2
*D5
 70
65
 10
0.0
 20
0.0
  3
*D5
  1

  0
MTEXT
  5
2B3
100
AcDbEntity
  8
0
100
AcDbMText
 62
2
  6
CONTINUOUS
  7
STANDARD
 71
3
 72
1
 10
8.3010218688
 20
44.5407730958
 30
0.0
 11
1.0
 21
0.0
 31
0.0
 44
0.9
  1
2X 72\P[2.8]
 40
0.7134703196
 41
2.8538812785
  0
LINE
  5
2B4
100
AcDbEntity
  8
0
100
AcDbLine
 62
2
  6
CONTINUOUS
 10
14.7104332755
 20
37.9131873062
 11
14.7104332755
 21
44.7548141917
  0
LINE
  5
2B5
100
AcDbEntity
  8
0
100
AcDbLine
 62
2
  6
CONTINUOUS
 10
11.8757876062
 20
37.9131873062
 11
11.8757876062
 21
44.7548141917
  0
LINE
  5
2B6
100
AcDbEntity
  8
0
100
AcDbLine
 62
2
  6
CONTINUOUS
 10
14.7104332755
 20
44.184037936
 11
16.9935382983
 21
44.184037936
  0
LINE
  5
2B7
100
AcDbEntity
  8
0
100
AcDbLine
 62
2
  6
CONTINUOUS
 10
11.8757876062
 20
44.184037936
 11
9.6770003424
 21
44.184037936
  0
INSERT
  5
2B8
100
AcDbEntity
  8
0
100
AcDbBlockReference
 62
2
  6
CONTINUOUS
  2
_FILLED
 10
14.7104332755
 20
44.184037936
 41
0.8561643836
 42
0.8561643836
 43
0.8561643836
 50
180.0
  0
INSERT
  5
2B9
100
AcDbEntity
  8
0
100
AcDbBlockReference
 62
2
  6
CONTINUOUS
  2
_FILLED
 10
11.8757876062
 20
44.184037936
 41
0.8561643836
 42
0.8561643836
 43
0.8561643836
  0
ENDBLK
  5
2BA
100
AcDbEntity
  8
0
  6
BYBLOCK
 62
0
100
AcDbBlockEnd
  0
BLOCK
  5
2BB
100
AcDbEntity
  8
0
100
AcDbBlockBegin
 62
2
  6
CONTINUOUS
  2
*D6
 70
65
 10
0.0
 20
0.0
  3
*D6
  1

  0
MTEXT
  5
2BC
100
AcDbEntity
  8
0
100
AcDbMText
 62
2
  6
CONTINUOUS
  7
STANDARD
 71
1
 72
1
 10
16.9175437214
 20
22.9561471105
 30
0.0
 11
1.0
 21
0.0
 31
0.0
 44
0.9
  1
4X 10\P[.4]
 40
0.7134703196
 41
2.7009947815
  0
LINE
  5
2BD
100
AcDbEntity
  8
0
100
AcDbLine
 62
2
  6
CONTINUOUS
 10
14.3757876062
 20
27.7368445074
 11
14.3757876062
 21
22.028635695
  0
LINE
  5
2BE
100
AcDbEntity
  8
0
100
AcDbLine
 62
2
  6
CONTINUOUS
 10
13.9820868188
 20
27.7368445074
 11
13.9820868188
 21
22.028635695
  0
LINE
  5
2BF
100
AcDbEntity
  8
0
100
AcDbLine
 62
2
  6
CONTINUOUS
 10
14.3757876062
 20
22.5994119507
 11
16.5608085616
 21
22.5994119507
  0
LINE
  5
2C0
100
AcDbEntity
  8
0
100
AcDbLine
 62
2
  6
CONTINUOUS
 10
13.9820868188
 20
22.5994119507
 11
11.6989817959
 21
22.5994119507
  0
INSERT
  5
2C1
100
AcDbEntity
  8
0
100
AcDbBlockReference
 62
2
  6
CONTINUOUS
  2
_FILLED
 10
14.3757876062
 20
22.5994119507
 41
0.8561643836
 42
0.8561643836
 43
0.8561643836
 50
180.0
  0
INSERT
  5
2C2
100
AcDbEntity
  8
0
100
AcDbBlockReference
 62
2
  6
CONTINUOUS
  2
_FILLED
 10
13.9820868188
 20
22.5994119507
 41
0.8561643836
 42
0.8561643836
 43
0.8561643836
  0
ENDBLK
  5
2C3
100
AcDbEntity
  8
0
  6
BYBLOCK
 62
0
100
AcDbBlockEnd
  0
BLOCK
  5
2C4
100
AcDbEntity
  8
0
100
AcDbBlockBegin
 62
2
  6
CONTINUOUS
  2
*D7
 70
65
 10
0.0
 20
0.0
  3
*D7
  1

  0
MTEXT
  5
2C5
100
AcDbEntity
  8
0
100
AcDbMText
 62
2
  6
CONTINUOUS
  7
STANDARD
 71
3
 72
1
 10
8.9615944475
 20
25.0039735041
 30
0.0
 11
1.0
 21
0.0
 31
0.0
 44
0.9
  1
4X 45\P[1.8]
 40
0.7134703196
 41
2.8029191129
  0
LINE
  5
2C6
100
AcDbEntity
  8
0
100
AcDbLine
 62
2
  6
CONTINUOUS
 10
12.4072836692
 20
27.2802195658
 11
12.4072836692
 21
24.0764620886
  0
LINE
  5
2C7
100
AcDbEntity
  8
0
100
AcDbLine
 62
2
  6
CONTINUOUS
 10
14.1789372125
 20
27.2802195658
 11
14.1789372125
 21
24.0764620886
  0
LINE
  5
2C8
100
AcDbEntity
  8
0
100
AcDbLine
 62
2
  6
CONTINUOUS
 10
12.4072836692
 20
24.6472383443
 11
10.2356485897
 21
24.6472383443
  0
LINE
  5
2C9
100
AcDbEntity
  8
0
100
AcDbLine
 62
2
  6
CONTINUOUS
 10
14.1789372125
 20
24.6472383443
 11
16.4620422353
 21
24.6472383443
  0
INSERT
  5
2CA
100
AcDbEntity
  8
0
100
AcDbBlockReference
 62
2
  6
CONTINUOUS
  2
_FILLED
 10
12.4072836692
 20
24.6472383443
 41
0.8561643836
 42
0.8561643836
 43
0.8561643836
  0
INSERT
  5
2CB
100
AcDbEntity
  8
0
100
AcDbBlockReference
 62
2
  6
CONTINUOUS
  2
_FILLED
 10
14.1789372125
 20
24.6472383443
 41
0.8561643836
 42
0.8561643836
 43
0.8561643836
 50
180.0
  0
ENDBLK
  5
2CC
100
AcDbEntity
  8
0
  6
BYBLOCK
 62
0
100
AcDbBlockEnd
  0
BLOCK
  5
2CD
100
AcDbEntity
  8
0
100
AcDbBlockBegin
 62
2
  6
CONTINUOUS
  2
*D8
 70
65
 10
0.0
 20
0.0
  3
*D8
  1

  0
MTEXT
  5
2CE
100
AcDbEntity
  8
0
100
AcDbMText
 62
2
  6
CONTINUOUS
  7
STANDARD
 71
3
 72
1
 10
30.6988717036
 20
25.4542822029
 30
0.0
 11
1.0
 21
0.0
 31
0.0
 44
0.9
  1
2X \Fgdt;{\Fgdt;n}\Ftxt;12\P[.5]
 40
0.7134703196
 41
3.652288541
  0
LINE
  5
2CF
100
AcDbEntity
  8
0
100
AcDbLine
 62
2
  6
CONTINUOUS
 10
33.8226621219
 20
22.1716074964
 11
32.4010080375
 21
25.0975470431
  0
LINE
  5
2D0
100
AcDbEntity
  8
0
100
AcDbLine
 62
2
  6
CONTINUOUS
 10
32.4010080375
 20
25.0975470431
 11
31.6161906859
 21
25.0975470431
  0
INSERT
  5
2D1
100
AcDbEntity
  8
0
100
AcDbBlockReference
 62
2
  6
CONTINUOUS
  2
_FILLED
 10
33.8226621219
 20
22.1716074964
 41
0.8561643836
 42
0.8561643836
 43
0.8561643836
 50
295.9141672898
  0
ENDBLK
  5
2D2
100
AcDbEntity
  8
0
  6
BYBLOCK
 62
0
100
AcDbBlockEnd
  0
BLOCK
  5
2D3
100
AcDbEntity
  8
0
100
AcDbBlockBegin
 62
2
  6
CONTINUOUS
  2
*D9
 70
65
 10
0.0
 20
0.0
  3
*D9
  1

  0
MTEXT
  5
2D4
100
AcDbEntity
  8
0
100
AcDbMText
 62
2
  6
CONTINUOUS
  7
STANDARD
 71
2
 72
1
 10
4.0654346819
 20
35.4817460013
 30
0.0
 11
1.0
 21
0.0
 31
0.0
 44
0.9
  1
146\P[5.7]
 40
0.7134703196
 41
2.0894487932
  0
LINE
  5
2D5
100
AcDbEntity
  8
0
100
AcDbLine
 62
2
  6
CONTINUOUS
 10
12.5360140376
 20
37.3923113754
 11
3.7749503374
 21
37.3923113754
  0
LINE
  5
2D6
100
AcDbEntity
  8
0
100
AcDbLine
 62
2
  6
CONTINUOUS
 10
12.5360140376
 20
31.6442798794
 11
3.7749503374
 21
31.6442798794
  0
LINE
  5
2D7
100
AcDbEntity
  8
0
100
AcDbLine
 62
2
  6
CONTINUOUS
 10
4.3457265932
 20
37.3923113754
 11
4.3457265932
 21
35.8384811611
  0
LINE
  5
2D8
100
AcDbEntity
  8
0
100
AcDbLine
 62
2
  6
CONTINUOUS
 10
4.3457265932
 20
31.6442798794
 11
4.3457265932
 21
33.3413350424
  0
INSERT
  5
2D9
100
AcDbEntity
  8
0
100
AcDbBlockReference
 62
2
  6
CONTINUOUS
  2
_FILLED
 10
4.3457265932
 20
37.3923113754
 41
0.8561643836
 42
0.8561643836
 43
0.8561643836
 50
90.0
  0
INSERT
  5
2DA
100
AcDbEntity
  8
0
100
AcDbBlockReference
 62
2
  6
CONTINUOUS
  2
_FILLED
 10
4.3457265932
 20
31.6442798794
 41
0.8561643836
 42
0.8561643836
 43
0.8561643836
 50
270.0
  0
ENDBLK
  5
2DB
100
AcDbEntity
  8
0
  6
BYBLOCK
 62
0
100
AcDbBlockEnd
  0
BLOCK
  5
2DC
100
AcDbEntity
  8
0
100
AcDbBlockBegin
 62
2
  6
CONTINUOUS
  2
*D10
 70
65
 10
0.0
 20
0.0
  3
*D10
  1

  0
MTEXT
  5
2DD
100
AcDbEntity
  8
0
100
AcDbMText
 62
2
  6
CONTINUOUS
  7
STANDARD
 71
2
 72
1
 10
8.0513169135
 20
35.2958802778
 30
0.0
 11
1.0
 21
0.0
 31
0.0
 44
0.9
  1
2X 134\P[5.3]
 40
0.7134703196
 41
3.2106164384
  0
LINE
  5
2DE
100
AcDbEntity
  8
0
100
AcDbLine
 62
2
  6
CONTINUOUS
 10
11.118691203
 20
37.156090903
 11
7.7608325691
 21
37.156090903
  0
LINE
  5
2DF
100
AcDbEntity
  8
0
100
AcDbLine
 62
2
  6
CONTINUOUS
 10
11.118691203
 20
31.8805003518
 11
7.7608325691
 21
31.8805003518
  0
LINE
  5
2E0
100
AcDbEntity
  8
0
100
AcDbLine
 62
2
  6
CONTINUOUS
 10
8.3316088248
 20
37.156090903
 11
8.3316088248
 21
35.6526154376
  0
LINE
  5
2E1
100
AcDbEntity
  8
0
100
AcDbLine
 62
2
  6
CONTINUOUS
 10
8.3316088248
 20
31.8805003518
 11
8.3316088248
 21
33.1554693189
  0
INSERT
  5
2E2
100
AcDbEntity
  8
0
100
AcDbBlockReference
 62
2
  6
CONTINUOUS
  2
_FILLED
 10
8.3316088248
 20
37.156090903
 41
0.8561643836
 42
0.8561643836
 43
0.8561643836
 50
90.0
  0
INSERT
  5
2E3
100
AcDbEntity
  8
0
100
AcDbBlockReference
 62
2
  6
CONTINUOUS
  2
_FILLED
 10
8.3316088248
 20
31.8805003518
 41
0.8561643836
 42
0.8561643836
 43
0.8561643836
 50
270.0
  0
ENDBLK
  5
2E4
100
AcDbEntity
  8
0
  6
BYBLOCK
 62
0
100
AcDbBlockEnd
  0
BLOCK
  5
2E5
100
AcDbEntity
  8
0
100
AcDbBlockBegin
 62
2
  6
CONTINUOUS
  2
*D11
 70
65
 10
0.0
 20
0.0
  3
*D11
  1

  0
MTEXT
  5
2E6
100
AcDbEntity
  8
0
100
AcDbMText
 62
2
  6
CONTINUOUS
  7
STANDARD
 71
2
 72
1
 10
23.3508793425
 20
34.8750307872
 30
0.0
 11
1.0
 21
0.0
 31
0.0
 44
0.9
  1
330\P[13.0]
 40
0.7134703196
 41
2.4971461187
  0
LINE
  5
2E7
100
AcDbEntity
  8
0
100
AcDbLine
 62
2
  6
CONTINUOUS
 10
14.9209502819
 20
41.0143586195
 11
24.3803150894
 21
41.0143586195
  0
LINE
  5
2E8
100
AcDbEntity
  8
0
100
AcDbLine
 62
2
  6
CONTINUOUS
 10
14.9209502819
 20
28.0222326353
 11
24.3803150894
 21
28.0222326353
  0
LINE
  5
2E9
100
AcDbEntity
  8
0
100
AcDbLine
 62
2
  6
CONTINUOUS
 10
23.8095388337
 20
41.0143586195
 11
23.8095388337
 21
35.231765947
  0
LINE
  5
2EA
100
AcDbEntity
  8
0
100
AcDbLine
 62
2
  6
CONTINUOUS
 10
23.8095388337
 20
28.0222326353
 11
23.8095388337
 21
32.7346198283
  0
INSERT
  5
2EB
100
AcDbEntity
  8
0
100
AcDbBlockReference
 62
2
  6
CONTINUOUS
  2
_FILLED
 10
23.8095388337
 20
41.0143586195
 41
0.8561643836
 42
0.8561643836
 43
0.8561643836
 50
90.0
  0
INSERT
  5
2EC
100
AcDbEntity
  8
0
100
AcDbBlockReference
 62
2
  6
CONTINUOUS
  2
_FILLED
 10
23.8095388337
 20
28.0222326353
 41
0.8561643836
 42
0.8561643836
 43
0.8561643836
 50
270.0
  0
ENDBLK
  5
2ED
100
AcDbEntity
  8
0
  6
BYBLOCK
 62
0
100
AcDbBlockEnd
  0
BLOCK
  5
2EE
100
AcDbEntity
  8
0
100
AcDbBlockBegin
 62
2
  6
CONTINUOUS
  2
*D12
 70
65
 10
0.0
 20
0.0
  3
*D12
  1

  0
MTEXT
  5
2EF
100
AcDbEntity
  8
0
100
AcDbMText
 62
2
  6
CONTINUOUS
  7
STANDARD
 71
1
 72
1
 10
19.1190321945
 20
26.5752282315
 30
0.0
 11
1.0
 21
0.0
 31
0.0
 44
0.9
  1
4X 27\P[1.1]
 40
0.7134703196
 41
2.8538812785
  0
LINE
  5
2F0
100
AcDbEntity
  8
0
100
AcDbLine
 62
2
  6
CONTINUOUS
 10
14.9209502819
 20
29.0852247613
 11
18.5482559388
 21
29.0852247613
  0
LINE
  5
2F1
100
AcDbEntity
  8
0
100
AcDbLine
 62
2
  6
CONTINUOUS
 10
14.9209502819
 20
28.0222326353
 11
18.5482559388
 21
28.0222326353
  0
LINE
  5
2F2
100
AcDbEntity
  8
0
100
AcDbLine
 62
2
  6
CONTINUOUS
 10
17.9774796831
 20
29.0852247613
 11
17.9774796831
 21
31.3683297841
  0
LINE
  5
2F3
100
AcDbEntity
  8
0
100
AcDbLine
 62
2
  6
CONTINUOUS
 10
17.9774796831
 20
28.0222326353
 11
17.9774796831
 21
26.2184930717
  0
LINE
  5
2F4
100
AcDbEntity
  8
0
100
AcDbLine
 62
2
  6
CONTINUOUS
 10
17.9774796831
 20
26.2184930717
 11
18.7622970347
 21
26.2184930717
  0
INSERT
  5
2F5
100
AcDbEntity
  8
0
100
AcDbBlockReference
 62
2
  6
CONTINUOUS
  2
_FILLED
 10
17.9774796831
 20
29.0852247613
 41
0.8561643836
 42
0.8561643836
 43
0.8561643836
 50
270.0
  0
INSERT
  5
2F6
100
AcDbEntity
  8
0
100
AcDbBlockReference
 62
2
  6
CONTINUOUS
  2
_FILLED
 10
17.9774796831
 20
28.0222326353
 41
0.8561643836
 42
0.8561643836
 43
0.8561643836
 50
90.0
  0
ENDBLK
  5
2F7
100
AcDbEntity
  8
0
  6
BYBLOCK
 62
0
100
AcDbBlockEnd
  0
BLOCK
  5
2F8
100
AcDbEntity
  8
0
100
AcDbBlockBegin
 62
2
  6
CONTINUOUS
  2
*D13
 70
65
 10
0.0
 20
0.0
  3
*D13
  1

  0
MTEXT
  5
2F9
100
AcDbEntity
  8
0
100
AcDbMText
 62
2
  6
CONTINUOUS
  7
STANDARD
 71
1
 72
1
 10
18.0806747025
 20
39.9300925044
 30
0.0
 11
1.0
 21
0.0
 31
0.0
 44
0.9
  1
4X \Fgdt;{\Fgdt;n}\Ftxt;7\P[.3]
 40
0.7134703196
 41
3.2445912155
  0
LINE
  5
2FA
100
AcDbEntity
  8
0
100
AcDbLine
 62
2
  6
CONTINUOUS
 10
14.8038374501
 20
37.2573983466
 11
16.9391221911
 21
39.5733573445
  0
LINE
  5
2FB
100
AcDbEntity
  8
0
100
AcDbLine
 62
2
  6
CONTINUOUS
 10
16.9391221911
 20
39.5733573445
 11
17.7239395427
 21
39.5733573445
  0
INSERT
  5
2FC
100
AcDbEntity
  8
0
100
AcDbBlockReference
 62
2
  6
CONTINUOUS
  2
_FILLED
 10
14.8038374501
 20
37.2573983466
 41
0.8561643836
 42
0.8561643836
 43
0.8561643836
 50
227.3243375662
  0
ENDBLK
  5
2FD
100
AcDbEntity
  8
0
  6
BYBLOCK
 62
0
100
AcDbBlockEnd
  0
BLOCK
  5
2FE
100
AcDbEntity
  8
0
100
AcDbBlockBegin
 62
2
  6
CONTINUOUS
  2
*D14
 70
65
 10
0.0
 20
0.0
  3
*D14
  1

  0
MTEXT
  5
2FF
100
AcDbEntity
  8
0
100
AcDbMText
 62
2
  6
CONTINUOUS
  7
STANDARD
 71
1
 72
1
 10
17.6006423027
 20
36.4415944863
 30
0.0
 11
1.0
 21
0.0
 31
0.0
 44
0.9
  1
3X \Fgdt;{\Fgdt;n}\Ftxt;13\P[.5]
 40
0.7134703196
 41
3.5503642096
  0
LINE
  5
300
100
AcDbEntity
  8
0
100
AcDbLine
 62
2
  6
CONTINUOUS
 10
13.5224733083
 20
34.6317870632
 11
16.4590897913
 21
36.0848593265
  0
LINE
  5
301
100
AcDbEntity
  8
0
100
AcDbLine
 62
2
  6
CONTINUOUS
 10
16.4590897913
 20
36.0848593265
 11
17.2439071429
 21
36.0848593265
  0
INSERT
  5
302
100
AcDbEntity
  8
0
100
AcDbBlockReference
 62
2
  6
CONTINUOUS
  2
_FILLED
 10
13.5224733083
 20
34.6317870632
 41
0.8561643836
 42
0.8561643836
 43
0.8561643836
 50
206.3267449137
  0
ENDBLK
  5
303
100
AcDbEntity
  8
0
  6
BYBLOCK
 62
0
100
AcDbBlockEnd
  0
ENDSEC
  0
SECTION
  2
ENTITIES
  0
MTEXT
  5
304
100
AcDbEntity
  8
0
100
AcDbMText
 62
2
  6
CONTINUOUS
  7
STANDARD
 71
1
 72
1
 10
11.2833018762
 20
1.8407480659
 30
0.0
 11
1.0
 21
0.0
 31
0.0
 44
0.9
  1
4
 40
0.7134703196
 41
0.5605838226
  0
MTEXT
  5
305
100
AcDbEntity
  8
0
100
AcDbMText
 62
2
  6
CONTINUOUS
  7
STANDARD
 71
1
 72
1
 10
28.9687432919
 20
1.837410232
 30
0.0
 11
1.0
 21
0.0
 31
0.0
 44
0.9
  1
3
 40
0.7134703196
 41
0.5096216569
  0
MTEXT
  5
306
100
AcDbEntity
  8
0
100
AcDbMText
 62
2
  6
CONTINUOUS
  7
STANDARD
 71
1
 72
1
 10
46.6132276874
 20
1.8389287716
 30
0.0
 11
1.0
 21
0.0
 31
0.0
 44
0.9
  1
2
 40
0.7134703196
 41
0.5605838226
  0
MTEXT
  5
307
100
AcDbEntity
  8
0
100
AcDbMText
 62
2
  6
CONTINUOUS
  7
STANDARD
 71
1
 72
1
 10
64.290859783
 20
1.8390053256
 30
0.0
 11
1.0
 21
0.0
 31
0.0
 44
0.9
  1
1
 40
0.7134703196
 41
0.4076973255
  0
MTEXT
  5
308
100
AcDbEntity
  8
0
100
AcDbMText
 62
2
  6
CONTINUOUS
  7
STANDARD
 71
1
 72
1
 10
11.2858304629
 20
49.6326871938
 30
0.0
 11
1.0
 21
0.0
 31
0.0
 44
0.9
  1
4
 40
0.7134703196
 41
0.5605838226
  0
MTEXT
  5
309
100
AcDbEntity
  8
0
100
AcDbMText
 62
2
  6
CONTINUOUS
  7
STANDARD
 71
1
 72
1
 10
28.9617604262
 20
49.6273837063
 30
0.0
 11
1.0
 21
0.0
 31
0.0
 44
0.9
  1
3
 40
0.7134703196
 41
0.5096216569
  0
MTEXT
  5
30A
100
AcDbEntity
  8
0
100
AcDbMText
 62
2
  6
CONTINUOUS
  7
STANDARD
 71
1
 72
1
 10
46.621606707
 20
49.6264869625
 30
0.0
 11
1.0
 21
0.0
 31
0.0
 44
0.9
  1
2
 40
0.7134703196
 41
0.5605838226
  0
MTEXT
  5
30B
100
AcDbEntity
  8
0
100
AcDbMText
 62
2
  6
CONTINUOUS
  7
STANDARD
 71
1
 72
1
 10
64.291653082
 20
49.6271300161
 30
0.0
 11
1.0
 21
0.0
 31
0.0
 44
0.9
  1
1
 40
0.7134703196
 41
0.4076973255
  0
MTEXT
  5
30C
100
AcDbEntity
  8
0
100
AcDbMText
 62
2
  6
CONTINUOUS
  7
STANDARD
 71
1
 72
1
 10
1.1610418564
 20
8.489937485
 30
0.0
 11
1.0
 21
0.0
 31
0.0
 44
0.9
  1
A
 40
0.7134703196
 41
0.6115459883
  0
MTEXT
  5
30D
100
AcDbEntity
  8
0
100
AcDbMText
 62
2
  6
CONTINUOUS
  7
STANDARD
 71
1
 72
1
 10
1.1860604141
 20
19.9099114716
 30
0.0
 11
1.0
 21
0.0
 31
0.0
 44
0.9
  1
B
 40
0.7134703196
 41
0.5605838226
  0
MTEXT
  5
30E
100
AcDbEntity
  8
0
100
AcDbMText
 62
2
  6
CONTINUOUS
  7
STANDARD
 71
1
 72
1
 10
1.179447747
 20
31.3146121619
 30
0.0
 11
1.0
 21
0.0
 31
0.0
 44
0.9
  1
C
 40
0.7134703196
 41
0.5945585997
  0
MTEXT
  5
30F
100
AcDbEntity
  8
0
100
AcDbMText
 62
2
  6
CONTINUOUS
  7
STANDARD
 71
1
 72
1
 10
1.1890034911
 20
42.7493502264
 30
0.0
 11
1.0
 21
0.0
 31
0.0
 44
0.9
  1
D
 40
0.7134703196
 41
0.6455207654
  0
MTEXT
  5
310
100
AcDbEntity
  8
0
100
AcDbMText
 62
2
  6
CONTINUOUS
  7
STANDARD
 71
1
 72
1
 10
74.2027343398
 20
8.4885625097
 30
0.0
 11
1.0
 21
0.0
 31
0.0
 44
0.9
  1
A
 40
0.7134703196
 41
0.6115459883
  0
MTEXT
  5
311
100
AcDbEntity
  8
0
100
AcDbMText
 62
2
  6
CONTINUOUS
  7
STANDARD
 71
1
 72
1
 10
74.1984788173
 20
19.9083705106
 30
0.0
 11
1.0
 21
0.0
 31
0.0
 44
0.9
  1
B
 40
0.7134703196
 41
0.5605838226
  0
MTEXT
  5
312
100
AcDbEntity
  8
0
100
AcDbMText
 62
2
  6
CONTINUOUS
  7
STANDARD
 71
1
 72
1
 10
74.1965890788
 20
31.3121084939
 30
0.0
 11
1.0
 21
0.0
 31
0.0
 44
0.9
  1
C
 40
0.7134703196
 41
0.5945585997
  0
MTEXT
  5
313
100
AcDbEntity
  8
0
100
AcDbMText
 62
2
  6
CONTINUOUS
  7
STANDARD
 71
1
 72
1
 10
74.198332346
 20
42.7480310994
 30
0.0
 11
1.0
 21
0.0
 31
0.0
 44
0.9
  1
D
 40
0.7134703196
 41
0.6455207654
  0
MTEXT
  5
314
100
AcDbEntity
  8
0
100
AcDbMText
 62
5
  6
CONTINUOUS
  7
STANDARD
 71
1
 72
1
 10
2.4851386125
 20
47.7738457539
 30
0.0
 11
1.0
 21
0.0
 31
0.0
 44
0.9
  1
THIS DOCUMENT CONTAINS PROPRIETARY INFORMATION\PWHICH IS THE PROPERTY OF QSC AUDIO PRODUCTS, THAT\PMAY NOT BE DISCLOSED, REPRODUCED OR USED WITHOUT\PEXPRESS WRITTEN CONSENT FROM QSC AUDIO PRODUCTS.
 40
0.3424657534
 41
13.4377038487
  0
MTEXT
  5
315
100
AcDbEntity
  8
0
100
AcDbMText
 62
2
  6
CONTINUOUS
  7
STANDARD
 71
2
 72
1
 10
33.036288946
 20
11.835550222
 30
0.0
 11
1.0
 21
0.0
 31
0.0
 44
0.9
  1
TOLERANCES ARE:
 40
0.4109589041
 41
4.7064579256
  0
MTEXT
  5
316
100
AcDbEntity
  8
0
100
AcDbMText
 62
2
  6
CONTINUOUS
  7
STANDARD
 71
2
 72
1
 10
37.1200775999
 20
10.7876744047
 30
0.0
 11
1.0
 21
0.0
 31
0.0
 44
0.9
  1
ANGLES\P\Fgdt;{\Fgdt;`}\Ftxt; 1/2
 40
0.4109589041
 41
1.9569471624
  0
MTEXT
  5
317
100
AcDbEntity
  8
0
100
AcDbMText
 62
2
  6
CONTINUOUS
  7
STANDARD
 71
2
 72
1
 10
29.4928058484
 20
7.6996343268
 30
0.0
 11
1.0
 21
0.0
 31
0.0
 44
0.9
  1
MATERIAL
 40
0.4109589041
 41
2.6320939335
  0
MTEXT
  5
318
100
AcDbEntity
  8
0
100
AcDbMText
 62
2
  6
CONTINUOUS
  7
STANDARD
 71
2
 72
1
 10
29.0554324933
 20
4.9184777486
 30
0.0
 11
1.0
 21
0.0
 31
0.0
 44
0.9
  1
FINISH
 40
0.4109589041
 41
1.8688845401
  0
MTEXT
  5
319
100
AcDbEntity
  8
0
100
AcDbMText
 62
2
  6
CONTINUOUS
  7
STANDARD
 71
2
 72
1
 10
60.5926589717
 20
3.1091441175
 30
0.0
 11
1.0
 21
0.0
 31
0.0
 44
0.9
  1
DO NOT SCALE DRAWING
 40
0.5707762557
 41
9.4857577734
  0
MTEXT
  5
31A
100
AcDbEntity
  8
0
100
AcDbMText
 62
2
  6
CONTINUOUS
  7
STANDARD
 71
2
 72
1
 10
39.3787524859
 20
12.4094363862
 30
0.0
 11
1.0
 21
0.0
 31
0.0
 44
0.9
  1
DRAWN
 40
0.4109589041
 41
2.0058708415
  0
MTEXT
  5
31B
100
AcDbEntity
  8
0
100
AcDbMText
 62
2
  6
CONTINUOUS
  7
STANDARD
 71
2
 72
1
 10
39.5391364316
 20
10.3854132165
 30
0.0
 11
1.0
 21
0.0
 31
0.0
 44
0.9
  1
CHECKED
 40
0.4109589041
 41
2.3679060665
  0
MTEXT
  5
31C
100
AcDbEntity
  8
0
100
AcDbMText
 62
2
  6
CONTINUOUS
  7
STANDARD
 71
2
 72
1
 10
39.5107996635
 20
8.3931928974
 30
0.0
 11
1.0
 21
0.0
 31
0.0
 44
0.9
  1
MFG ENG
 40
0.4109589041
 41
2.3091976517
  0
MTEXT
  5
31D
100
AcDbEntity
  8
0
100
AcDbMText
 62
2
  6
CONTINUOUS
  7
STANDARD
 71
2
 72
1
 10
39.716815902
 20
6.3871431361
 30
0.0
 11
1.0
 21
0.0
 31
0.0
 44
0.9
  1
QA CHECK
 40
0.4109589041
 41
2.7299412916
  0
MTEXT
  5
31E
100
AcDbEntity
  8
0
100
AcDbMText
 62
2
  6
CONTINUOUS
  7
STANDARD
 71
2
 72
1
 10
40.8973675816
 20
3.0867692642
 30
0.0
 11
1.0
 21
0.0
 31
0.0
 44
0.9
  1
MODEL INFO:
 40
0.4109589041
 41
3.3561643836
  0
MTEXT
  5
31F
100
AcDbEntity
  8
0
100
AcDbMText
 62
2
  6
CONTINUOUS
  7
STANDARD
 71
2
 72
1
 10
40.4742049922
 20
4.1934294132
 30
0.0
 11
1.0
 21
0.0
 31
0.0
 44
0.9
  1
DRAWING INFO:
 40
0.4109589041
 41
4.2661448141
  0
MTEXT
  5
320
100
AcDbEntity
  8
0
100
AcDbMText
 62
2
  6
CONTINUOUS
  7
STANDARD
 71
2
 72
1
 10
42.1978230391
 20
13.4988733549
 30
0.0
 11
1.0
 21
0.0
 31
0.0
 44
0.9
  1
APPROVALS
 40
0.4109589041
 41
3.0039138943
  0
MTEXT
  5
321
100
AcDbEntity
  8
0
100
AcDbMText
 62
2
  6
CONTINUOUS
  7
STANDARD
 71
2
 72
1
 10
48.1464047696
 20
13.8591666901
 30
0.0
 11
1.0
 21
0.0
 31
0.0
 44
0.9
  1
DATE\P(DD-MMM-YY)
 40
0.4109589041
 41
3.4442270059
  0
MTEXT
  5
322
100
AcDbEntity
  8
0
100
AcDbMText
 62
2
  6
CONTINUOUS
  7
STANDARD
 71
2
 72
1
 10
51.3212994584
 20
3.0457549325
 30
0.0
 11
1.0
 21
0.0
 31
0.0
 44
0.9
  1
SCALE:
 40
0.4109589041
 41
1.8003913894
  0
MTEXT
  5
323
100
AcDbEntity
  8
0
100
AcDbMText
 62
2
  6
CONTINUOUS
  7
STANDARD
 71
2
 72
1
 10
66.7408344031
 20
3.0533373813
 30
0.0
 11
1.0
 21
0.0
 31
0.0
 44
0.9
  1
SHEET
 40
0.4109589041
 41
1.6634050881
  0
MTEXT
  5
324
100
AcDbEntity
  8
0
100
AcDbMText
 62
2
  6
CONTINUOUS
  7
STANDARD
 71
2
 72
1
 10
51.3332395013
 20
5.5266194855
 30
0.0
 11
1.0
 21
0.0
 31
0.0
 44
0.9
  1
SIZE
 40
0.4109589041
 41
1.2818003914
  0
MTEXT
  5
325
100
AcDbEntity
  8
0
100
AcDbMText
 62
2
  6
CONTINUOUS
  7
STANDARD
 71
2
 72
1
 10
54.7200804049
 20
5.531581932
 30
0.0
 11
1.0
 21
0.0
 31
0.0
 44
0.9
  1
CAGE CODE
 40
0.4109589041
 41
3.0430528376
  0
MTEXT
  5
326
100
AcDbEntity
  8
0
100
AcDbMText
 62
2
  6
CONTINUOUS
  7
STANDARD
 71
2
 72
1
 10
59.0910947399
 20
5.5220683366
 30
0.0
 11
1.0
 21
0.0
 31
0.0
 44
0.9
  1
DRAWING NO.
 40
0.4109589041
 41
3.7964774951
  0
MTEXT
  5
327
100
AcDbEntity
  8
0
100
AcDbMText
 62
2
  6
CONTINUOUS
  7
STANDARD
 71
2
 72
1
 10
71.9732084906
 20
5.5281913547
 30
0.0
 11
1.0
 21
0.0
 31
0.0
 44
0.9
  1
REV
 40
0.4109589041
 41
1.0371819961
  0
MTEXT
  5
328
100
AcDbEntity
  8
0
100
AcDbMText
 62
2
  6
CONTINUOUS
  7
STANDARD
 71
2
 72
1
 10
65.4524938958
 20
13.6406321196
 30
0.0
 11
1.0
 21
0.0
 31
0.0
 44
0.9
  1
QSC AUDIO PRODUCTS, LLC
 40
0.7134703196
 41
12.9953522505
  0
MTEXT
  5
329
100
AcDbEntity
  8
0
100
AcDbMText
 62
2
  6
CONTINUOUS
  7
STANDARD
 71
1
 72
1
 10
58.9595087388
 20
12.576667415
 30
0.0
 11
1.0
 21
0.0
 31
0.0
 44
0.9
  1
1675  MACARTHUR BOULEVARD\PCOSTA MESA, CA  92626
 40
0.5707762557
 41
11.3611654708
  0
MTEXT
  5
32A
100
AcDbEntity
  8
0
100
AcDbMText
 62
2
  6
CONTINUOUS
  7
STANDARD
 71
1
 72
1
 10
53.1055182142
 20
4.549207725
 30
0.0
 11
1.0
 21
0.0
 31
0.0
 44
0.9
  1
00PW4
 40
0.7134703196
 41
3.3465155469
  0
MTEXT
  5
32B
100
AcDbEntity
  8
0
100
AcDbMText
 62
2
  6
CONTINUOUS
  7
STANDARD
 71
2
 72
1
 10
33.1281683888
 20
13.5697828075
 30
0.0
 11
1.0
 21
0.0
 31
0.0
 44
0.9
  1
UNLESS OTHERWISE SPECIFIED\PDIMENSIONS IN MILLIMETERS [IN]
 40
0.4566210046
 41
10.0021743857
  0
MTEXT
  5
32C
100
AcDbEntity
  8
0
100
AcDbMText
 62
2
  6
CONTINUOUS
  7
STANDARD
 71
2
 72
1
 10
29.8101724413
 20
10.7941333986
 30
0.0
 11
1.0
 21
0.0
 31
0.0
 44
0.9
  1
DECIMALS\P.X\Fgdt;{\Fgdt;`}\Ftxt;.5[.02]
 40
0.4109589041
 41
2.8277886497
  0
MTEXT
  5
32D
100
AcDbEntity
  8
0
100
AcDbMText
 62
2
  6
CONTINUOUS
  7
STANDARD
 71
2
 72
1
 10
33.7936474328
 20
10.7963210665
 30
0.0
 11
1.0
 21
0.0
 31
0.0
 44
0.9
  1
DECIMALS\P.XX\Fgdt;{\Fgdt;`}\Ftxt;.25[.010]
 40
0.4109589041
 41
3.7377690802
  0
MTEXT
  5
32E
100
AcDbEntity
  8
0
100
AcDbMText
 62
2
  6
CONTINUOUS
  7
STANDARD
 71
2
 72
1
 10
33.0619691736
 20
9.002574505
 30
0.0
 11
1.0
 21
0.0
 31
0.0
 44
0.9
  1
DEBURR EDGES .25 [.010] R MAX
 40
0.4109589041
 41
8.9530332681
  0
INSERT
  5
32F
100
AcDbEntity
  8
0
100
AcDbBlockReference
 62
7
  6
CONTINUOUS
  2
SYMBOL_0_BL0
 10
54.2868506795
 20
12.3338386538
  0
DIMENSION
  5
330
100
AcDbEntity
  8
0
100
AcDbDimension
 62
2
  6
CONTINUOUS
  2
*D0
 10
28.4405854323
 20
26.62459484
 11
27.9819259411
 21
33.9831928877
 70
160
 71
2
 42
401.0
  3
DIMSTYLE_1
100
AcDbAlignedDimension
 13
31.8113742
 23
42.4119964148
 14
31.8113742
 24
26.62459484
 50
270.0
100
AcDbRotatedDimension
  0
DIMENSION
  5
331
100
AcDbEntity
  8
0
100
AcDbDimension
 62
2
  6
CONTINUOUS
  2
*D1
 10
32.0967623278
 20
15.9938571428
 11
40.5517949821
 21
15.458754403
 70
160
 71
2
 42
454.11
  3
DIMSTYLE_1
100
AcDbAlignedDimension
 13
49.9751087845
 23
21.0089644399
 14
32.0967623278
 24
21.6737509248
 50
180.0
100
AcDbRotatedDimension
  0
DIMENSION
  5
332
100
AcDbEntity
  8
0
100
AcDbDimension
 62
2
  6
CONTINUOUS
  2
*D2
 10
35.5006993357
 20
18.6163800256
 11
42.2537634861
 21
18.0812772858
 70
160
 71
2
 42
367.65
  3
DIMSTYLE_1
100
AcDbAlignedDimension
 13
49.9751087845
 23
21.0089644399
 14
35.5006993357
 24
21.1929151594
 50
180.0
100
AcDbRotatedDimension
  0
DIMENSION
  5
333
100
AcDbEntity
  8
0
100
AcDbDimension
 62
2
  6
CONTINUOUS
  2
*D3
 10
33.9258961861
 20
18.6163800256
 11
29.1333690987
 21
18.0812772858
 70
160
 71
3
 42
40.0
  3
DIMSTYLE_1
100
AcDbAlignedDimension
 13
35.5006993357
 23
21.1929151594
 14
33.9258961861
 24
21.1929151594
 50
180.0
100
AcDbRotatedDimension
  0
DIMENSION
  5
334
100
AcDbEntity
  8
0
100
AcDbDimension
 62
2
  6
CONTINUOUS
  2
*D4
 10
53.3821272121
 20
19.8922099188
 11
52.9362082623
 21
22.2017029531
 70
160
 71
2
 42
105.0
  3
DIMSTYLE_1
100
AcDbAlignedDimension
 13
50.1270323454
 23
24.0260681865
 14
50.1270323454
 24
19.8922099188
 50
270.0
100
AcDbRotatedDimension
  0
DIMENSION
  5
335
100
AcDbEntity
  8
0
100
AcDbDimension
 62
2
  6
CONTINUOUS
  2
*D5
 10
11.8757876062
 20
44.184037936
 11
6.3644595727
 21
43.6489351963
 70
160
 71
3
 42
72.0
  1
2X <>
  3
DIMSTYLE_1
100
AcDbAlignedDimension
 13
14.7104332755
 23
37.9131873062
 14
11.8757876062
 24
37.9131873062
 50
180.0
100
AcDbRotatedDimension
  0
DIMENSION
  5
336
100
AcDbEntity
  8
0
100
AcDbDimension
 62
2
  6
CONTINUOUS
  2
*D6
 10
13.9820868188
 20
22.5994119507
 11
18.5738141063
 21
22.0643092109
 70
160
 71
1
 42
10.0
  1
4X <>
  3
DIMSTYLE_1
100
AcDbAlignedDimension
 13
14.3757876062
 23
27.7368445074
 14
13.9820868188
 24
27.7368445074
 50
180.0
100
AcDbRotatedDimension
  0
DIMENSION
  5
337
100
AcDbEntity
  8
0
100
AcDbDimension
 62
2
  6
CONTINUOUS
  2
*D7
 10
14.1789372125
 20
24.6472383443
 11
6.9995510685
 21
24.1121356046
 70
160
 71
3
 42
45.0
  1
4X <>
  3
DIMSTYLE_1
100
AcDbAlignedDimension
 13
12.4072836692
 23
27.2802195658
 14
14.1789372125
 24
27.2802195658
100
AcDbRotatedDimension
  0
DIMENSION
  5
338
100
AcDbEntity
  8
0
100
AcDbDimension
 62
2
  6
CONTINUOUS
  2
*D8
 10
33.8226621219
 20
22.1716074964
 11
28.1337760306
 21
24.5624443034
 70
163
 71
3
 42
12.0
  1
2X <>
  3
DIMSTYLE_2
100
AcDbDiametricDimension
 15
34.0291302502
 25
21.7466706089
  0
DIMENSION
  5
339
100
AcDbEntity
  8
0
100
AcDbDimension
 62
2
  6
CONTINUOUS
  2
*D9
 10
4.3457265932
 20
31.6442798794
 11
3.887067102
 21
34.5899081018
 70
160
 71
2
 42
146.0
  3
DIMSTYLE_1
100
AcDbAlignedDimension
 13
12.5360140376
 23
37.3923113754
 14
12.5360140376
 24
31.6442798794
 50
270.0
100
AcDbRotatedDimension
  0
DIMENSION
  5
33A
100
AcDbEntity
  8
0
100
AcDbDimension
 62
2
  6
CONTINUOUS
  2
*D10
 10
8.3316088248
 20
31.8805003518
 11
7.8219871679
 21
34.4040423782
 70
160
 71
2
 42
134.0
  1
2X <>
  3
DIMSTYLE_1
100
AcDbAlignedDimension
 13
11.118691203
 23
37.156090903
 14
11.118691203
 24
31.8805003518
 50
270.0
100
AcDbRotatedDimension
  0
DIMENSION
  5
33B
100
AcDbEntity
  8
0
100
AcDbDimension
 62
2
  6
CONTINUOUS
  2
*D11
 10
23.8095388337
 20
28.0222326353
 11
23.3381388011
 21
33.9831928877
 70
160
 71
2
 42
330.0
  3
DIMSTYLE_1
100
AcDbAlignedDimension
 13
14.9209502819
 23
41.0143586195
 14
14.9209502819
 24
28.0222326353
 50
270.0
100
AcDbRotatedDimension
  0
DIMENSION
  5
33C
100
AcDbEntity
  8
0
100
AcDbDimension
 62
2
  6
CONTINUOUS
  2
*D12
 10
17.9774796831
 20
28.0222326353
 11
20.9027079936
 21
25.683390332
 70
160
 71
1
 42
27.0
  1
4X <>
  3
DIMSTYLE_1
100
AcDbAlignedDimension
 13
14.9209502819
 23
29.0852247613
 14
14.9209502819
 24
28.0222326353
 50
270.0
100
AcDbRotatedDimension
  0
DIMENSION
  5
33D
100
AcDbEntity
  8
0
100
AcDbDimension
 62
2
  6
CONTINUOUS
  2
*D13
 10
14.8038374501
 20
37.2573983466
 11
20.1871108843
 21
39.0382546048
 70
163
 71
1
 42
7.0
  1
4X <>
  3
DIMSTYLE_2
100
AcDbDiametricDimension
 15
14.6170291009
 25
37.0547834593
  0
DIMENSION
  5
33E
100
AcDbEntity
  8
0
100
AcDbDimension
 62
2
  6
CONTINUOUS
  2
*D14
 10
13.5224733083
 20
34.6317870632
 11
19.6815974017
 21
35.5497565868
 70
163
 71
1
 42
13.0
  1
3X <>
  3
DIMSTYLE_2
100
AcDbDiametricDimension
 15
13.0637475733
 25
34.4048041916
  0
LWPOLYLINE
  5
33F
100
AcDbEntity
  8
0
100
AcDbPolyline
 62
2
  6
CONTINUOUS
 90
2
 70
0
 43
0.0913242009
 10
73.0911951212
 20
47.9327106801
 10
27.0523823358
 20
47.9327106801
  0
LWPOLYLINE
  5
340
100
AcDbEntity
  8
0
100
AcDbPolyline
 62
2
  6
CONTINUOUS
 90
2
 70
0
 43
0.0913242009
 10
73.0455330208
 20
47.9327106801
 10
73.0455330208
 20
43.6518887623
  0
LWPOLYLINE
  5
341
100
AcDbEntity
  8
0
100
AcDbPolyline
 62
2
  6
CONTINUOUS
 90
2
 70
0
 43
0.0913242009
 10
73.0455330208
 20
46.5057700408
 10
27.0980444363
 20
46.5057700408
  0
LWPOLYLINE
  5
342
100
AcDbEntity
  8
0
100
AcDbPolyline
 62
2
  6
CONTINUOUS
 90
2
 70
0
 43
0.0913242009
 10
73.0455330208
 20
45.0788294015
 10
27.0980444363
 20
45.0788294015
  0
LWPOLYLINE
  5
343
100
AcDbEntity
  8
0
100
AcDbPolyline
 62
2
  6
CONTINUOUS
 90
2
 70
0
 43
0.0913242009
 10
73.0911951212
 20
43.6518887623
 10
27.0523823358
 20
43.6518887623
  0
LWPOLYLINE
  5
344
100
AcDbEntity
  8
0
100
AcDbPolyline
 62
2
  6
CONTINUOUS
 90
2
 70
0
 43
0.0913242009
 10
69.6208754865
 20
46.5057700408
 10
69.6208754865
 20
43.6518887623
  0
LWPOLYLINE
  5
345
100
AcDbEntity
  8
0
100
AcDbPolyline
 62
2
  6
CONTINUOUS
 90
2
 70
0
 43
0.0913242009
 10
64.4838891852
 20
46.5057700408
 10
64.4838891852
 20
43.6518887623
  0
LWPOLYLINE
  5
346
100
AcDbEntity
  8
0
100
AcDbPolyline
 62
2
  6
CONTINUOUS
 90
2
 70
0
 43
0.0913242009
 10
62.2007841623
 20
46.5057700408
 10
62.2007841623
 20
43.6518887623
  0
LWPOLYLINE
  5
347
100
AcDbEntity
  8
0
100
AcDbPolyline
 62
2
  6
CONTINUOUS
 90
2
 70
0
 43
0.0913242009
 10
33.0911951212
 20
46.5057700408
 10
33.0911951212
 20
43.6518887623
  0
LWPOLYLINE
  5
348
100
AcDbEntity
  8
0
100
AcDbPolyline
 62
2
  6
CONTINUOUS
 90
2
 70
0
 43
0.0913242009
 10
29.3811494591
 20
46.5057700408
 10
29.3811494591
 20
43.6518887623
  0
LWPOLYLINE
  5
349
100
AcDbEntity
  8
0
100
AcDbPolyline
 62
2
  6
CONTINUOUS
 90
2
 70
0
 43
0.0913242009
 10
27.0980444363
 20
47.9327106801
 10
27.0980444363
 20
43.6518887623
  0
MTEXT
  5
34A
100
AcDbEntity
  8
0
100
AcDbMText
 62
2
  6
CONTINUOUS
  7
STANDARD
 71
2
 72
1
 10
50.0717887285
 20
47.5759755202
 30
0.0
 11
1.0
 21
0.0
 31
0.0
 44
0.9
  1
REVISIONS
 40
0.7134703196
 41
4.8244183518
  0
MTEXT
  5
34B
100
AcDbEntity
  8
0
100
AcDbMText
 62
2
  6
CONTINUOUS
  7
STANDARD
 71
2
 72
1
 10
71.3332042536
 20
46.1484641047
 30
0.0
 11
1.0
 21
0.0
 31
0.0
 44
0.9
  1
ISSUED
 40
0.7123287671
 41
3.2902804958
  0
MTEXT
  5
34C
100
AcDbEntity
  8
0
100
AcDbMText
 62
2
  6
CONTINUOUS
  7
STANDARD
 71
2
 72
1
 10
67.0523823358
 20
46.1484641047
 30
0.0
 11
1.0
 21
0.0
 31
0.0
 44
0.9
  1
EFF DATE
 40
0.7123287671
 41
4.4605348989
  0
MTEXT
  5
34D
100
AcDbEntity
  8
0
100
AcDbMText
 62
2
  6
CONTINUOUS
  7
STANDARD
 71
2
 72
1
 10
63.3423366737
 20
46.149034881
 30
0.0
 11
1.0
 21
0.0
 31
0.0
 44
0.9
  1
BY
 40
0.7134703196
 41
1.1721298108
  0
MTEXT
  5
34E
100
AcDbEntity
  8
0
100
AcDbMText
 62
2
  6
CONTINUOUS
  7
STANDARD
 71
2
 72
1
 10
47.6459896418
 20
46.1484641047
 30
0.0
 11
1.0
 21
0.0
 31
0.0
 44
0.9
  1
DESCRIPTION
 40
0.7123287671
 41
6.0717547293
  0
MTEXT
  5
34F
100
AcDbEntity
  8
0
100
AcDbMText
 62
2
  6
CONTINUOUS
  7
STANDARD
 71
2
 72
1
 10
31.2361722902
 20
46.149034881
 30
0.0
 11
1.0
 21
0.0
 31
0.0
 44
0.9
  1
ECO
 40
0.7134703196
 41
1.6647640791
  0
MTEXT
  5
350
100
AcDbEntity
  8
0
100
AcDbMText
 62
2
  6
CONTINUOUS
  7
STANDARD
 71
2
 72
1
 10
28.2395969477
 20
46.1484641047
 30
0.0
 11
1.0
 21
0.0
 31
0.0
 44
0.9
  1
REV
 40
0.7123287671
 41
1.6621004566
  0
MTEXT
  5
351
100
AcDbEntity
  8
0
100
AcDbMText
 62
2
  6
CONTINUOUS
  7
STANDARD
 71
2
 72
1
 10
71.3332042536
 20
44.7220942417
 30
0.0
 11
1.0
 21
0.0
 31
0.0
 44
0.9
  1
-
 40
0.7134703196
 41
0.6455207654
  0
MTEXT
  5
352
100
AcDbEntity
  8
0
100
AcDbMText
 62
2
  6
CONTINUOUS
  7
STANDARD
 71
2
 72
1
 10
67.0523823358
 20
44.7220942417
 30
0.0
 11
1.0
 21
0.0
 31
0.0
 44
0.9
  1
23-JAN-13
 40
0.7134703196
 41
4.7734561861
  0
MTEXT
  5
353
100
AcDbEntity
  8
0
100
AcDbMText
 62
2
  6
CONTINUOUS
  7
STANDARD
 71
2
 72
1
 10
63.3423366737
 20
44.7220942417
 30
0.0
 11
1.0
 21
0.0
 31
0.0
 44
0.9
  1
 JD 
 40
0.7134703196
 41
2.3612470102
  0
MTEXT
  5
354
100
AcDbEntity
  8
0
100
AcDbMText
 62
2
  6
CONTINUOUS
  7
STANDARD
 71
1
 72
1
 10
33.3765832491
 20
44.7220942417
 30
0.0
 11
1.0
 21
0.0
 31
0.0
 44
0.9
  1
RELEASE 
 40
0.7134703196
 41
4.4167210263
  0
MTEXT
  5
355
100
AcDbEntity
  8
0
100
AcDbMText
 62
2
  6
CONTINUOUS
  7
STANDARD
 71
2
 72
1
 10
31.2361722902
 20
44.7220942417
 30
0.0
 11
1.0
 21
0.0
 31
0.0
 44
0.9
  1
-
 40
0.7134703196
 41
0.6455207654
  0
MTEXT
  5
356
100
AcDbEntity
  8
0
100
AcDbMText
 62
2
  6
CONTINUOUS
  7
STANDARD
 71
2
 72
1
 10
28.2395969477
 20
44.7220942417
 30
0.0
 11
1.0
 21
0.0
 31
0.0
 44
0.9
  1
A
 40
0.7134703196
 41
0.7474450968
  0
LINE
  5
357
100
AcDbEntity
  8
0
100
AcDbLine
 62
2
  6
CONTINUOUS
 10
27.9680365297
 20
7.9908675799
 11
38.2420091324
 21
7.9908675799
  0
LINE
  5
358
100
AcDbEntity
  8
0
100
AcDbLine
 62
2
  6
CONTINUOUS
 10
27.9680365297
 20
7.9908675799
 11
27.9680365297
 21
5.1369863014
  0
LINE
  5
359
100
AcDbEntity
  8
0
100
AcDbLine
 62
2
  6
CONTINUOUS
 10
27.9680365297
 20
5.1369863014
 11
38.2420091324
 21
5.1369863014
  0
LINE
  5
35A
100
AcDbEntity
  8
0
100
AcDbLine
 62
2
  6
CONTINUOUS
 10
38.2420091324
 20
7.9908675799
 11
38.2420091324
 21
5.1369863014
  0
LINE
  5
35B
100
AcDbEntity
  8
0
100
AcDbLine
 62
2
  6
CONTINUOUS
 10
27.9680365297
 20
5.1369863014
 11
38.2420091324
 21
5.1369863014
  0
LINE
  5
35C
100
AcDbEntity
  8
0
100
AcDbLine
 62
2
  6
CONTINUOUS
 10
27.9680365297
 20
5.1369863014
 11
27.9680365297
 21
2.2831050228
  0
LINE
  5
35D
100
AcDbEntity
  8
0
100
AcDbLine
 62
2
  6
CONTINUOUS
 10
27.9680365297
 20
2.2831050228
 11
38.2420091324
 21
2.2831050228
  0
LINE
  5
35E
100
AcDbEntity
  8
0
100
AcDbLine
 62
2
  6
CONTINUOUS
 10
38.2420091324
 20
5.1369863014
 11
38.2420091324
 21
2.2831050228
  0
LINE
  5
35F
100
AcDbEntity
  8
0
100
AcDbLine
 62
2
  6
CONTINUOUS
 10
38.2420091324
 20
12.5570776256
 11
46.2328767123
 21
12.5570776256
  0
LINE
  5
360
100
AcDbEntity
  8
0
100
AcDbLine
 62
2
  6
CONTINUOUS
 10
38.2420091324
 20
12.5570776256
 11
38.2420091324
 21
10.5950342466
  0
LINE
  5
361
100
AcDbEntity
  8
0
100
AcDbLine
 62
2
  6
CONTINUOUS
 10
38.2420091324
 20
10.5950342466
 11
46.2328767123
 21
10.5950342466
  0
LINE
  5
362
100
AcDbEntity
  8
0
100
AcDbLine
 62
2
  6
CONTINUOUS
 10
46.2328767123
 20
12.5570776256
 11
46.2328767123
 21
10.5950342466
  0
MTEXT
  5
363
100
AcDbEntity
  8
0
100
AcDbMText
 62
2
  6
CONTINUOUS
  7
STANDARD
 71
1
 72
1
 10
38.5273972603
 20
11.665239726
 30
0.0
 11
1.0
 21
0.0
 31
0.0
 44
0.9
  1
J. DELARM 
 40
0.7134703196
 41
5.3850021744
  0
LINE
  5
364
100
AcDbEntity
  8
0
100
AcDbLine
 62
2
  6
CONTINUOUS
 10
38.2420091324
 20
10.5593607306
 11
46.2328767123
 21
10.5593607306
  0
LINE
  5
365
100
AcDbEntity
  8
0
100
AcDbLine
 62
2
  6
CONTINUOUS
 10
38.2420091324
 20
10.5593607306
 11
38.2420091324
 21
8.5502283105
  0
LINE
  5
366
100
AcDbEntity
  8
0
100
AcDbLine
 62
2
  6
CONTINUOUS
 10
38.2420091324
 20
8.5502283105
 11
46.2328767123
 21
8.5502283105
  0
LINE
  5
367
100
AcDbEntity
  8
0
100
AcDbLine
 62
2
  6
CONTINUOUS
 10
46.2328767123
 20
10.5593607306
 11
46.2328767123
 21
8.5502283105
  0
MTEXT
  5
368
100
AcDbEntity
  8
0
100
AcDbMText
 62
2
  6
CONTINUOUS
  7
STANDARD
 71
1
 72
1
 10
38.5273972603
 20
9.62043379
 30
0.0
 11
1.0
 21
0.0
 31
0.0
 44
0.9
  1
P. SANCHEZ 
 40
0.7134703196
 41
6.0475103283
  0
LINE
  5
369
100
AcDbEntity
  8
0
100
AcDbLine
 62
2
  6
CONTINUOUS
 10
38.2420091324
 20
8.5616438356
 11
46.2328767123
 21
8.5616438356
  0
LINE
  5
36A
100
AcDbEntity
  8
0
100
AcDbLine
 62
2
  6
CONTINUOUS
 10
38.2420091324
 20
8.5616438356
 11
38.2420091324
 21
6.5996004566
  0
LINE
  5
36B
100
AcDbEntity
  8
0
100
AcDbLine
 62
2
  6
CONTINUOUS
 10
38.2420091324
 20
6.5996004566
 11
46.2328767123
 21
6.5996004566
  0
LINE
  5
36C
100
AcDbEntity
  8
0
100
AcDbLine
 62
2
  6
CONTINUOUS
 10
46.2328767123
 20
8.5616438356
 11
46.2328767123
 21
6.5996004566
  0
MTEXT
  5
36D
100
AcDbEntity
  8
0
100
AcDbMText
 62
2
  6
CONTINUOUS
  7
STANDARD
 71
1
 72
1
 10
38.5273972603
 20
7.6698059361
 30
0.0
 11
1.0
 21
0.0
 31
0.0
 44
0.9
  1
N/A
 40
0.7134703196
 41
1.7157262448
  0
LINE
  5
36E
100
AcDbEntity
  8
0
100
AcDbLine
 62
2
  6
CONTINUOUS
 10
38.2420091324
 20
6.5639269406
 11
46.2328767123
 21
6.5639269406
  0
LINE
  5
36F
100
AcDbEntity
  8
0
100
AcDbLine
 62
2
  6
CONTINUOUS
 10
38.2420091324
 20
6.5639269406
 11
38.2420091324
 21
4.5547945205
  0
LINE
  5
370
100
AcDbEntity
  8
0
100
AcDbLine
 62
2
  6
CONTINUOUS
 10
38.2420091324
 20
4.5547945205
 11
46.2328767123
 21
4.5547945205
  0
LINE
  5
371
100
AcDbEntity
  8
0
100
AcDbLine
 62
2
  6
CONTINUOUS
 10
46.2328767123
 20
6.5639269406
 11
46.2328767123
 21
4.5547945205
  0
MTEXT
  5
372
100
AcDbEntity
  8
0
100
AcDbMText
 62
2
  6
CONTINUOUS
  7
STANDARD
 71
1
 72
1
 10
38.5273972603
 20
5.625
 30
0.0
 11
1.0
 21
0.0
 31
0.0
 44
0.9
  1
N/A
 40
0.7134703196
 41
1.7157262448
  0
LINE
  5
373
100
AcDbEntity
  8
0
100
AcDbLine
 62
2
  6
CONTINUOUS
 10
46.2328767123
 20
12.5570776256
 11
50.2283105023
 21
12.5570776256
  0
LINE
  5
374
100
AcDbEntity
  8
0
100
AcDbLine
 62
2
  6
CONTINUOUS
 10
46.2328767123
 20
12.5570776256
 11
46.2328767123
 21
10.5479452055
  0
LINE
  5
375
100
AcDbEntity
  8
0
100
AcDbLine
 62
2
  6
CONTINUOUS
 10
46.2328767123
 20
10.5479452055
 11
50.2283105023
 21
10.5479452055
  0
LINE
  5
376
100
AcDbEntity
  8
0
100
AcDbLine
 62
2
  6
CONTINUOUS
 10
50.2283105023
 20
12.5570776256
 11
50.2283105023
 21
10.5479452055
  0
MTEXT
  5
377
100
AcDbEntity
  8
0
100
AcDbMText
 62
2
  6
CONTINUOUS
  7
STANDARD
 71
2
 72
1
 10
48.2305936073
 20
11.4526255708
 30
0.0
 11
1.0
 21
0.0
 31
0.0
 44
0.9
  1
19-NOV-12
 40
0.5479452055
 41
3.5877364644
  0
LINE
  5
378
100
AcDbEntity
  8
0
100
AcDbLine
 62
2
  6
CONTINUOUS
 10
46.2328767123
 20
10.5593607306
 11
50.2283105023
 21
10.5593607306
  0
LINE
  5
379
100
AcDbEntity
  8
0
100
AcDbLine
 62
2
  6
CONTINUOUS
 10
46.2328767123
 20
10.5593607306
 11
46.2328767123
 21
8.5502283105
  0
LINE
  5
37A
100
AcDbEntity
  8
0
100
AcDbLine
 62
2
  6
CONTINUOUS
 10
46.2328767123
 20
8.5502283105
 11
50.2283105023
 21
8.5502283105
  0
LINE
  5
37B
100
AcDbEntity
  8
0
100
AcDbLine
 62
2
  6
CONTINUOUS
 10
50.2283105023
 20
10.5593607306
 11
50.2283105023
 21
8.5502283105
  0
MTEXT
  5
37C
100
AcDbEntity
  8
0
100
AcDbMText
 62
2
  6
CONTINUOUS
  7
STANDARD
 71
2
 72
1
 10
48.2305936073
 20
9.4549086758
 30
0.0
 11
1.0
 21
0.0
 31
0.0
 44
0.9
  1
23-JAN-13
 40
0.5479452055
 41
3.5616438356
  0
LINE
  5
37D
100
AcDbEntity
  8
0
100
AcDbLine
 62
2
  6
CONTINUOUS
 10
46.2328767123
 20
8.5616438356
 11
50.2283105023
 21
8.5616438356
  0
LINE
  5
37E
100
AcDbEntity
  8
0
100
AcDbLine
 62
2
  6
CONTINUOUS
 10
46.2328767123
 20
8.5616438356
 11
46.2328767123
 21
6.5525114155
  0
LINE
  5
37F
100
AcDbEntity
  8
0
100
AcDbLine
 62
2
  6
CONTINUOUS
 10
46.2328767123
 20
6.5525114155
 11
50.2283105023
 21
6.5525114155
  0
LINE
  5
380
100
AcDbEntity
  8
0
100
AcDbLine
 62
2
  6
CONTINUOUS
 10
50.2283105023
 20
8.5616438356
 11
50.2283105023
 21
6.5525114155
  0
MTEXT
  5
381
100
AcDbEntity
  8
0
100
AcDbMText
 62
2
  6
CONTINUOUS
  7
STANDARD
 71
2
 72
1
 10
48.2305936073
 20
7.4571917808
 30
0.0
 11
1.0
 21
0.0
 31
0.0
 44
0.9
  1
-
 40
0.5479452055
 41
0.3913894325
  0
LINE
  5
382
100
AcDbEntity
  8
0
100
AcDbLine
 62
2
  6
CONTINUOUS
 10
46.2328767123
 20
6.5639269406
 11
50.2283105023
 21
6.5639269406
  0
LINE
  5
383
100
AcDbEntity
  8
0
100
AcDbLine
 62
2
  6
CONTINUOUS
 10
46.2328767123
 20
6.5639269406
 11
46.2328767123
 21
4.6018835616
  0
LINE
  5
384
100
AcDbEntity
  8
0
100
AcDbLine
 62
2
  6
CONTINUOUS
 10
46.2328767123
 20
4.6018835616
 11
50.2283105023
 21
4.6018835616
  0
LINE
  5
385
100
AcDbEntity
  8
0
100
AcDbLine
 62
2
  6
CONTINUOUS
 10
50.2283105023
 20
6.5639269406
 11
50.2283105023
 21
4.6018835616
  0
MTEXT
  5
386
100
AcDbEntity
  8
0
100
AcDbMText
 62
2
  6
CONTINUOUS
  7
STANDARD
 71
2
 72
1
 10
48.2305936073
 20
5.5065639269
 30
0.0
 11
1.0
 21
0.0
 31
0.0
 44
0.9
  1
-
 40
0.5479452055
 41
0.3913894325
  0
LINE
  5
387
100
AcDbEntity
  8
0
100
AcDbLine
 62
2
  6
CONTINUOUS
 10
38.2420091324
 20
4.5662100457
 11
50.2283105023
 21
4.5662100457
  0
LINE
  5
388
100
AcDbEntity
  8
0
100
AcDbLine
 62
2
  6
CONTINUOUS
 10
38.2420091324
 20
4.5662100457
 11
38.2420091324
 21
3.4246575342
  0
LINE
  5
389
100
AcDbEntity
  8
0
100
AcDbLine
 62
2
  6
CONTINUOUS
 10
38.2420091324
 20
3.4246575342
 11
50.2283105023
 21
3.4246575342
  0
LINE
  5
38A
100
AcDbEntity
  8
0
100
AcDbLine
 62
2
  6
CONTINUOUS
 10
50.2283105023
 20
4.5662100457
 11
50.2283105023
 21
3.4246575342
  0
MTEXT
  5
38B
100
AcDbEntity
  8
0
100
AcDbMText
 62
2
  6
CONTINUOUS
  7
STANDARD
 71
3
 72
1
 10
49.9429223744
 20
4.2836757991
 30
0.0
 11
1.0
 21
0.0
 31
0.0
 44
0.9
  1
FG-000393-2D.A.1
 40
0.502283105
 41
5.9078060448
  0
LINE
  5
38C
100
AcDbEntity
  8
0
100
AcDbLine
 62
2
  6
CONTINUOUS
 10
38.2420091324
 20
3.4246575342
 11
50.2283105023
 21
3.4246575342
  0
LINE
  5
38D
100
AcDbEntity
  8
0
100
AcDbLine
 62
2
  6
CONTINUOUS
 10
38.2420091324
 20
3.4246575342
 11
38.2420091324
 21
2.2831050228
  0
LINE
  5
38E
100
AcDbEntity
  8
0
100
AcDbLine
 62
2
  6
CONTINUOUS
 10
38.2420091324
 20
2.2831050228
 11
50.2283105023
 21
2.2831050228
  0
LINE
  5
38F
100
AcDbEntity
  8
0
100
AcDbLine
 62
2
  6
CONTINUOUS
 10
50.2283105023
 20
3.4246575342
 11
50.2283105023
 21
2.2831050228
  0
MTEXT
  5
390
100
AcDbEntity
  8
0
100
AcDbMText
 62
2
  6
CONTINUOUS
  7
STANDARD
 71
3
 72
1
 10
49.9429223744
 20
3.1421232877
 30
0.0
 11
1.0
 21
0.0
 31
0.0
 44
0.9
  1
FG-000392-3D.A.1
 40
0.502283105
 41
5.9078060448
  0
LINE
  5
391
100
AcDbEntity
  8
0
100
AcDbLine
 62
2
  6
CONTINUOUS
 10
50.2283105023
 20
10.8447488584
 11
73.0593607306
 21
10.8447488584
  0
LINE
  5
392
100
AcDbEntity
  8
0
100
AcDbLine
 62
2
  6
CONTINUOUS
 10
50.2283105023
 20
10.8447488584
 11
50.2283105023
 21
5.7077625571
  0
LINE
  5
393
100
AcDbEntity
  8
0
100
AcDbLine
 62
2
  6
CONTINUOUS
 10
50.2283105023
 20
5.7077625571
 11
73.0593607306
 21
5.7077625571
  0
LINE
  5
394
100
AcDbEntity
  8
0
100
AcDbLine
 62
2
  6
CONTINUOUS
 10
73.0593607306
 20
10.8447488584
 11
73.0593607306
 21
5.7077625571
  0
MTEXT
  5
395
100
AcDbEntity
  8
0
100
AcDbMText
 62
2
  6
CONTINUOUS
  7
STANDARD
 71
2
 72
1
 10
61.6438356164
 20
9.6689497717
 30
0.0
 11
1.0
 21
0.0
 31
0.0
 44
1.02
  1
ACCESSORY, YOKE MOUNT,\PAP-5122M
 40
0.9132420091
 41
15.6773211568
  0
LINE
  5
396
100
AcDbEntity
  8
0
100
AcDbLine
 62
2
  6
CONTINUOUS
 10
50.2332981869
 20
5.6983582991
 11
52.5164032098
 21
5.6983582991
  0
LINE
  5
397
100
AcDbEntity
  8
0
100
AcDbLine
 62
2
  6
CONTINUOUS
 10
50.2332981869
 20
5.6983582991
 11
50.2332981869
 21
3.4152532762
  0
LINE
  5
398
100
AcDbEntity
  8
0
100
AcDbLine
 62
2
  6
CONTINUOUS
 10
50.2332981869
 20
3.4152532762
 11
52.5164032098
 21
3.4152532762
  0
LINE
  5
399
100
AcDbEntity
  8
0
100
AcDbLine
 62
2
  6
CONTINUOUS
 10
52.5164032098
 20
5.6983582991
 11
52.5164032098
 21
3.4152532762
  0
MTEXT
  5
39A
100
AcDbEntity
  8
0
100
AcDbMText
 62
2
  6
CONTINUOUS
  7
STANDARD
 71
2
 72
1
 10
51.3748506984
 20
4.6852304452
 30
0.0
 11
1.0
 21
0.0
 31
0.0
 44
0.9
  1
B
 40
0.9132420091
 41
0.7175472929
  0
LINE
  5
39B
100
AcDbEntity
  8
0
100
AcDbLine
 62
2
  6
CONTINUOUS
 10
57.0799885735
 20
5.6848154754
 11
70.7786187105
 21
5.6848154754
  0
LINE
  5
39C
100
AcDbEntity
  8
0
100
AcDbLine
 62
2
  6
CONTINUOUS
 10
57.0799885735
 20
5.6848154754
 11
57.0799885735
 21
3.4017104526
  0
LINE
  5
39D
100
AcDbEntity
  8
0
100
AcDbLine
 62
2
  6
CONTINUOUS
 10
57.0799885735
 20
3.4017104526
 11
70.7786187105
 21
3.4017104526
  0
LINE
  5
39E
100
AcDbEntity
  8
0
100
AcDbLine
 62
2
  6
CONTINUOUS
 10
70.7786187105
 20
5.6848154754
 11
70.7786187105
 21
3.4017104526
  0
MTEXT
  5
39F
100
AcDbEntity
  8
0
100
AcDbMText
 62
2
  6
CONTINUOUS
  7
STANDARD
 71
2
 72
1
 10
63.929303642
 20
4.8086739229
 30
0.0
 11
1.0
 21
0.0
 31
0.0
 44
0.9
  1
FG-000393-2D
 40
1.0502283105
 41
9.6520982822
  0
LINE
  5
3A0
100
AcDbEntity
  8
0
100
AcDbLine
 62
2
  6
CONTINUOUS
 10
70.770319161
 20
5.6999443955
 11
73.0534241839
 21
5.6999443955
  0
LINE
  5
3A1
100
AcDbEntity
  8
0
100
AcDbLine
 62
2
  6
CONTINUOUS
 10
70.770319161
 20
5.6999443955
 11
70.770319161
 21
3.4168393727
  0
LINE
  5
3A2
100
AcDbEntity
  8
0
100
AcDbLine
 62
2
  6
CONTINUOUS
 10
70.770319161
 20
3.4168393727
 11
73.0534241839
 21
3.4168393727
  0
LINE
  5
3A3
100
AcDbEntity
  8
0
100
AcDbLine
 62
2
  6
CONTINUOUS
 10
73.0534241839
 20
5.6999443955
 11
73.0534241839
 21
3.4168393727
  0
MTEXT
  5
3A4
100
AcDbEntity
  8
0
100
AcDbMText
 62
2
  6
CONTINUOUS
  7
STANDARD
 71
2
 72
1
 10
71.9118716725
 20
4.5954923407
 30
0.0
 11
1.0
 21
0.0
 31
0.0
 44
0.9
  1
A
 40
0.8219178082
 41
0.7045009785
  0
LINE
  5
3A5
100
AcDbEntity
  8
0
100
AcDbLine
 62
2
  6
CONTINUOUS
 10
65.6421032848
 20
3.3923693316
 11
73.062194609
 21
3.3923693316
  0
LINE
  5
3A6
100
AcDbEntity
  8
0
100
AcDbLine
 62
2
  6
CONTINUOUS
 10
65.6421032848
 20
3.3923693316
 11
65.6421032848
 21
2.2508168202
  0
LINE
  5
3A7
100
AcDbEntity
  8
0
100
AcDbLine
 62
2
  6
CONTINUOUS
 10
65.6421032848
 20
2.2508168202
 11
73.062194609
 21
2.2508168202
  0
LINE
  5
3A8
100
AcDbEntity
  8
0
100
AcDbLine
 62
2
  6
CONTINUOUS
 10
73.062194609
 20
3.3923693316
 11
73.062194609
 21
2.2508168202
  0
MTEXT
  5
3A9
100
AcDbEntity
  8
0
100
AcDbMText
 62
2
  6
CONTINUOUS
  7
STANDARD
 71
3
 72
1
 10
72.7768064811
 20
3.2468213864
 30
0.0
 11
1.0
 21
0.0
 31
0.0
 44
0.9
  1
1 OF 1
 40
0.6392694064
 41
2.6940639269
  0
LINE
  5
3AA
100
AcDbEntity
  8
0
100
AcDbLine
 62
2
  6
CONTINUOUS
 10
50.2203644388
 20
3.4192840955
 11
55.6450219731
 21
3.4192840955
  0
LINE
  5
3AB
100
AcDbEntity
  8
0
100
AcDbLine
 62
2
  6
CONTINUOUS
 10
50.2203644388
 20
3.4192840955
 11
50.2203644388
 21
2.2598948261
  0
LINE
  5
3AC
100
AcDbEntity
  8
0
100
AcDbLine
 62
2
  6
CONTINUOUS
 10
50.2203644388
 20
2.2598948261
 11
55.6450219731
 21
2.2598948261
  0
LINE
  5
3AD
100
AcDbEntity
  8
0
100
AcDbLine
 62
2
  6
CONTINUOUS
 10
55.6450219731
 20
3.4192840955
 11
55.6450219731
 21
2.2598948261
  0
MTEXT
  5
3AE
100
AcDbEntity
  8
0
100
AcDbMText
 62
2
  6
CONTINUOUS
  7
STANDARD
 71
3
 72
1
 10
55.3596338452
 20
3.1645751914
 30
0.0
 11
1.0
 21
0.0
 31
0.0
 44
0.9
  1
0.125
 40
0.5479452055
 41
1.8786692759
  0
MTEXT
  5
3AF
100
AcDbEntity
  8
0
100
AcDbMText
 62
2
  6
CONTINUOUS
  7
STANDARD
 71
1
 72
1
 10
2.7719227353
 20
9.9086409306
 30
0.0
 11
1.0
 21
0.0
 31
0.0
 44
1.2
  3
4. PARTS ARE SYMMETRICAL ABOUT CENTER LINES \P   UNLESS OTHERWISE NOTED.\P3. SYMBOL \Fgdt;{\Fgdt;r}\Ftxt; INDICATES SUSPENSION POINT, \P2. TOLERANCES (MM): X \Fgdt;{\Fgdt;`}\Ftxt; 3, ANGLES: \Fgdt;{\Fgdt;`}\Ftxt; 1\Fgdt;{\Fgdt;~}\Ftxt;.\P1. NET WEIGH
  1
T APPROX. 4.6 KG (10 LBS)\PNOTE:  UNLESS OTHERWISE SPECIFIED
 40
0.6392694064
 41
22.0547945205
  0
MTEXT
  5
3B0
100
AcDbEntity
  8
0
100
AcDbMText
 62
2
  6
CONTINUOUS
  7
STANDARD
 71
3
 72
1
 10
67.4320267702
 20
22.8347276123
 30
0.0
 11
1.0
 21
0.0
 31
0.0
 44
0.9
  1
SCALE  0.188
 40
0.7134703196
 41
6.3532833225
  0
LINE
  5
3B1
100
AcDbEntity
  8
DEFAULT_3
100
AcDbLine
 62
7
  6
PHANTOM
 10
-0.000008867
 20
-0.0
 11
-0.000008867
 21
50.2282332996
  0
LWPOLYLINE
  5
3B2
100
AcDbEntity
  8
0
100
AcDbPolyline
 62
7
  6
CONTINUOUS
 90
2
 70
0
 43
0.0913242047
 10
1.1986686855
 20
24.3440791721
 10
1.1986686855
 20
25.884306472
  0
LWPOLYLINE
  5
3B3
100
AcDbEntity
  8
0
100
AcDbPolyline
 62
7
  6
CONTINUOUS
 90
2
 70
0
 43
0.1369863025
 10
2.2824995283
 20
47.9435351096
 10
2.2824995283
 20
2.2831050228
  0
LINE
  5
3B4
100
AcDbEntity
  8
DEFAULT_3
100
AcDbLine
 62
7
  6
PHANTOM
 10
-0.000008867
 20
-0.0
 11
77.6255707763
 21
-0.0
  0
LWPOLYLINE
  5
3B5
100
AcDbEntity
  8
0
100
AcDbPolyline
 62
7
  6
CONTINUOUS
 90
2
 70
0
 43
0.1369863025
 10
16.2149707538
 20
47.9722999176
 10
16.2149707538
 20
45.6891948948
  0
LWPOLYLINE
  5
3B6
100
AcDbEntity
  8
0
100
AcDbPolyline
 62
7
  6
CONTINUOUS
 90
2
 70
0
 43
0.0913242047
 10
36.9012596348
 20
1.2006546642
 10
38.4414869347
 20
1.2006546642
  0
LWPOLYLINE
  5
3B7
100
AcDbEntity
  8
0
100
AcDbPolyline
 62
7
  6
CONTINUOUS
 90
2
 70
0
 43
0.1369863025
 10
2.2824995283
 20
2.2831050228
 10
73.0593607306
 20
2.2831050228
  0
LWPOLYLINE
  5
3B8
100
AcDbEntity
  8
0
100
AcDbPolyline
 62
7
  6
CONTINUOUS
 90
2
 70
0
 43
0.0913242047
 10
38.2420091324
 20
3.4246575342
 10
73.0593607306
 20
3.4246575342
  0
LWPOLYLINE
  5
3B9
100
AcDbEntity
  8
0
100
AcDbPolyline
 62
7
  6
CONTINUOUS
 90
2
 70
0
 43
0.0913242047
 10
19.97674856
 20
2.2828102869
 10
19.97674856
 20
-0.0002947359
  0
LWPOLYLINE
  5
3BA
100
AcDbEntity
  8
0
100
AcDbPolyline
 62
7
  6
CONTINUOUS
 90
2
 70
0
 43
0.0913242047
 10
19.9770309777
 20
47.9442569495
 10
19.9770309777
 20
50.2273619723
  0
LWPOLYLINE
  5
3BB
100
AcDbEntity
  8
0
100
AcDbPolyline
 62
7
  6
CONTINUOUS
 90
2
 70
0
 43
0.0913242047
 10
2.28331379
 20
25.1141928221
 10
1.1986686855
 20
24.3440791721
  0
LINE
  5
3BC
100
AcDbEntity
  8
0
100
AcDbLine
 62
7
  6
CONTINUOUS
 10
38.2353380793
 20
5.1392449192
 11
28.0448672133
 21
2.3505862252
  0
LWPOLYLINE
  5
3BD
100
AcDbEntity
  8
0
100
AcDbPolyline
 62
7
  6
CONTINUOUS
 90
2
 70
0
 43
0.0913242047
 10
38.2420091324
 20
4.5662100457
 10
50.2283105023
 20
4.5662100457
  0
LWPOLYLINE
  5
3BE
100
AcDbEntity
  8
0
100
AcDbPolyline
 62
7
  6
CONTINUOUS
 90
2
 70
0
 43
0.0913242047
 10
38.2420091324
 20
5.1369863014
 10
27.9680365297
 20
5.1369863014
  0
LWPOLYLINE
  5
3BF
100
AcDbEntity
  8
0
100
AcDbPolyline
 62
7
  6
CONTINUOUS
 90
2
 70
0
 43
0.0913242047
 10
50.2283105023
 20
5.7077625571
 10
73.0593607306
 20
5.7077625571
  0
LWPOLYLINE
  5
3C0
100
AcDbEntity
  8
0
100
AcDbPolyline
 62
7
  6
CONTINUOUS
 90
2
 70
0
 43
0.0913242047
 10
2.28331379
 20
25.1141928221
 10
1.1986686855
 20
25.884306472
  0
LINE
  5
3C1
100
AcDbEntity
  8
0
100
AcDbLine
 62
7
  6
CONTINUOUS
 10
38.2353380793
 20
7.9872367769
 11
27.9855340496
 21
5.2134113738
  0
LWPOLYLINE
  5
3C2
100
AcDbEntity
  8
0
100
AcDbPolyline
 62
7
  6
CONTINUOUS
 90
2
 70
0
 43
0.0913242047
 10
38.2420091324
 20
6.5639269406
 10
50.2283105023
 20
6.5639269406
  0
LWPOLYLINE
  5
3C3
100
AcDbEntity
  8
0
100
AcDbPolyline
 62
7
  6
CONTINUOUS
 90
2
 70
0
 43
0.0913242047
 10
27.9680365297
 20
7.9908675799
 10
38.2420091324
 20
7.9908675799
  0
LWPOLYLINE
  5
3C4
100
AcDbEntity
  8
0
100
AcDbPolyline
 62
7
  6
CONTINUOUS
 90
2
 70
0
 43
0.0913242047
 10
38.2420091324
 20
8.5616438356
 10
50.2283105023
 20
8.5616438356
  0
LWPOLYLINE
  5
3C5
100
AcDbEntity
  8
0
100
AcDbPolyline
 62
7
  6
CONTINUOUS
 90
2
 70
0
 43
0.0913242047
 10
37.6698180317
 20
47.9453843318
 10
38.4399316816
 20
49.0300294363
  0
LWPOLYLINE
  5
3C6
100
AcDbEntity
  8
0
100
AcDbPolyline
 62
7
  6
CONTINUOUS
 90
2
 70
0
 43
0.0913242047
 10
38.2420091324
 20
10.5593607306
 10
50.2283105023
 20
10.5593607306
  0
LWPOLYLINE
  5
3C7
100
AcDbEntity
  8
0
100
AcDbPolyline
 62
7
  6
CONTINUOUS
 90
2
 70
0
 43
0.0913242047
 10
50.2283105023
 20
10.8447488584
 10
73.0593607306
 20
10.8447488584
  0
LINE
  5
3C8
100
AcDbEntity
  8
0
100
AcDbLine
 62
7
  6
CONTINUOUS
 10
28.0081979962
 20
13.9572486476
 11
38.2238821967
 21
8.0282877227
  0
LWPOLYLINE
  5
3C9
100
AcDbEntity
  8
0
100
AcDbPolyline
 62
7
  6
CONTINUOUS
 90
2
 70
0
 43
0.0913242047
 10
37.6713732847
 20
2.2852997687
 10
38.4414869347
 20
1.2006546642
  0
LWPOLYLINE
  5
3CA
100
AcDbEntity
  8
0
100
AcDbPolyline
 62
7
  6
CONTINUOUS
 90
2
 70
0
 43
0.0913242047
 10
27.9680365297
 20
2.2831050228
 10
27.9680365297
 20
13.9840182648
  0
LWPOLYLINE
  5
3CB
100
AcDbEntity
  8
0
100
AcDbPolyline
 62
7
  6
CONTINUOUS
 90
2
 70
0
 43
0.0913242047
 10
38.2420091324
 20
12.5570776256
 10
50.2283105023
 20
12.5570776256
  0
LWPOLYLINE
  5
3CC
100
AcDbEntity
  8
0
100
AcDbPolyline
 62
7
  6
CONTINUOUS
 90
2
 70
0
 43
0.0913242047
 10
2.2829983947
 20
13.697885314
 10
-0.0001066281
 20
13.697885314
  0
LWPOLYLINE
  5
3CD
100
AcDbEntity
  8
0
100
AcDbPolyline
 62
7
  6
CONTINUOUS
 90
2
 70
0
 43
0.0913242047
 10
73.1030051205
 20
13.6979289116
 10
75.3861101433
 20
13.6979289116
  0
LWPOLYLINE
  5
3CE
100
AcDbEntity
  8
0
100
AcDbPolyline
 62
7
  6
CONTINUOUS
 90
2
 70
0
 43
0.0913242047
 10
27.9680365297
 20
13.9840182648
 10
73.0593607306
 20
13.9840182648
  0
LWPOLYLINE
  5
3CF
100
AcDbEntity
  8
0
100
AcDbPolyline
 62
7
  6
CONTINUOUS
 90
2
 70
0
 43
0.0913242047
 10
37.6698180317
 20
47.9453843318
 10
37.6698180317
 20
50.2284893547
  0
LWPOLYLINE
  5
3D0
100
AcDbEntity
  8
0
100
AcDbPolyline
 62
7
  6
CONTINUOUS
 90
2
 70
0
 43
0.0913242047
 10
37.6713732847
 20
2.2852997687
 10
37.6713732847
 20
0.0021947458
  0
LWPOLYLINE
  5
3D1
100
AcDbEntity
  8
0
100
AcDbPolyline
 62
7
  6
CONTINUOUS
 90
2
 70
0
 43
0.0913242047
 10
38.2420091324
 20
2.2831050228
 10
38.2420091324
 20
13.9840182648
  0
LWPOLYLINE
  5
3D2
100
AcDbEntity
  8
0
100
AcDbPolyline
 62
7
  6
CONTINUOUS
 90
2
 70
0
 43
0.0913242047
 10
73.0750584699
 20
25.1141009962
 10
75.3581634927
 20
25.1141009962
  0
LWPOLYLINE
  5
3D3
100
AcDbEntity
  8
0
100
AcDbPolyline
 62
7
  6
CONTINUOUS
 90
2
 70
0
 43
0.0913242047
 10
2.28331379
 20
25.1141928221
 10
0.0002087672
 20
25.1141928221
  0
LWPOLYLINE
  5
3D4
100
AcDbEntity
  8
0
100
AcDbPolyline
 62
7
  6
CONTINUOUS
 90
2
 70
0
 43
0.0913242047
 10
46.2328767123
 20
4.5662100457
 10
46.2328767123
 20
13.9840182648
  0
LINE
  5
3D5
100
AcDbEntity
  8
0
100
AcDbLine
 62
7
  6
CONTINUOUS
 10
38.2359574735
 20
13.9572486476
 11
27.9840474425
 21
8.0765888301
  0
LWPOLYLINE
  5
3D6
100
AcDbEntity
  8
0
100
AcDbPolyline
 62
7
  6
CONTINUOUS
 90
2
 70
0
 43
0.0913242047
 10
50.2283105023
 20
2.2831050228
 10
50.2283105023
 20
13.9840182648
  0
LWPOLYLINE
  5
3D7
100
AcDbEntity
  8
0
100
AcDbPolyline
 62
7
  6
CONTINUOUS
 90
2
 70
0
 43
0.0913242047
 10
52.5114155251
 20
3.4246575342
 10
52.5114155251
 20
5.7077625571
  0
LWPOLYLINE
  5
3D8
100
AcDbEntity
  8
0
100
AcDbPolyline
 62
7
  6
CONTINUOUS
 90
2
 70
0
 43
0.0913242047
 10
37.6713732847
 20
2.2852997687
 10
36.9012596348
 20
1.2006546642
  0
LWPOLYLINE
  5
3D9
100
AcDbEntity
  8
0
100
AcDbPolyline
 62
7
  6
CONTINUOUS
 90
2
 70
0
 43
0.0913242047
 10
73.0800523638
 20
36.5282492398
 10
75.3631573866
 20
36.5282492398
  0
LWPOLYLINE
  5
3DA
100
AcDbEntity
  8
0
100
AcDbPolyline
 62
7
  6
CONTINUOUS
 90
2
 70
0
 43
0.0913242047
 10
2.2824989577
 20
36.5283975092
 10
-0.0006060651
 20
36.5283975092
  0
LWPOLYLINE
  5
3DB
100
AcDbEntity
  8
0
100
AcDbPolyline
 62
7
  6
CONTINUOUS
 90
2
 70
0
 43
0.0913242047
 10
37.6698180317
 20
47.9453843318
 10
36.8997043817
 20
49.0300294363
  0
LWPOLYLINE
  5
3DC
100
AcDbEntity
  8
0
100
AcDbPolyline
 62
7
  6
CONTINUOUS
 90
2
 70
0
 43
0.0913242047
 10
55.363985937
 20
47.9517433793
 10
55.363985937
 20
50.2348484022
  0
LWPOLYLINE
  5
3DD
100
AcDbEntity
  8
0
100
AcDbPolyline
 62
7
  6
CONTINUOUS
 90
2
 70
0
 43
0.0913242047
 10
55.3652538595
 20
2.2816073249
 10
55.3652538595
 20
-0.001497698
  0
LWPOLYLINE
  5
3DE
100
AcDbEntity
  8
0
100
AcDbPolyline
 62
7
  6
CONTINUOUS
 90
2
 70
0
 43
0.0913242047
 10
55.6330089797
 20
2.3047952308
 10
55.6330089797
 20
3.4463477422
  0
LWPOLYLINE
  5
3DF
100
AcDbEntity
  8
0
100
AcDbPolyline
 62
7
  6
CONTINUOUS
 90
2
 70
0
 43
0.0913242047
 10
57.0776255708
 20
3.4246575342
 10
57.0776255708
 20
5.7077625571
  0
LWPOLYLINE
  5
3E0
100
AcDbEntity
  8
0
100
AcDbPolyline
 62
7
  6
CONTINUOUS
 90
2
 70
0
 43
0.0913242047
 10
73.0750584699
 20
25.1141009962
 10
74.1597035743
 20
25.8842146462
  0
LWPOLYLINE
  5
3E1
100
AcDbEntity
  8
0
100
AcDbPolyline
 62
7
  6
CONTINUOUS
 90
2
 70
0
 43
0.1369863025
 10
16.2149707538
 20
45.6891948948
 10
2.230952489
 20
45.6891948948
  0
LWPOLYLINE
  5
3E2
100
AcDbEntity
  8
0
100
AcDbPolyline
 62
7
  6
CONTINUOUS
 90
2
 70
0
 43
0.0913242047
 10
73.0750584699
 20
25.1141009962
 10
74.1597035743
 20
24.3439873463
  0
LWPOLYLINE
  5
3E3
100
AcDbEntity
  8
0
100
AcDbPolyline
 62
7
  6
CONTINUOUS
 90
2
 70
0
 43
0.1369863025
 10
73.0593607306
 20
47.9435351096
 10
2.2824995283
 20
47.9435351096
  0
LWPOLYLINE
  5
3E4
100
AcDbEntity
  8
0
100
AcDbPolyline
 62
7
  6
CONTINUOUS
 90
2
 70
0
 43
0.0913242047
 10
36.8997043817
 20
49.0300294363
 10
38.4399316816
 20
49.0300294363
  0
LWPOLYLINE
  5
3E5
100
AcDbEntity
  8
0
100
AcDbPolyline
 62
7
  6
CONTINUOUS
 90
2
 70
0
 43
0.0913242047
 10
65.6392694064
 20
2.2831050228
 10
65.6392694064
 20
3.4246575342
  0
LINE
  5
3E6
100
AcDbEntity
  8
DEFAULT_3
100
AcDbLine
 62
7
  6
PHANTOM
 10
-0.000008867
 20
50.2282332996
 11
77.6256162953
 21
50.2282332996
  0
LWPOLYLINE
  5
3E7
100
AcDbEntity
  8
0
100
AcDbPolyline
 62
7
  6
CONTINUOUS
 90
2
 70
0
 43
0.0913242047
 10
70.7762557078
 20
3.4246575342
 10
70.7762557078
 20
5.7077625571
  0
LWPOLYLINE
  5
3E8
100
AcDbEntity
  8
0
100
AcDbPolyline
 62
7
  6
CONTINUOUS
 90
2
 70
0
 43
0.1369863025
 10
73.0593607306
 20
47.9435351096
 10
73.0593607306
 20
2.2831050228
  0
LWPOLYLINE
  5
3E9
100
AcDbEntity
  8
0
100
AcDbPolyline
 62
7
  6
CONTINUOUS
 90
2
 70
0
 43
0.0913242047
 10
74.1597035743
 20
24.3439873463
 10
74.1597035743
 20
25.8842146462
  0
LINE
  5
3EA
100
AcDbEntity
  8
DEFAULT_3
100
AcDbLine
 62
7
  6
PHANTOM
 10
77.6255707763
 20
-0.0
 11
77.6255707763
 21
50.2266401324
  0
LINE
  5
3EB
100
AcDbEntity
  8
0
100
AcDbLine
 62
7
  6
CONTINUOUS
 10
11.3596458739
 20
26.62459484
 11
15.2265750077
 21
26.62459484
  0
LINE
  5
3EC
100
AcDbEntity
  8
0
100
AcDbLine
 62
3
  6
CONTINUOUS
 10
15.2265750077
 20
26.7289255487
 11
11.3596458739
 21
26.7289255487
  0
LINE
  5
3ED
100
AcDbEntity
  8
0
100
AcDbLine
 62
3
  6
CONTINUOUS
 10
15.2265750077
 20
26.7328625565
 11
14.8407482361
 21
26.7328625565
  0
LINE
  5
3EE
100
AcDbEntity
  8
0
100
AcDbLine
 62
3
  6
CONTINUOUS
 10
11.3596458739
 20
26.7328625565
 11
11.7454726455
 21
26.7328625565
  0
LINE
  5
3EF
100
AcDbEntity
  8
0
100
AcDbLine
 62
9
  6
CONTINUOUS
 10
12.3019687085
 20
26.756023937
 11
12.3157482361
 21
26.756023937
  0
LINE
  5
3F0
100
AcDbEntity
  8
0
100
AcDbLine
 62
9
  6
CONTINUOUS
 10
14.2704726455
 20
26.756023937
 11
14.2842521731
 21
26.756023937
  0
LINE
  5
3F1
100
AcDbEntity
  8
0
100
AcDbLine
 62
9
  6
CONTINUOUS
 10
11.7454726455
 20
26.7580594069
 11
11.9893927828
 21
26.7580594069
  0
LINE
  5
3F2
100
AcDbEntity
  8
0
100
AcDbLine
 62
9
  6
CONTINUOUS
 10
12.6283242171
 20
26.7580594069
 11
13.9578967199
 21
26.7580594069
  0
LINE
  5
3F3
100
AcDbEntity
  8
0
100
AcDbLine
 62
9
  6
CONTINUOUS
 10
14.5968281541
 20
26.7580594069
 11
14.8407482361
 21
26.7580594069
  0
LINE
  5
3F4
100
AcDbEntity
  8
0
100
AcDbLine
 62
7
  6
CONTINUOUS
 10
15.2265750077
 20
26.8371932652
 11
14.8407482361
 21
26.8371932652
  0
LINE
  5
3F5
100
AcDbEntity
  8
0
100
AcDbLine
 62
7
  6
CONTINUOUS
 10
11.3596458739
 20
26.8371932652
 11
11.7454726455
 21
26.8371932652
  0
LINE
  5
3F6
100
AcDbEntity
  8
0
100
AcDbLine
 62
7
  6
CONTINUOUS
 10
15.3600395747
 20
26.9549098006
 11
15.255708866
 21
26.9549098006
  0
LINE
  5
3F7
100
AcDbEntity
  8
0
100
AcDbLine
 62
3
  6
CONTINUOUS
 10
15.255708866
 20
26.9549098006
 11
15.2265750077
 21
26.9549098006
  0
LINE
  5
3F8
100
AcDbEntity
  8
0
100
AcDbLine
 62
7
  6
CONTINUOUS
 10
11.226181307
 20
26.9549098006
 11
11.3305120156
 21
26.9549098006
  0
LINE
  5
3F9
100
AcDbEntity
  8
0
100
AcDbLine
 62
3
  6
CONTINUOUS
 10
11.3305120156
 20
26.9549098006
 11
11.3596458739
 21
26.9549098006
  0
LINE
  5
3FA
100
AcDbEntity
  8
0
100
AcDbLine
 62
9
  6
CONTINUOUS
 10
12.3019687085
 20
27.0833493556
 11
12.3157482361
 21
27.0833493556
  0
LINE
  5
3FB
100
AcDbEntity
  8
0
100
AcDbLine
 62
9
  6
CONTINUOUS
 10
14.2704726455
 20
27.0833493556
 11
14.2842521731
 21
27.0833493556
  0
LINE
  5
3FC
100
AcDbEntity
  8
0
100
AcDbLine
 62
9
  6
CONTINUOUS
 10
12.3019687086
 20
27.1487706523
 11
12.3157482359
 21
27.1487706523
  0
LINE
  5
3FD
100
AcDbEntity
  8
0
100
AcDbLine
 62
9
  6
CONTINUOUS
 10
14.2704726457
 20
27.1487706523
 11
14.2842521729
 21
27.1487706523
  0
LINE
  5
3FE
100
AcDbEntity
  8
0
100
AcDbLine
 62
3
  6
CONTINUOUS
 10
11.4820868188
 20
27.1954609817
 11
15.1041340629
 21
27.1954609817
  0
LINE
  5
3FF
100
AcDbEntity
  8
02___PRT_ALL_AXES
100
AcDbLine
 62
7
  6
CENTER
 10
14.1789372125
 20
28.0222326353
 11
13.7223122709
 21
28.0222326353
  0
LINE
  5
400
100
AcDbEntity
  8
02___PRT_ALL_AXES
100
AcDbLine
 62
7
  6
CENTER
 10
12.4072836692
 20
28.0222326353
 11
11.9506587276
 21
28.0222326353
  0
LINE
  5
401
100
AcDbEntity
  8
02___PRT_ALL_AXES
100
AcDbLine
 62
7
  6
CENTER
 10
12.4072836692
 20
28.0222326353
 11
12.8639086107
 21
28.0222326353
  0
LINE
  5
402
100
AcDbEntity
  8
02___PRT_ALL_AXES
100
AcDbLine
 62
7
  6
CENTER
 10
14.1789372125
 20
28.0222326353
 11
14.635562154
 21
28.0222326353
  0
LINE
  5
403
100
AcDbEntity
  8
02___PRT_ALL_AXES
100
AcDbLine
 62
7
  6
CENTER
 10
14.1789372125
 20
29.0852247613
 11
13.7223122709
 21
29.0852247613
  0
LINE
  5
404
100
AcDbEntity
  8
02___PRT_ALL_AXES
100
AcDbLine
 62
7
  6
CENTER
 10
12.4072836692
 20
29.0852247613
 11
11.9506587276
 21
29.0852247613
  0
LINE
  5
405
100
AcDbEntity
  8
02___PRT_ALL_AXES
100
AcDbLine
 62
7
  6
CENTER
 10
12.4072836692
 20
29.0852247613
 11
12.8639086107
 21
29.0852247613
  0
LINE
  5
406
100
AcDbEntity
  8
02___PRT_ALL_AXES
100
AcDbLine
 62
7
  6
CENTER
 10
14.1789372125
 20
29.0852247613
 11
14.635562154
 21
29.0852247613
  0
LINE
  5
407
100
AcDbEntity
  8
02___PRT_ALL_AXES
100
AcDbLine
 62
7
  6
CENTER
 10
13.2931104408
 20
31.6442798794
 11
12.8214021655
 21
31.6442798794
  0
LINE
  5
408
100
AcDbEntity
  8
02___PRT_ALL_AXES
100
AcDbLine
 62
7
  6
CENTER
 10
13.2931104408
 20
31.6442798794
 11
13.7648187162
 21
31.6442798794
  0
LINE
  5
409
100
AcDbEntity
  8
02___PRT_ALL_AXES
100
AcDbLine
 62
7
  6
CENTER
 10
14.7104332755
 20
31.8805003518
 11
14.2387250001
 21
31.8805003518
  0
LINE
  5
40A
100
AcDbEntity
  8
02___PRT_ALL_AXES
100
AcDbLine
 62
7
  6
CENTER
 10
11.8757876062
 20
31.8805003518
 11
11.4040793308
 21
31.8805003518
  0
LINE
  5
40B
100
AcDbEntity
  8
02___PRT_ALL_AXES
100
AcDbLine
 62
7
  6
CENTER
 10
11.8757876062
 20
31.8805003518
 11
12.3474958815
 21
31.8805003518
  0
LINE
  5
40C
100
AcDbEntity
  8
02___PRT_ALL_AXES
100
AcDbLine
 62
7
  6
CENTER
 10
14.7104332755
 20
31.8805003518
 11
15.1821415508
 21
31.8805003518
  0
LINE
  5
40D
100
AcDbEntity
  8
0
100
AcDbLine
 62
7
  6
CONTINUOUS
 10
11.226181307
 20
26.9549098006
 11
11.226181307
 21
42.0816814542
  0
LINE
  5
40E
100
AcDbEntity
  8
0
100
AcDbLine
 62
3
  6
CONTINUOUS
 10
11.3305120156
 20
26.9549098006
 11
11.3305120156
 21
42.0816814542
  0
LINE
  5
40F
100
AcDbEntity
  8
0
100
AcDbLine
 62
3
  6
CONTINUOUS
 10
11.3596458739
 20
42.1993979896
 11
11.3596458739
 21
42.0816814542
  0
LINE
  5
410
100
AcDbEntity
  8
0
100
AcDbLine
 62
9
  6
CONTINUOUS
 10
11.3596458739
 20
42.0816814542
 11
11.3596458739
 21
26.9549098006
  0
LINE
  5
411
100
AcDbEntity
  8
0
100
AcDbLine
 62
3
  6
CONTINUOUS
 10
11.3596458739
 20
26.9549098006
 11
11.3596458739
 21
26.8371932652
  0
LINE
  5
412
100
AcDbEntity
  8
0
100
AcDbLine
 62
9
  6
CONTINUOUS
 10
11.3596458739
 20
26.8371932652
 11
11.3596458739
 21
26.7357415767
  0
LINE
  5
413
100
AcDbEntity
  8
0
100
AcDbLine
 62
7
  6
CONTINUOUS
 10
11.3596458739
 20
26.7289255487
 11
11.3596458739
 21
26.62459484
  0
LINE
  5
414
100
AcDbEntity
  8
0
100
AcDbLine
 62
3
  6
CONTINUOUS
 10
11.3596458739
 20
26.7289255487
 11
11.3596458739
 21
26.7357415767
  0
LINE
  5
415
100
AcDbEntity
  8
0
100
AcDbLine
 62
9
  6
CONTINUOUS
 10
11.3596458739
 20
42.1993979896
 11
11.3596458739
 21
42.3037286983
  0
LINE
  5
416
100
AcDbEntity
  8
0
100
AcDbLine
 62
7
  6
CONTINUOUS
 10
11.3596458739
 20
42.3076657061
 11
11.3596458739
 21
42.4119964148
  0
LINE
  5
417
100
AcDbEntity
  8
0
100
AcDbLine
 62
3
  6
CONTINUOUS
 10
11.4820868188
 20
41.8411302731
 11
11.4820868188
 21
27.1954609817
  0
LINE
  5
418
100
AcDbEntity
  8
0
100
AcDbLine
 62
7
  6
CONTINUOUS
 10
11.7454726455
 20
26.8371932652
 11
11.7454726455
 21
26.7328625565
  0
LINE
  5
419
100
AcDbEntity
  8
0
100
AcDbLine
 62
7
  6
CONTINUOUS
 10
11.7454726455
 20
42.1993979896
 11
11.7454726455
 21
42.3037286983
  0
LINE
  5
41A
100
AcDbEntity
  8
02___PRT_ALL_AXES
100
AcDbLine
 62
7
  6
CENTER
 10
11.8757876062
 20
37.156090903
 11
11.8757876062
 21
36.6843826276
  0
LINE
  5
41B
100
AcDbEntity
  8
02___PRT_ALL_AXES
100
AcDbLine
 62
7
  6
CENTER
 10
11.8757876062
 20
31.8805003518
 11
11.8757876062
 21
31.4087920764
  0
LINE
  5
41C
100
AcDbEntity
  8
02___PRT_ALL_AXES
100
AcDbLine
 62
7
  6
CENTER
 10
11.8757876062
 20
31.8805003518
 11
11.8757876062
 21
32.3522086272
  0
LINE
  5
41D
100
AcDbEntity
  8
02___PRT_ALL_AXES
100
AcDbLine
 62
7
  6
CENTER
 10
11.8757876062
 20
37.156090903
 11
11.8757876062
 21
37.6277991783
  0
LINE
  5
41E
100
AcDbEntity
  8
0
100
AcDbLine
 62
9
  6
CONTINUOUS
 10
11.9893929904
 20
42.2785318479
 11
11.9893930058
 21
42.3076657061
  0
LINE
  5
41F
100
AcDbEntity
  8
0
100
AcDbLine
 62
9
  6
CONTINUOUS
 10
11.9893929904
 20
26.7289255487
 11
11.9893930058
 21
26.7580594069
  0
LINE
  5
420
100
AcDbEntity
  8
02___PRT_ALL_AXES
100
AcDbLine
 62
3
  6
CONTINUOUS
 10
12.2104332755
 20
28.0222326353
 11
12.2104332755
 21
29.0852247613
  0
LINE
  5
421
100
AcDbEntity
  8
02___PRT_ALL_AXES
100
AcDbLine
 62
3
  6
CONTINUOUS
 10
12.2104332755
 20
39.9513664935
 11
12.2104332755
 21
41.0143586195
  0
LINE
  5
422
100
AcDbEntity
  8
0
100
AcDbLine
 62
9
  6
CONTINUOUS
 10
12.3019687085
 20
26.7289255487
 11
12.3019687085
 21
27.1487706523
  0
LINE
  5
423
100
AcDbEntity
  8
0
100
AcDbLine
 62
9
  6
CONTINUOUS
 10
12.3019687085
 20
41.8878206025
 11
12.3019687085
 21
42.3076657061
  0
LINE
  5
424
100
AcDbEntity
  8
0
100
AcDbLine
 62
9
  6
CONTINUOUS
 10
12.3157482361
 20
26.7289255487
 11
12.3157482361
 21
27.1487706523
  0
LINE
  5
425
100
AcDbEntity
  8
0
100
AcDbLine
 62
9
  6
CONTINUOUS
 10
12.3157482361
 20
41.8878206025
 11
12.3157482361
 21
42.3076657061
  0
LINE
  5
426
100
AcDbEntity
  8
02___PRT_ALL_AXES
100
AcDbLine
 62
7
  6
CENTER
 10
12.4072836692
 20
41.0143586195
 11
12.4072836692
 21
40.5577336779
  0
LINE
  5
427
100
AcDbEntity
  8
02___PRT_ALL_AXES
100
AcDbLine
 62
7
  6
CENTER
 10
12.4072836692
 20
39.9513664935
 11
12.4072836692
 21
39.494741552
  0
LINE
  5
428
100
AcDbEntity
  8
02___PRT_ALL_AXES
100
AcDbLine
 62
7
  6
CENTER
 10
12.4072836692
 20
29.0852247613
 11
12.4072836692
 21
28.6285998197
  0
LINE
  5
429
100
AcDbEntity
  8
02___PRT_ALL_AXES
100
AcDbLine
 62
7
  6
CENTER
 10
12.4072836692
 20
28.0222326353
 11
12.4072836692
 21
27.5656076937
  0
LINE
  5
42A
100
AcDbEntity
  8
02___PRT_ALL_AXES
100
AcDbLine
 62
7
  6
CENTER
 10
12.4072836692
 20
28.0222326353
 11
12.4072836692
 21
28.4788575768
  0
LINE
  5
42B
100
AcDbEntity
  8
02___PRT_ALL_AXES
100
AcDbLine
 62
7
  6
CENTER
 10
12.4072836692
 20
29.0852247613
 11
12.4072836692
 21
29.5418497028
  0
LINE
  5
42C
100
AcDbEntity
  8
02___PRT_ALL_AXES
100
AcDbLine
 62
7
  6
CENTER
 10
12.4072836692
 20
39.9513664935
 11
12.4072836692
 21
40.4079914351
  0
LINE
  5
42D
100
AcDbEntity
  8
02___PRT_ALL_AXES
100
AcDbLine
 62
7
  6
CENTER
 10
12.4072836692
 20
41.0143586195
 11
12.4072836692
 21
41.4709835611
  0
LINE
  5
42E
100
AcDbEntity
  8
02___PRT_ALL_AXES
100
AcDbLine
 62
3
  6
CONTINUOUS
 10
12.6041340629
 20
41.0143586195
 11
12.6041340629
 21
39.9513664935
  0
LINE
  5
42F
100
AcDbEntity
  8
02___PRT_ALL_AXES
100
AcDbLine
 62
3
  6
CONTINUOUS
 10
12.6041340629
 20
29.0852247613
 11
12.6041340629
 21
28.0222326353
  0
LINE
  5
430
100
AcDbEntity
  8
0
100
AcDbLine
 62
9
  6
CONTINUOUS
 10
12.628323956
 20
26.7580594069
 11
12.6283240696
 21
26.7289255487
  0
LINE
  5
431
100
AcDbEntity
  8
0
100
AcDbLine
 62
9
  6
CONTINUOUS
 10
12.628323956
 20
42.3076657061
 11
12.6283240696
 21
42.2785318479
  0
LINE
  5
432
100
AcDbEntity
  8
02___PRT_ALL_AXES
100
AcDbLine
 62
7
  6
CENTER
 10
13.2931104408
 20
37.3923113754
 11
13.2931104408
 21
26.1855290837
  0
LINE
  5
433
100
AcDbEntity
  8
02___PRT_ALL_AXES
100
AcDbLine
 62
7
  6
CENTER
 10
13.2931104408
 20
37.3923113754
 11
13.2931104408
 21
42.8881094701
  0
LINE
  5
434
100
AcDbEntity
  8
DEFAULT_1
100
AcDbLine
 62
7
  6
CENTER
 10
10.6192570563
 20
34.5182956274
 11
16.156850912
 21
34.5182956274
  0
LINE
  5
435
100
AcDbEntity
  8
0
100
AcDbLine
 62
9
  6
CONTINUOUS
 10
13.9578969274
 20
42.2785318479
 11
13.9578969428
 21
42.3076657061
  0
LINE
  5
436
100
AcDbEntity
  8
0
100
AcDbLine
 62
9
  6
CONTINUOUS
 10
13.9578969274
 20
26.7289255487
 11
13.9578969428
 21
26.7580594069
  0
LINE
  5
437
100
AcDbEntity
  8
02___PRT_ALL_AXES
100
AcDbLine
 62
3
  6
CONTINUOUS
 10
13.9820868188
 20
28.0222326353
 11
13.9820868188
 21
29.0852247613
  0
LINE
  5
438
100
AcDbEntity
  8
02___PRT_ALL_AXES
100
AcDbLine
 62
3
  6
CONTINUOUS
 10
13.9820868188
 20
39.9513664935
 11
13.9820868188
 21
41.0143586195
  0
LINE
  5
439
100
AcDbEntity
  8
02___PRT_ALL_AXES
100
AcDbLine
 62
7
  6
CENTER
 10
14.1789372125
 20
41.0143586195
 11
14.1789372125
 21
40.5577336779
  0
LINE
  5
43A
100
AcDbEntity
  8
02___PRT_ALL_AXES
100
AcDbLine
 62
7
  6
CENTER
 10
14.1789372125
 20
39.9513664935
 11
14.1789372125
 21
39.494741552
  0
LINE
  5
43B
100
AcDbEntity
  8
02___PRT_ALL_AXES
100
AcDbLine
 62
7
  6
CENTER
 10
14.1789372125
 20
29.0852247613
 11
14.1789372125
 21
28.6285998197
  0
LINE
  5
43C
100
AcDbEntity
  8
02___PRT_ALL_AXES
100
AcDbLine
 62
7
  6
CENTER
 10
14.1789372125
 20
28.0222326353
 11
14.1789372125
 21
27.5656076937
  0
LINE
  5
43D
100
AcDbEntity
  8
02___PRT_ALL_AXES
100
AcDbLine
 62
7
  6
CENTER
 10
14.1789372125
 20
28.0222326353
 11
14.1789372125
 21
28.4788575768
  0
LINE
  5
43E
100
AcDbEntity
  8
02___PRT_ALL_AXES
100
AcDbLine
 62
7
  6
CENTER
 10
14.1789372125
 20
29.0852247613
 11
14.1789372125
 21
29.5418497028
  0
LINE
  5
43F
100
AcDbEntity
  8
02___PRT_ALL_AXES
100
AcDbLine
 62
7
  6
CENTER
 10
14.1789372125
 20
39.9513664935
 11
14.1789372125
 21
40.4079914351
  0
LINE
  5
440
100
AcDbEntity
  8
02___PRT_ALL_AXES
100
AcDbLine
 62
7
  6
CENTER
 10
14.1789372125
 20
41.0143586195
 11
14.1789372125
 21
41.4709835611
  0
LINE
  5
441
100
AcDbEntity
  8
0
100
AcDbLine
 62
9
  6
CONTINUOUS
 10
14.2704726455
 20
26.7289255487
 11
14.2704726455
 21
27.1487706523
  0
LINE
  5
442
100
AcDbEntity
  8
0
100
AcDbLine
 62
9
  6
CONTINUOUS
 10
14.2704726455
 20
41.8878206025
 11
14.2704726455
 21
42.3076657061
  0
LINE
  5
443
100
AcDbEntity
  8
0
100
AcDbLine
 62
9
  6
CONTINUOUS
 10
14.2842521731
 20
26.7289255487
 11
14.2842521731
 21
27.1487706523
  0
LINE
  5
444
100
AcDbEntity
  8
0
100
AcDbLine
 62
9
  6
CONTINUOUS
 10
14.2842521731
 20
41.8878206025
 11
14.2842521731
 21
42.3076657061
  0
LINE
  5
445
100
AcDbEntity
  8
02___PRT_ALL_AXES
100
AcDbLine
 62
3
  6
CONTINUOUS
 10
14.3757876062
 20
41.0143586195
 11
14.3757876062
 21
39.9513664935
  0
LINE
  5
446
100
AcDbEntity
  8
02___PRT_ALL_AXES
100
AcDbLine
 62
3
  6
CONTINUOUS
 10
14.3757876062
 20
29.0852247613
 11
14.3757876062
 21
28.0222326353
  0
LINE
  5
447
100
AcDbEntity
  8
0
100
AcDbLine
 62
9
  6
CONTINUOUS
 10
14.596827893
 20
26.7580594069
 11
14.5968280066
 21
26.7289255487
  0
LINE
  5
448
100
AcDbEntity
  8
0
100
AcDbLine
 62
9
  6
CONTINUOUS
 10
14.596827893
 20
42.3076657061
 11
14.5968280066
 21
42.2785318479
  0
LINE
  5
449
100
AcDbEntity
  8
02___PRT_ALL_AXES
100
AcDbLine
 62
7
  6
CENTER
 10
14.7104332755
 20
37.156090903
 11
14.7104332755
 21
36.6843826276
  0
LINE
  5
44A
100
AcDbEntity
  8
02___PRT_ALL_AXES
100
AcDbLine
 62
7
  6
CENTER
 10
14.7104332755
 20
31.8805003518
 11
14.7104332755
 21
31.4087920764
  0
LINE
  5
44B
100
AcDbEntity
  8
02___PRT_ALL_AXES
100
AcDbLine
 62
7
  6
CENTER
 10
14.7104332755
 20
31.8805003518
 11
14.7104332755
 21
32.3522086272
  0
LINE
  5
44C
100
AcDbEntity
  8
02___PRT_ALL_AXES
100
AcDbLine
 62
7
  6
CENTER
 10
14.7104332755
 20
37.156090903
 11
14.7104332755
 21
37.6277991783
  0
LINE
  5
44D
100
AcDbEntity
  8
0
100
AcDbLine
 62
7
  6
CONTINUOUS
 10
14.8407482361
 20
26.8371932652
 11
14.8407482361
 21
26.7328625565
  0
LINE
  5
44E
100
AcDbEntity
  8
0
100
AcDbLine
 62
7
  6
CONTINUOUS
 10
14.8407482361
 20
42.1993979896
 11
14.8407482361
 21
42.3037286983
  0
LINE
  5
44F
100
AcDbEntity
  8
0
100
AcDbLine
 62
3
  6
CONTINUOUS
 10
15.1041340629
 20
27.1954609817
 11
15.1041340629
 21
41.8411302731
  0
LINE
  5
450
100
AcDbEntity
  8
0
100
AcDbLine
 62
9
  6
CONTINUOUS
 10
15.2265750077
 20
26.8371932652
 11
15.2265750077
 21
26.7328625565
  0
LINE
  5
451
100
AcDbEntity
  8
0
100
AcDbLine
 62
7
  6
CONTINUOUS
 10
15.2265750077
 20
26.7289255487
 11
15.2265750077
 21
26.62459484
  0
LINE
  5
452
100
AcDbEntity
  8
0
100
AcDbLine
 62
3
  6
CONTINUOUS
 10
15.2265750077
 20
26.8371932652
 11
15.2265750077
 21
26.9549098006
  0
LINE
  5
453
100
AcDbEntity
  8
0
100
AcDbLine
 62
9
  6
CONTINUOUS
 10
15.2265750077
 20
26.9549098006
 11
15.2265750077
 21
42.0816814542
  0
LINE
  5
454
100
AcDbEntity
  8
0
100
AcDbLine
 62
3
  6
CONTINUOUS
 10
15.2265750077
 20
42.0816814542
 11
15.2265750077
 21
42.1993979896
  0
LINE
  5
455
100
AcDbEntity
  8
0
100
AcDbLine
 62
9
  6
CONTINUOUS
 10
15.2265750077
 20
42.1993979896
 11
15.2265750077
 21
42.3037286983
  0
LINE
  5
456
100
AcDbEntity
  8
0
100
AcDbLine
 62
7
  6
CONTINUOUS
 10
15.2265750077
 20
42.3076657061
 11
15.2265750077
 21
42.4119964148
  0
LINE
  5
457
100
AcDbEntity
  8
0
100
AcDbLine
 62
3
  6
CONTINUOUS
 10
15.255708866
 20
42.0816814542
 11
15.255708866
 21
26.9549098006
  0
LINE
  5
458
100
AcDbEntity
  8
0
100
AcDbLine
 62
7
  6
CONTINUOUS
 10
15.3600395747
 20
42.0816814542
 11
15.3600395747
 21
26.9549098006
  0
LINE
  5
459
100
AcDbEntity
  8
02___PRT_ALL_AXES
100
AcDbLine
 62
7
  6
CENTER
 10
14.7104332755
 20
37.156090903
 11
14.2387250001
 21
37.156090903
  0
LINE
  5
45A
100
AcDbEntity
  8
02___PRT_ALL_AXES
100
AcDbLine
 62
7
  6
CENTER
 10
11.8757876062
 20
37.156090903
 11
11.4040793308
 21
37.156090903
  0
LINE
  5
45B
100
AcDbEntity
  8
02___PRT_ALL_AXES
100
AcDbLine
 62
7
  6
CENTER
 10
11.8757876062
 20
37.156090903
 11
12.3474958815
 21
37.156090903
  0
LINE
  5
45C
100
AcDbEntity
  8
02___PRT_ALL_AXES
100
AcDbLine
 62
7
  6
CENTER
 10
14.7104332755
 20
37.156090903
 11
15.1821415508
 21
37.156090903
  0
LINE
  5
45D
100
AcDbEntity
  8
02___PRT_ALL_AXES
100
AcDbLine
 62
7
  6
CENTER
 10
13.2931104408
 20
37.3923113754
 11
12.8214021655
 21
37.3923113754
  0
LINE
  5
45E
100
AcDbEntity
  8
02___PRT_ALL_AXES
100
AcDbLine
 62
7
  6
CENTER
 10
13.2931104408
 20
37.3923113754
 11
13.7648187162
 21
37.3923113754
  0
LINE
  5
45F
100
AcDbEntity
  8
02___PRT_ALL_AXES
100
AcDbLine
 62
7
  6
CENTER
 10
14.1789372125
 20
39.9513664935
 11
13.7223122709
 21
39.9513664935
  0
LINE
  5
460
100
AcDbEntity
  8
02___PRT_ALL_AXES
100
AcDbLine
 62
7
  6
CENTER
 10
12.4072836692
 20
39.9513664935
 11
11.9506587276
 21
39.9513664935
  0
LINE
  5
461
100
AcDbEntity
  8
02___PRT_ALL_AXES
100
AcDbLine
 62
7
  6
CENTER
 10
12.4072836692
 20
39.9513664935
 11
12.8639086107
 21
39.9513664935
  0
LINE
  5
462
100
AcDbEntity
  8
02___PRT_ALL_AXES
100
AcDbLine
 62
7
  6
CENTER
 10
14.1789372125
 20
39.9513664935
 11
14.635562154
 21
39.9513664935
  0
LINE
  5
463
100
AcDbEntity
  8
02___PRT_ALL_AXES
100
AcDbLine
 62
7
  6
CENTER
 10
14.1789372125
 20
41.0143586195
 11
13.7223122709
 21
41.0143586195
  0
LINE
  5
464
100
AcDbEntity
  8
02___PRT_ALL_AXES
100
AcDbLine
 62
7
  6
CENTER
 10
12.4072836692
 20
41.0143586195
 11
11.9506587276
 21
41.0143586195
  0
LINE
  5
465
100
AcDbEntity
  8
02___PRT_ALL_AXES
100
AcDbLine
 62
7
  6
CENTER
 10
12.4072836692
 20
41.0143586195
 11
12.8639086107
 21
41.0143586195
  0
LINE
  5
466
100
AcDbEntity
  8
02___PRT_ALL_AXES
100
AcDbLine
 62
7
  6
CENTER
 10
14.1789372125
 20
41.0143586195
 11
14.635562154
 21
41.0143586195
  0
LINE
  5
467
100
AcDbEntity
  8
0
100
AcDbLine
 62
3
  6
CONTINUOUS
 10
15.1041340629
 20
41.8411302731
 11
11.4820868188
 21
41.8411302731
  0
LINE
  5
468
100
AcDbEntity
  8
0
100
AcDbLine
 62
9
  6
CONTINUOUS
 10
12.3019687087
 20
41.8878206025
 11
12.3157482358
 21
41.8878206025
  0
LINE
  5
469
100
AcDbEntity
  8
0
100
AcDbLine
 62
9
  6
CONTINUOUS
 10
14.2704726457
 20
41.8878206025
 11
14.2842521728
 21
41.8878206025
  0
LINE
  5
46A
100
AcDbEntity
  8
0
100
AcDbLine
 62
9
  6
CONTINUOUS
 10
12.3019687085
 20
41.9532418992
 11
12.3157482361
 21
41.9532418992
  0
LINE
  5
46B
100
AcDbEntity
  8
0
100
AcDbLine
 62
9
  6
CONTINUOUS
 10
14.2704726455
 20
41.9532418992
 11
14.2842521731
 21
41.9532418992
  0
LINE
  5
46C
100
AcDbEntity
  8
0
100
AcDbLine
 62
7
  6
CONTINUOUS
 10
15.3600395747
 20
42.0816814542
 11
15.255708866
 21
42.0816814542
  0
LINE
  5
46D
100
AcDbEntity
  8
0
100
AcDbLine
 62
3
  6
CONTINUOUS
 10
15.255708866
 20
42.0816814542
 11
15.2265750077
 21
42.0816814542
  0
LINE
  5
46E
100
AcDbEntity
  8
0
100
AcDbLine
 62
7
  6
CONTINUOUS
 10
11.226181307
 20
42.0816814542
 11
11.3305120156
 21
42.0816814542
  0
LINE
  5
46F
100
AcDbEntity
  8
0
100
AcDbLine
 62
3
  6
CONTINUOUS
 10
11.3305120156
 20
42.0816814542
 11
11.3596458739
 21
42.0816814542
  0
LINE
  5
470
100
AcDbEntity
  8
0
100
AcDbLine
 62
7
  6
CONTINUOUS
 10
15.2265750077
 20
42.1993979896
 11
14.8407482361
 21
42.1993979896
  0
LINE
  5
471
100
AcDbEntity
  8
0
100
AcDbLine
 62
7
  6
CONTINUOUS
 10
11.3596458739
 20
42.1993979896
 11
11.7454726455
 21
42.1993979896
  0
LINE
  5
472
100
AcDbEntity
  8
0
100
AcDbLine
 62
9
  6
CONTINUOUS
 10
14.8407482361
 20
42.2785318479
 11
14.596827749
 21
42.2785318479
  0
LINE
  5
473
100
AcDbEntity
  8
0
100
AcDbLine
 62
9
  6
CONTINUOUS
 10
13.957896715
 20
42.2785318479
 11
12.628323812
 21
42.2785318479
  0
LINE
  5
474
100
AcDbEntity
  8
0
100
AcDbLine
 62
9
  6
CONTINUOUS
 10
11.989392778
 20
42.2785318479
 11
11.7454726455
 21
42.2785318479
  0
LINE
  5
475
100
AcDbEntity
  8
0
100
AcDbLine
 62
9
  6
CONTINUOUS
 10
12.3019687085
 20
42.2805673178
 11
12.3157482361
 21
42.2805673178
  0
LINE
  5
476
100
AcDbEntity
  8
0
100
AcDbLine
 62
9
  6
CONTINUOUS
 10
14.2704726455
 20
42.2805673178
 11
14.2842521731
 21
42.2805673178
  0
LINE
  5
477
100
AcDbEntity
  8
0
100
AcDbLine
 62
3
  6
CONTINUOUS
 10
15.2265750077
 20
42.3037286983
 11
14.8407482361
 21
42.3037286983
  0
LINE
  5
478
100
AcDbEntity
  8
0
100
AcDbLine
 62
3
  6
CONTINUOUS
 10
11.3596458739
 20
42.3037286983
 11
11.7454726455
 21
42.3037286983
  0
LINE
  5
479
100
AcDbEntity
  8
0
100
AcDbLine
 62
3
  6
CONTINUOUS
 10
11.3596458739
 20
42.3076657061
 11
15.2265750077
 21
42.3076657061
  0
LINE
  5
47A
100
AcDbEntity
  8
0
100
AcDbLine
 62
7
  6
CONTINUOUS
 10
15.2265750077
 20
42.4119964148
 11
11.3596458739
 21
42.4119964148
  0
LINE
  5
47B
100
AcDbEntity
  8
0
100
AcDbLine
 62
7
  6
CONTINUOUS
 10
32.0967623278
 20
26.7289255487
 11
32.0967623278
 21
26.62459484
  0
LINE
  5
47C
100
AcDbEntity
  8
0
100
AcDbLine
 62
7
  6
CONTINUOUS
 10
32.0967623278
 20
42.3076657061
 11
32.0967623278
 21
42.4119964148
  0
LINE
  5
47D
100
AcDbEntity
  8
0
100
AcDbLine
 62
7
  6
CONTINUOUS
 10
32.0967652676
 20
26.62459484
 11
49.8416442176
 21
26.62459484
  0
LINE
  5
47E
100
AcDbEntity
  8
0
100
AcDbLine
 62
3
  6
CONTINUOUS
 10
49.8416442176
 20
26.7289255487
 11
49.7825890995
 21
26.7289255487
  0
LINE
  5
47F
100
AcDbEntity
  8
0
100
AcDbLine
 62
3
  6
CONTINUOUS
 10
37.0180221703
 20
26.7289255487
 11
32.0967652676
 21
26.7289255487
  0
LINE
  5
480
100
AcDbEntity
  8
0
100
AcDbLine
 62
9
  6
CONTINUOUS
 10
49.9751087845
 20
26.7580594069
 11
49.8707780758
 21
26.7580594069
  0
LINE
  5
481
100
AcDbEntity
  8
0
100
AcDbLine
 62
7
  6
CONTINUOUS
 10
37.0180221703
 20
26.8371932652
 11
49.7825890995
 21
26.8371932652
  0
LINE
  5
482
100
AcDbEntity
  8
0
100
AcDbLine
 62
7
  6
CONTINUOUS
 10
48.7940064223
 20
26.9549098006
 11
49.9751087845
 21
26.9549098006
  0
LINE
  5
483
100
AcDbEntity
  8
0
100
AcDbLine
 62
9
  6
CONTINUOUS
 10
34.0302268947
 20
26.7289255487
 11
34.0302268947
 21
26.62459484
  0
LINE
  5
484
100
AcDbEntity
  8
0
100
AcDbLine
 62
9
  6
CONTINUOUS
 10
34.0302268947
 20
42.3076657061
 11
34.0302268947
 21
42.4119964148
  0
LINE
  5
485
100
AcDbEntity
  8
0
100
AcDbLine
 62
7
  6
CONTINUOUS
 10
37.0180221703
 20
42.4119964148
 11
37.0180221703
 21
42.1993979896
  0
LINE
  5
486
100
AcDbEntity
  8
0
100
AcDbLine
 62
7
  6
CONTINUOUS
 10
37.0180221703
 20
26.62459484
 11
37.0180221703
 21
26.8371932652
  0
LINE
  5
487
100
AcDbEntity
  8
0
100
AcDbLine
 62
7
  6
CONTINUOUS
 10
48.7940064223
 20
42.0816814542
 11
48.7940064223
 21
26.9549098006
  0
LINE
  5
488
100
AcDbEntity
  8
0
100
AcDbLine
 62
7
  6
CONTINUOUS
 10
48.7940064223
 20
42.0816814542
 11
49.9751087845
 21
42.0816814542
  0
LINE
  5
489
100
AcDbEntity
  8
0
100
AcDbLine
 62
7
  6
CONTINUOUS
 10
49.7825890995
 20
42.1993979896
 11
37.0180221703
 21
42.1993979896
  0
LINE
  5
48A
100
AcDbEntity
  8
0
100
AcDbLine
 62
9
  6
CONTINUOUS
 10
49.9751087845
 20
42.2785318479
 11
49.8707780758
 21
42.2785318479
  0
LINE
  5
48B
100
AcDbEntity
  8
0
100
AcDbLine
 62
3
  6
CONTINUOUS
 10
32.0967652676
 20
42.3076657061
 11
37.0180221703
 21
42.3076657061
  0
LINE
  5
48C
100
AcDbEntity
  8
0
100
AcDbLine
 62
3
  6
CONTINUOUS
 10
49.7825890995
 20
42.3076657061
 11
49.8416442176
 21
42.3076657061
  0
LINE
  5
48D
100
AcDbEntity
  8
0
100
AcDbLine
 62
7
  6
CONTINUOUS
 10
32.0967652676
 20
42.4119964148
 11
49.8416442176
 21
42.4119964148
  0
LINE
  5
48E
100
AcDbEntity
  8
0
100
AcDbLine
 62
7
  6
CONTINUOUS
 10
49.7825890995
 20
42.4119964148
 11
49.7825890995
 21
42.1993979896
  0
LINE
  5
48F
100
AcDbEntity
  8
0
100
AcDbLine
 62
7
  6
CONTINUOUS
 10
49.7825890995
 20
26.62459484
 11
49.7825890995
 21
26.8371932652
  0
LINE
  5
490
100
AcDbEntity
  8
0
100
AcDbLine
 62
9
  6
CONTINUOUS
 10
49.8416442176
 20
42.4119964148
 11
49.8416442176
 21
42.3076657061
  0
LINE
  5
491
100
AcDbEntity
  8
0
100
AcDbLine
 62
9
  6
CONTINUOUS
 10
49.8416442176
 20
26.62459484
 11
49.8416442176
 21
26.7289255487
  0
LINE
  5
492
100
AcDbEntity
  8
0
100
AcDbLine
 62
9
  6
CONTINUOUS
 10
49.8416442176
 20
26.9549098006
 11
49.8416442176
 21
42.0816814542
  0
LINE
  5
493
100
AcDbEntity
  8
0
100
AcDbLine
 62
3
  6
CONTINUOUS
 10
49.8707780758
 20
26.7580594069
 11
49.8707780758
 21
26.9549098006
  0
LINE
  5
494
100
AcDbEntity
  8
0
100
AcDbLine
 62
3
  6
CONTINUOUS
 10
49.8707780758
 20
42.0816814542
 11
49.8707780758
 21
42.2785318479
  0
LINE
  5
495
100
AcDbEntity
  8
0
100
AcDbLine
 62
7
  6
CONTINUOUS
 10
49.9751087845
 20
26.7580594069
 11
49.9751087845
 21
42.2785318479
  0
LINE
  5
496
100
AcDbEntity
  8
0
100
AcDbLine
 62
3
  6
CONTINUOUS
 10
49.7152401325
 20
26.9549098006
 11
49.5975235971
 21
26.8371932652
  0
LINE
  5
497
100
AcDbEntity
  8
0
100
AcDbLine
 62
3
  6
CONTINUOUS
 10
49.5975235971
 20
42.1993979896
 11
49.7152401325
 21
42.0816814542
  0
LINE
  5
498
100
AcDbEntity
  8
02___PRT_ALL_AXES
100
AcDbLine
 62
7
  6
CENTER
 10
33.9258961861
 20
21.9591390526
 11
33.9258961861
 21
21.4783032873
  0
LINE
  5
499
100
AcDbEntity
  8
02___PRT_ALL_AXES
100
AcDbLine
 62
7
  6
CENTER
 10
33.9258961861
 20
21.9591390526
 11
33.9258961861
 21
22.439974818
  0
LINE
  5
49A
100
AcDbEntity
  8
02___PRT_ALL_AXES
100
AcDbLine
 62
7
  6
CENTER
 10
35.5006993357
 20
21.9591390526
 11
35.5006993357
 21
21.4783032873
  0
LINE
  5
49B
100
AcDbEntity
  8
02___PRT_ALL_AXES
100
AcDbLine
 62
7
  6
CENTER
 10
35.5006993357
 20
21.9591390526
 11
35.5006993357
 21
22.439974818
  0
LINE
  5
49C
100
AcDbEntity
  8
0
100
AcDbLine
 62
7
  6
CONTINUOUS
 10
37.0180221703
 20
20.0256744857
 11
37.0180221703
 21
19.9193752731
  0
LINE
  5
49D
100
AcDbEntity
  8
0
100
AcDbLine
 62
7
  6
CONTINUOUS
 10
37.0180221703
 20
23.8926036196
 11
37.0180221703
 21
23.9989028322
  0
LINE
  5
49E
100
AcDbEntity
  8
0
100
AcDbLine
 62
7
  6
CONTINUOUS
 10
49.8416442176
 20
19.8922099188
 11
48.7940064223
 21
19.8922099188
  0
LINE
  5
49F
100
AcDbEntity
  8
0
100
AcDbLine
 62
7
  6
CONTINUOUS
 10
49.7825890995
 20
19.9193752731
 11
37.0180221703
 21
19.9193752731
  0
LINE
  5
4A0
100
AcDbEntity
  8
0
100
AcDbLine
 62
3
  6
CONTINUOUS
 10
49.8416442176
 20
19.9965406274
 11
49.7825890995
 21
19.9965406274
  0
LINE
  5
4A1
100
AcDbEntity
  8
0
100
AcDbLine
 62
9
  6
CONTINUOUS
 10
49.7825890995
 20
20.0256744857
 11
37.0180221703
 21
20.0256744857
  0
LINE
  5
4A2
100
AcDbEntity
  8
0
100
AcDbLine
 62
7
  6
CONTINUOUS
 10
34.0302268947
 20
20.0256744857
 11
37.0180221703
 21
20.0256744857
  0
LINE
  5
4A3
100
AcDbEntity
  8
0
100
AcDbLine
 62
7
  6
CONTINUOUS
 10
49.7825890995
 20
20.0256744857
 11
49.9751087845
 21
20.0256744857
  0
LINE
  5
4A4
100
AcDbEntity
  8
0
100
AcDbLine
 62
9
  6
CONTINUOUS
 10
49.8416442176
 20
20.6554216022
 11
49.9751087845
 21
20.6554216176
  0
LINE
  5
4A5
100
AcDbEntity
  8
0
100
AcDbLine
 62
9
  6
CONTINUOUS
 10
49.4509329722
 20
20.9679973204
 11
49.9751087845
 21
20.9679973204
  0
LINE
  5
4A6
100
AcDbEntity
  8
0
100
AcDbLine
 62
9
  6
CONTINUOUS
 10
49.4509329722
 20
20.9817768479
 11
49.9751087845
 21
20.9817768479
  0
LINE
  5
4A7
100
AcDbEntity
  8
0
100
AcDbLine
 62
9
  6
CONTINUOUS
 10
49.9751087845
 20
21.2943525678
 11
49.8416442176
 21
21.2943526814
  0
LINE
  5
4A8
100
AcDbEntity
  8
02___PRT_ALL_AXES
100
AcDbLine
 62
7
  6
CENTER
 10
35.5006993357
 20
21.9591390526
 11
35.0198635703
 21
21.9591390526
  0
LINE
  5
4A9
100
AcDbEntity
  8
02___PRT_ALL_AXES
100
AcDbLine
 62
7
  6
CENTER
 10
33.9258961861
 20
21.9591390526
 11
33.4450604207
 21
21.9591390526
  0
LINE
  5
4AA
100
AcDbEntity
  8
02___PRT_ALL_AXES
100
AcDbLine
 62
7
  6
CENTER
 10
33.9258961861
 20
21.9591390526
 11
34.4067319514
 21
21.9591390526
  0
LINE
  5
4AB
100
AcDbEntity
  8
02___PRT_ALL_AXES
100
AcDbLine
 62
7
  6
CENTER
 10
35.5006993357
 20
21.9591390526
 11
35.981535101
 21
21.9591390526
  0
LINE
  5
4AC
100
AcDbEntity
  8
0
100
AcDbLine
 62
9
  6
CONTINUOUS
 10
49.8416442176
 20
22.6239255392
 11
49.9751087845
 21
22.6239255546
  0
LINE
  5
4AD
100
AcDbEntity
  8
0
100
AcDbLine
 62
9
  6
CONTINUOUS
 10
49.4509329722
 20
22.9365012574
 11
49.9751087845
 21
22.9365012574
  0
LINE
  5
4AE
100
AcDbEntity
  8
0
100
AcDbLine
 62
9
  6
CONTINUOUS
 10
49.4509329722
 20
22.9502807849
 11
49.9751087845
 21
22.9502807849
  0
LINE
  5
4AF
100
AcDbEntity
  8
0
100
AcDbLine
 62
9
  6
CONTINUOUS
 10
49.9751087845
 20
23.2628565048
 11
49.8416442176
 21
23.2628566184
  0
LINE
  5
4B0
100
AcDbEntity
  8
0
100
AcDbLine
 62
7
  6
CONTINUOUS
 10
37.0180221703
 20
23.8926036196
 11
34.0302268947
 21
23.8926036196
  0
LINE
  5
4B1
100
AcDbEntity
  8
0
100
AcDbLine
 62
9
  6
CONTINUOUS
 10
37.0180221703
 20
23.8926036196
 11
49.7825890995
 21
23.8926036196
  0
LINE
  5
4B2
100
AcDbEntity
  8
0
100
AcDbLine
 62
7
  6
CONTINUOUS
 10
49.7825890995
 20
23.8926036196
 11
49.9751087845
 21
23.8926036196
  0
LINE
  5
4B3
100
AcDbEntity
  8
0
100
AcDbLine
 62
3
  6
CONTINUOUS
 10
49.7825890995
 20
23.9217374778
 11
49.8416442176
 21
23.9217374778
  0
LINE
  5
4B4
100
AcDbEntity
  8
0
100
AcDbLine
 62
7
  6
CONTINUOUS
 10
37.0180221703
 20
23.9989028322
 11
49.7825890995
 21
23.9989028322
  0
LINE
  5
4B5
100
AcDbEntity
  8
0
100
AcDbLine
 62
7
  6
CONTINUOUS
 10
48.7940064223
 20
24.0260681865
 11
49.8416442176
 21
24.0260681865
  0
LINE
  5
4B6
100
AcDbEntity
  8
0
100
AcDbLine
 62
7
  6
CONTINUOUS
 10
48.7940064223
 20
24.0260681865
 11
48.7940064223
 21
23.9989028322
  0
LINE
  5
4B7
100
AcDbEntity
  8
0
100
AcDbLine
 62
7
  6
CONTINUOUS
 10
48.7940064223
 20
19.8922099188
 11
48.7940064223
 21
19.9193752731
  0
LINE
  5
4B8
100
AcDbEntity
  8
0
100
AcDbLine
 62
9
  6
CONTINUOUS
 10
49.4509329722
 20
20.9679973205
 11
49.4509329722
 21
20.9817768476
  0
LINE
  5
4B9
100
AcDbEntity
  8
0
100
AcDbLine
 62
9
  6
CONTINUOUS
 10
49.4509329722
 20
22.9365012576
 11
49.4509329722
 21
22.9502807846
  0
LINE
  5
4BA
100
AcDbEntity
  8
0
100
AcDbLine
 62
9
  6
CONTINUOUS
 10
49.5901272205
 20
20.9679973204
 11
49.5901272205
 21
20.9817768479
  0
LINE
  5
4BB
100
AcDbEntity
  8
0
100
AcDbLine
 62
9
  6
CONTINUOUS
 10
49.5901272205
 20
22.9365012574
 11
49.5901272205
 21
22.9502807849
  0
LINE
  5
4BC
100
AcDbEntity
  8
0
100
AcDbLine
 62
7
  6
CONTINUOUS
 10
49.7825890995
 20
20.0256744857
 11
49.7825890995
 21
19.9193752731
  0
LINE
  5
4BD
100
AcDbEntity
  8
0
100
AcDbLine
 62
7
  6
CONTINUOUS
 10
49.7825890995
 20
23.8926036196
 11
49.7825890995
 21
23.9989028322
  0
LINE
  5
4BE
100
AcDbEntity
  8
0
100
AcDbLine
 62
9
  6
CONTINUOUS
 10
49.8416442176
 20
24.0260681865
 11
49.8416442176
 21
23.9217374778
  0
LINE
  5
4BF
100
AcDbEntity
  8
0
100
AcDbLine
 62
9
  6
CONTINUOUS
 10
49.8416442176
 20
19.8922099188
 11
49.8416442176
 21
19.9965406274
  0
LINE
  5
4C0
100
AcDbEntity
  8
0
100
AcDbLine
 62
9
  6
CONTINUOUS
 10
49.8416442176
 20
20.0256744857
 11
49.8416442176
 21
20.6554215446
  0
LINE
  5
4C1
100
AcDbEntity
  8
0
100
AcDbLine
 62
9
  6
CONTINUOUS
 10
49.8416442176
 20
21.2943525946
 11
49.8416442176
 21
22.6239254816
  0
LINE
  5
4C2
100
AcDbEntity
  8
0
100
AcDbLine
 62
9
  6
CONTINUOUS
 10
49.8416442176
 20
23.2628565317
 11
49.8416442176
 21
23.8926036196
  0
LINE
  5
4C3
100
AcDbEntity
  8
0
100
AcDbLine
 62
9
  6
CONTINUOUS
 10
49.9174526391
 20
20.9679973204
 11
49.9174526391
 21
20.9817768479
  0
LINE
  5
4C4
100
AcDbEntity
  8
0
100
AcDbLine
 62
9
  6
CONTINUOUS
 10
49.9174526391
 20
22.9365012574
 11
49.9174526391
 21
22.9502807849
  0
LINE
  5
4C5
100
AcDbEntity
  8
0
100
AcDbLine
 62
7
  6
CONTINUOUS
 10
49.9751087845
 20
20.0256744857
 11
49.9751087845
 21
23.8926036196
  0
LINE
  5
4C6
100
AcDbEntity
  8
0
100
AcDbLine
 62
3
  6
CONTINUOUS
 10
62.5652799202
 20
25.2364214772
 11
62.3310776526
 21
25.3720904414
  0
LINE
  5
4C7
100
AcDbEntity
  8
0
100
AcDbLine
 62
3
  6
CONTINUOUS
 10
60.2179996424
 20
26.5961567484
 11
60.45220191
 21
26.4604877842
  0
LINE
  5
4C8
100
AcDbEntity
  8
0
100
AcDbLine
 62
7
  6
CONTINUOUS
 10
62.5652799202
 20
25.3094263073
 11
62.3310776526
 21
25.4450952715
  0
LINE
  5
4C9
100
AcDbEntity
  8
0
100
AcDbLine
 62
7
  6
CONTINUOUS
 10
60.2179996424
 20
26.6691615784
 11
60.45220191
 21
26.5334926143
  0
LINE
  5
4CA
100
AcDbEntity
  8
0
100
AcDbLine
 62
7
  6
CONTINUOUS
 10
57.9182282972
 20
24.8629303678
 11
57.9182282972
 21
24.7899255378
  0
LINE
  5
4CB
100
AcDbEntity
  8
0
100
AcDbLine
 62
7
  6
CONTINUOUS
 10
57.9182282972
 20
35.7640666941
 11
57.9182282972
 21
35.8370715242
  0
LINE
  5
4CC
100
AcDbEntity
  8
0
100
AcDbLine
 62
7
  6
CONTINUOUS
 10
60.172259195
 20
37.5721214267
 11
67.9205305415
 21
42.0605491359
  0
LINE
  5
4CD
100
AcDbEntity
  8
0
100
AcDbLine
 62
7
  6
CONTINUOUS
 10
58.4043659601
 20
36.5169391598
 11
68.0021182748
 21
42.0767363725
  0
LWPOLYLINE
  5
4CE
100
AcDbEntity
  8
0
100
AcDbPolyline
 62
7
  6
CONTINUOUS
 90
23
 70
0
 10
68.6881306181
 20
41.6400741654
 10
68.6866842438
 20
41.6394220019
 10
68.6728704263
 20
41.633518275
 10
68.6587950511
 20
41.6280567312
 10
68.644520686
 20
41.6230468333
 10
68.6301014928
 20
41.6184953068
 10
68.6155897213
 20
41.6144087448
 10
68.6010171087
 20
41.6107891406
 10
68.5864044393
 20
41.6076387595
 10
68.5717766393
 20
41.6049642989
 10
68.5571664282
 20
41.6027769096
 10
68.5426234215
 20
41.6010923028
 10
68.5282292093
 20
41.5999294213
 10
68.5140272815
 20
41.5993037093
 10
68.5000976758
 20
41.5992347861
 10
68.4865818197
 20
41.5997398524
 10
68.473696571
 20
41.6008205473
 10
68.461726703
 20
41.6024461646
 10
68.4510677172
 20
41.6045218458
 10
68.4422597229
 20
41.6068307164
 10
68.4357552134
 20
41.6090354262
 10
68.4317814978
 20
41.6107233442
 10
68.4300644737
 20
41.6116087489
  0
LINE
  5
4CF
100
AcDbEntity
  8
02___PRT_ALL_AXES
100
AcDbLine
 62
7
  6
CONTINUOUS
 10
59.3712867505
 20
24.9093070035
 11
59.3712867505
 21
24.8363021735
  0
LINE
  5
4D0
100
AcDbEntity
  8
02___PRT_ALL_AXES
100
AcDbLine
 62
7
  6
CONTINUOUS
 10
59.3712867505
 20
35.8104433298
 11
59.3712867505
 21
35.8834481599
  0
LWPOLYLINE
  5
4D1
100
AcDbEntity
  8
0
100
AcDbPolyline
 62
7
  6
CONTINUOUS
 90
23
 70
0
 10
69.8830401466
 20
40.9478855729
 10
69.8815937723
 20
40.9472334094
 10
69.8677799547
 20
40.9413296825
 10
69.8537045796
 20
40.9358681387
 10
69.8394302145
 20
40.9308582408
 10
69.8250110213
 20
40.9263067143
 10
69.8104992498
 20
40.9222201523
 10
69.7959266372
 20
40.9186005481
 10
69.7813139678
 20
40.915450167
 10
69.7666861678
 20
40.9127757064
 10
69.7520759567
 20
40.9105883171
 10
69.73753295
 20
40.9089037103
 10
69.7231387377
 20
40.9077408288
 10
69.70893681
 20
40.9071151168
 10
69.6950072043
 20
40.9070461936
 10
69.6814913482
 20
40.9075512599
 10
69.6686060995
 20
40.9086319548
 10
69.6566362315
 20
40.9102575721
 10
69.6459772456
 20
40.9123332533
 10
69.6371692514
 20
40.9146421239
 10
69.6306647419
 20
40.9168468337
 10
69.6266910262
 20
40.9185347517
 10
69.6249740022
 20
40.9194201564
  0
LINE
  5
4D2
100
AcDbEntity
  8
0
100
AcDbLine
 62
7
  6
CONTINUOUS
 10
60.2179996424
 20
26.6691615784
 11
60.2179996424
 21
26.5961567484
  0
LINE
  5
4D3
100
AcDbEntity
  8
02___PRT_ALL_AXES
100
AcDbLine
 62
7
  6
CONTINUOUS
 10
60.3272143733
 20
25.4630578775
 11
60.3272143733
 21
25.3900530475
  0
LINE
  5
4D4
100
AcDbEntity
  8
02___PRT_ALL_AXES
100
AcDbLine
 62
7
  6
CONTINUOUS
 10
60.3272143733
 20
36.3641942038
 11
60.3272143733
 21
36.4371990339
  0
LINE
  5
4D5
100
AcDbEntity
  8
0
100
AcDbLine
 62
7
  6
CONTINUOUS
 10
60.45220191
 20
26.5334926143
 11
60.45220191
 21
26.4604877842
  0
LINE
  5
4D6
100
AcDbEntity
  8
0
100
AcDbLine
 62
7
  6
CONTINUOUS
 10
60.7516462378
 20
35.1572038887
 11
70.3493985525
 21
40.7170011014
  0
LINE
  5
4D7
100
AcDbEntity
  8
0
100
AcDbLine
 62
7
  6
CONTINUOUS
 10
60.7516462378
 20
24.1830627323
 11
60.7516462378
 21
24.1100579022
  0
LINE
  5
4D8
100
AcDbEntity
  8
0
100
AcDbLine
 62
7
  6
CONTINUOUS
 10
60.7516462378
 20
35.0841990586
 11
60.7516462378
 21
35.1572038887
  0
LINE
  5
4D9
100
AcDbEntity
  8
0
100
AcDbLine
 62
3
  6
CONTINUOUS
 10
60.7516462378
 20
35.0841990586
 11
62.5652799202
 21
36.1348029043
  0
LINE
  5
4DA
100
AcDbEntity
  8
0
100
AcDbLine
 62
3
  6
CONTINUOUS
 10
62.56595787
 20
36.1324407286
 11
62.5652799202
 21
36.132048005
  0
LINE
  5
4DB
100
AcDbEntity
  8
0
100
AcDbLine
 62
7
  6
CONTINUOUS
 10
70.4304134186
 20
40.6705404034
 11
70.3670832136
 21
40.633854408
  0
LINE
  5
4DC
100
AcDbEntity
  8
0
100
AcDbLine
 62
7
  6
CONTINUOUS
 10
70.3592917141
 20
40.542892463
 11
62.6110203675
 21
36.0544647538
  0
LINE
  5
4DD
100
AcDbEntity
  8
0
100
AcDbLine
 62
7
  6
CONTINUOUS
 10
70.4304134186
 20
40.532795441
 11
70.3670832136
 21
40.4961094456
  0
LINE
  5
4DE
100
AcDbEntity
  8
0
100
AcDbLine
 62
3
  6
CONTINUOUS
 10
70.3670832136
 20
40.4756206633
 11
69.7311523625
 21
40.1072378943
  0
LINE
  5
4DF
100
AcDbEntity
  8
0
100
AcDbLine
 62
7
  6
CONTINUOUS
 10
70.4304134186
 20
40.4389346679
 11
69.7944825675
 21
40.0705518989
  0
LINE
  5
4E0
100
AcDbEntity
  8
02___PRT_ALL_AXES
100
AcDbLine
 62
7
  6
CONTINUOUS
 10
69.5483312046
 20
39.406349095
 11
69.6749916147
 21
39.4797210858
  0
LINE
  5
4E1
100
AcDbEntity
  8
02___PRT_ALL_AXES
100
AcDbLine
 62
7
  6
CONTINUOUS
 10
68.2494645472
 20
38.2761516195
 11
68.2695676787
 21
38.287796985
  0
LINE
  5
4E2
100
AcDbEntity
  8
02___PRT_ALL_AXES
100
AcDbLine
 62
7
  6
CONTINUOUS
 10
68.2697780092
 20
38.0945909489
 11
68.3331082142
 21
38.1312769443
  0
LINE
  5
4E3
100
AcDbEntity
  8
0
100
AcDbLine
 62
7
  6
CONTINUOUS
 10
62.3310776526
 20
25.4450952715
 11
62.3310776526
 21
25.3720904414
  0
LINE
  5
4E4
100
AcDbEntity
  8
0
100
AcDbLine
 62
7
  6
CONTINUOUS
 10
62.5652799202
 20
36.2078077344
 11
62.5652799202
 21
36.1348029043
  0
LINE
  5
4E5
100
AcDbEntity
  8
0
100
AcDbLine
 62
7
  6
CONTINUOUS
 10
62.5652799202
 20
25.3094263073
 11
62.5652799202
 21
25.2364214772
  0
LINE
  5
4E6
100
AcDbEntity
  8
0
100
AcDbLine
 62
7
  6
CONTINUOUS
 10
62.5652799202
 20
25.1606617479
 11
62.5652799202
 21
25.233666578
  0
LINE
  5
4E7
100
AcDbEntity
  8
0
100
AcDbLine
 62
7
  6
CONTINUOUS
 10
62.5652799202
 20
36.059043175
 11
62.5652799202
 21
36.132048005
  0
LINE
  5
4E8
100
AcDbEntity
  8
02___PRT_ALL_AXES
100
AcDbLine
 62
7
  6
CONTINUOUS
 10
69.038104836
 20
37.9846011033
 11
69.101435041
 21
38.0212870987
  0
LINE
  5
4E9
100
AcDbEntity
  8
02___PRT_ALL_AXES
100
AcDbLine
 62
7
  6
CONTINUOUS
 10
69.1301128697
 20
37.6788621397
 11
69.1934430747
 21
37.7155481351
  0
LINE
  5
4EA
100
AcDbEntity
  8
02___PRT_ALL_AXES
100
AcDbLine
 62
7
  6
CONTINUOUS
 10
69.038104836
 20
35.9735246519
 11
69.101435041
 21
36.0102106473
  0
LINE
  5
4EB
100
AcDbEntity
  8
0
100
AcDbLine
 62
7
  6
CONTINUOUS
 10
69.7944825675
 20
29.4856780064
 11
69.7311523625
 21
29.5223640018
  0
LINE
  5
4EC
100
AcDbEntity
  8
0
100
AcDbLine
 62
7
  6
CONTINUOUS
 10
67.2851725577
 20
30.9392740506
 11
67.3485027627
 21
30.9025880552
  0
LINE
  5
4ED
100
AcDbEntity
  8
0
100
AcDbLine
 62
3
  6
CONTINUOUS
 10
68.3369542545
 20
30.6338580364
 11
68.3453186209
 21
30.6290127164
  0
LINE
  5
4EE
100
AcDbEntity
  8
0
100
AcDbLine
 62
3
  6
CONTINUOUS
 10
69.5318637829
 20
29.9416694439
 11
69.5402281493
 21
29.9368241239
  0
LINE
  5
4EF
100
AcDbEntity
  8
02___PRT_ALL_AXES
100
AcDbLine
 62
7
  6
CONTINUOUS
 10
69.1301128697
 20
35.6677856883
 11
69.1934430747
 21
35.7044716837
  0
LINE
  5
4F0
100
AcDbEntity
  8
02___PRT_ALL_AXES
100
AcDbLine
 62
7
  6
CONTINUOUS
 10
68.2494645472
 20
34.5845866265
 11
68.2695676787
 21
34.596231992
  0
LINE
  5
4F1
100
AcDbEntity
  8
02___PRT_ALL_AXES
100
AcDbLine
 62
7
  6
CONTINUOUS
 10
68.2697780092
 20
34.4030259559
 11
68.3331082142
 21
34.4397119513
  0
LINE
  5
4F2
100
AcDbEntity
  8
0
100
AcDbLine
 62
3
  6
CONTINUOUS
 10
68.3766659
 20
30.6758241908
 11
68.3850302667
 21
30.6709788707
  0
LINE
  5
4F3
100
AcDbEntity
  8
0
100
AcDbLine
 62
3
  6
CONTINUOUS
 10
69.5715754285
 20
29.9836355983
 11
69.5799397952
 21
29.9787902782
  0
LINE
  5
4F4
100
AcDbEntity
  8
0
100
AcDbLine
 62
3
  6
CONTINUOUS
 10
68.0092877319
 20
31.0984420846
 11
68.3843835815
 21
30.8811561211
  0
LINE
  5
4F5
100
AcDbEntity
  8
0
100
AcDbLine
 62
3
  6
CONTINUOUS
 10
68.7722236997
 20
30.6564876427
 11
69.57929311
 21
30.1889675286
  0
LINE
  5
4F6
100
AcDbEntity
  8
0
100
AcDbLine
 62
7
  6
CONTINUOUS
 10
67.9662709889
 20
31.1575892877
 11
68.0092877319
 21
31.1326704983
  0
LINE
  5
4F7
100
AcDbEntity
  8
0
100
AcDbLine
 62
3
  6
CONTINUOUS
 10
68.0198029358
 20
31.1332258617
 11
68.4020681515
 21
30.9117868194
  0
LINE
  5
4F8
100
AcDbEntity
  8
0
100
AcDbLine
 62
3
  6
CONTINUOUS
 10
68.7899085029
 20
30.687118206
 11
69.59697768
 21
30.2195982269
  0
LINE
  5
4F9
100
AcDbEntity
  8
0
100
AcDbLine
 62
3
  6
CONTINUOUS
 10
70.3292050713
 20
29.7954326852
 11
70.3670832136
 21
29.7734905906
  0
LINE
  5
4FA
100
AcDbEntity
  8
0
100
AcDbLine
 62
3
  6
CONTINUOUS
 10
68.5753570249
 20
31.0199663502
 11
68.5837213916
 21
31.0151210301
  0
LINE
  5
4FB
100
AcDbEntity
  8
0
100
AcDbLine
 62
3
  6
CONTINUOUS
 10
68.0307961035
 20
31.3595550424
 11
69.7311523625
 21
30.3745706752
  0
LINE
  5
4FC
100
AcDbEntity
  8
02___PRT_ALL_AXES
100
AcDbLine
 62
7
  6
CONTINUOUS
 10
69.038104836
 20
33.9624482005
 11
69.101435041
 21
33.9991341959
  0
LINE
  5
4FD
100
AcDbEntity
  8
02___PRT_ALL_AXES
100
AcDbLine
 62
7
  6
CONTINUOUS
 10
69.1301128697
 20
33.6567092369
 11
69.1934430747
 21
33.6933952323
  0
LINE
  5
4FE
100
AcDbEntity
  8
0
100
AcDbLine
 62
7
  6
CONTINUOUS
 10
62.5652799202
 20
36.059043175
 11
62.4998887656
 21
36.0969230396
  0
LINE
  5
4FF
100
AcDbEntity
  8
0
100
AcDbLine
 62
3
  6
CONTINUOUS
 10
62.5652799202
 20
36.132048005
 11
62.56290206
 21
36.1334254547
  0
LINE
  5
500
100
AcDbEntity
  8
02___PRT_ALL_AXES
100
AcDbLine
 62
7
  6
CONTINUOUS
 10
68.472912629
 20
32.4257969024
 11
68.5917486225
 21
32.4946363561
  0
LINE
  5
501
100
AcDbEntity
  8
0
100
AcDbLine
 62
7
  6
CONTINUOUS
 10
67.2851725577
 20
30.9392740506
 11
67.2851725577
 21
38.7621131142
  0
LINE
  5
502
100
AcDbEntity
  8
0
100
AcDbLine
 62
3
  6
CONTINUOUS
 10
67.3485027627
 20
30.9025880552
 11
67.3485027627
 21
38.7987991096
  0
LINE
  5
503
100
AcDbEntity
  8
02___PRT_ALL_AXES
100
AcDbLine
 62
7
  6
CONTINUOUS
 10
68.472912629
 20
31.6819741053
 11
68.599573039
 21
31.7553460961
  0
LINE
  5
504
100
AcDbEntity
  8
0
100
AcDbLine
 62
3
  6
CONTINUOUS
 10
67.9844336138
 20
31.2709708241
 11
67.3485027627
 21
30.9025880552
  0
LINE
  5
505
100
AcDbEntity
  8
0
100
AcDbLine
 62
7
  6
CONTINUOUS
 10
67.9205305415
 20
31.1621677089
 11
60.172259195
 21
26.6737399996
  0
LINE
  5
506
100
AcDbEntity
  8
0
100
AcDbLine
 62
7
  6
CONTINUOUS
 10
67.9662709889
 20
31.1575892877
 11
60.2179996424
 21
26.6691615784
  0
LINE
  5
507
100
AcDbEntity
  8
0
100
AcDbLine
 62
3
  6
CONTINUOUS
 10
58.4043659601
 20
25.5427980034
 11
60.2203775026
 21
26.5947792987
  0
LINE
  5
508
100
AcDbEntity
  8
02___PRT_ALL_AXES
100
AcDbLine
 62
7
  6
CONTINUOUS
 10
69.5483312046
 20
31.8028271692
 11
69.6671671981
 21
31.8716666228
  0
LINE
  5
509
100
AcDbEntity
  8
0
100
AcDbLine
 62
7
  6
CONTINUOUS
 10
68.0092877319
 20
30.9111701487
 11
60.45220191
 21
26.5334926143
  0
LINE
  5
50A
100
AcDbEntity
  8
0
100
AcDbLine
 62
3
  6
CONTINUOUS
 10
68.0092877319
 20
30.8381653187
 11
60.45220191
 21
26.4604877842
  0
LINE
  5
50B
100
AcDbEntity
  8
0
100
AcDbLine
 62
3
  6
CONTINUOUS
 10
67.9844336138
 20
39.1671818785
 11
67.9844336138
 21
31.2709708241
  0
LINE
  5
50C
100
AcDbEntity
  8
0
100
AcDbLine
 62
7
  6
CONTINUOUS
 10
68.0092877319
 20
30.8381653187
 11
68.0092877319
 21
31.1326704983
  0
LINE
  5
50D
100
AcDbEntity
  8
0
100
AcDbLine
 62
3
  6
CONTINUOUS
 10
68.0198029358
 20
39.1876706609
 11
68.0198029358
 21
31.1332258617
  0
LINE
  5
50E
100
AcDbEntity
  8
0
100
AcDbLine
 62
3
  6
CONTINUOUS
 10
68.0307961035
 20
39.1940387959
 11
68.0307961035
 21
31.3595550424
  0
LINE
  5
50F
100
AcDbEntity
  8
02___PRT_ALL_AXES
100
AcDbLine
 62
3
  6
CONTINUOUS
 10
68.472912629
 20
31.6819741053
 11
68.472912629
 21
32.4257969024
  0
LINE
  5
510
100
AcDbEntity
  8
02___PRT_ALL_AXES
100
AcDbLine
 62
3
  6
CONTINUOUS
 10
68.536242834
 20
32.4624828978
 11
68.536242834
 21
31.7186601007
  0
LINE
  5
511
100
AcDbEntity
  8
02___PRT_ALL_AXES
100
AcDbLine
 62
7
  6
CONTINUOUS
 10
68.599573039
 20
32.4894468067
 11
68.599573039
 21
31.7553460961
  0
LINE
  5
512
100
AcDbEntity
  8
02___PRT_ALL_AXES
100
AcDbLine
 62
3
  6
CONTINUOUS
 10
68.7118945347
 20
32.2873591839
 11
68.7118945347
 21
31.5435363868
  0
LINE
  5
513
100
AcDbEntity
  8
02___PRT_ALL_AXES
100
AcDbLine
 62
7
  6
CONTINUOUS
 10
69.5483312046
 20
31.0590043721
 11
69.6749916147
 21
31.1323763629
  0
LINE
  5
514
100
AcDbEntity
  8
0
100
AcDbLine
 62
7
  6
CONTINUOUS
 10
68.5154140057
 20
41.740722164
 11
68.5154148392
 21
41.740713846
  0
LINE
  5
515
100
AcDbEntity
  8
0
100
AcDbLine
 62
3
  6
CONTINUOUS
 10
68.3640577371
 20
30.8157683148
 11
68.448174811
 21
30.9614629525
  0
LINE
  5
516
100
AcDbEntity
  8
0
100
AcDbLine
 62
3
  6
CONTINUOUS
 10
68.3766659
 20
30.6758241908
 11
68.5753570249
 21
31.0199663502
  0
LINE
  5
517
100
AcDbEntity
  8
0
100
AcDbLine
 62
3
  6
CONTINUOUS
 10
68.5837213916
 20
31.0151210301
 11
68.3850302667
 21
30.6709788707
  0
LINE
  5
518
100
AcDbEntity
  8
02___PRT_ALL_AXES
100
AcDbLine
 62
3
  6
CONTINUOUS
 10
69.5483312046
 20
31.0590043721
 11
69.5483312046
 21
31.8028271692
  0
LINE
  5
519
100
AcDbEntity
  8
02___PRT_ALL_AXES
100
AcDbLine
 62
3
  6
CONTINUOUS
 10
69.5483312046
 20
39.406349095
 11
69.5483312046
 21
40.0731183084
  0
LINE
  5
51A
100
AcDbEntity
  8
02___PRT_ALL_AXES
100
AcDbLine
 62
3
  6
CONTINUOUS
 10
69.6116614096
 20
40.1098043038
 11
69.6116614096
 21
39.4430350904
  0
LINE
  5
51B
100
AcDbEntity
  8
02___PRT_ALL_AXES
100
AcDbLine
 62
3
  6
CONTINUOUS
 10
69.6116614096
 20
31.8395131646
 11
69.6116614096
 21
31.0956903675
  0
LINE
  5
51C
100
AcDbEntity
  8
02___PRT_ALL_AXES
100
AcDbLine
 62
7
  6
CONTINUOUS
 10
69.6749916147
 20
40.1464902992
 11
69.6749916147
 21
39.4797210858
  0
LINE
  5
51D
100
AcDbEntity
  8
02___PRT_ALL_AXES
100
AcDbLine
 62
7
  6
CONTINUOUS
 10
69.6749916147
 20
31.8664770734
 11
69.6749916147
 21
31.1323763629
  0
LINE
  5
51E
100
AcDbEntity
  8
0
100
AcDbLine
 62
3
  6
CONTINUOUS
 10
69.7311523625
 20
40.1072378943
 11
69.7311523625
 21
29.5223640018
  0
LINE
  5
51F
100
AcDbEntity
  8
0
100
AcDbLine
 62
7
  6
CONTINUOUS
 10
69.7944825675
 20
40.0705518989
 11
69.7944825675
 21
29.4856780064
  0
LINE
  5
520
100
AcDbEntity
  8
0
100
AcDbLine
 62
7
  6
CONTINUOUS
 10
62.3310776526
 20
25.4450952715
 11
69.7311523625
 21
29.7318192248
  0
LINE
  5
521
100
AcDbEntity
  8
0
100
AcDbLine
 62
7
  6
CONTINUOUS
 10
62.5652799202
 20
25.3094263073
 11
69.7845657204
 21
29.4914226492
  0
LINE
  5
522
100
AcDbEntity
  8
0
100
AcDbLine
 62
7
  6
CONTINUOUS
 10
69.7944825675
 20
29.4856780064
 11
70.4304134186
 21
29.8540607753
  0
LINE
  5
523
100
AcDbEntity
  8
0
100
AcDbLine
 62
7
  6
CONTINUOUS
 10
70.4304134186
 20
29.810176586
 11
70.3670832136
 21
29.7734905906
  0
LINE
  5
524
100
AcDbEntity
  8
0
100
AcDbLine
 62
3
  6
CONTINUOUS
 10
60.7516462378
 20
24.1830627323
 11
62.56595787
 21
25.2340593016
  0
LINE
  5
525
100
AcDbEntity
  8
0
100
AcDbLine
 62
7
  6
CONTINUOUS
 10
62.5652799202
 20
25.1606617479
 11
60.7516462378
 21
24.1100579022
  0
LINE
  5
526
100
AcDbEntity
  8
0
100
AcDbLine
 62
7
  6
CONTINUOUS
 10
62.6110203675
 20
25.1560833267
 11
70.3592917141
 21
29.644511036
  0
LWPOLYLINE
  5
527
100
AcDbEntity
  8
0
100
AcDbPolyline
 62
7
  6
CONTINUOUS
 90
7
 70
0
 10
68.5154126396
 20
41.74073582
 10
68.5111778363
 20
41.765665293
 10
68.5029969475
 20
41.7905822125
 10
68.4916313902
 20
41.8125765923
 10
68.4774561747
 20
41.83168161
 10
68.460764681
 20
41.8478814339
 10
68.4418200647
 20
41.8610381932
  0
LINE
  5
528
100
AcDbEntity
  8
0
100
AcDbLine
 62
7
  6
CONTINUOUS
 10
69.7103235342
 20
41.0485335715
 11
69.7103243676
 21
41.0485252535
  0
LINE
  5
529
100
AcDbEntity
  8
0
100
AcDbLine
 62
7
  6
CONTINUOUS
 10
70.3493985525
 20
40.7170011014
 11
70.3493985525
 21
40.662934695
  0
LINE
  5
52A
100
AcDbEntity
  8
0
100
AcDbLine
 62
3
  6
CONTINUOUS
 10
70.3670832136
 20
29.7734905906
 11
70.3670832136
 21
29.8173747799
  0
LINE
  5
52B
100
AcDbEntity
  8
0
100
AcDbLine
 62
3
  6
CONTINUOUS
 10
70.3670832136
 20
40.4756206633
 11
70.3670832136
 21
40.5493513432
  0
LINE
  5
52C
100
AcDbEntity
  8
0
100
AcDbLine
 62
3
  6
CONTINUOUS
 10
70.3670832136
 20
40.6323344624
 11
70.3670832136
 21
40.633854408
  0
LINE
  5
52D
100
AcDbEntity
  8
0
100
AcDbLine
 62
7
  6
CONTINUOUS
 10
70.4304134186
 20
40.6705404034
 11
70.4304134186
 21
40.532795441
  0
LINE
  5
52E
100
AcDbEntity
  8
0
100
AcDbLine
 62
7
  6
CONTINUOUS
 10
70.4304134186
 20
29.810176586
 11
70.4304134186
 21
40.4389346679
  0
LINE
  5
52F
100
AcDbEntity
  8
0
100
AcDbLine
 62
7
  6
CONTINUOUS
 10
70.4639708748
 20
29.9009911619
 11
70.4639708748
 21
40.4858650544
  0
LINE
  5
530
100
AcDbEntity
  8
0
100
AcDbLine
 62
3
  6
CONTINUOUS
 10
69.5589672656
 20
30.1235797223
 11
69.6430843395
 21
30.2692743599
  0
LINE
  5
531
100
AcDbEntity
  8
0
100
AcDbLine
 62
3
  6
CONTINUOUS
 10
69.5715754285
 20
29.9836355983
 11
69.7311523625
 21
30.2600301816
  0
LINE
  5
532
100
AcDbEntity
  8
0
100
AcDbLine
 62
3
  6
CONTINUOUS
 10
69.7311523625
 20
30.2406973939
 11
69.5799397952
 21
29.9787902782
  0
LWPOLYLINE
  5
533
100
AcDbEntity
  8
0
100
AcDbPolyline
 62
7
  6
CONTINUOUS
 90
7
 70
0
 10
69.7103221681
 20
41.0485472275
 10
69.7060873648
 20
41.0734767005
 10
69.697906476
 20
41.09839362
 10
69.6865409187
 20
41.1203879998
 10
69.6723657032
 20
41.1394930175
 10
69.6556742095
 20
41.1556928414
 10
69.6367295932
 20
41.1688496007
  0
LWPOLYLINE
  5
534
100
AcDbEntity
  8
0
100
AcDbPolyline
 62
7
  6
CONTINUOUS
 90
11
 70
0
 10
68.5515690821
 20
41.6021285342
 10
68.5499647341
 20
41.6057550877
 10
68.5442153004
 20
41.6200657322
 10
68.5387238721
 20
41.6352179729
 10
68.5335750173
 20
41.651123835
 10
68.5288707522
 20
41.6676061601
 10
68.5246936464
 20
41.6844940014
 10
68.5211122125
 20
41.7016091189
 10
68.5181814369
 20
41.7187611425
 10
68.5159395847
 20
41.7357613001
 10
68.5154128391
 20
41.7407262053
  0
LWPOLYLINE
  5
535
100
AcDbEntity
  8
0
100
AcDbPolyline
 62
7
  6
CONTINUOUS
 90
11
 70
0
 10
69.7464786106
 20
40.9099399417
 10
69.7448742626
 20
40.9135664952
 10
69.7391248288
 20
40.9278771397
 10
69.7336334006
 20
40.9430293804
 10
69.7284845458
 20
40.9589352425
 10
69.7237802807
 20
40.9754175676
 10
69.7196031749
 20
40.9923054089
 10
69.7160217409
 20
41.0094205264
 10
69.7130909654
 20
41.02657255
 10
69.7108491131
 20
41.0435727076
 10
69.7103223676
 20
41.0485376128
  0
LINE
  5
536
100
AcDbEntity
  8
0
100
AcDbLine
 62
7
  6
CONTINUOUS
 10
69.6258230092
 20
40.9189823554
 11
69.6163566459
 21
40.9244111597
  0
LINE
  5
537
100
AcDbEntity
  8
0
100
AcDbLine
 62
7
  6
CONTINUOUS
 10
68.4309134807
 20
41.6111709479
 11
68.4214471174
 21
41.6165997522
  0
LINE
  5
538
100
AcDbEntity
  8
0
100
AcDbLine
 62
7
  6
CONTINUOUS
 10
69.7944825675
 20
40.0705518989
 11
69.7311523625
 21
40.1072378943
  0
LINE
  5
539
100
AcDbEntity
  8
0
100
AcDbLine
 62
3
  6
CONTINUOUS
 10
70.1761504135
 20
40.365016887
 11
70.1141897697
 21
40.4009095213
  0
LINE
  5
53A
100
AcDbEntity
  8
0
100
AcDbLine
 62
7
  6
CONTINUOUS
 10
70.2394806185
 20
40.4017028824
 11
70.1775199747
 21
40.4375955168
  0
LINE
  5
53B
100
AcDbEntity
  8
0
100
AcDbLine
 62
7
  6
CONTINUOUS
 10
68.3369542544
 20
41.6079991928
 11
68.3453186209
 21
41.6031538727
  0
LINE
  5
53C
100
AcDbEntity
  8
0
100
AcDbLine
 62
7
  6
CONTINUOUS
 10
69.5318637829
 20
40.9158106003
 11
69.5402281494
 21
40.9109652802
  0
LINE
  5
53D
100
AcDbEntity
  8
0
100
AcDbLine
 62
7
  6
CONTINUOUS
 10
70.4304134186
 20
40.4389346679
 11
70.3670832136
 21
40.4756206633
  0
LWPOLYLINE
  5
53E
100
AcDbEntity
  8
0
100
AcDbPolyline
 62
7
  6
CONTINUOUS
 90
8
 70
0
 10
70.0245451093
 20
40.9441955098
 10
70.0139556684
 20
40.9497396169
 10
69.9935085513
 20
40.9575007468
 10
69.9716244293
 20
40.9621164254
 10
69.9487395673
 20
40.963351991
 10
69.9253078519
 20
40.961051154
 10
69.9015686697
 20
40.9551064502
 10
69.8830528045
 20
40.9478913034
  0
LWPOLYLINE
  5
53F
100
AcDbEntity
  8
0
100
AcDbPolyline
 62
7
  6
CONTINUOUS
 90
8
 70
0
 10
68.8296355808
 20
41.6363841023
 10
68.81904614
 20
41.6419282094
 10
68.7985990228
 20
41.6496893393
 10
68.7767149008
 20
41.6543050179
 10
68.7538300389
 20
41.6555405835
 10
68.7303983234
 20
41.6532397465
 10
68.7066591412
 20
41.6472950427
 10
68.688143276
 20
41.6400798959
  0
LINE
  5
540
100
AcDbEntity
  8
0
100
AcDbLine
 62
7
  6
CONTINUOUS
 10
70.3493985525
 20
40.7170011014
 11
69.9671332572
 21
40.9384401898
  0
LINE
  5
541
100
AcDbEntity
  8
0
100
AcDbLine
 62
7
  6
CONTINUOUS
 10
69.5792931151
 20
41.163108682
 11
68.7722237287
 21
41.6306287823
  0
LINE
  5
542
100
AcDbEntity
  8
0
100
AcDbLine
 62
7
  6
CONTINUOUS
 10
68.3843835866
 20
41.8552972745
 11
68.0021182748
 21
42.0767363725
  0
LINE
  5
543
100
AcDbEntity
  8
0
100
AcDbLine
 62
7
  6
CONTINUOUS
 10
70.4068282254
 20
40.7227495635
 11
70.0245630197
 21
40.9441886
  0
LINE
  5
544
100
AcDbEntity
  8
0
100
AcDbLine
 62
7
  6
CONTINUOUS
 10
69.6367227424
 20
41.1688571705
 11
68.8296534912
 21
41.6363771925
  0
LINE
  5
545
100
AcDbEntity
  8
0
100
AcDbLine
 62
7
  6
CONTINUOUS
 10
68.4418216271
 20
41.861040888
 11
68.0595479476
 21
42.0824848347
  0
CIRCLE
  5
546
100
AcDbEntity
  8
0
100
AcDbCircle
 62
7
  6
CONTINUOUS
 10
13.2931104408
 20
37.3923113754
 40
0.3561643836
  0
CIRCLE
  5
547
100
AcDbEntity
  8
0
100
AcDbCircle
 62
7
  6
CONTINUOUS
 10
13.2931104408
 20
34.5257012645
 40
0.3561643836
  0
CIRCLE
  5
548
100
AcDbEntity
  8
0
100
AcDbCircle
 62
7
  6
CONTINUOUS
 10
13.2931104408
 20
31.6442798794
 40
0.3561643836
  0
CIRCLE
  5
549
100
AcDbEntity
  8
0
100
AcDbCircle
 62
7
  6
CONTINUOUS
 10
11.8757876062
 20
37.156090903
 40
0.2265118873
  0
CIRCLE
  5
54A
100
AcDbEntity
  8
0
100
AcDbCircle
 62
7
  6
CONTINUOUS
 10
14.7104332755
 20
37.156090903
 40
0.2265118873
  0
CIRCLE
  5
54B
100
AcDbEntity
  8
0
100
AcDbCircle
 62
7
  6
CONTINUOUS
 10
11.8757876062
 20
31.884793666
 40
0.2265118873
  0
CIRCLE
  5
54C
100
AcDbEntity
  8
0
100
AcDbCircle
 62
7
  6
CONTINUOUS
 10
14.7104332755
 20
31.8805003518
 40
0.2265118873
  0
CIRCLE
  5
54D
100
AcDbEntity
  8
02___PRT_ALL_AXES
100
AcDbCircle
 62
3
  6
CONTINUOUS
 10
13.2931104408
 20
31.6442798794
 40
0.2559055118
  0
CIRCLE
  5
54E
100
AcDbEntity
  8
02___PRT_ALL_AXES
100
AcDbCircle
 62
3
  6
CONTINUOUS
 10
13.2931104408
 20
37.3923113754
 40
0.2559055118
  0
CIRCLE
  5
54F
100
AcDbEntity
  8
02___PRT_ALL_AXES
100
AcDbCircle
 62
3
  6
CONTINUOUS
 10
13.2931104408
 20
34.5182956274
 40
0.2559055118
  0
ARC
  5
550
100
AcDbEntity
  8
02___PRT_ALL_AXES
100
AcDbCircle
 62
3
  6
CONTINUOUS
 10
14.1789372125
 20
29.0852247613
 40
0.1968503937
100
AcDbArc
 50
0.0
 51
180.0
  0
ARC
  5
551
100
AcDbEntity
  8
02___PRT_ALL_AXES
100
AcDbCircle
 62
3
  6
CONTINUOUS
 10
14.1789372125
 20
28.0222326353
 40
0.1968503937
100
AcDbArc
 50
180.0
 51
360.0
  0
ARC
  5
552
100
AcDbEntity
  8
02___PRT_ALL_AXES
100
AcDbCircle
 62
3
  6
CONTINUOUS
 10
12.4072836692
 20
29.0852247613
 40
0.1968503937
100
AcDbArc
 50
0.0
 51
180.0
  0
ARC
  5
553
100
AcDbEntity
  8
02___PRT_ALL_AXES
100
AcDbCircle
 62
3
  6
CONTINUOUS
 10
12.4072836692
 20
28.0222326353
 40
0.1968503937
100
AcDbArc
 50
180.0
 51
360.0
  0
ARC
  5
554
100
AcDbEntity
  8
02___PRT_ALL_AXES
100
AcDbCircle
 62
3
  6
CONTINUOUS
 10
14.1789372125
 20
39.9513664935
 40
0.1968503937
100
AcDbArc
 50
180.0
 51
360.0
  0
ARC
  5
555
100
AcDbEntity
  8
02___PRT_ALL_AXES
100
AcDbCircle
 62
3
  6
CONTINUOUS
 10
14.1789372125
 20
41.0143586195
 40
0.1968503937
100
AcDbArc
 50
0.0
 51
180.0
  0
ARC
  5
556
100
AcDbEntity
  8
02___PRT_ALL_AXES
100
AcDbCircle
 62
3
  6
CONTINUOUS
 10
12.4072836692
 20
39.9513664935
 40
0.1968503937
100
AcDbArc
 50
180.0
 51
360.0
  0
ARC
  5
557
100
AcDbEntity
  8
02___PRT_ALL_AXES
100
AcDbCircle
 62
3
  6
CONTINUOUS
 10
12.4072836692
 20
41.0143586195
 40
0.1968503937
100
AcDbArc
 50
0.0
 51
180.0
  0
CIRCLE
  5
558
100
AcDbEntity
  8
02___PRT_ALL_AXES
100
AcDbCircle
 62
3
  6
CONTINUOUS
 10
14.7104332755
 20
31.8805003518
 40
0.1377952756
  0
CIRCLE
  5
559
100
AcDbEntity
  8
02___PRT_ALL_AXES
100
AcDbCircle
 62
3
  6
CONTINUOUS
 10
11.8757876062
 20
31.8805003518
 40
0.1377952756
  0
CIRCLE
  5
55A
100
AcDbEntity
  8
02___PRT_ALL_AXES
100
AcDbCircle
 62
3
  6
CONTINUOUS
 10
14.7104332755
 20
37.156090903
 40
0.1377952756
  0
CIRCLE
  5
55B
100
AcDbEntity
  8
02___PRT_ALL_AXES
100
AcDbCircle
 62
3
  6
CONTINUOUS
 10
11.8757876062
 20
37.156090903
 40
0.1377952756
  0
ARC
  5
55C
100
AcDbEntity
  8
0
100
AcDbCircle
 62
7
  6
CONTINUOUS
 10
15.2265750077
 20
26.7308940526
 40
0.1062992126
100
AcDbArc
 50
270.0
 51
90.0
  0
ARC
  5
55D
100
AcDbEntity
  8
0
100
AcDbCircle
 62
7
  6
CONTINUOUS
 10
11.3596458739
 20
26.7308940526
 40
0.1062992126
100
AcDbArc
 50
90.0
 51
270.0
  0
ARC
  5
55E
100
AcDbEntity
  8
0
100
AcDbCircle
 62
7
  6
CONTINUOUS
 10
11.3596458739
 20
42.3056972022
 40
0.1062992126
100
AcDbArc
 50
90.0
 51
270.0
  0
ARC
  5
55F
100
AcDbEntity
  8
0
100
AcDbCircle
 62
7
  6
CONTINUOUS
 10
15.2265750077
 20
42.3056972022
 40
0.1062992126
100
AcDbArc
 50
270.0
 51
90.0
  0
ARC
  5
560
100
AcDbEntity
  8
0
100
AcDbCircle
 62
3
  6
CONTINUOUS
 10
15.2265750077
 20
26.7308940526
 40
0.0019685039
100
AcDbArc
 50
270.0
 51
90.0
  0
ARC
  5
561
100
AcDbEntity
  8
0
100
AcDbCircle
 62
3
  6
CONTINUOUS
 10
11.3596458739
 20
26.7308940526
 40
0.0019685039
100
AcDbArc
 50
90.0
 51
270.0
  0
ARC
  5
562
100
AcDbEntity
  8
0
100
AcDbCircle
 62
3
  6
CONTINUOUS
 10
11.3596458739
 20
42.3056972022
 40
0.0019685039
100
AcDbArc
 50
90.0
 51
270.0
  0
ARC
  5
563
100
AcDbEntity
  8
0
100
AcDbCircle
 62
3
  6
CONTINUOUS
 10
15.2265750077
 20
42.3056972022
 40
0.0019685039
100
AcDbArc
 50
270.0
 51
90.0
  0
ARC
  5
564
100
AcDbEntity
  8
0
100
AcDbCircle
 62
7
  6
CONTINUOUS
 10
49.8416442176
 20
42.2785318479
 40
0.1334645669
100
AcDbArc
 50
0.0
 51
90.0
  0
ARC
  5
565
100
AcDbEntity
  8
0
100
AcDbCircle
 62
7
  6
CONTINUOUS
 10
49.8416442176
 20
26.7580594069
 40
0.1334645669
100
AcDbArc
 50
270.0
 51
360.0
  0
ARC
  5
566
100
AcDbEntity
  8
0
100
AcDbCircle
 62
3
  6
CONTINUOUS
 10
49.8416442176
 20
42.2785318479
 40
0.0291338583
100
AcDbArc
 50
0.0
 51
90.0
  0
ARC
  5
567
100
AcDbEntity
  8
0
100
AcDbCircle
 62
3
  6
CONTINUOUS
 10
49.8416442176
 20
26.7580594069
 40
0.0291338583
100
AcDbArc
 50
270.0
 51
360.0
  0
ARC
  5
568
100
AcDbEntity
  8
0
100
AcDbCircle
 62
7
  6
CONTINUOUS
 10
34.0302268947
 20
21.9591390526
 40
1.9334645669
100
AcDbArc
 50
90.0
 51
270.0
  0
CIRCLE
  5
569
100
AcDbEntity
  8
02___PRT_ALL_AXES
100
AcDbCircle
 62
7
  6
CONTINUOUS
 10
35.5006993357
 20
21.9591390526
 40
0.2362204724
  0
CIRCLE
  5
56A
100
AcDbEntity
  8
02___PRT_ALL_AXES
100
AcDbCircle
 62
7
  6
CONTINUOUS
 10
33.9258961861
 20
21.9591390526
 40
0.2362204724
  0
ARC
  5
56B
100
AcDbEntity
  8
0
100
AcDbCircle
 62
7
  6
CONTINUOUS
 10
49.8416442176
 20
23.8926036196
 40
0.1334645669
100
AcDbArc
 50
0.0
 51
90.0
  0
ARC
  5
56C
100
AcDbEntity
  8
0
100
AcDbCircle
 62
7
  6
CONTINUOUS
 10
49.8416442176
 20
20.0256744857
 40
0.1334645669
100
AcDbArc
 50
270.0
 51
360.0
  0
ARC
  5
56D
100
AcDbEntity
  8
0
100
AcDbCircle
 62
3
  6
CONTINUOUS
 10
49.8416442176
 20
23.8926036196
 40
0.0291338583
100
AcDbArc
 50
0.0
 51
90.0
  0
ARC
  5
56E
100
AcDbEntity
  8
0
100
AcDbCircle
 62
3
  6
CONTINUOUS
 10
49.8416442176
 20
20.0256744857
 40
0.0291338583
100
AcDbArc
 50
270.0
 51
360.0
  0
ARC
  5
56F
100
AcDbEntity
  8
0
100
AcDbCircle
 62
3
  6
CONTINUOUS
 10
58.478878659
 20
24.8630691412
 40
0.5606502236
100
AcDbArc
 50
180.0152922515
 51
187.4288954647
  0
ARC
  5
570
100
AcDbEntity
  8
0
100
AcDbCircle
 62
7
  6
CONTINUOUS
 10
58.478878659
 20
35.8372102976
 40
0.5606502236
100
AcDbArc
 50
180.0152922514
 51
187.4288954647
  0
ARC
  5
571
100
AcDbEntity
  8
0
100
AcDbCircle
 62
3
  6
CONTINUOUS
 10
68.4671850089
 20
31.0825347258
 40
0.1346303638
100
AcDbArc
 50
329.9515769652
 51
338.9163518195
  0
ARC
  5
572
100
AcDbEntity
  8
0
100
AcDbCircle
 62
3
  6
CONTINUOUS
 10
68.4588207499
 20
31.087380013
 40
0.1346302541
100
AcDbArc
 50
329.9515661351
 51
338.9163481954
  0
ARC
  5
573
100
AcDbEntity
  8
02___PRT_ALL_AXES
100
AcDbCircle
 62
3
  6
CONTINUOUS
 10
68.6522324326
 20
32.4662018604
 40
0.1157691993
100
AcDbArc
 50
167.6331103945
 51
170.9899325959
  0
ARC
  5
574
100
AcDbEntity
  8
02___PRT_ALL_AXES
100
AcDbCircle
 62
3
  6
CONTINUOUS
 10
69.7276510083
 20
31.8432321272
 40
0.1157691992
100
AcDbArc
 50
167.6331103944
 51
170.9899325961
  0
ARC
  5
575
100
AcDbEntity
  8
02___PRT_ALL_AXES
100
AcDbCircle
 62
3
  6
CONTINUOUS
 10
68.6240213759
 20
32.4742707092
 40
0.0863842136
100
AcDbArc
 50
155.3586023621
 51
160.0938676142
  0
ARC
  5
576
100
AcDbEntity
  8
02___PRT_ALL_AXES
100
AcDbCircle
 62
3
  6
CONTINUOUS
 10
69.6994399515
 20
31.8513009759
 40
0.0863842136
100
AcDbArc
 50
155.3586023618
 51
160.0938676144
  0
ARC
  5
577
100
AcDbEntity
  8
0
100
AcDbCircle
 62
7
  6
CONTINUOUS
 10
69.2903482408
 20
42.1366060103
 40
0.9302998453
100
AcDbArc
 50
210.5174658595
 51
215.2186373485
  0
ARC
  5
578
100
AcDbEntity
  8
0
100
AcDbCircle
 62
7
  6
CONTINUOUS
 10
70.4852577692
 20
41.4444174178
 40
0.9302998453
100
AcDbArc
 50
210.5174658594
 51
215.2186373485
  0
ARC
  5
579
100
AcDbEntity
  8
02___PRT_ALL_AXES
100
AcDbCircle
 62
3
  6
CONTINUOUS
 10
69.2518189982
 20
33.9625027927
 40
0.2137141692
100
AcDbArc
 50
180.01463591
 51
182.3407978585
  0
ARC
  5
57A
100
AcDbEntity
  8
02___PRT_ALL_AXES
100
AcDbCircle
 62
3
  6
CONTINUOUS
 10
69.2518189982
 20
35.9735792441
 40
0.2137141692
100
AcDbArc
 50
180.0146359098
 51
182.3407978586
  0
ARC
  5
57B
100
AcDbEntity
  8
02___PRT_ALL_AXES
100
AcDbCircle
 62
3
  6
CONTINUOUS
 10
69.2518189982
 20
37.9846556955
 40
0.2137141692
100
AcDbArc
 50
180.01463591
 51
182.3407978585
  0
ARC
  5
57C
100
AcDbEntity
  8
02___PRT_ALL_AXES
100
AcDbCircle
 62
3
  6
CONTINUOUS
 10
69.2369260205
 20
37.9846496989
 40
0.1988211905
100
AcDbArc
 50
177.5731091814
 51
180.0140041515
  0
ARC
  5
57D
100
AcDbEntity
  8
02___PRT_ALL_AXES
100
AcDbCircle
 62
3
  6
CONTINUOUS
 10
69.2369260205
 20
35.9735732475
 40
0.1988211905
100
AcDbArc
 50
177.5731091814
 51
180.0140041516
  0
ARC
  5
57E
100
AcDbEntity
  8
02___PRT_ALL_AXES
100
AcDbCircle
 62
3
  6
CONTINUOUS
 10
69.2369260205
 20
33.9624967961
 40
0.1988211905
100
AcDbArc
 50
177.5731091814
 51
180.0140041515
  0
ARC
  5
57F
100
AcDbEntity
  8
02___PRT_ALL_AXES
100
AcDbCircle
 62
3
  6
CONTINUOUS
 10
69.2209548053
 20
37.9853667258
 40
0.1828339426
100
AcDbArc
 50
174.287160847
 51
177.585672281
  0
ARC
  5
580
100
AcDbEntity
  8
02___PRT_ALL_AXES
100
AcDbCircle
 62
3
  6
CONTINUOUS
 10
69.2209548053
 20
35.9742902744
 40
0.1828339426
100
AcDbArc
 50
174.2871608469
 51
177.5856722809
  0
ARC
  5
581
100
AcDbEntity
  8
02___PRT_ALL_AXES
100
AcDbCircle
 62
3
  6
CONTINUOUS
 10
69.2209548053
 20
33.963213823
 40
0.1828339426
100
AcDbArc
 50
174.287160847
 51
177.585672281
  0
ARC
  5
582
100
AcDbEntity
  8
02___PRT_ALL_AXES
100
AcDbCircle
 62
3
  6
CONTINUOUS
 10
69.275103386
 20
33.8260049747
 40
0.1554515707
100
AcDbArc
 50
248.2226882363
 51
251.2456031242
  0
ARC
  5
583
100
AcDbEntity
  8
02___PRT_ALL_AXES
100
AcDbCircle
 62
3
  6
CONTINUOUS
 10
69.275103386
 20
35.8370814261
 40
0.1554515707
100
AcDbArc
 50
248.2226882363
 51
251.2456031242
  0
ARC
  5
584
100
AcDbEntity
  8
02___PRT_ALL_AXES
100
AcDbCircle
 62
3
  6
CONTINUOUS
 10
69.275103386
 20
37.8481578775
 40
0.1554515707
100
AcDbArc
 50
248.2226882362
 51
251.2456031242
  0
ARC
  5
585
100
AcDbEntity
  8
02___PRT_ALL_AXES
100
AcDbCircle
 62
3
  6
CONTINUOUS
 10
69.1785481225
 20
37.9916337778
 40
0.1399264731
100
AcDbArc
 50
164.7845148856
 51
168.4818035973
  0
ARC
  5
586
100
AcDbEntity
  8
02___PRT_ALL_AXES
100
AcDbCircle
 62
3
  6
CONTINUOUS
 10
69.1785481225
 20
35.9805573264
 40
0.1399264731
100
AcDbArc
 50
164.7845148856
 51
168.4818035973
  0
ARC
  5
587
100
AcDbEntity
  8
02___PRT_ALL_AXES
100
AcDbCircle
 62
3
  6
CONTINUOUS
 10
69.1785481225
 20
33.969480875
 40
0.1399264731
100
AcDbArc
 50
164.7845148856
 51
168.4818035972
  0
ARC
  5
588
100
AcDbEntity
  8
02___PRT_ALL_AXES
100
AcDbCircle
 62
3
  6
CONTINUOUS
 10
69.2651557778
 20
33.789953397
 40
0.1180074253
100
AcDbArc
 50
258.1397968335
 51
262.4152095665
  0
ARC
  5
589
100
AcDbEntity
  8
02___PRT_ALL_AXES
100
AcDbCircle
 62
3
  6
CONTINUOUS
 10
69.2651557778
 20
35.8010298484
 40
0.1180074253
100
AcDbArc
 50
258.1397968336
 51
262.4152095664
  0
ARC
  5
58A
100
AcDbEntity
  8
02___PRT_ALL_AXES
100
AcDbCircle
 62
3
  6
CONTINUOUS
 10
69.2651557778
 20
37.8121062998
 40
0.1180074253
100
AcDbArc
 50
258.1397968335
 51
262.4152095665
  0
ARC
  5
58B
100
AcDbEntity
  8
02___PRT_ALL_AXES
100
AcDbCircle
 62
3
  6
CONTINUOUS
 10
69.1464779024
 20
38.0024550993
 40
0.1060286601
100
AcDbArc
 50
153.4595105273
 51
156.8194803308
  0
ARC
  5
58C
100
AcDbEntity
  8
02___PRT_ALL_AXES
100
AcDbCircle
 62
3
  6
CONTINUOUS
 10
69.1464779024
 20
35.9913786479
 40
0.1060286601
100
AcDbArc
 50
153.4595105273
 51
156.819480331
  0
ARC
  5
58D
100
AcDbEntity
  8
02___PRT_ALL_AXES
100
AcDbCircle
 62
3
  6
CONTINUOUS
 10
69.1464779024
 20
33.9803021965
 40
0.1060286601
100
AcDbArc
 50
153.459510527
 51
156.8194803309
  0
ARC
  5
58E
100
AcDbEntity
  8
02___PRT_ALL_AXES
100
AcDbCircle
 62
3
  6
CONTINUOUS
 10
69.1382450399
 20
38.0066246705
 40
0.09680031
100
AcDbArc
 50
147.5228037093
 51
153.4899848679
  0
ARC
  5
58F
100
AcDbEntity
  8
02___PRT_ALL_AXES
100
AcDbCircle
 62
3
  6
CONTINUOUS
 10
69.1382450399
 20
35.9955482191
 40
0.09680031
100
AcDbArc
 50
147.5228037094
 51
153.4899848678
  0
ARC
  5
590
100
AcDbEntity
  8
02___PRT_ALL_AXES
100
AcDbCircle
 62
3
  6
CONTINUOUS
 10
69.1382450399
 20
33.9844717677
 40
0.09680031
100
AcDbArc
 50
147.5228037096
 51
153.4899848678
  0
ARC
  5
591
100
AcDbEntity
  8
02___PRT_ALL_AXES
100
AcDbCircle
 62
3
  6
CONTINUOUS
 10
69.2632019219
 20
33.76629453
 40
0.0942370958
100
AcDbArc
 50
270.0769732214
 51
272.2327039275
  0
ARC
  5
592
100
AcDbEntity
  8
02___PRT_ALL_AXES
100
AcDbCircle
 62
3
  6
CONTINUOUS
 10
69.2632019219
 20
35.7773709814
 40
0.0942370958
100
AcDbArc
 50
270.0769732216
 51
272.2327039271
  0
ARC
  5
593
100
AcDbEntity
  8
02___PRT_ALL_AXES
100
AcDbCircle
 62
3
  6
CONTINUOUS
 10
69.2632019219
 20
37.7884474328
 40
0.0942370958
100
AcDbArc
 50
270.0769732219
 51
272.2327039274
  0
ARC
  5
594
100
AcDbEntity
  8
02___PRT_ALL_AXES
100
AcDbCircle
 62
3
  6
CONTINUOUS
 10
68.3759661736
 20
34.5079642305
 40
0.0803613125
100
AcDbArc
 50
250.0831111986
 51
252.2332717108
  0
ARC
  5
595
100
AcDbEntity
  8
02___PRT_ALL_AXES
100
AcDbCircle
 62
3
  6
CONTINUOUS
 10
68.3759661736
 20
38.1995292235
 40
0.0803613125
100
AcDbArc
 50
250.0831111983
 51
252.2332717106
  0
ARC
  5
596
100
AcDbEntity
  8
02___PRT_ALL_AXES
100
AcDbCircle
 62
3
  6
CONTINUOUS
 10
68.3296308986
 20
38.27896751
 40
0.0799904959
100
AcDbArc
 50
167.9682255976
 51
169.7787005973
  0
ARC
  5
597
100
AcDbEntity
  8
02___PRT_ALL_AXES
100
AcDbCircle
 62
3
  6
CONTINUOUS
 10
68.3296308986
 20
34.587402517
 40
0.0799904959
100
AcDbArc
 50
167.9682255975
 51
169.7787005974
  0
ARC
  5
598
100
AcDbEntity
  8
0
100
AcDbCircle
 62
7
  6
CONTINUOUS
 10
68.4015898726
 20
41.5624652511
 40
0.0567968548
100
AcDbArc
 50
60.2057500285
 51
69.7617041973
  0
ARC
  5
599
100
AcDbEntity
  8
0
100
AcDbCircle
 62
7
  6
CONTINUOUS
 10
69.5964994011
 20
40.8702766586
 40
0.0567968548
100
AcDbArc
 50
60.2057500286
 51
69.7617041973
  0
SPLINE
  5
59A
100
AcDbEntity
  8
0
100
AcDbSpline
 62
3
  6
CONTINUOUS
 70
0
 71
3
 72
10
 73
6
 74
0
 42
0.0000001
 43
0.0000001
 44
0.0000000001
 40
0.0
 40
0.0
 40
0.0
 40
0.0
 40
0.2675508171
 40
0.5249920481
 40
1.0
 40
1.0
 40
1.0
 40
1.0
 10
11.9893935713
 20
26.7289270795
 30
0.0
 10
12.0010657595
 20
26.7289288953
 30
0.0
 10
12.0241836182
 20
26.7333828092
 30
0.0
 10
12.0622130411
 20
26.755902845
 30
0.0
 10
12.0811926061
 20
26.7843567364
 30
0.0
 10
12.0874885335
 20
26.804099904
 30
0.0
  0
SPLINE
  5
59B
100
AcDbEntity
  8
0
100
AcDbSpline
 62
3
  6
CONTINUOUS
 70
0
 71
3
 72
10
 73
6
 74
0
 42
0.0000001
 43
0.0000001
 44
0.0000000001
 40
0.0
 40
0.0
 40
0.0
 40
0.0
 40
0.2675508171
 40
0.5249920481
 40
1.0
 40
1.0
 40
1.0
 40
1.0
 10
13.9578975083
 20
26.7289270795
 30
0.0
 10
13.9695696965
 20
26.7289288953
 30
0.0
 10
13.9926875552
 20
26.7333828092
 30
0.0
 10
14.0307169781
 20
26.755902845
 30
0.0
 10
14.0496965431
 20
26.7843567364
 30
0.0
 10
14.0559924705
 20
26.804099904
 30
0.0
  0
SPLINE
  5
59C
100
AcDbEntity
  8
0
100
AcDbSpline
 62
3
  6
CONTINUOUS
 70
0
 71
3
 72
10
 73
6
 74
0
 42
0.0000001
 43
0.0000001
 44
0.0000000001
 40
0.0
 40
0.0
 40
0.0
 40
0.0
 40
0.2675511269
 40
0.5249926284
 40
1.0
 40
1.0
 40
1.0
 40
1.0
 10
14.5968273237
 20
42.3076642538
 30
0.0
 10
14.5851551079
 20
42.3076623853
 30
0.0
 10
14.5620371927
 20
42.3032084519
 30
0.0
 10
14.5240078378
 20
42.2806882992
 30
0.0
 10
14.5050279364
 20
42.2522344841
 30
0.0
 10
14.4987323168
 20
42.2324912184
 30
0.0
  0
SPLINE
  5
59D
100
AcDbEntity
  8
0
100
AcDbSpline
 62
3
  6
CONTINUOUS
 70
0
 71
3
 72
10
 73
6
 74
0
 42
0.0000001
 43
0.0000001
 44
0.0000000001
 40
0.0
 40
0.0
 40
0.0
 40
0.0
 40
0.2675511269
 40
0.5249926284
 40
1.0
 40
1.0
 40
1.0
 40
1.0
 10
12.6283233867
 20
42.3076642538
 30
0.0
 10
12.6166511709
 20
42.3076623853
 30
0.0
 10
12.5935332557
 20
42.3032084519
 30
0.0
 10
12.5555039008
 20
42.2806882992
 30
0.0
 10
12.5365239994
 20
42.2522344841
 30
0.0
 10
12.5302283798
 20
42.2324912184
 30
0.0
  0
SPLINE
  5
59E
100
AcDbEntity
  8
0
100
AcDbSpline
 62
9
  6
CONTINUOUS
 70
0
 71
3
 72
11
 73
7
 74
0
 42
0.0000001
 43
0.0000001
 44
0.0000000001
 40
0.0
 40
0.0
 40
0.0
 40
0.0
 40
0.3976383394
 40
0.6848639473
 40
0.876347313
 40
1.0
 40
1.0
 40
1.0
 40
1.0
 10
14.2842521731
 20
42.2805673178
 30
0.0
 10
14.3138595579
 20
42.2805659655
 30
0.0
 10
14.3649003724
 20
42.2776894425
 30
0.0
 10
14.429374323
 20
42.2660972965
 30
0.0
 10
14.4719100551
 20
42.2517442491
 30
0.0
 10
14.4924444708
 20
42.2392175016
 30
0.0
 10
14.4987325023
 20
42.2324922937
 30
0.0
  0
SPLINE
  5
59F
100
AcDbEntity
  8
0
100
AcDbSpline
 62
9
  6
CONTINUOUS
 70
0
 71
3
 72
13
 73
9
 74
0
 42
0.0000001
 43
0.0000001
 44
0.0000000001
 40
0.0
 40
0.0
 40
0.0
 40
0.0
 40
0.1257317104
 40
0.2513415859
 40
0.3766738241
 40
0.5017514889
 40
0.7509842333
 40
1.0
 40
1.0
 40
1.0
 40
1.0
 10
14.2842521731
 20
41.9532418992
 30
0.0
 10
14.3001462788
 20
41.9532429792
 30
0.0
 10
14.3321605778
 20
41.9593195784
 30
0.0
 10
14.3740694904
 20
41.9831831174
 30
0.0
 10
14.4087752297
 20
42.0161661723
 30
0.0
 10
14.4461102786
 20
42.0674136648
 30
0.0
 10
14.4789026531
 20
42.1398954273
 30
0.0
 10
14.4937299548
 20
42.2014135367
 30
0.0
 10
14.4987325023
 20
42.2324922937
 30
0.0
  0
SPLINE
  5
5A0
100
AcDbEntity
  8
0
100
AcDbSpline
 62
9
  6
CONTINUOUS
 70
0
 71
3
 72
11
 73
7
 74
0
 42
0.0000001
 43
0.0000001
 44
0.0000000001
 40
0.0
 40
0.0
 40
0.0
 40
0.0
 40
0.1236538787
 40
0.3151399718
 40
0.6023986675
 40
1.0
 40
1.0
 40
1.0
 40
1.0
 10
14.0559921605
 20
42.2324921274
 30
0.0
 10
14.0622802482
 20
42.239217342
 30
0.0
 10
14.0828147223
 20
42.2517439295
 30
0.0
 10
14.1253522431
 20
42.2661015534
 30
0.0
 10
14.1898300363
 20
42.277668932
 30
0.0
 10
14.2408681624
 20
42.2805658563
 30
0.0
 10
14.2704726455
 20
42.2805673178
 30
0.0
  0
SPLINE
  5
5A1
100
AcDbEntity
  8
0
100
AcDbSpline
 62
9
  6
CONTINUOUS
 70
0
 71
3
 72
13
 73
9
 74
0
 42
0.0000001
 43
0.0000001
 44
0.0000000001
 40
0.0
 40
0.0
 40
0.0
 40
0.0
 40
0.2500732184
 40
0.4998803052
 40
0.6250430093
 40
0.7501306999
 40
0.8751131045
 40
1.0
 40
1.0
 40
1.0
 40
1.0
 10
13.9578967199
 20
26.7580594069
 30
0.0
 10
13.9618603942
 20
26.8033475127
 30
0.0
 10
13.9796401247
 20
26.8933170393
 30
0.0
 10
14.0289043941
 20
26.9975483915
 30
0.0
 10
14.0866965825
 20
27.0683080681
 30
0.0
 10
14.1398462751
 20
27.1119536963
 30
0.0
 10
14.2020704873
 20
27.1416262859
 30
0.0
 10
14.2477692487
 20
27.1487673536
 30
0.0
 10
14.2704726457
 20
27.1487706523
 30
0.0
  0
SPLINE
  5
5A2
100
AcDbEntity
  8
0
100
AcDbSpline
 62
9
  6
CONTINUOUS
 70
0
 71
3
 72
13
 73
9
 74
0
 42
0.0000001
 43
0.0000001
 44
0.0000000001
 40
0.0
 40
0.0
 40
0.0
 40
0.0
 40
0.1248869234
 40
0.2498691532
 40
0.3749569204
 40
0.5001196464
 40
0.7499267905
 40
1.0
 40
1.0
 40
1.0
 40
1.0
 10
14.2842521729
 20
27.1487706523
 30
0.0
 10
14.3069555705
 20
27.1487675938
 30
0.0
 10
14.3526540684
 20
27.141625228
 30
0.0
 10
14.4148788373
 20
27.1119541614
 30
0.0
 10
14.4680280966
 20
27.0683078342
 30
0.0
 10
14.5258204996
 20
26.9975484488
 30
0.0
 10
14.5750847232
 20
26.8933169805
 30
0.0
 10
14.5928644326
 20
26.8033474979
 30
0.0
 10
14.5968281541
 20
26.7580594069
 30
0.0
  0
SPLINE
  5
5A3
100
AcDbEntity
  8
0
100
AcDbSpline
 62
9
  6
CONTINUOUS
 70
0
 71
3
 72
13
 73
9
 74
0
 42
0.0000001
 43
0.0000001
 44
0.0000000001
 40
0.0
 40
0.0
 40
0.0
 40
0.0
 40
0.1248870878
 40
0.2498691686
 40
0.3749565941
 40
0.5001193447
 40
0.7499267911
 40
1.0
 40
1.0
 40
1.0
 40
1.0
 10
14.2842521728
 20
41.8878206025
 30
0.0
 10
14.306955593
 20
41.8878230754
 30
0.0
 10
14.3526539097
 20
41.8949670535
 30
0.0
 10
14.4148789997
 20
41.9246367594
 30
0.0
 10
14.4680279886
 20
41.9682834522
 30
0.0
 10
14.5258206041
 20
42.0390425549
 30
0.0
 10
14.5750843787
 20
42.1432742601
 30
0.0
 10
14.5928646459
 20
42.2332437176
 30
0.0
 10
14.596827749
 20
42.2785318479
 30
0.0
  0
SPLINE
  5
5A4
100
AcDbEntity
  8
0
100
AcDbSpline
 62
9
  6
CONTINUOUS
 70
0
 71
3
 72
13
 73
9
 74
0
 42
0.0000001
 43
0.0000001
 44
0.0000000001
 40
0.0
 40
0.0
 40
0.0
 40
0.0
 40
0.2490166273
 40
0.4982508005
 40
0.6233282527
 40
0.7486692288
 40
0.8742657143
 40
1.0
 40
1.0
 40
1.0
 40
1.0
 10
14.0559921605
 20
42.2324921274
 30
0.0
 10
14.0609946711
 20
42.2014132298
 30
0.0
 10
14.0758210731
 20
42.1398936323
 30
0.0
 10
14.1086181331
 20
42.0674161153
 30
0.0
 10
14.1459455059
 20
42.0161588055
 30
0.0
 10
14.180666596
 20
41.9831955577
 30
0.0
 10
14.2225605533
 20
41.9593059854
 30
0.0
 10
14.2545782022
 20
41.9532429468
 30
0.0
 10
14.2704726455
 20
41.9532418992
 30
0.0
  0
SPLINE
  5
5A5
100
AcDbEntity
  8
0
100
AcDbSpline
 62
9
  6
CONTINUOUS
 70
0
 71
3
 72
10
 73
6
 74
0
 42
0.0000001
 43
0.0000001
 44
0.0000000001
 40
0.0
 40
0.0
 40
0.0
 40
0.0
 40
0.4750029171
 40
0.7324456329
 40
1.0
 40
1.0
 40
1.0
 40
1.0
 10
12.5302283798
 20
26.8040998522
 30
0.0
 10
12.5365244953
 20
26.7843568653
 30
0.0
 10
12.5555039078
 20
26.75590231
 30
0.0
 10
12.593533795
 20
26.7333842201
 30
0.0
 10
12.6166516101
 20
26.7289260952
 30
0.0
 10
12.6283240122
 20
26.7289257906
 30
0.0
  0
SPLINE
  5
5A6
100
AcDbEntity
  8
0
100
AcDbSpline
 62
9
  6
CONTINUOUS
 70
0
 71
3
 72
13
 73
9
 74
0
 42
0.0000001
 43
0.0000001
 44
0.0000000001
 40
0.0
 40
0.0
 40
0.0
 40
0.0
 40
0.2500730661
 40
0.4998801134
 40
0.6250427861
 40
0.7501304449
 40
0.8751127975
 40
1.0
 40
1.0
 40
1.0
 40
1.0
 10
13.957896715
 20
42.2785318479
 30
0.0
 10
13.9618603791
 20
42.2332437819
 30
0.0
 10
13.9796400618
 20
42.143274306
 30
0.0
 10
14.0289043213
 20
42.0390430293
 30
0.0
 10
14.0866964411
 20
41.9682833646
 30
0.0
 10
14.1398463528
 20
41.924637938
 30
0.0
 10
14.2020704104
 20
41.8949656384
 30
0.0
 10
14.2477691992
 20
41.887823007
 30
0.0
 10
14.2704726457
 20
41.8878206025
 30
0.0
  0
SPLINE
  5
5A7
100
AcDbEntity
  8
0
100
AcDbSpline
 62
9
  6
CONTINUOUS
 70
0
 71
3
 72
13
 73
9
 74
0
 42
0.0000001
 43
0.0000001
 44
0.0000000001
 40
0.0
 40
0.0
 40
0.0
 40
0.0
 40
0.1257322134
 40
0.2513444046
 40
0.3766757365
 40
0.5017529592
 40
0.750984914
 40
1.0
 40
1.0
 40
1.0
 40
1.0
 10
12.3157482361
 20
27.0833493556
 30
0.0
 10
12.3316423642
 20
27.0833480084
 30
0.0
 10
12.3636571823
 20
27.0772724187
 30
0.0
 10
12.4055653382
 20
27.053407049
 30
0.0
 10
12.4402716372
 20
27.0204248289
 30
0.0
 10
12.4776062654
 20
26.9691774273
 30
0.0
 10
12.510398586
 20
26.8966962577
 30
0.0
 10
12.5252260971
 20
26.835178515
 30
0.0
 10
12.5302285653
 20
26.8040999149
 30
0.0
  0
SPLINE
  5
5A8
100
AcDbEntity
  8
0
100
AcDbSpline
 62
9
  6
CONTINUOUS
 70
0
 71
3
 72
13
 73
9
 74
0
 42
0.0000001
 43
0.0000001
 44
0.0000000001
 40
0.0
 40
0.0
 40
0.0
 40
0.0
 40
0.1248870878
 40
0.2498691686
 40
0.3749565941
 40
0.5001193447
 40
0.7499267911
 40
1.0
 40
1.0
 40
1.0
 40
1.0
 10
12.3157482358
 20
41.8878206025
 30
0.0
 10
12.338451656
 20
41.8878230754
 30
0.0
 10
12.3841499727
 20
41.8949670535
 30
0.0
 10
12.4463750627
 20
41.9246367594
 30
0.0
 10
12.4995240516
 20
41.9682834522
 30
0.0
 10
12.5573166671
 20
42.0390425549
 30
0.0
 10
12.6065804416
 20
42.1432742601
 30
0.0
 10
12.6243607089
 20
42.2332437176
 30
0.0
 10
12.628323812
 20
42.2785318479
 30
0.0
  0
SPLINE
  5
5A9
100
AcDbEntity
  8
0
100
AcDbSpline
 62
9
  6
CONTINUOUS
 70
0
 71
3
 72
10
 73
6
 74
0
 42
0.0000001
 43
0.0000001
 44
0.0000000001
 40
0.0
 40
0.0
 40
0.0
 40
0.0
 40
0.193940852
 40
0.5537708811
 40
1.0
 40
1.0
 40
1.0
 40
1.0
 10
14.0559924705
 20
26.804099904
 30
0.0
 10
14.052722892
 20
26.797564947
 30
0.0
 10
14.0393872975
 20
26.7808738415
 30
0.0
 10
14.0054695302
 20
26.7622667157
 30
0.0
 10
13.9747034514
 20
26.7575995556
 30
0.0
 10
13.9578968654
 20
26.7580596607
 30
0.0
  0
SPLINE
  5
5AA
100
AcDbEntity
  8
0
100
AcDbSpline
 62
9
  6
CONTINUOUS
 70
0
 71
3
 72
13
 73
9
 74
0
 42
0.0000001
 43
0.0000001
 44
0.0000000001
 40
0.0
 40
0.0
 40
0.0
 40
0.0
 40
0.2500730661
 40
0.4998801134
 40
0.6250427861
 40
0.7501304449
 40
0.8751127975
 40
1.0
 40
1.0
 40
1.0
 40
1.0
 10
11.989392778
 20
42.2785318479
 30
0.0
 10
11.9933564421
 20
42.2332437819
 30
0.0
 10
12.0111361248
 20
42.143274306
 30
0.0
 10
12.0604003843
 20
42.0390430293
 30
0.0
 10
12.1181925041
 20
41.9682833646
 30
0.0
 10
12.1713424158
 20
41.924637938
 30
0.0
 10
12.2335664734
 20
41.8949656384
 30
0.0
 10
12.2792652622
 20
41.887823007
 30
0.0
 10
12.3019687087
 20
41.8878206025
 30
0.0
  0
SPLINE
  5
5AB
100
AcDbEntity
  8
0
100
AcDbSpline
 62
9
  6
CONTINUOUS
 70
0
 71
3
 72
13
 73
9
 74
0
 42
0.0000001
 43
0.0000001
 44
0.0000000001
 40
0.0
 40
0.0
 40
0.0
 40
0.0
 40
0.2500732184
 40
0.4998803052
 40
0.6250430093
 40
0.7501306999
 40
0.8751131045
 40
1.0
 40
1.0
 40
1.0
 40
1.0
 10
11.9893927828
 20
26.7580594069
 30
0.0
 10
11.9933564572
 20
26.8033475127
 30
0.0
 10
12.0111361877
 20
26.8933170393
 30
0.0
 10
12.0604004571
 20
26.9975483915
 30
0.0
 10
12.1181926455
 20
27.0683080681
 30
0.0
 10
12.1713423381
 20
27.1119536963
 30
0.0
 10
12.2335665503
 20
27.1416262859
 30
0.0
 10
12.2792653117
 20
27.1487673536
 30
0.0
 10
12.3019687086
 20
27.1487706523
 30
0.0
  0
SPLINE
  5
5AC
100
AcDbEntity
  8
0
100
AcDbSpline
 62
9
  6
CONTINUOUS
 70
0
 71
3
 72
9
 73
5
 74
0
 42
0.0000001
 43
0.0000001
 44
0.0000000001
 40
0.0
 40
0.0
 40
0.0
 40
0.0
 40
0.3108995482
 40
1.0
 40
1.0
 40
1.0
 40
1.0
 10
12.6283233867
 20
26.7580597323
 30
0.0
 10
12.6168004671
 20
26.7577443495
 30
0.0
 10
12.5803212695
 20
26.7610581472
 30
0.0
 10
12.5416610993
 20
26.7812506632
 30
0.0
 10
12.5302283798
 20
26.8040998522
 30
0.0
  0
SPLINE
  5
5AD
100
AcDbEntity
  8
0
100
AcDbSpline
 62
9
  6
CONTINUOUS
 70
0
 71
3
 72
13
 73
9
 74
0
 42
0.0000001
 43
0.0000001
 44
0.0000000001
 40
0.0
 40
0.0
 40
0.0
 40
0.0
 40
0.1248869234
 40
0.2498691532
 40
0.3749569204
 40
0.5001196464
 40
0.7499267905
 40
1.0
 40
1.0
 40
1.0
 40
1.0
 10
12.3157482359
 20
27.1487706523
 30
0.0
 10
12.3384516335
 20
27.1487675938
 30
0.0
 10
12.3841501314
 20
27.141625228
 30
0.0
 10
12.4463749003
 20
27.1119541614
 30
0.0
 10
12.4995241596
 20
27.0683078342
 30
0.0
 10
12.5573165626
 20
26.9975484488
 30
0.0
 10
12.6065807862
 20
26.8933169805
 30
0.0
 10
12.6243604956
 20
26.8033474979
 30
0.0
 10
12.6283242171
 20
26.7580594069
 30
0.0
  0
SPLINE
  5
5AE
100
AcDbEntity
  8
0
100
AcDbSpline
 62
9
  6
CONTINUOUS
 70
0
 71
3
 72
11
 73
7
 74
0
 42
0.0000001
 43
0.0000001
 44
0.0000000001
 40
0.0
 40
0.0
 40
0.0
 40
0.0
 40
0.3976355849
 40
0.6848622388
 40
0.876346103
 40
1.0
 40
1.0
 40
1.0
 40
1.0
 10
12.3157482361
 20
26.756023937
 30
0.0
 10
12.345355493
 20
26.7560250086
 30
0.0
 10
12.3963964282
 20
26.7589008364
 30
0.0
 10
12.4608702357
 20
26.7704939688
 30
0.0
 10
12.5034063869
 20
26.7848470131
 30
0.0
 10
12.5239405659
 20
26.7973745208
 30
0.0
 10
12.5302285653
 20
26.8040999149
 30
0.0
  0
SPLINE
  5
5AF
100
AcDbEntity
  8
0
100
AcDbSpline
 62
9
  6
CONTINUOUS
 70
0
 71
3
 72
10
 73
6
 74
0
 42
0.0000001
 43
0.0000001
 44
0.0000000001
 40
0.0
 40
0.0
 40
0.0
 40
0.0
 40
0.1939409872
 40
0.5537706485
 40
1.0
 40
1.0
 40
1.0
 40
1.0
 10
12.5302283798
 20
42.2324912184
 30
0.0
 10
12.5334977899
 20
42.2390262769
 30
0.0
 10
12.5468336149
 20
42.2557173415
 30
0.0
 10
12.5807513407
 20
42.2743243198
 30
0.0
 10
12.6115173923
 20
42.2789920462
 30
0.0
 10
12.6283240121
 20
42.2785319965
 30
0.0
  0
SPLINE
  5
5B0
100
AcDbEntity
  8
0
100
AcDbSpline
 62
9
  6
CONTINUOUS
 70
0
 71
3
 72
10
 73
6
 74
0
 42
0.0000001
 43
0.0000001
 44
0.0000000001
 40
0.0
 40
0.0
 40
0.0
 40
0.0
 40
0.4750029855
 40
0.7324460388
 40
1.0
 40
1.0
 40
1.0
 40
1.0
 10
12.0874885335
 20
42.232491373
 30
0.0
 10
12.0811925477
 20
42.2522344018
 30
0.0
 10
12.0622130095
 20
42.2806889813
 30
0.0
 10
12.024183096
 20
42.3032069359
 30
0.0
 10
12.0010653114
 20
42.3076651843
 30
0.0
 10
11.9893929284
 20
42.3076654873
 30
0.0
  0
SPLINE
  5
5B1
100
AcDbEntity
  8
0
100
AcDbSpline
 62
9
  6
CONTINUOUS
 70
0
 71
3
 72
9
 73
5
 74
0
 42
0.0000001
 43
0.0000001
 44
0.0000000001
 40
0.0
 40
0.0
 40
0.0
 40
0.0
 40
0.3108989704
 40
1.0
 40
1.0
 40
1.0
 40
1.0
 10
11.9893935713
 20
42.2785315845
 30
0.0
 10
12.0009164705
 20
42.2788469058
 30
0.0
 10
12.0373955733
 20
42.2755331431
 30
0.0
 10
12.0760562085
 20
42.2553407818
 30
0.0
 10
12.0874885335
 20
42.232491373
 30
0.0
  0
SPLINE
  5
5B2
100
AcDbEntity
  8
0
100
AcDbSpline
 62
9
  6
CONTINUOUS
 70
0
 71
3
 72
11
 73
7
 74
0
 42
0.0000001
 43
0.0000001
 44
0.0000000001
 40
0.0
 40
0.0
 40
0.0
 40
0.0
 40
0.3976383394
 40
0.6848639473
 40
0.876347313
 40
1.0
 40
1.0
 40
1.0
 40
1.0
 10
12.3157482361
 20
42.2805673178
 30
0.0
 10
12.3453556209
 20
42.2805659655
 30
0.0
 10
12.3963964353
 20
42.2776894425
 30
0.0
 10
12.4608703859
 20
42.2660972965
 30
0.0
 10
12.5034061181
 20
42.2517442491
 30
0.0
 10
12.5239405338
 20
42.2392175016
 30
0.0
 10
12.5302285653
 20
42.2324922937
 30
0.0
  0
SPLINE
  5
5B3
100
AcDbEntity
  8
0
100
AcDbSpline
 62
9
  6
CONTINUOUS
 70
0
 71
3
 72
13
 73
9
 74
0
 42
0.0000001
 43
0.0000001
 44
0.0000000001
 40
0.0
 40
0.0
 40
0.0
 40
0.0
 40
0.1257317104
 40
0.2513415859
 40
0.3766738241
 40
0.5017514889
 40
0.7509842333
 40
1.0
 40
1.0
 40
1.0
 40
1.0
 10
12.3157482361
 20
41.9532418992
 30
0.0
 10
12.3316423417
 20
41.9532429792
 30
0.0
 10
12.3636566408
 20
41.9593195784
 30
0.0
 10
12.4055655534
 20
41.9831831174
 30
0.0
 10
12.4402712927
 20
42.0161661723
 30
0.0
 10
12.4776063416
 20
42.0674136648
 30
0.0
 10
12.510398716
 20
42.1398954273
 30
0.0
 10
12.5252260178
 20
42.2014135367
 30
0.0
 10
12.5302285653
 20
42.2324922937
 30
0.0
  0
SPLINE
  5
5B4
100
AcDbEntity
  8
0
100
AcDbSpline
 62
9
  6
CONTINUOUS
 70
0
 71
3
 72
11
 73
7
 74
0
 42
0.0000001
 43
0.0000001
 44
0.0000000001
 40
0.0
 40
0.0
 40
0.0
 40
0.0
 40
0.1236538787
 40
0.3151399718
 40
0.6023986675
 40
1.0
 40
1.0
 40
1.0
 40
1.0
 10
12.0874882235
 20
42.2324921274
 30
0.0
 10
12.0937763112
 20
42.239217342
 30
0.0
 10
12.1143107853
 20
42.2517439295
 30
0.0
 10
12.156848306
 20
42.2661015534
 30
0.0
 10
12.2213260992
 20
42.277668932
 30
0.0
 10
12.2723642254
 20
42.2805658563
 30
0.0
 10
12.3019687085
 20
42.2805673178
 30
0.0
  0
SPLINE
  5
5B5
100
AcDbEntity
  8
0
100
AcDbSpline
 62
9
  6
CONTINUOUS
 70
0
 71
3
 72
13
 73
9
 74
0
 42
0.0000001
 43
0.0000001
 44
0.0000000001
 40
0.0
 40
0.0
 40
0.0
 40
0.0
 40
0.2490166273
 40
0.4982508005
 40
0.6233282527
 40
0.7486692288
 40
0.8742657143
 40
1.0
 40
1.0
 40
1.0
 40
1.0
 10
12.0874882235
 20
42.2324921274
 30
0.0
 10
12.0924907341
 20
42.2014132298
 30
0.0
 10
12.1073171361
 20
42.1398936323
 30
0.0
 10
12.1401141961
 20
42.0674161153
 30
0.0
 10
12.1774415688
 20
42.0161588055
 30
0.0
 10
12.212162659
 20
41.9831955577
 30
0.0
 10
12.2540566163
 20
41.9593059854
 30
0.0
 10
12.2860742652
 20
41.9532429468
 30
0.0
 10
12.3019687085
 20
41.9532418992
 30
0.0
  0
SPLINE
  5
5B6
100
AcDbEntity
  8
0
100
AcDbSpline
 62
9
  6
CONTINUOUS
 70
0
 71
3
 72
13
 73
9
 74
0
 42
0.0000001
 43
0.0000001
 44
0.0000000001
 40
0.0
 40
0.0
 40
0.0
 40
0.0
 40
0.2490160273
 40
0.4982495786
 40
0.6233264827
 40
0.7486686285
 40
0.8742647664
 40
1.0
 40
1.0
 40
1.0
 40
1.0
 10
12.0874882235
 20
26.804098947
 30
0.0
 10
12.092490739
 20
26.8351777617
 30
0.0
 10
12.1073167909
 20
26.8966974584
 30
0.0
 10
12.1401145523
 20
26.9691738647
 30
0.0
 10
12.1774396097
 20
27.0204333077
 30
0.0
 10
12.2121639573
 20
27.0533928802
 30
0.0
 10
12.2540559839
 20
27.0772859761
 30
0.0
 10
12.286074148
 20
27.0833479009
 30
0.0
 10
12.3019687085
 20
27.0833493556
 30
0.0
  0
SPLINE
  5
5B7
100
AcDbEntity
  8
0
100
AcDbSpline
 62
9
  6
CONTINUOUS
 70
0
 71
3
 72
11
 73
7
 74
0
 42
0.0000001
 43
0.0000001
 44
0.0000000001
 40
0.0
 40
0.0
 40
0.0
 40
0.0
 40
0.1236540863
 40
0.3151412283
 40
0.6023968868
 40
1.0
 40
1.0
 40
1.0
 40
1.0
 10
12.0874882235
 20
26.804098947
 30
0.0
 10
12.0937763141
 20
26.7973737071
 30
0.0
 10
12.114310968
 20
26.7848470807
 30
0.0
 10
12.1568486427
 20
26.7704906363
 30
0.0
 10
12.2213255983
 20
26.7589185864
 30
0.0
 10
12.2723640766
 20
26.7560249759
 30
0.0
 10
12.3019687085
 20
26.756023937
 30
0.0
  0
SPLINE
  5
5B8
100
AcDbEntity
  8
0
100
AcDbSpline
 62
9
  6
CONTINUOUS
 70
0
 71
3
 72
13
 73
9
 74
0
 42
0.0000001
 43
0.0000001
 44
0.0000000001
 40
0.0
 40
0.0
 40
0.0
 40
0.0
 40
0.1257322134
 40
0.2513444046
 40
0.3766757365
 40
0.5017529592
 40
0.750984914
 40
1.0
 40
1.0
 40
1.0
 40
1.0
 10
14.2842521731
 20
27.0833493556
 30
0.0
 10
14.3001463012
 20
27.0833480084
 30
0.0
 10
14.3321611194
 20
27.0772724187
 30
0.0
 10
14.3740692752
 20
27.053407049
 30
0.0
 10
14.4087755742
 20
27.0204248289
 30
0.0
 10
14.4461102024
 20
26.9691774273
 30
0.0
 10
14.478902523
 20
26.8966962577
 30
0.0
 10
14.4937300342
 20
26.835178515
 30
0.0
 10
14.4987325023
 20
26.8040999149
 30
0.0
  0
SPLINE
  5
5B9
100
AcDbEntity
  8
0
100
AcDbSpline
 62
9
  6
CONTINUOUS
 70
0
 71
3
 72
10
 73
6
 74
0
 42
0.0000001
 43
0.0000001
 44
0.0000000001
 40
0.0
 40
0.0
 40
0.0
 40
0.0
 40
0.193940852
 40
0.5537708811
 40
1.0
 40
1.0
 40
1.0
 40
1.0
 10
12.0874885335
 20
26.804099904
 30
0.0
 10
12.084218955
 20
26.797564947
 30
0.0
 10
12.0708833605
 20
26.7808738415
 30
0.0
 10
12.0369655932
 20
26.7622667157
 30
0.0
 10
12.0061995144
 20
26.7575995556
 30
0.0
 10
11.9893929284
 20
26.7580596607
 30
0.0
  0
SPLINE
  5
5BA
100
AcDbEntity
  8
0
100
AcDbSpline
 62
9
  6
CONTINUOUS
 70
0
 71
3
 72
11
 73
7
 74
0
 42
0.0000001
 43
0.0000001
 44
0.0000000001
 40
0.0
 40
0.0
 40
0.0
 40
0.0
 40
0.3976355849
 40
0.6848622388
 40
0.876346103
 40
1.0
 40
1.0
 40
1.0
 40
1.0
 10
14.2842521731
 20
26.756023937
 30
0.0
 10
14.3138594301
 20
26.7560250086
 30
0.0
 10
14.3649003652
 20
26.7589008364
 30
0.0
 10
14.4293741727
 20
26.7704939688
 30
0.0
 10
14.4719103239
 20
26.7848470131
 30
0.0
 10
14.4924445029
 20
26.7973745208
 30
0.0
 10
14.4987325023
 20
26.8040999149
 30
0.0
  0
SPLINE
  5
5BB
100
AcDbEntity
  8
0
100
AcDbSpline
 62
9
  6
CONTINUOUS
 70
0
 71
3
 72
13
 73
9
 74
0
 42
0.0000001
 43
0.0000001
 44
0.0000000001
 40
0.0
 40
0.0
 40
0.0
 40
0.0
 40
0.2490160273
 40
0.4982495786
 40
0.6233264827
 40
0.7486686285
 40
0.8742647664
 40
1.0
 40
1.0
 40
1.0
 40
1.0
 10
14.0559921605
 20
26.804098947
 30
0.0
 10
14.060994676
 20
26.8351777617
 30
0.0
 10
14.0758207279
 20
26.8966974584
 30
0.0
 10
14.1086184893
 20
26.9691738647
 30
0.0
 10
14.1459435467
 20
27.0204333077
 30
0.0
 10
14.1806678943
 20
27.0533928802
 30
0.0
 10
14.2225599209
 20
27.0772859761
 30
0.0
 10
14.254578085
 20
27.0833479009
 30
0.0
 10
14.2704726455
 20
27.0833493556
 30
0.0
  0
SPLINE
  5
5BC
100
AcDbEntity
  8
0
100
AcDbSpline
 62
9
  6
CONTINUOUS
 70
0
 71
3
 72
11
 73
7
 74
0
 42
0.0000001
 43
0.0000001
 44
0.0000000001
 40
0.0
 40
0.0
 40
0.0
 40
0.0
 40
0.1236540863
 40
0.3151412283
 40
0.6023968868
 40
1.0
 40
1.0
 40
1.0
 40
1.0
 10
14.0559921605
 20
26.804098947
 30
0.0
 10
14.0622802511
 20
26.7973737071
 30
0.0
 10
14.082814905
 20
26.7848470807
 30
0.0
 10
14.1253525797
 20
26.7704906363
 30
0.0
 10
14.1898295353
 20
26.7589185864
 30
0.0
 10
14.2408680136
 20
26.7560249759
 30
0.0
 10
14.2704726455
 20
26.756023937
 30
0.0
  0
SPLINE
  5
5BD
100
AcDbEntity
  8
0
100
AcDbSpline
 62
9
  6
CONTINUOUS
 70
0
 71
3
 72
9
 73
5
 74
0
 42
0.0000001
 43
0.0000001
 44
0.0000000001
 40
0.0
 40
0.0
 40
0.0
 40
0.0
 40
0.3108995482
 40
1.0
 40
1.0
 40
1.0
 40
1.0
 10
14.5968273237
 20
26.7580597323
 30
0.0
 10
14.5853044041
 20
26.7577443495
 30
0.0
 10
14.5488252065
 20
26.7610581472
 30
0.0
 10
14.5101650363
 20
26.7812506632
 30
0.0
 10
14.4987323168
 20
26.8040998522
 30
0.0
  0
SPLINE
  5
5BE
100
AcDbEntity
  8
0
100
AcDbSpline
 62
9
  6
CONTINUOUS
 70
0
 71
3
 72
10
 73
6
 74
0
 42
0.0000001
 43
0.0000001
 44
0.0000000001
 40
0.0
 40
0.0
 40
0.0
 40
0.0
 40
0.1939409872
 40
0.5537706485
 40
1.0
 40
1.0
 40
1.0
 40
1.0
 10
14.4987323168
 20
42.2324912184
 30
0.0
 10
14.5020017269
 20
42.2390262769
 30
0.0
 10
14.5153375519
 20
42.2557173415
 30
0.0
 10
14.5492552777
 20
42.2743243198
 30
0.0
 10
14.5800213293
 20
42.2789920462
 30
0.0
 10
14.5968279492
 20
42.2785319965
 30
0.0
  0
SPLINE
  5
5BF
100
AcDbEntity
  8
0
100
AcDbSpline
 62
9
  6
CONTINUOUS
 70
0
 71
3
 72
9
 73
5
 74
0
 42
0.0000001
 43
0.0000001
 44
0.0000000001
 40
0.0
 40
0.0
 40
0.0
 40
0.0
 40
0.3108989704
 40
1.0
 40
1.0
 40
1.0
 40
1.0
 10
13.9578975083
 20
42.2785315845
 30
0.0
 10
13.9694204075
 20
42.2788469058
 30
0.0
 10
14.0058995103
 20
42.2755331431
 30
0.0
 10
14.0445601455
 20
42.2553407818
 30
0.0
 10
14.0559924705
 20
42.232491373
 30
0.0
  0
SPLINE
  5
5C0
100
AcDbEntity
  8
0
100
AcDbSpline
 62
9
  6
CONTINUOUS
 70
0
 71
3
 72
10
 73
6
 74
0
 42
0.0000001
 43
0.0000001
 44
0.0000000001
 40
0.0
 40
0.0
 40
0.0
 40
0.0
 40
0.4750029855
 40
0.7324460388
 40
1.0
 40
1.0
 40
1.0
 40
1.0
 10
14.0559924705
 20
42.232491373
 30
0.0
 10
14.0496964847
 20
42.2522344018
 30
0.0
 10
14.0307169465
 20
42.2806889813
 30
0.0
 10
13.992687033
 20
42.3032069359
 30
0.0
 10
13.9695692484
 20
42.3076651843
 30
0.0
 10
13.9578968654
 20
42.3076654873
 30
0.0
  0
SPLINE
  5
5C1
100
AcDbEntity
  8
0
100
AcDbSpline
 62
9
  6
CONTINUOUS
 70
0
 71
3
 72
10
 73
6
 74
0
 42
0.0000001
 43
0.0000001
 44
0.0000000001
 40
0.0
 40
0.0
 40
0.0
 40
0.0
 40
0.4750029171
 40
0.7324456329
 40
1.0
 40
1.0
 40
1.0
 40
1.0
 10
14.4987323168
 20
26.8040998522
 30
0.0
 10
14.5050284323
 20
26.7843568653
 30
0.0
 10
14.5240078448
 20
26.75590231
 30
0.0
 10
14.562037732
 20
26.7333842201
 30
0.0
 10
14.5851555471
 20
26.7289260952
 30
0.0
 10
14.5968279492
 20
26.7289257906
 30
0.0
  0
SPLINE
  5
5C2
100
AcDbEntity
  8
0
100
AcDbSpline
 62
9
  6
CONTINUOUS
 70
0
 71
3
 72
16
 73
12
 74
0
 42
0.0000001
 43
0.0000001
 44
0.0000000001
 40
0.0
 40
0.0
 40
0.0
 40
0.0
 40
0.3713000809
 40
0.5393395112
 40
0.6901030397
 40
0.8181608586
 40
0.9170008685
 40
0.9532394289
 40
0.979548566
 40
0.9951997663
 40
1.0
 40
1.0
 40
1.0
 40
1.0
 10
49.7956037723
 20
42.2324912184
 30
0.0
 10
49.8048096652
 20
42.2383594308
 30
0.0
 10
49.8182490289
 20
42.246782944
 30
0.0
 10
49.8354723694
 20
42.2574974712
 30
0.0
 10
49.8466617813
 20
42.264415198
 30
0.0
 10
49.8560828366
 20
42.270202879
 30
0.0
 10
49.8627956822
 20
42.2742623073
 30
0.0
 10
49.8667528047
 20
42.2765916319
 30
0.0
 10
49.8689908305
 20
42.2778371465
 30
0.0
 10
49.8698089703
 20
42.2782529204
 30
0.0
 10
49.8707776971
 20
42.2786731354
 30
0.0
 10
49.8707778339
 20
42.2785319965
 30
0.0
  0
SPLINE
  5
5C3
100
AcDbEntity
  8
0
100
AcDbSpline
 62
9
  6
CONTINUOUS
 70
0
 71
3
 72
16
 73
12
 74
0
 42
0.0000001
 43
0.0000001
 44
0.0000000001
 40
0.0
 40
0.0
 40
0.0
 40
0.0
 40
0.004798491
 40
0.0204371721
 40
0.0467489242
 40
0.0829943627
 40
0.1818386821
 40
0.3098956676
 40
0.4606583963
 40
0.6286980377
 40
1.0
 40
1.0
 40
1.0
 40
1.0
 10
49.8416438922
 20
42.3076642538
 30
0.0
 10
49.841784976
 20
42.3076634286
 30
0.0
 10
49.841367098
 20
42.3066969346
 30
0.0
 10
49.84094972
 20
42.3058771287
 30
0.0
 10
49.8397039867
 20
42.3036408501
 30
0.0
 10
49.8373726267
 20
42.2996836632
 30
0.0
 10
49.8333132471
 20
42.2929711594
 30
0.0
 10
49.8275260597
 20
42.2835495708
 30
0.0
 10
49.8206089768
 20
42.2723600745
 30
0.0
 10
49.8098955046
 20
42.2551362498
 30
0.0
 10
49.8014709978
 20
42.2416976653
 30
0.0
 10
49.7956037723
 20
42.2324912184
 30
0.0
  0
LINE
  5
5C4
100
AcDbEntity
  8
0
100
AcDbLine
 62
9
  6
CONTINUOUS
 10
49.782565307
 20
42.2347372816
 11
49.7956037096
 21
42.2324922937
  0
LINE
  5
5C5
100
AcDbEntity
  8
0
100
AcDbLine
 62
9
  6
CONTINUOUS
 10
49.8215753744
 20
26.9549670995
 11
49.7956046634
 21
26.8040999149
  0
LINE
  5
5C6
100
AcDbEntity
  8
0
100
AcDbLine
 62
9
  6
CONTINUOUS
 10
49.8215759776
 20
42.0816206354
 11
49.7956037096
 21
42.2324922937
  0
SPLINE
  5
5C7
100
AcDbEntity
  8
0
100
AcDbSpline
 62
9
  6
CONTINUOUS
 70
0
 71
3
 72
16
 73
12
 74
0
 42
0.0000001
 43
0.0000001
 44
0.0000000001
 40
0.0
 40
0.0
 40
0.0
 40
0.0
 40
0.0047984796
 40
0.0204371716
 40
0.0467489238
 40
0.08299436
 40
0.1818386805
 40
0.309895666
 40
0.4606583951
 40
0.6286980369
 40
1.0
 40
1.0
 40
1.0
 40
1.0
 10
49.8707766235
 20
26.7580597323
 30
0.0
 10
49.8707758008
 20
26.7579186488
 30
0.0
 10
49.8698093009
 20
26.758336528
 30
0.0
 10
49.8689895007
 20
26.7587539031
 30
0.0
 10
49.8667532187
 20
26.7599996382
 30
0.0
 10
49.862796034
 20
26.7623309977
 30
0.0
 10
49.8560835286
 20
26.7663903774
 30
0.0
 10
49.8466619407
 20
26.7721775648
 30
0.0
 10
49.8354724442
 20
26.7790946477
 30
0.0
 10
49.8182486195
 20
26.7898081199
 30
0.0
 10
49.8048100351
 20
26.7982326267
 30
0.0
 10
49.7956035882
 20
26.8040998522
 30
0.0
  0
LINE
  5
5C8
100
AcDbEntity
  8
0
100
AcDbLine
 62
9
  6
CONTINUOUS
 10
49.7825650007
 20
26.8018544939
 11
49.7956046634
 21
26.8040999149
  0
SPLINE
  5
5C9
100
AcDbEntity
  8
0
100
AcDbSpline
 62
9
  6
CONTINUOUS
 70
0
 71
3
 72
16
 73
12
 74
0
 42
0.0000001
 43
0.0000001
 44
0.0000000001
 40
0.0
 40
0.0
 40
0.0
 40
0.0
 40
0.3713000817
 40
0.5393395123
 40
0.6901030412
 40
0.8181608601
 40
0.917000871
 40
0.9532394293
 40
0.9795485665
 40
0.9951997767
 40
1.0
 40
1.0
 40
1.0
 40
1.0
 10
49.7956035882
 20
26.8040998522
 30
0.0
 10
49.8014718005
 20
26.7948939593
 30
0.0
 10
49.8098953137
 20
26.7814545956
 30
0.0
 10
49.8206098409
 20
26.7642312552
 30
0.0
 10
49.8275275677
 20
26.753041843
 30
0.0
 10
49.8333152487
 20
26.7436207884
 30
0.0
 10
49.8373746772
 20
26.7369079414
 30
0.0
 10
49.8397040013
 20
26.7329508209
 30
0.0
 10
49.8409495174
 20
26.7307127919
 30
0.0
 10
49.8413652888
 20
26.7298946573
 30
0.0
 10
49.8417855048
 20
26.7289259251
 30
0.0
 10
49.8416443662
 20
26.7289257906
 30
0.0
  0
SPLINE
  5
5CA
100
AcDbEntity
  8
0
100
AcDbSpline
 62
9
  6
CONTINUOUS
 70
0
 71
3
 72
13
 73
9
 74
0
 42
0.0000001
 43
0.0000001
 44
0.0000000001
 40
0.0
 40
0.0
 40
0.0
 40
0.0
 40
0.1248870857
 40
0.2498691631
 40
0.3749565876
 40
0.500119337
 40
0.749926778
 40
1.0
 40
1.0
 40
1.0
 40
1.0
 10
49.4509329722
 20
22.9502807846
 30
0.0
 10
49.4509361388
 20
22.9729842058
 30
0.0
 10
49.4580791024
 20
23.018682524
 30
0.0
 10
49.4877492165
 20
23.0809076182
 30
0.0
 10
49.5313958061
 20
23.1340566052
 30
0.0
 10
49.6021549466
 20
23.191849232
 30
0.0
 10
49.7063866617
 20
23.2411129281
 30
0.0
 10
49.7963560843
 20
23.2588934039
 30
0.0
 10
49.8416442176
 20
23.2628565317
 30
0.0
  0
SPLINE
  5
5CB
100
AcDbEntity
  8
0
100
AcDbSpline
 62
9
  6
CONTINUOUS
 70
0
 71
3
 72
13
 73
9
 74
0
 42
0.0000001
 43
0.0000001
 44
0.0000000001
 40
0.0
 40
0.0
 40
0.0
 40
0.0
 40
0.250073054
 40
0.4998801056
 40
0.6250427806
 40
0.7501304424
 40
0.8751127956
 40
1.0
 40
1.0
 40
1.0
 40
1.0
 10
49.8416442176
 20
22.6239254816
 30
0.0
 10
49.7963561539
 20
22.627889118
 30
0.0
 10
49.7063866381
 20
22.6456686197
 30
0.0
 10
49.6021554034
 20
22.6949329476
 30
0.0
 10
49.5313957057
 20
22.7527250577
 30
0.0
 10
49.4877503872
 20
22.8058749691
 30
0.0
 10
49.4580776935
 20
22.8680990254
 30
0.0
 10
49.4509360541
 20
22.9137978121
 30
0.0
 10
49.4509329722
 20
22.9365012576
 30
0.0
  0
SPLINE
  5
5CC
100
AcDbEntity
  8
0
100
AcDbSpline
 62
9
  6
CONTINUOUS
 70
0
 71
3
 72
12
 73
8
 74
0
 42
0.0000001
 43
0.0000001
 44
0.0000000001
 40
0.0
 40
0.0
 40
0.0
 40
0.0
 40
0.2021355305
 40
0.3598696835
 40
0.6045772345
 40
0.8104738378
 40
1.0
 40
1.0
 40
1.0
 40
1.0
 10
49.9174526391
 20
22.9502807849
 30
0.0
 10
49.9174512955
 20
22.9613757463
 30
0.0
 10
49.9140711572
 20
22.981291165
 30
0.0
 10
49.8994129187
 20
23.0113530497
 30
0.0
 10
49.8763112542
 20
23.0363991162
 30
0.0
 10
49.8460124967
 20
23.0547706627
 30
0.0
 10
49.8252948498
 20
23.0618002281
 30
0.0
 10
49.8151641456
 20
23.0641641456
 30
0.0
  0
SPLINE
  5
5CD
100
AcDbEntity
  8
0
100
AcDbSpline
 62
9
  6
CONTINUOUS
 70
0
 71
3
 72
16
 73
12
 74
0
 42
0.0000001
 43
0.0000001
 44
0.0000000001
 40
0.0
 40
0.0
 40
0.0
 40
0.0
 40
0.0666565814
 40
0.132134762
 40
0.1963684862
 40
0.259718217
 40
0.3847447723
 40
0.5086641555
 40
0.6319628969
 40
0.7548825804
 40
1.0
 40
1.0
 40
1.0
 40
1.0
 10
49.5901272205
 20
22.9502807849
 30
0.0
 10
49.5901279878
 20
22.9562406519
 30
0.0
 10
49.5925783404
 20
22.9681412875
 30
0.0
 10
49.6016328693
 20
22.9834137116
 30
0.0
 10
49.613477376
 20
22.9960916208
 30
0.0
 10
49.6311981971
 20
23.0101822537
 30
0.0
 10
49.6556011402
 20
23.0240442253
 30
0.0
 10
49.6863988894
 20
23.0367813592
 30
0.0
 10
49.7180143682
 20
23.0466873446
 30
0.0
 10
49.7607596874
 20
23.0569185587
 30
0.0
 10
49.7933700511
 20
23.061852719
 30
0.0
 10
49.8151641456
 20
23.0641641456
 30
0.0
  0
SPLINE
  5
5CE
100
AcDbEntity
  8
0
100
AcDbSpline
 62
9
  6
CONTINUOUS
 70
0
 71
3
 72
12
 73
8
 74
0
 42
0.0000001
 43
0.0000001
 44
0.0000000001
 40
0.0
 40
0.0
 40
0.0
 40
0.0
 40
0.0611798897
 40
0.1433340497
 40
0.370101026
 40
0.6656127946
 40
1.0
 40
1.0
 40
1.0
 40
1.0
 10
49.8151634248
 20
21.0956601116
 30
0.0
 10
49.817978901
 20
21.0986924014
 30
0.0
 10
49.8228736229
 20
21.1072669403
 30
0.0
 10
49.8312578803
 20
21.1308530078
 30
0.0
 10
49.838473298
 20
21.1713360973
 30
0.0
 10
49.8432955569
 20
21.2290721977
 30
0.0
 10
49.8429803481
 20
21.2717762071
 30
0.0
 10
49.8416451964
 20
21.2943526814
 30
0.0
  0
SPLINE
  5
5CF
100
AcDbEntity
  8
0
100
AcDbSpline
 62
9
  6
CONTINUOUS
 70
0
 71
3
 72
12
 73
8
 74
0
 42
0.0000001
 43
0.0000001
 44
0.0000000001
 40
0.0
 40
0.0
 40
0.0
 40
0.0
 40
0.1895285279
 40
0.3954286557
 40
0.6401435652
 40
0.7978809793
 40
1.0
 40
1.0
 40
1.0
 40
1.0
 10
49.8151637913
 20
22.822617814
 30
0.0
 10
49.8252946357
 20
22.8249817848
 30
0.0
 10
49.8460126197
 20
22.8320114496
 30
0.0
 10
49.8763121343
 20
22.8503833645
 30
0.0
 10
49.8994138968
 20
22.8754305645
 30
0.0
 10
49.9140714731
 20
22.9054924972
 30
0.0
 10
49.9174511877
 20
22.9254071822
 30
0.0
 10
49.9174526391
 20
22.9365012574
 30
0.0
  0
SPLINE
  5
5D0
100
AcDbEntity
  8
0
100
AcDbSpline
 62
9
  6
CONTINUOUS
 70
0
 71
3
 72
16
 73
12
 74
0
 42
0.0000001
 43
0.0000001
 44
0.0000000001
 40
0.0
 40
0.0
 40
0.0
 40
0.0
 40
0.2451205162
 40
0.3680416268
 40
0.4913420636
 40
0.6152630863
 40
0.7402928006
 40
0.8036456367
 40
0.8678766907
 40
0.9333449036
 40
1.0
 40
1.0
 40
1.0
 40
1.0
 10
49.8151637913
 20
22.822617814
 30
0.0
 10
49.7933694468
 20
22.8249293111
 30
0.0
 10
49.7607587279
 20
22.8298635992
 30
0.0
 10
49.7180129163
 20
22.8400950048
 30
0.0
 10
49.6863971443
 20
22.850001322
 30
0.0
 10
49.6555989081
 20
22.8627388984
 30
0.0
 10
49.6311960256
 20
22.876602136
 30
0.0
 10
49.6134742786
 20
22.8906920984
 30
0.0
 10
49.6016310439
 20
22.9033701767
 30
0.0
 10
49.5925784387
 20
22.9186420465
 30
0.0
 10
49.5901279646
 20
22.9305415288
 30
0.0
 10
49.5901272205
 20
22.9365012574
 30
0.0
  0
SPLINE
  5
5D1
100
AcDbEntity
  8
0
100
AcDbSpline
 62
9
  6
CONTINUOUS
 70
0
 71
3
 72
11
 73
7
 74
0
 42
0.0000001
 43
0.0000001
 44
0.0000000001
 40
0.0
 40
0.0
 40
0.0
 40
0.0
 40
0.25165103
 40
0.5027175975
 40
0.7523043918
 40
1.0
 40
1.0
 40
1.0
 40
1.0
 10
49.975102429
 20
21.2943525697
 30
0.0
 10
49.9750953924
 20
21.2713881134
 30
0.0
 10
49.9669072726
 20
21.2251309142
 30
0.0
 10
49.9321774069
 20
21.164445806
 30
0.0
 10
49.8799352137
 20
21.1186208273
 30
0.0
 10
49.8371548721
 20
21.1008845417
 30
0.0
 10
49.8151634248
 20
21.0956601116
 30
0.0
  0
SPLINE
  5
5D2
100
AcDbEntity
  8
0
100
AcDbSpline
 62
9
  6
CONTINUOUS
 70
0
 71
3
 72
11
 73
7
 74
0
 42
0.0000001
 43
0.0000001
 44
0.0000000001
 40
0.0
 40
0.0
 40
0.0
 40
0.0
 40
0.2476962297
 40
0.4972794711
 40
0.748347106
 40
1.0
 40
1.0
 40
1.0
 40
1.0
 10
49.8151633532
 20
20.8541140462
 30
0.0
 10
49.8371548206
 20
20.8488893903
 30
0.0
 10
49.8799347111
 20
20.8311536176
 30
0.0
 10
49.9321780454
 20
20.785327765
 30
0.0
 10
49.9668997285
 20
20.7246419517
 30
0.0
 10
49.975107666
 20
20.6783862604
 30
0.0
 10
49.9751082528
 20
20.6554216176
 30
0.0
  0
SPLINE
  5
5D3
100
AcDbEntity
  8
0
100
AcDbSpline
 62
9
  6
CONTINUOUS
 70
0
 71
3
 72
12
 73
8
 74
0
 42
0.0000001
 43
0.0000001
 44
0.0000000001
 40
0.0
 40
0.0
 40
0.0
 40
0.0
 40
0.3343918024
 40
0.6299042488
 40
0.8566660145
 40
0.9388192898
 40
1.0
 40
1.0
 40
1.0
 40
1.0
 10
49.8416434826
 20
20.6554216003
 30
0.0
 10
49.8429718619
 20
20.6779986356
 30
0.0
 10
49.8432965151
 20
20.7207025002
 30
0.0
 10
49.8384623027
 20
20.7784372003
 30
0.0
 10
49.8312570948
 20
20.8189213152
 30
0.0
 10
49.8228735562
 20
20.8425072759
 30
0.0
 10
49.8179788238
 20
20.8510817128
 30
0.0
 10
49.8151633532
 20
20.8541140462
 30
0.0
  0
SPLINE
  5
5D4
100
AcDbEntity
  8
0
100
AcDbSpline
 62
9
  6
CONTINUOUS
 70
0
 71
3
 72
12
 73
8
 74
0
 42
0.0000001
 43
0.0000001
 44
0.0000000001
 40
0.0
 40
0.0
 40
0.0
 40
0.0
 40
0.2021355305
 40
0.3598696835
 40
0.6045772345
 40
0.8104738378
 40
1.0
 40
1.0
 40
1.0
 40
1.0
 10
49.9174526391
 20
20.9817768479
 30
0.0
 10
49.9174512955
 20
20.9928718093
 30
0.0
 10
49.9140711572
 20
21.0127872279
 30
0.0
 10
49.8994129187
 20
21.0428491127
 30
0.0
 10
49.8763112542
 20
21.0678951792
 30
0.0
 10
49.8460124967
 20
21.0862667257
 30
0.0
 10
49.8252948498
 20
21.0932962911
 30
0.0
 10
49.8151641456
 20
21.0956602086
 30
0.0
  0
SPLINE
  5
5D5
100
AcDbEntity
  8
0
100
AcDbSpline
 62
9
  6
CONTINUOUS
 70
0
 71
3
 72
16
 73
12
 74
0
 42
0.0000001
 43
0.0000001
 44
0.0000000001
 40
0.0
 40
0.0
 40
0.0
 40
0.0
 40
0.0666565814
 40
0.132134762
 40
0.1963684862
 40
0.259718217
 40
0.3847447723
 40
0.5086641555
 40
0.6319628969
 40
0.7548825804
 40
1.0
 40
1.0
 40
1.0
 40
1.0
 10
49.5901272205
 20
20.9817768479
 30
0.0
 10
49.5901279878
 20
20.9877367149
 30
0.0
 10
49.5925783404
 20
20.9996373505
 30
0.0
 10
49.6016328693
 20
21.0149097746
 30
0.0
 10
49.613477376
 20
21.0275876838
 30
0.0
 10
49.6311981971
 20
21.0416783167
 30
0.0
 10
49.6556011402
 20
21.0555402883
 30
0.0
 10
49.6863988894
 20
21.0682774222
 30
0.0
 10
49.7180143682
 20
21.0781834076
 30
0.0
 10
49.7607596874
 20
21.0884146217
 30
0.0
 10
49.7933700511
 20
21.0933487819
 30
0.0
 10
49.8151641456
 20
21.0956602086
 30
0.0
  0
SPLINE
  5
5D6
100
AcDbEntity
  8
0
100
AcDbSpline
 62
9
  6
CONTINUOUS
 70
0
 71
3
 72
12
 73
8
 74
0
 42
0.0000001
 43
0.0000001
 44
0.0000000001
 40
0.0
 40
0.0
 40
0.0
 40
0.0
 40
0.1895285279
 40
0.3954286557
 40
0.6401435652
 40
0.7978809793
 40
1.0
 40
1.0
 40
1.0
 40
1.0
 10
49.8151637913
 20
20.854113877
 30
0.0
 10
49.8252946357
 20
20.8564778478
 30
0.0
 10
49.8460126197
 20
20.8635075125
 30
0.0
 10
49.8763121343
 20
20.8818794275
 30
0.0
 10
49.8994138968
 20
20.9069266275
 30
0.0
 10
49.9140714731
 20
20.9369885602
 30
0.0
 10
49.9174511877
 20
20.9569032452
 30
0.0
 10
49.9174526391
 20
20.9679973204
 30
0.0
  0
SPLINE
  5
5D7
100
AcDbEntity
  8
0
100
AcDbSpline
 62
9
  6
CONTINUOUS
 70
0
 71
3
 72
16
 73
12
 74
0
 42
0.0000001
 43
0.0000001
 44
0.0000000001
 40
0.0
 40
0.0
 40
0.0
 40
0.0
 40
0.2451205162
 40
0.3680416268
 40
0.4913420636
 40
0.6152630863
 40
0.7402928006
 40
0.8036456367
 40
0.8678766907
 40
0.9333449036
 40
1.0
 40
1.0
 40
1.0
 40
1.0
 10
49.8151637913
 20
20.854113877
 30
0.0
 10
49.7933694468
 20
20.8564253741
 30
0.0
 10
49.7607587279
 20
20.8613596621
 30
0.0
 10
49.7180129163
 20
20.8715910677
 30
0.0
 10
49.6863971443
 20
20.881497385
 30
0.0
 10
49.6555989081
 20
20.8942349614
 30
0.0
 10
49.6311960256
 20
20.908098199
 30
0.0
 10
49.6134742786
 20
20.9221881614
 30
0.0
 10
49.6016310439
 20
20.9348662396
 30
0.0
 10
49.5925784387
 20
20.9501381094
 30
0.0
 10
49.5901279646
 20
20.9620375918
 30
0.0
 10
49.5901272205
 20
20.9679973204
 30
0.0
  0
SPLINE
  5
5D8
100
AcDbEntity
  8
0
100
AcDbSpline
 62
9
  6
CONTINUOUS
 70
0
 71
3
 72
12
 73
8
 74
0
 42
0.0000001
 43
0.0000001
 44
0.0000000001
 40
0.0
 40
0.0
 40
0.0
 40
0.0
 40
0.0611798897
 40
0.1433340497
 40
0.370101026
 40
0.6656127946
 40
1.0
 40
1.0
 40
1.0
 40
1.0
 10
49.8151634248
 20
23.0641640486
 30
0.0
 10
49.817978901
 20
23.0671963384
 30
0.0
 10
49.8228736229
 20
23.0757708773
 30
0.0
 10
49.8312578803
 20
23.0993569448
 30
0.0
 10
49.838473298
 20
23.1398400343
 30
0.0
 10
49.8432955569
 20
23.1975761347
 30
0.0
 10
49.8429803481
 20
23.2402801441
 30
0.0
 10
49.8416451964
 20
23.2628566184
 30
0.0
  0
SPLINE
  5
5D9
100
AcDbEntity
  8
0
100
AcDbSpline
 62
9
  6
CONTINUOUS
 70
0
 71
3
 72
11
 73
7
 74
0
 42
0.0000001
 43
0.0000001
 44
0.0000000001
 40
0.0
 40
0.0
 40
0.0
 40
0.0
 40
0.25165103
 40
0.5027175975
 40
0.7523043918
 40
1.0
 40
1.0
 40
1.0
 40
1.0
 10
49.975102429
 20
23.2628565067
 30
0.0
 10
49.9750953924
 20
23.2398920504
 30
0.0
 10
49.9669072726
 20
23.1936348512
 30
0.0
 10
49.9321774069
 20
23.132949743
 30
0.0
 10
49.8799352137
 20
23.0871247643
 30
0.0
 10
49.8371548721
 20
23.0693884787
 30
0.0
 10
49.8151634248
 20
23.0641640486
 30
0.0
  0
SPLINE
  5
5DA
100
AcDbEntity
  8
0
100
AcDbSpline
 62
9
  6
CONTINUOUS
 70
0
 71
3
 72
13
 73
9
 74
0
 42
0.0000001
 43
0.0000001
 44
0.0000000001
 40
0.0
 40
0.0
 40
0.0
 40
0.0
 40
0.1248870857
 40
0.2498691631
 40
0.3749565876
 40
0.500119337
 40
0.749926778
 40
1.0
 40
1.0
 40
1.0
 40
1.0
 10
49.4509329722
 20
20.9817768476
 30
0.0
 10
49.4509361388
 20
21.0044802688
 30
0.0
 10
49.4580791024
 20
21.050178587
 30
0.0
 10
49.4877492165
 20
21.1124036812
 30
0.0
 10
49.5313958061
 20
21.1655526682
 30
0.0
 10
49.6021549466
 20
21.223345295
 30
0.0
 10
49.7063866617
 20
21.2726089911
 30
0.0
 10
49.7963560843
 20
21.2903894669
 30
0.0
 10
49.8416442176
 20
21.2943525946
 30
0.0
  0
SPLINE
  5
5DB
100
AcDbEntity
  8
0
100
AcDbSpline
 62
9
  6
CONTINUOUS
 70
0
 71
3
 72
13
 73
9
 74
0
 42
0.0000001
 43
0.0000001
 44
0.0000000001
 40
0.0
 40
0.0
 40
0.0
 40
0.0
 40
0.250073054
 40
0.4998801056
 40
0.6250427806
 40
0.7501304424
 40
0.8751127956
 40
1.0
 40
1.0
 40
1.0
 40
1.0
 10
49.8416442176
 20
20.6554215446
 30
0.0
 10
49.7963561539
 20
20.659385181
 30
0.0
 10
49.7063866381
 20
20.6771646827
 30
0.0
 10
49.6021554034
 20
20.7264290106
 30
0.0
 10
49.5313957057
 20
20.7842211207
 30
0.0
 10
49.4877503872
 20
20.8373710321
 30
0.0
 10
49.4580776935
 20
20.8995950884
 30
0.0
 10
49.4509360541
 20
20.9452938751
 30
0.0
 10
49.4509329722
 20
20.9679973205
 30
0.0
  0
SPLINE
  5
5DC
100
AcDbEntity
  8
0
100
AcDbSpline
 62
9
  6
CONTINUOUS
 70
0
 71
3
 72
11
 73
7
 74
0
 42
0.0000001
 43
0.0000001
 44
0.0000000001
 40
0.0
 40
0.0
 40
0.0
 40
0.0
 40
0.2476962297
 40
0.4972794711
 40
0.748347106
 40
1.0
 40
1.0
 40
1.0
 40
1.0
 10
49.8151633532
 20
22.8226179832
 30
0.0
 10
49.8371548206
 20
22.8173933273
 30
0.0
 10
49.8799347111
 20
22.7996575546
 30
0.0
 10
49.9321780454
 20
22.753831702
 30
0.0
 10
49.9668997285
 20
22.6931458887
 30
0.0
 10
49.975107666
 20
22.6468901974
 30
0.0
 10
49.9751082528
 20
22.6239255546
 30
0.0
  0
SPLINE
  5
5DD
100
AcDbEntity
  8
0
100
AcDbSpline
 62
9
  6
CONTINUOUS
 70
0
 71
3
 72
12
 73
8
 74
0
 42
0.0000001
 43
0.0000001
 44
0.0000000001
 40
0.0
 40
0.0
 40
0.0
 40
0.0
 40
0.3343918024
 40
0.6299042488
 40
0.8566660145
 40
0.9388192898
 40
1.0
 40
1.0
 40
1.0
 40
1.0
 10
49.8416434826
 20
22.6239255373
 30
0.0
 10
49.8429718619
 20
22.6465025726
 30
0.0
 10
49.8432965151
 20
22.6892064372
 30
0.0
 10
49.8384623027
 20
22.7469411373
 30
0.0
 10
49.8312570948
 20
22.7874252522
 30
0.0
 10
49.8228735562
 20
22.8110112129
 30
0.0
 10
49.8179788238
 20
22.8195856498
 30
0.0
 10
49.8151633532
 20
22.8226179832
 30
0.0
  0
SPLINE
  5
5DE
100
AcDbEntity
  8
02___PRT_ALL_AXES
100
AcDbSpline
 62
7
  6
CONTINUOUS
 70
0
 71
3
 72
9
 73
5
 74
0
 42
0.0000001
 43
0.0000001
 44
0.0000000001
 40
0.0
 40
0.0
 40
0.0
 40
0.0
 40
0.2298408981
 40
1.0
 40
1.0
 40
1.0
 40
1.0
 10
68.545500035
 20
32.5102794202
 30
0.0
 10
68.5439354105
 20
32.5068748855
 30
0.0
 10
68.5381478216
 20
32.4915914503
 30
0.0
 10
68.536242834
 20
32.4750379866
 30
0.0
 10
68.536242834
 20
32.4624828978
 30
0.0
  0
SPLINE
  5
5DF
100
AcDbEntity
  8
02___PRT_ALL_AXES
100
AcDbSpline
 62
7
  6
CONTINUOUS
 70
0
 71
3
 72
9
 73
5
 74
0
 42
0.0000001
 43
0.0000001
 44
0.0000000001
 40
0.0
 40
0.0
 40
0.0
 40
0.0
 40
0.2298408981
 40
1.0
 40
1.0
 40
1.0
 40
1.0
 10
69.6209186107
 20
31.887309687
 30
0.0
 10
69.6193539861
 20
31.8839051522
 30
0.0
 10
69.6135663972
 20
31.8686217171
 30
0.0
 10
69.6116614096
 20
31.8520682534
 30
0.0
 10
69.6116614096
 20
31.8395131646
 30
0.0
  0
SPLINE
  5
5E0
100
AcDbEntity
  8
02___PRT_ALL_AXES
100
AcDbSpline
 62
7
  6
CONTINUOUS
 70
0
 71
3
 72
12
 73
8
 74
0
 42
0.0000001
 43
0.0000001
 44
0.0000000001
 40
0.0
 40
0.0
 40
0.0
 40
0.0
 40
0.2017515568
 40
0.3258990846
 40
0.4613004699
 40
0.7429940946
 40
1.0
 40
1.0
 40
1.0
 40
1.0
 10
69.0566678442
 20
36.0476576072
 30
0.0
 10
69.0422329187
 20
36.0251119877
 30
0.0
 10
69.0348549013
 20
35.9792176215
 30
0.0
 10
69.0430474784
 20
35.9187681859
 30
0.0
 10
69.0647185173
 20
35.8498200461
 30
0.0
 10
69.1104852252
 20
35.7717232056
 30
0.0
 10
69.1639341319
 20
35.7215656587
 30
0.0
 10
69.1934430747
 20
35.7044716837
 30
0.0
  0
SPLINE
  5
5E1
100
AcDbEntity
  8
02___PRT_ALL_AXES
100
AcDbSpline
 62
7
  6
CONTINUOUS
 70
0
 71
3
 72
8
 73
4
 74
0
 42
0.0000001
 43
0.0000001
 44
0.0000000001
 40
0.0
 40
0.0
 40
0.0
 40
0.0
 40
1.0
 40
1.0
 40
1.0
 40
1.0
 10
68.2513868294
 20
38.2955906783
 30
0.0
 10
68.2500328982
 20
38.2892225348
 30
0.0
 10
68.2494385065
 20
38.2827037057
 30
0.0
 10
68.2494381103
 20
38.276151621
 30
0.0
  0
SPLINE
  5
5E2
100
AcDbEntity
  8
02___PRT_ALL_AXES
100
AcDbSpline
 62
7
  6
CONTINUOUS
 70
0
 71
3
 72
8
 73
4
 74
0
 42
0.0000001
 43
0.0000001
 44
0.0000000001
 40
0.0
 40
0.0
 40
0.0
 40
0.0
 40
1.0
 40
1.0
 40
1.0
 40
1.0
 10
69.6116614096
 20
39.4430350904
 30
0.0
 10
69.6116614096
 20
39.4350997609
 30
0.0
 10
69.6122352726
 20
39.4271624581
 30
0.0
 10
69.6132917036
 20
39.4192729067
 30
0.0
  0
SPLINE
  5
5E3
100
AcDbEntity
  8
02___PRT_ALL_AXES
100
AcDbSpline
 62
7
  6
CONTINUOUS
 70
0
 71
3
 72
12
 73
8
 74
0
 42
0.0000001
 43
0.0000001
 44
0.0000000001
 40
0.0
 40
0.0
 40
0.0
 40
0.0
 40
0.2017515568
 40
0.3258990846
 40
0.4613004699
 40
0.7429940946
 40
1.0
 40
1.0
 40
1.0
 40
1.0
 10
69.0566678442
 20
38.0587340586
 30
0.0
 10
69.0422329187
 20
38.0361884391
 30
0.0
 10
69.0348549013
 20
37.9902940729
 30
0.0
 10
69.0430474784
 20
37.9298446373
 30
0.0
 10
69.0647185173
 20
37.8608964975
 30
0.0
 10
69.1104852252
 20
37.782799657
 30
0.0
 10
69.1639341319
 20
37.7326421101
 30
0.0
 10
69.1934430747
 20
37.7155481351
 30
0.0
  0
SPLINE
  5
5E4
100
AcDbEntity
  8
02___PRT_ALL_AXES
100
AcDbSpline
 62
7
  6
CONTINUOUS
 70
0
 71
3
 72
11
 73
7
 74
0
 42
0.0000001
 43
0.0000001
 44
0.0000000001
 40
0.0
 40
0.0
 40
0.0
 40
0.0
 40
0.2523353288
 40
0.5303215059
 40
0.7907485322
 40
1.0
 40
1.0
 40
1.0
 40
1.0
 10
68.536242834
 20
31.7186601007
 30
0.0
 10
68.536242834
 20
31.6937198438
 30
0.0
 10
68.5479225438
 20
31.6413340488
 30
0.0
 10
68.5859003351
 20
31.5720380007
 30
0.0
 10
68.6377188189
 20
31.5183029819
 30
0.0
 10
68.6818568226
 20
31.4974410799
 30
0.0
 10
68.7024564444
 20
31.4955975963
 30
0.0
  0
SPLINE
  5
5E5
100
AcDbEntity
  8
02___PRT_ALL_AXES
100
AcDbSpline
 62
7
  6
CONTINUOUS
 70
0
 71
3
 72
8
 73
4
 74
0
 42
0.0000001
 43
0.0000001
 44
0.0000000001
 40
0.0
 40
0.0
 40
0.0
 40
0.0
 40
1.0
 40
1.0
 40
1.0
 40
1.0
 10
69.6116614096
 20
31.0956903675
 30
0.0
 10
69.6116614096
 20
31.0877550379
 30
0.0
 10
69.6122352726
 20
31.0798177351
 30
0.0
 10
69.6132917036
 20
31.0719281837
 30
0.0
  0
SPLINE
  5
5E6
100
AcDbEntity
  8
02___PRT_ALL_AXES
100
AcDbSpline
 62
7
  6
CONTINUOUS
 70
0
 71
3
 72
8
 73
4
 74
0
 42
0.0000001
 43
0.0000001
 44
0.0000000001
 40
0.0
 40
0.0
 40
0.0
 40
0.0
 40
1.0
 40
1.0
 40
1.0
 40
1.0
 10
68.2513868294
 20
34.6040256853
 30
0.0
 10
68.2500328982
 20
34.5976575418
 30
0.0
 10
68.2494385065
 20
34.5911387127
 30
0.0
 10
68.2494381103
 20
34.5845866281
 30
0.0
  0
SPLINE
  5
5E7
100
AcDbEntity
  8
02___PRT_ALL_AXES
100
AcDbSpline
 62
7
  6
CONTINUOUS
 70
0
 71
3
 72
9
 73
5
 74
0
 42
0.0000001
 43
0.0000001
 44
0.0000000001
 40
0.0
 40
0.0
 40
0.0
 40
0.0
 40
0.2777279852
 40
1.0
 40
1.0
 40
1.0
 40
1.0
 10
69.1934430747
 20
35.7044716837
 30
0.0
 10
69.1995765879
 20
35.700918655
 30
0.0
 10
69.2222151822
 20
35.6892748595
 30
0.0
 10
69.2480372051
 20
35.6825527068
 30
0.0
 10
69.2664603403
 20
35.6831900153
 30
0.0
  0
LINE
  5
5E8
100
AcDbEntity
  8
02___PRT_ALL_AXES
100
AcDbLine
 62
7
  6
CONTINUOUS
 10
68.3485904953
 20
38.1239743393
 11
68.3514031802
 21
38.123013607
  0
SPLINE
  5
5E9
100
AcDbEntity
  8
02___PRT_ALL_AXES
100
AcDbSpline
 62
7
  6
CONTINUOUS
 70
0
 71
3
 72
9
 73
5
 74
0
 42
0.0000001
 43
0.0000001
 44
0.0000000001
 40
0.0
 40
0.0
 40
0.0
 40
0.0
 40
0.2777279852
 40
1.0
 40
1.0
 40
1.0
 40
1.0
 10
69.1934430747
 20
37.7155481351
 30
0.0
 10
69.1995765879
 20
37.7119951064
 30
0.0
 10
69.2222151822
 20
37.7003513109
 30
0.0
 10
69.2480372051
 20
37.6936291583
 30
0.0
 10
69.2664603403
 20
37.6942664667
 30
0.0
  0
SPLINE
  5
5EA
100
AcDbEntity
  8
02___PRT_ALL_AXES
100
AcDbSpline
 62
7
  6
CONTINUOUS
 70
0
 71
3
 72
12
 73
8
 74
0
 42
0.0000001
 43
0.0000001
 44
0.0000000001
 40
0.0
 40
0.0
 40
0.0
 40
0.0
 40
0.2017515568
 40
0.3258990846
 40
0.4613004699
 40
0.7429940946
 40
1.0
 40
1.0
 40
1.0
 40
1.0
 10
69.0566678442
 20
34.0365811558
 30
0.0
 10
69.0422329187
 20
34.0140355363
 30
0.0
 10
69.0348549013
 20
33.9681411701
 30
0.0
 10
69.0430474784
 20
33.9076917345
 30
0.0
 10
69.0647185173
 20
33.8387435947
 30
0.0
 10
69.1104852252
 20
33.7606467542
 30
0.0
 10
69.1639341319
 20
33.7104892073
 30
0.0
 10
69.1934430747
 20
33.6933952323
 30
0.0
  0
LINE
  5
5EB
100
AcDbEntity
  8
02___PRT_ALL_AXES
100
AcDbLine
 62
7
  6
CONTINUOUS
 10
68.3485904953
 20
34.4324093463
 11
68.3514031802
 21
34.4314486141
  0
SPLINE
  5
5EC
100
AcDbEntity
  8
02___PRT_ALL_AXES
100
AcDbSpline
 62
7
  6
CONTINUOUS
 70
0
 71
3
 72
9
 73
5
 74
0
 42
0.0000001
 43
0.0000001
 44
0.0000000001
 40
0.0
 40
0.0
 40
0.0
 40
0.0
 40
0.2777279852
 40
1.0
 40
1.0
 40
1.0
 40
1.0
 10
69.1934430747
 20
33.6933952323
 30
0.0
 10
69.1995765879
 20
33.6898422036
 30
0.0
 10
69.2222151822
 20
33.6781984081
 30
0.0
 10
69.2480372051
 20
33.6714762554
 30
0.0
 10
69.2664603403
 20
33.6721135639
 30
0.0
  0
SPLINE
  5
5ED
100
AcDbEntity
  8
0
100
AcDbSpline
 62
7
  6
CONTINUOUS
 70
0
 71
3
 72
9
 73
5
 74
0
 42
0.0000001
 43
0.0000001
 44
0.0000000001
 40
0.0
 40
0.0
 40
0.0
 40
0.0
 40
0.5511520512
 40
1.0
 40
1.0
 40
1.0
 40
1.0
 10
68.0021182748
 20
42.0767363725
 30
0.0
 10
68.0116188694
 20
42.0822398881
 30
0.0
 10
68.0305917526
 20
42.0901637641
 30
0.0
 10
68.0518110742
 20
42.0869663577
 30
0.0
 10
68.059548158
 20
42.0824843572
 30
0.0
  0
SPLINE
  5
5EE
100
AcDbEntity
  8
0
100
AcDbSpline
 62
7
  6
CONTINUOUS
 70
0
 71
3
 72
9
 73
5
 74
0
 42
0.0000001
 43
0.0000001
 44
0.0000000001
 40
0.0
 40
0.0
 40
0.0
 40
0.0
 40
0.5182496094
 40
1.0
 40
1.0
 40
1.0
 40
1.0
 10
70.3776048185
 20
29.6920375553
 30
0.0
 10
70.3936196066
 20
29.7081720179
 30
0.0
 10
70.4184763063
 20
29.7453573089
 30
0.0
 10
70.4304134186
 20
29.78904452
 30
0.0
 10
70.4304134186
 20
29.810176586
 30
0.0
  0
SPLINE
  5
5EF
100
AcDbEntity
  8
0
100
AcDbSpline
 62
7
  6
CONTINUOUS
 70
0
 71
3
 72
9
 73
5
 74
0
 42
0.0000001
 43
0.0000001
 44
0.0000000001
 40
0.0
 40
0.0
 40
0.0
 40
0.0
 40
0.5503621472
 40
1.0
 40
1.0
 40
1.0
 40
1.0
 10
70.4304134186
 20
29.8540607753
 30
0.0
 10
70.4398942207
 20
29.8595528255
 30
0.0
 10
70.4561841255
 20
29.8720788485
 30
0.0
 10
70.4639705667
 20
29.8920397368
 30
0.0
 10
70.4639705667
 20
29.9009911619
 30
0.0
  0
SPLINE
  5
5F0
100
AcDbEntity
  8
0
100
AcDbSpline
 62
7
  6
CONTINUOUS
 70
0
 71
3
 72
9
 73
5
 74
0
 42
0.0000001
 43
0.0000001
 44
0.0000000001
 40
0.0
 40
0.0
 40
0.0
 40
0.0
 40
0.5511545544
 40
1.0
 40
1.0
 40
1.0
 40
1.0
 10
62.5652799202
 20
25.1606617479
 30
0.0
 10
62.5728466541
 20
25.1562784814
 30
0.0
 10
62.5879573296
 20
25.1499674643
 30
0.0
 10
62.6048575042
 20
25.1525133289
 30
0.0
 10
62.6110196619
 20
25.1560829205
 30
0.0
  0
SPLINE
  5
5F1
100
AcDbEntity
  8
0
100
AcDbSpline
 62
7
  6
CONTINUOUS
 70
0
 71
3
 72
11
 73
7
 74
0
 42
0.0000001
 43
0.0000001
 44
0.0000000001
 40
0.0
 40
0.0
 40
0.0
 40
0.0
 40
0.3073576099
 40
0.5852327894
 40
0.8139742976
 40
1.0
 40
1.0
 40
1.0
 40
1.0
 10
60.1730902827
 20
26.5673847507
 30
0.0
 10
60.1670832021
 20
26.5775762568
 30
0.0
 10
60.157717322
 20
26.5983313113
 30
0.0
 10
60.1519990722
 20
26.6294556569
 30
0.0
 10
60.1554190947
 20
26.6566180249
 30
0.0
 10
60.1660642576
 20
26.6701514169
 30
0.0
 10
60.1722599006
 20
26.6737404058
 30
0.0
  0
SPLINE
  5
5F2
100
AcDbEntity
  8
0
100
AcDbSpline
 62
7
  6
CONTINUOUS
 70
0
 71
3
 72
9
 73
5
 74
0
 42
0.0000001
 43
0.0000001
 44
0.0000000001
 40
0.0
 40
0.0
 40
0.0
 40
0.0
 40
0.5511545544
 40
1.0
 40
1.0
 40
1.0
 40
1.0
 10
67.9662709889
 20
42.0559707147
 30
0.0
 10
67.958704255
 20
42.0603539812
 30
0.0
 10
67.9435935794
 20
42.0666649983
 30
0.0
 10
67.9266934049
 20
42.0641191337
 30
0.0
 10
67.9205312471
 20
42.0605495421
 30
0.0
  0
SPLINE
  5
5F3
100
AcDbEntity
  8
02___PRT_ALL_AXES
100
AcDbSpline
 62
7
  6
CONTINUOUS
 70
0
 71
3
 72
9
 73
5
 74
0
 42
0.0000001
 43
0.0000001
 44
0.0000000001
 40
0.0
 40
0.0
 40
0.0
 40
0.0
 40
0.2583705928
 40
1.0
 40
1.0
 40
1.0
 40
1.0
 10
69.101435041
 20
33.9991341959
 30
0.0
 10
69.101435041
 20
34.0015938021
 30
0.0
 10
69.1016058038
 20
34.0111119237
 30
0.0
 10
69.1024762435
 20
34.0206236458
 30
0.0
 10
69.1035877297
 20
34.0275956817
 30
0.0
  0
SPLINE
  5
5F4
100
AcDbEntity
  8
02___PRT_ALL_AXES
100
AcDbSpline
 62
7
  6
CONTINUOUS
 70
0
 71
3
 72
9
 73
5
 74
0
 42
0.0000001
 43
0.0000001
 44
0.0000000001
 40
0.0
 40
0.0
 40
0.0
 40
0.0
 40
0.2583705928
 40
1.0
 40
1.0
 40
1.0
 40
1.0
 10
69.101435041
 20
36.0102106473
 30
0.0
 10
69.101435041
 20
36.0126702535
 30
0.0
 10
69.1016058038
 20
36.0221883751
 30
0.0
 10
69.1024762435
 20
36.0317000972
 30
0.0
 10
69.1035877297
 20
36.0386721331
 30
0.0
  0
SPLINE
  5
5F5
100
AcDbEntity
  8
02___PRT_ALL_AXES
100
AcDbSpline
 62
7
  6
CONTINUOUS
 70
0
 71
3
 72
9
 73
5
 74
0
 42
0.0000001
 43
0.0000001
 44
0.0000000001
 40
0.0
 40
0.0
 40
0.0
 40
0.0
 40
0.2583705928
 40
1.0
 40
1.0
 40
1.0
 40
1.0
 10
69.101435041
 20
38.0212870987
 30
0.0
 10
69.101435041
 20
38.0237467049
 30
0.0
 10
69.1016058038
 20
38.0332648265
 30
0.0
 10
69.1024762435
 20
38.0427765486
 30
0.0
 10
69.1035877297
 20
38.0497485845
 30
0.0
  0
SPLINE
  5
5F6
100
AcDbEntity
  8
02___PRT_ALL_AXES
100
AcDbSpline
 62
7
  6
CONTINUOUS
 70
0
 71
3
 72
11
 73
7
 74
0
 42
0.0000001
 43
0.0000001
 44
0.0000000001
 40
0.0
 40
0.0
 40
0.0
 40
0.0
 40
0.2895174944
 40
0.5486773052
 40
0.781979841
 40
1.0
 40
1.0
 40
1.0
 40
1.0
 10
60.6139926601
 20
36.2710737717
 30
0.0
 10
60.6228957966
 20
36.2762311911
 30
0.0
 10
60.6390463241
 20
36.2873866385
 30
0.0
 10
60.6583307947
 20
36.3077385197
 30
0.0
 10
60.670536204
 20
36.3302349231
 30
0.0
 10
60.6733858905
 20
36.3463821056
 30
0.0
 10
60.6733862427
 20
36.3541302491
 30
0.0
  0
SPLINE
  5
5F7
100
AcDbEntity
  8
02___PRT_ALL_AXES
100
AcDbSpline
 62
7
  6
CONTINUOUS
 70
0
 71
3
 72
11
 73
7
 74
0
 42
0.0000001
 43
0.0000001
 44
0.0000000001
 40
0.0
 40
0.0
 40
0.0
 40
0.0
 40
0.2895174944
 40
0.5486773052
 40
0.781979841
 40
1.0
 40
1.0
 40
1.0
 40
1.0
 10
59.6580650374
 20
35.7173228977
 30
0.0
 10
59.6669681738
 20
35.7224803171
 30
0.0
 10
59.6831187013
 20
35.7336357645
 30
0.0
 10
59.7024031719
 20
35.7539876457
 30
0.0
 10
59.7146085812
 20
35.7764840491
 30
0.0
 10
59.7174582677
 20
35.7926312316
 30
0.0
 10
59.7174586199
 20
35.8003793751
 30
0.0
  0
SPLINE
  5
5F8
100
AcDbEntity
  8
02___PRT_ALL_AXES
100
AcDbSpline
 62
7
  6
CONTINUOUS
 70
0
 71
3
 72
9
 73
5
 74
0
 42
0.0000001
 43
0.0000001
 44
0.0000000001
 40
0.0
 40
0.0
 40
0.0
 40
0.0
 40
0.2761000621
 40
1.0
 40
1.0
 40
1.0
 40
1.0
 10
60.3272143733
 20
25.3900530475
 30
0.0
 10
60.3218050168
 20
25.3869195091
 30
0.0
 10
60.3028223523
 20
25.3746654488
 30
0.0
 10
60.2861423377
 20
25.3580376725
 30
0.0
 10
60.2780309737
 20
25.3437950579
 30
0.0
  0
SPLINE
  5
5F9
100
AcDbEntity
  8
02___PRT_ALL_AXES
100
AcDbSpline
 62
7
  6
CONTINUOUS
 70
0
 71
3
 72
9
 73
5
 74
0
 42
0.0000001
 43
0.0000001
 44
0.0000000001
 40
0.0
 40
0.0
 40
0.0
 40
0.0
 40
0.2761000621
 40
1.0
 40
1.0
 40
1.0
 40
1.0
 10
59.3712867505
 20
24.8363021735
 30
0.0
 10
59.365877394
 20
24.8331686351
 30
0.0
 10
59.3468947295
 20
24.8209145748
 30
0.0
 10
59.3302147149
 20
24.8042867985
 30
0.0
 10
59.3221033509
 20
24.7900441839
 30
0.0
  0
SPLINE
  5
5FA
100
AcDbEntity
  8
0
100
AcDbSpline
 62
7
  6
CONTINUOUS
 70
0
 71
3
 72
18
 73
14
 74
0
 42
0.0000001
 43
0.0000001
 44
0.0000000001
 40
0.0
 40
0.0
 40
0.0
 40
0.0
 40
0.0429583565
 40
0.0876731788
 40
0.1355703389
 40
0.1875722166
 40
0.2440901939
 40
0.3051000172
 40
0.4386862967
 40
0.5828996218
 40
0.7299096921
 40
0.8713812517
 40
1.0
 40
1.0
 40
1.0
 40
1.0
 10
57.9182284554
 20
24.7899146735
 30
0.0
 10
57.9182289165
 20
24.7425090599
 30
0.0
 10
57.9308580836
 20
24.6453500266
 30
0.0
 10
57.9863946937
 20
24.5050356595
 30
0.0
 10
58.0765258393
 20
24.3720052687
 30
0.0
 10
58.1986965234
 20
24.2489021779
 30
0.0
 10
58.3500906148
 20
24.1378879487
 30
0.0
 10
58.5939403416
 20
24.0048762664
 30
0.0
 10
58.9512896014
 20
23.8851018223
 30
0.0
 10
59.4176254541
 20
23.8194065135
 30
0.0
 10
59.897289484
 20
23.8326996125
 30
0.0
 10
60.3506914135
 20
23.9237542518
 30
0.0
 10
60.6288306176
 20
24.0389131257
 30
0.0
 10
60.7516462378
 20
24.1100579022
 30
0.0
  0
SPLINE
  5
5FB
100
AcDbEntity
  8
0
100
AcDbSpline
 62
7
  6
CONTINUOUS
 70
0
 71
3
 72
11
 73
7
 74
0
 42
0.0000001
 43
0.0000001
 44
0.0000000001
 40
0.0
 40
0.0
 40
0.0
 40
0.0
 40
0.2180205344
 40
0.4513190261
 40
0.7104897141
 40
1.0
 40
1.0
 40
1.0
 40
1.0
 10
57.9182284554
 20
35.83706066
 30
0.0
 10
57.9182278385
 20
35.900483765
 30
0.0
 10
57.9415388322
 20
36.0326586375
 30
0.0
 10
58.0414346267
 20
36.2168157186
 30
0.0
 10
58.1992899708
 20
36.383407461
 30
0.0
 10
58.3314904997
 20
36.4747237777
 30
0.0
 10
58.4043659601
 20
36.5169391598
 30
0.0
  0
SPLINE
  5
5FC
100
AcDbEntity
  8
02___PRT_ALL_AXES
100
AcDbSpline
 62
7
  6
CONTINUOUS
 70
0
 71
3
 72
12
 73
8
 74
0
 42
0.0000001
 43
0.0000001
 44
0.0000000001
 40
0.0
 40
0.0
 40
0.0
 40
0.0
 40
0.203993138
 40
0.3286174021
 40
0.4639651224
 40
0.7444337272
 40
1.0
 40
1.0
 40
1.0
 40
1.0
 10
59.707513066
 20
24.7895758898
 30
0.0
 10
59.695360411
 20
24.8112166013
 30
0.0
 10
59.6617186336
 20
24.8376266097
 30
0.0
 10
59.6094391202
 20
24.8584759566
 30
0.0
 10
59.5447683007
 20
24.8723993144
 30
0.0
 10
59.4621167405
 20
24.8715011867
 30
0.0
 10
59.3981926902
 20
24.8518882778
 30
0.0
 10
59.3712867505
 20
24.8363021735
 30
0.0
  0
SPLINE
  5
5FD
100
AcDbEntity
  8
02___PRT_ALL_AXES
100
AcDbSpline
 62
7
  6
CONTINUOUS
 70
0
 71
3
 72
15
 73
11
 74
0
 42
0.0000001
 43
0.0000001
 44
0.0000000001
 40
0.0
 40
0.0
 40
0.0
 40
0.0
 40
0.0871429469
 40
0.1867395101
 40
0.3041583559
 40
0.4379242546
 40
0.5823326716
 40
0.7295423987
 40
0.8712063409
 40
1.0
 40
1.0
 40
1.0
 40
1.0
 10
59.3118931679
 20
35.8003916826
 30
0.0
 10
59.3118926346
 20
35.7886584373
 30
0.0
 10
59.3189396809
 20
35.7632831075
 30
0.0
 10
59.3465172985
 20
35.7317957313
 30
0.0
 10
59.3872425539
 20
35.7068916642
 30
0.0
 10
59.4380859337
 20
35.6898442537
 30
0.0
 10
59.4950810059
 20
35.6818117059
 30
0.0
 10
59.5536799573
 20
35.6834365667
 30
0.0
 10
59.6090772979
 20
35.6945606541
 30
0.0
 10
59.6430596365
 20
35.7086305515
 30
0.0
 10
59.6580650374
 20
35.7173228977
 30
0.0
  0
SPLINE
  5
5FE
100
AcDbEntity
  8
02___PRT_ALL_AXES
100
AcDbSpline
 62
7
  6
CONTINUOUS
 70
0
 71
3
 72
12
 73
8
 74
0
 42
0.0000001
 43
0.0000001
 44
0.0000000001
 40
0.0
 40
0.0
 40
0.0
 40
0.0
 40
0.203993138
 40
0.3286174021
 40
0.4639651224
 40
0.7444337272
 40
1.0
 40
1.0
 40
1.0
 40
1.0
 10
60.6634406888
 20
25.3433267638
 30
0.0
 10
60.6512880337
 20
25.3649674753
 30
0.0
 10
60.6176462563
 20
25.3913774837
 30
0.0
 10
60.565366743
 20
25.4122268306
 30
0.0
 10
60.5006959235
 20
25.4261501884
 30
0.0
 10
60.4180443633
 20
25.4252520607
 30
0.0
 10
60.354120313
 20
25.4056391518
 30
0.0
 10
60.3272143733
 20
25.3900530475
 30
0.0
  0
SPLINE
  5
5FF
100
AcDbEntity
  8
02___PRT_ALL_AXES
100
AcDbSpline
 62
7
  6
CONTINUOUS
 70
0
 71
3
 72
15
 73
11
 74
0
 42
0.0000001
 43
0.0000001
 44
0.0000000001
 40
0.0
 40
0.0
 40
0.0
 40
0.0
 40
0.0871429469
 40
0.1867395101
 40
0.3041583559
 40
0.4379242546
 40
0.5823326716
 40
0.7295423987
 40
0.8712063409
 40
1.0
 40
1.0
 40
1.0
 40
1.0
 10
60.2678207907
 20
36.3541425566
 30
0.0
 10
60.2678202574
 20
36.3424093113
 30
0.0
 10
60.2748673037
 20
36.3170339815
 30
0.0
 10
60.3024449213
 20
36.2855466053
 30
0.0
 10
60.3431701767
 20
36.2606425382
 30
0.0
 10
60.3940135565
 20
36.2435951277
 30
0.0
 10
60.4510086286
 20
36.2355625799
 30
0.0
 10
60.5096075801
 20
36.2371874407
 30
0.0
 10
60.5650049207
 20
36.2483115281
 30
0.0
 10
60.5989872593
 20
36.2623814255
 30
0.0
 10
60.6139926601
 20
36.2710737717
 30
0.0
  0
SPLINE
  5
600
100
AcDbEntity
  8
02___PRT_ALL_AXES
100
AcDbSpline
 62
7
  6
CONTINUOUS
 70
0
 71
3
 72
9
 73
5
 74
0
 42
0.0000001
 43
0.0000001
 44
0.0000000001
 40
0.0
 40
0.0
 40
0.0
 40
0.0
 40
0.5237667021
 40
1.0
 40
1.0
 40
1.0
 40
1.0
 10
69.7309602842
 20
30.983286295
 30
0.0
 10
69.7138236064
 20
31.0056117783
 30
0.0
 10
69.6872536931
 20
31.0531268868
 30
0.0
 10
69.6749916147
 20
31.1067863832
 30
0.0
 10
69.6749916147
 20
31.1323763629
 30
0.0
  0
SPLINE
  5
601
100
AcDbEntity
  8
02___PRT_ALL_AXES
100
AcDbSpline
 62
7
  6
CONTINUOUS
 70
0
 71
3
 72
11
 73
7
 74
0
 42
0.0000001
 43
0.0000001
 44
0.0000000001
 40
0.0
 40
0.0
 40
0.0
 40
0.0
 40
0.2410655723
 40
0.5039840602
 40
0.7647501235
 40
1.0
 40
1.0
 40
1.0
 40
1.0
 10
68.7118735772
 20
31.5527973619
 30
0.0
 10
68.6957404719
 20
31.5632644566
 30
0.0
 10
68.6654773779
 20
31.5905709123
 30
0.0
 10
68.6302352371
 20
31.6408858759
 30
0.0
 10
68.6063581166
 20
31.6969797492
 30
0.0
 10
68.599573039
 20
31.7365788961
 30
0.0
 10
68.599573039
 20
31.7553460961
 30
0.0
  0
SPLINE
  5
602
100
AcDbEntity
  8
02___PRT_ALL_AXES
100
AcDbSpline
 62
7
  6
CONTINUOUS
 70
0
 71
3
 72
9
 73
5
 74
0
 42
0.0000001
 43
0.0000001
 44
0.0000000001
 40
0.0
 40
0.0
 40
0.0
 40
0.0
 40
0.5237667021
 40
1.0
 40
1.0
 40
1.0
 40
1.0
 10
69.7309602842
 20
39.330631018
 30
0.0
 10
69.7138236064
 20
39.3529565012
 30
0.0
 10
69.6872536931
 20
39.4004716098
 30
0.0
 10
69.6749916147
 20
39.4541311062
 30
0.0
 10
69.6749916147
 20
39.4797210858
 30
0.0
  0
SPLINE
  5
603
100
AcDbEntity
  8
0
100
AcDbSpline
 62
7
  6
CONTINUOUS
 70
0
 71
3
 72
9
 73
5
 74
0
 42
0.0000001
 43
0.0000001
 44
0.0000000001
 40
0.0
 40
0.0
 40
0.0
 40
0.0
 40
0.2293731264
 40
1.0
 40
1.0
 40
1.0
 40
1.0
 10
70.3135512667
 20
40.6962354436
 30
0.0
 10
70.3178403547
 20
40.6937508557
 30
0.0
 10
70.3355998082
 20
40.6813176434
 30
0.0
 10
70.3496593469
 20
40.6640583848
 30
0.0
 10
70.3581676715
 20
40.6497426727
 30
0.0
  0
SPLINE
  5
604
100
AcDbEntity
  8
0
100
AcDbSpline
 62
7
  6
CONTINUOUS
 70
0
 71
3
 72
11
 73
7
 74
0
 42
0.0000001
 43
0.0000001
 44
0.0000000001
 40
0.0
 40
0.0
 40
0.0
 40
0.0
 40
0.3072604689
 40
0.5852799411
 40
0.814104993
 40
1.0
 40
1.0
 40
1.0
 40
1.0
 10
70.3581676715
 20
40.6497426727
 30
0.0
 10
70.3642396113
 20
40.6395263086
 30
0.0
 10
70.3737181371
 20
40.6186956212
 30
0.0
 10
70.3795516448
 20
40.5874292602
 30
0.0
 10
70.3761910278
 20
40.5601188437
 30
0.0
 10
70.3655127498
 20
40.5464961638
 30
0.0
 10
70.3592910085
 20
40.5428920568
 30
0.0
  0
SPLINE
  5
605
100
AcDbEntity
  8
02___PRT_ALL_AXES
100
AcDbSpline
 62
7
  6
CONTINUOUS
 70
0
 71
3
 72
11
 73
7
 74
0
 42
0.0000001
 43
0.0000001
 44
0.0000000001
 40
0.0
 40
0.0
 40
0.0
 40
0.0
 40
0.226265884
 40
0.4886746103
 40
0.757385373
 40
1.0
 40
1.0
 40
1.0
 40
1.0
 10
69.2828268548
 20
33.7175255625
 30
0.0
 10
69.2581388205
 20
33.7269843399
 30
0.0
 10
69.2098055928
 20
33.7600908199
 30
0.0
 10
69.1530549415
 20
33.828991041
 30
0.0
 10
69.1132173375
 20
33.9110299258
 30
0.0
 10
69.101435041
 20
33.9707859365
 30
0.0
 10
69.101435041
 20
33.9991341959
 30
0.0
  0
SPLINE
  5
606
100
AcDbEntity
  8
02___PRT_ALL_AXES
100
AcDbSpline
 62
7
  6
CONTINUOUS
 70
0
 71
3
 72
11
 73
7
 74
0
 42
0.0000001
 43
0.0000001
 44
0.0000000001
 40
0.0
 40
0.0
 40
0.0
 40
0.0
 40
0.226265884
 40
0.4886746103
 40
0.757385373
 40
1.0
 40
1.0
 40
1.0
 40
1.0
 10
69.2828268548
 20
35.7286020139
 30
0.0
 10
69.2581388205
 20
35.7380607913
 30
0.0
 10
69.2098055928
 20
35.7711672713
 30
0.0
 10
69.1530549415
 20
35.8400674924
 30
0.0
 10
69.1132173375
 20
35.9221063772
 30
0.0
 10
69.101435041
 20
35.9818623879
 30
0.0
 10
69.101435041
 20
36.0102106473
 30
0.0
  0
SPLINE
  5
607
100
AcDbEntity
  8
02___PRT_ALL_AXES
100
AcDbSpline
 62
7
  6
CONTINUOUS
 70
0
 71
3
 72
11
 73
7
 74
0
 42
0.0000001
 43
0.0000001
 44
0.0000000001
 40
0.0
 40
0.0
 40
0.0
 40
0.0
 40
0.226265884
 40
0.4886746103
 40
0.757385373
 40
1.0
 40
1.0
 40
1.0
 40
1.0
 10
69.2828268548
 20
37.7396784653
 30
0.0
 10
69.2581388205
 20
37.7491372427
 30
0.0
 10
69.2098055928
 20
37.7822437227
 30
0.0
 10
69.1530549415
 20
37.8511439438
 30
0.0
 10
69.1132173375
 20
37.9331828286
 30
0.0
 10
69.101435041
 20
37.9929388393
 30
0.0
 10
69.101435041
 20
38.0212870987
 30
0.0
  0
SPLINE
  5
608
100
AcDbEntity
  8
0
100
AcDbSpline
 62
7
  6
CONTINUOUS
 70
0
 71
3
 72
9
 73
5
 74
0
 42
0.0000001
 43
0.0000001
 44
0.0000000001
 40
0.0
 40
0.0
 40
0.0
 40
0.0
 40
0.4488454456
 40
1.0
 40
1.0
 40
1.0
 40
1.0
 10
62.6110196619
 20
36.0544643476
 30
0.0
 10
62.6048575042
 20
36.0508947559
 30
0.0
 10
62.5879573296
 20
36.0483488914
 30
0.0
 10
62.5728466541
 20
36.0546599085
 30
0.0
 10
62.5652799202
 20
36.059043175
 30
0.0
  0
SPLINE
  5
609
100
AcDbEntity
  8
0
100
AcDbSpline
 62
7
  6
CONTINUOUS
 70
0
 71
3
 72
9
 73
5
 74
0
 42
0.0000001
 43
0.0000001
 44
0.0000000001
 40
0.0
 40
0.0
 40
0.0
 40
0.0
 40
0.4488811829
 40
1.0
 40
1.0
 40
1.0
 40
1.0
 10
60.1722599006
 20
37.5721218329
 30
0.0
 10
60.1661011826
 20
37.5685542338
 30
0.0
 10
60.155488571
 20
37.5551730411
 30
0.0
 10
60.1534404762
 20
37.5389363862
 30
0.0
 10
60.1534752062
 20
37.5301979727
 30
0.0
  0
SPLINE
  5
60A
100
AcDbEntity
  8
0
100
AcDbSpline
 62
7
  6
CONTINUOUS
 70
0
 71
3
 72
9
 73
5
 74
0
 42
0.0000001
 43
0.0000001
 44
0.0000000001
 40
0.0
 40
0.0
 40
0.0
 40
0.0
 40
0.4488454456
 40
1.0
 40
1.0
 40
1.0
 40
1.0
 10
67.9205312471
 20
31.1621681151
 30
0.0
 10
67.9266934049
 20
31.1657377067
 30
0.0
 10
67.9435935794
 20
31.1682835712
 30
0.0
 10
67.958704255
 20
31.1619725542
 30
0.0
 10
67.9662709889
 20
31.1575892877
 30
0.0
  0
SPLINE
  5
60B
100
AcDbEntity
  8
0
100
AcDbSpline
 62
7
  6
CONTINUOUS
 70
0
 71
3
 72
13
 73
9
 74
0
 42
0.0000001
 43
0.0000001
 44
0.0000000001
 40
0.0
 40
0.0
 40
0.0
 40
0.0
 40
0.0867899286
 40
0.1848949257
 40
0.299721778
 40
0.430687784
 40
0.7199971735
 40
1.0
 40
1.0
 40
1.0
 40
1.0
 10
70.3592910085
 20
29.6445106298
 30
0.0
 10
70.3635527269
 20
29.646979342
 30
0.0
 10
70.3713358168
 20
29.6546689455
 30
0.0
 10
70.3774858797
 20
29.6709046278
 30
0.0
 10
70.3787469795
 20
29.6905879846
 30
0.0
 10
70.3739026785
 20
29.7207565323
 30
0.0
 10
70.3571698076
 20
29.7575462719
 30
0.0
 10
70.3353740456
 20
29.7823885717
 30
0.0
 10
70.3226183121
 20
29.7918631087
 30
0.0
  0
SPLINE
  5
60C
100
AcDbEntity
  8
0
100
AcDbSpline
 62
7
  6
CONTINUOUS
 70
0
 71
3
 72
9
 73
5
 74
0
 42
0.0000001
 43
0.0000001
 44
0.0000000001
 40
0.0
 40
0.0
 40
0.0
 40
0.0
 40
0.4496378528
 40
1.0
 40
1.0
 40
1.0
 40
1.0
 10
70.4639705667
 20
40.4858650544
 30
0.0
 10
70.4639705667
 20
40.4948164795
 30
0.0
 10
70.4561841255
 20
40.5147773678
 30
0.0
 10
70.4398942207
 20
40.5273033908
 30
0.0
 10
70.4304134186
 20
40.532795441
 30
0.0
  0
SPLINE
  5
60D
100
AcDbEntity
  8
0
100
AcDbSpline
 62
7
  6
CONTINUOUS
 70
0
 71
3
 72
9
 73
5
 74
0
 42
0.0000001
 43
0.0000001
 44
0.0000000001
 40
0.0
 40
0.0
 40
0.0
 40
0.0
 40
0.4492707432
 40
1.0
 40
1.0
 40
1.0
 40
1.0
 10
70.4068284358
 20
40.7227490861
 30
0.0
 10
70.414513347
 20
40.7182973085
 30
0.0
 10
70.4277752066
 20
40.7016573224
 30
0.0
 10
70.4304134186
 20
40.6814272715
 30
0.0
 10
70.4304134186
 20
40.6705404034
 30
0.0
  0
SPLINE
  5
60E
100
AcDbEntity
  8
0
100
AcDbSpline
 62
7
  6
CONTINUOUS
 70
0
 71
3
 72
9
 73
5
 74
0
 42
0.0000001
 43
0.0000001
 44
0.0000000001
 40
0.0
 40
0.0
 40
0.0
 40
0.0
 40
0.5511423101
 40
1.0
 40
1.0
 40
1.0
 40
1.0
 10
69.9671332119
 20
40.938440216
 30
0.0
 10
69.9766307238
 20
40.9439419426
 30
0.0
 10
69.995596904
 20
40.9518634149
 30
0.0
 10
70.0168093
 20
40.9486746222
 30
0.0
 10
70.0245464546
 20
40.9441978347
 30
0.0
  0
SPLINE
  5
60F
100
AcDbEntity
  8
0
100
AcDbSpline
 62
7
  6
CONTINUOUS
 70
0
 71
3
 72
9
 73
5
 74
0
 42
0.0000001
 43
0.0000001
 44
0.0000000001
 40
0.0
 40
0.0
 40
0.0
 40
0.0
 40
0.5511520512
 40
1.0
 40
1.0
 40
1.0
 40
1.0
 10
70.3493985525
 20
40.7170011014
 30
0.0
 10
70.3588991472
 20
40.722504617
 30
0.0
 10
70.3778720304
 20
40.7304284929
 30
0.0
 10
70.3990913519
 20
40.7272310866
 30
0.0
 10
70.4068284358
 20
40.7227490861
 30
0.0
  0
SPLINE
  5
610
100
AcDbEntity
  8
0
100
AcDbSpline
 62
7
  6
CONTINUOUS
 70
0
 71
3
 72
9
 73
5
 74
0
 42
0.0000001
 43
0.0000001
 44
0.0000000001
 40
0.0
 40
0.0
 40
0.0
 40
0.0
 40
0.4708914316
 40
1.0
 40
1.0
 40
1.0
 40
1.0
 10
69.7103228458
 20
41.0485347062
 30
0.0
 10
69.7116129531
 20
41.0356469457
 30
0.0
 10
69.7074060704
 20
41.0073982115
 30
0.0
 10
69.6928147328
 20
40.9834570624
 30
0.0
 10
69.6838280339
 20
40.972009671
 30
0.0
  0
SPLINE
  5
611
100
AcDbEntity
  8
0
100
AcDbSpline
 62
7
  6
CONTINUOUS
 70
0
 71
3
 72
9
 73
5
 74
0
 42
0.0000001
 43
0.0000001
 44
0.0000000001
 40
0.0
 40
0.0
 40
0.0
 40
0.0
 40
0.4708914316
 40
1.0
 40
1.0
 40
1.0
 40
1.0
 10
68.5154133173
 20
41.7407232987
 30
0.0
 10
68.5167034247
 20
41.7278355382
 30
0.0
 10
68.512496542
 20
41.699586804
 30
0.0
 10
68.4979052043
 20
41.6756456549
 30
0.0
 10
68.4889185054
 20
41.6641982635
 30
0.0
  0
SPLINE
  5
612
100
AcDbEntity
  8
0
100
AcDbSpline
 62
7
  6
CONTINUOUS
 70
0
 71
3
 72
9
 73
5
 74
0
 42
0.0000001
 43
0.0000001
 44
0.0000000001
 40
0.0
 40
0.0
 40
0.0
 40
0.0
 40
0.5511545544
 40
1.0
 40
1.0
 40
1.0
 40
1.0
 10
60.2179996424
 20
37.5675430055
 30
0.0
 10
60.2104329085
 20
37.571926272
 30
0.0
 10
60.1953222329
 20
37.578237289
 30
0.0
 10
60.1784220584
 20
37.5756914245
 30
0.0
 10
60.1722599006
 20
37.5721218329
 30
0.0
  0
SPLINE
  5
613
100
AcDbEntity
  8
0
100
AcDbSpline
 62
7
  6
CONTINUOUS
 70
0
 71
3
 72
9
 73
5
 74
0
 42
0.0000001
 43
0.0000001
 44
0.0000000001
 40
0.0
 40
0.0
 40
0.0
 40
0.0
 40
0.5503621472
 40
1.0
 40
1.0
 40
1.0
 40
1.0
 10
70.4304134186
 20
40.4389346679
 30
0.0
 10
70.4398942207
 20
40.4444267181
 30
0.0
 10
70.4561841255
 20
40.4569527411
 30
0.0
 10
70.4639705667
 20
40.4769136294
 30
0.0
 10
70.4639705667
 20
40.4858650544
 30
0.0
  0
SPLINE
  5
614
100
AcDbEntity
  8
0
100
AcDbSpline
 62
7
  6
CONTINUOUS
 70
0
 71
3
 72
9
 73
5
 74
0
 42
0.0000001
 43
0.0000001
 44
0.0000000001
 40
0.0
 40
0.0
 40
0.0
 40
0.0
 40
0.5511423101
 40
1.0
 40
1.0
 40
1.0
 40
1.0
 10
68.7722236834
 20
41.6306288086
 30
0.0
 10
68.7817211953
 20
41.6361305351
 30
0.0
 10
68.8006873755
 20
41.6440520074
 30
0.0
 10
68.8218997715
 20
41.6408632147
 30
0.0
 10
68.8296369261
 20
41.6363864272
 30
0.0
  0
SPLINE
  5
615
100
AcDbEntity
  8
0
100
AcDbSpline
 62
7
  6
CONTINUOUS
 70
0
 71
3
 72
13
 73
9
 74
0
 42
0.0000001
 43
0.0000001
 44
0.0000000001
 40
0.0
 40
0.0
 40
0.0
 40
0.0
 40
0.2701097174
 40
0.5616288731
 40
0.6957366555
 40
0.8133481465
 40
0.9129664739
 40
1.0
 40
1.0
 40
1.0
 40
1.0
 10
62.5652799202
 20
36.2078077344
 30
0.0
 10
62.5793769563
 20
36.1996415868
 30
0.0
 10
62.6041274
 20
36.1750044134
 30
0.0
 10
62.6235987893
 20
36.1370258729
 30
0.0
 10
62.6302545662
 20
36.1047264512
 30
0.0
 10
62.6297768586
 20
36.0833135125
 30
0.0
 10
62.6238023813
 20
36.0655350148
 30
0.0
 10
62.6155619546
 20
36.0570955898
 30
0.0
 10
62.6110196619
 20
36.0544643476
 30
0.0
  0
SPLINE
  5
616
100
AcDbEntity
  8
02___PRT_ALL_AXES
100
AcDbSpline
 62
7
  6
CONTINUOUS
 70
0
 71
3
 72
11
 73
7
 74
0
 42
0.0000001
 43
0.0000001
 44
0.0000000001
 40
0.0
 40
0.0
 40
0.0
 40
0.0
 40
0.2895174944
 40
0.5486773052
 40
0.781979841
 40
1.0
 40
1.0
 40
1.0
 40
1.0
 10
60.3272143733
 20
36.4371990339
 30
0.0
 10
60.3183112369
 20
36.4320416146
 30
0.0
 10
60.3021607094
 20
36.4208861672
 30
0.0
 10
60.2828762388
 20
36.400534286
 30
0.0
 10
60.2706708295
 20
36.3780378825
 30
0.0
 10
60.2678211429
 20
36.3618907001
 30
0.0
 10
60.2678207907
 20
36.3541425566
 30
0.0
  0
SPLINE
  5
617
100
AcDbEntity
  8
02___PRT_ALL_AXES
100
AcDbSpline
 62
7
  6
CONTINUOUS
 70
0
 71
3
 72
11
 73
7
 74
0
 42
0.0000001
 43
0.0000001
 44
0.0000000001
 40
0.0
 40
0.0
 40
0.0
 40
0.0
 40
0.2895174944
 40
0.5486773052
 40
0.781979841
 40
1.0
 40
1.0
 40
1.0
 40
1.0
 10
59.3712867505
 20
35.8834481599
 30
0.0
 10
59.3623836141
 20
35.8782907406
 30
0.0
 10
59.3462330866
 20
35.8671352932
 30
0.0
 10
59.326948616
 20
35.846783412
 30
0.0
 10
59.3147432067
 20
35.8242870085
 30
0.0
 10
59.3118935202
 20
35.8081398261
 30
0.0
 10
59.3118931679
 20
35.8003916826
 30
0.0
  0
SPLINE
  5
618
100
AcDbEntity
  8
0
100
AcDbSpline
 62
7
  6
CONTINUOUS
 70
0
 71
3
 72
12
 73
8
 74
0
 42
0.0000001
 43
0.0000001
 44
0.0000000001
 40
0.0
 40
0.0
 40
0.0
 40
0.0
 40
0.1160395946
 40
0.2433866301
 40
0.5075443871
 40
0.7630862412
 40
1.0
 40
1.0
 40
1.0
 40
1.0
 10
69.5402281494
 20
40.9109652802
 30
0.0
 10
69.5549994998
 20
40.9024105654
 30
0.0
 10
69.5885144777
 20
40.8887802986
 30
0.0
 10
69.6619846996
 20
40.8741028808
 30
0.0
 10
69.7581571027
 20
40.8752812053
 30
0.0
 10
69.8676718687
 20
40.8973638045
 30
0.0
 10
69.9357889228
 20
40.9232053371
 30
0.0
 10
69.9671332572
 20
40.9384401898
 30
0.0
  0
SPLINE
  5
619
100
AcDbEntity
  8
0
100
AcDbSpline
 62
7
  6
CONTINUOUS
 70
0
 71
3
 72
17
 73
13
 74
0
 42
0.0000001
 43
0.0000001
 44
0.0000000001
 40
0.0
 40
0.0
 40
0.0
 40
0.0
 40
0.3015534521
 40
0.4375059257
 40
0.5610675787
 40
0.669265052
 40
0.7166456256
 40
0.7594129531
 40
0.7993269546
 40
0.8431144232
 40
0.905019256
 40
1.0
 40
1.0
 40
1.0
 40
1.0
 10
68.4889187359
 20
41.6641988227
 30
0.0
 10
68.4777471835
 20
41.6627396352
 30
0.0
 10
68.4615852656
 20
41.6601114907
 30
0.0
 10
68.4412394181
 20
41.6549900753
 30
0.0
 10
68.4282212591
 20
41.6505704282
 30
0.0
 10
68.4187666063
 20
41.6460025859
 30
0.0
 10
68.4128226434
 20
41.6415254245
 30
0.0
 10
68.409570168
 20
41.6378540949
 30
0.0
 10
68.4077246814
 20
41.633328048
 30
0.0
 10
68.4086313355
 20
41.6276860169
 30
0.0
 10
68.413485175
 20
41.6216792903
 30
0.0
 10
68.4183765702
 20
41.6183786196
 30
0.0
 10
68.4214471174
 20
41.6165997522
 30
0.0
  0
SPLINE
  5
61A
100
AcDbEntity
  8
0
100
AcDbSpline
 62
7
  6
CONTINUOUS
 70
0
 71
3
 72
17
 73
13
 74
0
 42
0.0000001
 43
0.0000001
 44
0.0000000001
 40
0.0
 40
0.0
 40
0.0
 40
0.0
 40
0.127081583
 40
0.266678035
 40
0.4120783695
 40
0.5555655083
 40
0.6897443969
 40
0.8089305728
 40
0.8621665105
 40
0.9112481168
 40
0.9568207001
 40
1.0
 40
1.0
 40
1.0
 40
1.0
 10
60.7516462378
 20
35.1572038887
 30
0.0
 10
60.6329624566
 20
35.0884526087
 30
0.0
 10
60.3649935746
 20
34.9761644256
 30
0.0
 10
59.9277691988
 20
34.8842707657
 30
0.0
 10
59.4636106792
 20
34.8651837054
 30
0.0
 10
59.0081832991
 20
34.9205960297
 30
0.0
 10
58.596283333
 20
35.046128188
 30
0.0
 10
58.3034075006
 20
35.208213908
 30
0.0
 10
58.123562998
 20
35.3670916321
 30
0.0
 10
58.0227392628
 20
35.4919986733
 30
0.0
 10
57.9533052669
 20
35.6247581364
 30
0.0
 10
57.9289544858
 20
35.7185077364
 30
0.0
 10
57.9229344874
 20
35.7647206341
 30
0.0
  0
SPLINE
  5
61B
100
AcDbEntity
  8
02___PRT_ALL_AXES
100
AcDbSpline
 62
7
  6
CONTINUOUS
 70
0
 71
3
 72
15
 73
11
 74
0
 42
0.0000001
 43
0.0000001
 44
0.0000000001
 40
0.0
 40
0.0
 40
0.0
 40
0.0
 40
0.0871429469
 40
0.1867395101
 40
0.3041583559
 40
0.4379242546
 40
0.5823326716
 40
0.7295423987
 40
0.8712063409
 40
1.0
 40
1.0
 40
1.0
 40
1.0
 10
59.7174586199
 20
35.8003793751
 30
0.0
 10
59.7174591533
 20
35.8121126204
 30
0.0
 10
59.710412107
 20
35.8374879502
 30
0.0
 10
59.6828344893
 20
35.8689753263
 30
0.0
 10
59.642109234
 20
35.8938793935
 30
0.0
 10
59.5912658542
 20
35.9109268039
 30
0.0
 10
59.534270782
 20
35.9189593518
 30
0.0
 10
59.4756718305
 20
35.917334491
 30
0.0
 10
59.42027449
 20
35.9062104036
 30
0.0
 10
59.3862921514
 20
35.8921405061
 30
0.0
 10
59.3712867505
 20
35.8834481599
 30
0.0
  0
SPLINE
  5
61C
100
AcDbEntity
  8
0
100
AcDbSpline
 62
7
  6
CONTINUOUS
 70
0
 71
3
 72
14
 73
10
 74
0
 42
0.0000001
 43
0.0000001
 44
0.0000000001
 40
0.0
 40
0.0
 40
0.0
 40
0.0
 40
0.2761555852
 40
0.4008088856
 40
0.5169370022
 40
0.6270459117
 40
0.7373175346
 40
0.8582473429
 40
1.0
 40
1.0
 40
1.0
 40
1.0
 10
68.3843835866
 20
41.8552972745
 30
0.0
 10
68.3608252203
 20
41.8390323238
 30
0.0
 10
68.328497456
 20
41.8119865816
 30
0.0
 10
68.2962201311
 20
41.7689167343
 30
0.0
 10
68.2804259969
 20
41.7358009989
 30
0.0
 10
68.274133447
 20
41.7009246393
 30
0.0
 10
68.2804800568
 20
41.6652162402
 30
0.0
 10
68.3020630656
 20
41.6320118797
 30
0.0
 10
68.3242396496
 20
41.6153664268
 30
0.0
 10
68.3369542544
 20
41.6079991928
 30
0.0
  0
SPLINE
  5
61D
100
AcDbEntity
  8
0
100
AcDbSpline
 62
7
  6
CONTINUOUS
 70
0
 71
3
 72
12
 73
8
 74
0
 42
0.0000001
 43
0.0000001
 44
0.0000000001
 40
0.0
 40
0.0
 40
0.0
 40
0.0
 40
0.1160395946
 40
0.2433866301
 40
0.5075443871
 40
0.7630862412
 40
1.0
 40
1.0
 40
1.0
 40
1.0
 10
68.3453186209
 20
41.6031538727
 30
0.0
 10
68.3600899713
 20
41.5945991579
 30
0.0
 10
68.3936049492
 20
41.5809688911
 30
0.0
 10
68.4670751711
 20
41.5662914733
 30
0.0
 10
68.5632475742
 20
41.5674697978
 30
0.0
 10
68.6727623402
 20
41.589552397
 30
0.0
 10
68.7408793943
 20
41.6153939296
 30
0.0
 10
68.7722237287
 20
41.6306287823
 30
0.0
  0
SPLINE
  5
61E
100
AcDbEntity
  8
0
100
AcDbSpline
 62
7
  6
CONTINUOUS
 70
0
 71
3
 72
11
 73
7
 74
0
 42
0.0000001
 43
0.0000001
 44
0.0000000001
 40
0.0
 40
0.0
 40
0.0
 40
0.0
 40
0.2175015244
 40
0.4506303999
 40
0.7099951511
 40
1.0
 40
1.0
 40
1.0
 40
1.0
 10
68.4214471174
 20
41.6165997522
 30
0.0
 10
68.4158702076
 20
41.6197980185
 30
0.0
 10
68.4030544302
 20
41.6244048253
 30
0.0
 10
68.3817870872
 20
41.6248718878
 30
0.0
 10
68.3591173119
 20
41.6193471994
 30
0.0
 10
68.344371578
 20
41.6122959088
 30
0.0
 10
68.3369542543
 20
41.6079991928
 30
0.0
  0
SPLINE
  5
61F
100
AcDbEntity
  8
0
100
AcDbSpline
 62
7
  6
CONTINUOUS
 70
0
 71
3
 72
9
 73
5
 74
0
 42
0.0000001
 43
0.0000001
 44
0.0000000001
 40
0.0
 40
0.0
 40
0.0
 40
0.0
 40
0.4528941112
 40
1.0
 40
1.0
 40
1.0
 40
1.0
 10
68.4212373472
 20
41.6157555828
 30
0.0
 10
68.4100750402
 20
41.6198759963
 30
0.0
 10
68.3824266508
 20
41.6209017209
 30
0.0
 10
68.3577561769
 20
41.6103587162
 30
0.0
 10
68.345318621
 20
41.6031538727
 30
0.0
  0
SPLINE
  5
620
100
AcDbEntity
  8
0
100
AcDbSpline
 62
7
  6
CONTINUOUS
 70
0
 71
3
 72
10
 73
6
 74
0
 42
0.0000001
 43
0.0000001
 44
0.0000000001
 40
0.0
 40
0.0
 40
0.0
 40
0.0
 40
0.2569871449
 40
0.5193200591
 40
1.0
 40
1.0
 40
1.0
 40
1.0
 10
68.4889185054
 20
41.6641982635
 30
0.0
 10
68.488687062
 20
41.6835212382
 30
0.0
 10
68.4826883078
 20
41.7226908251
 30
0.0
 10
68.4553772346
 20
41.7926486898
 30
0.0
 10
68.4165222308
 20
41.8387572332
 30
0.0
 10
68.3843831769
 20
41.8552966197
 30
0.0
  0
SPLINE
  5
621
100
AcDbEntity
  8
0
100
AcDbSpline
 62
7
  6
CONTINUOUS
 70
0
 71
3
 72
9
 73
5
 74
0
 42
0.0000001
 43
0.0000001
 44
0.0000000001
 40
0.0
 40
0.0
 40
0.0
 40
0.0
 40
0.5242707704
 40
1.0
 40
1.0
 40
1.0
 40
1.0
 10
68.7722231214
 20
41.6306240344
 30
0.0
 10
68.7594170869
 20
41.638965665
 30
0.0
 10
68.7312226876
 20
41.6504420217
 30
0.0
 10
68.7007744852
 20
41.6457940483
 30
0.0
 10
68.6881393292
 20
41.6400774673
 30
0.0
  0
SPLINE
  5
622
100
AcDbEntity
  8
0
100
AcDbSpline
 62
7
  6
CONTINUOUS
 70
0
 71
3
 72
14
 73
10
 74
0
 42
0.0000001
 43
0.0000001
 44
0.0000000001
 40
0.0
 40
0.0
 40
0.0
 40
0.0
 40
0.2761555852
 40
0.4008088856
 40
0.5169370022
 40
0.6270459117
 40
0.7373175346
 40
0.8582473429
 40
1.0
 40
1.0
 40
1.0
 40
1.0
 10
69.5792931151
 20
41.163108682
 30
0.0
 10
69.5557347487
 20
41.1468437313
 30
0.0
 10
69.5234069845
 20
41.1197979891
 30
0.0
 10
69.4911296596
 20
41.0767281418
 30
0.0
 10
69.4753355253
 20
41.0436124064
 30
0.0
 10
69.4690429755
 20
41.0087360468
 30
0.0
 10
69.4753895853
 20
40.9730276477
 30
0.0
 10
69.4969725941
 20
40.9398232872
 30
0.0
 10
69.5191491781
 20
40.9231778343
 30
0.0
 10
69.5318637829
 20
40.9158106003
 30
0.0
  0
SPLINE
  5
623
100
AcDbEntity
  8
0
100
AcDbSpline
 62
7
  6
CONTINUOUS
 70
0
 71
3
 72
9
 73
5
 74
0
 42
0.0000001
 43
0.0000001
 44
0.0000000001
 40
0.0
 40
0.0
 40
0.0
 40
0.0
 40
0.4488454456
 40
1.0
 40
1.0
 40
1.0
 40
1.0
 10
60.1722599006
 20
26.6737404058
 30
0.0
 10
60.1784220584
 20
26.6773099974
 30
0.0
 10
60.1953222329
 20
26.679855862
 30
0.0
 10
60.2104329085
 20
26.6735448449
 30
0.0
 10
60.2179996424
 20
26.6691615784
 30
0.0
  0
SPLINE
  5
624
100
AcDbEntity
  8
02___PRT_ALL_AXES
100
AcDbSpline
 62
7
  6
CONTINUOUS
 70
0
 71
3
 72
15
 73
11
 74
0
 42
0.0000001
 43
0.0000001
 44
0.0000000001
 40
0.0
 40
0.0
 40
0.0
 40
0.0
 40
0.0871429469
 40
0.1867395101
 40
0.3041583559
 40
0.4379242546
 40
0.5823326716
 40
0.7295423987
 40
0.8712063409
 40
1.0
 40
1.0
 40
1.0
 40
1.0
 10
60.6733862427
 20
36.3541302491
 30
0.0
 10
60.6733867761
 20
36.3658634944
 30
0.0
 10
60.6663397298
 20
36.3912388242
 30
0.0
 10
60.6387621121
 20
36.4227262003
 30
0.0
 10
60.5980368568
 20
36.4476302675
 30
0.0
 10
60.547193477
 20
36.4646776779
 30
0.0
 10
60.4901984048
 20
36.4727102258
 30
0.0
 10
60.4315994533
 20
36.471085365
 30
0.0
 10
60.3762021128
 20
36.4599612776
 30
0.0
 10
60.3422197742
 20
36.4458913801
 30
0.0
 10
60.3272143733
 20
36.4371990339
 30
0.0
  0
SPLINE
  5
625
100
AcDbEntity
  8
0
100
AcDbSpline
 62
7
  6
CONTINUOUS
 70
0
 71
3
 72
17
 73
13
 74
0
 42
0.0000001
 43
0.0000001
 44
0.0000000001
 40
0.0
 40
0.0
 40
0.0
 40
0.0
 40
0.3015534521
 40
0.4375059257
 40
0.5610675787
 40
0.669265052
 40
0.7166456256
 40
0.7594129531
 40
0.7993269546
 40
0.8431144232
 40
0.905019256
 40
1.0
 40
1.0
 40
1.0
 40
1.0
 10
69.6838282644
 20
40.9720102301
 30
0.0
 10
69.672656712
 20
40.9705510427
 30
0.0
 10
69.656494794
 20
40.9679228982
 30
0.0
 10
69.6361489466
 20
40.9628014828
 30
0.0
 10
69.6231307875
 20
40.9583818357
 30
0.0
 10
69.6136761348
 20
40.9538139934
 30
0.0
 10
69.6077321719
 20
40.949336832
 30
0.0
 10
69.6044796965
 20
40.9456655024
 30
0.0
 10
69.6026342099
 20
40.9411394555
 30
0.0
 10
69.603540864
 20
40.9354974244
 30
0.0
 10
69.6083947035
 20
40.9294906978
 30
0.0
 10
69.6132860987
 20
40.9261900271
 30
0.0
 10
69.6163566459
 20
40.9244111597
 30
0.0
  0
SPLINE
  5
626
100
AcDbEntity
  8
0
100
AcDbSpline
 62
7
  6
CONTINUOUS
 70
0
 71
3
 72
13
 73
9
 74
0
 42
0.0000001
 43
0.0000001
 44
0.0000000001
 40
0.0
 40
0.0
 40
0.0
 40
0.0
 40
0.0870335261
 40
0.1866518535
 40
0.3042633445
 40
0.4383711269
 40
0.7298902826
 40
1.0
 40
1.0
 40
1.0
 40
1.0
 10
62.6110196619
 20
25.1560829205
 30
0.0
 10
62.6155619546
 20
25.1587141628
 30
0.0
 10
62.6238023813
 20
25.1671535878
 30
0.0
 10
62.6297768586
 20
25.1849320855
 30
0.0
 10
62.6302545662
 20
25.2063450241
 30
0.0
 10
62.6235987893
 20
25.2386444458
 30
0.0
 10
62.6041274
 20
25.2766229863
 30
0.0
 10
62.5793769563
 20
25.3012601597
 30
0.0
 10
62.5652799202
 20
25.3094263073
 30
0.0
  0
SPLINE
  5
627
100
AcDbEntity
  8
0
100
AcDbSpline
 62
7
  6
CONTINUOUS
 70
0
 71
3
 72
11
 73
7
 74
0
 42
0.0000001
 43
0.0000001
 44
0.0000000001
 40
0.0
 40
0.0
 40
0.0
 40
0.0
 40
0.2175015244
 40
0.4506303999
 40
0.7099951511
 40
1.0
 40
1.0
 40
1.0
 40
1.0
 10
69.6163566459
 20
40.9244111597
 30
0.0
 10
69.6107797361
 20
40.927609426
 30
0.0
 10
69.5979639586
 20
40.9322162328
 30
0.0
 10
69.5766966157
 20
40.9326832953
 30
0.0
 10
69.5540268403
 20
40.9271586069
 30
0.0
 10
69.5392811065
 20
40.9201073163
 30
0.0
 10
69.5318637828
 20
40.9158106003
 30
0.0
  0
SPLINE
  5
628
100
AcDbEntity
  8
0
100
AcDbSpline
 62
7
  6
CONTINUOUS
 70
0
 71
3
 72
9
 73
5
 74
0
 42
0.0000001
 43
0.0000001
 44
0.0000000001
 40
0.0
 40
0.0
 40
0.0
 40
0.0
 40
0.4528941112
 40
1.0
 40
1.0
 40
1.0
 40
1.0
 10
69.6161468757
 20
40.9235669903
 30
0.0
 10
69.6049845687
 20
40.9276874038
 30
0.0
 10
69.5773361793
 20
40.9287131284
 30
0.0
 10
69.5526657054
 20
40.9181701237
 30
0.0
 10
69.5402281495
 20
40.9109652802
 30
0.0
  0
SPLINE
  5
629
100
AcDbEntity
  8
0
100
AcDbSpline
 62
7
  6
CONTINUOUS
 70
0
 71
3
 72
10
 73
6
 74
0
 42
0.0000001
 43
0.0000001
 44
0.0000000001
 40
0.0
 40
0.0
 40
0.0
 40
0.0
 40
0.2569871449
 40
0.5193200591
 40
1.0
 40
1.0
 40
1.0
 40
1.0
 10
69.6838280339
 20
40.972009671
 30
0.0
 10
69.6835965905
 20
40.9913326457
 30
0.0
 10
69.6775978363
 20
41.0305022326
 30
0.0
 10
69.6502867631
 20
41.1004600972
 30
0.0
 10
69.6114317593
 20
41.1465686407
 30
0.0
 10
69.5792927054
 20
41.1631080272
 30
0.0
  0
SPLINE
  5
62A
100
AcDbEntity
  8
0
100
AcDbSpline
 62
7
  6
CONTINUOUS
 70
0
 71
3
 72
9
 73
5
 74
0
 42
0.0000001
 43
0.0000001
 44
0.0000000001
 40
0.0
 40
0.0
 40
0.0
 40
0.0
 40
0.5242707704
 40
1.0
 40
1.0
 40
1.0
 40
1.0
 10
69.9671326499
 20
40.9384354419
 30
0.0
 10
69.9543266154
 20
40.9467770725
 30
0.0
 10
69.9261322161
 20
40.9582534292
 30
0.0
 10
69.8956840137
 20
40.9536054558
 30
0.0
 10
69.8830488577
 20
40.9478888748
 30
0.0
  0
SPLINE
  5
62B
100
AcDbEntity
  8
0
100
AcDbSpline
 62
7
  6
CONTINUOUS
 70
0
 71
3
 72
9
 73
5
 74
0
 42
0.0000001
 43
0.0000001
 44
0.0000000001
 40
0.0
 40
0.0
 40
0.0
 40
0.0
 40
0.4488490552
 40
1.0
 40
1.0
 40
1.0
 40
1.0
 10
68.4418130472
 20
41.861045504
 30
0.0
 10
68.4340759539
 20
41.8655273918
 30
0.0
 10
68.4128568093
 20
41.8687246368
 30
0.0
 10
68.3938840969
 20
41.8608007644
 30
0.0
 10
68.3843836258
 20
41.8552972518
 30
0.0
  0
SPLINE
  5
62C
100
AcDbEntity
  8
0
100
AcDbSpline
 62
7
  6
CONTINUOUS
 70
0
 71
3
 72
9
 73
5
 74
0
 42
0.0000001
 43
0.0000001
 44
0.0000000001
 40
0.0
 40
0.0
 40
0.0
 40
0.0
 40
0.4488490552
 40
1.0
 40
1.0
 40
1.0
 40
1.0
 10
69.6367225757
 20
41.1688569115
 30
0.0
 10
69.6289854824
 20
41.1733387993
 30
0.0
 10
69.6077663378
 20
41.1765360443
 30
0.0
 10
69.5887936253
 20
41.1686121719
 30
0.0
 10
69.5792931543
 20
41.1631086593
 30
0.0
  0
SPLINE
  5
62D
100
AcDbEntity
  8
02___PRT_ALL_AXES
100
AcDbSpline
 62
3
  6
CONTINUOUS
 70
0
 71
3
 72
11
 73
7
 74
0
 42
0.0000001
 43
0.0000001
 44
0.0000000001
 40
0.0
 40
0.0
 40
0.0
 40
0.0
 40
0.2901009167
 40
0.5494292192
 40
0.7824917671
 40
1.0
 40
1.0
 40
1.0
 40
1.0
 10
69.1301128697
 20
34.0148461392
 30
0.0
 10
69.1204401541
 20
34.0204493613
 30
0.0
 10
69.1012119686
 20
34.0296389772
 30
0.0
 10
69.0716490192
 20
34.0368092142
 30
0.0
 10
69.0439252419
 20
34.036137222
 30
0.0
 10
69.0272412541
 20
34.0300650427
 30
0.0
 10
69.0199892164
 20
34.0258634977
 30
0.0
  0
SPLINE
  5
62E
100
AcDbEntity
  8
02___PRT_ALL_AXES
100
AcDbSpline
 62
3
  6
CONTINUOUS
 70
0
 71
3
 72
9
 73
5
 74
0
 42
0.0000001
 43
0.0000001
 44
0.0000000001
 40
0.0
 40
0.0
 40
0.0
 40
0.0
 40
0.5511545544
 40
1.0
 40
1.0
 40
1.0
 40
1.0
 10
68.2697780092
 20
34.5958689033
 30
0.0
 10
68.25996928
 20
34.6015509154
 30
0.0
 10
68.2403813672
 20
34.6097318634
 30
0.0
 10
68.2184737336
 20
34.6064316687
 30
0.0
 10
68.2104857513
 20
34.6018044203
 30
0.0
  0
SPLINE
  5
62F
100
AcDbEntity
  8
02___PRT_ALL_AXES
100
AcDbSpline
 62
3
  6
CONTINUOUS
 70
0
 71
3
 72
11
 73
7
 74
0
 42
0.0000001
 43
0.0000001
 44
0.0000000001
 40
0.0
 40
0.0
 40
0.0
 40
0.0
 40
0.2901009167
 40
0.5494292192
 40
0.7824917671
 40
1.0
 40
1.0
 40
1.0
 40
1.0
 10
69.1301128697
 20
38.036999042
 30
0.0
 10
69.1204401541
 20
38.0426022641
 30
0.0
 10
69.1012119686
 20
38.05179188
 30
0.0
 10
69.0716490192
 20
38.058962117
 30
0.0
 10
69.0439252419
 20
38.0582901248
 30
0.0
 10
69.0272412541
 20
38.0522179455
 30
0.0
 10
69.0199892164
 20
38.0480164005
 30
0.0
  0
SPLINE
  5
630
100
AcDbEntity
  8
02___PRT_ALL_AXES
100
AcDbSpline
 62
3
  6
CONTINUOUS
 70
0
 71
3
 72
9
 73
5
 74
0
 42
0.0000001
 43
0.0000001
 44
0.0000000001
 40
0.0
 40
0.0
 40
0.0
 40
0.0
 40
0.5511545544
 40
1.0
 40
1.0
 40
1.0
 40
1.0
 10
68.2697780092
 20
38.2874338963
 30
0.0
 10
68.25996928
 20
38.2931159084
 30
0.0
 10
68.2403813672
 20
38.3012968564
 30
0.0
 10
68.2184737336
 20
38.2979966617
 30
0.0
 10
68.2104857513
 20
38.2933694132
 30
0.0
  0
SPLINE
  5
631
100
AcDbEntity
  8
02___PRT_ALL_AXES
100
AcDbSpline
 62
3
  6
CONTINUOUS
 70
0
 71
3
 72
11
 73
7
 74
0
 42
0.0000001
 43
0.0000001
 44
0.0000000001
 40
0.0
 40
0.0
 40
0.0
 40
0.0
 40
0.2901009167
 40
0.5494292192
 40
0.7824917671
 40
1.0
 40
1.0
 40
1.0
 40
1.0
 10
69.1301128697
 20
36.0259225906
 30
0.0
 10
69.1204401541
 20
36.0315258127
 30
0.0
 10
69.1012119686
 20
36.0407154286
 30
0.0
 10
69.0716490192
 20
36.0478856656
 30
0.0
 10
69.0439252419
 20
36.0472136734
 30
0.0
 10
69.0272412541
 20
36.0411414941
 30
0.0
 10
69.0199892164
 20
36.0369399491
 30
0.0
  0
SPLINE
  5
632
100
AcDbEntity
  8
02___PRT_ALL_AXES
100
AcDbSpline
 62
3
  6
CONTINUOUS
 70
0
 71
3
 72
11
 73
7
 74
0
 42
0.0000001
 43
0.0000001
 44
0.0000000001
 40
0.0
 40
0.0
 40
0.0
 40
0.0
 40
0.308411978
 40
0.5807799652
 40
0.8077071077
 40
1.0
 40
1.0
 40
1.0
 40
1.0
 10
69.7313125872
 20
31.8135210899
 30
0.0
 10
69.72037859
 20
31.8277611886
 30
0.0
 10
69.6971570126
 20
31.8527452304
 30
0.0
 10
69.6577159808
 20
31.8792193352
 30
0.0
 10
69.6181206621
 20
31.8907944456
 30
0.0
 10
69.592803422
 20
31.8854422149
 30
0.0
 10
69.5831173043
 20
31.8798311442
 30
0.0
  0
SPLINE
  5
633
100
AcDbEntity
  8
02___PRT_ALL_AXES
100
AcDbSpline
 62
3
  6
CONTINUOUS
 70
0
 71
3
 72
15
 73
11
 74
0
 42
0.0000001
 43
0.0000001
 44
0.0000000001
 40
0.0
 40
0.0
 40
0.0
 40
0.0
 40
0.1287140704
 40
0.2704395206
 40
0.4178056934
 40
0.5623957984
 40
0.696293881
 40
0.8137253037
 40
0.9131637945
 40
1.0
 40
1.0
 40
1.0
 40
1.0
 10
68.7118945347
 20
32.2873591839
 30
0.0
 10
68.7118945347
 20
32.3017999928
 30
0.0
 10
68.7078406377
 20
32.3321756205
 30
0.0
 10
68.6927285955
 20
32.3767808493
 30
0.0
 10
68.6694403903
 20
32.4197681012
 30
0.0
 10
68.6398705968
 20
32.457593499
 30
0.0
 10
68.6063865666
 20
32.48723383
 30
0.0
 10
68.5714837829
 20
32.5063025409
 30
0.0
 10
68.5373362757
 20
32.5131482719
 30
0.0
 10
68.5161288125
 20
32.5076843403
 30
0.0
 10
68.5076987287
 20
32.5028008775
 30
0.0
  0
SPLINE
  5
634
100
AcDbEntity
  8
02___PRT_ALL_AXES
100
AcDbSpline
 62
3
  6
CONTINUOUS
 70
0
 71
3
 72
9
 73
5
 74
0
 42
0.0000001
 43
0.0000001
 44
0.0000000001
 40
0.0
 40
0.0
 40
0.0
 40
0.0
 40
0.2525950366
 40
1.0
 40
1.0
 40
1.0
 40
1.0
 10
69.7565051783
 20
40.1218981347
 30
0.0
 10
69.7540055728
 20
40.1265366936
 30
0.0
 10
69.7436163552
 20
40.144628408
 30
0.0
 10
69.7312972085
 20
40.1616250284
 30
0.0
 10
69.7210831072
 20
40.173404318
 30
0.0
  0
SPLINE
  5
635
100
AcDbEntity
  8
02___PRT_ALL_AXES
100
AcDbSpline
 62
3
  6
CONTINUOUS
 70
0
 71
3
 72
11
 73
7
 74
0
 42
0.0000001
 43
0.0000001
 44
0.0000000001
 40
0.0
 40
0.0
 40
0.0
 40
0.0
 40
0.2177855907
 40
0.4509670877
 40
0.7101905983
 40
1.0
 40
1.0
 40
1.0
 40
1.0
 10
68.677108435
 20
31.4665324118
 30
0.0
 10
68.682650529
 20
31.4697428911
 30
0.0
 10
68.6930209602
 20
31.4784777095
 30
0.0
 10
68.7040489918
 20
31.4965500178
 30
0.0
 10
68.7106098501
 20
31.5188112063
 30
0.0
 10
68.7118945347
 20
31.5350134032
 30
0.0
 10
68.7118945347
 20
31.5435363868
 30
0.0
  0
SPLINE
  5
636
100
AcDbEntity
  8
02___PRT_ALL_AXES
100
AcDbSpline
 62
3
  6
CONTINUOUS
 70
0
 71
3
 72
15
 73
11
 74
0
 42
0.0000001
 43
0.0000001
 44
0.0000000001
 40
0.0
 40
0.0
 40
0.0
 40
0.0
 40
0.0868232653
 40
0.186203579
 40
0.3035313199
 40
0.4373157048
 40
0.5818276587
 40
0.7291978912
 40
0.8710444839
 40
1.0
 40
1.0
 40
1.0
 40
1.0
 10
69.2402365229
 20
35.6567683299
 30
0.0
 10
69.2511710896
 20
35.6631033872
 30
0.0
 10
69.2710056865
 20
35.683423667
 30
0.0
 10
69.2853858338
 20
35.7262255519
 30
0.0
 10
69.2865245173
 20
35.7777697671
 30
0.0
 10
69.2748718824
 20
35.8345567449
 30
0.0
 10
69.2514929646
 20
35.89225907
 30
0.0
 10
69.2182472485
 20
35.9462802581
 30
0.0
 10
69.1778792455
 20
35.9922122667
 30
0.0
 10
69.1463541533
 20
36.0165143208
 30
0.0
 10
69.1301128697
 20
36.0259225906
 30
0.0
  0
SPLINE
  5
637
100
AcDbEntity
  8
02___PRT_ALL_AXES
100
AcDbSpline
 62
3
  6
CONTINUOUS
 70
0
 71
3
 72
13
 73
9
 74
0
 42
0.0000001
 43
0.0000001
 44
0.0000000001
 40
0.0
 40
0.0
 40
0.0
 40
0.0
 40
0.0870335261
 40
0.1866518535
 40
0.3042633445
 40
0.4383711269
 40
0.7298902826
 40
1.0
 40
1.0
 40
1.0
 40
1.0
 10
68.329070267
 20
38.0886554319
 30
0.0
 10
68.3349584241
 20
38.0920663015
 30
0.0
 10
68.3456404588
 20
38.1030062969
 30
0.0
 10
68.3533851516
 20
38.1260524976
 30
0.0
 10
68.3540044021
 20
38.1538100107
 30
0.0
 10
68.3453765432
 20
38.1956796314
 30
0.0
 10
68.3201358534
 20
38.2449110728
 30
0.0
 10
68.2880519448
 20
38.2768481494
 30
0.0
 10
68.2697780092
 20
38.2874338963
 30
0.0
  0
SPLINE
  5
638
100
AcDbEntity
  8
02___PRT_ALL_AXES
100
AcDbSpline
 62
3
  6
CONTINUOUS
 70
0
 71
3
 72
15
 73
11
 74
0
 42
0.0000001
 43
0.0000001
 44
0.0000000001
 40
0.0
 40
0.0
 40
0.0
 40
0.0
 40
0.0868232653
 40
0.186203579
 40
0.3035313199
 40
0.4373157048
 40
0.5818276587
 40
0.7291978912
 40
0.8710444839
 40
1.0
 40
1.0
 40
1.0
 40
1.0
 10
69.2402365229
 20
37.6678447813
 30
0.0
 10
69.2511710896
 20
37.6741798386
 30
0.0
 10
69.2710056865
 20
37.6945001184
 30
0.0
 10
69.2853858338
 20
37.7373020033
 30
0.0
 10
69.2865245173
 20
37.7888462185
 30
0.0
 10
69.2748718824
 20
37.8456331963
 30
0.0
 10
69.2514929646
 20
37.9033355214
 30
0.0
 10
69.2182472485
 20
37.9573567095
 30
0.0
 10
69.1778792455
 20
38.0032887181
 30
0.0
 10
69.1463541533
 20
38.0275907722
 30
0.0
 10
69.1301128697
 20
38.036999042
 30
0.0
  0
SPLINE
  5
639
100
AcDbEntity
  8
02___PRT_ALL_AXES
100
AcDbSpline
 62
3
  6
CONTINUOUS
 70
0
 71
3
 72
13
 73
9
 74
0
 42
0.0000001
 43
0.0000001
 44
0.0000000001
 40
0.0
 40
0.0
 40
0.0
 40
0.0
 40
0.0870335261
 40
0.1866518535
 40
0.3042633445
 40
0.4383711269
 40
0.7298902826
 40
1.0
 40
1.0
 40
1.0
 40
1.0
 10
68.329070267
 20
34.3970904389
 30
0.0
 10
68.3349584241
 20
34.4005013085
 30
0.0
 10
68.3456404588
 20
34.4114413039
 30
0.0
 10
68.3533851516
 20
34.4344875046
 30
0.0
 10
68.3540044021
 20
34.4622450177
 30
0.0
 10
68.3453765432
 20
34.5041146384
 30
0.0
 10
68.3201358534
 20
34.5533460798
 30
0.0
 10
68.2880519448
 20
34.5852831564
 30
0.0
 10
68.2697780092
 20
34.5958689033
 30
0.0
  0
SPLINE
  5
63A
100
AcDbEntity
  8
02___PRT_ALL_AXES
100
AcDbSpline
 62
3
  6
CONTINUOUS
 70
0
 71
3
 72
15
 73
11
 74
0
 42
0.0000001
 43
0.0000001
 44
0.0000000001
 40
0.0
 40
0.0
 40
0.0
 40
0.0
 40
0.0868232653
 40
0.186203579
 40
0.3035313199
 40
0.4373157048
 40
0.5818276587
 40
0.7291978912
 40
0.8710444839
 40
1.0
 40
1.0
 40
1.0
 40
1.0
 10
69.2402365229
 20
33.6456918785
 30
0.0
 10
69.2511710896
 20
33.6520269358
 30
0.0
 10
69.2710056865
 20
33.6723472156
 30
0.0
 10
69.2853858338
 20
33.7151491005
 30
0.0
 10
69.2865245173
 20
33.7666933157
 30
0.0
 10
69.2748718824
 20
33.8234802935
 30
0.0
 10
69.2514929646
 20
33.8811826186
 30
0.0
 10
69.2182472485
 20
33.9352038067
 30
0.0
 10
69.1778792455
 20
33.9811358153
 30
0.0
 10
69.1463541533
 20
34.0054378694
 30
0.0
 10
69.1301128697
 20
34.0148461392
 30
0.0
  0
SPLINE
  5
63B
100
AcDbEntity
  8
02___PRT_ALL_AXES
100
AcDbSpline
 62
3
  6
CONTINUOUS
 70
0
 71
3
 72
12
 73
8
 74
0
 42
0.0000001
 43
0.0000001
 44
0.0000000001
 40
0.0
 40
0.0
 40
0.0
 40
0.0
 40
0.2596238539
 40
0.5438596199
 40
0.6794040631
 40
0.8025756855
 40
1.0
 40
1.0
 40
1.0
 40
1.0
 10
69.5483312046
 20
39.406349095
 30
0.0
 10
69.5483312046
 20
39.379262935
 30
0.0
 10
69.5620034171
 20
39.3226214058
 30
0.0
 10
69.5983026003
 20
39.2606953586
 30
0.0
 10
69.6378417277
 20
39.2195698749
 30
0.0
 10
69.676197087
 20
39.1917505327
 30
0.0
 10
69.710925339
 20
39.1807280131
 30
0.0
 10
69.7313125872
 20
39.1836598347
 30
0.0
  0
SPLINE
  5
63C
100
AcDbEntity
  8
02___PRT_ALL_AXES
100
AcDbSpline
 62
3
  6
CONTINUOUS
 70
0
 71
3
 72
11
 73
7
 74
0
 42
0.0000001
 43
0.0000001
 44
0.0000000001
 40
0.0
 40
0.0
 40
0.0
 40
0.0
 40
0.2901009167
 40
0.5494292192
 40
0.7824917671
 40
1.0
 40
1.0
 40
1.0
 40
1.0
 10
69.1301128697
 20
37.6788621397
 30
0.0
 10
69.1397855853
 20
37.6732589177
 30
0.0
 10
69.1590137708
 20
37.6640693018
 30
0.0
 10
69.1885767202
 20
37.6568990648
 30
0.0
 10
69.2163004974
 20
37.657571057
 30
0.0
 10
69.2329844853
 20
37.6636432362
 30
0.0
 10
69.2402365229
 20
37.6678447813
 30
0.0
  0
SPLINE
  5
63D
100
AcDbEntity
  8
02___PRT_ALL_AXES
100
AcDbSpline
 62
3
  6
CONTINUOUS
 70
0
 71
3
 72
15
 73
11
 74
0
 42
0.0000001
 43
0.0000001
 44
0.0000000001
 40
0.0
 40
0.0
 40
0.0
 40
0.0
 40
0.0868232653
 40
0.186203579
 40
0.3035313199
 40
0.4373157048
 40
0.5818276587
 40
0.7291978912
 40
0.8710444839
 40
1.0
 40
1.0
 40
1.0
 40
1.0
 10
69.0199892164
 20
36.0369399491
 30
0.0
 10
69.0090546498
 20
36.0306048917
 30
0.0
 10
68.9892200528
 20
36.0102846119
 30
0.0
 10
68.9748399055
 20
35.967482727
 30
0.0
 10
68.973701222
 20
35.9159385118
 30
0.0
 10
68.985353857
 20
35.859151534
 30
0.0
 10
69.0087327747
 20
35.8014492089
 30
0.0
 10
69.0419784908
 20
35.7474280208
 30
0.0
 10
69.0823464939
 20
35.7014960123
 30
0.0
 10
69.113871586
 20
35.6771939582
 30
0.0
 10
69.1301128697
 20
35.6677856883
 30
0.0
  0
SPLINE
  5
63E
100
AcDbEntity
  8
02___PRT_ALL_AXES
100
AcDbSpline
 62
3
  6
CONTINUOUS
 70
0
 71
3
 72
11
 73
7
 74
0
 42
0.0000001
 43
0.0000001
 44
0.0000000001
 40
0.0
 40
0.0
 40
0.0
 40
0.0
 40
0.2901009167
 40
0.5494292192
 40
0.7824917671
 40
1.0
 40
1.0
 40
1.0
 40
1.0
 10
69.1301128697
 20
33.6567092369
 30
0.0
 10
69.1397855853
 20
33.6511060149
 30
0.0
 10
69.1590137708
 20
33.641916399
 30
0.0
 10
69.1885767202
 20
33.634746162
 30
0.0
 10
69.2163004974
 20
33.6354181542
 30
0.0
 10
69.2329844853
 20
33.6414903334
 30
0.0
 10
69.2402365229
 20
33.6456918785
 30
0.0
  0
SPLINE
  5
63F
100
AcDbEntity
  8
02___PRT_ALL_AXES
100
AcDbSpline
 62
3
  6
CONTINUOUS
 70
0
 71
3
 72
13
 73
9
 74
0
 42
0.0000001
 43
0.0000001
 44
0.0000000001
 40
0.0
 40
0.0
 40
0.0
 40
0.0
 40
0.0870335261
 40
0.1866518535
 40
0.3042633445
 40
0.4383711269
 40
0.7298902826
 40
1.0
 40
1.0
 40
1.0
 40
1.0
 10
68.2104857513
 20
38.2933694132
 30
0.0
 10
68.2045975942
 20
38.2899585437
 30
0.0
 10
68.1939155595
 20
38.2790185483
 30
0.0
 10
68.1861708667
 20
38.2559723476
 30
0.0
 10
68.1855516162
 20
38.2282148345
 30
0.0
 10
68.1941794751
 20
38.1863452138
 30
0.0
 10
68.2194201649
 20
38.1371137724
 30
0.0
 10
68.2515040735
 20
38.1051766958
 30
0.0
 10
68.2697780092
 20
38.0945909489
 30
0.0
  0
SPLINE
  5
640
100
AcDbEntity
  8
02___PRT_ALL_AXES
100
AcDbSpline
 62
3
  6
CONTINUOUS
 70
0
 71
3
 72
9
 73
5
 74
0
 42
0.0000001
 43
0.0000001
 44
0.0000000001
 40
0.0
 40
0.0
 40
0.0
 40
0.0
 40
0.5511545544
 40
1.0
 40
1.0
 40
1.0
 40
1.0
 10
68.2697780092
 20
38.0945909489
 30
0.0
 10
68.2795867383
 20
38.0889089367
 30
0.0
 10
68.2991746511
 20
38.0807279887
 30
0.0
 10
68.3210822847
 20
38.0840281835
 30
0.0
 10
68.329070267
 20
38.0886554319
 30
0.0
  0
SPLINE
  5
641
100
AcDbEntity
  8
02___PRT_ALL_AXES
100
AcDbSpline
 62
3
  6
CONTINUOUS
 70
0
 71
3
 72
11
 73
7
 74
0
 42
0.0000001
 43
0.0000001
 44
0.0000000001
 40
0.0
 40
0.0
 40
0.0
 40
0.0
 40
0.2901009167
 40
0.5494292192
 40
0.7824917671
 40
1.0
 40
1.0
 40
1.0
 40
1.0
 10
69.1301128697
 20
35.6677856883
 30
0.0
 10
69.1397855853
 20
35.6621824663
 30
0.0
 10
69.1590137708
 20
35.6529928504
 30
0.0
 10
69.1885767202
 20
35.6458226134
 30
0.0
 10
69.2163004974
 20
35.6464946056
 30
0.0
 10
69.2329844853
 20
35.6525667848
 30
0.0
 10
69.2402365229
 20
35.6567683299
 30
0.0
  0
SPLINE
  5
642
100
AcDbEntity
  8
02___PRT_ALL_AXES
100
AcDbSpline
 62
3
  6
CONTINUOUS
 70
0
 71
3
 72
15
 73
11
 74
0
 42
0.0000001
 43
0.0000001
 44
0.0000000001
 40
0.0
 40
0.0
 40
0.0
 40
0.0
 40
0.0868232653
 40
0.186203579
 40
0.3035313199
 40
0.4373157048
 40
0.5818276587
 40
0.7291978912
 40
0.8710444839
 40
1.0
 40
1.0
 40
1.0
 40
1.0
 10
69.0199892164
 20
38.0480164005
 30
0.0
 10
69.0090546498
 20
38.0416813431
 30
0.0
 10
68.9892200528
 20
38.0213610633
 30
0.0
 10
68.9748399055
 20
37.9785591784
 30
0.0
 10
68.973701222
 20
37.9270149632
 30
0.0
 10
68.985353857
 20
37.8702279855
 30
0.0
 10
69.0087327747
 20
37.8125256604
 30
0.0
 10
69.0419784908
 20
37.7585044722
 30
0.0
 10
69.0823464939
 20
37.7125724637
 30
0.0
 10
69.113871586
 20
37.6882704096
 30
0.0
 10
69.1301128697
 20
37.6788621397
 30
0.0
  0
SPLINE
  5
643
100
AcDbEntity
  8
02___PRT_ALL_AXES
100
AcDbSpline
 62
3
  6
CONTINUOUS
 70
0
 71
3
 72
9
 73
5
 74
0
 42
0.0000001
 43
0.0000001
 44
0.0000000001
 40
0.0
 40
0.0
 40
0.0
 40
0.0
 40
0.5511545544
 40
1.0
 40
1.0
 40
1.0
 40
1.0
 10
68.2697780092
 20
34.4030259559
 30
0.0
 10
68.2795867383
 20
34.3973439437
 30
0.0
 10
68.2991746511
 20
34.3891629957
 30
0.0
 10
68.3210822847
 20
34.3924631905
 30
0.0
 10
68.329070267
 20
34.3970904389
 30
0.0
  0
SPLINE
  5
644
100
AcDbEntity
  8
02___PRT_ALL_AXES
100
AcDbSpline
 62
3
  6
CONTINUOUS
 70
0
 71
3
 72
12
 73
8
 74
0
 42
0.0000001
 43
0.0000001
 44
0.0000000001
 40
0.0
 40
0.0
 40
0.0
 40
0.0
 40
0.2596238539
 40
0.5438596199
 40
0.6794040631
 40
0.8025756855
 40
1.0
 40
1.0
 40
1.0
 40
1.0
 10
69.5483312046
 20
31.0590043721
 30
0.0
 10
69.5483312046
 20
31.031918212
 30
0.0
 10
69.5620034171
 20
30.9752766829
 30
0.0
 10
69.5983026003
 20
30.9133506356
 30
0.0
 10
69.6378417277
 20
30.872225152
 30
0.0
 10
69.676197087
 20
30.8444058098
 30
0.0
 10
69.710925339
 20
30.8333832901
 30
0.0
 10
69.7313125872
 20
30.8363151118
 30
0.0
  0
SPLINE
  5
645
100
AcDbEntity
  8
02___PRT_ALL_AXES
100
AcDbSpline
 62
3
  6
CONTINUOUS
 70
0
 71
3
 72
13
 73
9
 74
0
 42
0.0000001
 43
0.0000001
 44
0.0000000001
 40
0.0
 40
0.0
 40
0.0
 40
0.0
 40
0.0870335261
 40
0.1866518535
 40
0.3042633445
 40
0.4383711269
 40
0.7298902826
 40
1.0
 40
1.0
 40
1.0
 40
1.0
 10
68.2104857513
 20
34.6018044203
 30
0.0
 10
68.2045975942
 20
34.5983935507
 30
0.0
 10
68.1939155595
 20
34.5874535553
 30
0.0
 10
68.1861708667
 20
34.5644073546
 30
0.0
 10
68.1855516162
 20
34.5366498415
 30
0.0
 10
68.1941794751
 20
34.4947802208
 30
0.0
 10
68.2194201649
 20
34.4455487794
 30
0.0
 10
68.2515040735
 20
34.4136117028
 30
0.0
 10
68.2697780092
 20
34.4030259559
 30
0.0
  0
SPLINE
  5
646
100
AcDbEntity
  8
02___PRT_ALL_AXES
100
AcDbSpline
 62
3
  6
CONTINUOUS
 70
0
 71
3
 72
15
 73
11
 74
0
 42
0.0000001
 43
0.0000001
 44
0.0000000001
 40
0.0
 40
0.0
 40
0.0
 40
0.0
 40
0.0868232653
 40
0.186203579
 40
0.3035313199
 40
0.4373157048
 40
0.5818276587
 40
0.7291978912
 40
0.8710444839
 40
1.0
 40
1.0
 40
1.0
 40
1.0
 10
69.0199892164
 20
34.0258634977
 30
0.0
 10
69.0090546498
 20
34.0195284403
 30
0.0
 10
68.9892200528
 20
33.9992081605
 30
0.0
 10
68.9748399055
 20
33.9564062756
 30
0.0
 10
68.973701222
 20
33.9048620604
 30
0.0
 10
68.985353857
 20
33.8480750826
 30
0.0
 10
69.0087327747
 20
33.7903727575
 30
0.0
 10
69.0419784908
 20
33.7363515694
 30
0.0
 10
69.0823464939
 20
33.6904195609
 30
0.0
 10
69.113871586
 20
33.6661175067
 30
0.0
 10
69.1301128697
 20
33.6567092369
 30
0.0
  0
SPLINE
  5
647
100
AcDbEntity
  8
02___PRT_ALL_AXES
100
AcDbSpline
 62
3
  6
CONTINUOUS
 70
0
 71
3
 72
11
 73
7
 74
0
 42
0.0000001
 43
0.0000001
 44
0.0000000001
 40
0.0
 40
0.0
 40
0.0
 40
0.0
 40
0.2177855907
 40
0.4509670877
 40
0.7101905983
 40
1.0
 40
1.0
 40
1.0
 40
1.0
 10
68.5076987287
 20
32.5028008775
 30
0.0
 10
68.5021566347
 20
32.4995903981
 30
0.0
 10
68.4917862035
 20
32.4908555798
 30
0.0
 10
68.4807581718
 20
32.4727832714
 30
0.0
 10
68.4741973136
 20
32.450522083
 30
0.0
 10
68.472912629
 20
32.434319886
 30
0.0
 10
68.472912629
 20
32.4257969024
 30
0.0
  0
SPLINE
  5
648
100
AcDbEntity
  8
02___PRT_ALL_AXES
100
AcDbSpline
 62
3
  6
CONTINUOUS
 70
0
 71
3
 72
15
 73
11
 74
0
 42
0.0000001
 43
0.0000001
 44
0.0000000001
 40
0.0
 40
0.0
 40
0.0
 40
0.0
 40
0.1287140704
 40
0.2704395206
 40
0.4178056934
 40
0.5623957984
 40
0.696293881
 40
0.8137253037
 40
0.9131637945
 40
1.0
 40
1.0
 40
1.0
 40
1.0
 10
68.472912629
 20
31.6819741053
 30
0.0
 10
68.472912629
 20
31.6675332964
 30
0.0
 10
68.476966526
 20
31.6371576687
 30
0.0
 10
68.4920785682
 20
31.59255244
 30
0.0
 10
68.5153667734
 20
31.5495651881
 30
0.0
 10
68.5449365669
 20
31.5117397903
 30
0.0
 10
68.5784205971
 20
31.4820994593
 30
0.0
 10
68.6133233808
 20
31.4630307484
 30
0.0
 10
68.647470888
 20
31.4561850174
 30
0.0
 10
68.6686783512
 20
31.4616489489
 30
0.0
 10
68.677108435
 20
31.4665324118
 30
0.0
  0
SPLINE
  5
649
100
AcDbEntity
  8
02___PRT_ALL_AXES
100
AcDbSpline
 62
3
  6
CONTINUOUS
 70
0
 71
3
 72
11
 73
7
 74
0
 42
0.0000001
 43
0.0000001
 44
0.0000000001
 40
0.0
 40
0.0
 40
0.0
 40
0.0
 40
0.2177855907
 40
0.4509670877
 40
0.7101905983
 40
1.0
 40
1.0
 40
1.0
 40
1.0
 10
69.5831173043
 20
31.8798311442
 30
0.0
 10
69.5775752103
 20
31.8766206649
 30
0.0
 10
69.5672047791
 20
31.8678858465
 30
0.0
 10
69.5561767475
 20
31.8498135382
 30
0.0
 10
69.5496158892
 20
31.8275523497
 30
0.0
 10
69.5483312046
 20
31.8113501528
 30
0.0
 10
69.5483312046
 20
31.8028271692
 30
0.0
  0
SPLINE
  5
64A
100
AcDbEntity
  8
0
100
AcDbSpline
 62
3
  6
CONTINUOUS
 70
0
 71
3
 72
9
 73
5
 74
0
 42
0.0000001
 43
0.0000001
 44
0.0000000001
 40
0.0
 40
0.0
 40
0.0
 40
0.0
 40
0.5503621472
 40
1.0
 40
1.0
 40
1.0
 40
1.0
 10
70.3670832136
 20
40.4756206633
 30
0.0
 10
70.3691527692
 20
40.4768195179
 30
0.0
 10
70.3727086776
 20
40.479553812
 30
0.0
 10
70.3744083727
 20
40.483911056
 30
0.0
 10
70.3744083727
 20
40.4858650544
 30
0.0
  0
SPLINE
  5
64B
100
AcDbEntity
  8
0
100
AcDbSpline
 62
3
  6
CONTINUOUS
 70
0
 71
3
 72
9
 73
5
 74
0
 42
0.0000001
 43
0.0000001
 44
0.0000000001
 40
0.0
 40
0.0
 40
0.0
 40
0.0
 40
0.5
 40
1.0
 40
1.0
 40
1.0
 40
1.0
 10
67.9844336138
 20
31.2709708241
 30
0.0
 10
67.9896792466
 20
31.2740095205
 30
0.0
 10
68.0021182748
 20
31.2764187814
 30
0.0
 10
68.0145573029
 20
31.2740095205
 30
0.0
 10
68.0198029358
 20
31.2709708241
 30
0.0
  0
SPLINE
  5
64C
100
AcDbEntity
  8
02___PRT_ALL_AXES
100
AcDbSpline
 62
3
  6
CONTINUOUS
 70
0
 71
3
 72
9
 73
5
 74
0
 42
0.0000001
 43
0.0000001
 44
0.0000000001
 40
0.0
 40
0.0
 40
0.0
 40
0.0
 40
0.2761000621
 40
1.0
 40
1.0
 40
1.0
 40
1.0
 10
60.3272143733
 20
36.3641942038
 30
0.0
 10
60.3218050168
 20
36.3610606655
 30
0.0
 10
60.3028223523
 20
36.3488066051
 30
0.0
 10
60.2861423377
 20
36.3321788289
 30
0.0
 10
60.2780309737
 20
36.3179362143
 30
0.0
  0
SPLINE
  5
64D
100
AcDbEntity
  8
02___PRT_ALL_AXES
100
AcDbSpline
 62
3
  6
CONTINUOUS
 70
0
 71
3
 72
9
 73
5
 74
0
 42
0.0000001
 43
0.0000001
 44
0.0000000001
 40
0.0
 40
0.0
 40
0.0
 40
0.0
 40
0.2761000621
 40
1.0
 40
1.0
 40
1.0
 40
1.0
 10
59.3712867505
 20
35.8104433298
 30
0.0
 10
59.365877394
 20
35.8073097915
 30
0.0
 10
59.3468947295
 20
35.7950557311
 30
0.0
 10
59.3302147149
 20
35.7784279549
 30
0.0
 10
59.3221033509
 20
35.7641853403
 30
0.0
  0
SPLINE
  5
64E
100
AcDbEntity
  8
0
100
AcDbSpline
 62
3
  6
CONTINUOUS
 70
0
 71
3
 72
11
 73
7
 74
0
 42
0.0000001
 43
0.0000001
 44
0.0000000001
 40
0.0
 40
0.0
 40
0.0
 40
0.0
 40
0.2180205344
 40
0.4513190261
 40
0.7104897141
 40
1.0
 40
1.0
 40
1.0
 40
1.0
 10
57.9182284554
 20
24.8629195036
 30
0.0
 10
57.9182278385
 20
24.9263426086
 30
0.0
 10
57.9415388322
 20
25.0585174812
 30
0.0
 10
58.0414346267
 20
25.2426745622
 30
0.0
 10
58.1992899708
 20
25.4092663046
 30
0.0
 10
58.3314904997
 20
25.5005826213
 30
0.0
 10
58.4043659601
 20
25.5427980034
 30
0.0
  0
SPLINE
  5
64F
100
AcDbEntity
  8
0
100
AcDbSpline
 62
3
  6
CONTINUOUS
 70
0
 71
3
 72
18
 73
14
 74
0
 42
0.0000001
 43
0.0000001
 44
0.0000000001
 40
0.0
 40
0.0
 40
0.0
 40
0.0
 40
0.0429583565
 40
0.0876731788
 40
0.1355703389
 40
0.1875722166
 40
0.2440901939
 40
0.3051000172
 40
0.4386862967
 40
0.5828996218
 40
0.7299096921
 40
0.8713812517
 40
1.0
 40
1.0
 40
1.0
 40
1.0
 10
57.9182284554
 20
35.7640558299
 30
0.0
 10
57.9182289165
 20
35.7166502163
 30
0.0
 10
57.9308580836
 20
35.619491183
 30
0.0
 10
57.9863946937
 20
35.4791768159
 30
0.0
 10
58.0765258393
 20
35.3461464251
 30
0.0
 10
58.1986965234
 20
35.2230433342
 30
0.0
 10
58.3500906148
 20
35.1120291051
 30
0.0
 10
58.5939403416
 20
34.9790174228
 30
0.0
 10
58.9512896014
 20
34.8592429787
 30
0.0
 10
59.4176254541
 20
34.7935476699
 30
0.0
 10
59.897289484
 20
34.8068407689
 30
0.0
 10
60.3506914135
 20
34.8978954082
 30
0.0
 10
60.6288306176
 20
35.0130542821
 30
0.0
 10
60.7516462378
 20
35.0841990586
 30
0.0
  0
SPLINE
  5
650
100
AcDbEntity
  8
02___PRT_ALL_AXES
100
AcDbSpline
 62
3
  6
CONTINUOUS
 70
0
 71
3
 72
15
 73
11
 74
0
 42
0.0000001
 43
0.0000001
 44
0.0000000001
 40
0.0
 40
0.0
 40
0.0
 40
0.0
 40
0.0871429469
 40
0.1867395101
 40
0.3041583559
 40
0.4379242546
 40
0.5823326716
 40
0.7295423987
 40
0.8712063409
 40
1.0
 40
1.0
 40
1.0
 40
1.0
 10
59.3118931679
 20
24.8262505262
 30
0.0
 10
59.3118926346
 20
24.8145172809
 30
0.0
 10
59.3189396809
 20
24.7891419511
 30
0.0
 10
59.3465172985
 20
24.7576545749
 30
0.0
 10
59.3872425539
 20
24.7327505078
 30
0.0
 10
59.4380859337
 20
24.7157030974
 30
0.0
 10
59.4950810059
 20
24.7076705495
 30
0.0
 10
59.5536799573
 20
24.7092954103
 30
0.0
 10
59.6090772979
 20
24.7204194977
 30
0.0
 10
59.6430596365
 20
24.7344893951
 30
0.0
 10
59.6580650374
 20
24.7431817413
 30
0.0
  0
SPLINE
  5
651
100
AcDbEntity
  8
02___PRT_ALL_AXES
100
AcDbSpline
 62
3
  6
CONTINUOUS
 70
0
 71
3
 72
12
 73
8
 74
0
 42
0.0000001
 43
0.0000001
 44
0.0000000001
 40
0.0
 40
0.0
 40
0.0
 40
0.0
 40
0.203993138
 40
0.3286174021
 40
0.4639651224
 40
0.7444337272
 40
1.0
 40
1.0
 40
1.0
 40
1.0
 10
59.707513066
 20
35.7637170461
 30
0.0
 10
59.695360411
 20
35.7853577577
 30
0.0
 10
59.6617186336
 20
35.8117677661
 30
0.0
 10
59.6094391202
 20
35.832617113
 30
0.0
 10
59.5447683007
 20
35.8465404708
 30
0.0
 10
59.4621167405
 20
35.8456423431
 30
0.0
 10
59.3981926902
 20
35.8260294341
 30
0.0
 10
59.3712867505
 20
35.8104433298
 30
0.0
  0
SPLINE
  5
652
100
AcDbEntity
  8
02___PRT_ALL_AXES
100
AcDbSpline
 62
3
  6
CONTINUOUS
 70
0
 71
3
 72
15
 73
11
 74
0
 42
0.0000001
 43
0.0000001
 44
0.0000000001
 40
0.0
 40
0.0
 40
0.0
 40
0.0
 40
0.0871429469
 40
0.1867395101
 40
0.3041583559
 40
0.4379242546
 40
0.5823326716
 40
0.7295423987
 40
0.8712063409
 40
1.0
 40
1.0
 40
1.0
 40
1.0
 10
60.2678207907
 20
25.3800014002
 30
0.0
 10
60.2678202574
 20
25.3682681549
 30
0.0
 10
60.2748673037
 20
25.3428928251
 30
0.0
 10
60.3024449213
 20
25.311405449
 30
0.0
 10
60.3431701767
 20
25.2865013818
 30
0.0
 10
60.3940135565
 20
25.2694539714
 30
0.0
 10
60.4510086286
 20
25.2614214235
 30
0.0
 10
60.5096075801
 20
25.2630462843
 30
0.0
 10
60.5650049207
 20
25.2741703717
 30
0.0
 10
60.5989872593
 20
25.2882402691
 30
0.0
 10
60.6139926601
 20
25.2969326153
 30
0.0
  0
SPLINE
  5
653
100
AcDbEntity
  8
02___PRT_ALL_AXES
100
AcDbSpline
 62
3
  6
CONTINUOUS
 70
0
 71
3
 72
12
 73
8
 74
0
 42
0.0000001
 43
0.0000001
 44
0.0000000001
 40
0.0
 40
0.0
 40
0.0
 40
0.0
 40
0.203993138
 40
0.3286174021
 40
0.4639651224
 40
0.7444337272
 40
1.0
 40
1.0
 40
1.0
 40
1.0
 10
60.6634406888
 20
36.3174679202
 30
0.0
 10
60.6512880337
 20
36.3391086317
 30
0.0
 10
60.6176462563
 20
36.3655186401
 30
0.0
 10
60.565366743
 20
36.386367987
 30
0.0
 10
60.5006959235
 20
36.4002913448
 30
0.0
 10
60.4180443633
 20
36.3993932171
 30
0.0
 10
60.354120313
 20
36.3797803082
 30
0.0
 10
60.3272143733
 20
36.3641942038
 30
0.0
  0
SPLINE
  5
654
100
AcDbEntity
  8
02___PRT_ALL_AXES
100
AcDbSpline
 62
3
  6
CONTINUOUS
 70
0
 71
3
 72
11
 73
7
 74
0
 42
0.0000001
 43
0.0000001
 44
0.0000000001
 40
0.0
 40
0.0
 40
0.0
 40
0.0
 40
0.2895174944
 40
0.5486773052
 40
0.781979841
 40
1.0
 40
1.0
 40
1.0
 40
1.0
 10
60.6139926601
 20
25.2969326153
 30
0.0
 10
60.6228957966
 20
25.3020900347
 30
0.0
 10
60.6390463241
 20
25.3132454821
 30
0.0
 10
60.6583307947
 20
25.3335973633
 30
0.0
 10
60.670536204
 20
25.3560937667
 30
0.0
 10
60.6733858905
 20
25.3722409492
 30
0.0
 10
60.6733862427
 20
25.3799890927
 30
0.0
  0
SPLINE
  5
655
100
AcDbEntity
  8
02___PRT_ALL_AXES
100
AcDbSpline
 62
3
  6
CONTINUOUS
 70
0
 71
3
 72
11
 73
7
 74
0
 42
0.0000001
 43
0.0000001
 44
0.0000000001
 40
0.0
 40
0.0
 40
0.0
 40
0.0
 40
0.2895174944
 40
0.5486773052
 40
0.781979841
 40
1.0
 40
1.0
 40
1.0
 40
1.0
 10
59.6580650374
 20
24.7431817413
 30
0.0
 10
59.6669681738
 20
24.7483391607
 30
0.0
 10
59.6831187013
 20
24.7594946081
 30
0.0
 10
59.7024031719
 20
24.7798464893
 30
0.0
 10
59.7146085812
 20
24.8023428927
 30
0.0
 10
59.7174582677
 20
24.8184900752
 30
0.0
 10
59.7174586199
 20
24.8262382187
 30
0.0
  0
SPLINE
  5
656
100
AcDbEntity
  8
0
100
AcDbSpline
 62
3
  6
CONTINUOUS
 70
0
 71
3
 72
9
 73
5
 74
0
 42
0.0000001
 43
0.0000001
 44
0.0000000001
 40
0.0
 40
0.0
 40
0.0
 40
0.0
 40
0.2602595115
 40
1.0
 40
1.0
 40
1.0
 40
1.0
 10
68.0093140206
 20
31.1085275451
 30
0.0
 10
68.0109030779
 20
31.1102640559
 30
0.0
 10
68.0163553341
 20
31.1174563439
 30
0.0
 10
68.0198029358
 20
31.1265354922
 30
0.0
 10
68.0198029358
 20
31.1332258617
 30
0.0
  0
SPLINE
  5
657
100
AcDbEntity
  8
0
100
AcDbSpline
 62
3
  6
CONTINUOUS
 70
0
 71
3
 72
8
 73
4
 74
0
 42
0.0000001
 43
0.0000001
 44
0.0000000001
 40
0.0
 40
0.0
 40
0.0
 40
0.0
 40
1.0
 40
1.0
 40
1.0
 40
1.0
 10
62.5652799202
 20
36.1348029043
 30
0.0
 10
62.5661268652
 20
36.134312285
 30
0.0
 10
62.5669624242
 20
36.1326346154
 30
0.0
 10
62.566204099
 20
36.1320157729
 30
0.0
  0
SPLINE
  5
658
100
AcDbEntity
  8
0
100
AcDbSpline
 62
3
  6
CONTINUOUS
 70
0
 71
3
 72
9
 73
5
 74
0
 42
0.0000001
 43
0.0000001
 44
0.0000000001
 40
0.0
 40
0.0
 40
0.0
 40
0.0
 40
0.4499595423
 40
1.0
 40
1.0
 40
1.0
 40
1.0
 10
60.2170754636
 20
26.5961889805
 30
0.0
 10
60.2171878932
 20
26.5962807305
 30
0.0
 10
60.2175327368
 20
26.596366376
 30
0.0
 10
60.2178461447
 20
26.5962456667
 30
0.0
 10
60.2179996424
 20
26.5961567484
 30
0.0
  0
SPLINE
  5
659
100
AcDbEntity
  8
0
100
AcDbSpline
 62
3
  6
CONTINUOUS
 70
0
 71
3
 72
8
 73
4
 74
0
 42
0.0000001
 43
0.0000001
 44
0.0000000001
 40
0.0
 40
0.0
 40
0.0
 40
0.0
 40
1.0
 40
1.0
 40
1.0
 40
1.0
 10
62.566203583
 20
25.2336351363
 30
0.0
 10
62.5669580816
 20
25.2342581607
 30
0.0
 10
62.5661266019
 20
25.2359310104
 30
0.0
 10
62.5652799202
 20
25.2364214772
 30
0.0
  0
SPLINE
  5
65A
100
AcDbEntity
  8
02___PRT_ALL_AXES
100
AcDbSpline
 62
3
  6
CONTINUOUS
 70
0
 71
3
 72
11
 73
7
 74
0
 42
0.0000001
 43
0.0000001
 44
0.0000000001
 40
0.0
 40
0.0
 40
0.0
 40
0.0
 40
0.233052655
 40
0.4907960392
 40
0.7534589778
 40
1.0
 40
1.0
 40
1.0
 40
1.0
 10
69.7311523625
 20
30.8887265458
 30
0.0
 10
69.7160909551
 20
30.8974513355
 30
0.0
 10
69.6872555542
 20
30.920870765
 30
0.0
 10
69.652162095
 20
30.9653060009
 30
0.0
 10
69.6259252657
 20
31.0166160344
 30
0.0
 10
69.6157608511
 20
31.0536810901
 30
0.0
 10
69.6133103039
 20
31.0719306743
 30
0.0
  0
SPLINE
  5
65B
100
AcDbEntity
  8
02___PRT_ALL_AXES
100
AcDbSpline
 62
3
  6
CONTINUOUS
 70
0
 71
3
 72
9
 73
5
 74
0
 42
0.0000001
 43
0.0000001
 44
0.0000000001
 40
0.0
 40
0.0
 40
0.0
 40
0.0
 40
0.257195702
 40
1.0
 40
1.0
 40
1.0
 40
1.0
 10
69.6133103039
 20
31.0719306743
 30
0.0
 10
69.6130384514
 20
31.0739551996
 30
0.0
 10
69.6121029844
 20
31.0818421695
 30
0.0
 10
69.6116614096
 20
31.0897908783
 30
0.0
 10
69.6116614096
 20
31.0956903675
 30
0.0
  0
SPLINE
  5
65C
100
AcDbEntity
  8
0
100
AcDbSpline
 62
3
  6
CONTINUOUS
 70
0
 71
3
 72
9
 73
5
 74
0
 42
0.0000001
 43
0.0000001
 44
0.0000000001
 40
0.0
 40
0.0
 40
0.0
 40
0.0
 40
0.2235883288
 40
1.0
 40
1.0
 40
1.0
 40
1.0
 10
69.6097344939
 20
30.2110119692
 30
0.0
 10
69.6088220946
 20
30.211705979
 30
0.0
 10
69.604687257
 20
30.2147387978
 30
0.0
 10
69.6003746688
 20
30.2175231298
 30
0.0
 10
69.5969776355
 20
30.2195982764
 30
0.0
  0
SPLINE
  5
65D
100
AcDbEntity
  8
0
100
AcDbSpline
 62
3
  6
CONTINUOUS
 70
0
 71
3
 72
9
 73
5
 74
0
 42
0.0000001
 43
0.0000001
 44
0.0000000001
 40
0.0
 40
0.0
 40
0.0
 40
0.0
 40
0.2235883288
 40
1.0
 40
1.0
 40
1.0
 40
1.0
 10
68.4148249654
 20
30.9032005617
 30
0.0
 10
68.4139125661
 20
30.9038945716
 30
0.0
 10
68.4097777285
 20
30.9069273903
 30
0.0
 10
68.4054651403
 20
30.9097117224
 30
0.0
 10
68.402068107
 20
30.9117868689
 30
0.0
  0
SPLINE
  5
65E
100
AcDbEntity
  8
02___PRT_ALL_AXES
100
AcDbSpline
 62
3
  6
CONTINUOUS
 70
0
 71
3
 72
11
 73
7
 74
0
 42
0.0000001
 43
0.0000001
 44
0.0000000001
 40
0.0
 40
0.0
 40
0.0
 40
0.0
 40
0.205976027
 40
0.4602778001
 40
0.7370524101
 40
1.0
 40
1.0
 40
1.0
 40
1.0
 10
68.7024361935
 20
31.4955993846
 30
0.0
 10
68.6837640487
 20
31.4972762384
 30
0.0
 10
68.643659196
 20
31.514843979
 30
0.0
 10
68.5946071754
 20
31.5615692348
 30
0.0
 10
68.5560479844
 20
31.6235459879
 30
0.0
 10
68.54107681
 20
31.6711806373
 30
0.0
 10
68.5378917282
 20
31.6949004076
 30
0.0
  0
SPLINE
  5
65F
100
AcDbEntity
  8
02___PRT_ALL_AXES
100
AcDbSpline
 62
3
  6
CONTINUOUS
 70
0
 71
3
 72
9
 73
5
 74
0
 42
0.0000001
 43
0.0000001
 44
0.0000000001
 40
0.0
 40
0.0
 40
0.0
 40
0.0
 40
0.257195702
 40
1.0
 40
1.0
 40
1.0
 40
1.0
 10
68.5378917282
 20
31.6949004076
 30
0.0
 10
68.5376198758
 20
31.6969249329
 30
0.0
 10
68.5366844087
 20
31.7048119028
 30
0.0
 10
68.536242834
 20
31.7127606116
 30
0.0
 10
68.536242834
 20
31.7186601007
 30
0.0
  0
SPLINE
  5
660
100
AcDbEntity
  8
02___PRT_ALL_AXES
100
AcDbSpline
 62
3
  6
CONTINUOUS
 70
0
 71
3
 72
9
 73
5
 74
0
 42
0.0000001
 43
0.0000001
 44
0.0000000001
 40
0.0
 40
0.0
 40
0.0
 40
0.0
 40
0.259371206
 40
1.0
 40
1.0
 40
1.0
 40
1.0
 10
68.2494645472
 20
38.2761516195
 30
0.0
 10
68.2494645472
 20
38.2776286436
 30
0.0
 10
68.2495786902
 20
38.2833220209
 30
0.0
 10
68.250160928
 20
38.2890112913
 30
0.0
 10
68.2509098751
 20
38.2931618713
 30
0.0
  0
SPLINE
  5
661
100
AcDbEntity
  8
02___PRT_ALL_AXES
100
AcDbSpline
 62
3
  6
CONTINUOUS
 70
0
 71
3
 72
8
 73
4
 74
0
 42
0.0000001
 43
0.0000001
 44
0.0000000001
 40
0.0
 40
0.0
 40
0.0
 40
0.0
 40
1.0
 40
1.0
 40
1.0
 40
1.0
 10
69.0390289461
 20
38.0035665146
 30
0.0
 10
69.0395686634
 20
38.0089355069
 30
0.0
 10
69.0403592935
 20
38.0142873659
 30
0.0
 10
69.0414395813
 20
38.019574175
 30
0.0
  0
SPLINE
  5
662
100
AcDbEntity
  8
02___PRT_ALL_AXES
100
AcDbSpline
 62
3
  6
CONTINUOUS
 70
0
 71
3
 72
9
 73
5
 74
0
 42
0.0000001
 43
0.0000001
 44
0.0000000001
 40
0.0
 40
0.0
 40
0.0
 40
0.0
 40
0.2561230123
 40
1.0
 40
1.0
 40
1.0
 40
1.0
 10
69.0435266882
 20
38.0283574779
 30
0.0
 10
69.0439030523
 20
38.0297382612
 30
0.0
 10
69.0454593236
 20
38.0351050684
 30
0.0
 10
69.0473715149
 20
38.0403706181
 30
0.0
 10
69.0490090182
 20
38.0441910955
 30
0.0
  0
SPLINE
  5
663
100
AcDbEntity
  8
02___PRT_ALL_AXES
100
AcDbSpline
 62
3
  6
CONTINUOUS
 70
0
 71
3
 72
8
 73
4
 74
0
 42
0.0000001
 43
0.0000001
 44
0.0000000001
 40
0.0
 40
0.0
 40
0.0
 40
0.0
 40
1.0
 40
1.0
 40
1.0
 40
1.0
 10
69.0390289461
 20
35.9924900632
 30
0.0
 10
69.0395686634
 20
35.9978590555
 30
0.0
 10
69.0403592935
 20
36.0032109145
 30
0.0
 10
69.0414395813
 20
36.0084977236
 30
0.0
  0
SPLINE
  5
664
100
AcDbEntity
  8
02___PRT_ALL_AXES
100
AcDbSpline
 62
3
  6
CONTINUOUS
 70
0
 71
3
 72
9
 73
5
 74
0
 42
0.0000001
 43
0.0000001
 44
0.0000000001
 40
0.0
 40
0.0
 40
0.0
 40
0.0
 40
0.2561230123
 40
1.0
 40
1.0
 40
1.0
 40
1.0
 10
69.0435266882
 20
36.0172810265
 30
0.0
 10
69.0439030523
 20
36.0186618098
 30
0.0
 10
69.0454593236
 20
36.024028617
 30
0.0
 10
69.0473715149
 20
36.0292941667
 30
0.0
 10
69.0490090182
 20
36.0331146441
 30
0.0
  0
SPLINE
  5
665
100
AcDbEntity
  8
02___PRT_ALL_AXES
100
AcDbSpline
 62
3
  6
CONTINUOUS
 70
0
 71
3
 72
9
 73
5
 74
0
 42
0.0000001
 43
0.0000001
 44
0.0000000001
 40
0.0
 40
0.0
 40
0.0
 40
0.0
 40
0.259371206
 40
1.0
 40
1.0
 40
1.0
 40
1.0
 10
68.2494645472
 20
34.5845866265
 30
0.0
 10
68.2494645472
 20
34.5860636507
 30
0.0
 10
68.2495786902
 20
34.5917570279
 30
0.0
 10
68.250160928
 20
34.5974462983
 30
0.0
 10
68.2509098751
 20
34.6015968783
 30
0.0
  0
SPLINE
  5
666
100
AcDbEntity
  8
0
100
AcDbSpline
 62
3
  6
CONTINUOUS
 70
0
 71
3
 72
9
 73
5
 74
0
 42
0.0000001
 43
0.0000001
 44
0.0000000001
 40
0.0
 40
0.0
 40
0.0
 40
0.0
 40
0.5521441516
 40
1.0
 40
1.0
 40
1.0
 40
1.0
 10
62.5652799202
 20
25.233666578
 30
0.0
 10
62.5654343107
 20
25.2335771424
 30
0.0
 10
62.565747689
 20
25.2334496187
 30
0.0
 10
62.5660919879
 20
25.2335429871
 30
0.0
 10
62.566203583
 20
25.2336351363
 30
0.0
  0
SPLINE
  5
667
100
AcDbEntity
  8
02___PRT_ALL_AXES
100
AcDbSpline
 62
3
  6
CONTINUOUS
 70
0
 71
3
 72
8
 73
4
 74
0
 42
0.0000001
 43
0.0000001
 44
0.0000000001
 40
0.0
 40
0.0
 40
0.0
 40
0.0
 40
1.0
 40
1.0
 40
1.0
 40
1.0
 10
69.0390289461
 20
33.9814136118
 30
0.0
 10
69.0395686634
 20
33.9867826041
 30
0.0
 10
69.0403592935
 20
33.9921344631
 30
0.0
 10
69.0414395813
 20
33.9974212722
 30
0.0
  0
SPLINE
  5
668
100
AcDbEntity
  8
02___PRT_ALL_AXES
100
AcDbSpline
 62
3
  6
CONTINUOUS
 70
0
 71
3
 72
9
 73
5
 74
0
 42
0.0000001
 43
0.0000001
 44
0.0000000001
 40
0.0
 40
0.0
 40
0.0
 40
0.0
 40
0.2561230123
 40
1.0
 40
1.0
 40
1.0
 40
1.0
 10
69.0435266882
 20
34.0062045751
 30
0.0
 10
69.0439030523
 20
34.0075853584
 30
0.0
 10
69.0454593236
 20
34.0129521656
 30
0.0
 10
69.0473715149
 20
34.0182177153
 30
0.0
 10
69.0490090182
 20
34.0220381927
 30
0.0
  0
SPLINE
  5
669
100
AcDbEntity
  8
0
100
AcDbSpline
 62
3
  6
CONTINUOUS
 70
0
 71
3
 72
12
 73
8
 74
0
 42
0.0000001
 43
0.0000001
 44
0.0000000001
 40
0.0
 40
0.0
 40
0.0
 40
0.0
 40
0.2591537557
 40
0.502392858
 40
0.7376383072
 40
0.8628509752
 40
1.0
 40
1.0
 40
1.0
 40
1.0
 10
68.448186845
 20
30.9614838091
 30
0.0
 10
68.4549597453
 20
30.9732167449
 30
0.0
 10
68.4699375006
 20
30.9949949811
 30
0.0
 10
68.4988821928
 20
31.0212813739
 30
0.0
 10
68.5301277044
 20
31.0319848064
 30
0.0
 10
68.5563651261
 20
31.0290563067
 30
0.0
 10
68.5691527462
 20
31.0235593626
 30
0.0
 10
68.5753570249
 20
31.0199663502
 30
0.0
  0
SPLINE
  5
66A
100
AcDbEntity
  8
0
100
AcDbSpline
 62
3
  6
CONTINUOUS
 70
0
 71
3
 72
11
 73
7
 74
0
 42
0.0000001
 43
0.0000001
 44
0.0000000001
 40
0.0
 40
0.0
 40
0.0
 40
0.0
 40
0.2651462049
 40
0.518011224
 40
0.7600989097
 40
1.0
 40
1.0
 40
1.0
 40
1.0
 10
69.6430963735
 20
30.2692952166
 30
0.0
 10
69.6482284255
 20
30.2781856527
 30
0.0
 10
69.6593092159
 20
30.2949903509
 30
0.0
 10
69.6793889583
 20
30.3167370647
 30
0.0
 10
69.7031923716
 20
30.332934905
 30
0.0
 10
69.7218090473
 20
30.337761211
 30
0.0
 10
69.7310897002
 20
30.3381301341
 30
0.0
  0
SPLINE
  5
66B
100
AcDbEntity
  8
02___PRT_ALL_AXES
100
AcDbSpline
 62
3
  6
CONTINUOUS
 70
0
 71
3
 72
9
 73
5
 74
0
 42
0.0000001
 43
0.0000001
 44
0.0000000001
 40
0.0
 40
0.0
 40
0.0
 40
0.0
 40
0.258317475
 40
1.0
 40
1.0
 40
1.0
 40
1.0
 10
68.536242834
 20
32.4624828978
 30
0.0
 10
68.536242834
 20
32.4643706736
 30
0.0
 10
68.5363737542
 20
32.4716774495
 30
0.0
 10
68.5370405135
 20
32.478979309
 30
0.0
 10
68.5378917282
 20
32.4843322442
 30
0.0
  0
SPLINE
  5
66C
100
AcDbEntity
  8
02___PRT_ALL_AXES
100
AcDbSpline
 62
3
  6
CONTINUOUS
 70
0
 71
3
 72
8
 73
4
 74
0
 42
0.0000001
 43
0.0000001
 44
0.0000000001
 40
0.0
 40
0.0
 40
0.0
 40
0.0
 40
1.0
 40
1.0
 40
1.0
 40
1.0
 10
68.5391495178
 20
32.4909962525
 30
0.0
 10
68.5400938908
 20
32.4952940215
 30
0.0
 10
68.5412973402
 20
32.4995464884
 30
0.0
 10
68.542798473
 20
32.5036828224
 30
0.0
  0
SPLINE
  5
66D
100
AcDbEntity
  8
02___PRT_ALL_AXES
100
AcDbSpline
 62
3
  6
CONTINUOUS
 70
0
 71
3
 72
9
 73
5
 74
0
 42
0.0000001
 43
0.0000001
 44
0.0000000001
 40
0.0
 40
0.0
 40
0.0
 40
0.0
 40
0.258317475
 40
1.0
 40
1.0
 40
1.0
 40
1.0
 10
69.6116614096
 20
31.8395131646
 30
0.0
 10
69.6116614096
 20
31.8414009404
 30
0.0
 10
69.6117923298
 20
31.8487077163
 30
0.0
 10
69.6124590892
 20
31.8560095757
 30
0.0
 10
69.6133103039
 20
31.8613625109
 30
0.0
  0
SPLINE
  5
66E
100
AcDbEntity
  8
02___PRT_ALL_AXES
100
AcDbSpline
 62
3
  6
CONTINUOUS
 70
0
 71
3
 72
8
 73
4
 74
0
 42
0.0000001
 43
0.0000001
 44
0.0000000001
 40
0.0
 40
0.0
 40
0.0
 40
0.0
 40
1.0
 40
1.0
 40
1.0
 40
1.0
 10
69.6145680935
 20
31.8680265192
 30
0.0
 10
69.6155124664
 20
31.8723242883
 30
0.0
 10
69.6167159159
 20
31.8765767551
 30
0.0
 10
69.6182170486
 20
31.8807130892
 30
0.0
  0
SPLINE
  5
66F
100
AcDbEntity
  8
0
100
AcDbSpline
 62
3
  6
CONTINUOUS
 70
0
 71
3
 72
9
 73
5
 74
0
 42
0.0000001
 43
0.0000001
 44
0.0000000001
 40
0.0
 40
0.0
 40
0.0
 40
0.0
 40
0.5212823913
 40
1.0
 40
1.0
 40
1.0
 40
1.0
 10
68.6942019826
 20
30.9756537764
 30
0.0
 10
68.7237233217
 20
30.9313656061
 30
0.0
 10
68.7662428074
 20
30.8368489426
 30
0.0
 10
68.7863629887
 20
30.7358688534
 30
0.0
 10
68.7899085029
 20
30.687118206
 30
0.0
  0
SPLINE
  5
670
100
AcDbEntity
  8
0
100
AcDbSpline
 62
3
  6
CONTINUOUS
 70
0
 71
3
 72
11
 73
7
 74
0
 42
0.0000001
 43
0.0000001
 44
0.0000000001
 40
0.0
 40
0.0
 40
0.0
 40
0.0
 40
0.2853937289
 40
0.5449142046
 40
0.779748274
 40
1.0
 40
1.0
 40
1.0
 40
1.0
 10
68.4020681515
 20
30.9117868194
 30
0.0
 10
68.4036648563
 20
30.9318929446
 30
0.0
 10
68.4093191274
 20
30.9701750037
 30
0.0
 10
68.4272276235
 20
31.022699172
 30
0.0
 10
68.4552637459
 20
31.0656053446
 30
0.0
 10
68.4830447384
 20
31.0844082409
 30
0.0
 10
68.4977745204
 20
31.0894405648
 30
0.0
  0
SPLINE
  5
671
100
AcDbEntity
  8
0
100
AcDbSpline
 62
3
  6
CONTINUOUS
 70
0
 71
3
 72
11
 73
7
 74
0
 42
0.0000001
 43
0.0000001
 44
0.0000000001
 40
0.0
 40
0.0
 40
0.0
 40
0.0
 40
0.2853937289
 40
0.5449142046
 40
0.779748274
 40
1.0
 40
1.0
 40
1.0
 40
1.0
 10
69.59697768
 20
30.2195982269
 30
0.0
 10
69.5985743848
 20
30.2397043521
 30
0.0
 10
69.6042286559
 20
30.2779864112
 30
0.0
 10
69.622137152
 20
30.3305105795
 30
0.0
 10
69.6501732744
 20
30.3734167521
 30
0.0
 10
69.6779542669
 20
30.3922196484
 30
0.0
 10
69.6926840489
 20
30.3972519723
 30
0.0
  0
SPLINE
  5
672
100
AcDbEntity
  8
02___PRT_ALL_AXES
100
AcDbSpline
 62
3
  6
CONTINUOUS
 70
0
 71
3
 72
11
 73
7
 74
0
 42
0.0000001
 43
0.0000001
 44
0.0000000001
 40
0.0
 40
0.0
 40
0.0
 40
0.0
 40
0.2895174944
 40
0.5486773052
 40
0.781979841
 40
1.0
 40
1.0
 40
1.0
 40
1.0
 10
60.3272143733
 20
25.4630578775
 30
0.0
 10
60.3183112369
 20
25.4579004582
 30
0.0
 10
60.3021607094
 20
25.4467450108
 30
0.0
 10
60.2828762388
 20
25.4263931296
 30
0.0
 10
60.2706708295
 20
25.4038967261
 30
0.0
 10
60.2678211429
 20
25.3877495437
 30
0.0
 10
60.2678207907
 20
25.3800014002
 30
0.0
  0
SPLINE
  5
673
100
AcDbEntity
  8
02___PRT_ALL_AXES
100
AcDbSpline
 62
3
  6
CONTINUOUS
 70
0
 71
3
 72
11
 73
7
 74
0
 42
0.0000001
 43
0.0000001
 44
0.0000000001
 40
0.0
 40
0.0
 40
0.0
 40
0.0
 40
0.2895174944
 40
0.5486773052
 40
0.781979841
 40
1.0
 40
1.0
 40
1.0
 40
1.0
 10
59.3712867505
 20
24.9093070035
 30
0.0
 10
59.3623836141
 20
24.9041495842
 30
0.0
 10
59.3462330866
 20
24.8929941368
 30
0.0
 10
59.326948616
 20
24.8726422556
 30
0.0
 10
59.3147432067
 20
24.8501458521
 30
0.0
 10
59.3118935202
 20
24.8339986697
 30
0.0
 10
59.3118931679
 20
24.8262505262
 30
0.0
  0
SPLINE
  5
674
100
AcDbEntity
  8
0
100
AcDbSpline
 62
3
  6
CONTINUOUS
 70
0
 71
3
 72
12
 73
8
 74
0
 42
0.0000001
 43
0.0000001
 44
0.0000000001
 40
0.0
 40
0.0
 40
0.0
 40
0.0
 40
0.1160400262
 40
0.2433867098
 40
0.5075441282
 40
0.7630862014
 40
1.0
 40
1.0
 40
1.0
 40
1.0
 10
68.3453186209
 20
30.6290127164
 30
0.0
 10
68.3600900921
 20
30.6204580878
 30
0.0
 10
68.3936051275
 20
30.6068280317
 30
0.0
 10
68.4670751763
 20
30.5921500648
 30
0.0
 10
68.5632475877
 20
30.5933286024
 30
0.0
 10
68.6727622005
 20
30.6154114123
 30
0.0
 10
68.7408794807
 20
30.6412525491
 30
0.0
 10
68.7722236997
 20
30.6564876427
 30
0.0
  0
SPLINE
  5
675
100
AcDbEntity
  8
0
100
AcDbSpline
 62
3
  6
CONTINUOUS
 70
0
 71
3
 72
14
 73
10
 74
0
 42
0.0000001
 43
0.0000001
 44
0.0000000001
 40
0.0
 40
0.0
 40
0.0
 40
0.0
 40
0.2761555332
 40
0.4008088315
 40
0.5169369924
 40
0.6270459011
 40
0.7373176026
 40
0.8582472208
 40
1.0
 40
1.0
 40
1.0
 40
1.0
 10
69.57929311
 20
30.1889675286
 30
0.0
 10
69.5557346755
 20
30.1727027151
 30
0.0
 10
69.5234070361
 20
30.145656852
 30
0.0
 10
69.4911296828
 20
30.1025870717
 30
0.0
 10
69.4753355829
 20
30.069471348
 30
0.0
 10
69.4690429826
 20
30.034594974
 30
0.0
 10
69.4753899229
 20
29.9988866767
 30
0.0
 10
69.4969726669
 20
29.9656822604
 30
0.0
 10
69.5191491505
 20
29.9490366384
 30
0.0
 10
69.5318637829
 20
29.9416694439
 30
0.0
  0
SPLINE
  5
676
100
AcDbEntity
  8
0
100
AcDbSpline
 62
3
  6
CONTINUOUS
 70
0
 71
3
 72
9
 73
5
 74
0
 42
0.0000001
 43
0.0000001
 44
0.0000000001
 40
0.0
 40
0.0
 40
0.0
 40
0.0
 40
0.4766047952
 40
1.0
 40
1.0
 40
1.0
 40
1.0
 10
69.5402281493
 20
29.9368241239
 30
0.0
 10
69.5671591512
 20
29.9212275245
 30
0.0
 10
69.6314909749
 20
29.9025032788
 30
0.0
 10
69.6970691669
 20
29.9005530621
 30
0.0
 10
69.7311880871
 20
29.9025373294
 30
0.0
  0
SPLINE
  5
677
100
AcDbEntity
  8
0
100
AcDbSpline
 62
3
  6
CONTINUOUS
 70
0
 71
3
 72
17
 73
13
 74
0
 42
0.0000001
 43
0.0000001
 44
0.0000000001
 40
0.0
 40
0.0
 40
0.0
 40
0.0
 40
0.127081583
 40
0.266678035
 40
0.4120783695
 40
0.5555655083
 40
0.6897443969
 40
0.8089305728
 40
0.8621665105
 40
0.9112481168
 40
0.9568207001
 40
1.0
 40
1.0
 40
1.0
 40
1.0
 10
60.7516462378
 20
24.1830627323
 30
0.0
 10
60.6329624566
 20
24.1143114524
 30
0.0
 10
60.3649935746
 20
24.0020232692
 30
0.0
 10
59.9277691988
 20
23.9101296093
 30
0.0
 10
59.4636106792
 20
23.891042549
 30
0.0
 10
59.0081832991
 20
23.9464548733
 30
0.0
 10
58.596283333
 20
24.0719870316
 30
0.0
 10
58.3034075006
 20
24.2340727516
 30
0.0
 10
58.123562998
 20
24.3929504757
 30
0.0
 10
58.0227392628
 20
24.5178575169
 30
0.0
 10
57.9533052669
 20
24.65061698
 30
0.0
 10
57.9289544858
 20
24.7443665801
 30
0.0
 10
57.9229344874
 20
24.7905794777
 30
0.0
  0
SPLINE
  5
678
100
AcDbEntity
  8
0
100
AcDbSpline
 62
3
  6
CONTINUOUS
 70
0
 71
3
 72
12
 73
8
 74
0
 42
0.0000001
 43
0.0000001
 44
0.0000000001
 40
0.0
 40
0.0
 40
0.0
 40
0.0
 40
0.2593488812
 40
0.5028371399
 40
0.7381616024
 40
0.8632056333
 40
1.0
 40
1.0
 40
1.0
 40
1.0
 10
68.3640470989
 20
30.8157498989
 30
0.0
 10
68.3572471044
 20
30.8039736794
 30
0.0
 10
68.3458256128
 20
30.780023849
 30
0.0
 10
68.3374567551
 20
30.7416889731
 30
0.0
 10
68.3437196761
 20
30.7091594328
 30
0.0
 10
68.3593208147
 20
30.6877922633
 30
0.0
 10
68.3704597806
 20
30.679420004
 30
0.0
 10
68.3766659
 20
30.6758241908
 30
0.0
  0
SPLINE
  5
679
100
AcDbEntity
  8
0
100
AcDbSpline
 62
3
  6
CONTINUOUS
 70
0
 71
3
 72
14
 73
10
 74
0
 42
0.0000001
 43
0.0000001
 44
0.0000000001
 40
0.0
 40
0.0
 40
0.0
 40
0.0
 40
0.2761555332
 40
0.4008088315
 40
0.5169369924
 40
0.6270459011
 40
0.7373176026
 40
0.8582472208
 40
1.0
 40
1.0
 40
1.0
 40
1.0
 10
68.3843835815
 20
30.8811561211
 30
0.0
 10
68.3608251471
 20
30.8648913076
 30
0.0
 10
68.3284975076
 20
30.8378454445
 30
0.0
 10
68.2962201543
 20
30.7947756642
 30
0.0
 10
68.2804260544
 20
30.7616599405
 30
0.0
 10
68.2741334541
 20
30.7267835665
 30
0.0
 10
68.2804803945
 20
30.6910752692
 30
0.0
 10
68.3020631384
 20
30.6578708529
 30
0.0
 10
68.324239622
 20
30.6412252309
 30
0.0
 10
68.3369542545
 20
30.6338580364
 30
0.0
  0
SPLINE
  5
67A
100
AcDbEntity
  8
0
100
AcDbSpline
 62
3
  6
CONTINUOUS
 70
0
 71
3
 72
9
 73
5
 74
0
 42
0.0000001
 43
0.0000001
 44
0.0000000001
 40
0.0
 40
0.0
 40
0.0
 40
0.0
 40
0.2634806022
 40
1.0
 40
1.0
 40
1.0
 40
1.0
 10
70.3583682444
 20
29.7508727415
 30
0.0
 10
70.3597053771
 20
29.7525544755
 30
0.0
 10
70.3642499774
 20
29.7593035369
 30
0.0
 10
70.3670832136
 20
29.7674847246
 30
0.0
 10
70.3670832136
 20
29.7734905906
 30
0.0
  0
SPLINE
  5
67B
100
AcDbEntity
  8
0
100
AcDbSpline
 62
3
  6
CONTINUOUS
 70
0
 71
3
 72
9
 73
5
 74
0
 42
0.0000001
 43
0.0000001
 44
0.0000000001
 40
0.0
 40
0.0
 40
0.0
 40
0.0
 40
0.4996720796
 40
1.0
 40
1.0
 40
1.0
 40
1.0
 10
68.7899083444
 20
30.6871182978
 30
0.0
 10
68.7899083517
 20
30.6810617164
 30
0.0
 10
68.7857593911
 20
30.6690962773
 30
0.0
 10
68.7774714704
 20
30.6595273474
 30
0.0
 10
68.7722237524
 20
30.6564876122
 30
0.0
  0
SPLINE
  5
67C
100
AcDbEntity
  8
0
100
AcDbSpline
 62
3
  6
CONTINUOUS
 70
0
 71
3
 72
9
 73
5
 74
0
 42
0.0000001
 43
0.0000001
 44
0.0000000001
 40
0.0
 40
0.0
 40
0.0
 40
0.0
 40
0.5003282622
 40
1.0
 40
1.0
 40
1.0
 40
1.0
 10
69.5792931449
 20
30.1889675083
 30
0.0
 10
69.5845407917
 20
30.1920073422
 30
0.0
 10
69.5928285647
 20
30.201576291
 30
0.0
 10
69.5969776654
 20
30.2135415877
 30
0.0
 10
69.5969778153
 20
30.2195981485
 30
0.0
  0
SPLINE
  5
67D
100
AcDbEntity
  8
0
100
AcDbSpline
 62
3
  6
CONTINUOUS
 70
0
 71
3
 72
9
 73
5
 74
0
 42
0.0000001
 43
0.0000001
 44
0.0000000001
 40
0.0
 40
0.0
 40
0.0
 40
0.0
 40
0.5003282622
 40
1.0
 40
1.0
 40
1.0
 40
1.0
 10
68.3843836165
 20
30.8811561008
 30
0.0
 10
68.3896312632
 20
30.8841959347
 30
0.0
 10
68.3979190363
 20
30.8937648835
 30
0.0
 10
68.4020681369
 20
30.9057301802
 30
0.0
 10
68.4020682868
 20
30.911786741
 30
0.0
  0
SPLINE
  5
67E
100
AcDbEntity
  8
0
100
AcDbSpline
 62
3
  6
CONTINUOUS
 70
0
 71
3
 72
12
 73
8
 74
0
 42
0.0000001
 43
0.0000001
 44
0.0000000001
 40
0.0
 40
0.0
 40
0.0
 40
0.0
 40
0.2593488812
 40
0.5028371399
 40
0.7381616024
 40
0.8632056333
 40
1.0
 40
1.0
 40
1.0
 40
1.0
 10
69.5589566273
 20
30.1235613064
 30
0.0
 10
69.5521566329
 20
30.1117850869
 30
0.0
 10
69.5407351412
 20
30.0878352565
 30
0.0
 10
69.5323662836
 20
30.0495003806
 30
0.0
 10
69.5386292046
 20
30.0169708403
 30
0.0
 10
69.5542303432
 20
29.9956036708
 30
0.0
 10
69.5653693091
 20
29.9872314115
 30
0.0
 10
69.5715754285
 20
29.9836355983
 30
0.0
  0
SPLINE
  5
67F
100
AcDbEntity
  8
02___PRT_ALL_AXES
100
AcDbSpline
 62
3
  6
CONTINUOUS
 70
0
 71
3
 72
11
 73
7
 74
0
 42
0.0000001
 43
0.0000001
 44
0.0000000001
 40
0.0
 40
0.0
 40
0.0
 40
0.0
 40
0.233052655
 40
0.4907960392
 40
0.7534589778
 40
1.0
 40
1.0
 40
1.0
 40
1.0
 10
69.7311523625
 20
39.2360712688
 30
0.0
 10
69.7160909551
 20
39.2447960585
 30
0.0
 10
69.6872555542
 20
39.268215488
 30
0.0
 10
69.652162095
 20
39.3126507239
 30
0.0
 10
69.6259252657
 20
39.3639607573
 30
0.0
 10
69.6157608511
 20
39.401025813
 30
0.0
 10
69.6133103039
 20
39.4192753973
 30
0.0
  0
SPLINE
  5
680
100
AcDbEntity
  8
02___PRT_ALL_AXES
100
AcDbSpline
 62
3
  6
CONTINUOUS
 70
0
 71
3
 72
9
 73
5
 74
0
 42
0.0000001
 43
0.0000001
 44
0.0000000001
 40
0.0
 40
0.0
 40
0.0
 40
0.0
 40
0.257195702
 40
1.0
 40
1.0
 40
1.0
 40
1.0
 10
69.6133103039
 20
39.4192753973
 30
0.0
 10
69.6130384514
 20
39.4212999226
 30
0.0
 10
69.6121029844
 20
39.4291868925
 30
0.0
 10
69.6116614096
 20
39.4371356013
 30
0.0
 10
69.6116614096
 20
39.4430350904
 30
0.0
  0
SPLINE
  5
681
100
AcDbEntity
  8
0
100
AcDbSpline
 62
3
  6
CONTINUOUS
 70
0
 71
3
 72
8
 73
4
 74
0
 42
0.0000001
 43
0.0000001
 44
0.0000000001
 40
0.0
 40
0.0
 40
0.0
 40
0.0
 40
1.0
 40
1.0
 40
1.0
 40
1.0
 10
60.2179996424
 20
26.5934018491
 30
0.0
 10
60.2171526974
 20
26.5938924684
 30
0.0
 10
60.2163171384
 20
26.595570138
 30
0.0
 10
60.2170754636
 20
26.5961889805
 30
0.0
  0
SPLINE
  5
682
100
AcDbEntity
  8
02___PRT_ALL_AXES
100
AcDbSpline
 62
3
  6
CONTINUOUS
 70
0
 71
3
 72
8
 73
4
 74
0
 42
0.0000001
 43
0.0000001
 44
0.0000000001
 40
0.0
 40
0.0
 40
0.0
 40
0.0
 40
1.0
 40
1.0
 40
1.0
 40
1.0
 10
69.2633285234
 20
33.6720575193
 30
0.0
 10
69.2587352817
 20
33.6720508191
 30
0.0
 10
69.2541330362
 20
33.6723750832
 30
0.0
 10
69.249579593
 20
33.6729784643
 30
0.0
  0
SPLINE
  5
683
100
AcDbEntity
  8
02___PRT_ALL_AXES
100
AcDbSpline
 62
3
  6
CONTINUOUS
 70
0
 71
3
 72
8
 73
4
 74
0
 42
0.0000001
 43
0.0000001
 44
0.0000000001
 40
0.0
 40
0.0
 40
0.0
 40
0.0
 40
1.0
 40
1.0
 40
1.0
 40
1.0
 10
69.2409023634
 20
33.6744651971
 30
0.0
 10
69.2355631264
 20
33.6755830773
 30
0.0
 10
69.2302898538
 20
33.6770551193
 30
0.0
 10
69.2251238201
 20
33.6788070337
 30
0.0
  0
SPLINE
  5
684
100
AcDbEntity
  8
02___PRT_ALL_AXES
100
AcDbSpline
 62
3
  6
CONTINUOUS
 70
0
 71
3
 72
9
 73
5
 74
0
 42
0.0000001
 43
0.0000001
 44
0.0000000001
 40
0.0
 40
0.0
 40
0.0
 40
0.0
 40
0.2422820969
 40
1.0
 40
1.0
 40
1.0
 40
1.0
 10
69.2174308314
 20
33.6816475458
 30
0.0
 10
69.2154263637
 20
33.6824475051
 30
0.0
 10
69.2072194644
 20
33.6859146058
 30
0.0
 10
69.1992835078
 20
33.6900119794
 30
0.0
 10
69.1934430747
 20
33.6933952323
 30
0.0
  0
SPLINE
  5
685
100
AcDbEntity
  8
02___PRT_ALL_AXES
100
AcDbSpline
 62
3
  6
CONTINUOUS
 70
0
 71
3
 72
11
 73
7
 74
0
 42
0.0000001
 43
0.0000001
 44
0.0000000001
 40
0.0
 40
0.0
 40
0.0
 40
0.0
 40
0.2360325922
 40
0.4973550892
 40
0.7601062837
 40
1.0
 40
1.0
 40
1.0
 40
1.0
 10
69.1934430747
 20
33.6933952323
 30
0.0
 10
69.1721070973
 20
33.7057547623
 30
0.0
 10
69.1315929884
 20
33.7395469487
 30
0.0
 10
69.0837052892
 20
33.8035838983
 30
0.0
 10
69.0500512008
 20
33.8765654246
 30
0.0
 10
69.0393004264
 20
33.9287340193
 30
0.0
 10
69.0382831594
 20
33.9537740081
 30
0.0
  0
SPLINE
  5
686
100
AcDbEntity
  8
02___PRT_ALL_AXES
100
AcDbSpline
 62
3
  6
CONTINUOUS
 70
0
 71
3
 72
9
 73
5
 74
0
 42
0.0000001
 43
0.0000001
 44
0.0000000001
 40
0.0
 40
0.0
 40
0.0
 40
0.0
 40
0.2406573739
 40
1.0
 40
1.0
 40
1.0
 40
1.0
 10
68.3485905541
 20
34.4324095086
 30
0.0
 10
68.3472984326
 20
34.4328774183
 30
0.0
 10
68.3419781152
 20
34.4349556617
 30
0.0
 10
68.3368602442
 20
34.4375384709
 30
0.0
 10
68.3331082142
 20
34.4397119513
 30
0.0
  0
SPLINE
  5
687
100
AcDbEntity
  8
02___PRT_ALL_AXES
100
AcDbSpline
 62
3
  6
CONTINUOUS
 70
0
 71
3
 72
11
 73
7
 74
0
 42
0.0000001
 43
0.0000001
 44
0.0000000001
 40
0.0
 40
0.0
 40
0.0
 40
0.0
 40
0.2374255311
 40
0.5003177374
 40
0.7630381624
 40
1.0
 40
1.0
 40
1.0
 40
1.0
 10
68.3331082142
 20
34.4397119513
 30
0.0
 10
68.3212352108
 20
34.4465897586
 30
0.0
 10
68.2987693766
 20
34.4655289666
 30
0.0
 10
68.2725406573
 20
34.5013818739
 30
0.0
 10
68.2546130916
 20
34.5419969603
 30
0.0
 10
68.2494645472
 20
34.5708921835
 30
0.0
 10
68.2494645472
 20
34.5845866265
 30
0.0
  0
SPLINE
  5
688
100
AcDbEntity
  8
02___PRT_ALL_AXES
100
AcDbSpline
 62
3
  6
CONTINUOUS
 70
0
 71
3
 72
8
 73
4
 74
0
 42
0.0000001
 43
0.0000001
 44
0.0000000001
 40
0.0
 40
0.0
 40
0.0
 40
0.0
 40
1.0
 40
1.0
 40
1.0
 40
1.0
 10
69.2633285234
 20
35.6831339707
 30
0.0
 10
69.2587352817
 20
35.6831272705
 30
0.0
 10
69.2541330362
 20
35.6834515346
 30
0.0
 10
69.249579593
 20
35.6840549157
 30
0.0
  0
SPLINE
  5
689
100
AcDbEntity
  8
02___PRT_ALL_AXES
100
AcDbSpline
 62
3
  6
CONTINUOUS
 70
0
 71
3
 72
8
 73
4
 74
0
 42
0.0000001
 43
0.0000001
 44
0.0000000001
 40
0.0
 40
0.0
 40
0.0
 40
0.0
 40
1.0
 40
1.0
 40
1.0
 40
1.0
 10
69.2409023634
 20
35.6855416485
 30
0.0
 10
69.2355631264
 20
35.6866595287
 30
0.0
 10
69.2302898538
 20
35.6881315707
 30
0.0
 10
69.2251238201
 20
35.6898834851
 30
0.0
  0
SPLINE
  5
68A
100
AcDbEntity
  8
02___PRT_ALL_AXES
100
AcDbSpline
 62
3
  6
CONTINUOUS
 70
0
 71
3
 72
9
 73
5
 74
0
 42
0.0000001
 43
0.0000001
 44
0.0000000001
 40
0.0
 40
0.0
 40
0.0
 40
0.0
 40
0.2422820969
 40
1.0
 40
1.0
 40
1.0
 40
1.0
 10
69.2174308314
 20
35.6927239972
 30
0.0
 10
69.2154263637
 20
35.6935239565
 30
0.0
 10
69.2072194644
 20
35.6969910572
 30
0.0
 10
69.1992835078
 20
35.7010884308
 30
0.0
 10
69.1934430747
 20
35.7044716837
 30
0.0
  0
SPLINE
  5
68B
100
AcDbEntity
  8
02___PRT_ALL_AXES
100
AcDbSpline
 62
3
  6
CONTINUOUS
 70
0
 71
3
 72
11
 73
7
 74
0
 42
0.0000001
 43
0.0000001
 44
0.0000000001
 40
0.0
 40
0.0
 40
0.0
 40
0.0
 40
0.2360325922
 40
0.4973550892
 40
0.7601062837
 40
1.0
 40
1.0
 40
1.0
 40
1.0
 10
69.1934430747
 20
35.7044716837
 30
0.0
 10
69.1721070973
 20
35.7168312137
 30
0.0
 10
69.1315929884
 20
35.7506234001
 30
0.0
 10
69.0837052892
 20
35.8146603497
 30
0.0
 10
69.0500512008
 20
35.887641876
 30
0.0
 10
69.0393004264
 20
35.9398104707
 30
0.0
 10
69.0382831594
 20
35.9648504595
 30
0.0
  0
SPLINE
  5
68C
100
AcDbEntity
  8
02___PRT_ALL_AXES
100
AcDbSpline
 62
3
  6
CONTINUOUS
 70
0
 71
3
 72
8
 73
4
 74
0
 42
0.0000001
 43
0.0000001
 44
0.0000000001
 40
0.0
 40
0.0
 40
0.0
 40
0.0
 40
1.0
 40
1.0
 40
1.0
 40
1.0
 10
69.2633285234
 20
37.6942104221
 30
0.0
 10
69.2587352817
 20
37.6942037219
 30
0.0
 10
69.2541330362
 20
37.694527986
 30
0.0
 10
69.249579593
 20
37.6951313671
 30
0.0
  0
SPLINE
  5
68D
100
AcDbEntity
  8
02___PRT_ALL_AXES
100
AcDbSpline
 62
3
  6
CONTINUOUS
 70
0
 71
3
 72
8
 73
4
 74
0
 42
0.0000001
 43
0.0000001
 44
0.0000000001
 40
0.0
 40
0.0
 40
0.0
 40
0.0
 40
1.0
 40
1.0
 40
1.0
 40
1.0
 10
69.2409023634
 20
37.6966180999
 30
0.0
 10
69.2355631264
 20
37.6977359801
 30
0.0
 10
69.2302898538
 20
37.6992080221
 30
0.0
 10
69.2251238201
 20
37.7009599365
 30
0.0
  0
SPLINE
  5
68E
100
AcDbEntity
  8
02___PRT_ALL_AXES
100
AcDbSpline
 62
3
  6
CONTINUOUS
 70
0
 71
3
 72
9
 73
5
 74
0
 42
0.0000001
 43
0.0000001
 44
0.0000000001
 40
0.0
 40
0.0
 40
0.0
 40
0.0
 40
0.2422820969
 40
1.0
 40
1.0
 40
1.0
 40
1.0
 10
69.2174308314
 20
37.7038004486
 30
0.0
 10
69.2154263637
 20
37.7046004079
 30
0.0
 10
69.2072194644
 20
37.7080675086
 30
0.0
 10
69.1992835078
 20
37.7121648822
 30
0.0
 10
69.1934430747
 20
37.7155481351
 30
0.0
  0
SPLINE
  5
68F
100
AcDbEntity
  8
02___PRT_ALL_AXES
100
AcDbSpline
 62
3
  6
CONTINUOUS
 70
0
 71
3
 72
11
 73
7
 74
0
 42
0.0000001
 43
0.0000001
 44
0.0000000001
 40
0.0
 40
0.0
 40
0.0
 40
0.0
 40
0.2360325922
 40
0.4973550892
 40
0.7601062837
 40
1.0
 40
1.0
 40
1.0
 40
1.0
 10
69.1934430747
 20
37.7155481351
 30
0.0
 10
69.1721070973
 20
37.7279076651
 30
0.0
 10
69.1315929884
 20
37.7616998515
 30
0.0
 10
69.0837052892
 20
37.8257368012
 30
0.0
 10
69.0500512008
 20
37.8987183274
 30
0.0
 10
69.0393004264
 20
37.9508869221
 30
0.0
 10
69.0382831594
 20
37.9759269109
 30
0.0
  0
SPLINE
  5
690
100
AcDbEntity
  8
02___PRT_ALL_AXES
100
AcDbSpline
 62
3
  6
CONTINUOUS
 70
0
 71
3
 72
9
 73
5
 74
0
 42
0.0000001
 43
0.0000001
 44
0.0000000001
 40
0.0
 40
0.0
 40
0.0
 40
0.0
 40
0.2406573739
 40
1.0
 40
1.0
 40
1.0
 40
1.0
 10
68.3485905541
 20
38.1239745016
 30
0.0
 10
68.3472984326
 20
38.1244424113
 30
0.0
 10
68.3419781152
 20
38.1265206547
 30
0.0
 10
68.3368602442
 20
38.1291034639
 30
0.0
 10
68.3331082142
 20
38.1312769443
 30
0.0
  0
SPLINE
  5
691
100
AcDbEntity
  8
02___PRT_ALL_AXES
100
AcDbSpline
 62
3
  6
CONTINUOUS
 70
0
 71
3
 72
11
 73
7
 74
0
 42
0.0000001
 43
0.0000001
 44
0.0000000001
 40
0.0
 40
0.0
 40
0.0
 40
0.0
 40
0.2374255311
 40
0.5003177374
 40
0.7630381624
 40
1.0
 40
1.0
 40
1.0
 40
1.0
 10
68.3331082142
 20
38.1312769443
 30
0.0
 10
68.3212352108
 20
38.1381547516
 30
0.0
 10
68.2987693766
 20
38.1570939596
 30
0.0
 10
68.2725406573
 20
38.1929468669
 30
0.0
 10
68.2546130916
 20
38.2335619533
 30
0.0
 10
68.2494645472
 20
38.2624571765
 30
0.0
 10
68.2494645472
 20
38.2761516195
 30
0.0
  0
SPLINE
  5
692
100
AcDbEntity
  8
0
100
AcDbSpline
 62
3
  6
CONTINUOUS
 70
0
 71
3
 72
9
 73
5
 74
0
 42
0.0000001
 43
0.0000001
 44
0.0000000001
 40
0.0
 40
0.0
 40
0.0
 40
0.0
 40
0.4499595423
 40
1.0
 40
1.0
 40
1.0
 40
1.0
 10
62.566204099
 20
36.1320157729
 30
0.0
 10
62.5660916693
 20
36.1319240229
 30
0.0
 10
62.5657468258
 20
36.1318383774
 30
0.0
 10
62.5654334179
 20
36.1319590867
 30
0.0
 10
62.5652799202
 20
36.132048005
 30
0.0
  0
SPLINE
  5
693
100
AcDbEntity
  8
02___PRT_ALL_AXES
100
AcDbSpline
 62
3
  6
CONTINUOUS
 70
0
 71
3
 72
15
 73
11
 74
0
 42
0.0000001
 43
0.0000001
 44
0.0000000001
 40
0.0
 40
0.0
 40
0.0
 40
0.0
 40
0.0871429469
 40
0.1867395101
 40
0.3041583559
 40
0.4379242546
 40
0.5823326716
 40
0.7295423987
 40
0.8712063409
 40
1.0
 40
1.0
 40
1.0
 40
1.0
 10
59.7174586199
 20
24.8262382187
 30
0.0
 10
59.7174591533
 20
24.837971464
 30
0.0
 10
59.710412107
 20
24.8633467938
 30
0.0
 10
59.6828344893
 20
24.8948341699
 30
0.0
 10
59.642109234
 20
24.9197382371
 30
0.0
 10
59.5912658542
 20
24.9367856475
 30
0.0
 10
59.534270782
 20
24.9448181954
 30
0.0
 10
59.4756718305
 20
24.9431933346
 30
0.0
 10
59.42027449
 20
24.9320692472
 30
0.0
 10
59.3862921514
 20
24.9179993497
 30
0.0
 10
59.3712867505
 20
24.9093070035
 30
0.0
  0
SPLINE
  5
694
100
AcDbEntity
  8
0
100
AcDbSpline
 62
3
  6
CONTINUOUS
 70
0
 71
3
 72
9
 73
5
 74
0
 42
0.0000001
 43
0.0000001
 44
0.0000000001
 40
0.0
 40
0.0
 40
0.0
 40
0.0
 40
0.4492707432
 40
1.0
 40
1.0
 40
1.0
 40
1.0
 10
70.3619348692
 20
40.6452509936
 30
0.0
 10
70.3636124015
 20
40.6442792192
 30
0.0
 10
70.3665073207
 20
40.6406468918
 30
0.0
 10
70.3670832136
 20
40.6362308925
 30
0.0
 10
70.3670832136
 20
40.633854408
 30
0.0
  0
SPLINE
  5
695
100
AcDbEntity
  8
02___PRT_ALL_AXES
100
AcDbSpline
 62
3
  6
CONTINUOUS
 70
0
 71
3
 72
15
 73
11
 74
0
 42
0.0000001
 43
0.0000001
 44
0.0000000001
 40
0.0
 40
0.0
 40
0.0
 40
0.0
 40
0.0871429469
 40
0.1867395101
 40
0.3041583559
 40
0.4379242546
 40
0.5823326716
 40
0.7295423987
 40
0.8712063409
 40
1.0
 40
1.0
 40
1.0
 40
1.0
 10
60.6733862427
 20
25.3799890927
 30
0.0
 10
60.6733867761
 20
25.391722338
 30
0.0
 10
60.6663397298
 20
25.4170976678
 30
0.0
 10
60.6387621121
 20
25.4485850439
 30
0.0
 10
60.5980368568
 20
25.4734891111
 30
0.0
 10
60.547193477
 20
25.4905365215
 30
0.0
 10
60.4901984048
 20
25.4985690694
 30
0.0
 10
60.4315994533
 20
25.4969442086
 30
0.0
 10
60.3762021128
 20
25.4858201212
 30
0.0
 10
60.3422197742
 20
25.4717502237
 30
0.0
 10
60.3272143733
 20
25.4630578775
 30
0.0
  0
SPLINE
  5
696
100
AcDbEntity
  8
0
100
AcDbSpline
 62
3
  6
CONTINUOUS
 70
0
 71
3
 72
9
 73
5
 74
0
 42
0.0000001
 43
0.0000001
 44
0.0000000001
 40
0.0
 40
0.0
 40
0.0
 40
0.0
 40
0.4496378528
 40
1.0
 40
1.0
 40
1.0
 40
1.0
 10
70.3744083727
 20
40.4858650544
 30
0.0
 10
70.3744083727
 20
40.4878190528
 30
0.0
 10
70.3727086776
 20
40.4921762969
 30
0.0
 10
70.3691527692
 20
40.494910591
 30
0.0
 10
70.3670832136
 20
40.4961094456
 30
0.0
  0
SPLINE
  5
697
100
AcDbEntity
  8
0
100
AcDbSpline
 62
3
  6
CONTINUOUS
 70
0
 71
3
 72
9
 73
5
 74
0
 42
0.0000001
 43
0.0000001
 44
0.0000000001
 40
0.0
 40
0.0
 40
0.0
 40
0.0
 40
0.5130300752
 40
1.0
 40
1.0
 40
1.0
 40
1.0
 10
68.7899071173
 20
30.6871182149
 30
0.0
 10
68.7729862823
 20
30.6963832197
 30
0.0
 10
68.7383041357
 20
30.7112864593
 30
0.0
 10
68.7024623492
 20
30.7228223702
 30
0.0
 10
68.6847309829
 20
30.7273946256
 30
0.0
  0
SPLINE
  5
698
100
AcDbEntity
  8
0
100
AcDbSpline
 62
3
  6
CONTINUOUS
 70
0
 71
3
 72
9
 73
5
 74
0
 42
0.0000001
 43
0.0000001
 44
0.0000000001
 40
0.0
 40
0.0
 40
0.0
 40
0.0
 40
0.4868466863
 40
1.0
 40
1.0
 40
1.0
 40
1.0
 10
68.6847309829
 20
30.7273946256
 30
0.0
 10
68.6975938145
 20
30.7143717722
 30
0.0
 10
68.7255399883
 20
30.6891496961
 30
0.0
 10
68.7557670442
 20
30.6665580426
 30
0.0
 10
68.7722238078
 20
30.656487854
 30
0.0
  0
SPLINE
  5
699
100
AcDbEntity
  8
0
100
AcDbSpline
 62
3
  6
CONTINUOUS
 70
0
 71
3
 72
9
 73
5
 74
0
 42
0.0000001
 43
0.0000001
 44
0.0000000001
 40
0.0
 40
0.0
 40
0.0
 40
0.0
 40
0.27535639
 40
1.0
 40
1.0
 40
1.0
 40
1.0
 10
68.3843838092
 20
30.8811568752
 30
0.0
 10
68.3856213883
 20
30.8804783759
 30
0.0
 10
68.3901387393
 20
30.8780574879
 30
0.0
 10
68.3947511327
 20
30.8758050868
 30
0.0
 10
68.3981690155
 20
30.8743512443
 30
0.0
  0
SPLINE
  5
69A
100
AcDbEntity
  8
0
100
AcDbSpline
 62
3
  6
CONTINUOUS
 70
0
 71
3
 72
9
 73
5
 74
0
 42
0.0000001
 43
0.0000001
 44
0.0000000001
 40
0.0
 40
0.0
 40
0.0
 40
0.0
 40
0.2292355268
 40
1.0
 40
1.0
 40
1.0
 40
1.0
 10
68.3369542543
 20
30.6338580364
 30
0.0
 10
68.3407988004
 20
30.6360851096
 30
0.0
 10
68.356701552
 20
30.6472782026
 30
0.0
 10
68.3691964514
 20
30.6628867627
 30
0.0
 10
68.3766659
 20
30.6758241908
 30
0.0
  0
SPLINE
  5
69B
100
AcDbEntity
  8
0
100
AcDbSpline
 62
3
  6
CONTINUOUS
 70
0
 71
3
 72
9
 73
5
 74
0
 42
0.0000001
 43
0.0000001
 44
0.0000000001
 40
0.0
 40
0.0
 40
0.0
 40
0.0
 40
0.2292355371
 40
1.0
 40
1.0
 40
1.0
 40
1.0
 10
68.345318621
 20
30.6290127163
 30
0.0
 10
68.3491631676
 20
30.6312397891
 30
0.0
 10
68.3650659203
 20
30.6424328807
 30
0.0
 10
68.3775608198
 20
30.6580414417
 30
0.0
 10
68.3850302667
 20
30.6709788707
 30
0.0
  0
SPLINE
  5
69C
100
AcDbEntity
  8
0
100
AcDbSpline
 62
3
  6
CONTINUOUS
 70
0
 71
3
 72
10
 73
6
 74
0
 42
0.0000001
 43
0.0000001
 44
0.0000000001
 40
0.0
 40
0.0
 40
0.0
 40
0.0
 40
0.237629357
 40
0.4976510012
 40
1.0
 40
1.0
 40
1.0
 40
1.0
 10
68.5837213916
 20
31.0151210301
 30
0.0
 10
68.6052860675
 20
31.002625771
 30
0.0
 10
68.63934425
 20
30.9593105498
 30
0.0
 10
68.6763342139
 20
30.8611948666
 30
0.0
 10
68.685169876
 20
30.780080898
 30
0.0
 10
68.6847317482
 20
30.7273949824
 30
0.0
  0
SPLINE
  5
69D
100
AcDbEntity
  8
0
100
AcDbSpline
 62
3
  6
CONTINUOUS
 70
0
 71
3
 72
10
 73
6
 74
0
 42
0.0000001
 43
0.0000001
 44
0.0000000001
 40
0.0
 40
0.0
 40
0.0
 40
0.0
 40
0.2374357449
 40
0.4973644248
 40
1.0
 40
1.0
 40
1.0
 40
1.0
 10
68.3850302667
 20
30.6709788707
 30
0.0
 10
68.4065863379
 20
30.6584944407
 30
0.0
 10
68.4611258705
 20
30.6505802765
 30
0.0
 10
68.5646209629
 20
30.6676266045
 30
0.0
 10
68.6393059305
 20
30.7006121496
 30
0.0
 10
68.6847317482
 20
30.7273949824
 30
0.0
  0
SPLINE
  5
69E
100
AcDbEntity
  8
0
100
AcDbSpline
 62
3
  6
CONTINUOUS
 70
0
 71
3
 72
9
 73
5
 74
0
 42
0.0000001
 43
0.0000001
 44
0.0000000001
 40
0.0
 40
0.0
 40
0.0
 40
0.0
 40
0.4771782684
 40
1.0
 40
1.0
 40
1.0
 40
1.0
 10
69.5799397952
 20
29.9787902782
 30
0.0
 10
69.6011021505
 20
29.966533873
 30
0.0
 10
69.6545647197
 20
29.9584515338
 30
0.0
 10
69.7051655117
 20
29.9664982793
 30
0.0
 10
69.731175607
 20
29.9729344944
 30
0.0
  0
SPLINE
  5
69F
100
AcDbEntity
  8
0
100
AcDbSpline
 62
3
  6
CONTINUOUS
 70
0
 71
3
 72
9
 73
5
 74
0
 42
0.0000001
 43
0.0000001
 44
0.0000000001
 40
0.0
 40
0.0
 40
0.0
 40
0.0
 40
0.2292355371
 40
1.0
 40
1.0
 40
1.0
 40
1.0
 10
69.5402281495
 20
29.9368241238
 30
0.0
 10
69.5440726961
 20
29.9390511966
 30
0.0
 10
69.5599754488
 20
29.9502442882
 30
0.0
 10
69.5724703483
 20
29.9658528492
 30
0.0
 10
69.5799397952
 20
29.9787902782
 30
0.0
  0
SPLINE
  5
6A0
100
AcDbEntity
  8
0
100
AcDbSpline
 62
3
  6
CONTINUOUS
 70
0
 71
3
 72
9
 73
5
 74
0
 42
0.0000001
 43
0.0000001
 44
0.0000000001
 40
0.0
 40
0.0
 40
0.0
 40
0.0
 40
0.2292355268
 40
1.0
 40
1.0
 40
1.0
 40
1.0
 10
69.5318637828
 20
29.9416694439
 30
0.0
 10
69.5357083289
 20
29.9438965171
 30
0.0
 10
69.5516110805
 20
29.9550896101
 30
0.0
 10
69.5641059799
 20
29.9706981702
 30
0.0
 10
69.5715754285
 20
29.9836355983
 30
0.0
  0
SPLINE
  5
6A1
100
AcDbEntity
  8
0
100
AcDbSpline
 62
3
  6
CONTINUOUS
 70
0
 71
3
 72
9
 73
5
 74
0
 42
0.0000001
 43
0.0000001
 44
0.0000000001
 40
0.0
 40
0.0
 40
0.0
 40
0.0
 40
0.27535639
 40
1.0
 40
1.0
 40
1.0
 40
1.0
 10
69.5792933377
 20
30.1889682827
 30
0.0
 10
69.5805309168
 20
30.1882897834
 30
0.0
 10
69.5850482678
 20
30.1858688954
 30
0.0
 10
69.5896606612
 20
30.1836164943
 30
0.0
 10
69.593078544
 20
30.1821626518
 30
0.0
  0
ENDSEC
  0
SECTION
  2
OBJECTS
  0
DICTIONARY
  5
C
100
AcDbDictionary
280
0
281
1
  3
ACAD_GROUP
350
D
  3
ACAD_MLINESTYLE
350
17
  3
ACAD_LAYOUT
350
1A
  3
ACAD_PLOTSETTINGS
350
19
  3
ACAD_PLOTSTYLENAME
350
E
  0
DICTIONARY
  5
D
102
{ACAD_REACTORS
330
C
102
}
100
AcDbDictionary
280
0
281
1
  0
ACDBDICTIONARYWDFLT
  5
E
102
{ACAD_REACTORS
330
C
102
}
100
AcDbDictionary
281
1
  3
Normal
350
F
100
AcDbDictionaryWithDefault
340
F
  0
DICTIONARY
  5
17
102
{ACAD_REACTORS
330
C
102
}
100
AcDbDictionary
280
0
281
1
  3
Standard
350
18
  0
DICTIONARY
  5
19
102
{ACAD_REACTORS
330
C
102
}
100
AcDbDictionary
281
1
  0
DICTIONARY
  5
1A
102
{ACAD_REACTORS
330
C
102
}
100
AcDbDictionary
281
1
  3
Model
350
6A2
  3
Layout1
350
6A3
  0
ACDBPLACEHOLDER
  5
F
102
{ACAD_REACTORS
330
E
102
}
  0
MLINESTYLE
  5
18
102
{ACAD_REACTORS
330
17
102
}
100
AcDbMlineStyle
  2
STANDARD
 70
0
  3

 62
256
 51
90.0
 52
90.0
 71
2
 49
0.5
 62
256
  6
BYLAYER
 49
-0.5
 62
256
  6
BYLAYER
  0
LAYOUT
  5
6A2
102
{ACAD_REACTORS
330
1A
102
}
100
AcDbPlotSettings
  1

  2
none_device
  4
ANSI_B_(17.00_x_11.00_Inches)
  6

 40
0.0
 41
0.0
 42
0.0
 43
0.0
 44
431.8
 45
279.4
 46
0.0
 47
0.0
 48
0.0
 49
0.0
140
0.0
141
0.0
142
1.0
143
1.0
 70
1024
 72
0
 73
0
 74
0
  7

 75
0
147
1.0
148
0.0
149
0.0
100
AcDbLayout
  1
Model
 70
0
 71
0
 10
0.0
 20
0.0
 11
17.0
 21
11.0
 12
0.0
 22
0.0
 32
0.0
 14
0.0
 24
0.0
 34
0.0
 15
0.0
 25
0.0
 35
0.0
146
0.0
 13
0.0
 23
0.0
 33
0.0
 16
1.0
 26
0.0
 36
0.0
 17
0.0
 27
1.0
 37
0.0
 76
0
330
229
345
0
346
0
  0
LAYOUT
  5
6A3
102
{ACAD_REACTORS
330
1A
102
}
100
AcDbPlotSettings
  1

  2
none_device
  4
ANSI_B_(17.00_x_11.00_Inches)
  6

 40
0.0
 41
0.0
 42
0.0
 43
0.0
 44
431.8
 45
279.4
 46
0.0
 47
0.0
 48
0.0
 49
0.0
140
0.0
141
0.0
142
1.0
143
1.0
 70
0
 72
0
 73
0
 74
0
  7

 75
0
147
1.0
148
0.0
149
0.0
100
AcDbLayout
  1
Layout1
 70
0
 71
1
 10
0.0
 20
0.0
 11
17.0
 21
11.0
 12
0.0
 22
0.0
 32
0.0
 14
0.0
 24
0.0
 34
0.0
 15
0.0
 25
0.0
 35
0.0
146
0.0
 13
0.0
 23
0.0
 33
0.0
 16
1.0
 26
0.0
 36
0.0
 17
0.0
 27
1.0
 37
0.0
 76
0
330
22A
345
0
346
0
  0
ENDSEC
  0
EOF
