999
DXF file: FG-000392-2D-A.dxf
999
Pro/ENGINEER 2010370 by Parametric Technology Corporation
  0
SECTION
  2
HEADER
  9
$ACADVER
  1
AC1015
  9
$DWGCODEPAGE
  3
ANSI_1252
  9
$EXTMAX
 10
136.0
 20
88.0
 30
0.0
  9
$EXTMIN
 10
0.0
 20
0.0
 30
0.0
  9
$LIMMIN
 10
0.0
 20
0.0
  9
$LIMMAX
 10
136.0
 20
88.0
  9
$VIEWCTR
 10
68.0
 20
44.0
  9
$VIEWSIZE
 40
88.0
  9
$CLAYER
  8
0
  9
$LTSCALE
 40
7.48
  9
$CELTYPE
  6
BYLAYER
  9
$DIMSCALE
 40
1.0
  9
$DIMASZ
 40
1.5
  9
$DIMEXO
 40
0.85
  9
$DIMDLI
 40
5.168
  9
$DIMEXE
 40
2.448
  9
$DIMCEN
 40
1.224
  9
$DIMLFAC
 40
1.0
  9
$DIMBLK
  1
_FILLED
  9
$DIMTXT
 40
1.25
  9
$DIMTOL
 70
1
  9
$DIMLIM
 70
0
  9
$DIMTFAC
 40
1.0
  9
$DIMTP
 40
0.01
  9
$DIMTM
 40
0.01
  9
$PDMODE
 70
3
  9
$PDSIZE
 40
0.3125
  9
$HANDSEED
  5
563
  9
$TILEMODE
 70
1
  9
$MEASUREMENT
 70
0
  9
$INSUNITS
 70
1
  0
ENDSEC
  0
SECTION
  2
CLASSES
  0
CLASS
  1
ACDBDICTIONARYWDFLT
  2
AcDbDictionaryWithDefault
  3
AutoCAD 2000
 90
0
280
0
281
0
  0
CLASS
  1
ACDBPLACEHOLDER
  2
AcDbPlaceHolder
  3
AutoCAD 2000
 90
0
280
0
281
0
  0
CLASS
  1
LAYOUT
  2
AcDbLayout
  3
AutoCAD 2000
 90
0
280
0
281
0
  0
ENDSEC
  0
SECTION
  2
TABLES
  0
TABLE
  2
VPORT
  5
8
100
AcDbSymbolTable
 70
2
  0
VPORT
  5
1F4
100
AcDbSymbolTableRecord
100
AcDbViewportTableRecord
  2
*ACTIVE
 70
0
 10
0.0
 20
0.0
 11
1.0
 21
1.0
 12
68.0
 22
44.0
 13
0.0
 23
0.0
 14
1.0
 24
1.0
 15
0.0
 25
0.0
 16
0.0
 26
0.0
 36
1.0
 17
0.0
 27
0.0
 37
0.0
 40
88.0
 41
1.5454545455
 42
50.0
 43
0.0
 44
0.0
 50
0.0
 51
0.0
 71
0
 72
100
 73
1
 74
1
 75
0
 76
0
 77
0
 78
0
  0
ENDTAB
  0
TABLE
  2
LTYPE
  5
5
100
AcDbSymbolTable
 70
6
  0
LTYPE
  5
14
100
AcDbSymbolTableRecord
100
AcDbLinetypeTableRecord
  2
BYBLOCK
 70
0
  3

 72
65
 73
0
 40
0.0
  0
LTYPE
  5
15
100
AcDbSymbolTableRecord
100
AcDbLinetypeTableRecord
  2
BYLAYER
 70
0
  3

 72
65
 73
0
 40
0.0
  0
LTYPE
  5
16
100
AcDbSymbolTableRecord
100
AcDbLinetypeTableRecord
  2
CONTINUOUS
 70
64
  3
Solid line
 72
65
 73
0
 40
0.0
  0
LTYPE
  5
1F5
100
AcDbSymbolTableRecord
100
AcDbLinetypeTableRecord
  2
CENTER
 70
64
  3
____ _ ____ _ ____ _ ____ _ ____ _ ____ _ ____
 72
65
 73
4
 40
0.6
 49
0.375
 74
0
 49
-0.075
 74
0
 49
0.075
 74
0
 49
-0.075
 74
0
  0
LTYPE
  5
1F6
100
AcDbSymbolTableRecord
100
AcDbLinetypeTableRecord
  2
HIDDEN
 70
64
  3
- - - - - - - - - - - - - - - - - - - -
 72
65
 73
2
 40
0.2
 49
0.1
 74
0
 49
-0.1
 74
0
  0
LTYPE
  5
1F7
100
AcDbSymbolTableRecord
100
AcDbLinetypeTableRecord
  2
PHANTOM
 70
64
  3
_____ _ _ _____ _ _ _____ _ _ _____
 72
65
 73
6
 40
0.8
 49
0.45
 74
0
 49
-0.05
 74
0
 49
0.1
 74
0
 49
-0.05
 74
0
 49
0.1
 74
0
 49
-0.05
 74
0
  0
LTYPE
  5
1F8
100
AcDbSymbolTableRecord
100
AcDbLinetypeTableRecord
  2
DOT
 70
64
  3
. . . . . . . . . . . . . . . . . . . .
 72
65
 73
2
 40
0.2
 49
0.1
 74
0
 49
-0.1
 74
0
  0
LTYPE
  5
1F9
100
AcDbSymbolTableRecord
100
AcDbLinetypeTableRecord
  2
DASHED
 70
64
  3
- - - - - - - - - - - - - - - - - - - -
 72
65
 73
2
 40
0.2
 49
0.1
 74
0
 49
-0.1
 74
0
  0
ENDTAB
  0
TABLE
  2
LAYER
  5
2
100
AcDbSymbolTable
 70
36
  0
LAYER
  5
10
100
AcDbSymbolTableRecord
100
AcDbLayerTableRecord
  2
0
 70
0
 62
7
  6
CONTINUOUS
370
-3
390
F
  0
LAYER
  5
1FA
100
AcDbSymbolTableRecord
100
AcDbLayerTableRecord
  2
DEFAULT_1
 70
0
 62
7
  6
CENTER
370
-3
390
F
  0
LAYER
  5
1FB
100
AcDbSymbolTableRecord
100
AcDbLayerTableRecord
  2
DEFAULT_2
 70
0
 62
8
  6
HIDDEN
370
-3
390
F
  0
LAYER
  5
1FC
100
AcDbSymbolTableRecord
100
AcDbLayerTableRecord
  2
DEFAULT_3
 70
0
 62
7
  6
PHANTOM
370
-3
390
F
  0
LAYER
  5
1FD
100
AcDbSymbolTableRecord
100
AcDbLayerTableRecord
  2
01_ALL_DTM_PLN
 70
0
 62
7
  6
CONTINUOUS
370
-3
390
F
  0
LAYER
  5
1FE
100
AcDbSymbolTableRecord
100
AcDbLayerTableRecord
  2
01__ASM_ALL_DTM_PLN
 70
0
 62
7
  6
CONTINUOUS
370
-3
390
F
  0
LAYER
  5
1FF
100
AcDbSymbolTableRecord
100
AcDbLayerTableRecord
  2
01__ASM_DEF_DTM_PLN
 70
0
 62
7
  6
CONTINUOUS
370
-3
390
F
  0
LAYER
  5
200
100
AcDbSymbolTableRecord
100
AcDbLayerTableRecord
  2
01___PRT_ALL_DTM_PLN
 70
0
 62
7
  6
CONTINUOUS
370
-3
390
F
  0
LAYER
  5
201
100
AcDbSymbolTableRecord
100
AcDbLayerTableRecord
  2
01___PRT_DEF_DTM_PLN
 70
0
 62
7
  6
CONTINUOUS
370
-3
390
F
  0
LAYER
  5
202
100
AcDbSymbolTableRecord
100
AcDbLayerTableRecord
  2
02_ALL_AXES
 70
0
 62
7
  6
CONTINUOUS
370
-3
390
F
  0
LAYER
  5
203
100
AcDbSymbolTableRecord
100
AcDbLayerTableRecord
  2
02__ASM_ALL_AXES
 70
0
 62
7
  6
CONTINUOUS
370
-3
390
F
  0
LAYER
  5
204
100
AcDbSymbolTableRecord
100
AcDbLayerTableRecord
  2
02___PRT_ALL_AXES
 70
0
 62
7
  6
CONTINUOUS
370
-3
390
F
  0
LAYER
  5
205
100
AcDbSymbolTableRecord
100
AcDbLayerTableRecord
  2
03_ALL_CURVES
 70
0
 62
7
  6
CONTINUOUS
370
-3
390
F
  0
LAYER
  5
206
100
AcDbSymbolTableRecord
100
AcDbLayerTableRecord
  2
03__ASM_ALL_CURVES
 70
0
 62
7
  6
CONTINUOUS
370
-3
390
F
  0
LAYER
  5
207
100
AcDbSymbolTableRecord
100
AcDbLayerTableRecord
  2
03___PRT_ALL_CURVES
 70
0
 62
7
  6
CONTINUOUS
370
-3
390
F
  0
LAYER
  5
208
100
AcDbSymbolTableRecord
100
AcDbLayerTableRecord
  2
04_ALL_DTM_PNT
 70
0
 62
7
  6
CONTINUOUS
370
-3
390
F
  0
LAYER
  5
209
100
AcDbSymbolTableRecord
100
AcDbLayerTableRecord
  2
04__ASM_ALL_DTM_PNT
 70
0
 62
7
  6
CONTINUOUS
370
-3
390
F
  0
LAYER
  5
20A
100
AcDbSymbolTableRecord
100
AcDbLayerTableRecord
  2
04___PRT_ALL_DTM_PNT
 70
0
 62
7
  6
CONTINUOUS
370
-3
390
F
  0
LAYER
  5
20B
100
AcDbSymbolTableRecord
100
AcDbLayerTableRecord
  2
05_ALL_DTM_CSYS
 70
0
 62
7
  6
CONTINUOUS
370
-3
390
F
  0
LAYER
  5
20C
100
AcDbSymbolTableRecord
100
AcDbLayerTableRecord
  2
05__ASM_ALL_DTM_CSYS
 70
0
 62
7
  6
CONTINUOUS
370
-3
390
F
  0
LAYER
  5
20D
100
AcDbSymbolTableRecord
100
AcDbLayerTableRecord
  2
05__ASM_DEF_DTM_CSYS
 70
0
 62
7
  6
CONTINUOUS
370
-3
390
F
  0
LAYER
  5
20E
100
AcDbSymbolTableRecord
100
AcDbLayerTableRecord
  2
05___PRT_ALL_DTM_CSYS
 70
0
 62
7
  6
CONTINUOUS
370
-3
390
F
  0
LAYER
  5
20F
100
AcDbSymbolTableRecord
100
AcDbLayerTableRecord
  2
05___PRT_DEF_DTM_CSYS
 70
0
 62
7
  6
CONTINUOUS
370
-3
390
F
  0
LAYER
  5
210
100
AcDbSymbolTableRecord
100
AcDbLayerTableRecord
  2
06_ALL_SURFS
 70
0
 62
7
  6
CONTINUOUS
370
-3
390
F
  0
LAYER
  5
211
100
AcDbSymbolTableRecord
100
AcDbLayerTableRecord
  2
06__ASM_ALL_SURFS
 70
0
 62
7
  6
CONTINUOUS
370
-3
390
F
  0
LAYER
  5
212
100
AcDbSymbolTableRecord
100
AcDbLayerTableRecord
  2
06___PRT_ALL_SURFS
 70
0
 62
7
  6
CONTINUOUS
370
-3
390
F
  0
LAYER
  5
213
100
AcDbSymbolTableRecord
100
AcDbLayerTableRecord
  2
07__ASM_ALL_SKELETONS
 70
0
 62
7
  6
CONTINUOUS
370
-3
390
F
  0
LAYER
  5
214
100
AcDbSymbolTableRecord
100
AcDbLayerTableRecord
  2
1_ALL_PLANES
 70
0
 62
7
  6
CONTINUOUS
370
-3
390
F
  0
LAYER
  5
215
100
AcDbSymbolTableRecord
100
AcDbLayerTableRecord
  2
1__DEF_ASM_PLN
 70
0
 62
7
  6
CONTINUOUS
370
-3
390
F
  0
LAYER
  5
216
100
AcDbSymbolTableRecord
100
AcDbLayerTableRecord
  2
1__DEF_PLANES
 70
0
 62
7
  6
CONTINUOUS
370
-3
390
F
  0
LAYER
  5
217
100
AcDbSymbolTableRecord
100
AcDbLayerTableRecord
  2
2_ALL_CSYS
 70
0
 62
7
  6
CONTINUOUS
370
-3
390
F
  0
LAYER
  5
218
100
AcDbSymbolTableRecord
100
AcDbLayerTableRecord
  2
2__DEF_ASM_CSYS
 70
0
 62
7
  6
CONTINUOUS
370
-3
390
F
  0
LAYER
  5
219
100
AcDbSymbolTableRecord
100
AcDbLayerTableRecord
  2
2__DEF_CSYS
 70
0
 62
7
  6
CONTINUOUS
370
-3
390
F
  0
LAYER
  5
21A
100
AcDbSymbolTableRecord
100
AcDbLayerTableRecord
  2
3_ALL_AXES
 70
0
 62
7
  6
CONTINUOUS
370
-3
390
F
  0
LAYER
  5
21B
100
AcDbSymbolTableRecord
100
AcDbLayerTableRecord
  2
4_ALL_POINTS
 70
0
 62
7
  6
CONTINUOUS
370
-3
390
F
  0
LAYER
  5
21C
100
AcDbSymbolTableRecord
100
AcDbLayerTableRecord
  2
5_ALL_CURVES
 70
0
 62
7
  6
CONTINUOUS
370
-3
390
F
  0
LAYER
  5
21D
100
AcDbSymbolTableRecord
100
AcDbLayerTableRecord
  2
6_ALL_SURFS
 70
0
 62
7
  6
CONTINUOUS
370
-3
390
F
  0
LAYER
  5
21E
100
AcDbSymbolTableRecord
100
AcDbLayerTableRecord
  2
6_COPYGEOM
 70
0
 62
7
  6
CONTINUOUS
370
-3
390
F
  0
LAYER
  5
21F
100
AcDbSymbolTableRecord
100
AcDbLayerTableRecord
  2
7_ALL_ROUNDS
 70
0
 62
7
  6
CONTINUOUS
370
-3
390
F
  0
LAYER
  5
220
100
AcDbSymbolTableRecord
100
AcDbLayerTableRecord
  2
7_MERGES
 70
0
 62
7
  6
CONTINUOUS
370
-3
390
F
  0
LAYER
  5
221
100
AcDbSymbolTableRecord
100
AcDbLayerTableRecord
  2
8_SET_DATUMS
 70
0
 62
7
  6
CONTINUOUS
370
-3
390
F
  0
LAYER
  5
222
100
AcDbSymbolTableRecord
100
AcDbLayerTableRecord
  2
9_COSMETICS
 70
0
 62
7
  6
CONTINUOUS
370
-3
390
F
  0
LAYER
  5
223
100
AcDbSymbolTableRecord
100
AcDbLayerTableRecord
  2
9_THREADS
 70
0
 62
7
  6
CONTINUOUS
370
-3
390
F
  0
ENDTAB
  0
TABLE
  2
STYLE
  5
3
100
AcDbSymbolTable
 70
1
  0
STYLE
  5
11
100
AcDbSymbolTableRecord
100
AcDbTextStyleTableRecord
  2
STANDARD
 70
0
 40
0.0
 41
0.8
 50
0.0
 71
0
 42
0.2
  3
txt
  4

  0
STYLE
  5
224
100
AcDbSymbolTableRecord
100
AcDbTextStyleTableRecord
  2
TEXTSTYLE_1
 70
0
 40
0.0
 41
0.8
 50
0.0
 71
0
 42
0.2
  3
gdt
  4

  0
ENDTAB
  0
TABLE
  2
VIEW
  5
6
100
AcDbSymbolTable
 70
0
  0
ENDTAB
  0
TABLE
  2
UCS
  5
7
100
AcDbSymbolTable
 70
0
  0
ENDTAB
  0
TABLE
  2
APPID
  5
9
100
AcDbSymbolTable
 70
1
  0
APPID
  5
225
100
AcDbSymbolTableRecord
100
AcDbRegAppTableRecord
  2
ACAD
 70
0
  0
ENDTAB
  0
TABLE
  2
BLOCK_RECORD
  5
1
100
AcDbSymbolTable
 70
0
  0
BLOCK_RECORD
  5
226
100
AcDbSymbolTableRecord
100
AcDbBlockTableRecord
  2
*Model_Space
  0
BLOCK_RECORD
  5
227
100
AcDbSymbolTableRecord
100
AcDbBlockTableRecord
  2
*Paper_Space
  0
BLOCK_RECORD
  5
228
100
AcDbSymbolTableRecord
100
AcDbBlockTableRecord
  2
_FILLED
  0
BLOCK_RECORD
  5
229
100
AcDbSymbolTableRecord
100
AcDbBlockTableRecord
  2
*D0
  0
BLOCK_RECORD
  5
22A
100
AcDbSymbolTableRecord
100
AcDbBlockTableRecord
  2
*D1
  0
BLOCK_RECORD
  5
22B
100
AcDbSymbolTableRecord
100
AcDbBlockTableRecord
  2
*D2
  0
BLOCK_RECORD
  5
22C
100
AcDbSymbolTableRecord
100
AcDbBlockTableRecord
  2
*D3
  0
BLOCK_RECORD
  5
22D
100
AcDbSymbolTableRecord
100
AcDbBlockTableRecord
  2
*D4
  0
BLOCK_RECORD
  5
22E
100
AcDbSymbolTableRecord
100
AcDbBlockTableRecord
  2
*D5
  0
BLOCK_RECORD
  5
22F
100
AcDbSymbolTableRecord
100
AcDbBlockTableRecord
  2
*D6
  0
BLOCK_RECORD
  5
230
100
AcDbSymbolTableRecord
100
AcDbBlockTableRecord
  2
*D7
  0
BLOCK_RECORD
  5
231
100
AcDbSymbolTableRecord
100
AcDbBlockTableRecord
  2
*D8
  0
BLOCK_RECORD
  5
232
100
AcDbSymbolTableRecord
100
AcDbBlockTableRecord
  2
*D9
  0
BLOCK_RECORD
  5
233
100
AcDbSymbolTableRecord
100
AcDbBlockTableRecord
  2
*D10
  0
BLOCK_RECORD
  5
234
100
AcDbSymbolTableRecord
100
AcDbBlockTableRecord
  2
*D11
  0
BLOCK_RECORD
  5
235
100
AcDbSymbolTableRecord
100
AcDbBlockTableRecord
  2
*D12
  0
BLOCK_RECORD
  5
236
100
AcDbSymbolTableRecord
100
AcDbBlockTableRecord
  2
*D13
  0
BLOCK_RECORD
  5
237
100
AcDbSymbolTableRecord
100
AcDbBlockTableRecord
  2
SYMBOL_0_BL0
  0
ENDTAB
  0
TABLE
  2
DIMSTYLE
  5
A
100
AcDbSymbolTable
 70
1
100
AcDbDimStyleTable
 71
0
  0
DIMSTYLE
105
238
100
AcDbSymbolTableRecord
100
AcDbDimStyleTableRecord
  2
STANDARD
 70
0
  3

  4

 40
1.0
 41
1.5
 42
0.0625
 43
0.38
 44
0.18
 45
0.0
 46
0.0
 47
0.01
 48
0.01
140
1.25
141
0.09
142
0.0
143
25.4
144
1.0
145
0.0
146
1.0
147
0.09
 71
1.0
 72
0.0
 73
1
 74
1
 75
0
 76
0
 77
0
 78
4
170
0
171
2
172
0
173
0
174
0
175
0
176
0
177
0
178
0
270
2
271
3
272
3
273
2
274
2
275
0
280
0
281
0
282
0
283
1
284
4
285
0
286
0
287
3
288
0
340
11
341
228
342
228
343
228
344
228
  0
DIMSTYLE
105
239
100
AcDbSymbolTableRecord
100
AcDbDimStyleTableRecord
  2
DIMSTYLE_1
 70
0
  3

  4

 40
1.0
 41
1.5
 42
0.0625
 43
0.38
 44
0.18
 45
0.0
 46
0.0
 47
0.01
 48
0.01
140
1.25
141
0.09
142
0.0
143
25.4
144
1.0
145
0.0
146
1.0
147
0.09
 71
0.0
 72
0.0
 73
1
 74
1
 75
0
 76
0
 77
0
 78
4
170
0
171
2
172
0
173
0
174
0
175
0
176
0
177
0
178
0
270
2
271
0
272
0
273
2
274
2
275
0
280
0
281
0
282
0
283
1
284
4
285
0
286
0
287
3
288
0
340
11
341
228
342
228
343
228
344
228
  0
DIMSTYLE
105
23A
100
AcDbSymbolTableRecord
100
AcDbDimStyleTableRecord
  2
DIMSTYLE_2
 70
0
  3

  4

 40
1.0
 41
1.5
 42
0.0625
 43
0.38
 44
0.18
 45
0.0
 46
0.0
 47
0.01
 48
0.01
140
1.25
141
0.09
142
0.0
143
25.4
144
1.0
145
0.0
146
1.0
147
0.09
 71
0.0
 72
0.0
 73
1
 74
1
 75
0
 76
0
 77
0
 78
4
170
0
171
2
172
0
173
0
174
0
175
0
176
0
177
0
178
0
270
2
271
0
272
0
273
2
274
2
275
0
280
0
281
0
282
0
283
1
284
4
285
0
286
0
287
3
288
0
340
11
341
228
342
228
343
228
344
228
  0
ENDTAB
  0
ENDSEC
  0
SECTION
  2
BLOCKS
  0
BLOCK
  5
20
100
AcDbEntity
  8
0
100
AcDbBlockBegin
  2
*Model_Space
 70
0
 10
0.0
 20
0.0
 30
0.0
  3
*Model_Space
  1

  0
ENDBLK
  5
21
100
AcDbEntity
  8
0
100
AcDbBlockEnd
  0
BLOCK
  5
1C
100
AcDbEntity
  8
0
100
AcDbBlockBegin
  2
*Paper_Space
 70
0
 10
0.0
 20
0.0
 30
0.0
  3
*Paper_Space
  1

  0
ENDBLK
  5
1D
100
AcDbEntity
  8
0
100
AcDbBlockEnd
  0
BLOCK
  5
23B
100
AcDbEntity
  8
0
100
AcDbBlockBegin
 62
7
  6
CONTINUOUS
  2
SYMBOL_0_BL0
 70
64
 10
95.1105623904
 20
21.6088853214
  3
SYMBOL_0_BL0
  1

  0
ARC
  5
23C
100
AcDbEntity
  8
0
100
AcDbCircle
 62
7
  6
CONTINUOUS
 10
100.3278549476
 20
22.4119009817
 40
0.0989721062
100
AcDbArc
 50
270.0
 51
360.0
  0
LINE
  5
23D
100
AcDbEntity
  8
0
100
AcDbLine
 62
7
  6
CONTINUOUS
 10
100.4268270537
 20
22.4119009817
 11
100.4268270537
 21
22.6099132152
  0
ARC
  5
23E
100
AcDbEntity
  8
0
100
AcDbCircle
 62
7
  6
CONTINUOUS
 10
100.3278549476
 20
22.6099132152
 40
0.0989721062
100
AcDbArc
 50
0.0
 51
90.0
  0
LINE
  5
23F
100
AcDbEntity
  8
0
100
AcDbLine
 62
7
  6
CONTINUOUS
 10
100.3278549476
 20
22.7088853214
 11
97.6671082898
 21
22.7088853214
  0
SPLINE
  5
240
100
AcDbEntity
  8
0
100
AcDbSpline
 62
7
  6
CONTINUOUS
 70
0
 71
3
 72
13
 73
9
 74
0
 42
0.0000001
 43
0.0000001
 44
0.0000000001
 40
0.0
 40
0.0
 40
0.0
 40
0.0
 40
0.1310616762
 40
0.2699656353
 40
0.4157607805
 40
0.5899807757
 40
0.76586761
 40
0.9948829976
 40
0.9948829976
 40
0.9948829976
 40
0.9948829976
 10
97.6671082898
 20
22.7088853214
 30
0.0
 10
97.6111769737
 20
22.70471952
 30
0.0
 10
97.4959676043
 20
22.6961386505
 30
0.0
 10
97.3398359656
 20
22.5993905877
 30
0.0
 10
97.2277520805
 20
22.4369680155
 30
0.0
 10
97.1548693474
 20
22.2383609626
 30
0.0
 10
97.1138173424
 20
21.9955805803
 30
0.0
 10
97.1100375627
 20
21.8240276989
 30
0.0
 10
97.108078591
 20
21.7269835038
 30
0.0
  0
LINE
  5
241
100
AcDbEntity
  8
0
100
AcDbLine
 62
7
  6
CONTINUOUS
 10
97.108078591
 20
21.7269835038
 11
97.1082522977
 21
21.7119240726
  0
SPLINE
  5
242
100
AcDbEntity
  8
0
100
AcDbSpline
 62
7
  6
CONTINUOUS
 70
0
 71
3
 72
13
 73
9
 74
0
 42
0.0000001
 43
0.0000001
 44
0.0000000001
 40
0.0
 40
0.0
 40
0.0
 40
0.0
 40
0.2222860645
 40
0.3981728988
 40
0.572392894
 40
0.7181880393
 40
0.8570919984
 40
0.9881536746
 40
0.9881536746
 40
0.9881536746
 40
0.9881536746
 10
97.1082522977
 20
21.7119240726
 30
0.0
 10
97.1101726611
 20
21.6177326435
 30
0.0
 10
97.114293517
 20
21.4490622439
 30
0.0
 10
97.1548693139
 20
21.2090961259
 30
0.0
 10
97.2277529195
 20
21.0105112854
 30
0.0
 10
97.3398333086
 20
20.8480197814
 30
0.0
 10
97.4959768635
 20
20.7515029874
 30
0.0
 10
97.6111581447
 20
20.7423775537
 30
0.0
 10
97.6671082898
 20
20.7382103514
 30
0.0
  0
LINE
  5
243
100
AcDbEntity
  8
0
100
AcDbLine
 62
7
  6
CONTINUOUS
 10
97.6671082898
 20
20.7382103514
 11
100.3280709641
 21
20.7440181732
  0
ARC
  5
244
100
AcDbEntity
  8
0
100
AcDbCircle
 62
7
  6
CONTINUOUS
 10
100.3278549476
 20
20.8429900433
 40
0.0989721059
100
AcDbArc
 50
270.125053868
 51
360.0
  0
LINE
  5
245
100
AcDbEntity
  8
0
100
AcDbLine
 62
7
  6
CONTINUOUS
 10
100.4268270537
 20
20.8429900433
 11
100.4268270537
 21
21.0332714774
  0
ARC
  5
246
100
AcDbEntity
  8
0
100
AcDbCircle
 62
7
  6
CONTINUOUS
 10
100.3278549476
 20
21.0332714774
 40
0.0989721062
100
AcDbArc
 50
0.0
 51
90.0
  0
LINE
  5
247
100
AcDbEntity
  8
0
100
AcDbLine
 62
7
  6
CONTINUOUS
 10
100.3278549476
 20
21.1322435835
 11
98.047231402
 21
21.1322435835
  0
LINE
  5
248
100
AcDbEntity
  8
0
100
AcDbLine
 62
7
  6
CONTINUOUS
 10
97.9482592958
 20
21.2312156897
 11
97.9482592958
 21
22.2139567693
  0
ARC
  5
249
100
AcDbEntity
  8
0
100
AcDbCircle
 62
7
  6
CONTINUOUS
 10
98.0472314029
 20
22.2139567693
 40
0.0989721062
100
AcDbArc
 50
90.0
 51
180.0
  0
LINE
  5
24A
100
AcDbEntity
  8
0
100
AcDbLine
 62
7
  6
CONTINUOUS
 10
98.047231402
 20
22.3129288755
 11
100.3278549476
 21
22.3129288755
  0
LINE
  5
24B
100
AcDbEntity
  8
0
100
AcDbLine
 62
7
  6
CONTINUOUS
 10
93.9806770641
 20
21.5237048046
 11
95.8815725378
 21
21.5237048046
  0
ARC
  5
24C
100
AcDbEntity
  8
0
100
AcDbCircle
 62
7
  6
CONTINUOUS
 10
95.8815725376
 20
21.4247326987
 40
0.0989721062
100
AcDbArc
 50
0.0
 51
90.0
  0
LINE
  5
24D
100
AcDbEntity
  8
0
100
AcDbLine
 62
7
  6
CONTINUOUS
 10
95.980544644
 20
21.4247326985
 11
95.980544644
 21
21.2226418808
  0
LINE
  5
24E
100
AcDbEntity
  8
0
100
AcDbLine
 62
7
  6
CONTINUOUS
 10
95.8815725378
 20
21.1236697746
 11
93.6657314188
 21
21.1236697746
  0
ARC
  5
24F
100
AcDbEntity
  8
0
100
AcDbCircle
 62
7
  6
CONTINUOUS
 10
93.6657314188
 20
21.0246976684
 40
0.0989721062
100
AcDbArc
 50
90.0
 51
180.0
  0
LINE
  5
250
100
AcDbEntity
  8
0
100
AcDbLine
 62
7
  6
CONTINUOUS
 10
93.5667593127
 20
21.0246976684
 11
93.5667593127
 21
20.8371814587
  0
ARC
  5
251
100
AcDbEntity
  8
0
100
AcDbCircle
 62
7
  6
CONTINUOUS
 10
93.6657314188
 20
20.8371814587
 40
0.0989721062
100
AcDbArc
 50
180.0
 51
270.0
  0
LINE
  5
252
100
AcDbEntity
  8
0
100
AcDbLine
 62
7
  6
CONTINUOUS
 10
93.6657314188
 20
20.7382093526
 11
96.4165851552
 21
20.7382093526
  0
SPLINE
  5
253
100
AcDbEntity
  8
0
100
AcDbSpline
 62
7
  6
CONTINUOUS
 70
0
 71
3
 72
13
 73
9
 74
0
 42
0.0000001
 43
0.0000001
 44
0.0000000001
 40
0.0
 40
0.0
 40
0.0
 40
0.0
 40
0.1604571392
 40
0.3334692485
 40
0.4767982758
 40
0.6242014838
 40
0.7505998515
 40
1.0
 40
1.0
 40
1.0
 40
1.0
 10
96.4165851552
 20
20.7382093526
 30
0.0
 10
96.4629648926
 20
20.7404424541
 30
0.0
 10
96.5593533487
 20
20.7450833841
 30
0.0
 10
96.6889685193
 20
20.8013563473
 30
0.0
 10
96.7866378206
 20
20.8959465015
 30
0.0
 10
96.8416783131
 20
21.004390459
 30
0.0
 10
96.8838770378
 20
21.1498691391
 30
0.0
 10
96.8855894639
 20
21.2587384818
 30
0.0
 10
96.886725921
 20
21.3309900439
 30
0.0
  0
SPLINE
  5
254
100
AcDbEntity
  8
0
100
AcDbSpline
 62
7
  6
CONTINUOUS
 70
0
 71
3
 72
13
 73
9
 74
0
 42
0.0000001
 43
0.0000001
 44
0.0000000001
 40
0.0
 40
0.0
 40
0.0
 40
0.0
 40
0.2494001485
 40
0.3757985162
 40
0.5232017242
 40
0.6665307515
 40
0.8395428608
 40
1.0
 40
1.0
 40
1.0
 40
1.0
 10
96.886725921
 20
21.3309900439
 30
0.0
 10
96.8855894639
 20
21.4032416076
 30
0.0
 10
96.8838770378
 20
21.5121109487
 30
0.0
 10
96.8416783131
 20
21.6575896303
 30
0.0
 10
96.7866378206
 20
21.7660335878
 30
0.0
 10
96.6889685193
 20
21.8606237405
 30
0.0
 10
96.5593533487
 20
21.9168967038
 30
0.0
 10
96.4629648926
 20
21.9215376353
 30
0.0
 10
96.4165851552
 20
21.9237707353
 30
0.0
  0
LINE
  5
255
100
AcDbEntity
  8
0
100
AcDbLine
 62
7
  6
CONTINUOUS
 10
96.4165851552
 20
21.9237707353
 11
94.5410273599
 21
21.9237707353
  0
LINE
  5
256
100
AcDbEntity
  8
0
100
AcDbLine
 62
7
  6
CONTINUOUS
 10
94.4420552537
 20
22.0227428414
 11
94.4420552537
 21
22.2100079955
  0
ARC
  5
257
100
AcDbEntity
  8
0
100
AcDbCircle
 62
7
  6
CONTINUOUS
 10
94.541027359
 20
22.2100079955
 40
0.0989721062
100
AcDbArc
 50
90.0
 51
180.0
  0
LINE
  5
258
100
AcDbEntity
  8
0
100
AcDbLine
 62
7
  6
CONTINUOUS
 10
94.5410273599
 20
22.3089801016
 11
96.7598761575
 21
22.3089801016
  0
ARC
  5
259
100
AcDbEntity
  8
0
100
AcDbCircle
 62
7
  6
CONTINUOUS
 10
96.7598761575
 20
22.4079522078
 40
0.0989721062
100
AcDbArc
 50
270.0
 51
360.0
  0
LINE
  5
25A
100
AcDbEntity
  8
0
100
AcDbLine
 62
7
  6
CONTINUOUS
 10
96.8588482636
 20
22.4079522078
 11
96.8588482636
 21
22.6099132152
  0
ARC
  5
25B
100
AcDbEntity
  8
0
100
AcDbCircle
 62
7
  6
CONTINUOUS
 10
96.7598761575
 20
22.6099132152
 40
0.0989721062
100
AcDbArc
 50
0.0
 51
90.0
  0
LINE
  5
25C
100
AcDbEntity
  8
0
100
AcDbLine
 62
7
  6
CONTINUOUS
 10
96.7598761575
 20
22.7088853214
 11
93.9806770641
 21
22.7088853214
  0
SPLINE
  5
25D
100
AcDbEntity
  8
0
100
AcDbSpline
 62
7
  6
CONTINUOUS
 70
0
 71
3
 72
13
 73
9
 74
0
 42
0.0000001
 43
0.0000001
 44
0.0000000001
 40
0.0
 40
0.0
 40
0.0
 40
0.0
 40
0.1133740464
 40
0.2392044088
 40
0.3655787964
 40
0.4912154373
 40
0.7445390876
 40
1.0
 40
1.0
 40
1.0
 40
1.0
 10
93.9806770641
 20
22.7088853214
 30
0.0
 10
93.9489280549
 20
22.7073215347
 30
0.0
 10
93.8819417997
 20
22.7040221473
 30
0.0
 10
93.7824403435
 20
22.6742940846
 30
0.0
 10
93.6934265945
 20
22.6142638676
 30
0.0
 10
93.6024982559
 20
22.5036859177
 30
0.0
 10
93.545280377
 20
22.3300932485
 30
0.0
 10
93.5390750894
 20
22.1877604257
 30
0.0
 10
93.535959414
 20
22.116295063
 30
0.0
  0
SPLINE
  5
25E
100
AcDbEntity
  8
0
100
AcDbSpline
 62
7
  6
CONTINUOUS
 70
0
 71
3
 72
13
 73
9
 74
0
 42
0.0000001
 43
0.0000001
 44
0.0000000001
 40
0.0
 40
0.0
 40
0.0
 40
0.0
 40
0.2554609124
 40
0.5087845627
 40
0.6344212036
 40
0.7607955912
 40
0.8866259536
 40
1.0
 40
1.0
 40
1.0
 40
1.0
 10
93.535959414
 20
22.116295063
 30
0.0
 10
93.5390750894
 20
22.0448297003
 30
0.0
 10
93.545280377
 20
21.902496876
 30
0.0
 10
93.6024982559
 20
21.7289042083
 30
0.0
 10
93.6934265945
 20
21.6183262584
 30
0.0
 10
93.7824403435
 20
21.5582960415
 30
0.0
 10
93.8819417997
 20
21.5285679787
 30
0.0
 10
93.9489280549
 20
21.5252685913
 30
0.0
 10
93.9806770641
 20
21.5237048046
 30
0.0
  0
LINE
  5
25F
100
AcDbEntity
  8
0
100
AcDbLine
 62
7
  6
CONTINUOUS
 10
90.3237664464
 20
20.7382093526
 11
91.8615864213
 21
20.7382093526
  0
LINE
  5
260
100
AcDbEntity
  8
0
100
AcDbLine
 62
7
  6
CONTINUOUS
 10
91.8615864213
 20
20.7382093526
 11
91.8615864213
 21
20.5469515161
  0
ARC
  5
261
100
AcDbEntity
  8
0
100
AcDbCircle
 62
7
  6
CONTINUOUS
 10
91.899652616
 20
20.5469515161
 40
0.0380661947
100
AcDbArc
 50
180.0
 51
270.0
  0
LINE
  5
262
100
AcDbEntity
  8
0
100
AcDbLine
 62
7
  6
CONTINUOUS
 10
91.899652616
 20
20.5088853214
 11
92.4923819835
 21
20.5088853214
  0
ARC
  5
263
100
AcDbEntity
  8
0
100
AcDbCircle
 62
7
  6
CONTINUOUS
 10
92.4923819835
 20
20.5469515161
 40
0.0380661947
100
AcDbArc
 50
270.0
 51
360.0
  0
LINE
  5
264
100
AcDbEntity
  8
0
100
AcDbLine
 62
7
  6
CONTINUOUS
 10
92.5304481782
 20
20.5469515161
 11
92.5304481782
 21
20.7382093526
  0
LINE
  5
265
100
AcDbEntity
  8
0
100
AcDbLine
 62
7
  6
CONTINUOUS
 10
92.5304481782
 20
20.7382093526
 11
92.832841141
 21
20.7382093526
  0
SPLINE
  5
266
100
AcDbEntity
  8
0
100
AcDbSpline
 62
7
  6
CONTINUOUS
 70
0
 71
3
 72
12
 73
8
 74
0
 42
0.0000001
 43
0.0000001
 44
0.0000000001
 40
0.0
 40
0.0
 40
0.0
 40
0.0
 40
0.2415790084
 40
0.4893269843
 40
0.7378634303
 40
0.8656387112
 40
1.0
 40
1.0
 40
1.0
 40
1.0
 10
92.832841141
 20
20.7382093526
 30
0.0
 10
92.8870631783
 20
20.7398950546
 30
0.0
 10
92.9968918698
 20
20.7433095055
 30
0.0
 10
93.1576146996
 20
20.8006275411
 30
0.0
 10
93.2552248385
 20
20.9088288235
 30
0.0
 10
93.2982286251
 20
21.0169419203
 30
0.0
 10
93.2990036163
 20
21.076166046
 30
0.0
 10
93.2994008477
 20
21.1065220913
 30
0.0
  0
LINE
  5
267
100
AcDbEntity
  8
0
100
AcDbLine
 62
7
  6
CONTINUOUS
 10
93.2994008477
 20
21.1065220913
 11
93.2994008477
 21
22.3382612155
  0
SPLINE
  5
268
100
AcDbEntity
  8
0
100
AcDbSpline
 62
7
  6
CONTINUOUS
 70
0
 71
3
 72
12
 73
8
 74
0
 42
0.0000001
 43
0.0000001
 44
0.0000000001
 40
0.0
 40
0.0
 40
0.0
 40
0.0
 40
0.1343612888
 40
0.2621365697
 40
0.5106730157
 40
0.7584209916
 40
1.0
 40
1.0
 40
1.0
 40
1.0
 10
93.2994008477
 20
22.3382612155
 30
0.0
 10
93.2990036163
 20
22.3686172623
 30
0.0
 10
93.2982286251
 20
22.427841388
 30
0.0
 10
93.2552248385
 20
22.5359544848
 30
0.0
 10
93.1576146996
 20
22.6441557672
 30
0.0
 10
92.9968918698
 20
22.7014738013
 30
0.0
 10
92.8870631783
 20
22.7048882522
 30
0.0
 10
92.832841141
 20
22.7065739542
 30
0.0
  0
LINE
  5
269
100
AcDbEntity
  8
0
100
AcDbLine
 62
7
  6
CONTINUOUS
 10
92.832841141
 20
22.7065739542
 11
90.3237664464
 21
22.7065739542
  0
SPLINE
  5
26A
100
AcDbEntity
  8
0
100
AcDbSpline
 62
7
  6
CONTINUOUS
 70
0
 71
3
 72
12
 73
8
 74
0
 42
0.0000001
 43
0.0000001
 44
0.0000000001
 40
0.0
 40
0.0
 40
0.0
 40
0.0
 40
0.1341799809
 40
0.290831959
 40
0.5815217441
 40
0.760783857
 40
1.0
 40
1.0
 40
1.0
 40
1.0
 10
90.3237664464
 20
22.7065739542
 30
0.0
 10
90.2690390727
 20
22.6972205268
 30
0.0
 10
90.1504187758
 20
22.6769471902
 30
0.0
 10
89.9507405433
 20
22.5277680466
 30
0.0
 10
89.8561627986
 20
22.2767891181
 30
0.0
 10
89.8008262059
 20
21.9922813711
 30
0.0
 10
89.7966722614
 20
21.8201981179
 30
0.0
 10
89.7942977272
 20
21.7218295847
 30
0.0
  0
SPLINE
  5
26B
100
AcDbEntity
  8
0
100
AcDbSpline
 62
7
  6
CONTINUOUS
 70
0
 71
3
 72
12
 73
8
 74
0
 42
0.0000001
 43
0.0000001
 44
0.0000000001
 40
0.0
 40
0.0
 40
0.0
 40
0.0
 40
0.2392679579
 40
0.4185688994
 40
0.7093216488
 40
0.8660075581
 40
1.0
 40
1.0
 40
1.0
 40
1.0
 10
89.7942977272
 20
21.7218295847
 30
0.0
 10
89.79667321
 20
21.6234648856
 30
0.0
 10
89.8008288127
 20
21.4513883397
 30
0.0
 10
89.8561534648
 20
21.1668323125
 30
0.0
 10
89.9507889939
 20
20.9160870419
 30
0.0
 10
90.1502593333
 20
20.7664234831
 30
0.0
 10
90.2690213536
 20
20.7471114961
 30
0.0
 10
90.3237664464
 20
20.7382093526
 30
0.0
  0
LINE
  5
26C
100
AcDbEntity
  8
0
100
AcDbLine
 62
7
  6
CONTINUOUS
 10
92.7925692128
 20
21.2449796674
 11
92.7925692128
 21
22.2318836539
  0
ARC
  5
26D
100
AcDbEntity
  8
0
100
AcDbCircle
 62
7
  6
CONTINUOUS
 10
90.7161697175
 20
21.2449796674
 40
0.0989721062
100
AcDbArc
 50
180.0
 51
270.0
  0
LINE
  5
26E
100
AcDbEntity
  8
0
100
AcDbLine
 62
7
  6
CONTINUOUS
 10
90.7161697175
 20
21.1460075612
 11
91.8529288622
 21
21.1460075612
  0
LINE
  5
26F
100
AcDbEntity
  8
0
100
AcDbLine
 62
7
  6
CONTINUOUS
 10
91.8529288622
 20
21.1460075612
 11
91.8529288622
 21
21.3366727969
  0
ARC
  5
270
100
AcDbEntity
  8
0
100
AcDbCircle
 62
7
  6
CONTINUOUS
 10
91.8909950576
 20
21.3366727969
 40
0.0380661947
100
AcDbArc
 50
90.0
 51
180.0
  0
LINE
  5
271
100
AcDbEntity
  8
0
100
AcDbLine
 62
7
  6
CONTINUOUS
 10
91.8909950569
 20
21.3747389916
 11
92.4807037424
 21
21.3747389916
  0
ARC
  5
272
100
AcDbEntity
  8
0
100
AcDbCircle
 62
7
  6
CONTINUOUS
 10
92.480703741
 20
21.3366727983
 40
0.0380661947
100
AcDbArc
 50
0.0
 51
90.0
  0
LINE
  5
273
100
AcDbEntity
  8
0
100
AcDbLine
 62
7
  6
CONTINUOUS
 10
92.5187699371
 20
21.1460075612
 11
92.6935971067
 21
21.1460075612
  0
ARC
  5
274
100
AcDbEntity
  8
0
100
AcDbCircle
 62
7
  6
CONTINUOUS
 10
92.6935971067
 20
21.2449796674
 40
0.0989721062
100
AcDbArc
 50
270.0
 51
360.0
  0
LINE
  5
275
100
AcDbEntity
  8
0
100
AcDbLine
 62
7
  6
CONTINUOUS
 10
92.5187699371
 20
21.1460075612
 11
92.5187699371
 21
21.3366727969
  0
LINE
  5
276
100
AcDbEntity
  8
0
100
AcDbLine
 62
7
  6
CONTINUOUS
 10
90.6171976114
 20
21.2449796674
 11
90.6171976114
 21
22.2318836539
  0
ARC
  5
277
100
AcDbEntity
  8
0
100
AcDbCircle
 62
7
  6
CONTINUOUS
 10
90.7161697189
 20
22.2318836539
 40
0.0989721062
100
AcDbArc
 50
90.0
 51
180.0
  0
LINE
  5
278
100
AcDbEntity
  8
0
100
AcDbLine
 62
7
  6
CONTINUOUS
 10
90.7161697175
 20
22.3308557601
 11
92.6935971067
 21
22.3308557601
  0
ARC
  5
279
100
AcDbEntity
  8
0
100
AcDbCircle
 62
7
  6
CONTINUOUS
 10
92.6935971075
 20
22.2318836531
 40
0.0989721062
100
AcDbArc
 50
0.0000000277
 51
90.0000000277
  0
ARC
  5
27A
100
AcDbEntity
  8
0
100
AcDbCircle
 62
7
  6
CONTINUOUS
 10
94.5410273599
 20
22.0227428414
 40
0.0989721062
100
AcDbArc
 50
180.0
 51
270.0
  0
ARC
  5
27B
100
AcDbEntity
  8
0
100
AcDbCircle
 62
7
  6
CONTINUOUS
 10
95.8815725378
 20
21.2226418808
 40
0.0989721062
100
AcDbArc
 50
270.0
 51
360.0
  0
ARC
  5
27C
100
AcDbEntity
  8
0
100
AcDbCircle
 62
7
  6
CONTINUOUS
 10
98.047231402
 20
21.2312156897
 40
0.0989721062
100
AcDbArc
 50
180.0
 51
270.0
  0
ENDBLK
  5
27D
100
AcDbEntity
  8
0
  6
BYBLOCK
 62
0
100
AcDbBlockEnd
  0
BLOCK
  5
27E
100
AcDbEntity
  8
0
100
AcDbBlockBegin
  2
_FILLED
 70
64
 10
0.0
 20
0.0
  3
_FILLED
  1

  0
SOLID
  5
27F
100
AcDbEntity
  8
0
  6
BYBLOCK
 62
0
100
AcDbTrace
 10
0.0
 20
0.0
 11
-1.0
 21
0.1666666667
 12
-1.0
 22
-0.1666666667
 13
-1.0
 23
-0.1666666667
  0
ENDBLK
  5
280
100
AcDbEntity
  8
0
  6
BYBLOCK
 62
0
100
AcDbBlockEnd
  0
BLOCK
  5
281
100
AcDbEntity
  8
0
100
AcDbBlockBegin
 62
2
  6
CONTINUOUS
  2
*D0
 70
65
 10
0.0
 20
0.0
  3
*D0
  1

  0
MTEXT
  5
282
100
AcDbEntity
  8
0
100
AcDbMText
 62
2
  6
CONTINUOUS
  7
TEXTSTYLE_1
 71
3
 72
1
 10
57.0358482041
 20
44.0420877411
 30
0.0
 11
1.0
 21
0.0
 31
0.0
 44
0.9
  1
{\Fgdt;n}\Ftxt;12\P[.5]
 40
1.25
 41
3.3630952381
  0
LINE
  5
283
100
AcDbEntity
  8
0
100
AcDbLine
 62
2
  6
CONTINUOUS
 10
61.4925545175
 20
38.3403309459
 11
60.0179910612
 21
43.4170877411
  0
LINE
  5
284
100
AcDbEntity
  8
0
100
AcDbLine
 62
2
  6
CONTINUOUS
 10
60.0179910612
 20
43.4170877411
 11
58.6429910612
 21
43.4170877411
  0
INSERT
  5
285
100
AcDbEntity
  8
0
100
AcDbBlockReference
 62
2
  6
CONTINUOUS
  2
_FILLED
 10
61.4925545175
 20
38.3403309459
 41
1.5
 42
1.5
 43
1.5
 50
286.1961414883
  0
ENDBLK
  5
286
100
AcDbEntity
  8
0
  6
BYBLOCK
 62
0
100
AcDbBlockEnd
  0
BLOCK
  5
287
100
AcDbEntity
  8
0
100
AcDbBlockBegin
 62
2
  6
CONTINUOUS
  2
*D1
 70
65
 10
0.0
 20
0.0
  3
*D1
  1

  0
MTEXT
  5
288
100
AcDbEntity
  8
0
100
AcDbMText
 62
2
  6
CONTINUOUS
  7
STANDARD
 71
2
 72
1
 10
65.2561226294
 20
28.9457909997
 30
0.0
 11
1.0
 21
0.0
 31
0.0
 44
0.9
  1
334\P[13.1]
 40
1.25
 41
4.1071428571
  0
LINE
  5
289
100
AcDbEntity
  8
0
100
AcDbLine
 62
2
  6
CONTINUOUS
 10
72.498009581
 20
35.6800209132
 11
72.498009581
 21
27.3207909997
  0
LINE
  5
28A
100
AcDbEntity
  8
0
100
AcDbLine
 62
2
  6
CONTINUOUS
 10
59.353521392
 20
37.6134854801
 11
59.353521392
 21
27.3207909997
  0
LINE
  5
28B
100
AcDbEntity
  8
0
100
AcDbLine
 62
2
  6
CONTINUOUS
 10
72.498009581
 20
28.3207909997
 11
68.6043369151
 21
28.3207909997
  0
LINE
  5
28C
100
AcDbEntity
  8
0
100
AcDbLine
 62
2
  6
CONTINUOUS
 10
59.353521392
 20
28.3207909997
 11
63.2471940579
 21
28.3207909997
  0
INSERT
  5
28D
100
AcDbEntity
  8
0
100
AcDbBlockReference
 62
2
  6
CONTINUOUS
  2
_FILLED
 10
72.498009581
 20
28.3207909997
 41
1.5
 42
1.5
 43
1.5
  0
INSERT
  5
28E
100
AcDbEntity
  8
0
100
AcDbBlockReference
 62
2
  6
CONTINUOUS
  2
_FILLED
 10
59.353521392
 20
28.3207909997
 41
1.5
 42
1.5
 43
1.5
 50
180.0
  0
ENDBLK
  5
28F
100
AcDbEntity
  8
0
  6
BYBLOCK
 62
0
100
AcDbBlockEnd
  0
BLOCK
  5
290
100
AcDbEntity
  8
0
100
AcDbBlockBegin
 62
2
  6
CONTINUOUS
  2
*D2
 70
65
 10
0.0
 20
0.0
  3
*D2
  1

  0
MTEXT
  5
291
100
AcDbEntity
  8
0
100
AcDbMText
 62
2
  6
CONTINUOUS
  7
STANDARD
 71
2
 72
1
 10
66.269297545
 20
34.4864668021
 30
0.0
 11
1.0
 21
0.0
 31
0.0
 44
0.9
  1
278\P[10.9]
 40
1.25
 41
4.4642857143
  0
LINE
  5
292
100
AcDbEntity
  8
0
100
AcDbLine
 62
2
  6
CONTINUOUS
 10
61.5584426519
 20
36.7834456459
 11
61.5584426519
 21
32.8614668021
  0
LINE
  5
293
100
AcDbEntity
  8
0
100
AcDbLine
 62
2
  6
CONTINUOUS
 10
72.498009581
 20
35.6800209132
 11
72.498009581
 21
32.8614668021
  0
LINE
  5
294
100
AcDbEntity
  8
0
100
AcDbLine
 62
2
  6
CONTINUOUS
 10
61.5584426519
 20
33.8614668021
 11
64.1710832593
 21
33.8614668021
  0
LINE
  5
295
100
AcDbEntity
  8
0
100
AcDbLine
 62
2
  6
CONTINUOUS
 10
72.498009581
 20
33.8614668021
 11
69.8853689736
 21
33.8614668021
  0
INSERT
  5
296
100
AcDbEntity
  8
0
100
AcDbBlockReference
 62
2
  6
CONTINUOUS
  2
_FILLED
 10
61.5584426519
 20
33.8614668021
 41
1.5
 42
1.5
 43
1.5
 50
180.0
  0
INSERT
  5
297
100
AcDbEntity
  8
0
100
AcDbBlockReference
 62
2
  6
CONTINUOUS
  2
_FILLED
 10
72.498009581
 20
33.8614668021
 41
1.5
 42
1.5
 43
1.5
  0
ENDBLK
  5
298
100
AcDbEntity
  8
0
  6
BYBLOCK
 62
0
100
AcDbBlockEnd
  0
BLOCK
  5
299
100
AcDbEntity
  8
0
100
AcDbBlockBegin
 62
2
  6
CONTINUOUS
  2
*D3
 70
65
 10
0.0
 20
0.0
  3
*D3
  1

  0
MTEXT
  5
29A
100
AcDbEntity
  8
0
100
AcDbMText
 62
2
  6
CONTINUOUS
  7
STANDARD
 71
2
 72
1
 10
52.7784541628
 20
60.5630862894
 30
0.0
 11
1.0
 21
0.0
 31
0.0
 44
0.9
  1
678\P[26.7]
 40
1.25
 41
4.7321428571
  0
LINE
  5
29B
100
AcDbEntity
  8
0
100
AcDbLine
 62
2
  6
CONTINUOUS
 10
58.8385859723
 20
73.2845429823
 11
52.6713113057
 21
73.2845429823
  0
LINE
  5
29C
100
AcDbEntity
  8
0
100
AcDbLine
 62
2
  6
CONTINUOUS
 10
58.8803512459
 20
46.5916295965
 11
52.6713113057
 21
46.5916295965
  0
LINE
  5
29D
100
AcDbEntity
  8
0
100
AcDbLine
 62
2
  6
CONTINUOUS
 10
53.6713113057
 20
73.2845429823
 11
53.6713113057
 21
61.1880862894
  0
LINE
  5
29E
100
AcDbEntity
  8
0
100
AcDbLine
 62
2
  6
CONTINUOUS
 10
53.6713113057
 20
46.5916295965
 11
53.6713113057
 21
56.8130862894
  0
INSERT
  5
29F
100
AcDbEntity
  8
0
100
AcDbBlockReference
 62
2
  6
CONTINUOUS
  2
_FILLED
 10
53.6713113057
 20
73.2845429823
 41
1.5
 42
1.5
 43
1.5
 50
90.0
  0
INSERT
  5
2A0
100
AcDbEntity
  8
0
100
AcDbBlockReference
 62
2
  6
CONTINUOUS
  2
_FILLED
 10
53.6713113057
 20
46.5916295965
 41
1.5
 42
1.5
 43
1.5
 50
270.0
  0
ENDBLK
  5
2A1
100
AcDbEntity
  8
0
  6
BYBLOCK
 62
0
100
AcDbBlockEnd
  0
BLOCK
  5
2A2
100
AcDbEntity
  8
0
100
AcDbBlockBegin
 62
2
  6
CONTINUOUS
  2
*D4
 70
65
 10
0.0
 20
0.0
  3
*D4
  1

  0
MTEXT
  5
2A3
100
AcDbEntity
  8
0
100
AcDbMText
 62
2
  6
CONTINUOUS
  7
STANDARD
 71
1
 72
1
 10
30.8636502701
 20
65.770424768
 30
0.0
 11
1.0
 21
0.0
 31
0.0
 44
0.9
  1
4X \Fgdt;{\Fgdt;n}\Ftxt;7\P[.3]
 40
1.25
 41
5.6845238095
  0
LINE
  5
2A4
100
AcDbEntity
  8
0
100
AcDbLine
 62
2
  6
CONTINUOUS
 10
26.7805178739
 20
62.6811157881
 11
28.8636502701
 21
65.145424768
  0
LINE
  5
2A5
100
AcDbEntity
  8
0
100
AcDbLine
 62
2
  6
CONTINUOUS
 10
28.8636502701
 20
65.145424768
 11
30.2386502701
 21
65.145424768
  0
INSERT
  5
2A6
100
AcDbEntity
  8
0
100
AcDbBlockReference
 62
2
  6
CONTINUOUS
  2
_FILLED
 10
26.7805178739
 20
62.6811157881
 41
1.5
 42
1.5
 43
1.5
 50
229.7914579281
  0
ENDBLK
  5
2A7
100
AcDbEntity
  8
0
  6
BYBLOCK
 62
0
100
AcDbBlockEnd
  0
BLOCK
  5
2A8
100
AcDbEntity
  8
0
100
AcDbBlockBegin
 62
2
  6
CONTINUOUS
  2
*D5
 70
65
 10
0.0
 20
0.0
  3
*D5
  1

  0
MTEXT
  5
2A9
100
AcDbEntity
  8
0
100
AcDbMText
 62
2
  6
CONTINUOUS
  7
STANDARD
 71
1
 72
1
 10
30.6533241602
 20
61.6031172283
 30
0.0
 11
1.0
 21
0.0
 31
0.0
 44
0.9
  1
3X \Fgdt;{\Fgdt;n}\Ftxt;13\P[.5]
 40
1.25
 41
6.2202380952
  0
LINE
  5
2AA
100
AcDbEntity
  8
0
100
AcDbLine
 62
2
  6
CONTINUOUS
 10
25.5188210926
 20
60.0133651233
 11
28.6533241602
 21
60.9781172283
  0
LINE
  5
2AB
100
AcDbEntity
  8
0
100
AcDbLine
 62
2
  6
CONTINUOUS
 10
28.6533241602
 20
60.9781172283
 11
30.0283241602
 21
60.9781172283
  0
INSERT
  5
2AC
100
AcDbEntity
  8
0
100
AcDbBlockReference
 62
2
  6
CONTINUOUS
  2
_FILLED
 10
25.5188210926
 20
60.0133651233
 41
1.5
 42
1.5
 43
1.5
 50
197.1075650113
  0
ENDBLK
  5
2AD
100
AcDbEntity
  8
0
  6
BYBLOCK
 62
0
100
AcDbBlockEnd
  0
BLOCK
  5
2AE
100
AcDbEntity
  8
0
100
AcDbBlockBegin
 62
2
  6
CONTINUOUS
  2
*D6
 70
65
 10
0.0
 20
0.0
  3
*D6
  1

  0
MTEXT
  5
2AF
100
AcDbEntity
  8
0
100
AcDbMText
 62
2
  6
CONTINUOUS
  7
STANDARD
 71
3
 72
1
 10
17.6980625048
 20
78.0346851571
 30
0.0
 11
1.0
 21
0.0
 31
0.0
 44
0.9
  1
2X 72\P[2.8]
 40
1.25
 41
5.0
  0
LINE
  5
2B0
100
AcDbEntity
  8
0
100
AcDbLine
 62
2
  6
CONTINUOUS
 10
26.6915611639
 20
63.9059213992
 11
26.6915611639
 21
78.4096851571
  0
LINE
  5
2B1
100
AcDbEntity
  8
0
100
AcDbLine
 62
2
  6
CONTINUOUS
 10
23.8569154946
 20
63.9059213992
 11
23.8569154946
 21
78.4096851571
  0
LINE
  5
2B2
100
AcDbEntity
  8
0
100
AcDbLine
 62
2
  6
CONTINUOUS
 10
26.6915611639
 20
77.4096851571
 11
30.6915611639
 21
77.4096851571
  0
LINE
  5
2B3
100
AcDbEntity
  8
0
100
AcDbLine
 62
2
  6
CONTINUOUS
 10
23.8569154946
 20
77.4096851571
 11
20.1087767906
 21
77.4096851571
  0
INSERT
  5
2B4
100
AcDbEntity
  8
0
100
AcDbBlockReference
 62
2
  6
CONTINUOUS
  2
_FILLED
 10
26.6915611639
 20
77.4096851571
 41
1.5
 42
1.5
 43
1.5
 50
180.0
  0
INSERT
  5
2B5
100
AcDbEntity
  8
0
100
AcDbBlockReference
 62
2
  6
CONTINUOUS
  2
_FILLED
 10
23.8569154946
 20
77.4096851571
 41
1.5
 42
1.5
 43
1.5
  0
ENDBLK
  5
2B6
100
AcDbEntity
  8
0
  6
BYBLOCK
 62
0
100
AcDbBlockEnd
  0
BLOCK
  5
2B7
100
AcDbEntity
  8
0
100
AcDbBlockBegin
 62
2
  6
CONTINUOUS
  2
*D7
 70
65
 10
0.0
 20
0.0
  3
*D7
  1

  0
MTEXT
  5
2B8
100
AcDbEntity
  8
0
100
AcDbMText
 62
2
  6
CONTINUOUS
  7
STANDARD
 71
1
 72
1
 10
32.9381727155
 20
51.0118057544
 30
0.0
 11
1.0
 21
0.0
 31
0.0
 44
0.9
  1
4X 27\P[1.1]
 40
1.25
 41
5.0
  0
LINE
  5
2B9
100
AcDbEntity
  8
0
100
AcDbLine
 62
2
  6
CONTINUOUS
 10
27.4600690379
 20
54.5050154233
 11
31.9381727155
 21
54.5050154233
  0
LINE
  5
2BA
100
AcDbEntity
  8
0
100
AcDbLine
 62
2
  6
CONTINUOUS
 10
27.4600690379
 20
53.4420232973
 11
31.9381727155
 21
53.4420232973
  0
LINE
  5
2BB
100
AcDbEntity
  8
0
100
AcDbLine
 62
2
  6
CONTINUOUS
 10
30.9381727155
 20
54.5050154233
 11
30.9381727155
 21
58.5050154233
  0
LINE
  5
2BC
100
AcDbEntity
  8
0
100
AcDbLine
 62
2
  6
CONTINUOUS
 10
30.9381727155
 20
53.4420232973
 11
30.9381727155
 21
50.3868057544
  0
LINE
  5
2BD
100
AcDbEntity
  8
0
100
AcDbLine
 62
2
  6
CONTINUOUS
 10
30.9381727155
 20
50.3868057544
 11
32.3131727155
 21
50.3868057544
  0
INSERT
  5
2BE
100
AcDbEntity
  8
0
100
AcDbBlockReference
 62
2
  6
CONTINUOUS
  2
_FILLED
 10
30.9381727155
 20
54.5050154233
 41
1.5
 42
1.5
 43
1.5
 50
270.0
  0
INSERT
  5
2BF
100
AcDbEntity
  8
0
100
AcDbBlockReference
 62
2
  6
CONTINUOUS
  2
_FILLED
 10
30.9381727155
 20
53.4420232973
 41
1.5
 42
1.5
 43
1.5
 50
90.0
  0
ENDBLK
  5
2C0
100
AcDbEntity
  8
0
  6
BYBLOCK
 62
0
100
AcDbBlockEnd
  0
BLOCK
  5
2C1
100
AcDbEntity
  8
0
100
AcDbBlockBegin
 62
2
  6
CONTINUOUS
  2
*D8
 70
65
 10
0.0
 20
0.0
  3
*D8
  1

  0
MTEXT
  5
2C2
100
AcDbEntity
  8
0
100
AcDbMText
 62
2
  6
CONTINUOUS
  7
STANDARD
 71
3
 72
1
 10
18.1200465671
 20
43.1929677384
 30
0.0
 11
1.0
 21
0.0
 31
0.0
 44
0.9
  1
4X 45\P[1.8]
 40
1.25
 41
4.9107142857
  0
LINE
  5
2C3
100
AcDbEntity
  8
0
100
AcDbLine
 62
2
  6
CONTINUOUS
 10
26.1600651009
 20
52.1420193603
 11
26.1600651009
 21
41.5679677384
  0
LINE
  5
2C4
100
AcDbEntity
  8
0
100
AcDbLine
 62
2
  6
CONTINUOUS
 10
24.3884115576
 20
52.1420193603
 11
24.3884115576
 21
41.5679677384
  0
LINE
  5
2C5
100
AcDbEntity
  8
0
100
AcDbLine
 62
2
  6
CONTINUOUS
 10
26.1600651009
 20
42.5679677384
 11
30.1600651009
 21
42.5679677384
  0
LINE
  5
2C6
100
AcDbEntity
  8
0
100
AcDbLine
 62
2
  6
CONTINUOUS
 10
24.3884115576
 20
42.5679677384
 11
20.3521894243
 21
42.5679677384
  0
INSERT
  5
2C7
100
AcDbEntity
  8
0
100
AcDbBlockReference
 62
2
  6
CONTINUOUS
  2
_FILLED
 10
26.1600651009
 20
42.5679677384
 41
1.5
 42
1.5
 43
1.5
 50
180.0
  0
INSERT
  5
2C8
100
AcDbEntity
  8
0
100
AcDbBlockReference
 62
2
  6
CONTINUOUS
  2
_FILLED
 10
24.3884115576
 20
42.5679677384
 41
1.5
 42
1.5
 43
1.5
  0
ENDBLK
  5
2C9
100
AcDbEntity
  8
0
  6
BYBLOCK
 62
0
100
AcDbBlockEnd
  0
BLOCK
  5
2CA
100
AcDbEntity
  8
0
100
AcDbBlockBegin
 62
2
  6
CONTINUOUS
  2
*D9
 70
65
 10
0.0
 20
0.0
  3
*D9
  1

  0
MTEXT
  5
2CB
100
AcDbEntity
  8
0
100
AcDbMText
 62
2
  6
CONTINUOUS
  7
STANDARD
 71
1
 72
1
 10
31.0173724786
 20
39.4455751977
 30
0.0
 11
1.0
 21
0.0
 31
0.0
 44
0.9
  1
4X 10\P[.4]
 40
1.25
 41
4.7321428571
  0
LINE
  5
2CC
100
AcDbEntity
  8
0
100
AcDbLine
 62
2
  6
CONTINUOUS
 10
25.9632147072
 20
52.9420232973
 11
25.9632147072
 21
37.8205751977
  0
LINE
  5
2CD
100
AcDbEntity
  8
0
100
AcDbLine
 62
2
  6
CONTINUOUS
 10
26.3569154946
 20
52.9420232973
 11
26.3569154946
 21
37.8205751977
  0
LINE
  5
2CE
100
AcDbEntity
  8
0
100
AcDbLine
 62
2
  6
CONTINUOUS
 10
25.9632147072
 20
38.8205751977
 11
21.9632147072
 21
38.8205751977
  0
LINE
  5
2CF
100
AcDbEntity
  8
0
100
AcDbLine
 62
2
  6
CONTINUOUS
 10
26.3569154946
 20
38.8205751977
 11
30.3923724786
 21
38.8205751977
  0
INSERT
  5
2D0
100
AcDbEntity
  8
0
100
AcDbBlockReference
 62
2
  6
CONTINUOUS
  2
_FILLED
 10
25.9632147072
 20
38.8205751977
 41
1.5
 42
1.5
 43
1.5
  0
INSERT
  5
2D1
100
AcDbEntity
  8
0
100
AcDbBlockReference
 62
2
  6
CONTINUOUS
  2
_FILLED
 10
26.3569154946
 20
38.8205751977
 41
1.5
 42
1.5
 43
1.5
 50
180.0
  0
ENDBLK
  5
2D2
100
AcDbEntity
  8
0
  6
BYBLOCK
 62
0
100
AcDbBlockEnd
  0
BLOCK
  5
2D3
100
AcDbEntity
  8
0
100
AcDbBlockBegin
 62
2
  6
CONTINUOUS
  2
*D10
 70
65
 10
0.0
 20
0.0
  3
*D10
  1

  0
MTEXT
  5
2D4
100
AcDbEntity
  8
0
100
AcDbMText
 62
2
  6
CONTINUOUS
  7
STANDARD
 71
2
 72
1
 10
16.9270553967
 20
61.5137951961
 30
0.0
 11
1.0
 21
0.0
 31
0.0
 44
0.9
  1
2X 134\P[5.3]
 40
1.25
 41
5.625
  0
LINE
  5
2D5
100
AcDbEntity
  8
0
100
AcDbLine
 62
2
  6
CONTINUOUS
 10
22.5268756604
 20
62.575881565
 11
16.4181268253
 21
62.575881565
  0
LINE
  5
2D6
100
AcDbEntity
  8
0
100
AcDbLine
 62
2
  6
CONTINUOUS
 10
22.5268756604
 20
57.3002910138
 11
16.4181268253
 21
57.3002910138
  0
LINE
  5
2D7
100
AcDbEntity
  8
0
100
AcDbLine
 62
2
  6
CONTINUOUS
 10
17.4181268253
 20
62.575881565
 11
17.4181268253
 21
66.575881565
  0
LINE
  5
2D8
100
AcDbEntity
  8
0
100
AcDbLine
 62
2
  6
CONTINUOUS
 10
17.4181268253
 20
57.3002910138
 11
17.4181268253
 21
53.3002910138
  0
INSERT
  5
2D9
100
AcDbEntity
  8
0
100
AcDbBlockReference
 62
2
  6
CONTINUOUS
  2
_FILLED
 10
17.4181268253
 20
62.575881565
 41
1.5
 42
1.5
 43
1.5
 50
270.0
  0
INSERT
  5
2DA
100
AcDbEntity
  8
0
100
AcDbBlockReference
 62
2
  6
CONTINUOUS
  2
_FILLED
 10
17.4181268253
 20
57.3002910138
 41
1.5
 42
1.5
 43
1.5
 50
90.0
  0
ENDBLK
  5
2DB
100
AcDbEntity
  8
0
  6
BYBLOCK
 62
0
100
AcDbBlockEnd
  0
BLOCK
  5
2DC
100
AcDbEntity
  8
0
100
AcDbBlockBegin
 62
2
  6
CONTINUOUS
  2
*D11
 70
65
 10
0.0
 20
0.0
  3
*D11
  1

  0
MTEXT
  5
2DD
100
AcDbEntity
  8
0
100
AcDbMText
 62
2
  6
CONTINUOUS
  7
STANDARD
 71
2
 72
1
 10
9.9529318767
 20
61.3801017561
 30
0.0
 11
1.0
 21
0.0
 31
0.0
 44
0.9
  1
146\P[5.7]
 40
1.25
 41
3.6607142857
  0
LINE
  5
2DE
100
AcDbEntity
  8
0
100
AcDbLine
 62
2
  6
CONTINUOUS
 10
23.944198495
 20
62.8121020374
 11
9.4440033053
 21
62.8121020374
  0
LINE
  5
2DF
100
AcDbEntity
  8
0
100
AcDbLine
 62
2
  6
CONTINUOUS
 10
23.944198495
 20
57.0640705414
 11
9.4440033053
 21
57.0640705414
  0
LINE
  5
2E0
100
AcDbEntity
  8
0
100
AcDbLine
 62
2
  6
CONTINUOUS
 10
10.4440033053
 20
62.8121020374
 11
10.4440033053
 21
66.8121020374
  0
LINE
  5
2E1
100
AcDbEntity
  8
0
100
AcDbLine
 62
2
  6
CONTINUOUS
 10
10.4440033053
 20
57.0640705414
 11
10.4440033053
 21
53.0640705414
  0
INSERT
  5
2E2
100
AcDbEntity
  8
0
100
AcDbBlockReference
 62
2
  6
CONTINUOUS
  2
_FILLED
 10
10.4440033053
 20
62.8121020374
 41
1.5
 42
1.5
 43
1.5
 50
270.0
  0
INSERT
  5
2E3
100
AcDbEntity
  8
0
100
AcDbBlockReference
 62
2
  6
CONTINUOUS
  2
_FILLED
 10
10.4440033053
 20
57.0640705414
 41
1.5
 42
1.5
 43
1.5
 50
90.0
  0
ENDBLK
  5
2E4
100
AcDbEntity
  8
0
  6
BYBLOCK
 62
0
100
AcDbBlockEnd
  0
BLOCK
  5
2E5
100
AcDbEntity
  8
0
100
AcDbBlockBegin
 62
2
  6
CONTINUOUS
  2
*D12
 70
65
 10
0.0
 20
0.0
  3
*D12
  1

  0
MTEXT
  5
2E6
100
AcDbEntity
  8
0
100
AcDbMText
 62
2
  6
CONTINUOUS
  7
STANDARD
 71
2
 72
1
 10
76.4723557366
 20
39.6381100571
 30
0.0
 11
1.0
 21
0.0
 31
0.0
 44
0.9
  1
105\P[4.1]
 40
1.25
 41
3.4821428571
  0
LINE
  5
2E7
100
AcDbEntity
  8
0
100
AcDbLine
 62
2
  6
CONTINUOUS
 10
72.8645450141
 20
40.180414614
 11
77.918784308
 21
40.180414614
  0
LINE
  5
2E8
100
AcDbEntity
  8
0
100
AcDbLine
 62
2
  6
CONTINUOUS
 10
72.8645450141
 20
36.0465563463
 11
77.918784308
 21
36.0465563463
  0
LINE
  5
2E9
100
AcDbEntity
  8
0
100
AcDbLine
 62
2
  6
CONTINUOUS
 10
76.918784308
 20
40.180414614
 11
76.918784308
 21
44.180414614
  0
LINE
  5
2EA
100
AcDbEntity
  8
0
100
AcDbLine
 62
2
  6
CONTINUOUS
 10
76.918784308
 20
36.0465563463
 11
76.918784308
 21
32.0465563463
  0
INSERT
  5
2EB
100
AcDbEntity
  8
0
100
AcDbBlockReference
 62
2
  6
CONTINUOUS
  2
_FILLED
 10
76.918784308
 20
40.180414614
 41
1.5
 42
1.5
 43
1.5
 50
270.0
  0
INSERT
  5
2EC
100
AcDbEntity
  8
0
100
AcDbBlockReference
 62
2
  6
CONTINUOUS
  2
_FILLED
 10
76.918784308
 20
36.0465563463
 41
1.5
 42
1.5
 43
1.5
 50
90.0
  0
ENDBLK
  5
2ED
100
AcDbEntity
  8
0
  6
BYBLOCK
 62
0
100
AcDbBlockEnd
  0
BLOCK
  5
2EE
100
AcDbEntity
  8
0
100
AcDbBlockBegin
 62
2
  6
CONTINUOUS
  2
*D13
 70
65
 10
0.0
 20
0.0
  3
*D13
  1

  0
MTEXT
  5
2EF
100
AcDbEntity
  8
0
100
AcDbMText
 62
2
  6
CONTINUOUS
  7
STANDARD
 71
2
 72
1
 10
42.5176880358
 20
61.2965433561
 30
0.0
 11
1.0
 21
0.0
 31
0.0
 44
0.9
  1
2X 330\P[13.0]
 40
1.25
 41
5.8035714286
  0
LINE
  5
2F0
100
AcDbEntity
  8
0
100
AcDbLine
 62
2
  6
CONTINUOUS
 10
27.4600690379
 20
66.4341492815
 11
44.3212594643
 21
66.4341492815
  0
LINE
  5
2F1
100
AcDbEntity
  8
0
100
AcDbLine
 62
2
  6
CONTINUOUS
 10
27.4600690379
 20
53.4420232973
 11
44.3212594643
 21
53.4420232973
  0
LINE
  5
2F2
100
AcDbEntity
  8
0
100
AcDbLine
 62
2
  6
CONTINUOUS
 10
43.3212594643
 20
66.4341492815
 11
43.3212594643
 21
61.9215433561
  0
LINE
  5
2F3
100
AcDbEntity
  8
0
100
AcDbLine
 62
2
  6
CONTINUOUS
 10
43.3212594643
 20
53.4420232973
 11
43.3212594643
 21
57.5465433561
  0
INSERT
  5
2F4
100
AcDbEntity
  8
0
100
AcDbBlockReference
 62
2
  6
CONTINUOUS
  2
_FILLED
 10
43.3212594643
 20
66.4341492815
 41
1.5
 42
1.5
 43
1.5
 50
90.0
  0
INSERT
  5
2F5
100
AcDbEntity
  8
0
100
AcDbBlockReference
 62
2
  6
CONTINUOUS
  2
_FILLED
 10
43.3212594643
 20
53.4420232973
 41
1.5
 42
1.5
 43
1.5
 50
270.0
  0
ENDBLK
  5
2F6
100
AcDbEntity
  8
0
  6
BYBLOCK
 62
0
100
AcDbBlockEnd
  0
ENDSEC
  0
SECTION
  2
ENTITIES
  0
MTEXT
  5
2F7
100
AcDbEntity
  8
0
100
AcDbMText
 62
2
  6
CONTINUOUS
  7
STANDARD
 71
1
 72
1
 10
19.768344887
 20
3.2249906114
 30
0.0
 11
1.0
 21
0.0
 31
0.0
 44
0.9
  1
4
 40
1.25
 41
0.9821428571
  0
MTEXT
  5
2F8
100
AcDbEntity
  8
0
100
AcDbMText
 62
2
  6
CONTINUOUS
  7
STANDARD
 71
1
 72
1
 10
50.7532382473
 20
3.2191427264
 30
0.0
 11
1.0
 21
0.0
 31
0.0
 44
0.9
  1
3
 40
1.25
 41
0.8928571429
  0
MTEXT
  5
2F9
100
AcDbEntity
  8
0
100
AcDbMText
 62
2
  6
CONTINUOUS
  7
STANDARD
 71
1
 72
1
 10
81.6663749084
 20
3.2218032078
 30
0.0
 11
1.0
 21
0.0
 31
0.0
 44
0.9
  1
2
 40
1.25
 41
0.9821428571
  0
MTEXT
  5
2FA
100
AcDbEntity
  8
0
100
AcDbMText
 62
2
  6
CONTINUOUS
  7
STANDARD
 71
1
 72
1
 10
112.6375863398
 20
3.2219373305
 30
0.0
 11
1.0
 21
0.0
 31
0.0
 44
0.9
  1
1
 40
1.25
 41
0.7142857143
  0
MTEXT
  5
2FB
100
AcDbEntity
  8
0
100
AcDbMText
 62
2
  6
CONTINUOUS
  7
STANDARD
 71
1
 72
1
 10
19.772774971
 20
86.9564679635
 30
0.0
 11
1.0
 21
0.0
 31
0.0
 44
0.9
  1
4
 40
1.25
 41
0.9821428571
  0
MTEXT
  5
2FC
100
AcDbEntity
  8
0
100
AcDbMText
 62
2
  6
CONTINUOUS
  7
STANDARD
 71
1
 72
1
 10
50.7410042668
 20
86.9471762534
 30
0.0
 11
1.0
 21
0.0
 31
0.0
 44
0.9
  1
3
 40
1.25
 41
0.8928571429
  0
MTEXT
  5
2FD
100
AcDbEntity
  8
0
100
AcDbMText
 62
2
  6
CONTINUOUS
  7
STANDARD
 71
1
 72
1
 10
81.6810549507
 20
86.9456051582
 30
0.0
 11
1.0
 21
0.0
 31
0.0
 44
0.9
  1
2
 40
1.25
 41
0.9821428571
  0
MTEXT
  5
2FE
100
AcDbEntity
  8
0
100
AcDbMText
 62
2
  6
CONTINUOUS
  7
STANDARD
 71
1
 72
1
 10
112.6389761997
 20
86.9467317881
 30
0.0
 11
1.0
 21
0.0
 31
0.0
 44
0.9
  1
1
 40
1.25
 41
0.7142857143
  0
MTEXT
  5
2FF
100
AcDbEntity
  8
0
100
AcDbMText
 62
2
  6
CONTINUOUS
  7
STANDARD
 71
1
 72
1
 10
2.0341453325
 20
14.8743704737
 30
0.0
 11
1.0
 21
0.0
 31
0.0
 44
0.9
  1
A
 40
1.25
 41
1.0714285714
  0
MTEXT
  5
300
100
AcDbEntity
  8
0
100
AcDbMText
 62
2
  6
CONTINUOUS
  7
STANDARD
 71
1
 72
1
 10
2.0779778455
 20
34.8821648982
 30
0.0
 11
1.0
 21
0.0
 31
0.0
 44
0.9
  1
B
 40
1.25
 41
0.9821428571
  0
MTEXT
  5
301
100
AcDbEntity
  8
0
100
AcDbMText
 62
2
  6
CONTINUOUS
  7
STANDARD
 71
1
 72
1
 10
2.0663924527
 20
54.8632005076
 30
0.0
 11
1.0
 21
0.0
 31
0.0
 44
0.9
  1
C
 40
1.25
 41
1.0416666667
  0
MTEXT
  5
302
100
AcDbEntity
  8
0
100
AcDbMText
 62
2
  6
CONTINUOUS
  7
STANDARD
 71
1
 72
1
 10
2.0831341163
 20
74.8968615966
 30
0.0
 11
1.0
 21
0.0
 31
0.0
 44
0.9
  1
D
 40
1.25
 41
1.130952381
  0
MTEXT
  5
303
100
AcDbEntity
  8
0
100
AcDbMText
 62
2
  6
CONTINUOUS
  7
STANDARD
 71
1
 72
1
 10
130.0031905634
 20
14.871961517
 30
0.0
 11
1.0
 21
0.0
 31
0.0
 44
0.9
  1
A
 40
1.25
 41
1.0714285714
  0
MTEXT
  5
304
100
AcDbEntity
  8
0
100
AcDbMText
 62
2
  6
CONTINUOUS
  7
STANDARD
 71
1
 72
1
 10
129.995734888
 20
34.8794651346
 30
0.0
 11
1.0
 21
0.0
 31
0.0
 44
0.9
  1
B
 40
1.25
 41
0.9821428571
  0
MTEXT
  5
305
100
AcDbEntity
  8
0
100
AcDbMText
 62
2
  6
CONTINUOUS
  7
STANDARD
 71
1
 72
1
 10
129.9924240661
 20
54.8588140813
 30
0.0
 11
1.0
 21
0.0
 31
0.0
 44
0.9
  1
C
 40
1.25
 41
1.0416666667
  0
MTEXT
  5
306
100
AcDbEntity
  8
0
100
AcDbMText
 62
2
  6
CONTINUOUS
  7
STANDARD
 71
1
 72
1
 10
129.9954782703
 20
74.8945504861
 30
0.0
 11
1.0
 21
0.0
 31
0.0
 44
0.9
  1
D
 40
1.25
 41
1.130952381
  0
MTEXT
  5
307
100
AcDbEntity
  8
0
100
AcDbMText
 62
5
  6
CONTINUOUS
  7
STANDARD
 71
1
 72
1
 10
4.3539628491
 20
83.6997777609
 30
0.0
 11
1.0
 21
0.0
 31
0.0
 44
0.9
  1
THIS DOCUMENT CONTAINS PROPRIETARY INFORMATION\PWHICH IS THE PROPERTY OF QSC AUDIO PRODUCTS, THAT\PMAY NOT BE DISCLOSED, REPRODUCED OR USED WITHOUT\PEXPRESS WRITTEN CONSENT FROM QSC AUDIO PRODUCTS.
 40
0.6
 41
23.5428571429
  0
MTEXT
  5
308
100
AcDbEntity
  8
0
100
AcDbMText
 62
2
  6
CONTINUOUS
  7
STANDARD
 71
2
 72
1
 10
57.8795782334
 20
20.7358839889
 30
0.0
 11
1.0
 21
0.0
 31
0.0
 44
0.9
  1
TOLERANCES ARE:
 40
0.72
 41
8.2457142857
  0
MTEXT
  5
309
100
AcDbEntity
  8
0
100
AcDbMText
 62
2
  6
CONTINUOUS
  7
STANDARD
 71
2
 72
1
 10
65.0343759551
 20
18.900005557
 30
0.0
 11
1.0
 21
0.0
 31
0.0
 44
0.9
  1
ANGLES\P\Fgdt;{\Fgdt;`}\Ftxt; 1/2
 40
0.72
 41
3.4285714286
  0
MTEXT
  5
30A
100
AcDbEntity
  8
0
100
AcDbMText
 62
2
  6
CONTINUOUS
  7
STANDARD
 71
2
 72
1
 10
51.6713958464
 20
13.4897593405
 30
0.0
 11
1.0
 21
0.0
 31
0.0
 44
0.9
  1
MATERIAL
 40
0.72
 41
4.6114285714
  0
MTEXT
  5
30B
100
AcDbEntity
  8
0
100
AcDbMText
 62
2
  6
CONTINUOUS
  7
STANDARD
 71
2
 72
1
 10
50.9051177282
 20
8.6171730156
 30
0.0
 11
1.0
 21
0.0
 31
0.0
 44
0.9
  1
FINISH
 40
0.72
 41
3.2742857143
  0
MTEXT
  5
30C
100
AcDbEntity
  8
0
100
AcDbMText
 62
2
  6
CONTINUOUS
  7
STANDARD
 71
2
 72
1
 10
106.1583385184
 20
5.4472204939
 30
0.0
 11
1.0
 21
0.0
 31
0.0
 44
0.9
  1
DO NOT SCALE DRAWING
 40
1.0
 41
16.619047619
  0
MTEXT
  5
30D
100
AcDbEntity
  8
0
100
AcDbMText
 62
2
  6
CONTINUOUS
  7
STANDARD
 71
2
 72
1
 10
68.9915743553
 20
21.7413325486
 30
0.0
 11
1.0
 21
0.0
 31
0.0
 44
0.9
  1
DRAWN
 40
0.72
 41
3.5142857143
  0
MTEXT
  5
30E
100
AcDbEntity
  8
0
100
AcDbMText
 62
2
  6
CONTINUOUS
  7
STANDARD
 71
2
 72
1
 10
69.2725670282
 20
18.1952439553
 30
0.0
 11
1.0
 21
0.0
 31
0.0
 44
0.9
  1
CHECKED
 40
0.72
 41
4.1485714286
  0
MTEXT
  5
30F
100
AcDbEntity
  8
0
100
AcDbMText
 62
2
  6
CONTINUOUS
  7
STANDARD
 71
2
 72
1
 10
69.2229210105
 20
14.7048739562
 30
0.0
 11
1.0
 21
0.0
 31
0.0
 44
0.9
  1
MFG ENG
 40
0.72
 41
4.0457142857
  0
MTEXT
  5
310
100
AcDbEntity
  8
0
100
AcDbMText
 62
2
  6
CONTINUOUS
  7
STANDARD
 71
2
 72
1
 10
69.5838614603
 20
11.1902747744
 30
0.0
 11
1.0
 21
0.0
 31
0.0
 44
0.9
  1
QA CHECK
 40
0.72
 41
4.7828571429
  0
MTEXT
  5
311
100
AcDbEntity
  8
0
100
AcDbMText
 62
2
  6
CONTINUOUS
  7
STANDARD
 71
2
 72
1
 10
71.652188003
 20
5.4080197508
 30
0.0
 11
1.0
 21
0.0
 31
0.0
 44
0.9
  1
MODEL INFO:
 40
0.72
 41
5.88
  0
MTEXT
  5
312
100
AcDbEntity
  8
0
100
AcDbMText
 62
2
  6
CONTINUOUS
  7
STANDARD
 71
2
 72
1
 10
70.9108071463
 20
7.346888332
 30
0.0
 11
1.0
 21
0.0
 31
0.0
 44
0.9
  1
DRAWING INFO:
 40
0.72
 41
7.4742857143
  0
MTEXT
  5
313
100
AcDbEntity
  8
0
100
AcDbMText
 62
2
  6
CONTINUOUS
  7
STANDARD
 71
2
 72
1
 10
73.9305859646
 20
23.6500261177
 30
0.0
 11
1.0
 21
0.0
 31
0.0
 44
0.9
  1
APPROVALS
 40
0.72
 41
5.2628571429
  0
MTEXT
  5
314
100
AcDbEntity
  8
0
100
AcDbMText
 62
2
  6
CONTINUOUS
  7
STANDARD
 71
2
 72
1
 10
84.3525011563
 20
24.2812600411
 30
0.0
 11
1.0
 21
0.0
 31
0.0
 44
0.9
  1
DATE\P(DD-MMM-YY)
 40
0.72
 41
6.0342857143
  0
MTEXT
  5
315
100
AcDbEntity
  8
0
100
AcDbMText
 62
2
  6
CONTINUOUS
  7
STANDARD
 71
2
 72
1
 10
89.9149166511
 20
5.3361626418
 30
0.0
 11
1.0
 21
0.0
 31
0.0
 44
0.9
  1
SCALE:
 40
0.72
 41
3.1542857143
  0
MTEXT
  5
316
100
AcDbEntity
  8
0
100
AcDbMText
 62
2
  6
CONTINUOUS
  7
STANDARD
 71
2
 72
1
 10
116.9299418743
 20
5.3494470921
 30
0.0
 11
1.0
 21
0.0
 31
0.0
 44
0.9
  1
SHEET
 40
0.72
 41
2.9142857143
  0
MTEXT
  5
317
100
AcDbEntity
  8
0
100
AcDbMText
 62
2
  6
CONTINUOUS
  7
STANDARD
 71
2
 72
1
 10
89.9358356062
 20
9.6826373385
 30
0.0
 11
1.0
 21
0.0
 31
0.0
 44
0.9
  1
SIZE
 40
0.72
 41
2.2457142857
  0
MTEXT
  5
318
100
AcDbEntity
  8
0
100
AcDbMText
 62
2
  6
CONTINUOUS
  7
STANDARD
 71
2
 72
1
 10
95.8695808694
 20
9.6913315449
 30
0.0
 11
1.0
 21
0.0
 31
0.0
 44
0.9
  1
CAGE CODE
 40
0.72
 41
5.3314285714
  0
MTEXT
  5
319
100
AcDbEntity
  8
0
100
AcDbMText
 62
2
  6
CONTINUOUS
  7
STANDARD
 71
2
 72
1
 10
103.5275979842
 20
9.6746637257
 30
0.0
 11
1.0
 21
0.0
 31
0.0
 44
0.9
  1
DRAWING NO.
 40
0.72
 41
6.6514285714
  0
MTEXT
  5
31A
100
AcDbEntity
  8
0
100
AcDbMText
 62
2
  6
CONTINUOUS
  7
STANDARD
 71
2
 72
1
 10
126.0970612755
 20
9.6853912535
 30
0.0
 11
1.0
 21
0.0
 31
0.0
 44
0.9
  1
REV
 40
0.72
 41
1.8171428571
  0
MTEXT
  5
31B
100
AcDbEntity
  8
0
100
AcDbMText
 62
2
  6
CONTINUOUS
  7
STANDARD
 71
2
 72
1
 10
114.6727693054
 20
23.8983874735
 30
0.0
 11
1.0
 21
0.0
 31
0.0
 44
0.9
  1
QSC AUDIO PRODUCTS, LLC
 40
1.25
 41
22.7678571429
  0
MTEXT
  5
31C
100
AcDbEntity
  8
0
100
AcDbMText
 62
2
  6
CONTINUOUS
  7
STANDARD
 71
1
 72
1
 10
103.2970593104
 20
22.0343213111
 30
0.0
 11
1.0
 21
0.0
 31
0.0
 44
0.9
  1
1675  MACARTHUR BOULEVARD\PCOSTA MESA, CA  92626
 40
1.0
 41
19.9047619048
  0
MTEXT
  5
31D
100
AcDbEntity
  8
0
100
AcDbMText
 62
2
  6
CONTINUOUS
  7
STANDARD
 71
1
 72
1
 10
93.0408679113
 20
7.9702119342
 30
0.0
 11
1.0
 21
0.0
 31
0.0
 44
0.9
  1
00PW4
 40
1.25
 41
5.8630952381
  0
MTEXT
  5
31E
100
AcDbEntity
  8
0
100
AcDbMText
 62
2
  6
CONTINUOUS
  7
STANDARD
 71
2
 72
1
 10
58.0405510172
 20
23.7742594788
 30
0.0
 11
1.0
 21
0.0
 31
0.0
 44
0.9
  1
UNLESS OTHERWISE SPECIFIED\PDIMENSIONS IN MILLIMETERS [IN]
 40
0.8
 41
17.5238095238
  0
MTEXT
  5
31F
100
AcDbEntity
  8
0
100
AcDbMText
 62
2
  6
CONTINUOUS
  7
STANDARD
 71
2
 72
1
 10
52.2274221171
 20
18.9113217143
 30
0.0
 11
1.0
 21
0.0
 31
0.0
 44
0.9
  1
DECIMALS\P.X\Fgdt;{\Fgdt;`}\Ftxt;.5[.02]
 40
0.72
 41
4.9542857143
  0
MTEXT
  5
320
100
AcDbEntity
  8
0
100
AcDbMText
 62
2
  6
CONTINUOUS
  7
STANDARD
 71
2
 72
1
 10
59.2064703022
 20
18.9151545084
 30
0.0
 11
1.0
 21
0.0
 31
0.0
 44
0.9
  1
DECIMALS\P.XX\Fgdt;{\Fgdt;`}\Ftxt;.25[.010]
 40
0.72
 41
6.5485714286
  0
MTEXT
  5
321
100
AcDbEntity
  8
0
100
AcDbMText
 62
2
  6
CONTINUOUS
  7
STANDARD
 71
2
 72
1
 10
57.9245699921
 20
15.7725105328
 30
0.0
 11
1.0
 21
0.0
 31
0.0
 44
0.9
  1
DEBURR EDGES .25 [.010] R MAX
 40
0.72
 41
15.6857142857
  0
INSERT
  5
322
100
AcDbEntity
  8
0
100
AcDbBlockReference
 62
7
  6
CONTINUOUS
  2
SYMBOL_0_BL0
 10
95.1105623904
 20
21.6088853214
  0
DIMENSION
  5
323
100
AcDbEntity
  8
0
100
AcDbDimension
 62
2
  6
CONTINUOUS
  2
*D0
 10
61.4925545175
 20
38.3403309459
 11
54.7441815374
 21
42.4795877411
 70
163
 71
3
 42
12.0
  1
<>
  3
DIMSTYLE_1
100
AcDbDiametricDimension
 15
61.6243307863
 25
37.8866400144
  0
DIMENSION
  5
324
100
AcDbEntity
  8
0
100
AcDbDimension
 62
2
  6
CONTINUOUS
  2
*D1
 10
59.353521392
 20
28.3207909997
 11
65.0998726294
 21
27.3832909997
 70
160
 71
2
 42
333.87
  3
DIMSTYLE_2
100
AcDbAlignedDimension
 13
72.498009581
 23
35.6800209132
 14
59.353521392
 24
37.6134854801
 50
180.0
100
AcDbRotatedDimension
  0
DIMENSION
  5
325
100
AcDbEntity
  8
0
100
AcDbDimension
 62
2
  6
CONTINUOUS
  2
*D2
 10
72.498009581
 20
33.8614668021
 11
66.1576904021
 21
32.9239668021
 70
160
 71
2
 42
277.865
  3
DIMSTYLE_2
100
AcDbAlignedDimension
 13
61.5584426519
 23
36.7834456459
 14
72.498009581
 24
35.6800209132
100
AcDbRotatedDimension
  0
DIMENSION
  5
326
100
AcDbEntity
  8
0
100
AcDbDimension
 62
2
  6
CONTINUOUS
  2
*D3
 10
53.6713113057
 20
46.5916295965
 11
52.8007755914
 21
59.0005862894
 70
160
 71
2
 42
678.0
  3
DIMSTYLE_2
100
AcDbAlignedDimension
 13
58.8385859723
 23
73.2845429823
 14
58.8803512459
 24
46.5916295965
 50
270.0
100
AcDbRotatedDimension
  0
DIMENSION
  5
327
100
AcDbEntity
  8
0
100
AcDbDimension
 62
2
  6
CONTINUOUS
  2
*D4
 10
26.7805178739
 20
62.6811157881
 11
34.5541264606
 21
64.207924768
 70
163
 71
1
 42
7.0
  1
4X <>
  3
DIMSTYLE_1
100
AcDbDiametricDimension
 15
26.6026044538
 25
62.4706473419
  0
DIMENSION
  5
328
100
AcDbEntity
  8
0
100
AcDbDimension
 62
2
  6
CONTINUOUS
  2
*D5
 10
25.5188210926
 20
60.0133651233
 11
34.2991574936
 21
60.0406172283
 70
163
 71
1
 42
13.0
  1
3X <>
  3
DIMSTYLE_1
100
AcDbDiametricDimension
 15
25.0296555659
 25
59.8628074555
  0
DIMENSION
  5
329
100
AcDbEntity
  8
0
100
AcDbDimension
 62
2
  6
CONTINUOUS
  2
*D6
 10
23.8569154946
 20
77.4096851571
 11
14.305205362
 21
76.4721851571
 70
160
 71
3
 42
72.0
  1
2X <>
  3
DIMSTYLE_2
100
AcDbAlignedDimension
 13
26.6915611639
 23
63.9059213992
 14
23.8569154946
 24
63.9059213992
 50
180.0
100
AcDbRotatedDimension
  0
DIMENSION
  5
32A
100
AcDbEntity
  8
0
100
AcDbDimension
 62
2
  6
CONTINUOUS
  2
*D7
 10
30.9381727155
 20
53.4420232973
 11
36.0631727155
 21
49.4493057544
 70
160
 71
1
 42
27.0
  1
4X <>
  3
DIMSTYLE_2
100
AcDbAlignedDimension
 13
27.4600690379
 23
54.5050154233
 14
27.4600690379
 24
53.4420232973
 50
270.0
100
AcDbRotatedDimension
  0
DIMENSION
  5
32B
100
AcDbEntity
  8
0
100
AcDbDimension
 62
2
  6
CONTINUOUS
  2
*D8
 10
24.3884115576
 20
42.5679677384
 11
14.6825465671
 21
41.6304677384
 70
160
 71
3
 42
45.0
  1
4X <>
  3
DIMSTYLE_2
100
AcDbAlignedDimension
 13
26.1600651009
 23
52.1420193603
 14
24.3884115576
 24
52.1420193603
 50
180.0
100
AcDbRotatedDimension
  0
DIMENSION
  5
32C
100
AcDbEntity
  8
0
100
AcDbDimension
 62
2
  6
CONTINUOUS
  2
*D9
 10
26.3569154946
 20
38.8205751977
 11
33.9191581929
 21
37.8830751977
 70
160
 71
1
 42
10.0
  1
4X <>
  3
DIMSTYLE_2
100
AcDbAlignedDimension
 13
25.9632147072
 23
52.9420232973
 14
26.3569154946
 24
52.9420232973
100
AcDbRotatedDimension
  0
DIMENSION
  5
32D
100
AcDbEntity
  8
0
100
AcDbDimension
 62
2
  6
CONTINUOUS
  2
*D10
 10
17.4181268253
 20
57.3002910138
 11
16.5252696824
 21
59.9512951961
 70
160
 71
2
 42
134.0
  1
2X <>
  3
DIMSTYLE_2
100
AcDbAlignedDimension
 13
22.5268756604
 23
62.575881565
 14
22.5268756604
 24
57.3002910138
 50
270.0
100
AcDbRotatedDimension
  0
DIMENSION
  5
32E
100
AcDbEntity
  8
0
100
AcDbDimension
 62
2
  6
CONTINUOUS
  2
*D11
 10
10.4440033053
 20
57.0640705414
 11
9.6404318767
 21
59.8176017561
 70
160
 71
2
 42
146.0
  3
DIMSTYLE_2
100
AcDbAlignedDimension
 13
23.944198495
 23
62.8121020374
 14
23.944198495
 24
57.0640705414
 50
270.0
100
AcDbRotatedDimension
  0
DIMENSION
  5
32F
100
AcDbEntity
  8
0
100
AcDbDimension
 62
2
  6
CONTINUOUS
  2
*D12
 10
76.918784308
 20
36.0465563463
 11
76.137534308
 21
38.0756100571
 70
160
 71
2
 42
105.0
  3
DIMSTYLE_2
100
AcDbAlignedDimension
 13
72.8645450141
 23
40.180414614
 14
72.8645450141
 24
36.0465563463
 50
270.0
100
AcDbRotatedDimension
  0
DIMENSION
  5
330
100
AcDbEntity
  8
0
100
AcDbDimension
 62
2
  6
CONTINUOUS
  2
*D13
 10
43.3212594643
 20
53.4420232973
 11
42.4284023215
 21
59.7340433561
 70
160
 71
2
 42
330.0
  1
2X <>
  3
DIMSTYLE_2
100
AcDbAlignedDimension
 13
27.4600690379
 23
66.4341492815
 14
27.4600690379
 24
53.4420232973
 50
270.0
100
AcDbRotatedDimension
  0
LWPOLYLINE
  5
331
100
AcDbEntity
  8
0
100
AcDbPolyline
 62
2
  6
CONTINUOUS
 90
2
 70
0
 43
0.16
 10
128.0557738524
 20
83.9781091115
 10
47.3957738524
 20
83.9781091115
  0
LWPOLYLINE
  5
332
100
AcDbEntity
  8
0
100
AcDbPolyline
 62
2
  6
CONTINUOUS
 90
2
 70
0
 43
0.16
 10
127.9757738524
 20
83.9781091115
 10
127.9757738524
 20
76.4781091115
  0
LWPOLYLINE
  5
333
100
AcDbEntity
  8
0
100
AcDbPolyline
 62
2
  6
CONTINUOUS
 90
2
 70
0
 43
0.16
 10
127.9757738524
 20
81.4781091115
 10
47.4757738524
 20
81.4781091115
  0
LWPOLYLINE
  5
334
100
AcDbEntity
  8
0
100
AcDbPolyline
 62
2
  6
CONTINUOUS
 90
2
 70
0
 43
0.16
 10
127.9757738524
 20
78.9781091115
 10
47.4757738524
 20
78.9781091115
  0
LWPOLYLINE
  5
335
100
AcDbEntity
  8
0
100
AcDbPolyline
 62
2
  6
CONTINUOUS
 90
2
 70
0
 43
0.16
 10
128.0557738524
 20
76.4781091115
 10
47.3957738524
 20
76.4781091115
  0
LWPOLYLINE
  5
336
100
AcDbEntity
  8
0
100
AcDbPolyline
 62
2
  6
CONTINUOUS
 90
2
 70
0
 43
0.16
 10
121.9757738524
 20
81.4781091115
 10
121.9757738524
 20
76.4781091115
  0
LWPOLYLINE
  5
337
100
AcDbEntity
  8
0
100
AcDbPolyline
 62
2
  6
CONTINUOUS
 90
2
 70
0
 43
0.16
 10
112.9757738524
 20
81.4781091115
 10
112.9757738524
 20
76.4781091115
  0
LWPOLYLINE
  5
338
100
AcDbEntity
  8
0
100
AcDbPolyline
 62
2
  6
CONTINUOUS
 90
2
 70
0
 43
0.16
 10
108.9757738524
 20
81.4781091115
 10
108.9757738524
 20
76.4781091115
  0
LWPOLYLINE
  5
339
100
AcDbEntity
  8
0
100
AcDbPolyline
 62
2
  6
CONTINUOUS
 90
2
 70
0
 43
0.16
 10
57.9757738524
 20
81.4781091115
 10
57.9757738524
 20
76.4781091115
  0
LWPOLYLINE
  5
33A
100
AcDbEntity
  8
0
100
AcDbPolyline
 62
2
  6
CONTINUOUS
 90
2
 70
0
 43
0.16
 10
51.4757738524
 20
81.4781091115
 10
51.4757738524
 20
76.4781091115
  0
LWPOLYLINE
  5
33B
100
AcDbEntity
  8
0
100
AcDbPolyline
 62
2
  6
CONTINUOUS
 90
2
 70
0
 43
0.16
 10
47.4757738524
 20
83.9781091115
 10
47.4757738524
 20
76.4781091115
  0
MTEXT
  5
33C
100
AcDbEntity
  8
0
100
AcDbMText
 62
2
  6
CONTINUOUS
  7
STANDARD
 71
2
 72
1
 10
87.7257738524
 20
83.3531091115
 30
0.0
 11
1.0
 21
0.0
 31
0.0
 44
0.9
  1
REVISIONS
 40
1.25
 41
8.4523809524
  0
MTEXT
  5
33D
100
AcDbEntity
  8
0
100
AcDbMText
 62
2
  6
CONTINUOUS
  7
STANDARD
 71
2
 72
1
 10
124.9757738524
 20
80.8521091115
 30
0.0
 11
1.0
 21
0.0
 31
0.0
 44
0.9
  1
ISSUED
 40
1.248
 41
5.7645714286
  0
MTEXT
  5
33E
100
AcDbEntity
  8
0
100
AcDbMText
 62
2
  6
CONTINUOUS
  7
STANDARD
 71
2
 72
1
 10
117.4757738524
 20
80.8521091115
 30
0.0
 11
1.0
 21
0.0
 31
0.0
 44
0.9
  1
EFF DATE
 40
1.248
 41
7.8148571429
  0
MTEXT
  5
33F
100
AcDbEntity
  8
0
100
AcDbMText
 62
2
  6
CONTINUOUS
  7
STANDARD
 71
2
 72
1
 10
110.9757738524
 20
80.8531091115
 30
0.0
 11
1.0
 21
0.0
 31
0.0
 44
0.9
  1
BY
 40
1.25
 41
2.0535714286
  0
MTEXT
  5
340
100
AcDbEntity
  8
0
100
AcDbMText
 62
2
  6
CONTINUOUS
  7
STANDARD
 71
2
 72
1
 10
83.4757738524
 20
80.8521091115
 30
0.0
 11
1.0
 21
0.0
 31
0.0
 44
0.9
  1
DESCRIPTION
 40
1.248
 41
10.6377142857
  0
MTEXT
  5
341
100
AcDbEntity
  8
0
100
AcDbMText
 62
2
  6
CONTINUOUS
  7
STANDARD
 71
2
 72
1
 10
54.7257738524
 20
80.8531091115
 30
0.0
 11
1.0
 21
0.0
 31
0.0
 44
0.9
  1
ECO
 40
1.25
 41
2.9166666667
  0
MTEXT
  5
342
100
AcDbEntity
  8
0
100
AcDbMText
 62
2
  6
CONTINUOUS
  7
STANDARD
 71
2
 72
1
 10
49.4757738524
 20
80.8521091115
 30
0.0
 11
1.0
 21
0.0
 31
0.0
 44
0.9
  1
REV
 40
1.248
 41
2.912
  0
MTEXT
  5
343
100
AcDbEntity
  8
0
100
AcDbMText
 62
2
  6
CONTINUOUS
  7
STANDARD
 71
2
 72
1
 10
124.9757738524
 20
78.3531091115
 30
0.0
 11
1.0
 21
0.0
 31
0.0
 44
0.9
  1
-
 40
1.25
 41
1.130952381
  0
MTEXT
  5
344
100
AcDbEntity
  8
0
100
AcDbMText
 62
2
  6
CONTINUOUS
  7
STANDARD
 71
2
 72
1
 10
117.4757738524
 20
78.3531091115
 30
0.0
 11
1.0
 21
0.0
 31
0.0
 44
0.9
  1
19-NOV-12
 40
1.25
 41
8.4226190476
  0
MTEXT
  5
345
100
AcDbEntity
  8
0
100
AcDbMText
 62
2
  6
CONTINUOUS
  7
STANDARD
 71
2
 72
1
 10
110.9757738524
 20
78.3531091115
 30
0.0
 11
1.0
 21
0.0
 31
0.0
 44
0.9
  1
 JD 
 40
1.25
 41
4.1369047619
  0
MTEXT
  5
346
100
AcDbEntity
  8
0
100
AcDbMText
 62
2
  6
CONTINUOUS
  7
STANDARD
 71
1
 72
1
 10
58.4757738524
 20
78.3531091115
 30
0.0
 11
1.0
 21
0.0
 31
0.0
 44
0.9
  1
RELEASE
 40
1.25
 41
6.755952381
  0
MTEXT
  5
347
100
AcDbEntity
  8
0
100
AcDbMText
 62
2
  6
CONTINUOUS
  7
STANDARD
 71
2
 72
1
 10
54.7257738524
 20
78.3531091115
 30
0.0
 11
1.0
 21
0.0
 31
0.0
 44
0.9
  1
-
 40
1.25
 41
1.130952381
  0
MTEXT
  5
348
100
AcDbEntity
  8
0
100
AcDbMText
 62
2
  6
CONTINUOUS
  7
STANDARD
 71
2
 72
1
 10
49.4757738524
 20
78.3531091115
 30
0.0
 11
1.0
 21
0.0
 31
0.0
 44
0.9
  1
A
 40
1.25
 41
1.3095238095
  0
LINE
  5
349
100
AcDbEntity
  8
0
100
AcDbLine
 62
2
  6
CONTINUOUS
 10
49.0
 20
14.0
 11
67.0
 21
14.0
  0
LINE
  5
34A
100
AcDbEntity
  8
0
100
AcDbLine
 62
2
  6
CONTINUOUS
 10
49.0
 20
14.0
 11
49.0
 21
9.0
  0
LINE
  5
34B
100
AcDbEntity
  8
0
100
AcDbLine
 62
2
  6
CONTINUOUS
 10
49.0
 20
9.0
 11
67.0
 21
9.0
  0
LINE
  5
34C
100
AcDbEntity
  8
0
100
AcDbLine
 62
2
  6
CONTINUOUS
 10
67.0
 20
14.0
 11
67.0
 21
9.0
  0
LINE
  5
34D
100
AcDbEntity
  8
0
100
AcDbLine
 62
2
  6
CONTINUOUS
 10
49.0
 20
9.0
 11
67.0
 21
9.0
  0
LINE
  5
34E
100
AcDbEntity
  8
0
100
AcDbLine
 62
2
  6
CONTINUOUS
 10
49.0
 20
9.0
 11
49.0
 21
4.0
  0
LINE
  5
34F
100
AcDbEntity
  8
0
100
AcDbLine
 62
2
  6
CONTINUOUS
 10
49.0
 20
4.0
 11
67.0
 21
4.0
  0
LINE
  5
350
100
AcDbEntity
  8
0
100
AcDbLine
 62
2
  6
CONTINUOUS
 10
67.0
 20
9.0
 11
67.0
 21
4.0
  0
LINE
  5
351
100
AcDbEntity
  8
0
100
AcDbLine
 62
2
  6
CONTINUOUS
 10
67.0
 20
22.0
 11
81.0
 21
22.0
  0
LINE
  5
352
100
AcDbEntity
  8
0
100
AcDbLine
 62
2
  6
CONTINUOUS
 10
67.0
 20
22.0
 11
67.0
 21
18.5625
  0
LINE
  5
353
100
AcDbEntity
  8
0
100
AcDbLine
 62
2
  6
CONTINUOUS
 10
67.0
 20
18.5625
 11
81.0
 21
18.5625
  0
LINE
  5
354
100
AcDbEntity
  8
0
100
AcDbLine
 62
2
  6
CONTINUOUS
 10
81.0
 20
22.0
 11
81.0
 21
18.5625
  0
MTEXT
  5
355
100
AcDbEntity
  8
0
100
AcDbMText
 62
2
  6
CONTINUOUS
  7
STANDARD
 71
1
 72
1
 10
67.5
 20
20.4375
 30
0.0
 11
1.0
 21
0.0
 31
0.0
 44
0.9
  1
J. DELARM 
 40
1.25
 41
9.4345238095
  0
LINE
  5
356
100
AcDbEntity
  8
0
100
AcDbLine
 62
2
  6
CONTINUOUS
 10
67.0
 20
18.5
 11
81.0
 21
18.5
  0
LINE
  5
357
100
AcDbEntity
  8
0
100
AcDbLine
 62
2
  6
CONTINUOUS
 10
67.0
 20
18.5
 11
67.0
 21
14.98
  0
LINE
  5
358
100
AcDbEntity
  8
0
100
AcDbLine
 62
2
  6
CONTINUOUS
 10
67.0
 20
14.98
 11
81.0
 21
14.98
  0
LINE
  5
359
100
AcDbEntity
  8
0
100
AcDbLine
 62
2
  6
CONTINUOUS
 10
81.0
 20
18.5
 11
81.0
 21
14.98
  0
MTEXT
  5
35A
100
AcDbEntity
  8
0
100
AcDbMText
 62
2
  6
CONTINUOUS
  7
STANDARD
 71
1
 72
1
 10
67.5
 20
16.855
 30
0.0
 11
1.0
 21
0.0
 31
0.0
 44
0.9
  1
- 
 40
1.25
 41
1.875
  0
LINE
  5
35B
100
AcDbEntity
  8
0
100
AcDbLine
 62
2
  6
CONTINUOUS
 10
67.0
 20
15.0
 11
81.0
 21
15.0
  0
LINE
  5
35C
100
AcDbEntity
  8
0
100
AcDbLine
 62
2
  6
CONTINUOUS
 10
67.0
 20
15.0
 11
67.0
 21
11.5625
  0
LINE
  5
35D
100
AcDbEntity
  8
0
100
AcDbLine
 62
2
  6
CONTINUOUS
 10
67.0
 20
11.5625
 11
81.0
 21
11.5625
  0
LINE
  5
35E
100
AcDbEntity
  8
0
100
AcDbLine
 62
2
  6
CONTINUOUS
 10
81.0
 20
15.0
 11
81.0
 21
11.5625
  0
MTEXT
  5
35F
100
AcDbEntity
  8
0
100
AcDbMText
 62
2
  6
CONTINUOUS
  7
STANDARD
 71
1
 72
1
 10
67.5
 20
13.4375
 30
0.0
 11
1.0
 21
0.0
 31
0.0
 44
0.9
  1
-
 40
1.25
 41
0.8928571429
  0
LINE
  5
360
100
AcDbEntity
  8
0
100
AcDbLine
 62
2
  6
CONTINUOUS
 10
67.0
 20
11.5
 11
81.0
 21
11.5
  0
LINE
  5
361
100
AcDbEntity
  8
0
100
AcDbLine
 62
2
  6
CONTINUOUS
 10
67.0
 20
11.5
 11
67.0
 21
7.98
  0
LINE
  5
362
100
AcDbEntity
  8
0
100
AcDbLine
 62
2
  6
CONTINUOUS
 10
67.0
 20
7.98
 11
81.0
 21
7.98
  0
LINE
  5
363
100
AcDbEntity
  8
0
100
AcDbLine
 62
2
  6
CONTINUOUS
 10
81.0
 20
11.5
 11
81.0
 21
7.98
  0
MTEXT
  5
364
100
AcDbEntity
  8
0
100
AcDbMText
 62
2
  6
CONTINUOUS
  7
STANDARD
 71
1
 72
1
 10
67.5
 20
9.855
 30
0.0
 11
1.0
 21
0.0
 31
0.0
 44
0.9
  1
-
 40
1.25
 41
0.8928571429
  0
LINE
  5
365
100
AcDbEntity
  8
0
100
AcDbLine
 62
2
  6
CONTINUOUS
 10
81.0
 20
22.0
 11
88.0
 21
22.0
  0
LINE
  5
366
100
AcDbEntity
  8
0
100
AcDbLine
 62
2
  6
CONTINUOUS
 10
81.0
 20
22.0
 11
81.0
 21
18.48
  0
LINE
  5
367
100
AcDbEntity
  8
0
100
AcDbLine
 62
2
  6
CONTINUOUS
 10
81.0
 20
18.48
 11
88.0
 21
18.48
  0
LINE
  5
368
100
AcDbEntity
  8
0
100
AcDbLine
 62
2
  6
CONTINUOUS
 10
88.0
 20
22.0
 11
88.0
 21
18.48
  0
MTEXT
  5
369
100
AcDbEntity
  8
0
100
AcDbMText
 62
2
  6
CONTINUOUS
  7
STANDARD
 71
2
 72
1
 10
84.5
 20
20.065
 30
0.0
 11
1.0
 21
0.0
 31
0.0
 44
0.9
  1
16-OCT-12
 40
0.96
 41
6.3542857143
  0
LINE
  5
36A
100
AcDbEntity
  8
0
100
AcDbLine
 62
2
  6
CONTINUOUS
 10
81.0
 20
18.5
 11
88.0
 21
18.5
  0
LINE
  5
36B
100
AcDbEntity
  8
0
100
AcDbLine
 62
2
  6
CONTINUOUS
 10
81.0
 20
18.5
 11
81.0
 21
14.98
  0
LINE
  5
36C
100
AcDbEntity
  8
0
100
AcDbLine
 62
2
  6
CONTINUOUS
 10
81.0
 20
14.98
 11
88.0
 21
14.98
  0
LINE
  5
36D
100
AcDbEntity
  8
0
100
AcDbLine
 62
2
  6
CONTINUOUS
 10
88.0
 20
18.5
 11
88.0
 21
14.98
  0
MTEXT
  5
36E
100
AcDbEntity
  8
0
100
AcDbMText
 62
2
  6
CONTINUOUS
  7
STANDARD
 71
2
 72
1
 10
84.5
 20
16.565
 30
0.0
 11
1.0
 21
0.0
 31
0.0
 44
0.9
  1
-
 40
0.96
 41
0.6857142857
  0
LINE
  5
36F
100
AcDbEntity
  8
0
100
AcDbLine
 62
2
  6
CONTINUOUS
 10
81.0
 20
15.0
 11
88.0
 21
15.0
  0
LINE
  5
370
100
AcDbEntity
  8
0
100
AcDbLine
 62
2
  6
CONTINUOUS
 10
81.0
 20
15.0
 11
81.0
 21
11.48
  0
LINE
  5
371
100
AcDbEntity
  8
0
100
AcDbLine
 62
2
  6
CONTINUOUS
 10
81.0
 20
11.48
 11
88.0
 21
11.48
  0
LINE
  5
372
100
AcDbEntity
  8
0
100
AcDbLine
 62
2
  6
CONTINUOUS
 10
88.0
 20
15.0
 11
88.0
 21
11.48
  0
MTEXT
  5
373
100
AcDbEntity
  8
0
100
AcDbMText
 62
2
  6
CONTINUOUS
  7
STANDARD
 71
2
 72
1
 10
84.5
 20
13.065
 30
0.0
 11
1.0
 21
0.0
 31
0.0
 44
0.9
  1
-
 40
0.96
 41
0.6857142857
  0
LINE
  5
374
100
AcDbEntity
  8
0
100
AcDbLine
 62
2
  6
CONTINUOUS
 10
81.0
 20
11.5
 11
88.0
 21
11.5
  0
LINE
  5
375
100
AcDbEntity
  8
0
100
AcDbLine
 62
2
  6
CONTINUOUS
 10
81.0
 20
11.5
 11
81.0
 21
8.0625
  0
LINE
  5
376
100
AcDbEntity
  8
0
100
AcDbLine
 62
2
  6
CONTINUOUS
 10
81.0
 20
8.0625
 11
88.0
 21
8.0625
  0
LINE
  5
377
100
AcDbEntity
  8
0
100
AcDbLine
 62
2
  6
CONTINUOUS
 10
88.0
 20
11.5
 11
88.0
 21
8.0625
  0
MTEXT
  5
378
100
AcDbEntity
  8
0
100
AcDbMText
 62
2
  6
CONTINUOUS
  7
STANDARD
 71
2
 72
1
 10
84.5
 20
9.6475
 30
0.0
 11
1.0
 21
0.0
 31
0.0
 44
0.9
  1
-
 40
0.96
 41
0.6857142857
  0
LINE
  5
379
100
AcDbEntity
  8
0
100
AcDbLine
 62
2
  6
CONTINUOUS
 10
67.0
 20
8.0
 11
88.0
 21
8.0
  0
LINE
  5
37A
100
AcDbEntity
  8
0
100
AcDbLine
 62
2
  6
CONTINUOUS
 10
67.0
 20
8.0
 11
67.0
 21
6.0
  0
LINE
  5
37B
100
AcDbEntity
  8
0
100
AcDbLine
 62
2
  6
CONTINUOUS
 10
67.0
 20
6.0
 11
88.0
 21
6.0
  0
LINE
  5
37C
100
AcDbEntity
  8
0
100
AcDbLine
 62
2
  6
CONTINUOUS
 10
88.0
 20
8.0
 11
88.0
 21
6.0
  0
MTEXT
  5
37D
100
AcDbEntity
  8
0
100
AcDbMText
 62
2
  6
CONTINUOUS
  7
STANDARD
 71
3
 72
1
 10
87.5
 20
7.505
 30
0.0
 11
1.0
 21
0.0
 31
0.0
 44
0.9
  1
FG-000392-2D.A.2
 40
0.88
 41
10.6019047619
  0
LINE
  5
37E
100
AcDbEntity
  8
0
100
AcDbLine
 62
2
  6
CONTINUOUS
 10
67.0
 20
6.0
 11
88.0
 21
6.0
  0
LINE
  5
37F
100
AcDbEntity
  8
0
100
AcDbLine
 62
2
  6
CONTINUOUS
 10
67.0
 20
6.0
 11
67.0
 21
4.0
  0
LINE
  5
380
100
AcDbEntity
  8
0
100
AcDbLine
 62
2
  6
CONTINUOUS
 10
67.0
 20
4.0
 11
88.0
 21
4.0
  0
LINE
  5
381
100
AcDbEntity
  8
0
100
AcDbLine
 62
2
  6
CONTINUOUS
 10
88.0
 20
6.0
 11
88.0
 21
4.0
  0
MTEXT
  5
382
100
AcDbEntity
  8
0
100
AcDbMText
 62
2
  6
CONTINUOUS
  7
STANDARD
 71
3
 72
1
 10
87.5
 20
5.505
 30
0.0
 11
1.0
 21
0.0
 31
0.0
 44
0.9
  1
FG-000392-3D.A.1
 40
0.88
 41
10.3504761905
  0
LINE
  5
383
100
AcDbEntity
  8
0
100
AcDbLine
 62
2
  6
CONTINUOUS
 10
88.0
 20
19.0
 11
128.0
 21
19.0
  0
LINE
  5
384
100
AcDbEntity
  8
0
100
AcDbLine
 62
2
  6
CONTINUOUS
 10
88.0
 20
19.0
 11
88.0
 21
10.0
  0
LINE
  5
385
100
AcDbEntity
  8
0
100
AcDbLine
 62
2
  6
CONTINUOUS
 10
88.0
 20
10.0
 11
128.0
 21
10.0
  0
LINE
  5
386
100
AcDbEntity
  8
0
100
AcDbLine
 62
2
  6
CONTINUOUS
 10
128.0
 20
19.0
 11
128.0
 21
10.0
  0
MTEXT
  5
387
100
AcDbEntity
  8
0
100
AcDbMText
 62
2
  6
CONTINUOUS
  7
STANDARD
 71
2
 72
1
 10
108.0
 20
16.94
 30
0.0
 11
1.0
 21
0.0
 31
0.0
 44
1.02
  1
ACCESSORY, YOKE MOUNT,\PAP-5122
 40
1.6
 41
27.4666666667
  0
LINE
  5
388
100
AcDbEntity
  8
0
100
AcDbLine
 62
2
  6
CONTINUOUS
 10
88.0087384235
 20
9.9835237399
 11
92.0087384235
 21
9.9835237399
  0
LINE
  5
389
100
AcDbEntity
  8
0
100
AcDbLine
 62
2
  6
CONTINUOUS
 10
88.0087384235
 20
9.9835237399
 11
88.0087384235
 21
5.9835237399
  0
LINE
  5
38A
100
AcDbEntity
  8
0
100
AcDbLine
 62
2
  6
CONTINUOUS
 10
88.0087384235
 20
5.9835237399
 11
92.0087384235
 21
5.9835237399
  0
LINE
  5
38B
100
AcDbEntity
  8
0
100
AcDbLine
 62
2
  6
CONTINUOUS
 10
92.0087384235
 20
9.9835237399
 11
92.0087384235
 21
5.9835237399
  0
MTEXT
  5
38C
100
AcDbEntity
  8
0
100
AcDbMText
 62
2
  6
CONTINUOUS
  7
STANDARD
 71
2
 72
1
 10
90.0087384235
 20
8.2085237399
 30
0.0
 11
1.0
 21
0.0
 31
0.0
 44
0.9
  1
B
 40
1.6
 41
1.2571428571
  0
LINE
  5
38D
100
AcDbEntity
  8
0
100
AcDbLine
 62
2
  6
CONTINUOUS
 10
100.0041399807
 20
9.959796713
 11
124.0041399807
 21
9.959796713
  0
LINE
  5
38E
100
AcDbEntity
  8
0
100
AcDbLine
 62
2
  6
CONTINUOUS
 10
100.0041399807
 20
9.959796713
 11
100.0041399807
 21
5.959796713
  0
LINE
  5
38F
100
AcDbEntity
  8
0
100
AcDbLine
 62
2
  6
CONTINUOUS
 10
100.0041399807
 20
5.959796713
 11
124.0041399807
 21
5.959796713
  0
LINE
  5
390
100
AcDbEntity
  8
0
100
AcDbLine
 62
2
  6
CONTINUOUS
 10
124.0041399807
 20
9.959796713
 11
124.0041399807
 21
5.959796713
  0
MTEXT
  5
391
100
AcDbEntity
  8
0
100
AcDbMText
 62
2
  6
CONTINUOUS
  7
STANDARD
 71
2
 72
1
 10
112.0041399807
 20
8.424796713
 30
0.0
 11
1.0
 21
0.0
 31
0.0
 44
0.9
  1
FG-000392-2D
 40
1.84
 41
17.0419047619
  0
LINE
  5
392
100
AcDbEntity
  8
0
100
AcDbLine
 62
2
  6
CONTINUOUS
 10
123.9895991701
 20
9.9863025809
 11
127.9895991701
 21
9.9863025809
  0
LINE
  5
393
100
AcDbEntity
  8
0
100
AcDbLine
 62
2
  6
CONTINUOUS
 10
123.9895991701
 20
9.9863025809
 11
123.9895991701
 21
5.9863025809
  0
LINE
  5
394
100
AcDbEntity
  8
0
100
AcDbLine
 62
2
  6
CONTINUOUS
 10
123.9895991701
 20
5.9863025809
 11
127.9895991701
 21
5.9863025809
  0
LINE
  5
395
100
AcDbEntity
  8
0
100
AcDbLine
 62
2
  6
CONTINUOUS
 10
127.9895991701
 20
9.9863025809
 11
127.9895991701
 21
5.9863025809
  0
MTEXT
  5
396
100
AcDbEntity
  8
0
100
AcDbMText
 62
2
  6
CONTINUOUS
  7
STANDARD
 71
2
 72
1
 10
125.9895991701
 20
8.0513025809
 30
0.0
 11
1.0
 21
0.0
 31
0.0
 44
0.9
  1
A
 40
1.44
 41
1.2342857143
  0
LINE
  5
397
100
AcDbEntity
  8
0
100
AcDbLine
 62
2
  6
CONTINUOUS
 10
115.004964955
 20
5.943431069
 11
128.004964955
 21
5.943431069
  0
LINE
  5
398
100
AcDbEntity
  8
0
100
AcDbLine
 62
2
  6
CONTINUOUS
 10
115.004964955
 20
5.943431069
 11
115.004964955
 21
3.943431069
  0
LINE
  5
399
100
AcDbEntity
  8
0
100
AcDbLine
 62
2
  6
CONTINUOUS
 10
115.004964955
 20
3.943431069
 11
128.004964955
 21
3.943431069
  0
LINE
  5
39A
100
AcDbEntity
  8
0
100
AcDbLine
 62
2
  6
CONTINUOUS
 10
128.004964955
 20
5.943431069
 11
128.004964955
 21
3.943431069
  0
MTEXT
  5
39B
100
AcDbEntity
  8
0
100
AcDbMText
 62
2
  6
CONTINUOUS
  7
STANDARD
 71
3
 72
1
 10
127.504964955
 20
5.688431069
 30
0.0
 11
1.0
 21
0.0
 31
0.0
 44
0.9
  1
1 OF 1
 40
1.12
 41
4.72
  0
LINE
  5
39C
100
AcDbEntity
  8
0
100
AcDbLine
 62
2
  6
CONTINUOUS
 10
87.9860784968
 20
5.9905857353
 11
97.4900784968
 21
5.9905857353
  0
LINE
  5
39D
100
AcDbEntity
  8
0
100
AcDbLine
 62
2
  6
CONTINUOUS
 10
87.9860784968
 20
5.9905857353
 11
87.9860784968
 21
3.9593357353
  0
LINE
  5
39E
100
AcDbEntity
  8
0
100
AcDbLine
 62
2
  6
CONTINUOUS
 10
87.9860784968
 20
3.9593357353
 11
97.4900784968
 21
3.9593357353
  0
LINE
  5
39F
100
AcDbEntity
  8
0
100
AcDbLine
 62
2
  6
CONTINUOUS
 10
97.4900784968
 20
5.9905857353
 11
97.4900784968
 21
3.9593357353
  0
MTEXT
  5
3A0
100
AcDbEntity
  8
0
100
AcDbMText
 62
2
  6
CONTINUOUS
  7
STANDARD
 71
3
 72
1
 10
96.9900784968
 20
5.5443357353
 30
0.0
 11
1.0
 21
0.0
 31
0.0
 44
0.9
  1
0.125
 40
0.96
 41
3.2914285714
  0
MTEXT
  5
3A1
100
AcDbEntity
  8
0
100
AcDbMText
 62
2
  6
CONTINUOUS
  7
STANDARD
 71
1
 72
1
 10
4.8564086322
 20
17.3599389104
 30
0.0
 11
1.0
 21
0.0
 31
0.0
 44
1.2
  3
4. PARTS ARE SYMMETRICAL ABOUT CENTER LINES \P   UNLESS OTHERWISE NOTED.\P3. SYMBOL \Fgdt;{\Fgdt;r}\Ftxt; INDICATES SUSPENSION POINT, \P2. TOLERANCES (MM): X \Fgdt;{\Fgdt;`}\Ftxt; 3, ANGLES: \Fgdt;{\Fgdt;`}\Ftxt; 1\Fgdt;{\Fgdt;~}\Ftxt;.\P1. NET WEIGH
  1
T APPROX. 4.5 KG (10 LBS)\PNOTE:  UNLESS OTHERWISE SPECIFIED
 40
1.12
 41
38.64
  0
MTEXT
  5
3A2
100
AcDbEntity
  8
0
100
AcDbMText
 62
2
  6
CONTINUOUS
  7
STANDARD
 71
3
 72
1
 10
114.944951703
 20
47.4499445459
 30
0.0
 11
1.0
 21
0.0
 31
0.0
 44
0.9
  1
SCALE  0.094
 40
1.25
 41
11.3988095238
  0
LINE
  5
3A3
100
AcDbEntity
  8
DEFAULT_3
100
AcDbLine
 62
7
  6
PHANTOM
 10
-0.0000155351
 20
-0.0
 11
-0.0000155351
 21
87.999864741
  0
LWPOLYLINE
  5
3A4
100
AcDbEntity
  8
0
100
AcDbPolyline
 62
7
  6
CONTINUOUS
 90
2
 70
0
 43
0.1600000067
 10
2.1000675371
 20
42.6508267096
 10
2.1000675371
 20
45.3493049389
  0
LWPOLYLINE
  5
3A5
100
AcDbEntity
  8
0
100
AcDbPolyline
 62
7
  6
CONTINUOUS
 90
2
 70
0
 43
0.2400000019
 10
3.9989391736
 20
83.997073512
 10
3.9989391736
 20
4.0
  0
LINE
  5
3A6
100
AcDbEntity
  8
DEFAULT_3
100
AcDbLine
 62
7
  6
PHANTOM
 10
-0.0000155351
 20
-0.0
 11
136.0
 21
-0.0
  0
LWPOLYLINE
  5
3A7
100
AcDbEntity
  8
0
100
AcDbPolyline
 62
7
  6
CONTINUOUS
 90
2
 70
0
 43
0.2400000019
 10
28.4086287606
 20
84.0474694557
 10
28.4086287606
 20
80.0474694557
  0
LWPOLYLINE
  5
3A8
100
AcDbEntity
  8
0
100
AcDbPolyline
 62
7
  6
CONTINUOUS
 90
2
 70
0
 43
0.1600000067
 10
64.6510068802
 20
2.1035469717
 10
67.3494851095
 20
2.1035469717
  0
LWPOLYLINE
  5
3A9
100
AcDbEntity
  8
0
100
AcDbPolyline
 62
7
  6
CONTINUOUS
 90
2
 70
0
 43
0.2400000019
 10
3.9989391736
 20
4.0
 10
128.0
 20
4.0
  0
LWPOLYLINE
  5
3AA
100
AcDbEntity
  8
0
100
AcDbPolyline
 62
7
  6
CONTINUOUS
 90
2
 70
0
 43
0.1600000067
 10
67.0
 20
6.0
 10
128.0
 20
6.0
  0
LWPOLYLINE
  5
3AB
100
AcDbEntity
  8
0
100
AcDbPolyline
 62
7
  6
CONTINUOUS
 90
2
 70
0
 43
0.1600000067
 10
34.9992634771
 20
3.9994836227
 10
34.9992634771
 20
-0.0005163773
  0
LWPOLYLINE
  5
3AC
100
AcDbEntity
  8
0
100
AcDbPolyline
 62
7
  6
CONTINUOUS
 90
2
 70
0
 43
0.1600000067
 10
34.9997582729
 20
83.9983381755
 10
34.9997582729
 20
87.9983381755
  0
LWPOLYLINE
  5
3AD
100
AcDbEntity
  8
0
100
AcDbPolyline
 62
7
  6
CONTINUOUS
 90
2
 70
0
 43
0.1600000067
 10
4.0003657601
 20
44.0000658243
 10
2.1000675371
 20
42.6508267096
  0
LINE
  5
3AE
100
AcDbEntity
  8
0
100
AcDbLine
 62
7
  6
CONTINUOUS
 10
66.988312315
 20
9.0039570984
 11
49.1346073578
 21
4.1182270665
  0
LWPOLYLINE
  5
3AF
100
AcDbEntity
  8
0
100
AcDbPolyline
 62
7
  6
CONTINUOUS
 90
2
 70
0
 43
0.1600000067
 10
67.0
 20
8.0
 10
88.0
 20
8.0
  0
LWPOLYLINE
  5
3B0
100
AcDbEntity
  8
0
100
AcDbPolyline
 62
7
  6
CONTINUOUS
 90
2
 70
0
 43
0.1600000067
 10
67.0
 20
9.0
 10
49.0
 20
9.0
  0
LWPOLYLINE
  5
3B1
100
AcDbEntity
  8
0
100
AcDbPolyline
 62
7
  6
CONTINUOUS
 90
2
 70
0
 43
0.1600000067
 10
88.0
 20
10.0
 10
128.0
 20
10.0
  0
LWPOLYLINE
  5
3B2
100
AcDbEntity
  8
0
100
AcDbPolyline
 62
7
  6
CONTINUOUS
 90
2
 70
0
 43
0.1600000067
 10
4.0003657601
 20
44.0000658243
 10
2.1000675371
 20
45.3493049389
  0
LINE
  5
3B3
100
AcDbEntity
  8
0
100
AcDbLine
 62
7
  6
CONTINUOUS
 10
66.988312315
 20
13.9936388332
 11
49.030655655
 21
9.133896727
  0
LWPOLYLINE
  5
3B4
100
AcDbEntity
  8
0
100
AcDbPolyline
 62
7
  6
CONTINUOUS
 90
2
 70
0
 43
0.1600000067
 10
67.0
 20
11.5
 10
88.0
 20
11.5
  0
LWPOLYLINE
  5
3B5
100
AcDbEntity
  8
0
100
AcDbPolyline
 62
7
  6
CONTINUOUS
 90
2
 70
0
 43
0.1600000067
 10
49.0
 20
14.0
 10
67.0
 20
14.0
  0
LWPOLYLINE
  5
3B6
100
AcDbEntity
  8
0
100
AcDbPolyline
 62
7
  6
CONTINUOUS
 90
2
 70
0
 43
0.1600000067
 10
67.0
 20
15.0
 10
88.0
 20
15.0
  0
LWPOLYLINE
  5
3B7
100
AcDbEntity
  8
0
100
AcDbPolyline
 62
7
  6
CONTINUOUS
 90
2
 70
0
 43
0.1600000067
 10
65.9975211915
 20
84.0003133494
 10
67.3467603061
 20
85.9006115724
  0
LWPOLYLINE
  5
3B8
100
AcDbEntity
  8
0
100
AcDbPolyline
 62
7
  6
CONTINUOUS
 90
2
 70
0
 43
0.1600000067
 10
67.0
 20
18.5
 10
88.0
 20
18.5
  0
LWPOLYLINE
  5
3B9
100
AcDbEntity
  8
0
100
AcDbPolyline
 62
7
  6
CONTINUOUS
 90
2
 70
0
 43
0.1600000067
 10
88.0
 20
19.0
 10
128.0
 20
19.0
  0
LINE
  5
3BA
100
AcDbEntity
  8
0
100
AcDbLine
 62
7
  6
CONTINUOUS
 10
49.0703628893
 20
24.4530996306
 11
66.9682416086
 21
14.0655600902
  0
LWPOLYLINE
  5
3BB
100
AcDbEntity
  8
0
100
AcDbPolyline
 62
7
  6
CONTINUOUS
 90
2
 70
0
 43
0.1600000067
 10
66.0002459949
 20
4.0038451947
 10
67.3494851095
 20
2.1035469717
  0
LWPOLYLINE
  5
3BC
100
AcDbEntity
  8
0
100
AcDbPolyline
 62
7
  6
CONTINUOUS
 90
2
 70
0
 43
0.1600000067
 10
49.0
 20
4.0
 10
49.0
 20
24.5
  0
LWPOLYLINE
  5
3BD
100
AcDbEntity
  8
0
100
AcDbPolyline
 62
7
  6
CONTINUOUS
 90
2
 70
0
 43
0.1600000067
 10
67.0
 20
22.0
 10
88.0
 20
22.0
  0
LWPOLYLINE
  5
3BE
100
AcDbEntity
  8
0
100
AcDbPolyline
 62
7
  6
CONTINUOUS
 90
2
 70
0
 43
0.1600000067
 10
3.9998131875
 20
23.9986950701
 10
-0.0001868125
 20
23.9986950701
  0
LWPOLYLINE
  5
3BF
100
AcDbEntity
  8
0
100
AcDbPolyline
 62
7
  6
CONTINUOUS
 90
2
 70
0
 43
0.1600000067
 10
128.0764649711
 20
23.998771453
 10
132.0764649711
 20
23.998771453
  0
LWPOLYLINE
  5
3C0
100
AcDbEntity
  8
0
100
AcDbPolyline
 62
7
  6
CONTINUOUS
 90
2
 70
0
 43
0.1600000067
 10
49.0
 20
24.5
 10
128.0
 20
24.5
  0
LWPOLYLINE
  5
3C1
100
AcDbEntity
  8
0
100
AcDbPolyline
 62
7
  6
CONTINUOUS
 90
2
 70
0
 43
0.1600000067
 10
65.9975211915
 20
84.0003133494
 10
65.9975211915
 20
88.0003133494
  0
LWPOLYLINE
  5
3C2
100
AcDbEntity
  8
0
100
AcDbPolyline
 62
7
  6
CONTINUOUS
 90
2
 70
0
 43
0.1600000067
 10
66.0002459949
 20
4.0038451947
 10
66.0002459949
 20
0.0038451947
  0
LWPOLYLINE
  5
3C3
100
AcDbEntity
  8
0
100
AcDbPolyline
 62
7
  6
CONTINUOUS
 90
2
 70
0
 43
0.1600000067
 10
67.0
 20
4.0
 10
67.0
 20
24.5
  0
LWPOLYLINE
  5
3C4
100
AcDbEntity
  8
0
100
AcDbPolyline
 62
7
  6
CONTINUOUS
 90
2
 70
0
 43
0.1600000067
 10
128.0275024392
 20
43.9999049454
 10
132.0275024392
 20
43.9999049454
  0
LWPOLYLINE
  5
3C5
100
AcDbEntity
  8
0
100
AcDbPolyline
 62
7
  6
CONTINUOUS
 90
2
 70
0
 43
0.1600000067
 10
4.0003657601
 20
44.0000658243
 10
0.0003657601
 20
44.0000658243
  0
LWPOLYLINE
  5
3C6
100
AcDbEntity
  8
0
100
AcDbPolyline
 62
7
  6
CONTINUOUS
 90
2
 70
0
 43
0.1600000067
 10
81.0
 20
8.0
 10
81.0
 20
24.5
  0
LINE
  5
3C7
100
AcDbEntity
  8
0
100
AcDbLine
 62
7
  6
CONTINUOUS
 10
66.9893974936
 20
24.4530996306
 11
49.0280511193
 21
14.1501836303
  0
LWPOLYLINE
  5
3C8
100
AcDbEntity
  8
0
100
AcDbPolyline
 62
7
  6
CONTINUOUS
 90
2
 70
0
 43
0.1600000067
 10
88.0
 20
4.0
 10
88.0
 20
24.5
  0
LWPOLYLINE
  5
3C9
100
AcDbEntity
  8
0
100
AcDbPolyline
 62
7
  6
CONTINUOUS
 90
2
 70
0
 43
0.1600000067
 10
92.0
 20
6.0
 10
92.0
 20
10.0
  0
LWPOLYLINE
  5
3CA
100
AcDbEntity
  8
0
100
AcDbPolyline
 62
7
  6
CONTINUOUS
 90
2
 70
0
 43
0.1600000067
 10
66.0002459949
 20
4.0038451947
 10
64.6510068802
 20
2.1035469717
  0
LWPOLYLINE
  5
3CB
100
AcDbEntity
  8
0
100
AcDbPolyline
 62
7
  6
CONTINUOUS
 90
2
 70
0
 43
0.1600000067
 10
128.0362517414
 20
63.9974926681
 10
132.0362517414
 20
63.9974926681
  0
LWPOLYLINE
  5
3CC
100
AcDbEntity
  8
0
100
AcDbPolyline
 62
7
  6
CONTINUOUS
 90
2
 70
0
 43
0.1600000067
 10
3.9989381739
 20
63.9977524362
 10
-0.0010618261
 20
63.9977524362
  0
LWPOLYLINE
  5
3CD
100
AcDbEntity
  8
0
100
AcDbPolyline
 62
7
  6
CONTINUOUS
 90
2
 70
0
 43
0.1600000067
 10
65.9975211915
 20
84.0003133494
 10
64.6482820768
 20
85.9006115724
  0
LWPOLYLINE
  5
3CE
100
AcDbEntity
  8
0
100
AcDbPolyline
 62
7
  6
CONTINUOUS
 90
2
 70
0
 43
0.1600000067
 10
96.9977033616
 20
84.0114544006
 10
96.9977033616
 20
88.0114544006
  0
LWPOLYLINE
  5
3CF
100
AcDbEntity
  8
0
100
AcDbPolyline
 62
7
  6
CONTINUOUS
 90
2
 70
0
 43
0.1600000067
 10
96.9999247618
 20
3.9973760332
 10
96.9999247618
 20
-0.0026239668
  0
LWPOLYLINE
  5
3D0
100
AcDbEntity
  8
0
100
AcDbPolyline
 62
7
  6
CONTINUOUS
 90
2
 70
0
 43
0.1600000067
 10
97.4690317324
 20
4.0380012444
 10
97.4690317324
 20
6.0380012444
  0
LWPOLYLINE
  5
3D1
100
AcDbEntity
  8
0
100
AcDbPolyline
 62
7
  6
CONTINUOUS
 90
2
 70
0
 43
0.1600000067
 10
100.0
 20
6.0
 10
100.0
 20
10.0
  0
LWPOLYLINE
  5
3D2
100
AcDbEntity
  8
0
100
AcDbPolyline
 62
7
  6
CONTINUOUS
 90
2
 70
0
 43
0.1600000067
 10
128.0275024392
 20
43.9999049454
 10
129.9278006623
 20
45.3491440601
  0
LWPOLYLINE
  5
3D3
100
AcDbEntity
  8
0
100
AcDbPolyline
 62
7
  6
CONTINUOUS
 90
2
 70
0
 43
0.2400000019
 10
28.4086287606
 20
80.0474694557
 10
3.9086287606
 20
80.0474694557
  0
LWPOLYLINE
  5
3D4
100
AcDbEntity
  8
0
100
AcDbPolyline
 62
7
  6
CONTINUOUS
 90
2
 70
0
 43
0.1600000067
 10
128.0275024392
 20
43.9999049454
 10
129.9278006623
 20
42.6506658307
  0
LWPOLYLINE
  5
3D5
100
AcDbEntity
  8
0
100
AcDbPolyline
 62
7
  6
CONTINUOUS
 90
2
 70
0
 43
0.2400000019
 10
128.0
 20
83.997073512
 10
3.9989391736
 20
83.997073512
  0
LWPOLYLINE
  5
3D6
100
AcDbEntity
  8
0
100
AcDbPolyline
 62
7
  6
CONTINUOUS
 90
2
 70
0
 43
0.1600000067
 10
64.6482820768
 20
85.9006115724
 10
67.3467603061
 20
85.9006115724
  0
LWPOLYLINE
  5
3D7
100
AcDbEntity
  8
0
100
AcDbPolyline
 62
7
  6
CONTINUOUS
 90
2
 70
0
 43
0.1600000067
 10
115.0
 20
4.0
 10
115.0
 20
6.0
  0
LINE
  5
3D8
100
AcDbEntity
  8
DEFAULT_3
100
AcDbLine
 62
7
  6
PHANTOM
 10
-0.0000155351
 20
87.999864741
 11
136.0000797494
 21
87.999864741
  0
LWPOLYLINE
  5
3D9
100
AcDbEntity
  8
0
100
AcDbPolyline
 62
7
  6
CONTINUOUS
 90
2
 70
0
 43
0.1600000067
 10
124.0
 20
6.0
 10
124.0
 20
10.0
  0
LWPOLYLINE
  5
3DA
100
AcDbEntity
  8
0
100
AcDbPolyline
 62
7
  6
CONTINUOUS
 90
2
 70
0
 43
0.2400000019
 10
128.0
 20
83.997073512
 10
128.0
 20
4.0
  0
LWPOLYLINE
  5
3DB
100
AcDbEntity
  8
0
100
AcDbPolyline
 62
7
  6
CONTINUOUS
 90
2
 70
0
 43
0.1600000067
 10
129.9278006623
 20
42.6506658307
 10
129.9278006623
 20
45.3491440601
  0
LINE
  5
3DC
100
AcDbEntity
  8
DEFAULT_3
100
AcDbLine
 62
7
  6
PHANTOM
 10
136.0
 20
-0.0
 11
136.0
 21
87.997073512
  0
LINE
  5
3DD
100
AcDbEntity
  8
0
100
AcDbLine
 62
7
  6
CONTINUOUS
 10
23.3407737623
 20
46.5916295965
 11
27.2077028962
 21
46.5916295965
  0
LINE
  5
3DE
100
AcDbEntity
  8
0
100
AcDbLine
 62
3
  6
CONTINUOUS
 10
27.2077028962
 20
46.6959603052
 11
23.3407737623
 21
46.6959603052
  0
LINE
  5
3DF
100
AcDbEntity
  8
0
100
AcDbLine
 62
7
  6
CONTINUOUS
 10
27.3411674631
 20
46.7250941634
 11
27.2368367544
 21
46.7250941634
  0
LINE
  5
3E0
100
AcDbEntity
  8
0
100
AcDbLine
 62
3
  6
CONTINUOUS
 10
27.2368367544
 20
46.7250941634
 11
27.2077028962
 21
46.7250941634
  0
LINE
  5
3E1
100
AcDbEntity
  8
0
100
AcDbLine
 62
7
  6
CONTINUOUS
 10
23.2073091954
 20
46.7250941634
 11
23.311639904
 21
46.7250941634
  0
LINE
  5
3E2
100
AcDbEntity
  8
0
100
AcDbLine
 62
3
  6
CONTINUOUS
 10
23.311639904
 20
46.7250941634
 11
23.3407737623
 21
46.7250941634
  0
LINE
  5
3E3
100
AcDbEntity
  8
0
100
AcDbLine
 62
9
  6
CONTINUOUS
 10
23.3407737623
 20
46.7250941634
 11
27.2077028962
 21
46.7250941634
  0
LINE
  5
3E4
100
AcDbEntity
  8
0
100
AcDbLine
 62
7
  6
CONTINUOUS
 10
27.0852619513
 20
52.6152516437
 11
23.4632147072
 21
52.6152516437
  0
LINE
  5
3E5
100
AcDbEntity
  8
02__ASM_ALL_AXES
100
AcDbLine
 62
7
  6
CENTER
 10
26.1600651009
 20
53.4420232973
 11
25.3600611639
 21
53.4420232973
  0
LINE
  5
3E6
100
AcDbEntity
  8
02__ASM_ALL_AXES
100
AcDbLine
 62
7
  6
CENTER
 10
24.3884115576
 20
53.4420232973
 11
23.5884076206
 21
53.4420232973
  0
LINE
  5
3E7
100
AcDbEntity
  8
02__ASM_ALL_AXES
100
AcDbLine
 62
7
  6
CENTER
 10
24.3884115576
 20
53.4420232973
 11
25.1884154946
 21
53.4420232973
  0
LINE
  5
3E8
100
AcDbEntity
  8
02__ASM_ALL_AXES
100
AcDbLine
 62
7
  6
CENTER
 10
26.1600651009
 20
53.4420232973
 11
26.9600690379
 21
53.4420232973
  0
LINE
  5
3E9
100
AcDbEntity
  8
02__ASM_ALL_AXES
100
AcDbLine
 62
7
  6
CENTER
 10
26.1600651009
 20
54.5050154233
 11
25.3600611639
 21
54.5050154233
  0
LINE
  5
3EA
100
AcDbEntity
  8
02__ASM_ALL_AXES
100
AcDbLine
 62
7
  6
CENTER
 10
24.3884115576
 20
54.5050154233
 11
23.5884076206
 21
54.5050154233
  0
LINE
  5
3EB
100
AcDbEntity
  8
02__ASM_ALL_AXES
100
AcDbLine
 62
7
  6
CENTER
 10
24.3884115576
 20
54.5050154233
 11
25.1884154946
 21
54.5050154233
  0
LINE
  5
3EC
100
AcDbEntity
  8
02__ASM_ALL_AXES
100
AcDbLine
 62
7
  6
CENTER
 10
26.1600651009
 20
54.5050154233
 11
26.9600690379
 21
54.5050154233
  0
LINE
  5
3ED
100
AcDbEntity
  8
02___PRT_ALL_AXES
100
AcDbLine
 62
7
  6
CENTER
 10
25.2742383292
 20
57.0640705414
 11
24.444198495
 21
57.0640705414
  0
LINE
  5
3EE
100
AcDbEntity
  8
02___PRT_ALL_AXES
100
AcDbLine
 62
7
  6
CENTER
 10
25.2742383292
 20
57.0640705414
 11
26.1042781634
 21
57.0640705414
  0
LINE
  5
3EF
100
AcDbEntity
  8
02___PRT_ALL_AXES
100
AcDbLine
 62
7
  6
CENTER
 10
26.6915611639
 20
57.3002910138
 11
25.8615213297
 21
57.3002910138
  0
LINE
  5
3F0
100
AcDbEntity
  8
02___PRT_ALL_AXES
100
AcDbLine
 62
7
  6
CENTER
 10
23.8569154946
 20
57.3002910138
 11
23.0268756604
 21
57.3002910138
  0
LINE
  5
3F1
100
AcDbEntity
  8
02___PRT_ALL_AXES
100
AcDbLine
 62
7
  6
CENTER
 10
23.8569154946
 20
57.3002910138
 11
24.6869553288
 21
57.3002910138
  0
LINE
  5
3F2
100
AcDbEntity
  8
02___PRT_ALL_AXES
100
AcDbLine
 62
7
  6
CENTER
 10
26.6915611639
 20
57.3002910138
 11
27.5216009981
 21
57.3002910138
  0
LINE
  5
3F3
100
AcDbEntity
  8
0
100
AcDbLine
 62
7
  6
CONTINUOUS
 10
23.2073091954
 20
46.7250941634
 11
23.2073091954
 21
73.1510784154
  0
LINE
  5
3F4
100
AcDbEntity
  8
0
100
AcDbLine
 62
3
  6
CONTINUOUS
 10
23.311639904
 20
46.7250941634
 11
23.311639904
 21
73.1510784154
  0
LINE
  5
3F5
100
AcDbEntity
  8
0
100
AcDbLine
 62
3
  6
CONTINUOUS
 10
23.3407737623
 20
73.1802122737
 11
23.3407737623
 21
73.1510784154
  0
LINE
  5
3F6
100
AcDbEntity
  8
0
100
AcDbLine
 62
9
  6
CONTINUOUS
 10
23.3407737623
 20
73.1510784154
 11
23.3407737623
 21
46.7250941634
  0
LINE
  5
3F7
100
AcDbEntity
  8
0
100
AcDbLine
 62
7
  6
CONTINUOUS
 10
23.3407737623
 20
46.6959603052
 11
23.3407737623
 21
46.5916295965
  0
LINE
  5
3F8
100
AcDbEntity
  8
0
100
AcDbLine
 62
3
  6
CONTINUOUS
 10
23.3407737623
 20
46.6959603052
 11
23.3407737623
 21
46.7250941634
  0
LINE
  5
3F9
100
AcDbEntity
  8
0
100
AcDbLine
 62
7
  6
CONTINUOUS
 10
23.3407737623
 20
73.1802122737
 11
23.3407737623
 21
73.2845429823
  0
LINE
  5
3FA
100
AcDbEntity
  8
0
100
AcDbLine
 62
7
  6
CONTINUOUS
 10
23.4632147072
 20
52.6152516437
 11
23.4632147072
 21
67.2609209351
  0
LINE
  5
3FB
100
AcDbEntity
  8
02___PRT_ALL_AXES
100
AcDbLine
 62
7
  6
CENTER
 10
23.8569154946
 20
62.575881565
 11
23.8569154946
 21
61.7458417308
  0
LINE
  5
3FC
100
AcDbEntity
  8
02___PRT_ALL_AXES
100
AcDbLine
 62
7
  6
CENTER
 10
23.8569154946
 20
57.3002910138
 11
23.8569154946
 21
56.4702511796
  0
LINE
  5
3FD
100
AcDbEntity
  8
02___PRT_ALL_AXES
100
AcDbLine
 62
7
  6
CENTER
 10
23.8569154946
 20
57.3002910138
 11
23.8569154946
 21
58.130330848
  0
LINE
  5
3FE
100
AcDbEntity
  8
02___PRT_ALL_AXES
100
AcDbLine
 62
7
  6
CENTER
 10
23.8569154946
 20
62.575881565
 11
23.8569154946
 21
63.4059213992
  0
LINE
  5
3FF
100
AcDbEntity
  8
02___PRT_ALL_AXES
100
AcDbLine
 62
7
  6
CONTINUOUS
 10
24.1915611639
 20
66.4341492815
 11
24.1915611639
 21
65.3711571556
  0
LINE
  5
400
100
AcDbEntity
  8
02___PRT_ALL_AXES
100
AcDbLine
 62
7
  6
CONTINUOUS
 10
24.1915611639
 20
54.5050154233
 11
24.1915611639
 21
53.4420232973
  0
LINE
  5
401
100
AcDbEntity
  8
02__ASM_ALL_AXES
100
AcDbLine
 62
7
  6
CENTER
 10
24.3884115576
 20
66.4341492815
 11
24.3884115576
 21
65.6341453445
  0
LINE
  5
402
100
AcDbEntity
  8
02__ASM_ALL_AXES
100
AcDbLine
 62
7
  6
CENTER
 10
24.3884115576
 20
65.3711571556
 11
24.3884115576
 21
64.5711532185
  0
LINE
  5
403
100
AcDbEntity
  8
02__ASM_ALL_AXES
100
AcDbLine
 62
7
  6
CENTER
 10
24.3884115576
 20
54.5050154233
 11
24.3884115576
 21
53.7050114863
  0
LINE
  5
404
100
AcDbEntity
  8
02__ASM_ALL_AXES
100
AcDbLine
 62
7
  6
CENTER
 10
24.3884115576
 20
53.4420232973
 11
24.3884115576
 21
52.6420193603
  0
LINE
  5
405
100
AcDbEntity
  8
02__ASM_ALL_AXES
100
AcDbLine
 62
7
  6
CENTER
 10
24.3884115576
 20
53.4420232973
 11
24.3884115576
 21
53.7050114863
  0
LINE
  5
406
100
AcDbEntity
  8
02__ASM_ALL_AXES
100
AcDbLine
 62
7
  6
CENTER
 10
24.3884115576
 20
54.5050154233
 11
24.3884115576
 21
55.3050193603
  0
LINE
  5
407
100
AcDbEntity
  8
02__ASM_ALL_AXES
100
AcDbLine
 62
7
  6
CENTER
 10
24.3884115576
 20
65.3711571556
 11
24.3884115576
 21
65.6341453445
  0
LINE
  5
408
100
AcDbEntity
  8
02__ASM_ALL_AXES
100
AcDbLine
 62
7
  6
CENTER
 10
24.3884115576
 20
66.4341492815
 11
24.3884115576
 21
67.2341532185
  0
LINE
  5
409
100
AcDbEntity
  8
02___PRT_ALL_AXES
100
AcDbLine
 62
7
  6
CONTINUOUS
 10
24.5852619513
 20
53.4420232973
 11
24.5852619513
 21
54.5050154233
  0
LINE
  5
40A
100
AcDbEntity
  8
02___PRT_ALL_AXES
100
AcDbLine
 62
7
  6
CONTINUOUS
 10
24.5852619513
 20
65.3711571556
 11
24.5852619513
 21
66.4341492815
  0
LINE
  5
40B
100
AcDbEntity
  8
02___PRT_ALL_AXES
100
AcDbLine
 62
7
  6
CENTER
 10
25.2742383292
 20
74.0845429823
 11
25.2742383292
 21
72.3802122737
  0
LINE
  5
40C
100
AcDbEntity
  8
02___PRT_ALL_AXES
100
AcDbLine
 62
7
  6
CENTER
 10
25.2742383292
 20
62.8121020374
 11
25.2742383292
 21
61.9820622033
  0
LINE
  5
40D
100
AcDbEntity
  8
02___PRT_ALL_AXES
100
AcDbLine
 62
7
  6
CENTER
 10
25.2742383292
 20
59.9380862894
 11
25.2742383292
 21
59.1080464552
  0
LINE
  5
40E
100
AcDbEntity
  8
02___PRT_ALL_AXES
100
AcDbLine
 62
7
  6
CENTER
 10
25.2742383292
 20
57.0640705414
 11
25.2742383292
 21
56.2340307072
  0
LINE
  5
40F
100
AcDbEntity
  8
02___PRT_ALL_AXES
100
AcDbLine
 62
7
  6
CENTER
 10
25.2742383292
 20
47.4959603052
 11
25.2742383292
 21
45.7916295965
  0
LINE
  5
410
100
AcDbEntity
  8
02___PRT_ALL_AXES
100
AcDbLine
 62
7
  6
CENTER
 10
25.2742383292
 20
57.0640705414
 11
25.2742383292
 21
57.8791578122
  0
LINE
  5
411
100
AcDbEntity
  8
02___PRT_ALL_AXES
100
AcDbLine
 62
7
  6
CENTER
 10
25.2742383292
 20
57.8791578122
 11
25.2742383292
 21
57.8941103756
  0
LINE
  5
412
100
AcDbEntity
  8
02___PRT_ALL_AXES
100
AcDbLine
 62
7
  6
CENTER
 10
25.2742383292
 20
59.9380862894
 11
25.2742383292
 21
60.7681261236
  0
LINE
  5
413
100
AcDbEntity
  8
02___PRT_ALL_AXES
100
AcDbLine
 62
7
  6
CENTER
 10
25.2742383292
 20
62.8121020374
 11
25.2742383292
 21
63.6421418716
  0
LINE
  5
414
100
AcDbEntity
  8
DEFAULT_1
100
AcDbLine
 62
7
  6
CENTER
 10
25.2742383292
 20
45.7916295965
 11
25.2742383292
 21
74.0845429823
  0
LINE
  5
415
100
AcDbEntity
  8
02___PRT_ALL_AXES
100
AcDbLine
 62
7
  6
CENTER
 10
25.2742383292
 20
59.9380862894
 11
24.444198495
 21
59.9380862894
  0
LINE
  5
416
100
AcDbEntity
  8
DEFAULT_1
100
AcDbLine
 62
7
  6
CENTER
 10
28.1411674631
 20
59.9380862894
 11
22.4073091954
 21
59.9380862894
  0
LINE
  5
417
100
AcDbEntity
  8
02___PRT_ALL_AXES
100
AcDbLine
 62
7
  6
CENTER
 10
25.2742383292
 20
59.9380862894
 11
26.1042781634
 21
59.9380862894
  0
LINE
  5
418
100
AcDbEntity
  8
02___PRT_ALL_AXES
100
AcDbLine
 62
7
  6
CONTINUOUS
 10
25.9632147072
 20
66.4341492815
 11
25.9632147072
 21
65.3711571556
  0
LINE
  5
419
100
AcDbEntity
  8
02___PRT_ALL_AXES
100
AcDbLine
 62
7
  6
CONTINUOUS
 10
25.9632147072
 20
54.5050154233
 11
25.9632147072
 21
53.4420232973
  0
LINE
  5
41A
100
AcDbEntity
  8
02__ASM_ALL_AXES
100
AcDbLine
 62
7
  6
CENTER
 10
26.1600651009
 20
66.4341492815
 11
26.1600651009
 21
65.6341453445
  0
LINE
  5
41B
100
AcDbEntity
  8
02__ASM_ALL_AXES
100
AcDbLine
 62
7
  6
CENTER
 10
26.1600651009
 20
65.3711571556
 11
26.1600651009
 21
64.5711532185
  0
LINE
  5
41C
100
AcDbEntity
  8
02__ASM_ALL_AXES
100
AcDbLine
 62
7
  6
CENTER
 10
26.1600651009
 20
54.5050154233
 11
26.1600651009
 21
53.7050114863
  0
LINE
  5
41D
100
AcDbEntity
  8
02__ASM_ALL_AXES
100
AcDbLine
 62
7
  6
CENTER
 10
26.1600651009
 20
53.4420232973
 11
26.1600651009
 21
52.6420193603
  0
LINE
  5
41E
100
AcDbEntity
  8
02__ASM_ALL_AXES
100
AcDbLine
 62
7
  6
CENTER
 10
26.1600651009
 20
53.4420232973
 11
26.1600651009
 21
53.7050114863
  0
LINE
  5
41F
100
AcDbEntity
  8
02__ASM_ALL_AXES
100
AcDbLine
 62
7
  6
CENTER
 10
26.1600651009
 20
54.5050154233
 11
26.1600651009
 21
55.3050193603
  0
LINE
  5
420
100
AcDbEntity
  8
02__ASM_ALL_AXES
100
AcDbLine
 62
7
  6
CENTER
 10
26.1600651009
 20
65.3711571556
 11
26.1600651009
 21
65.6341453445
  0
LINE
  5
421
100
AcDbEntity
  8
02__ASM_ALL_AXES
100
AcDbLine
 62
7
  6
CENTER
 10
26.1600651009
 20
66.4341492815
 11
26.1600651009
 21
67.2341532185
  0
LINE
  5
422
100
AcDbEntity
  8
02___PRT_ALL_AXES
100
AcDbLine
 62
7
  6
CONTINUOUS
 10
26.3569154946
 20
53.4420232973
 11
26.3569154946
 21
54.5050154233
  0
LINE
  5
423
100
AcDbEntity
  8
02___PRT_ALL_AXES
100
AcDbLine
 62
7
  6
CONTINUOUS
 10
26.3569154946
 20
65.3711571556
 11
26.3569154946
 21
66.4341492815
  0
LINE
  5
424
100
AcDbEntity
  8
02___PRT_ALL_AXES
100
AcDbLine
 62
7
  6
CENTER
 10
26.6915611639
 20
62.575881565
 11
26.6915611639
 21
61.7458417308
  0
LINE
  5
425
100
AcDbEntity
  8
02___PRT_ALL_AXES
100
AcDbLine
 62
7
  6
CENTER
 10
26.6915611639
 20
57.3002910138
 11
26.6915611639
 21
56.4702511796
  0
LINE
  5
426
100
AcDbEntity
  8
02___PRT_ALL_AXES
100
AcDbLine
 62
7
  6
CENTER
 10
26.6915611639
 20
57.3002910138
 11
26.6915611639
 21
58.130330848
  0
LINE
  5
427
100
AcDbEntity
  8
02___PRT_ALL_AXES
100
AcDbLine
 62
7
  6
CENTER
 10
26.6915611639
 20
62.575881565
 11
26.6915611639
 21
63.4059213992
  0
LINE
  5
428
100
AcDbEntity
  8
0
100
AcDbLine
 62
7
  6
CONTINUOUS
 10
27.0852619513
 20
67.2609209351
 11
27.0852619513
 21
52.6152516437
  0
LINE
  5
429
100
AcDbEntity
  8
0
100
AcDbLine
 62
3
  6
CONTINUOUS
 10
27.2077028962
 20
73.1802122737
 11
27.2077028962
 21
73.1510784154
  0
LINE
  5
42A
100
AcDbEntity
  8
0
100
AcDbLine
 62
7
  6
CONTINUOUS
 10
27.2077028962
 20
46.6959603052
 11
27.2077028962
 21
46.5916295965
  0
LINE
  5
42B
100
AcDbEntity
  8
0
100
AcDbLine
 62
3
  6
CONTINUOUS
 10
27.2077028962
 20
46.6959603052
 11
27.2077028962
 21
46.7250941634
  0
LINE
  5
42C
100
AcDbEntity
  8
0
100
AcDbLine
 62
9
  6
CONTINUOUS
 10
27.2077028962
 20
46.7250941634
 11
27.2077028962
 21
73.1510784154
  0
LINE
  5
42D
100
AcDbEntity
  8
0
100
AcDbLine
 62
7
  6
CONTINUOUS
 10
27.2077028962
 20
73.1802122737
 11
27.2077028962
 21
73.2845429823
  0
LINE
  5
42E
100
AcDbEntity
  8
0
100
AcDbLine
 62
3
  6
CONTINUOUS
 10
27.2368367544
 20
73.1510784154
 11
27.2368367544
 21
46.7250941634
  0
LINE
  5
42F
100
AcDbEntity
  8
0
100
AcDbLine
 62
7
  6
CONTINUOUS
 10
27.3411674631
 20
73.1510784154
 11
27.3411674631
 21
46.7250941634
  0
LINE
  5
430
100
AcDbEntity
  8
02___PRT_ALL_AXES
100
AcDbLine
 62
7
  6
CENTER
 10
26.6915611639
 20
62.575881565
 11
25.8615213297
 21
62.575881565
  0
LINE
  5
431
100
AcDbEntity
  8
02___PRT_ALL_AXES
100
AcDbLine
 62
7
  6
CENTER
 10
23.8569154946
 20
62.575881565
 11
23.0268756604
 21
62.575881565
  0
LINE
  5
432
100
AcDbEntity
  8
02___PRT_ALL_AXES
100
AcDbLine
 62
7
  6
CENTER
 10
23.8569154946
 20
62.575881565
 11
24.6869553288
 21
62.575881565
  0
LINE
  5
433
100
AcDbEntity
  8
02___PRT_ALL_AXES
100
AcDbLine
 62
7
  6
CENTER
 10
26.6915611639
 20
62.575881565
 11
27.5216009981
 21
62.575881565
  0
LINE
  5
434
100
AcDbEntity
  8
02___PRT_ALL_AXES
100
AcDbLine
 62
7
  6
CENTER
 10
25.2742383292
 20
62.8121020374
 11
24.444198495
 21
62.8121020374
  0
LINE
  5
435
100
AcDbEntity
  8
02___PRT_ALL_AXES
100
AcDbLine
 62
7
  6
CENTER
 10
25.2742383292
 20
62.8121020374
 11
26.1042781634
 21
62.8121020374
  0
LINE
  5
436
100
AcDbEntity
  8
02__ASM_ALL_AXES
100
AcDbLine
 62
7
  6
CENTER
 10
26.1600651009
 20
65.3711571556
 11
25.3600611639
 21
65.3711571556
  0
LINE
  5
437
100
AcDbEntity
  8
02__ASM_ALL_AXES
100
AcDbLine
 62
7
  6
CENTER
 10
24.3884115576
 20
65.3711571556
 11
23.5884076206
 21
65.3711571556
  0
LINE
  5
438
100
AcDbEntity
  8
02__ASM_ALL_AXES
100
AcDbLine
 62
7
  6
CENTER
 10
24.3884115576
 20
65.3711571556
 11
25.1884154946
 21
65.3711571556
  0
LINE
  5
439
100
AcDbEntity
  8
02__ASM_ALL_AXES
100
AcDbLine
 62
7
  6
CENTER
 10
26.1600651009
 20
65.3711571556
 11
26.9600690379
 21
65.3711571556
  0
LINE
  5
43A
100
AcDbEntity
  8
02__ASM_ALL_AXES
100
AcDbLine
 62
7
  6
CENTER
 10
26.1600651009
 20
66.4341492815
 11
25.3600611639
 21
66.4341492815
  0
LINE
  5
43B
100
AcDbEntity
  8
02__ASM_ALL_AXES
100
AcDbLine
 62
7
  6
CENTER
 10
24.3884115576
 20
66.4341492815
 11
23.5884076206
 21
66.4341492815
  0
LINE
  5
43C
100
AcDbEntity
  8
02__ASM_ALL_AXES
100
AcDbLine
 62
7
  6
CENTER
 10
24.3884115576
 20
66.4341492815
 11
25.1884154946
 21
66.4341492815
  0
LINE
  5
43D
100
AcDbEntity
  8
02__ASM_ALL_AXES
100
AcDbLine
 62
7
  6
CENTER
 10
26.1600651009
 20
66.4341492815
 11
26.9600690379
 21
66.4341492815
  0
LINE
  5
43E
100
AcDbEntity
  8
0
100
AcDbLine
 62
7
  6
CONTINUOUS
 10
23.4632147072
 20
67.2609209351
 11
27.0852619513
 21
67.2609209351
  0
LINE
  5
43F
100
AcDbEntity
  8
0
100
AcDbLine
 62
7
  6
CONTINUOUS
 10
27.3411674631
 20
73.1510784154
 11
27.2368367544
 21
73.1510784154
  0
LINE
  5
440
100
AcDbEntity
  8
0
100
AcDbLine
 62
3
  6
CONTINUOUS
 10
27.2368367544
 20
73.1510784154
 11
27.2077028962
 21
73.1510784154
  0
LINE
  5
441
100
AcDbEntity
  8
0
100
AcDbLine
 62
9
  6
CONTINUOUS
 10
27.2077028962
 20
73.1510784154
 11
23.3407737623
 21
73.1510784154
  0
LINE
  5
442
100
AcDbEntity
  8
0
100
AcDbLine
 62
7
  6
CONTINUOUS
 10
23.2073091954
 20
73.1510784154
 11
23.311639904
 21
73.1510784154
  0
LINE
  5
443
100
AcDbEntity
  8
0
100
AcDbLine
 62
3
  6
CONTINUOUS
 10
23.311639904
 20
73.1510784154
 11
23.3407737623
 21
73.1510784154
  0
LINE
  5
444
100
AcDbEntity
  8
0
100
AcDbLine
 62
3
  6
CONTINUOUS
 10
23.3407737623
 20
73.1802122737
 11
27.2077028962
 21
73.1802122737
  0
LINE
  5
445
100
AcDbEntity
  8
0
100
AcDbLine
 62
7
  6
CONTINUOUS
 10
27.2077028962
 20
73.2845429823
 11
23.3407737623
 21
73.2845429823
  0
LINE
  5
446
100
AcDbEntity
  8
0
100
AcDbLine
 62
7
  6
CONTINUOUS
 10
59.353523746
 20
46.5916295965
 11
72.3645450141
 21
46.5916295965
  0
LINE
  5
447
100
AcDbEntity
  8
0
100
AcDbLine
 62
3
  6
CONTINUOUS
 10
72.3645450141
 20
46.6959603052
 11
59.353523746
 21
46.6959603052
  0
LINE
  5
448
100
AcDbEntity
  8
0
100
AcDbLine
 62
7
  6
CONTINUOUS
 10
70.7263560377
 20
46.7250941634
 11
72.498009581
 21
46.7250941634
  0
LINE
  5
449
100
AcDbEntity
  8
0
100
AcDbLine
 62
7
  6
CONTINUOUS
 10
59.353521392
 20
46.6959603052
 11
59.353521392
 21
46.5916295965
  0
LINE
  5
44A
100
AcDbEntity
  8
0
100
AcDbLine
 62
7
  6
CONTINUOUS
 10
59.353521392
 20
73.1802122737
 11
59.353521392
 21
73.2845429823
  0
LINE
  5
44B
100
AcDbEntity
  8
0
100
AcDbLine
 62
9
  6
CONTINUOUS
 10
61.286985959
 20
46.6959603052
 11
61.286985959
 21
46.5916295965
  0
LINE
  5
44C
100
AcDbEntity
  8
0
100
AcDbLine
 62
9
  6
CONTINUOUS
 10
61.286985959
 20
73.1802122737
 11
61.286985959
 21
73.2845429823
  0
LINE
  5
44D
100
AcDbEntity
  8
0
100
AcDbLine
 62
7
  6
CONTINUOUS
 10
70.7263560377
 20
73.1510784154
 11
70.7263560377
 21
46.7250941634
  0
LINE
  5
44E
100
AcDbEntity
  8
0
100
AcDbLine
 62
9
  6
CONTINUOUS
 10
72.3645450141
 20
73.2845429823
 11
72.3645450141
 21
73.1802122737
  0
LINE
  5
44F
100
AcDbEntity
  8
0
100
AcDbLine
 62
9
  6
CONTINUOUS
 10
72.3645450141
 20
46.5916295965
 11
72.3645450141
 21
46.6959603052
  0
LINE
  5
450
100
AcDbEntity
  8
0
100
AcDbLine
 62
9
  6
CONTINUOUS
 10
72.3645450141
 20
46.7250941634
 11
72.3645450141
 21
73.1510784154
  0
LINE
  5
451
100
AcDbEntity
  8
0
100
AcDbLine
 62
7
  6
CONTINUOUS
 10
72.498009581
 20
46.7250941634
 11
72.498009581
 21
73.1510784154
  0
LINE
  5
452
100
AcDbEntity
  8
0
100
AcDbLine
 62
7
  6
CONTINUOUS
 10
70.7263560377
 20
73.1510784154
 11
72.498009581
 21
73.1510784154
  0
LINE
  5
453
100
AcDbEntity
  8
0
100
AcDbLine
 62
3
  6
CONTINUOUS
 10
59.353523746
 20
73.1802122737
 11
72.3645450141
 21
73.1802122737
  0
LINE
  5
454
100
AcDbEntity
  8
0
100
AcDbLine
 62
7
  6
CONTINUOUS
 10
59.353523746
 20
73.2845429823
 11
72.3645450141
 21
73.2845429823
  0
LINE
  5
455
100
AcDbEntity
  8
02___PRT_ALL_AXES
100
AcDbLine
 62
7
  6
CENTER
 10
61.5584426519
 20
38.1134854801
 11
61.5584426519
 21
37.2834456459
  0
LINE
  5
456
100
AcDbEntity
  8
02___PRT_ALL_AXES
100
AcDbLine
 62
7
  6
CENTER
 10
61.5584426519
 20
38.1134854801
 11
61.5584426519
 21
38.9435253143
  0
LINE
  5
457
100
AcDbEntity
  8
0
100
AcDbLine
 62
7
  6
CONTINUOUS
 10
72.3645450141
 20
36.0465563463
 11
70.7263560377
 21
36.0465563463
  0
LINE
  5
458
100
AcDbEntity
  8
0
100
AcDbLine
 62
3
  6
CONTINUOUS
 10
72.3645450141
 20
36.1508870549
 11
70.7263560377
 21
36.1508870549
  0
LINE
  5
459
100
AcDbEntity
  8
0
100
AcDbLine
 62
7
  6
CONTINUOUS
 10
61.286985959
 20
36.1800209132
 11
72.498009581
 21
36.1800209132
  0
LINE
  5
45A
100
AcDbEntity
  8
02___PRT_ALL_AXES
100
AcDbLine
 62
7
  6
CENTER
 10
61.5584426519
 20
38.1134854801
 11
60.7284028177
 21
38.1134854801
  0
LINE
  5
45B
100
AcDbEntity
  8
02___PRT_ALL_AXES
100
AcDbLine
 62
7
  6
CENTER
 10
61.5584426519
 20
38.1134854801
 11
62.3884824861
 21
38.1134854801
  0
LINE
  5
45C
100
AcDbEntity
  8
0
100
AcDbLine
 62
7
  6
CONTINUOUS
 10
61.286985959
 20
40.0469500471
 11
72.498009581
 21
40.0469500471
  0
LINE
  5
45D
100
AcDbEntity
  8
0
100
AcDbLine
 62
3
  6
CONTINUOUS
 10
70.7263560377
 20
40.0760839053
 11
72.3645450141
 21
40.0760839053
  0
LINE
  5
45E
100
AcDbEntity
  8
0
100
AcDbLine
 62
7
  6
CONTINUOUS
 10
70.7263560377
 20
40.180414614
 11
72.3645450141
 21
40.180414614
  0
LINE
  5
45F
100
AcDbEntity
  8
0
100
AcDbLine
 62
7
  6
CONTINUOUS
 10
70.7263560377
 20
40.180414614
 11
70.7263560377
 21
40.0760839053
  0
LINE
  5
460
100
AcDbEntity
  8
0
100
AcDbLine
 62
7
  6
CONTINUOUS
 10
70.7263560377
 20
36.0465563463
 11
70.7263560377
 21
36.1508870549
  0
LINE
  5
461
100
AcDbEntity
  8
0
100
AcDbLine
 62
9
  6
CONTINUOUS
 10
72.3645450141
 20
40.180414614
 11
72.3645450141
 21
40.0760839053
  0
LINE
  5
462
100
AcDbEntity
  8
0
100
AcDbLine
 62
9
  6
CONTINUOUS
 10
72.3645450141
 20
36.0465563463
 11
72.3645450141
 21
36.1508870549
  0
LINE
  5
463
100
AcDbEntity
  8
0
100
AcDbLine
 62
9
  6
CONTINUOUS
 10
72.3645450141
 20
36.1800209132
 11
72.3645450141
 21
40.0469500471
  0
LINE
  5
464
100
AcDbEntity
  8
0
100
AcDbLine
 62
7
  6
CONTINUOUS
 10
72.498009581
 20
36.1800209132
 11
72.498009581
 21
40.0469500471
  0
LINE
  5
465
100
AcDbEntity
  8
0
100
AcDbLine
 62
7
  6
CONTINUOUS
 10
110.6693047029
 20
70.0982545566
 11
111.5404023525
 21
70.6028650242
  0
LINE
  5
466
100
AcDbEntity
  8
0
100
AcDbLine
 62
7
  6
CONTINUOUS
 10
111.6113713752
 20
70.6435645957
 11
105.7209424958
 21
67.2313500488
  0
LINE
  5
467
100
AcDbEntity
  8
0
100
AcDbLine
 62
7
  6
CONTINUOUS
 10
107.7771600191
 20
66.0402219513
 11
113.6675888985
 21
69.4524364982
  0
LINE
  5
468
100
AcDbEntity
  8
0
100
AcDbLine
 62
3
  6
CONTINUOUS
 10
107.7771600191
 20
65.9762697201
 11
113.6675888985
 21
69.388484267
  0
LINE
  5
469
100
AcDbEntity
  8
0
100
AcDbLine
 62
7
  6
CONTINUOUS
 10
113.7385579211
 20
69.4117369268
 11
113.6830806615
 21
69.3795999948
  0
LINE
  5
46A
100
AcDbEntity
  8
0
100
AcDbLine
 62
3
  6
CONTINUOUS
 10
113.6830806615
 20
69.3616518214
 11
112.8119830119
 21
68.8570413538
  0
LINE
  5
46B
100
AcDbEntity
  8
0
100
AcDbLine
 62
7
  6
CONTINUOUS
 10
113.7385579211
 20
69.3295148895
 11
112.8674602715
 21
68.8249044218
  0
LINE
  5
46C
100
AcDbEntity
  8
0
100
AcDbLine
 62
7
  6
CONTINUOUS
 10
111.6919704127
 20
66.9224868993
 11
111.6364931531
 21
66.8903499673
  0
LINE
  5
46D
100
AcDbEntity
  8
0
100
AcDbLine
 62
7
  6
CONTINUOUS
 10
112.8674602715
 20
52.6264075932
 11
112.8119830119
 21
52.6585445252
  0
LINE
  5
46E
100
AcDbEntity
  8
0
100
AcDbLine
 62
7
  6
CONTINUOUS
 10
110.6693047029
 20
53.899757728
 11
110.7247819625
 21
53.867620796
  0
LINE
  5
46F
100
AcDbEntity
  8
0
100
AcDbLine
 62
7
  6
CONTINUOUS
 10
105.2950859031
 20
50.3376202226
 11
105.2950859031
 21
50.2736679914
  0
LINE
  5
470
100
AcDbEntity
  8
0
100
AcDbLine
 62
7
  6
CONTINUOUS
 10
105.2950859031
 20
66.5718337689
 11
105.2950859031
 21
66.635786
  0
LINE
  5
471
100
AcDbEntity
  8
02___PRT_ALL_AXES
100
AcDbLine
 62
7
  6
CONTINUOUS
 10
112.0237872295
 20
66.1592065349
 11
112.1278875598
 21
66.2195098963
  0
LINE
  5
472
100
AcDbEntity
  8
0
100
AcDbLine
 62
3
  6
CONTINUOUS
 10
111.6113713752
 20
54.3453988182
 11
112.8119830119
 21
53.6499071017
  0
LINE
  5
473
100
AcDbEntity
  8
0
100
AcDbLine
 62
3
  6
CONTINUOUS
 10
111.6268631382
 20
54.3722312637
 11
112.8119830119
 21
53.6857136339
  0
LINE
  5
474
100
AcDbEntity
  8
02___PRT_ALL_AXES
100
AcDbLine
 62
7
  6
CONTINUOUS
 10
112.0237872295
 20
65.5076177647
 11
112.1347417486
 21
65.5718916286
  0
LINE
  5
475
100
AcDbEntity
  8
02___PRT_ALL_AXES
100
AcDbLine
 62
7
  6
CONTINUOUS
 10
107.0190056961
 20
50.4939997463
 11
107.0190056961
 21
50.4300475151
  0
LINE
  5
476
100
AcDbEntity
  8
02___PRT_ALL_AXES
100
AcDbLine
 62
7
  6
CONTINUOUS
 10
107.0190056961
 20
66.7282132926
 11
107.0190056961
 21
66.7921655237
  0
LINE
  5
477
100
AcDbEntity
  8
02___PRT_ALL_AXES
100
AcDbLine
 62
7
  6
CONTINUOUS
 10
111.8280467098
 20
63.9718432897
 11
111.845657053
 21
63.98204463
  0
LINE
  5
478
100
AcDbEntity
  8
0
100
AcDbLine
 62
7
  6
CONTINUOUS
 10
107.7771600191
 20
49.7420561738
 11
107.7771600191
 21
49.6781039427
  0
LINE
  5
479
100
AcDbEntity
  8
0
100
AcDbLine
 62
7
  6
CONTINUOUS
 10
107.7771600191
 20
65.9762697201
 11
107.7771600191
 21
66.0402219513
  0
LINE
  5
47A
100
AcDbEntity
  8
02___PRT_ALL_AXES
100
AcDbLine
 62
7
  6
CONTINUOUS
 10
111.9013185621
 20
63.8449330743
 11
111.8458413025
 21
63.8127961423
  0
LINE
  5
47B
100
AcDbEntity
  8
02___PRT_ALL_AXES
100
AcDbLine
 62
7
  6
CONTINUOUS
 10
112.5188956028
 20
63.7164450376
 11
112.5743728624
 21
63.7485819696
  0
LINE
  5
47C
100
AcDbEntity
  8
02___PRT_ALL_AXES
100
AcDbLine
 62
7
  6
CONTINUOUS
 10
112.6549718999
 20
63.4807546375
 11
112.5994946403
 21
63.4486177055
  0
LINE
  5
47D
100
AcDbEntity
  8
0
100
AcDbLine
 62
7
  6
CONTINUOUS
 10
112.8119830119
 20
57.2319655447
 11
111.6364931531
 21
57.9129046882
  0
LINE
  5
47E
100
AcDbEntity
  8
02___PRT_ALL_AXES
100
AcDbLine
 62
7
  6
CONTINUOUS
 10
112.5188956028
 20
61.9547420662
 11
112.5743728624
 21
61.9868789981
  0
LINE
  5
47F
100
AcDbEntity
  8
02___PRT_ALL_AXES
100
AcDbLine
 62
7
  6
CONTINUOUS
 10
112.6549718999
 20
61.719051666
 11
112.5994946403
 21
61.6869147341
  0
LINE
  5
480
100
AcDbEntity
  8
02___PRT_ALL_AXES
100
AcDbLine
 62
7
  6
CONTINUOUS
 10
111.8280467098
 20
60.7380323559
 11
111.845657053
 21
60.7482336961
  0
LINE
  5
481
100
AcDbEntity
  8
02___PRT_ALL_AXES
100
AcDbLine
 62
7
  6
CONTINUOUS
 10
111.9013185621
 20
60.6111221404
 11
111.8458413025
 21
60.5789852085
  0
LINE
  5
482
100
AcDbEntity
  8
0
100
AcDbLine
 62
7
  6
CONTINUOUS
 10
110.6693047029
 20
53.899757728
 11
110.6693047029
 21
67.6516346832
  0
LINE
  5
483
100
AcDbEntity
  8
0
100
AcDbLine
 62
7
  6
CONTINUOUS
 10
110.6693047029
 20
70.0978431093
 11
110.6693047029
 21
70.0982545566
  0
LINE
  5
484
100
AcDbEntity
  8
0
100
AcDbLine
 62
3
  6
CONTINUOUS
 10
110.7247819625
 20
53.867620796
 11
110.7247819625
 21
67.6837716151
  0
LINE
  5
485
100
AcDbEntity
  8
02___PRT_ALL_AXES
100
AcDbLine
 62
7
  6
CONTINUOUS
 10
112.5188956028
 20
60.1930390947
 11
112.5743728624
 21
60.2251760267
  0
LINE
  5
486
100
AcDbEntity
  8
0
100
AcDbLine
 62
3
  6
CONTINUOUS
 10
111.5958796121
 20
68.1883820828
 11
111.5958796121
 21
54.3722312637
  0
LINE
  5
487
100
AcDbEntity
  8
0
100
AcDbLine
 62
3
  6
CONTINUOUS
 10
111.6268631382
 20
68.2063302562
 11
111.6268631382
 21
54.3722312637
  0
LINE
  5
488
100
AcDbEntity
  8
0
100
AcDbLine
 62
7
  6
CONTINUOUS
 10
111.6364931531
 20
57.9129046882
 11
111.6364931531
 21
66.8903499673
  0
LINE
  5
489
100
AcDbEntity
  8
02___PRT_ALL_AXES
100
AcDbLine
 62
7
  6
CONTINUOUS
 10
112.6549718999
 20
59.9573486946
 11
112.5994946403
 21
59.9252117626
  0
LINE
  5
48A
100
AcDbEntity
  8
02___PRT_ALL_AXES
100
AcDbLine
 62
7
  6
CONTINUOUS
 10
112.0237872295
 20
58.8469325576
 11
112.1278875598
 21
58.907235919
  0
LINE
  5
48B
100
AcDbEntity
  8
02___PRT_ALL_AXES
100
AcDbLine
 62
7
  6
CONTINUOUS
 10
112.0237872295
 20
66.1592065349
 11
112.0237872295
 21
65.5076177647
  0
LINE
  5
48C
100
AcDbEntity
  8
02___PRT_ALL_AXES
100
AcDbLine
 62
7
  6
CONTINUOUS
 10
112.0237872295
 20
58.8469325576
 11
112.0237872295
 21
58.1953437874
  0
LINE
  5
48D
100
AcDbEntity
  8
02___PRT_ALL_AXES
100
AcDbLine
 62
3
  6
CONTINUOUS
 10
112.079264489
 20
66.1913434669
 11
112.079264489
 21
65.5397546967
  0
LINE
  5
48E
100
AcDbEntity
  8
02___PRT_ALL_AXES
100
AcDbLine
 62
3
  6
CONTINUOUS
 10
112.079264489
 20
58.8790694896
 11
112.079264489
 21
58.2274807193
  0
LINE
  5
48F
100
AcDbEntity
  8
02___PRT_ALL_AXES
100
AcDbLine
 62
7
  6
CONTINUOUS
 10
112.1347417486
 20
66.2149638511
 11
112.1347417486
 21
65.5718916286
  0
LINE
  5
490
100
AcDbEntity
  8
02___PRT_ALL_AXES
100
AcDbLine
 62
7
  6
CONTINUOUS
 10
112.1347417486
 20
58.9026898738
 11
112.1347417486
 21
58.2596176513
  0
LINE
  5
491
100
AcDbEntity
  8
02___PRT_ALL_AXES
100
AcDbLine
 62
7
  6
CONTINUOUS
 10
112.2331353789
 20
58.074072346
 11
112.2331353789
 21
58.7256611162
  0
LINE
  5
492
100
AcDbEntity
  8
02___PRT_ALL_AXES
100
AcDbLine
 62
7
  6
CONTINUOUS
 10
112.2331353789
 20
65.3863463233
 11
112.2331353789
 21
66.0379350935
  0
LINE
  5
493
100
AcDbEntity
  8
02___PRT_ALL_AXES
100
AcDbLine
 62
7
  6
CONTINUOUS
 10
112.0237872295
 20
58.1953437874
 11
112.1347417486
 21
58.2596176513
  0
LINE
  5
494
100
AcDbEntity
  8
0
100
AcDbLine
 62
3
  6
CONTINUOUS
 10
112.8119830119
 20
68.8570413538
 11
112.8119830119
 21
52.6585445252
  0
LINE
  5
495
100
AcDbEntity
  8
0
100
AcDbLine
 62
7
  6
CONTINUOUS
 10
112.8674602715
 20
68.8249044218
 11
112.8674602715
 21
52.6264075932
  0
LINE
  5
496
100
AcDbEntity
  8
0
100
AcDbLine
 62
7
  6
CONTINUOUS
 10
113.6675888985
 20
69.4524364982
 11
113.6675888985
 21
69.388484267
  0
LINE
  5
497
100
AcDbEntity
  8
0
100
AcDbLine
 62
3
  6
CONTINUOUS
 10
113.6830806615
 20
69.3616518214
 11
113.6830806615
 21
69.3795999948
  0
LINE
  5
498
100
AcDbEntity
  8
0
100
AcDbLine
 62
7
  6
CONTINUOUS
 10
113.7385579211
 20
53.1310180609
 11
113.7385579211
 21
69.3295148895
  0
LINE
  5
499
100
AcDbEntity
  8
0
100
AcDbLine
 62
7
  6
CONTINUOUS
 10
113.7679542528
 20
53.1721290796
 11
113.7679542528
 21
69.3706259081
  0
LINE
  5
49A
100
AcDbEntity
  8
0
100
AcDbLine
 62
3
  6
CONTINUOUS
 10
111.5958796121
 20
54.3722312637
 11
110.7247819625
 21
53.867620796
  0
LINE
  5
49B
100
AcDbEntity
  8
0
100
AcDbLine
 62
3
  6
CONTINUOUS
 10
105.7209424958
 20
50.9331842713
 11
111.6113713752
 21
54.3453988182
  0
LINE
  5
49C
100
AcDbEntity
  8
0
100
AcDbLine
 62
7
  6
CONTINUOUS
 10
111.6364931531
 20
66.8903499673
 11
112.8119830119
 21
66.2094108238
  0
LINE
  5
49D
100
AcDbEntity
  8
0
100
AcDbLine
 62
3
  6
CONTINUOUS
 10
111.6919704127
 20
66.9224868993
 11
112.8119830119
 21
66.2736846877
  0
LINE
  5
49E
100
AcDbEntity
  8
0
100
AcDbLine
 62
3
  6
CONTINUOUS
 10
112.8119440563
 20
52.6586117734
 11
107.7771600191
 21
49.7420561738
  0
LINE
  5
49F
100
AcDbEntity
  8
0
100
AcDbLine
 62
7
  6
CONTINUOUS
 10
112.8672818127
 20
52.6267156627
 11
107.7771600191
 21
49.6781039427
  0
LINE
  5
4A0
100
AcDbEntity
  8
0
100
AcDbLine
 62
7
  6
CONTINUOUS
 10
112.8674602715
 20
52.6264075932
 11
113.7385579211
 21
53.1310180609
  0
LINE
  5
4A1
100
AcDbEntity
  8
0
100
AcDbLine
 62
7
  6
CONTINUOUS
 10
112.8674602715
 20
68.8249044218
 11
112.8119830119
 21
68.8570413538
  0
LINE
  5
4A2
100
AcDbEntity
  8
0
100
AcDbLine
 62
7
  6
CONTINUOUS
 10
113.7385579211
 20
69.3295148895
 11
113.6830806615
 21
69.3616518214
  0
LINE
  5
4A3
100
AcDbEntity
  8
0
100
AcDbLine
 62
3
  6
CONTINUOUS
 10
113.6830806615
 20
69.3795999948
 11
113.6676278541
 21
69.3885515152
  0
LINE
  5
4A4
100
AcDbEntity
  8
0
100
AcDbLine
 62
7
  6
CONTINUOUS
 10
113.6675888985
 20
69.4524364982
 11
111.6113713752
 21
70.6435645957
  0
LINE
  5
4A5
100
AcDbEntity
  8
0
100
AcDbLine
 62
7
  6
CONTINUOUS
 10
113.7178972919
 20
69.457472151
 11
111.6616797686
 21
70.6486002485
  0
CIRCLE
  5
4A6
100
AcDbEntity
  8
0
100
AcDbCircle
 62
7
  6
CONTINUOUS
 10
25.2742383292
 20
62.8121020374
 40
0.375
  0
CIRCLE
  5
4A7
100
AcDbEntity
  8
0
100
AcDbCircle
 62
7
  6
CONTINUOUS
 10
25.2742383292
 20
59.9380862894
 40
0.375
  0
CIRCLE
  5
4A8
100
AcDbEntity
  8
0
100
AcDbCircle
 62
7
  6
CONTINUOUS
 10
25.2742383292
 20
57.0640705414
 40
0.375
  0
CIRCLE
  5
4A9
100
AcDbEntity
  8
0
100
AcDbCircle
 62
7
  6
CONTINUOUS
 10
23.8569154946
 20
62.575881565
 40
0.215
  0
CIRCLE
  5
4AA
100
AcDbEntity
  8
0
100
AcDbCircle
 62
7
  6
CONTINUOUS
 10
26.6941418054
 20
62.575881565
 40
0.215
  0
CIRCLE
  5
4AB
100
AcDbEntity
  8
0
100
AcDbCircle
 62
7
  6
CONTINUOUS
 10
23.8569154946
 20
57.3002910138
 40
0.215
  0
CIRCLE
  5
4AC
100
AcDbEntity
  8
0
100
AcDbCircle
 62
7
  6
CONTINUOUS
 10
26.6915611639
 20
57.3002910138
 40
0.215
  0
CIRCLE
  5
4AD
100
AcDbEntity
  8
02___PRT_ALL_AXES
100
AcDbCircle
 62
7
  6
CONTINUOUS
 10
25.2742383292
 20
62.8121020374
 40
0.2559055118
  0
CIRCLE
  5
4AE
100
AcDbEntity
  8
02___PRT_ALL_AXES
100
AcDbCircle
 62
7
  6
CONTINUOUS
 10
25.2742383292
 20
57.0640705414
 40
0.2559055118
  0
CIRCLE
  5
4AF
100
AcDbEntity
  8
02___PRT_ALL_AXES
100
AcDbCircle
 62
7
  6
CONTINUOUS
 10
25.2742383292
 20
59.9380862894
 40
0.2559055118
  0
ARC
  5
4B0
100
AcDbEntity
  8
02___PRT_ALL_AXES
100
AcDbCircle
 62
7
  6
CONTINUOUS
 10
26.1600651009
 20
65.3711571556
 40
0.1968503937
100
AcDbArc
 50
180.0
 51
360.0
  0
ARC
  5
4B1
100
AcDbEntity
  8
02___PRT_ALL_AXES
100
AcDbCircle
 62
7
  6
CONTINUOUS
 10
26.1600651009
 20
66.4341492815
 40
0.1968503937
100
AcDbArc
 50
0.0
 51
180.0
  0
ARC
  5
4B2
100
AcDbEntity
  8
02___PRT_ALL_AXES
100
AcDbCircle
 62
7
  6
CONTINUOUS
 10
24.3884115576
 20
66.4341492815
 40
0.1968503937
100
AcDbArc
 50
0.0
 51
180.0
  0
ARC
  5
4B3
100
AcDbEntity
  8
02___PRT_ALL_AXES
100
AcDbCircle
 62
7
  6
CONTINUOUS
 10
24.3884115576
 20
65.3711571556
 40
0.1968503937
100
AcDbArc
 50
180.0
 51
360.0
  0
ARC
  5
4B4
100
AcDbEntity
  8
02___PRT_ALL_AXES
100
AcDbCircle
 62
7
  6
CONTINUOUS
 10
26.1600651009
 20
53.4420232973
 40
0.1968503937
100
AcDbArc
 50
180.0
 51
360.0
  0
ARC
  5
4B5
100
AcDbEntity
  8
02___PRT_ALL_AXES
100
AcDbCircle
 62
7
  6
CONTINUOUS
 10
26.1600651009
 20
54.5050154233
 40
0.1968503937
100
AcDbArc
 50
0.0
 51
180.0
  0
ARC
  5
4B6
100
AcDbEntity
  8
02___PRT_ALL_AXES
100
AcDbCircle
 62
7
  6
CONTINUOUS
 10
24.3884115576
 20
54.5050154233
 40
0.1968503937
100
AcDbArc
 50
0.0
 51
180.0
  0
ARC
  5
4B7
100
AcDbEntity
  8
02___PRT_ALL_AXES
100
AcDbCircle
 62
7
  6
CONTINUOUS
 10
24.3884115576
 20
53.4420232973
 40
0.1968503937
100
AcDbArc
 50
180.0
 51
360.0
  0
CIRCLE
  5
4B8
100
AcDbEntity
  8
02___PRT_ALL_AXES
100
AcDbCircle
 62
7
  6
CONTINUOUS
 10
26.6915611639
 20
62.575881565
 40
0.1377952756
  0
CIRCLE
  5
4B9
100
AcDbEntity
  8
02___PRT_ALL_AXES
100
AcDbCircle
 62
7
  6
CONTINUOUS
 10
23.8569154946
 20
62.575881565
 40
0.1377952756
  0
CIRCLE
  5
4BA
100
AcDbEntity
  8
02___PRT_ALL_AXES
100
AcDbCircle
 62
7
  6
CONTINUOUS
 10
26.6915611639
 20
57.3002910138
 40
0.1377952756
  0
CIRCLE
  5
4BB
100
AcDbEntity
  8
02___PRT_ALL_AXES
100
AcDbCircle
 62
7
  6
CONTINUOUS
 10
23.8569154946
 20
57.3002910138
 40
0.1377952756
  0
ARC
  5
4BC
100
AcDbEntity
  8
0
100
AcDbCircle
 62
7
  6
CONTINUOUS
 10
72.3645450141
 20
46.7250941634
 40
0.1334645669
100
AcDbArc
 50
270.0
 51
360.0
  0
ARC
  5
4BD
100
AcDbEntity
  8
0
100
AcDbCircle
 62
7
  6
CONTINUOUS
 10
72.3645450141
 20
73.1510784154
 40
0.1334645669
100
AcDbArc
 50
0.0
 51
90.0
  0
ARC
  5
4BE
100
AcDbEntity
  8
0
100
AcDbCircle
 62
3
  6
CONTINUOUS
 10
72.3645450141
 20
46.7250941634
 40
0.0291338583
100
AcDbArc
 50
270.0
 51
360.0
  0
ARC
  5
4BF
100
AcDbEntity
  8
0
100
AcDbCircle
 62
3
  6
CONTINUOUS
 10
72.3645450141
 20
73.1510784154
 40
0.0291338583
100
AcDbArc
 50
0.0
 51
90.0
  0
ARC
  5
4C0
100
AcDbEntity
  8
0
100
AcDbCircle
 62
7
  6
CONTINUOUS
 10
61.286985959
 20
38.1134854801
 40
1.9334645669
100
AcDbArc
 50
90.0
 51
270.0
  0
CIRCLE
  5
4C1
100
AcDbEntity
  8
02___PRT_ALL_AXES
100
AcDbCircle
 62
7
  6
CONTINUOUS
 10
61.5584426519
 20
38.1134854801
 40
0.2362204724
  0
ARC
  5
4C2
100
AcDbEntity
  8
0
100
AcDbCircle
 62
7
  6
CONTINUOUS
 10
72.3645450141
 20
36.1800209132
 40
0.1334645669
100
AcDbArc
 50
270.0
 51
360.0
  0
ARC
  5
4C3
100
AcDbEntity
  8
0
100
AcDbCircle
 62
7
  6
CONTINUOUS
 10
72.3645450141
 20
40.0469500471
 40
0.1334645669
100
AcDbArc
 50
0.0
 51
90.0
  0
ARC
  5
4C4
100
AcDbEntity
  8
0
100
AcDbCircle
 62
3
  6
CONTINUOUS
 10
72.3645450141
 20
36.1800209132
 40
0.0291338583
100
AcDbArc
 50
270.0
 51
360.0
  0
ARC
  5
4C5
100
AcDbEntity
  8
0
100
AcDbCircle
 62
3
  6
CONTINUOUS
 10
72.3645450141
 20
40.0469500471
 40
0.0291338583
100
AcDbArc
 50
0.0
 51
90.0
  0
ARC
  5
4C6
100
AcDbEntity
  8
0
100
AcDbCircle
 62
3
  6
CONTINUOUS
 10
105.7862108408
 20
50.3377404429
 40
0.4911248397
100
AcDbArc
 50
180.013084513
 51
187.3968736898
  0
ARC
  5
4C7
100
AcDbEntity
  8
0
100
AcDbCircle
 62
7
  6
CONTINUOUS
 10
105.7862108408
 20
66.6359062204
 40
0.4911248397
100
AcDbArc
 50
180.013084513
 51
187.3968736898
  0
ARC
  5
4C8
100
AcDbEntity
  8
02___PRT_ALL_AXES
100
AcDbCircle
 62
3
  6
CONTINUOUS
 10
112.7064487445
 20
60.1930910948
 40
0.187553149
100
AcDbArc
 50
180.0158855574
 51
182.4448418135
  0
ARC
  5
4C9
100
AcDbEntity
  8
02___PRT_ALL_AXES
100
AcDbCircle
 62
3
  6
CONTINUOUS
 10
112.74822201
 20
60.1182986921
 40
0.1860119172
100
AcDbArc
 50
238.5379591289
 51
239.9697023722
  0
ARC
  5
4CA
100
AcDbEntity
  8
02___PRT_ALL_AXES
100
AcDbCircle
 62
3
  6
CONTINUOUS
 10
112.7443665947
 20
60.1116321414
 40
0.1783108053
100
AcDbArc
 50
239.9701972052
 51
241.3256754502
  0
ARC
  5
4CB
100
AcDbEntity
  8
02___PRT_ALL_AXES
100
AcDbCircle
 62
3
  6
CONTINUOUS
 10
112.6928095819
 20
60.1930858686
 40
0.1739139854
100
AcDbArc
 50
177.4610911664
 51
180.0154096026
  0
ARC
  5
4CC
100
AcDbEntity
  8
02___PRT_ALL_AXES
100
AcDbCircle
 62
3
  6
CONTINUOUS
 10
112.7362407968
 20
60.0963783343
 40
0.161028813
100
AcDbArc
 50
241.2580786246
 51
246.7145059007
  0
ARC
  5
4CD
100
AcDbEntity
  8
02___PRT_ALL_AXES
100
AcDbCircle
 62
3
  6
CONTINUOUS
 10
112.6792276745
 20
60.1937061565
 40
0.160317934
100
AcDbArc
 50
174.4763626564
 51
177.4675349352
  0
ARC
  5
4CE
100
AcDbEntity
  8
02___PRT_ALL_AXES
100
AcDbCircle
 62
3
  6
CONTINUOUS
 10
112.7285584192
 20
60.0788567465
 40
0.1418975362
100
AcDbArc
 50
246.7670421871
 51
249.8492240876
  0
ARC
  5
4CF
100
AcDbEntity
  8
02___PRT_ALL_AXES
100
AcDbCircle
 62
3
  6
CONTINUOUS
 10
112.6419877476
 20
60.199196256
 40
0.1226384832
100
AcDbArc
 50
165.1603092636
 51
168.1576535736
  0
ARC
  5
4D0
100
AcDbEntity
  8
02___PRT_ALL_AXES
100
AcDbCircle
 62
3
  6
CONTINUOUS
 10
112.7184687277
 20
60.04544523
 40
0.1069502353
100
AcDbArc
 50
257.6958076543
 51
259.9351341904
  0
ARC
  5
4D1
100
AcDbEntity
  8
02___PRT_ALL_AXES
100
AcDbCircle
 62
3
  6
CONTINUOUS
 10
112.1815899846
 20
58.8821944401
 40
0.1021444916
100
AcDbArc
 50
167.9458627081
 51
171.1725674572
  0
ARC
  5
4D2
100
AcDbEntity
  8
02___PRT_ALL_AXES
100
AcDbCircle
 62
3
  6
CONTINUOUS
 10
112.6109874299
 20
60.2100571727
 40
0.0897220227
100
AcDbArc
 50
152.9325208755
 51
154.1129954298
  0
ARC
  5
4D3
100
AcDbEntity
  8
02___PRT_ALL_AXES
100
AcDbCircle
 62
3
  6
CONTINUOUS
 10
112.606326611
 20
60.2125058989
 40
0.0844574513
100
AcDbArc
 50
147.5466690461
 51
152.9729963191
  0
ARC
  5
4D4
100
AcDbEntity
  8
02___PRT_ALL_AXES
100
AcDbCircle
 62
3
  6
CONTINUOUS
 10
112.156953138
 20
58.889077539
 40
0.0765282736
100
AcDbArc
 50
155.9244202825
 51
160.513678289
  0
ARC
  5
4D5
100
AcDbEntity
  8
02___PRT_ALL_AXES
100
AcDbCircle
 62
3
  6
CONTINUOUS
 10
112.1530142013
 20
58.8907821331
 40
0.0722366356
100
AcDbArc
 50
155.3619270538
 51
155.884328123
  0
ARC
  5
4D6
100
AcDbEntity
  8
02___PRT_ALL_AXES
100
AcDbCircle
 62
3
  6
CONTINUOUS
 10
112.7064487445
 20
63.7164970377
 40
0.187553149
100
AcDbArc
 50
180.0158855574
 51
182.4448418135
  0
ARC
  5
4D7
100
AcDbEntity
  8
02___PRT_ALL_AXES
100
AcDbCircle
 62
3
  6
CONTINUOUS
 10
112.7064487445
 20
61.9547940663
 40
0.187553149
100
AcDbArc
 50
180.0158855571
 51
182.4448418136
  0
ARC
  5
4D8
100
AcDbEntity
  8
02___PRT_ALL_AXES
100
AcDbCircle
 62
3
  6
CONTINUOUS
 10
112.74822201
 20
63.6417046349
 40
0.186011917
100
AcDbArc
 50
238.5379591287
 51
239.9697023729
  0
ARC
  5
4D9
100
AcDbEntity
  8
02___PRT_ALL_AXES
100
AcDbCircle
 62
3
  6
CONTINUOUS
 10
112.74822201
 20
61.8800016634
 40
0.186011917
100
AcDbArc
 50
238.5379591287
 51
239.9697023729
  0
ARC
  5
4DA
100
AcDbEntity
  8
02___PRT_ALL_AXES
100
AcDbCircle
 62
3
  6
CONTINUOUS
 10
112.7443665946
 20
63.6350380842
 40
0.1783108052
100
AcDbArc
 50
239.9701972043
 51
241.3256754505
  0
ARC
  5
4DB
100
AcDbEntity
  8
02___PRT_ALL_AXES
100
AcDbCircle
 62
3
  6
CONTINUOUS
 10
112.7443665947
 20
61.8733351128
 40
0.1783108053
100
AcDbArc
 50
239.9701972046
 51
241.3256754504
  0
ARC
  5
4DC
100
AcDbEntity
  8
02___PRT_ALL_AXES
100
AcDbCircle
 62
3
  6
CONTINUOUS
 10
112.6928095819
 20
61.95478884
 40
0.1739139854
100
AcDbArc
 50
177.4610911664
 51
180.0154096026
  0
ARC
  5
4DD
100
AcDbEntity
  8
02___PRT_ALL_AXES
100
AcDbCircle
 62
3
  6
CONTINUOUS
 10
112.6928095819
 20
63.7164918115
 40
0.1739139854
100
AcDbArc
 50
177.4610911664
 51
180.0154096026
  0
ARC
  5
4DE
100
AcDbEntity
  8
02___PRT_ALL_AXES
100
AcDbCircle
 62
3
  6
CONTINUOUS
 10
112.7362407968
 20
63.6197842771
 40
0.161028813
100
AcDbArc
 50
241.2580786245
 51
246.7145059009
  0
ARC
  5
4DF
100
AcDbEntity
  8
02___PRT_ALL_AXES
100
AcDbCircle
 62
3
  6
CONTINUOUS
 10
112.7362407968
 20
61.8580813057
 40
0.161028813
100
AcDbArc
 50
241.2580786245
 51
246.7145059008
  0
ARC
  5
4E0
100
AcDbEntity
  8
02___PRT_ALL_AXES
100
AcDbCircle
 62
3
  6
CONTINUOUS
 10
112.6792276745
 20
61.955409128
 40
0.160317934
100
AcDbArc
 50
174.4763626561
 51
177.4675349353
  0
ARC
  5
4E1
100
AcDbEntity
  8
02___PRT_ALL_AXES
100
AcDbCircle
 62
3
  6
CONTINUOUS
 10
112.6792276745
 20
63.7171120994
 40
0.160317934
100
AcDbArc
 50
174.4763626561
 51
177.4675349353
  0
ARC
  5
4E2
100
AcDbEntity
  8
02___PRT_ALL_AXES
100
AcDbCircle
 62
3
  6
CONTINUOUS
 10
112.7285584192
 20
63.6022626893
 40
0.1418975361
100
AcDbArc
 50
246.767042187
 51
249.8492240879
  0
ARC
  5
4E3
100
AcDbEntity
  8
02___PRT_ALL_AXES
100
AcDbCircle
 62
3
  6
CONTINUOUS
 10
112.7285584192
 20
61.8405597179
 40
0.1418975362
100
AcDbArc
 50
246.7670421871
 51
249.8492240876
  0
ARC
  5
4E4
100
AcDbEntity
  8
02___PRT_ALL_AXES
100
AcDbCircle
 62
3
  6
CONTINUOUS
 10
112.6419877476
 20
61.9608992275
 40
0.1226384832
100
AcDbArc
 50
165.1603092633
 51
168.1576535735
  0
ARC
  5
4E5
100
AcDbEntity
  8
02___PRT_ALL_AXES
100
AcDbCircle
 62
3
  6
CONTINUOUS
 10
112.6419877477
 20
63.7226021989
 40
0.1226384833
100
AcDbArc
 50
165.1603092642
 51
168.1576535731
  0
ARC
  5
4E6
100
AcDbEntity
  8
02___PRT_ALL_AXES
100
AcDbCircle
 62
3
  6
CONTINUOUS
 10
112.7184687277
 20
63.5688511729
 40
0.1069502354
100
AcDbArc
 50
257.6958076545
 51
259.9351341899
  0
ARC
  5
4E7
100
AcDbEntity
  8
02___PRT_ALL_AXES
100
AcDbCircle
 62
3
  6
CONTINUOUS
 10
112.7184687277
 20
61.8071482015
 40
0.1069502354
100
AcDbArc
 50
257.6958076552
 51
259.9351341896
  0
ARC
  5
4E8
100
AcDbEntity
  8
02___PRT_ALL_AXES
100
AcDbCircle
 62
3
  6
CONTINUOUS
 10
111.955004012
 20
60.7033999575
 40
0.1067608269
100
AcDbArc
 50
235.976501501
 51
238.2155912653
  0
ARC
  5
4E9
100
AcDbEntity
  8
02___PRT_ALL_AXES
100
AcDbCircle
 62
3
  6
CONTINUOUS
 10
111.9550040119
 20
63.9372108913
 40
0.1067608269
100
AcDbArc
 50
235.9765015007
 51
238.2155912652
  0
ARC
  5
4EA
100
AcDbEntity
  8
02___PRT_ALL_AXES
100
AcDbCircle
 62
3
  6
CONTINUOUS
 10
112.1815899846
 20
66.1944684174
 40
0.1021444916
100
AcDbArc
 50
167.9458627079
 51
171.1725674574
  0
ARC
  5
4EB
100
AcDbEntity
  8
0
100
AcDbCircle
 62
7
  6
CONTINUOUS
 10
111.5899910612
 20
70.5171735699
 40
0.0990053805
100
AcDbArc
 50
116.9809247525
 51
120.0574977046
  0
ARC
  5
4EC
100
AcDbEntity
  8
02___PRT_ALL_AXES
100
AcDbCircle
 62
3
  6
CONTINUOUS
 10
111.9505072787
 20
60.6960867128
 40
0.0981757701
100
AcDbArc
 50
238.1982700037
 51
241.635919845
  0
ARC
  5
4ED
100
AcDbEntity
  8
02___PRT_ALL_AXES
100
AcDbCircle
 62
3
  6
CONTINUOUS
 10
111.9505072787
 20
63.9298976466
 40
0.0981757701
100
AcDbArc
 50
238.1982700039
 51
241.635919845
  0
ARC
  5
4EE
100
AcDbEntity
  8
02___PRT_ALL_AXES
100
AcDbCircle
 62
3
  6
CONTINUOUS
 10
112.6109874299
 20
61.9717601442
 40
0.0897220227
100
AcDbArc
 50
152.9325208755
 51
154.1129954298
  0
ARC
  5
4EF
100
AcDbEntity
  8
02___PRT_ALL_AXES
100
AcDbCircle
 62
3
  6
CONTINUOUS
 10
112.61098743
 20
63.7334631155
 40
0.0897220228
100
AcDbArc
 50
152.9325208768
 51
154.1129954294
  0
ARC
  5
4F0
100
AcDbEntity
  8
02___PRT_ALL_AXES
100
AcDbCircle
 62
3
  6
CONTINUOUS
 10
111.9463866482
 20
60.6885000345
 40
0.0895423024
100
AcDbArc
 50
241.6498123924
 51
244.1674802162
  0
ARC
  5
4F1
100
AcDbEntity
  8
02___PRT_ALL_AXES
100
AcDbCircle
 62
3
  6
CONTINUOUS
 10
111.9463866482
 20
63.9223109683
 40
0.0895423023
100
AcDbArc
 50
241.6498123914
 51
244.1674802168
  0
ARC
  5
4F2
100
AcDbEntity
  8
02___PRT_ALL_AXES
100
AcDbCircle
 62
3
  6
CONTINUOUS
 10
112.606326611
 20
61.9742088703
 40
0.0844574513
100
AcDbArc
 50
147.546669046
 51
152.9729963193
  0
ARC
  5
4F3
100
AcDbEntity
  8
02___PRT_ALL_AXES
100
AcDbCircle
 62
3
  6
CONTINUOUS
 10
112.606326611
 20
63.7359118418
 40
0.0844574513
100
AcDbArc
 50
147.5466690461
 51
152.972996319
  0
ARC
  5
4F4
100
AcDbEntity
  8
02___PRT_ALL_AXES
100
AcDbCircle
 62
3
  6
CONTINUOUS
 10
111.9428733244
 20
60.681179368
 40
0.0814222802
100
AcDbArc
 50
244.1480027899
 51
248.0681987927
  0
ARC
  5
4F5
100
AcDbEntity
  8
02___PRT_ALL_AXES
100
AcDbCircle
 62
3
  6
CONTINUOUS
 10
111.9428733244
 20
63.9149903018
 40
0.0814222801
100
AcDbArc
 50
244.148002789
 51
248.0681987936
  0
ARC
  5
4F6
100
AcDbEntity
  8
02___PRT_ALL_AXES
100
AcDbCircle
 62
3
  6
CONTINUOUS
 10
112.156953138
 20
66.2013515163
 40
0.0765282736
100
AcDbArc
 50
155.924420282
 51
160.5136782892
  0
ARC
  5
4F7
100
AcDbEntity
  8
02___PRT_ALL_AXES
100
AcDbCircle
 62
3
  6
CONTINUOUS
 10
111.9396034515
 20
60.6730566605
 40
0.072666114
100
AcDbArc
 50
248.0677067918
 51
252.077724379
  0
ARC
  5
4F8
100
AcDbEntity
  8
02___PRT_ALL_AXES
100
AcDbCircle
 62
3
  6
CONTINUOUS
 10
111.9396034515
 20
63.9068675944
 40
0.0726661141
100
AcDbArc
 50
248.067706793
 51
252.077724378
  0
ARC
  5
4F9
100
AcDbEntity
  8
02___PRT_ALL_AXES
100
AcDbCircle
 62
3
  6
CONTINUOUS
 10
112.1530142007
 20
66.2030561107
 40
0.0722366349
100
AcDbArc
 50
155.3619270514
 51
155.8843281256
  0
ARC
  5
4FA
100
AcDbEntity
  8
02___PRT_ALL_AXES
100
AcDbCircle
 62
3
  6
CONTINUOUS
 10
111.8985243334
 20
63.9742585777
 40
0.0703287396
100
AcDbArc
 50
167.9646884351
 51
170.0050927552
  0
ARC
  5
4FB
100
AcDbEntity
  8
02___PRT_ALL_AXES
100
AcDbCircle
 62
3
  6
CONTINUOUS
 10
111.8985243334
 20
60.7404476438
 40
0.0703287395
100
AcDbArc
 50
167.9646884339
 51
170.0050927565
  0
SPLINE
  5
4FC
100
AcDbEntity
  8
02___PRT_ALL_AXES
100
AcDbSpline
 62
7
  6
CONTINUOUS
 70
0
 71
3
 72
13
 73
9
 74
0
 42
0.0000001
 43
0.0000001
 44
0.0000000001
 40
0.0
 40
0.0
 40
0.0
 40
0.0
 40
0.0870485781
 40
0.1867302625
 40
0.3044488835
 40
0.4386744364
 40
0.7302651109
 40
1.0
 40
1.0
 40
1.0
 40
1.0
 10
112.0542598528
 20
58.9143880398
 30
0.0
 10
112.0616446062
 20
58.9186659532
 30
0.0
 10
112.0802226066
 20
58.923452541
 30
0.0
 10
112.110134414
 20
58.917454695
 30
0.0
 10
112.1407158015
 20
58.9007550858
 30
0.0
 10
112.1808455308
 20
58.8651681763
 30
0.0
 10
112.2185468402
 20
58.8069545113
 30
0.0
 10
112.2331353789
 20
58.752106257
 30
0.0
 10
112.2331353789
 20
58.7256611162
 30
0.0
  0
SPLINE
  5
4FD
100
AcDbEntity
  8
02___PRT_ALL_AXES
100
AcDbSpline
 62
7
  6
CONTINUOUS
 70
0
 71
3
 72
13
 73
9
 74
0
 42
0.0000001
 43
0.0000001
 44
0.0000000001
 40
0.0
 40
0.0
 40
0.0
 40
0.0
 40
0.0870485781
 40
0.1867302625
 40
0.3044488835
 40
0.4386744364
 40
0.7302651109
 40
1.0
 40
1.0
 40
1.0
 40
1.0
 10
112.0542598528
 20
66.2266620171
 30
0.0
 10
112.0616446062
 20
66.2309399305
 30
0.0
 10
112.0802226066
 20
66.2357265183
 30
0.0
 10
112.110134414
 20
66.2297286723
 30
0.0
 10
112.1407158015
 20
66.2130290631
 30
0.0
 10
112.1808455308
 20
66.1774421536
 30
0.0
 10
112.2185468402
 20
66.1192284886
 30
0.0
 10
112.2331353789
 20
66.0643802343
 30
0.0
 10
112.2331353789
 20
66.0379350935
 30
0.0
  0
SPLINE
  5
4FE
100
AcDbEntity
  8
02___PRT_ALL_AXES
100
AcDbSpline
 62
7
  6
CONTINUOUS
 70
0
 71
3
 72
9
 73
5
 74
0
 42
0.0000001
 43
0.0000001
 44
0.0000000001
 40
0.0
 40
0.0
 40
0.0
 40
0.0
 40
0.4488463816
 40
1.0
 40
1.0
 40
1.0
 40
1.0
 10
112.50302632
 20
62.0102938665
 30
0.0
 10
112.516022335
 20
62.0178232459
 30
0.0
 10
112.5516652985
 20
62.0231977102
 30
0.0
 10
112.583535845
 20
62.0098872902
 30
0.0
 10
112.5994946403
 20
62.0006426605
 30
0.0
  0
SPLINE
  5
4FF
100
AcDbEntity
  8
02___PRT_ALL_AXES
100
AcDbSpline
 62
7
  6
CONTINUOUS
 70
0
 71
3
 72
9
 73
5
 74
0
 42
0.0000001
 43
0.0000001
 44
0.0000000001
 40
0.0
 40
0.0
 40
0.0
 40
0.0
 40
0.4488454456
 40
1.0
 40
1.0
 40
1.0
 40
1.0
 10
111.7939012846
 20
60.7531151432
 30
0.0
 10
111.8008987571
 20
60.7571686129
 30
0.0
 10
111.8200898442
 20
60.7600595835
 30
0.0
 10
111.8372488557
 20
60.752893073
 30
0.0
 10
111.8458413025
 20
60.7479156304
 30
0.0
  0
SPLINE
  5
500
100
AcDbEntity
  8
02___PRT_ALL_AXES
100
AcDbSpline
 62
7
  6
CONTINUOUS
 70
0
 71
3
 72
9
 73
5
 74
0
 42
0.0000001
 43
0.0000001
 44
0.0000000001
 40
0.0
 40
0.0
 40
0.0
 40
0.0
 40
0.4488463816
 40
1.0
 40
1.0
 40
1.0
 40
1.0
 10
112.50302632
 20
60.2485908951
 30
0.0
 10
112.516022335
 20
60.2561202744
 30
0.0
 10
112.5516652985
 20
60.2614947387
 30
0.0
 10
112.583535845
 20
60.2481843187
 30
0.0
 10
112.5994946403
 20
60.2389396891
 30
0.0
  0
SPLINE
  5
501
100
AcDbEntity
  8
02___PRT_ALL_AXES
100
AcDbSpline
 62
7
  6
CONTINUOUS
 70
0
 71
3
 72
9
 73
5
 74
0
 42
0.0000001
 43
0.0000001
 44
0.0000000001
 40
0.0
 40
0.0
 40
0.0
 40
0.0
 40
0.4488454456
 40
1.0
 40
1.0
 40
1.0
 40
1.0
 10
111.7939012846
 20
63.9869260771
 30
0.0
 10
111.8008987571
 20
63.9909795467
 30
0.0
 10
111.8200898442
 20
63.9938705173
 30
0.0
 10
111.8372488557
 20
63.9867040069
 30
0.0
 10
111.8458413025
 20
63.9817265642
 30
0.0
  0
SPLINE
  5
502
100
AcDbEntity
  8
02___PRT_ALL_AXES
100
AcDbSpline
 62
7
  6
CONTINUOUS
 70
0
 71
3
 72
9
 73
5
 74
0
 42
0.0000001
 43
0.0000001
 44
0.0000000001
 40
0.0
 40
0.0
 40
0.0
 40
0.0
 40
0.4488463816
 40
1.0
 40
1.0
 40
1.0
 40
1.0
 10
112.50302632
 20
63.7719968379
 30
0.0
 10
112.516022335
 20
63.7795262173
 30
0.0
 10
112.5516652985
 20
63.7849006816
 30
0.0
 10
112.583535845
 20
63.7715902616
 30
0.0
 10
112.5994946403
 20
63.7623456319
 30
0.0
  0
SPLINE
  5
503
100
AcDbEntity
  8
02___PRT_ALL_AXES
100
AcDbSpline
 62
7
  6
CONTINUOUS
 70
0
 71
3
 72
9
 73
5
 74
0
 42
0.0000001
 43
0.0000001
 44
0.0000000001
 40
0.0
 40
0.0
 40
0.0
 40
0.0
 40
0.5507292901
 40
1.0
 40
1.0
 40
1.0
 40
1.0
 10
112.2331353789
 20
58.074072346
 30
0.0
 10
112.2331353789
 20
58.0600061251
 30
0.0
 10
112.2297267126
 20
58.0338681785
 30
0.0
 10
112.212591925
 20
58.0123687319
 30
0.0
 10
112.2026627555
 20
58.0066168638
 30
0.0
  0
SPLINE
  5
504
100
AcDbEntity
  8
02___PRT_ALL_AXES
100
AcDbSpline
 62
7
  6
CONTINUOUS
 70
0
 71
3
 72
9
 73
5
 74
0
 42
0.0000001
 43
0.0000001
 44
0.0000000001
 40
0.0
 40
0.0
 40
0.0
 40
0.0
 40
0.5507292901
 40
1.0
 40
1.0
 40
1.0
 40
1.0
 10
112.2331353789
 20
65.3863463233
 30
0.0
 10
112.2331353789
 20
65.3722801024
 30
0.0
 10
112.2297267126
 20
65.3461421558
 30
0.0
 10
112.212591925
 20
65.3246427092
 30
0.0
 10
112.2026627555
 20
65.3188908411
 30
0.0
  0
SPLINE
  5
505
100
AcDbEntity
  8
02___PRT_ALL_AXES
100
AcDbSpline
 62
7
  6
CONTINUOUS
 70
0
 71
3
 72
13
 73
9
 74
0
 42
0.0000001
 43
0.0000001
 44
0.0000000001
 40
0.0
 40
0.0
 40
0.0
 40
0.0
 40
0.2701058974
 40
0.5616218101
 40
0.6957312324
 40
0.8133440281
 40
0.9129657923
 40
1.0
 40
1.0
 40
1.0
 40
1.0
 10
112.5994946403
 20
62.0006426605
 30
0.0
 10
112.6292225747
 20
61.9834218278
 30
0.0
 10
112.6814169357
 20
61.9314670247
 30
0.0
 10
112.7224792003
 20
61.8513779562
 30
0.0
 10
112.736518941
 20
61.7832644345
 30
0.0
 10
112.7355121233
 20
61.7381072805
 30
0.0
 10
112.7229171224
 20
61.7006137809
 30
0.0
 10
112.7055416409
 20
61.6828130383
 30
0.0
 10
112.6959629605
 20
61.6772635281
 30
0.0
  0
SPLINE
  5
506
100
AcDbEntity
  8
02___PRT_ALL_AXES
100
AcDbSpline
 62
7
  6
CONTINUOUS
 70
0
 71
3
 72
13
 73
9
 74
0
 42
0.0000001
 43
0.0000001
 44
0.0000000001
 40
0.0
 40
0.0
 40
0.0
 40
0.0
 40
0.2701097174
 40
0.5616288731
 40
0.6957366555
 40
0.8133481465
 40
0.9129664739
 40
1.0
 40
1.0
 40
1.0
 40
1.0
 10
111.8458413025
 20
60.7479156304
 30
0.0
 10
111.8618492701
 20
60.7386425161
 30
0.0
 10
111.889954774
 20
60.710665637
 30
0.0
 10
111.9120656183
 20
60.6675388943
 30
0.0
 10
111.9196236227
 20
60.6308611066
 30
0.0
 10
111.9190811593
 20
60.6065455251
 30
0.0
 10
111.9122968084
 20
60.5863570533
 30
0.0
 10
111.902939346
 20
60.5767736173
 30
0.0
 10
111.8977813204
 20
60.5737856956
 30
0.0
  0
SPLINE
  5
507
100
AcDbEntity
  8
02___PRT_ALL_AXES
100
AcDbSpline
 62
7
  6
CONTINUOUS
 70
0
 71
3
 72
13
 73
9
 74
0
 42
0.0000001
 43
0.0000001
 44
0.0000000001
 40
0.0
 40
0.0
 40
0.0
 40
0.0
 40
0.2701058974
 40
0.5616218101
 40
0.6957312324
 40
0.8133440281
 40
0.9129657923
 40
1.0
 40
1.0
 40
1.0
 40
1.0
 10
112.5994946403
 20
60.2389396891
 30
0.0
 10
112.6292225747
 20
60.2217188563
 30
0.0
 10
112.6814169357
 20
60.1697640533
 30
0.0
 10
112.7224792003
 20
60.0896749848
 30
0.0
 10
112.736518941
 20
60.0215614631
 30
0.0
 10
112.7355121233
 20
59.9764043091
 30
0.0
 10
112.7229171224
 20
59.9389108094
 30
0.0
 10
112.7055416409
 20
59.9211100669
 30
0.0
 10
112.6959629605
 20
59.9155605567
 30
0.0
  0
SPLINE
  5
508
100
AcDbEntity
  8
02___PRT_ALL_AXES
100
AcDbSpline
 62
7
  6
CONTINUOUS
 70
0
 71
3
 72
13
 73
9
 74
0
 42
0.0000001
 43
0.0000001
 44
0.0000000001
 40
0.0
 40
0.0
 40
0.0
 40
0.0
 40
0.2701097174
 40
0.5616288731
 40
0.6957366555
 40
0.8133481465
 40
0.9129664739
 40
1.0
 40
1.0
 40
1.0
 40
1.0
 10
111.8458413025
 20
63.9817265642
 30
0.0
 10
111.8618492701
 20
63.97245345
 30
0.0
 10
111.889954774
 20
63.9444765708
 30
0.0
 10
111.9120656183
 20
63.9013498282
 30
0.0
 10
111.9196236227
 20
63.8646720404
 30
0.0
 10
111.9190811593
 20
63.840356459
 30
0.0
 10
111.9122968084
 20
63.8201679872
 30
0.0
 10
111.902939346
 20
63.8105845512
 30
0.0
 10
111.8977813204
 20
63.8075966295
 30
0.0
  0
SPLINE
  5
509
100
AcDbEntity
  8
02___PRT_ALL_AXES
100
AcDbSpline
 62
7
  6
CONTINUOUS
 70
0
 71
3
 72
13
 73
9
 74
0
 42
0.0000001
 43
0.0000001
 44
0.0000000001
 40
0.0
 40
0.0
 40
0.0
 40
0.0
 40
0.2701058974
 40
0.5616218101
 40
0.6957312324
 40
0.8133440281
 40
0.9129657923
 40
1.0
 40
1.0
 40
1.0
 40
1.0
 10
112.5994946403
 20
63.7623456319
 30
0.0
 10
112.6292225747
 20
63.7451247992
 30
0.0
 10
112.6814169357
 20
63.6931699961
 30
0.0
 10
112.7224792003
 20
63.6130809276
 30
0.0
 10
112.736518941
 20
63.544967406
 30
0.0
 10
112.7355121233
 20
63.4998102519
 30
0.0
 10
112.7229171224
 20
63.4623167523
 30
0.0
 10
112.7055416409
 20
63.4445160098
 30
0.0
 10
112.6959629605
 20
63.4389664995
 30
0.0
  0
SPLINE
  5
50A
100
AcDbEntity
  8
02___PRT_ALL_AXES
100
AcDbSpline
 62
7
  6
CONTINUOUS
 70
0
 71
3
 72
9
 73
5
 74
0
 42
0.0000001
 43
0.0000001
 44
0.0000000001
 40
0.0
 40
0.0
 40
0.0
 40
0.0
 40
0.4488463816
 40
1.0
 40
1.0
 40
1.0
 40
1.0
 10
112.6959629605
 20
63.4389664995
 30
0.0
 10
112.6829669455
 20
63.4314371201
 30
0.0
 10
112.647323982
 20
63.4260626558
 30
0.0
 10
112.6154534356
 20
63.4393730758
 30
0.0
 10
112.5994946403
 20
63.4486177055
 30
0.0
  0
SPLINE
  5
50B
100
AcDbEntity
  8
02___PRT_ALL_AXES
100
AcDbSpline
 62
7
  6
CONTINUOUS
 70
0
 71
3
 72
9
 73
5
 74
0
 42
0.0000001
 43
0.0000001
 44
0.0000000001
 40
0.0
 40
0.0
 40
0.0
 40
0.0
 40
0.4488463816
 40
1.0
 40
1.0
 40
1.0
 40
1.0
 10
112.6959629605
 20
59.9155605567
 30
0.0
 10
112.6829669455
 20
59.9080311773
 30
0.0
 10
112.647323982
 20
59.902656713
 30
0.0
 10
112.6154534356
 20
59.915967133
 30
0.0
 10
112.5994946403
 20
59.9252117626
 30
0.0
  0
SPLINE
  5
50C
100
AcDbEntity
  8
02___PRT_ALL_AXES
100
AcDbSpline
 62
7
  6
CONTINUOUS
 70
0
 71
3
 72
9
 73
5
 74
0
 42
0.0000001
 43
0.0000001
 44
0.0000000001
 40
0.0
 40
0.0
 40
0.0
 40
0.0
 40
0.4488463816
 40
1.0
 40
1.0
 40
1.0
 40
1.0
 10
112.6959629605
 20
61.6772635281
 30
0.0
 10
112.6829669455
 20
61.6697341487
 30
0.0
 10
112.647323982
 20
61.6643596844
 30
0.0
 10
112.6154534356
 20
61.6776701044
 30
0.0
 10
112.5994946403
 20
61.6869147341
 30
0.0
  0
SPLINE
  5
50D
100
AcDbEntity
  8
02___PRT_ALL_AXES
100
AcDbSpline
 62
7
  6
CONTINUOUS
 70
0
 71
3
 72
9
 73
5
 74
0
 42
0.0000001
 43
0.0000001
 44
0.0000000001
 40
0.0
 40
0.0
 40
0.0
 40
0.0
 40
0.5507292901
 40
1.0
 40
1.0
 40
1.0
 40
1.0
 10
112.0237872295
 20
58.8469325576
 30
0.0
 10
112.0237872295
 20
58.8609987785
 30
0.0
 10
112.0271958957
 20
58.8871367251
 30
0.0
 10
112.0443306833
 20
58.9086361717
 30
0.0
 10
112.0542598528
 20
58.9143880398
 30
0.0
  0
SPLINE
  5
50E
100
AcDbEntity
  8
02___PRT_ALL_AXES
100
AcDbSpline
 62
7
  6
CONTINUOUS
 70
0
 71
3
 72
9
 73
5
 74
0
 42
0.0000001
 43
0.0000001
 44
0.0000000001
 40
0.0
 40
0.0
 40
0.0
 40
0.0
 40
0.4488454456
 40
1.0
 40
1.0
 40
1.0
 40
1.0
 10
111.8977813204
 20
60.5737856956
 30
0.0
 10
111.8907838479
 20
60.569732226
 30
0.0
 10
111.8715927608
 20
60.5668412554
 30
0.0
 10
111.8544337492
 20
60.5740077658
 30
0.0
 10
111.8458413025
 20
60.5789852085
 30
0.0
  0
SPLINE
  5
50F
100
AcDbEntity
  8
02___PRT_ALL_AXES
100
AcDbSpline
 62
7
  6
CONTINUOUS
 70
0
 71
3
 72
9
 73
5
 74
0
 42
0.0000001
 43
0.0000001
 44
0.0000000001
 40
0.0
 40
0.0
 40
0.0
 40
0.0
 40
0.5507292901
 40
1.0
 40
1.0
 40
1.0
 40
1.0
 10
112.0237872295
 20
66.1592065349
 30
0.0
 10
112.0237872295
 20
66.1732727558
 30
0.0
 10
112.0271958957
 20
66.1994107024
 30
0.0
 10
112.0443306833
 20
66.220910149
 30
0.0
 10
112.0542598528
 20
66.2266620171
 30
0.0
  0
SPLINE
  5
510
100
AcDbEntity
  8
02___PRT_ALL_AXES
100
AcDbSpline
 62
7
  6
CONTINUOUS
 70
0
 71
3
 72
13
 73
9
 74
0
 42
0.0000001
 43
0.0000001
 44
0.0000000001
 40
0.0
 40
0.0
 40
0.0
 40
0.0
 40
0.0870485781
 40
0.1867302625
 40
0.3044488835
 40
0.4386744364
 40
0.7302651109
 40
1.0
 40
1.0
 40
1.0
 40
1.0
 10
112.2026627555
 20
58.0066168638
 30
0.0
 10
112.1952780021
 20
58.0023389504
 30
0.0
 10
112.1767000017
 20
57.9975523626
 30
0.0
 10
112.1467881943
 20
58.0035502086
 30
0.0
 10
112.1162068068
 20
58.0202498178
 30
0.0
 10
112.0760770775
 20
58.0558367273
 30
0.0
 10
112.0383757681
 20
58.1140503923
 30
0.0
 10
112.0237872295
 20
58.1688986466
 30
0.0
 10
112.0237872295
 20
58.1953437874
 30
0.0
  0
SPLINE
  5
511
100
AcDbEntity
  8
02___PRT_ALL_AXES
100
AcDbSpline
 62
7
  6
CONTINUOUS
 70
0
 71
3
 72
13
 73
9
 74
0
 42
0.0000001
 43
0.0000001
 44
0.0000000001
 40
0.0
 40
0.0
 40
0.0
 40
0.0
 40
0.2701058974
 40
0.5616218101
 40
0.6957312324
 40
0.8133440281
 40
0.9129657923
 40
1.0
 40
1.0
 40
1.0
 40
1.0
 10
112.5994946403
 20
61.6869147341
 30
0.0
 10
112.5697667058
 20
61.7041355668
 30
0.0
 10
112.5175723448
 20
61.7560903699
 30
0.0
 10
112.4765100802
 20
61.8361794384
 30
0.0
 10
112.4624703396
 20
61.90429296
 30
0.0
 10
112.4634771572
 20
61.9494501141
 30
0.0
 10
112.4760721582
 20
61.9869436137
 30
0.0
 10
112.4934476397
 20
62.0047443562
 30
0.0
 10
112.50302632
 20
62.0102938665
 30
0.0
  0
SPLINE
  5
512
100
AcDbEntity
  8
02___PRT_ALL_AXES
100
AcDbSpline
 62
7
  6
CONTINUOUS
 70
0
 71
3
 72
13
 73
9
 74
0
 42
0.0000001
 43
0.0000001
 44
0.0000000001
 40
0.0
 40
0.0
 40
0.0
 40
0.0
 40
0.0870485781
 40
0.1867302625
 40
0.3044488835
 40
0.4386744364
 40
0.7302651109
 40
1.0
 40
1.0
 40
1.0
 40
1.0
 10
112.2026627555
 20
65.3188908411
 30
0.0
 10
112.1952780021
 20
65.3146129277
 30
0.0
 10
112.1767000017
 20
65.3098263399
 30
0.0
 10
112.1467881943
 20
65.3158241859
 30
0.0
 10
112.1162068068
 20
65.3325237951
 30
0.0
 10
112.0760770775
 20
65.3681107046
 30
0.0
 10
112.0383757681
 20
65.4263243696
 30
0.0
 10
112.0237872295
 20
65.4811726239
 30
0.0
 10
112.0237872295
 20
65.5076177647
 30
0.0
  0
SPLINE
  5
513
100
AcDbEntity
  8
02___PRT_ALL_AXES
100
AcDbSpline
 62
7
  6
CONTINUOUS
 70
0
 71
3
 72
13
 73
9
 74
0
 42
0.0000001
 43
0.0000001
 44
0.0000000001
 40
0.0
 40
0.0
 40
0.0
 40
0.0
 40
0.2701097174
 40
0.5616288731
 40
0.6957366555
 40
0.8133481465
 40
0.9129664739
 40
1.0
 40
1.0
 40
1.0
 40
1.0
 10
111.8458413025
 20
60.5789852085
 30
0.0
 10
111.8298333348
 20
60.5882583227
 30
0.0
 10
111.8017278309
 20
60.6162352019
 30
0.0
 10
111.7796169867
 20
60.6593619445
 30
0.0
 10
111.7720589822
 20
60.6960397323
 30
0.0
 10
111.7726014457
 20
60.7203553137
 30
0.0
 10
111.7793857966
 20
60.7405437856
 30
0.0
 10
111.7887432589
 20
60.7501272215
 30
0.0
 10
111.7939012846
 20
60.7531151432
 30
0.0
  0
SPLINE
  5
514
100
AcDbEntity
  8
02___PRT_ALL_AXES
100
AcDbSpline
 62
7
  6
CONTINUOUS
 70
0
 71
3
 72
9
 73
5
 74
0
 42
0.0000001
 43
0.0000001
 44
0.0000000001
 40
0.0
 40
0.0
 40
0.0
 40
0.0
 40
0.4488454456
 40
1.0
 40
1.0
 40
1.0
 40
1.0
 10
111.8977813204
 20
63.8075966295
 30
0.0
 10
111.8907838479
 20
63.8035431598
 30
0.0
 10
111.8715927608
 20
63.8006521892
 30
0.0
 10
111.8544337492
 20
63.8078186997
 30
0.0
 10
111.8458413025
 20
63.8127961423
 30
0.0
  0
SPLINE
  5
515
100
AcDbEntity
  8
02___PRT_ALL_AXES
100
AcDbSpline
 62
7
  6
CONTINUOUS
 70
0
 71
3
 72
13
 73
9
 74
0
 42
0.0000001
 43
0.0000001
 44
0.0000000001
 40
0.0
 40
0.0
 40
0.0
 40
0.0
 40
0.2701058974
 40
0.5616218101
 40
0.6957312324
 40
0.8133440281
 40
0.9129657923
 40
1.0
 40
1.0
 40
1.0
 40
1.0
 10
112.5994946403
 20
59.9252117626
 30
0.0
 10
112.5697667058
 20
59.9424325954
 30
0.0
 10
112.5175723448
 20
59.9943873985
 30
0.0
 10
112.4765100802
 20
60.0744764669
 30
0.0
 10
112.4624703396
 20
60.1425899886
 30
0.0
 10
112.4634771572
 20
60.1877471426
 30
0.0
 10
112.4760721582
 20
60.2252406423
 30
0.0
 10
112.4934476397
 20
60.2430413848
 30
0.0
 10
112.50302632
 20
60.2485908951
 30
0.0
  0
SPLINE
  5
516
100
AcDbEntity
  8
02___PRT_ALL_AXES
100
AcDbSpline
 62
7
  6
CONTINUOUS
 70
0
 71
3
 72
13
 73
9
 74
0
 42
0.0000001
 43
0.0000001
 44
0.0000000001
 40
0.0
 40
0.0
 40
0.0
 40
0.0
 40
0.2701097174
 40
0.5616288731
 40
0.6957366555
 40
0.8133481465
 40
0.9129664739
 40
1.0
 40
1.0
 40
1.0
 40
1.0
 10
111.8458413025
 20
63.8127961423
 30
0.0
 10
111.8298333348
 20
63.8220692566
 30
0.0
 10
111.8017278309
 20
63.8500461357
 30
0.0
 10
111.7796169867
 20
63.8931728784
 30
0.0
 10
111.7720589822
 20
63.9298506661
 30
0.0
 10
111.7726014457
 20
63.9541662476
 30
0.0
 10
111.7793857966
 20
63.9743547194
 30
0.0
 10
111.7887432589
 20
63.9839381554
 30
0.0
 10
111.7939012846
 20
63.9869260771
 30
0.0
  0
SPLINE
  5
517
100
AcDbEntity
  8
02___PRT_ALL_AXES
100
AcDbSpline
 62
7
  6
CONTINUOUS
 70
0
 71
3
 72
13
 73
9
 74
0
 42
0.0000001
 43
0.0000001
 44
0.0000000001
 40
0.0
 40
0.0
 40
0.0
 40
0.0
 40
0.2701058974
 40
0.5616218101
 40
0.6957312324
 40
0.8133440281
 40
0.9129657923
 40
1.0
 40
1.0
 40
1.0
 40
1.0
 10
112.5994946403
 20
63.4486177055
 30
0.0
 10
112.5697667058
 20
63.4658385382
 30
0.0
 10
112.5175723448
 20
63.5177933413
 30
0.0
 10
112.4765100802
 20
63.5978824098
 30
0.0
 10
112.4624703396
 20
63.6659959315
 30
0.0
 10
112.4634771572
 20
63.7111530855
 30
0.0
 10
112.4760721582
 20
63.7486465851
 30
0.0
 10
112.4934476397
 20
63.7664473277
 30
0.0
 10
112.50302632
 20
63.7719968379
 30
0.0
  0
SPLINE
  5
518
100
AcDbEntity
  8
0
100
AcDbSpline
 62
7
  6
CONTINUOUS
 70
0
 71
3
 72
9
 73
5
 74
0
 42
0.0000001
 43
0.0000001
 44
0.0000000001
 40
0.0
 40
0.0
 40
0.0
 40
0.0
 40
0.4496379442
 40
1.0
 40
1.0
 40
1.0
 40
1.0
 10
113.7679542528
 20
69.3706259081
 30
0.0
 10
113.7679542528
 20
69.3784673714
 30
0.0
 10
113.7611329482
 20
69.39595301
 30
0.0
 10
113.7468631165
 20
69.4069258834
 30
0.0
 10
113.7385579211
 20
69.4117369268
 30
0.0
  0
SPLINE
  5
519
100
AcDbEntity
  8
0
100
AcDbSpline
 62
7
  6
CONTINUOUS
 70
0
 71
3
 72
9
 73
5
 74
0
 42
0.0000001
 43
0.0000001
 44
0.0000000001
 40
0.0
 40
0.0
 40
0.0
 40
0.0
 40
0.4492704518
 40
1.0
 40
1.0
 40
1.0
 40
1.0
 10
113.7178968002
 20
69.4574724351
 30
0.0
 10
113.7246289576
 20
69.453572698
 30
0.0
 10
113.7362466779
 20
69.4389958583
 30
0.0
 10
113.7385579211
 20
69.4212740079
 30
0.0
 10
113.7385579211
 20
69.4117369268
 30
0.0
  0
SPLINE
  5
51A
100
AcDbEntity
  8
02___PRT_ALL_AXES
100
AcDbSpline
 62
7
  6
CONTINUOUS
 70
0
 71
3
 72
9
 73
5
 74
0
 42
0.0000001
 43
0.0000001
 44
0.0000000001
 40
0.0
 40
0.0
 40
0.0
 40
0.0
 40
0.2583892223
 40
1.0
 40
1.0
 40
1.0
 40
1.0
 10
112.5743728624
 20
60.2251760267
 30
0.0
 10
112.5743728624
 20
60.2273318034
 30
0.0
 10
112.5745225378
 20
60.2356735712
 30
0.0
 10
112.5752858345
 20
60.2440097252
 30
0.0
 10
112.5762604707
 20
60.2501198407
 30
0.0
  0
SPLINE
  5
51B
100
AcDbEntity
  8
02___PRT_ALL_AXES
100
AcDbSpline
 62
7
  6
CONTINUOUS
 70
0
 71
3
 72
9
 73
5
 74
0
 42
0.0000001
 43
0.0000001
 44
0.0000000001
 40
0.0
 40
0.0
 40
0.0
 40
0.0
 40
0.2583892223
 40
1.0
 40
1.0
 40
1.0
 40
1.0
 10
112.5743728624
 20
63.7485819696
 30
0.0
 10
112.5743728624
 20
63.7507377463
 30
0.0
 10
112.5745225378
 20
63.759079514
 30
0.0
 10
112.5752858345
 20
63.767415668
 30
0.0
 10
112.5762604707
 20
63.7735257836
 30
0.0
  0
SPLINE
  5
51C
100
AcDbEntity
  8
0
100
AcDbSpline
 62
7
  6
CONTINUOUS
 70
0
 71
3
 72
17
 73
13
 74
0
 42
0.0000001
 43
0.0000001
 44
0.0000000001
 40
0.0
 40
0.0
 40
0.0
 40
0.0
 40
0.0429697583
 40
0.0876962801
 40
0.1356058243
 40
0.1876211558
 40
0.3049141489
 40
0.438535711
 40
0.5827875126
 40
0.7298370543
 40
0.8713466818
 40
1.0
 40
1.0
 40
1.0
 40
1.0
 10
105.2950860139
 20
50.2736760546
 30
0.0
 10
105.2950856711
 20
50.2321484893
 30
0.0
 10
105.3061440916
 20
50.1470357302
 30
0.0
 10
105.3547930582
 20
50.0241216374
 30
0.0
 10
105.4337394876
 20
49.9075733369
 30
0.0
 10
105.5823506292
 20
49.7579208421
 30
0.0
 10
105.8356106466
 20
49.6031938728
 30
0.0
 10
106.1998526912
 20
49.4811061008
 30
0.0
 10
106.6085979799
 20
49.4234767242
 30
0.0
 10
107.0287227603
 20
49.4351412588
 30
0.0
 10
107.425923488
 20
49.5148996487
 30
0.0
 10
107.6695725319
 20
49.615780537
 30
0.0
 10
107.7771600191
 20
49.6781039427
 30
0.0
  0
SPLINE
  5
51D
100
AcDbEntity
  8
0
100
AcDbSpline
 62
7
  6
CONTINUOUS
 70
0
 71
3
 72
11
 73
7
 74
0
 42
0.0000001
 43
0.0000001
 44
0.0000000001
 40
0.0
 40
0.0
 40
0.0
 40
0.0
 40
0.2180204305
 40
0.4513195337
 40
0.7104904817
 40
1.0
 40
1.0
 40
1.0
 40
1.0
 10
105.2950860139
 20
66.6357940633
 30
0.0
 10
105.2950864726
 20
66.6913514192
 30
0.0
 10
105.3155112582
 20
66.80713337
 30
0.0
 10
105.4030207061
 20
66.9684495494
 30
0.0
 10
105.5413002484
 20
67.114379287
 30
0.0
 10
105.6571052067
 20
67.1943703092
 30
0.0
 10
105.7209424958
 20
67.2313500488
 30
0.0
  0
SPLINE
  5
51E
100
AcDbEntity
  8
02___PRT_ALL_AXES
100
AcDbSpline
 62
7
  6
CONTINUOUS
 70
0
 71
3
 72
9
 73
5
 74
0
 42
0.0000001
 43
0.0000001
 44
0.0000000001
 40
0.0
 40
0.0
 40
0.0
 40
0.0
 40
0.226847088
 40
1.0
 40
1.0
 40
1.0
 40
1.0
 10
107.0622029697
 20
50.3893269695
 30
0.0
 10
107.0599775926
 20
50.3932613447
 30
0.0
 10
107.0486384589
 20
50.4097487749
 30
0.0
 10
107.0323363272
 20
50.4223253315
 30
0.0
 10
107.0190056961
 20
50.4300475151
 30
0.0
  0
SPLINE
  5
51F
100
AcDbEntity
  8
02___PRT_ALL_AXES
100
AcDbSpline
 62
7
  6
CONTINUOUS
 70
0
 71
3
 72
9
 73
5
 74
0
 42
0.0000001
 43
0.0000001
 44
0.0000000001
 40
0.0
 40
0.0
 40
0.0
 40
0.0
 40
0.4496354936
 40
1.0
 40
1.0
 40
1.0
 40
1.0
 10
106.7157592012
 20
66.7194026589
 30
0.0
 10
106.715759198
 20
66.7055240302
 30
0.0
 10
106.7278316018
 20
66.6745757068
 30
0.0
 10
106.7530883817
 20
66.655154958
 30
0.0
 10
106.7677879168
 20
66.646639794
 30
0.0
  0
SPLINE
  5
520
100
AcDbEntity
  8
02___PRT_ALL_AXES
100
AcDbSpline
 62
7
  6
CONTINUOUS
 70
0
 71
3
 72
9
 73
5
 74
0
 42
0.0000001
 43
0.0000001
 44
0.0000000001
 40
0.0
 40
0.0
 40
0.0
 40
0.0
 40
0.2583892223
 40
1.0
 40
1.0
 40
1.0
 40
1.0
 10
112.5743728624
 20
61.9868789981
 30
0.0
 10
112.5743728624
 20
61.9890347748
 30
0.0
 10
112.5745225378
 20
61.9973765426
 30
0.0
 10
112.5752858345
 20
62.0057126966
 30
0.0
 10
112.5762604707
 20
62.0118228121
 30
0.0
  0
SPLINE
  5
521
100
AcDbEntity
  8
02___PRT_ALL_AXES
100
AcDbSpline
 62
7
  6
CONTINUOUS
 70
0
 71
3
 72
11
 73
7
 74
0
 42
0.0000001
 43
0.0000001
 44
0.0000000001
 40
0.0
 40
0.0
 40
0.0
 40
0.0
 40
0.2262583732
 40
0.4886664732
 40
0.7573811964
 40
1.0
 40
1.0
 40
1.0
 40
1.0
 10
112.7332866598
 20
59.9784813105
 30
0.0
 10
112.7116590182
 20
59.9867658583
 30
0.0
 10
112.669314899
 20
60.0157640713
 30
0.0
 10
112.6195971167
 20
60.0761221874
 30
0.0
 10
112.5846954783
 20
60.1479915673
 30
0.0
 10
112.5743728624
 20
60.2003412893
 30
0.0
 10
112.5743728624
 20
60.2251760267
 30
0.0
  0
SPLINE
  5
522
100
AcDbEntity
  8
02___PRT_ALL_AXES
100
AcDbSpline
 62
7
  6
CONTINUOUS
 70
0
 71
3
 72
11
 73
7
 74
0
 42
0.0000001
 43
0.0000001
 44
0.0000000001
 40
0.0
 40
0.0
 40
0.0
 40
0.0
 40
0.2262583732
 40
0.4886664732
 40
0.7573811964
 40
1.0
 40
1.0
 40
1.0
 40
1.0
 10
112.7332866598
 20
63.5018872534
 30
0.0
 10
112.7116590182
 20
63.5101718012
 30
0.0
 10
112.669314899
 20
63.5391700142
 30
0.0
 10
112.6195971167
 20
63.5995281303
 30
0.0
 10
112.5846954783
 20
63.6713975101
 30
0.0
 10
112.5743728624
 20
63.7237472322
 30
0.0
 10
112.5743728624
 20
63.7485819696
 30
0.0
  0
SPLINE
  5
523
100
AcDbEntity
  8
02___PRT_ALL_AXES
100
AcDbSpline
 62
7
  6
CONTINUOUS
 70
0
 71
3
 72
10
 73
6
 74
0
 42
0.0000001
 43
0.0000001
 44
0.0000000001
 40
0.0
 40
0.0
 40
0.0
 40
0.0
 40
0.5022085449
 40
0.7639078751
 40
1.0
 40
1.0
 40
1.0
 40
1.0
 10
112.2331291406
 20
58.0821769449
 30
0.0
 10
112.20378711
 20
58.1012087108
 30
0.0
 10
112.1680376454
 20
58.1442837568
 30
0.0
 10
112.1407073565
 20
58.2084260707
 30
0.0
 10
112.1347417486
 20
58.2431762228
 30
0.0
 10
112.1347417486
 20
58.2596176513
 30
0.0
  0
SPLINE
  5
524
100
AcDbEntity
  8
02___PRT_ALL_AXES
100
AcDbSpline
 62
7
  6
CONTINUOUS
 70
0
 71
3
 72
10
 73
6
 74
0
 42
0.0000001
 43
0.0000001
 44
0.0000000001
 40
0.0
 40
0.0
 40
0.0
 40
0.0
 40
0.5022085449
 40
0.7639078751
 40
1.0
 40
1.0
 40
1.0
 40
1.0
 10
112.2331291406
 20
65.3944509222
 30
0.0
 10
112.20378711
 20
65.4134826881
 30
0.0
 10
112.1680376454
 20
65.4565577341
 30
0.0
 10
112.1407073565
 20
65.520700048
 30
0.0
 10
112.1347417486
 20
65.5554502001
 30
0.0
 10
112.1347417486
 20
65.5718916286
 30
0.0
  0
SPLINE
  5
525
100
AcDbEntity
  8
02___PRT_ALL_AXES
100
AcDbSpline
 62
7
  6
CONTINUOUS
 70
0
 71
3
 72
13
 73
9
 74
0
 42
0.0000001
 43
0.0000001
 44
0.0000000001
 40
0.0
 40
0.0
 40
0.0
 40
0.0
 40
0.2697494249
 40
0.5609954948
 40
0.6950905606
 40
0.8127993231
 40
0.9126423265
 40
1.0
 40
1.0
 40
1.0
 40
1.0
 10
106.7677879168
 20
66.646639794
 30
0.0
 10
106.7952507369
 20
66.6307310994
 30
0.0
 10
106.8609427649
 20
66.6128769927
 30
0.0
 10
106.9440298571
 20
66.6171027684
 30
0.0
 10
107.005024473
 20
66.6374921992
 30
0.0
 10
107.0406995935
 20
66.6593165239
 30
0.0
 10
107.0648586583
 20
66.6868959555
 30
0.0
 10
107.0710344093
 20
66.7091244261
 30
0.0
 10
107.0710344117
 20
66.7194026589
 30
0.0
  0
SPLINE
  5
526
100
AcDbEntity
  8
02___PRT_ALL_AXES
100
AcDbSpline
 62
7
  6
CONTINUOUS
 70
0
 71
3
 72
11
 73
7
 74
0
 42
0.0000001
 43
0.0000001
 44
0.0000000001
 40
0.0
 40
0.0
 40
0.0
 40
0.0
 40
0.2557153278
 40
0.5363710328
 40
0.7956479333
 40
1.0
 40
1.0
 40
1.0
 40
1.0
 10
107.0190056961
 20
50.4300475151
 30
0.0
 10
106.995462754
 20
50.4436854982
 30
0.0
 10
106.9395326057
 20
50.4609149637
 30
0.0
 10
106.8538776974
 20
50.4616212943
 30
0.0
 10
106.7766460014
 20
50.4405135037
 30
0.0
 10
106.7352951656
 20
50.4082521813
 30
0.0
 10
106.7245906713
 20
50.3893269638
 30
0.0
  0
SPLINE
  5
527
100
AcDbEntity
  8
0
100
AcDbSpline
 62
7
  6
CONTINUOUS
 70
0
 71
3
 72
9
 73
5
 74
0
 42
0.0000001
 43
0.0000001
 44
0.0000000001
 40
0.0
 40
0.0
 40
0.0
 40
0.0
 40
0.5511515601
 40
1.0
 40
1.0
 40
1.0
 40
1.0
 10
111.6113713752
 20
70.6435645957
 30
0.0
 10
111.6196937614
 20
70.6483855973
 30
0.0
 10
111.6363136494
 20
70.6553266023
 30
0.0
 10
111.6549016346
 20
70.6525266177
 30
0.0
 10
111.6616792769
 20
70.6486005326
 30
0.0
  0
SPLINE
  5
528
100
AcDbEntity
  8
02___PRT_ALL_AXES
100
AcDbSpline
 62
7
  6
CONTINUOUS
 70
0
 71
3
 72
11
 73
7
 74
0
 42
0.0000001
 43
0.0000001
 44
0.0000000001
 40
0.0
 40
0.0
 40
0.0
 40
0.0
 40
0.2262583732
 40
0.4886664732
 40
0.7573811964
 40
1.0
 40
1.0
 40
1.0
 40
1.0
 10
112.7332866598
 20
61.7401842819
 30
0.0
 10
112.7116590182
 20
61.7484688297
 30
0.0
 10
112.669314899
 20
61.7774670428
 30
0.0
 10
112.6195971167
 20
61.8378251589
 30
0.0
 10
112.5846954783
 20
61.9096945387
 30
0.0
 10
112.5743728624
 20
61.9620442607
 30
0.0
 10
112.5743728624
 20
61.9868789981
 30
0.0
  0
SPLINE
  5
529
100
AcDbEntity
  8
0
100
AcDbSpline
 62
7
  6
CONTINUOUS
 70
0
 71
3
 72
9
 73
5
 74
0
 42
0.0000001
 43
0.0000001
 44
0.0000000001
 40
0.0
 40
0.0
 40
0.0
 40
0.0
 40
0.5503620558
 40
1.0
 40
1.0
 40
1.0
 40
1.0
 10
113.7385579211
 20
53.1310180609
 30
0.0
 10
113.7468631165
 20
53.1358291043
 30
0.0
 10
113.7611329482
 20
53.1468019777
 30
0.0
 10
113.7679542528
 20
53.1642876163
 30
0.0
 10
113.7679542528
 20
53.1721290796
 30
0.0
  0
SPLINE
  5
52A
100
AcDbEntity
  8
0
100
AcDbSpline
 62
7
  6
CONTINUOUS
 70
0
 71
3
 72
17
 73
13
 74
0
 42
0.0000001
 43
0.0000001
 44
0.0000000001
 40
0.0
 40
0.0
 40
0.0
 40
0.0
 40
0.1270884067
 40
0.2666931534
 40
0.4121007668
 40
0.5555915144
 40
0.6897684447
 40
0.8089468554
 40
0.8621776008
 40
0.9112539544
 40
0.9568224109
 40
1.0
 40
1.0
 40
1.0
 40
1.0
 10
107.7771600191
 20
66.0402219513
 30
0.0
 10
107.6731775042
 20
65.9799868382
 30
0.0
 10
107.4383986255
 20
65.8816115594
 30
0.0
 10
107.0553292142
 20
65.8011152842
 30
0.0
 10
106.6486678351
 20
65.784415829
 30
0.0
 10
106.2496701958
 20
65.8329954776
 30
0.0
 10
105.8888288647
 20
65.94301288
 30
0.0
 10
105.6322811725
 20
66.0850541871
 30
0.0
 10
105.4747721074
 20
66.2242757574
 30
0.0
 10
105.3864886065
 20
66.3337253978
 30
0.0
 10
105.3257134189
 20
66.4500515542
 30
0.0
 10
105.304425002
 20
66.5321904723
 30
0.0
 10
105.2991730495
 20
66.5726780785
 30
0.0
  0
SPLINE
  5
52B
100
AcDbEntity
  8
02___PRT_ALL_AXES
100
AcDbSpline
 62
7
  6
CONTINUOUS
 70
0
 71
3
 72
13
 73
9
 74
0
 42
0.0000001
 43
0.0000001
 44
0.0000000001
 40
0.0
 40
0.0
 40
0.0
 40
0.0
 40
0.2697494249
 40
0.5609954948
 40
0.6950905606
 40
0.8127993231
 40
0.9126423265
 40
1.0
 40
1.0
 40
1.0
 40
1.0
 10
107.0190056961
 20
66.7921655237
 30
0.0
 10
106.9915428759
 20
66.8080742184
 30
0.0
 10
106.9258508479
 20
66.8259283251
 30
0.0
 10
106.8427637557
 20
66.8217025494
 30
0.0
 10
106.7817691398
 20
66.8013131186
 30
0.0
 10
106.7460940193
 20
66.7794887939
 30
0.0
 10
106.7219349545
 20
66.7519093623
 30
0.0
 10
106.7157592035
 20
66.7296808917
 30
0.0
 10
106.7157592012
 20
66.7194026589
 30
0.0
  0
SPLINE
  5
52C
100
AcDbEntity
  8
0
100
AcDbSpline
 62
7
  6
CONTINUOUS
 70
0
 71
3
 72
9
 73
5
 74
0
 42
0.0000001
 43
0.0000001
 44
0.0000000001
 40
0.0
 40
0.0
 40
0.0
 40
0.0
 40
0.5511515601
 40
1.0
 40
1.0
 40
1.0
 40
1.0
 10
113.6675888985
 20
69.4524364982
 30
0.0
 10
113.6759112847
 20
69.4572574998
 30
0.0
 10
113.6925311727
 20
69.4641985048
 30
0.0
 10
113.7111191579
 20
69.4613985202
 30
0.0
 10
113.7178968002
 20
69.4574724351
 30
0.0
  0
SPLINE
  5
52D
100
AcDbEntity
  8
02___PRT_ALL_AXES
100
AcDbSpline
 62
7
  6
CONTINUOUS
 70
0
 71
3
 72
9
 73
5
 74
0
 42
0.0000001
 43
0.0000001
 44
0.0000000001
 40
0.0
 40
0.0
 40
0.0
 40
0.0
 40
0.4496354936
 40
1.0
 40
1.0
 40
1.0
 40
1.0
 10
107.0710344117
 20
66.7194026589
 30
0.0
 10
107.0710344149
 20
66.7332812876
 30
0.0
 10
107.058962011
 20
66.764229611
 30
0.0
 10
107.0337052312
 20
66.7836503598
 30
0.0
 10
107.0190056961
 20
66.7921655237
 30
0.0
  0
SPLINE
  5
52E
100
AcDbEntity
  8
0
100
AcDbSpline
 62
7
  6
CONTINUOUS
 70
0
 71
3
 72
9
 73
5
 74
0
 42
0.0000001
 43
0.0000001
 44
0.0000000001
 40
0.0
 40
0.0
 40
0.0
 40
0.0
 40
0.5503620558
 40
1.0
 40
1.0
 40
1.0
 40
1.0
 10
113.7385579211
 20
69.3295148895
 30
0.0
 10
113.7468631165
 20
69.3343259328
 30
0.0
 10
113.7611329482
 20
69.3452988062
 30
0.0
 10
113.7679542528
 20
69.3627844448
 30
0.0
 10
113.7679542528
 20
69.3706259081
 30
0.0
  0
SPLINE
  5
52F
100
AcDbEntity
  8
02___PRT_ALL_AXES
100
AcDbSpline
 62
3
  6
CONTINUOUS
 70
0
 71
3
 72
11
 73
7
 74
0
 42
0.0000001
 43
0.0000001
 44
0.0000000001
 40
0.0
 40
0.0
 40
0.0
 40
0.0
 40
0.2092514678
 40
0.4696784941
 40
0.7476646712
 40
1.0
 40
1.0
 40
1.0
 40
1.0
 10
112.2248676117
 20
58.0320779655
 30
0.0
 10
112.2068223431
 20
58.0336928571
 30
0.0
 10
112.1681574518
 20
58.0519678832
 30
0.0
 10
112.12276446
 20
58.0990397597
 30
0.0
 10
112.0894959149
 20
58.1597430979
 30
0.0
 10
112.079264489
 20
58.2056330542
 30
0.0
 10
112.079264489
 20
58.2274807193
 30
0.0
  0
SPLINE
  5
530
100
AcDbEntity
  8
02___PRT_ALL_AXES
100
AcDbSpline
 62
3
  6
CONTINUOUS
 70
0
 71
3
 72
12
 73
8
 74
0
 42
0.0000001
 43
0.0000001
 44
0.0000000001
 40
0.0
 40
0.0
 40
0.0
 40
0.0
 40
0.2570059054
 40
0.5386995301
 40
0.6741009154
 40
0.7982484432
 40
1.0
 40
1.0
 40
1.0
 40
1.0
 10
112.6549718999
 20
63.4807546375
 30
0.0
 10
112.629122066
 20
63.4957289595
 30
0.0
 10
112.5823008237
 20
63.5396669706
 30
0.0
 10
112.5422091876
 20
63.608079803
 30
0.0
 10
112.5232253576
 20
63.6684783734
 30
0.0
 10
112.51604866
 20
63.721432079
 30
0.0
 10
112.5225118033
 20
63.7616355437
 30
0.0
 10
112.535156798
 20
63.7813855065
 30
0.0
  0
SPLINE
  5
531
100
AcDbEntity
  8
02___PRT_ALL_AXES
100
AcDbSpline
 62
3
  6
CONTINUOUS
 70
0
 71
3
 72
11
 73
7
 74
0
 42
0.0000001
 43
0.0000001
 44
0.0000000001
 40
0.0
 40
0.0
 40
0.0
 40
0.0
 40
0.2449030673
 40
0.5155619634
 40
0.777498767
 40
1.0
 40
1.0
 40
1.0
 40
1.0
 10
111.9013185621
 20
63.8449330743
 30
0.0
 10
111.8893973021
 20
63.8518388357
 30
0.0
 10
111.8672247492
 20
63.871428731
 30
0.0
 10
111.842833199
 20
63.9082183828
 30
0.0
 10
111.8284379291
 20
63.9485882301
 30
0.0
 10
111.8271276146
 20
63.9766287653
 30
0.0
 10
111.829730629
 20
63.9888719053
 30
0.0
  0
SPLINE
  5
532
100
AcDbEntity
  8
02___PRT_ALL_AXES
100
AcDbSpline
 62
3
  6
CONTINUOUS
 70
0
 71
3
 72
12
 73
8
 74
0
 42
0.0000001
 43
0.0000001
 44
0.0000000001
 40
0.0
 40
0.0
 40
0.0
 40
0.0
 40
0.2570059054
 40
0.5386995301
 40
0.6741009154
 40
0.7982484432
 40
1.0
 40
1.0
 40
1.0
 40
1.0
 10
112.6549718999
 20
59.9573486946
 30
0.0
 10
112.629122066
 20
59.9723230167
 30
0.0
 10
112.5823008237
 20
60.0162610278
 30
0.0
 10
112.5422091876
 20
60.0846738601
 30
0.0
 10
112.5232253576
 20
60.1450724305
 30
0.0
 10
112.51604866
 20
60.1980261361
 30
0.0
 10
112.5225118033
 20
60.2382296009
 30
0.0
 10
112.535156798
 20
60.2579795636
 30
0.0
  0
SPLINE
  5
533
100
AcDbEntity
  8
02___PRT_ALL_AXES
100
AcDbSpline
 62
3
  6
CONTINUOUS
 70
0
 71
3
 72
11
 73
7
 74
0
 42
0.0000001
 43
0.0000001
 44
0.0000000001
 40
0.0
 40
0.0
 40
0.0
 40
0.0
 40
0.2449030673
 40
0.5155619634
 40
0.777498767
 40
1.0
 40
1.0
 40
1.0
 40
1.0
 10
111.9013185621
 20
60.6111221404
 30
0.0
 10
111.8893973021
 20
60.6180279019
 30
0.0
 10
111.8672247492
 20
60.6376177971
 30
0.0
 10
111.842833199
 20
60.674407449
 30
0.0
 10
111.8284379291
 20
60.7147772962
 30
0.0
 10
111.8271276146
 20
60.7428178314
 30
0.0
 10
111.829730629
 20
60.7550609714
 30
0.0
  0
SPLINE
  5
534
100
AcDbEntity
  8
02___PRT_ALL_AXES
100
AcDbSpline
 62
3
  6
CONTINUOUS
 70
0
 71
3
 72
11
 73
7
 74
0
 42
0.0000001
 43
0.0000001
 44
0.0000000001
 40
0.0
 40
0.0
 40
0.0
 40
0.0
 40
0.2092514678
 40
0.4696784941
 40
0.7476646712
 40
1.0
 40
1.0
 40
1.0
 40
1.0
 10
112.2248676117
 20
65.3443519428
 30
0.0
 10
112.2068223431
 20
65.3459668344
 30
0.0
 10
112.1681574518
 20
65.3642418605
 30
0.0
 10
112.12276446
 20
65.411313737
 30
0.0
 10
112.0894959149
 20
65.4720170752
 30
0.0
 10
112.079264489
 20
65.5179070315
 30
0.0
 10
112.079264489
 20
65.5397546967
 30
0.0
  0
SPLINE
  5
535
100
AcDbEntity
  8
02___PRT_ALL_AXES
100
AcDbSpline
 62
3
  6
CONTINUOUS
 70
0
 71
3
 72
12
 73
8
 74
0
 42
0.0000001
 43
0.0000001
 44
0.0000000001
 40
0.0
 40
0.0
 40
0.0
 40
0.0
 40
0.2570059054
 40
0.5386995301
 40
0.6741009154
 40
0.7982484432
 40
1.0
 40
1.0
 40
1.0
 40
1.0
 10
112.6549718999
 20
61.719051666
 30
0.0
 10
112.629122066
 20
61.7340259881
 30
0.0
 10
112.5823008237
 20
61.7779639992
 30
0.0
 10
112.5422091876
 20
61.8463768315
 30
0.0
 10
112.5232253576
 20
61.9067754019
 30
0.0
 10
112.51604866
 20
61.9597291076
 30
0.0
 10
112.5225118033
 20
61.9999325723
 30
0.0
 10
112.535156798
 20
62.019682535
 30
0.0
  0
SPLINE
  5
536
100
AcDbEntity
  8
02___PRT_ALL_AXES
100
AcDbSpline
 62
3
  6
CONTINUOUS
 70
0
 71
3
 72
9
 73
5
 74
0
 42
0.0000001
 43
0.0000001
 44
0.0000000001
 40
0.0
 40
0.0
 40
0.0
 40
0.0
 40
0.2718971115
 40
1.0
 40
1.0
 40
1.0
 40
1.0
 10
112.079264489
 20
66.1913434669
 30
0.0
 10
112.079264489
 20
66.1952243949
 30
0.0
 10
112.079857149
 20
66.2094695622
 30
0.0
 10
112.0830340219
 20
66.2237701143
 30
0.0
 10
112.0873737972
 20
66.2332132205
 30
0.0
  0
SPLINE
  5
537
100
AcDbEntity
  8
02___PRT_ALL_AXES
100
AcDbSpline
 62
3
  6
CONTINUOUS
 70
0
 71
3
 72
9
 73
5
 74
0
 42
0.0000001
 43
0.0000001
 44
0.0000000001
 40
0.0
 40
0.0
 40
0.0
 40
0.0
 40
0.225743478
 40
1.0
 40
1.0
 40
1.0
 40
1.0
 10
112.7189350245
 20
61.7004089245
 30
0.0
 10
112.7138858381
 20
61.7002342588
 30
0.0
 10
112.6914354595
 20
61.7015582156
 30
0.0
 10
112.6699659161
 20
61.7103659148
 30
0.0
 10
112.6549718999
 20
61.719051666
 30
0.0
  0
SPLINE
  5
538
100
AcDbEntity
  8
02___PRT_ALL_AXES
100
AcDbSpline
 62
3
  6
CONTINUOUS
 70
0
 71
3
 72
9
 73
5
 74
0
 42
0.0000001
 43
0.0000001
 44
0.0000000001
 40
0.0
 40
0.0
 40
0.0
 40
0.0
 40
0.2718971115
 40
1.0
 40
1.0
 40
1.0
 40
1.0
 10
112.079264489
 20
58.8790694896
 30
0.0
 10
112.079264489
 20
58.8829504176
 30
0.0
 10
112.079857149
 20
58.8971955849
 30
0.0
 10
112.0830340219
 20
58.911496137
 30
0.0
 10
112.0873737972
 20
58.9209392432
 30
0.0
  0
SPLINE
  5
539
100
AcDbEntity
  8
02___PRT_ALL_AXES
100
AcDbSpline
 62
3
  6
CONTINUOUS
 70
0
 71
3
 72
9
 73
5
 74
0
 42
0.0000001
 43
0.0000001
 44
0.0000000001
 40
0.0
 40
0.0
 40
0.0
 40
0.0
 40
0.2389568873
 40
1.0
 40
1.0
 40
1.0
 40
1.0
 10
111.9173449523
 20
60.603883457
 30
0.0
 10
111.916009758
 20
60.6043119238
 30
0.0
 10
111.9104779261
 20
60.6062776202
 30
0.0
 10
111.9051829869
 20
60.6088835519
 30
0.0
 10
111.9013185621
 20
60.6111221404
 30
0.0
  0
SPLINE
  5
53A
100
AcDbEntity
  8
02___PRT_ALL_AXES
100
AcDbSpline
 62
3
  6
CONTINUOUS
 70
0
 71
3
 72
9
 73
5
 74
0
 42
0.0000001
 43
0.0000001
 44
0.0000000001
 40
0.0
 40
0.0
 40
0.0
 40
0.0
 40
0.225743478
 40
1.0
 40
1.0
 40
1.0
 40
1.0
 10
112.7189350245
 20
59.9387059531
 30
0.0
 10
112.7138858381
 20
59.9385312874
 30
0.0
 10
112.6914354595
 20
59.9398552441
 30
0.0
 10
112.6699659161
 20
59.9486629433
 30
0.0
 10
112.6549718999
 20
59.9573486946
 30
0.0
  0
SPLINE
  5
53B
100
AcDbEntity
  8
02___PRT_ALL_AXES
100
AcDbSpline
 62
3
  6
CONTINUOUS
 70
0
 71
3
 72
9
 73
5
 74
0
 42
0.0000001
 43
0.0000001
 44
0.0000000001
 40
0.0
 40
0.0
 40
0.0
 40
0.0
 40
0.2389568873
 40
1.0
 40
1.0
 40
1.0
 40
1.0
 10
111.9173449523
 20
63.8376943909
 30
0.0
 10
111.916009758
 20
63.8381228576
 30
0.0
 10
111.9104779261
 20
63.840088554
 30
0.0
 10
111.9051829869
 20
63.8426944857
 30
0.0
 10
111.9013185621
 20
63.8449330743
 30
0.0
  0
SPLINE
  5
53C
100
AcDbEntity
  8
02___PRT_ALL_AXES
100
AcDbSpline
 62
3
  6
CONTINUOUS
 70
0
 71
3
 72
9
 73
5
 74
0
 42
0.0000001
 43
0.0000001
 44
0.0000000001
 40
0.0
 40
0.0
 40
0.0
 40
0.0
 40
0.225743478
 40
1.0
 40
1.0
 40
1.0
 40
1.0
 10
112.7189350245
 20
63.4621118959
 30
0.0
 10
112.7138858381
 20
63.4619372303
 30
0.0
 10
112.6914354595
 20
63.463261187
 30
0.0
 10
112.6699659161
 20
63.4720688862
 30
0.0
 10
112.6549718999
 20
63.4807546375
 30
0.0
  0
SPLINE
  5
53D
100
AcDbEntity
  8
02___PRT_ALL_AXES
100
AcDbSpline
 62
3
  6
CONTINUOUS
 70
0
 71
3
 72
11
 73
7
 74
0
 42
0.0000001
 43
0.0000001
 44
0.0000000001
 40
0.0
 40
0.0
 40
0.0
 40
0.0
 40
0.2557153278
 40
0.5363710328
 40
0.7956479333
 40
1.0
 40
1.0
 40
1.0
 40
1.0
 10
107.0190056961
 20
66.7282132926
 30
0.0
 10
106.995462754
 20
66.7418512757
 30
0.0
 10
106.9395326057
 20
66.7590807412
 30
0.0
 10
106.8538776974
 20
66.7597870718
 30
0.0
 10
106.7766460014
 20
66.7386792812
 30
0.0
 10
106.7352951656
 20
66.7064179588
 30
0.0
 10
106.7245906713
 20
66.6874927413
 30
0.0
  0
SPLINE
  5
53E
100
AcDbEntity
  8
02___PRT_ALL_AXES
100
AcDbSpline
 62
3
  6
CONTINUOUS
 70
0
 71
3
 72
13
 73
9
 74
0
 42
0.0000001
 43
0.0000001
 44
0.0000000001
 40
0.0
 40
0.0
 40
0.0
 40
0.0
 40
0.2697494249
 40
0.5609954948
 40
0.6950905606
 40
0.8127993231
 40
0.9126423265
 40
1.0
 40
1.0
 40
1.0
 40
1.0
 10
106.7677879168
 20
50.3484740166
 30
0.0
 10
106.7952507369
 20
50.3325653219
 30
0.0
 10
106.8609427649
 20
50.3147112152
 30
0.0
 10
106.9440298571
 20
50.3189369909
 30
0.0
 10
107.005024473
 20
50.3393264217
 30
0.0
 10
107.0406995935
 20
50.3611507465
 30
0.0
 10
107.0648586583
 20
50.388730178
 30
0.0
 10
107.0710344093
 20
50.4109586486
 30
0.0
 10
107.0710344117
 20
50.4212368814
 30
0.0
  0
SPLINE
  5
53F
100
AcDbEntity
  8
0
100
AcDbSpline
 62
3
  6
CONTINUOUS
 70
0
 71
3
 72
11
 73
7
 74
0
 42
0.0000001
 43
0.0000001
 44
0.0000000001
 40
0.0
 40
0.0
 40
0.0
 40
0.0
 40
0.2180204305
 40
0.4513195337
 40
0.7104904817
 40
1.0
 40
1.0
 40
1.0
 40
1.0
 10
105.2950860139
 20
50.3376282858
 30
0.0
 10
105.2950864726
 20
50.3931856417
 30
0.0
 10
105.3155112582
 20
50.5089675925
 30
0.0
 10
105.4030207061
 20
50.670283772
 30
0.0
 10
105.5413002484
 20
50.8162135095
 30
0.0
 10
105.6571052067
 20
50.8962045317
 30
0.0
 10
105.7209424958
 20
50.9331842713
 30
0.0
  0
SPLINE
  5
540
100
AcDbEntity
  8
0
100
AcDbSpline
 62
3
  6
CONTINUOUS
 70
0
 71
3
 72
17
 73
13
 74
0
 42
0.0000001
 43
0.0000001
 44
0.0000000001
 40
0.0
 40
0.0
 40
0.0
 40
0.0
 40
0.0429697583
 40
0.0876962801
 40
0.1356058243
 40
0.1876211558
 40
0.3049141489
 40
0.438535711
 40
0.5827875126
 40
0.7298370543
 40
0.8713466818
 40
1.0
 40
1.0
 40
1.0
 40
1.0
 10
105.2950860139
 20
66.5718418321
 30
0.0
 10
105.2950856711
 20
66.5303142668
 30
0.0
 10
105.3061440916
 20
66.4452015076
 30
0.0
 10
105.3547930582
 20
66.3222874149
 30
0.0
 10
105.4337394876
 20
66.2057391143
 30
0.0
 10
105.5823506292
 20
66.0560866195
 30
0.0
 10
105.8356106466
 20
65.9013596502
 30
0.0
 10
106.1998526912
 20
65.7792718782
 30
0.0
 10
106.6085979799
 20
65.7216425017
 30
0.0
 10
107.0287227603
 20
65.7333070362
 30
0.0
 10
107.425923488
 20
65.8130654261
 30
0.0
 10
107.6695725319
 20
65.9139463145
 30
0.0
 10
107.7771600191
 20
65.9762697201
 30
0.0
  0
SPLINE
  5
541
100
AcDbEntity
  8
02___PRT_ALL_AXES
100
AcDbSpline
 62
3
  6
CONTINUOUS
 70
0
 71
3
 72
9
 73
5
 74
0
 42
0.0000001
 43
0.0000001
 44
0.0000000001
 40
0.0
 40
0.0
 40
0.0
 40
0.0
 40
0.4496354936
 40
1.0
 40
1.0
 40
1.0
 40
1.0
 10
106.7157592012
 20
50.4212368814
 30
0.0
 10
106.715759198
 20
50.4073582528
 30
0.0
 10
106.7278316018
 20
50.3764099294
 30
0.0
 10
106.7530883817
 20
50.3569891805
 30
0.0
 10
106.7677879168
 20
50.3484740166
 30
0.0
  0
SPLINE
  5
542
100
AcDbEntity
  8
02___PRT_ALL_AXES
100
AcDbSpline
 62
3
  6
CONTINUOUS
 70
0
 71
3
 72
9
 73
5
 74
0
 42
0.0000001
 43
0.0000001
 44
0.0000000001
 40
0.0
 40
0.0
 40
0.0
 40
0.0
 40
0.226847088
 40
1.0
 40
1.0
 40
1.0
 40
1.0
 10
107.0622029697
 20
66.687492747
 30
0.0
 10
107.0599775926
 20
66.6914271222
 30
0.0
 10
107.0486384589
 20
66.7079145523
 30
0.0
 10
107.0323363272
 20
66.720491109
 30
0.0
 10
107.0190056961
 20
66.7282132926
 30
0.0
  0
SPLINE
  5
543
100
AcDbEntity
  8
0
100
AcDbSpline
 62
3
  6
CONTINUOUS
 70
0
 71
3
 72
9
 73
5
 74
0
 42
0.0000001
 43
0.0000001
 44
0.0000000001
 40
0.0
 40
0.0
 40
0.0
 40
0.0
 40
0.2959396843
 40
1.0
 40
1.0
 40
1.0
 40
1.0
 10
113.6675888985
 20
69.388484267
 30
0.0
 10
113.668553456
 20
69.389043017
 30
0.0
 10
113.6718914359
 20
69.3906951233
 30
0.0
 10
113.6762758063
 20
69.3909128417
 30
0.0
 10
113.6785705643
 20
69.3895835571
 30
0.0
  0
SPLINE
  5
544
100
AcDbEntity
  8
0
100
AcDbSpline
 62
3
  6
CONTINUOUS
 70
0
 71
3
 72
9
 73
5
 74
0
 42
0.0000001
 43
0.0000001
 44
0.0000000001
 40
0.0
 40
0.0
 40
0.0
 40
0.0
 40
0.2408966494
 40
1.0
 40
1.0
 40
1.0
 40
1.0
 10
111.6113713752
 20
54.3453988182
 30
0.0
 10
111.6135703827
 20
54.3466726619
 30
0.0
 10
111.6216582996
 20
54.3535118574
 30
0.0
 10
111.6268631382
 20
54.3642231606
 30
0.0
 10
111.6268631382
 20
54.3722312637
 30
0.0
  0
SPLINE
  5
545
100
AcDbEntity
  8
0
100
AcDbSpline
 62
3
  6
CONTINUOUS
 70
0
 71
3
 72
9
 73
5
 74
0
 42
0.0000001
 43
0.0000001
 44
0.0000000001
 40
0.0
 40
0.0
 40
0.0
 40
0.0
 40
0.2407653331
 40
1.0
 40
1.0
 40
1.0
 40
1.0
 10
111.5958796121
 20
54.3722312637
 30
0.0
 10
111.598077912
 20
54.3735046975
 30
0.0
 10
111.6080413734
 20
54.3771116739
 30
0.0
 10
111.6199309713
 20
54.3762469375
 30
0.0
 10
111.6268631382
 20
54.3722312637
 30
0.0
  0
SPLINE
  5
546
100
AcDbEntity
  8
0
100
AcDbSpline
 62
3
  6
CONTINUOUS
 70
0
 71
3
 72
9
 73
5
 74
0
 42
0.0000001
 43
0.0000001
 44
0.0000000001
 40
0.0
 40
0.0
 40
0.0
 40
0.0
 40
0.2952950328
 40
1.0
 40
1.0
 40
1.0
 40
1.0
 10
113.6830806615
 20
69.3616518214
 30
0.0
 10
113.6840426192
 20
69.3622090654
 30
0.0
 10
113.6871351463
 20
69.3642836189
 30
0.0
 10
113.6894975599
 20
69.3679728916
 30
0.0
 10
113.6894975599
 20
69.3706259081
 30
0.0
  0
SPLINE
  5
547
100
AcDbEntity
  8
02___PRT_ALL_AXES
100
AcDbSpline
 62
3
  6
CONTINUOUS
 70
0
 71
3
 72
8
 73
4
 74
0
 42
0.0000001
 43
0.0000001
 44
0.0000000001
 40
0.0
 40
0.0
 40
0.0
 40
0.0
 40
1.0
 40
1.0
 40
1.0
 40
1.0
 10
112.5196541652
 20
61.9708407543
 30
0.0
 10
112.5201502977
 20
61.9759499917
 30
0.0
 10
112.5209042896
 20
61.9810433892
 30
0.0
 10
112.5219595041
 20
61.986067031
 30
0.0
  0
SPLINE
  5
548
100
AcDbEntity
  8
02___PRT_ALL_AXES
100
AcDbSpline
 62
3
  6
CONTINUOUS
 70
0
 71
3
 72
8
 73
4
 74
0
 42
0.0000001
 43
0.0000001
 44
0.0000000001
 40
0.0
 40
0.0
 40
0.0
 40
0.0
 40
1.0
 40
1.0
 40
1.0
 40
1.0
 10
112.5234397238
 20
61.9923088375
 30
0.0
 10
112.5251354816
 20
61.9986997524
 30
0.0
 10
112.5273813549
 20
62.0049841015
 30
0.0
 10
112.5302683995
 20
62.010932577
 30
0.0
  0
SPLINE
  5
549
100
AcDbEntity
  8
02___PRT_ALL_AXES
100
AcDbSpline
 62
3
  6
CONTINUOUS
 70
0
 71
3
 72
8
 73
4
 74
0
 42
0.0000001
 43
0.0000001
 44
0.0000000001
 40
0.0
 40
0.0
 40
0.0
 40
0.0
 40
1.0
 40
1.0
 40
1.0
 40
1.0
 10
112.7187762279
 20
63.4621065425
 30
0.0
 10
112.7124286325
 20
63.4618990172
 30
0.0
 10
112.7060312386
 20
63.4624380835
 30
0.0
 10
112.699777785
 20
63.4635468449
 30
0.0
  0
SPLINE
  5
54A
100
AcDbEntity
  8
02___PRT_ALL_AXES
100
AcDbSpline
 62
3
  6
CONTINUOUS
 70
0
 71
3
 72
8
 73
4
 74
0
 42
0.0000001
 43
0.0000001
 44
0.0000000001
 40
0.0
 40
0.0
 40
0.0
 40
0.0
 40
1.0
 40
1.0
 40
1.0
 40
1.0
 10
112.6956774319
 20
63.4643575861
 30
0.0
 10
112.6902463621
 20
63.4655411366
 30
0.0
 10
112.6848949587
 20
63.4671380609
 30
0.0
 10
112.6796758827
 20
63.4690507965
 30
0.0
  0
SPLINE
  5
54B
100
AcDbEntity
  8
02___PRT_ALL_AXES
100
AcDbSpline
 62
3
  6
CONTINUOUS
 70
0
 71
3
 72
11
 73
7
 74
0
 42
0.0000001
 43
0.0000001
 44
0.0000000001
 40
0.0
 40
0.0
 40
0.0
 40
0.0
 40
0.2376804896
 40
0.4989754942
 40
0.7608204143
 40
1.0
 40
1.0
 40
1.0
 40
1.0
 10
112.6511361468
 20
63.483039048
 30
0.0
 10
112.6329043659
 20
63.4941926582
 30
0.0
 10
112.5984221902
 20
63.5238900047
 30
0.0
 10
112.5576822485
 20
63.5794283577
 30
0.0
 10
112.5291198563
 20
63.6422544601
 30
0.0
 10
112.5199779271
 20
63.6870080973
 30
0.0
 10
112.5190663157
 20
63.7084964721
 30
0.0
  0
SPLINE
  5
54C
100
AcDbEntity
  8
0
100
AcDbSpline
 62
3
  6
CONTINUOUS
 70
0
 71
3
 72
17
 73
13
 74
0
 42
0.0000001
 43
0.0000001
 44
0.0000000001
 40
0.0
 40
0.0
 40
0.0
 40
0.0
 40
0.1270884067
 40
0.2666931534
 40
0.4121007668
 40
0.5555915144
 40
0.6897684447
 40
0.8089468554
 40
0.8621776008
 40
0.9112539544
 40
0.9568224109
 40
1.0
 40
1.0
 40
1.0
 40
1.0
 10
107.7771600191
 20
49.7420561738
 30
0.0
 10
107.6731775042
 20
49.6818210607
 30
0.0
 10
107.4383986255
 20
49.5834457819
 30
0.0
 10
107.0553292142
 20
49.5029495067
 30
0.0
 10
106.6486678351
 20
49.4862500516
 30
0.0
 10
106.2496701958
 20
49.5348297001
 30
0.0
 10
105.8888288647
 20
49.6448471026
 30
0.0
 10
105.6322811725
 20
49.7868884097
 30
0.0
 10
105.4747721074
 20
49.92610998
 30
0.0
 10
105.3864886065
 20
50.0355596204
 30
0.0
 10
105.3257134189
 20
50.1518857767
 30
0.0
 10
105.304425002
 20
50.2340246948
 30
0.0
 10
105.2991730495
 20
50.274512301
 30
0.0
  0
SPLINE
  5
54D
100
AcDbEntity
  8
02___PRT_ALL_AXES
100
AcDbSpline
 62
3
  6
CONTINUOUS
 70
0
 71
3
 72
8
 73
4
 74
0
 42
0.0000001
 43
0.0000001
 44
0.0000000001
 40
0.0
 40
0.0
 40
0.0
 40
0.0
 40
1.0
 40
1.0
 40
1.0
 40
1.0
 10
112.079264489
 20
58.8790694896
 30
0.0
 10
112.079264489
 20
58.8853532634
 30
0.0
 10
112.0796885326
 20
58.8916604839
 30
0.0
 10
112.0806553924
 20
58.8978694287
 30
0.0
  0
SPLINE
  5
54E
100
AcDbEntity
  8
02___PRT_ALL_AXES
100
AcDbSpline
 62
3
  6
CONTINUOUS
 70
0
 71
3
 72
8
 73
4
 74
0
 42
0.0000001
 43
0.0000001
 44
0.0000000001
 40
0.0
 40
0.0
 40
0.0
 40
0.0
 40
1.0
 40
1.0
 40
1.0
 40
1.0
 10
112.0816977061
 20
58.9035258692
 30
0.0
 10
112.0825004202
 20
58.9072770998
 30
0.0
 10
112.0835261992
 20
58.9109904213
 30
0.0
 10
112.0848083156
 20
58.9146059792
 30
0.0
  0
SPLINE
  5
54F
100
AcDbEntity
  8
02___PRT_ALL_AXES
100
AcDbSpline
 62
3
  6
CONTINUOUS
 70
0
 71
3
 72
13
 73
9
 74
0
 42
0.0000001
 43
0.0000001
 44
0.0000000001
 40
0.0
 40
0.0
 40
0.0
 40
0.0
 40
0.2697494249
 40
0.5609954948
 40
0.6950905606
 40
0.8127993231
 40
0.9126423265
 40
1.0
 40
1.0
 40
1.0
 40
1.0
 10
107.0190056961
 20
50.4939997463
 30
0.0
 10
106.9915428759
 20
50.5099084409
 30
0.0
 10
106.9258508479
 20
50.5277625476
 30
0.0
 10
106.8427637557
 20
50.5235367719
 30
0.0
 10
106.7817691398
 20
50.5031473411
 30
0.0
 10
106.7460940193
 20
50.4813230164
 30
0.0
 10
106.7219349545
 20
50.4537435848
 30
0.0
 10
106.7157592035
 20
50.4315151143
 30
0.0
 10
106.7157592012
 20
50.4212368814
 30
0.0
  0
SPLINE
  5
550
100
AcDbEntity
  8
02___PRT_ALL_AXES
100
AcDbSpline
 62
3
  6
CONTINUOUS
 70
0
 71
3
 72
8
 73
4
 74
0
 42
0.0000001
 43
0.0000001
 44
0.0000000001
 40
0.0
 40
0.0
 40
0.0
 40
0.0
 40
1.0
 40
1.0
 40
1.0
 40
1.0
 10
111.8280467098
 20
63.9718432897
 30
0.0
 10
111.8280467098
 20
63.9767339854
 30
0.0
 10
111.8284133422
 20
63.981648547
 30
0.0
 10
111.8292629602
 20
63.9864648789
 30
0.0
  0
SPLINE
  5
551
100
AcDbEntity
  8
02___PRT_ALL_AXES
100
AcDbSpline
 62
3
  6
CONTINUOUS
 70
0
 71
3
 72
8
 73
4
 74
0
 42
0.0000001
 43
0.0000001
 44
0.0000000001
 40
0.0
 40
0.0
 40
0.0
 40
0.0
 40
1.0
 40
1.0
 40
1.0
 40
1.0
 10
112.079264489
 20
66.1913434669
 30
0.0
 10
112.079264489
 20
66.1976272407
 30
0.0
 10
112.0796885326
 20
66.2039344612
 30
0.0
 10
112.0806553924
 20
66.210143406
 30
0.0
  0
SPLINE
  5
552
100
AcDbEntity
  8
02___PRT_ALL_AXES
100
AcDbSpline
 62
3
  6
CONTINUOUS
 70
0
 71
3
 72
8
 73
4
 74
0
 42
0.0000001
 43
0.0000001
 44
0.0000000001
 40
0.0
 40
0.0
 40
0.0
 40
0.0
 40
1.0
 40
1.0
 40
1.0
 40
1.0
 10
112.0816977061
 20
66.2157998465
 30
0.0
 10
112.0825004202
 20
66.2195510771
 30
0.0
 10
112.0835261992
 20
66.2232643986
 30
0.0
 10
112.0848083156
 20
66.2268799565
 30
0.0
  0
SPLINE
  5
553
100
AcDbEntity
  8
0
100
AcDbSpline
 62
3
  6
CONTINUOUS
 70
0
 71
3
 72
9
 73
5
 74
0
 42
0.0000001
 43
0.0000001
 44
0.0000000001
 40
0.0
 40
0.0
 40
0.0
 40
0.0
 40
0.2209695411
 40
1.0
 40
1.0
 40
1.0
 40
1.0
 10
113.6785705643
 20
69.3895835571
 30
0.0
 10
113.6792891083
 20
69.3891673261
 30
0.0
 10
113.6822276139
 20
69.3866912167
 30
0.0
 10
113.6830806615
 20
69.3825275566
 30
0.0
 10
113.6830806615
 20
69.3795999948
 30
0.0
  0
SPLINE
  5
554
100
AcDbEntity
  8
02___PRT_ALL_AXES
100
AcDbSpline
 62
3
  6
CONTINUOUS
 70
0
 71
3
 72
9
 73
5
 74
0
 42
0.0000001
 43
0.0000001
 44
0.0000000001
 40
0.0
 40
0.0
 40
0.0
 40
0.0
 40
0.4496354936
 40
1.0
 40
1.0
 40
1.0
 40
1.0
 10
107.0710344117
 20
50.4212368814
 30
0.0
 10
107.0710344149
 20
50.4351155101
 30
0.0
 10
107.058962011
 20
50.4660638335
 30
0.0
 10
107.0337052312
 20
50.4854845823
 30
0.0
 10
107.0190056961
 20
50.4939997463
 30
0.0
  0
SPLINE
  5
555
100
AcDbEntity
  8
02___PRT_ALL_AXES
100
AcDbSpline
 62
3
  6
CONTINUOUS
 70
0
 71
3
 72
8
 73
4
 74
0
 42
0.0000001
 43
0.0000001
 44
0.0000000001
 40
0.0
 40
0.0
 40
0.0
 40
0.0
 40
1.0
 40
1.0
 40
1.0
 40
1.0
 10
112.5196541652
 20
63.7325437257
 30
0.0
 10
112.5201502977
 20
63.7376529631
 30
0.0
 10
112.5209042896
 20
63.7427463606
 30
0.0
 10
112.5219595041
 20
63.7477700024
 30
0.0
  0
SPLINE
  5
556
100
AcDbEntity
  8
02___PRT_ALL_AXES
100
AcDbSpline
 62
3
  6
CONTINUOUS
 70
0
 71
3
 72
8
 73
4
 74
0
 42
0.0000001
 43
0.0000001
 44
0.0000000001
 40
0.0
 40
0.0
 40
0.0
 40
0.0
 40
1.0
 40
1.0
 40
1.0
 40
1.0
 10
112.5234397238
 20
63.754011809
 30
0.0
 10
112.5251354816
 20
63.7604027238
 30
0.0
 10
112.5273813549
 20
63.766687073
 30
0.0
 10
112.5302683995
 20
63.7726355484
 30
0.0
  0
SPLINE
  5
557
100
AcDbEntity
  8
02___PRT_ALL_AXES
100
AcDbSpline
 62
3
  6
CONTINUOUS
 70
0
 71
3
 72
8
 73
4
 74
0
 42
0.0000001
 43
0.0000001
 44
0.0000000001
 40
0.0
 40
0.0
 40
0.0
 40
0.0
 40
1.0
 40
1.0
 40
1.0
 40
1.0
 10
112.5196541652
 20
60.2091377828
 30
0.0
 10
112.5201502977
 20
60.2142470202
 30
0.0
 10
112.5209042896
 20
60.2193404178
 30
0.0
 10
112.5219595041
 20
60.2243640595
 30
0.0
  0
SPLINE
  5
558
100
AcDbEntity
  8
02___PRT_ALL_AXES
100
AcDbSpline
 62
3
  6
CONTINUOUS
 70
0
 71
3
 72
8
 73
4
 74
0
 42
0.0000001
 43
0.0000001
 44
0.0000000001
 40
0.0
 40
0.0
 40
0.0
 40
0.0
 40
1.0
 40
1.0
 40
1.0
 40
1.0
 10
112.5234397238
 20
60.2306058661
 30
0.0
 10
112.5251354816
 20
60.236996781
 30
0.0
 10
112.5273813549
 20
60.2432811301
 30
0.0
 10
112.5302683995
 20
60.2492296056
 30
0.0
  0
SPLINE
  5
559
100
AcDbEntity
  8
0
100
AcDbSpline
 62
3
  6
CONTINUOUS
 70
0
 71
3
 72
9
 73
5
 74
0
 42
0.0000001
 43
0.0000001
 44
0.0000000001
 40
0.0
 40
0.0
 40
0.0
 40
0.0
 40
0.2212120183
 40
1.0
 40
1.0
 40
1.0
 40
1.0
 10
113.6894975599
 20
69.3706259081
 30
0.0
 10
113.6894975599
 20
69.3714630662
 30
0.0
 10
113.6888248913
 20
69.3752734789
 30
0.0
 10
113.6856309259
 20
69.3781226746
 30
0.0
 10
113.6830806615
 20
69.3795999948
 30
0.0
  0
SPLINE
  5
55A
100
AcDbEntity
  8
02___PRT_ALL_AXES
100
AcDbSpline
 62
3
  6
CONTINUOUS
 70
0
 71
3
 72
8
 73
4
 74
0
 42
0.0000001
 43
0.0000001
 44
0.0000000001
 40
0.0
 40
0.0
 40
0.0
 40
0.0
 40
1.0
 40
1.0
 40
1.0
 40
1.0
 10
112.7187762279
 20
61.7004035711
 30
0.0
 10
112.7124286325
 20
61.7001960458
 30
0.0
 10
112.7060312386
 20
61.7007351121
 30
0.0
 10
112.699777785
 20
61.7018438734
 30
0.0
  0
SPLINE
  5
55B
100
AcDbEntity
  8
02___PRT_ALL_AXES
100
AcDbSpline
 62
3
  6
CONTINUOUS
 70
0
 71
3
 72
8
 73
4
 74
0
 42
0.0000001
 43
0.0000001
 44
0.0000000001
 40
0.0
 40
0.0
 40
0.0
 40
0.0
 40
1.0
 40
1.0
 40
1.0
 40
1.0
 10
112.6956774319
 20
61.7026546147
 30
0.0
 10
112.6902463621
 20
61.7038381651
 30
0.0
 10
112.6848949587
 20
61.7054350895
 30
0.0
 10
112.6796758827
 20
61.707347825
 30
0.0
  0
SPLINE
  5
55C
100
AcDbEntity
  8
02___PRT_ALL_AXES
100
AcDbSpline
 62
3
  6
CONTINUOUS
 70
0
 71
3
 72
11
 73
7
 74
0
 42
0.0000001
 43
0.0000001
 44
0.0000000001
 40
0.0
 40
0.0
 40
0.0
 40
0.0
 40
0.2376804896
 40
0.4989754942
 40
0.7608204143
 40
1.0
 40
1.0
 40
1.0
 40
1.0
 10
112.6511361468
 20
61.7213360766
 30
0.0
 10
112.6329043659
 20
61.7324896868
 30
0.0
 10
112.5984221902
 20
61.7621870333
 30
0.0
 10
112.5576822485
 20
61.8177253863
 30
0.0
 10
112.5291198563
 20
61.8805514887
 30
0.0
 10
112.5199779271
 20
61.9253051259
 30
0.0
 10
112.5190663157
 20
61.9467935006
 30
0.0
  0
SPLINE
  5
55D
100
AcDbEntity
  8
02___PRT_ALL_AXES
100
AcDbSpline
 62
3
  6
CONTINUOUS
 70
0
 71
3
 72
8
 73
4
 74
0
 42
0.0000001
 43
0.0000001
 44
0.0000000001
 40
0.0
 40
0.0
 40
0.0
 40
0.0
 40
1.0
 40
1.0
 40
1.0
 40
1.0
 10
111.8280467098
 20
60.7380323559
 30
0.0
 10
111.8280467098
 20
60.7429230515
 30
0.0
 10
111.8284133422
 20
60.7478376131
 30
0.0
 10
111.8292629602
 20
60.752653945
 30
0.0
  0
SPLINE
  5
55E
100
AcDbEntity
  8
02___PRT_ALL_AXES
100
AcDbSpline
 62
3
  6
CONTINUOUS
 70
0
 71
3
 72
8
 73
4
 74
0
 42
0.0000001
 43
0.0000001
 44
0.0000000001
 40
0.0
 40
0.0
 40
0.0
 40
0.0
 40
1.0
 40
1.0
 40
1.0
 40
1.0
 10
112.7187762279
 20
59.9387005996
 30
0.0
 10
112.7124286325
 20
59.9384930743
 30
0.0
 10
112.7060312386
 20
59.9390321407
 30
0.0
 10
112.699777785
 20
59.940140902
 30
0.0
  0
SPLINE
  5
55F
100
AcDbEntity
  8
02___PRT_ALL_AXES
100
AcDbSpline
 62
3
  6
CONTINUOUS
 70
0
 71
3
 72
8
 73
4
 74
0
 42
0.0000001
 43
0.0000001
 44
0.0000000001
 40
0.0
 40
0.0
 40
0.0
 40
0.0
 40
1.0
 40
1.0
 40
1.0
 40
1.0
 10
112.6956774319
 20
59.9409516433
 30
0.0
 10
112.6902463621
 20
59.9421351937
 30
0.0
 10
112.6848949587
 20
59.9437321181
 30
0.0
 10
112.6796758827
 20
59.9456448536
 30
0.0
  0
SPLINE
  5
560
100
AcDbEntity
  8
02___PRT_ALL_AXES
100
AcDbSpline
 62
3
  6
CONTINUOUS
 70
0
 71
3
 72
11
 73
7
 74
0
 42
0.0000001
 43
0.0000001
 44
0.0000000001
 40
0.0
 40
0.0
 40
0.0
 40
0.0
 40
0.2376804896
 40
0.4989754942
 40
0.7608204143
 40
1.0
 40
1.0
 40
1.0
 40
1.0
 10
112.6511361468
 20
59.9596331052
 30
0.0
 10
112.6329043659
 20
59.9707867153
 30
0.0
 10
112.5984221902
 20
60.0004840618
 30
0.0
 10
112.5576822485
 20
60.0560224149
 30
0.0
 10
112.5291198563
 20
60.1188485172
 30
0.0
 10
112.5199779271
 20
60.1636021545
 30
0.0
 10
112.5190663157
 20
60.1850905292
 30
0.0
  0
ENDSEC
  0
SECTION
  2
OBJECTS
  0
DICTIONARY
  5
C
100
AcDbDictionary
280
0
281
1
  3
ACAD_GROUP
350
D
  3
ACAD_MLINESTYLE
350
17
  3
ACAD_LAYOUT
350
1A
  3
ACAD_PLOTSETTINGS
350
19
  3
ACAD_PLOTSTYLENAME
350
E
  0
DICTIONARY
  5
D
102
{ACAD_REACTORS
330
C
102
}
100
AcDbDictionary
280
0
281
1
  0
ACDBDICTIONARYWDFLT
  5
E
102
{ACAD_REACTORS
330
C
102
}
100
AcDbDictionary
281
1
  3
Normal
350
F
100
AcDbDictionaryWithDefault
340
F
  0
DICTIONARY
  5
17
102
{ACAD_REACTORS
330
C
102
}
100
AcDbDictionary
280
0
281
1
  3
Standard
350
18
  0
DICTIONARY
  5
19
102
{ACAD_REACTORS
330
C
102
}
100
AcDbDictionary
281
1
  0
DICTIONARY
  5
1A
102
{ACAD_REACTORS
330
C
102
}
100
AcDbDictionary
281
1
  3
Model
350
561
  3
Layout1
350
562
  0
ACDBPLACEHOLDER
  5
F
102
{ACAD_REACTORS
330
E
102
}
  0
MLINESTYLE
  5
18
102
{ACAD_REACTORS
330
17
102
}
100
AcDbMlineStyle
  2
STANDARD
 70
0
  3

 62
256
 51
90.0
 52
90.0
 71
2
 49
0.5
 62
256
  6
BYLAYER
 49
-0.5
 62
256
  6
BYLAYER
  0
LAYOUT
  5
561
102
{ACAD_REACTORS
330
1A
102
}
100
AcDbPlotSettings
  1

  2
none_device
  4
ANSI_B_(17.00_x_11.00_Inches)
  6

 40
0.0
 41
0.0
 42
0.0
 43
0.0
 44
431.8
 45
279.4
 46
0.0
 47
0.0
 48
0.0
 49
0.0
140
0.0
141
0.0
142
1.0
143
1.0
 70
1024
 72
0
 73
0
 74
0
  7

 75
0
147
1.0
148
0.0
149
0.0
100
AcDbLayout
  1
Model
 70
0
 71
0
 10
0.0
 20
0.0
 11
17.0
 21
11.0
 12
0.0
 22
0.0
 32
0.0
 14
0.0
 24
0.0
 34
0.0
 15
0.0
 25
0.0
 35
0.0
146
0.0
 13
0.0
 23
0.0
 33
0.0
 16
1.0
 26
0.0
 36
0.0
 17
0.0
 27
1.0
 37
0.0
 76
0
330
226
345
0
346
0
  0
LAYOUT
  5
562
102
{ACAD_REACTORS
330
1A
102
}
100
AcDbPlotSettings
  1

  2
none_device
  4
ANSI_B_(17.00_x_11.00_Inches)
  6

 40
0.0
 41
0.0
 42
0.0
 43
0.0
 44
431.8
 45
279.4
 46
0.0
 47
0.0
 48
0.0
 49
0.0
140
0.0
141
0.0
142
1.0
143
1.0
 70
0
 72
0
 73
0
 74
0
  7

 75
0
147
1.0
148
0.0
149
0.0
100
AcDbLayout
  1
Layout1
 70
0
 71
1
 10
0.0
 20
0.0
 11
17.0
 21
11.0
 12
0.0
 22
0.0
 32
0.0
 14
0.0
 24
0.0
 34
0.0
 15
0.0
 25
0.0
 35
0.0
146
0.0
 13
0.0
 23
0.0
 33
0.0
 16
1.0
 26
0.0
 36
0.0
 17
0.0
 27
1.0
 37
0.0
 76
0
330
227
345
0
346
0
  0
ENDSEC
  0
EOF
