999
DXF file: fg-012230-2d-B.dxf
999
Pro/ENGINEER 2016130 by Parametric Technology Corporation
  0
SECTION
  2
HEADER
  9
$ACADVER
  1
AC1015
  9
$DWGCODEPAGE
  3
ANSI_1252
  9
$EXTMAX
 10
155.9633027523
 20
100.9174311927
 30
0.0
  9
$EXTMIN
 10
0.0
 20
-0.0
 30
0.0
  9
$LIMMIN
 10
0.0
 20
-0.0
  9
$LIMMAX
 10
155.9633027523
 20
100.9174311927
  9
$VIEWCTR
 10
77.9816513761
 20
50.4587155963
  9
$VIEWSIZE
 40
100.9174311927
  9
$CLAYER
  8
0
  9
$LTSCALE
 40
8.5779816514
  9
$CELTYPE
  6
BYLAYER
  9
$DIMSCALE
 40
1.0
  9
$DIMASZ
 40
1.7201834862
  9
$DIMEXO
 40
0.0625
  9
$DIMDLI
 40
5.9266055046
  9
$DIMEXE
 40
0.125
  9
$DIMCEN
 40
1.4036697248
  9
$DIMLFAC
 40
1.0
  9
$DIMBLK
  1
_FILLED
  9
$DIMALT
 70
0
  9
$DIMALTF
 40
25.4
  9
$DIMTXT
 40
1.4334862385
  9
$DIMTOL
 70
1
  9
$DIMLIM
 70
0
  9
$DIMTFAC
 40
1.0
  9
$DIMTP
 40
0.01
  9
$DIMTM
 40
0.01
  9
$DIMGAP
 40
0.09
  9
$DIMDSEP
 70
46
  9
$AUNITS
 70
0
  9
$PDMODE
 70
3
  9
$PDSIZE
 40
0.3125
  9
$HANDSEED
  5
6FA
  9
$TILEMODE
 70
1
  9
$MEASUREMENT
 70
0
  9
$INSUNITS
 70
1
  0
ENDSEC
  0
SECTION
  2
CLASSES
  0
CLASS
  1
ACDBDICTIONARYWDFLT
  2
AcDbDictionaryWithDefault
  3
AutoCAD 2000
 90
0
280
0
281
0
  0
CLASS
  1
ACDBPLACEHOLDER
  2
AcDbPlaceHolder
  3
AutoCAD 2000
 90
0
280
0
281
0
  0
CLASS
  1
LAYOUT
  2
AcDbLayout
  3
AutoCAD 2000
 90
0
280
0
281
0
  0
ENDSEC
  0
SECTION
  2
TABLES
  0
TABLE
  2
VPORT
  5
8
100
AcDbSymbolTable
 70
2
  0
VPORT
  5
1F4
100
AcDbSymbolTableRecord
100
AcDbViewportTableRecord
  2
*ACTIVE
 70
0
 10
0.0
 20
0.0
 11
1.0
 21
1.0
 12
77.9816513761
 22
50.4587155963
 13
0.0
 23
0.0
 14
1.0
 24
1.0
 15
0.0
 25
0.0
 16
0.0
 26
0.0
 36
1.0
 17
0.0
 27
0.0
 37
0.0
 40
100.9174311927
 41
1.5454545455
 42
50.0
 43
0.0
 44
0.0
 50
0.0
 51
0.0
 71
0
 72
100
 73
1
 74
1
 75
0
 76
0
 77
0
 78
0
  0
ENDTAB
  0
TABLE
  2
LTYPE
  5
5
100
AcDbSymbolTable
 70
6
  0
LTYPE
  5
14
100
AcDbSymbolTableRecord
100
AcDbLinetypeTableRecord
  2
BYBLOCK
 70
0
  3

 72
65
 73
0
 40
0.0
  0
LTYPE
  5
15
100
AcDbSymbolTableRecord
100
AcDbLinetypeTableRecord
  2
BYLAYER
 70
0
  3

 72
65
 73
0
 40
0.0
  0
LTYPE
  5
16
100
AcDbSymbolTableRecord
100
AcDbLinetypeTableRecord
  2
CONTINUOUS
 70
64
  3
Solid line
 72
65
 73
0
 40
0.0
  0
LTYPE
  5
1F5
100
AcDbSymbolTableRecord
100
AcDbLinetypeTableRecord
  2
CENTER
 70
64
  3
____ _ ____ _ ____ _ ____ _ ____ _ ____ _ ____
 72
65
 73
4
 40
0.6
 49
0.375
 74
0
 49
-0.075
 74
0
 49
0.075
 74
0
 49
-0.075
 74
0
  0
LTYPE
  5
1F6
100
AcDbSymbolTableRecord
100
AcDbLinetypeTableRecord
  2
HIDDEN
 70
64
  3
- - - - - - - - - - - - - - - - - - - -
 72
65
 73
2
 40
0.2
 49
0.1
 74
0
 49
-0.1
 74
0
  0
LTYPE
  5
1F7
100
AcDbSymbolTableRecord
100
AcDbLinetypeTableRecord
  2
PHANTOM
 70
64
  3
_____ _ _ _____ _ _ _____ _ _ _____
 72
65
 73
6
 40
0.8
 49
0.45
 74
0
 49
-0.05
 74
0
 49
0.1
 74
0
 49
-0.05
 74
0
 49
0.1
 74
0
 49
-0.05
 74
0
  0
LTYPE
  5
1F8
100
AcDbSymbolTableRecord
100
AcDbLinetypeTableRecord
  2
DOT
 70
64
  3
. . . . . . . . . . . . . . . . . . . .
 72
65
 73
2
 40
0.2
 49
0.1
 74
0
 49
-0.1
 74
0
  0
LTYPE
  5
1F9
100
AcDbSymbolTableRecord
100
AcDbLinetypeTableRecord
  2
DASHED
 70
64
  3
- - - - - - - - - - - - - - - - - - - -
 72
65
 73
2
 40
0.2
 49
0.1
 74
0
 49
-0.1
 74
0
  0
ENDTAB
  0
TABLE
  2
LAYER
  5
2
100
AcDbSymbolTable
 70
36
  0
LAYER
  5
10
100
AcDbSymbolTableRecord
100
AcDbLayerTableRecord
  2
0
 70
0
 62
7
  6
CONTINUOUS
370
-3
390
F
  0
LAYER
  5
1FA
100
AcDbSymbolTableRecord
100
AcDbLayerTableRecord
  2
DEFAULT_1
 70
0
 62
7
  6
CENTER
370
-3
390
F
  0
LAYER
  5
1FB
100
AcDbSymbolTableRecord
100
AcDbLayerTableRecord
  2
DEFAULT_2
 70
0
 62
8
  6
HIDDEN
370
-3
390
F
  0
LAYER
  5
1FC
100
AcDbSymbolTableRecord
100
AcDbLayerTableRecord
  2
DEFAULT_3
 70
0
 62
7
  6
PHANTOM
370
-3
390
F
  0
LAYER
  5
1FD
100
AcDbSymbolTableRecord
100
AcDbLayerTableRecord
  2
0_SNAPLINES
 70
0
 62
7
  6
CONTINUOUS
370
-3
390
F
  0
LAYER
  5
1FE
100
AcDbSymbolTableRecord
100
AcDbLayerTableRecord
  2
1_ALL_PLANES
 70
0
 62
7
  6
CONTINUOUS
370
-3
390
F
  0
LAYER
  5
1FF
100
AcDbSymbolTableRecord
100
AcDbLayerTableRecord
  2
1__DEF_PLANES
 70
0
 62
7
  6
CONTINUOUS
370
-3
390
F
  0
LAYER
  5
200
100
AcDbSymbolTableRecord
100
AcDbLayerTableRecord
  2
2_ALL_CSYS
 70
0
 62
7
  6
CONTINUOUS
370
-3
390
F
  0
LAYER
  5
201
100
AcDbSymbolTableRecord
100
AcDbLayerTableRecord
  2
2__DEF_CSYS
 70
0
 62
7
  6
CONTINUOUS
370
-3
390
F
  0
LAYER
  5
202
100
AcDbSymbolTableRecord
100
AcDbLayerTableRecord
  2
3_ALL_AXES
 70
0
 62
7
  6
CONTINUOUS
370
-3
390
F
  0
LAYER
  5
203
100
AcDbSymbolTableRecord
100
AcDbLayerTableRecord
  2
3_AXES_OTHER
 70
0
 62
7
  6
CONTINUOUS
370
-3
390
F
  0
LAYER
  5
204
100
AcDbSymbolTableRecord
100
AcDbLayerTableRecord
  2
3_HOLES
 70
0
 62
7
  6
CONTINUOUS
370
-3
390
F
  0
LAYER
  5
205
100
AcDbSymbolTableRecord
100
AcDbLayerTableRecord
  2
4_ALL_POINTS
 70
0
 62
7
  6
CONTINUOUS
370
-3
390
F
  0
LAYER
  5
206
100
AcDbSymbolTableRecord
100
AcDbLayerTableRecord
  2
5_ALL_CURVES
 70
0
 62
7
  6
CONTINUOUS
370
-3
390
F
  0
LAYER
  5
207
100
AcDbSymbolTableRecord
100
AcDbLayerTableRecord
  2
6_ALL_SURFS
 70
0
 62
7
  6
CONTINUOUS
370
-3
390
F
  0
LAYER
  5
208
100
AcDbSymbolTableRecord
100
AcDbLayerTableRecord
  2
6_COPYGEOM
 70
0
 62
7
  6
CONTINUOUS
370
-3
390
F
  0
LAYER
  5
209
100
AcDbSymbolTableRecord
100
AcDbLayerTableRecord
  2
7_ALL_ROUNDS
 70
0
 62
7
  6
CONTINUOUS
370
-3
390
F
  0
LAYER
  5
20A
100
AcDbSymbolTableRecord
100
AcDbLayerTableRecord
  2
7_MERGES
 70
0
 62
7
  6
CONTINUOUS
370
-3
390
F
  0
LAYER
  5
20B
100
AcDbSymbolTableRecord
100
AcDbLayerTableRecord
  2
8_GDT
 70
0
 62
7
  6
CONTINUOUS
370
-3
390
F
  0
LAYER
  5
20C
100
AcDbSymbolTableRecord
100
AcDbLayerTableRecord
  2
8_SET_DATUMS
 70
0
 62
7
  6
CONTINUOUS
370
-3
390
F
  0
LAYER
  5
20D
100
AcDbSymbolTableRecord
100
AcDbLayerTableRecord
  2
9_COSMETICS
 70
0
 62
7
  6
CONTINUOUS
370
-3
390
F
  0
LAYER
  5
20E
100
AcDbSymbolTableRecord
100
AcDbLayerTableRecord
  2
9_THREADS
 70
0
 62
7
  6
CONTINUOUS
370
-3
390
F
  0
ENDTAB
  0
TABLE
  2
STYLE
  5
3
100
AcDbSymbolTable
 70
1
  0
STYLE
  5
11
100
AcDbSymbolTableRecord
100
AcDbTextStyleTableRecord
  2
STANDARD
 70
0
 40
0.0
 41
0.8
 50
0.0
 71
0
 42
0.2
  3
txt
  4

  0
STYLE
  5
20F
100
AcDbSymbolTableRecord
100
AcDbTextStyleTableRecord
  2
TEXTSTYLE_1
 70
0
 40
0.0
 41
0.8
 50
0.0
 71
0
 42
0.2
  3
gdt
  4

  0
ENDTAB
  0
TABLE
  2
VIEW
  5
6
100
AcDbSymbolTable
 70
0
  0
ENDTAB
  0
TABLE
  2
UCS
  5
7
100
AcDbSymbolTable
 70
0
  0
ENDTAB
  0
TABLE
  2
APPID
  5
9
100
AcDbSymbolTable
 70
1
  0
APPID
  5
210
100
AcDbSymbolTableRecord
100
AcDbRegAppTableRecord
  2
ACAD
 70
0
  0
ENDTAB
  0
TABLE
  2
BLOCK_RECORD
  5
1
100
AcDbSymbolTable
 70
0
  0
BLOCK_RECORD
  5
211
100
AcDbSymbolTableRecord
100
AcDbBlockTableRecord
  2
*Model_Space
  0
BLOCK_RECORD
  5
212
100
AcDbSymbolTableRecord
100
AcDbBlockTableRecord
  2
*Paper_Space
  0
BLOCK_RECORD
  5
213
100
AcDbSymbolTableRecord
100
AcDbBlockTableRecord
  2
_FILLED
  0
BLOCK_RECORD
  5
214
100
AcDbSymbolTableRecord
100
AcDbBlockTableRecord
  2
*D0
  0
BLOCK_RECORD
  5
215
100
AcDbSymbolTableRecord
100
AcDbBlockTableRecord
  2
*D1
  0
BLOCK_RECORD
  5
216
100
AcDbSymbolTableRecord
100
AcDbBlockTableRecord
  2
*D2
  0
BLOCK_RECORD
  5
217
100
AcDbSymbolTableRecord
100
AcDbBlockTableRecord
  2
*D3
  0
BLOCK_RECORD
  5
218
100
AcDbSymbolTableRecord
100
AcDbBlockTableRecord
  2
*D4
  0
BLOCK_RECORD
  5
219
100
AcDbSymbolTableRecord
100
AcDbBlockTableRecord
  2
*D5
  0
BLOCK_RECORD
  5
21A
100
AcDbSymbolTableRecord
100
AcDbBlockTableRecord
  2
*D6
  0
BLOCK_RECORD
  5
21B
100
AcDbSymbolTableRecord
100
AcDbBlockTableRecord
  2
CG_3D_BL3
  0
BLOCK_RECORD
  5
21C
100
AcDbSymbolTableRecord
100
AcDbBlockTableRecord
  2
CG_3D_BL2
  0
BLOCK_RECORD
  5
21D
100
AcDbSymbolTableRecord
100
AcDbBlockTableRecord
  2
CG_3D_BL1
  0
BLOCK_RECORD
  5
21E
100
AcDbSymbolTableRecord
100
AcDbBlockTableRecord
  2
RD010411_BL0
  0
ENDTAB
  0
TABLE
  2
DIMSTYLE
  5
A
100
AcDbSymbolTable
 70
1
100
AcDbDimStyleTable
 71
0
  0
DIMSTYLE
105
21F
100
AcDbSymbolTableRecord
100
AcDbDimStyleTableRecord
  2
STANDARD
 70
0
  3

  4

 40
1.0
 41
1.7201834862
 42
0.0625
 43
0.38
 44
0.125
 45
0.0
 46
0.0
 47
0.01
 48
0.01
140
1.4334862385
141
0.09
142
0.0
143
25.4
144
1.0
145
0.0
146
1.0
147
0.09
 71
1.0
 72
0.0
 73
1
 74
1
 75
0
 76
0
 77
0
 78
4
170
0
171
2
172
0
173
0
174
0
175
0
176
0
177
0
178
0
270
2
271
3
272
3
273
2
274
2
275
0
280
0
281
0
282
0
283
1
284
4
285
0
286
0
287
3
288
0
340
11
278
46
341
213
342
213
343
213
344
213
  0
DIMSTYLE
105
220
100
AcDbSymbolTableRecord
100
AcDbDimStyleTableRecord
  2
DIMSTYLE_1
 70
0
  3

  4

 40
1.0
 41
1.7201834862
 42
0.0625
 43
0.38
 44
0.125
 45
0.0
 46
0.0
 47
0.01
 48
0.01
140
1.4334862385
141
0.09
142
0.0
143
25.4
144
1.0
145
0.0
146
1.0
147
0.078125
 71
0.0
 72
0.0
 73
1
 74
1
 75
0
 76
0
 77
0
 78
4
170
0
171
2
172
0
173
0
174
0
175
0
176
0
177
0
178
0
270
2
271
0
272
0
273
2
274
2
275
0
280
0
281
0
282
0
283
1
284
4
285
0
286
0
287
3
288
0
340
11
278
46
341
213
342
213
343
213
344
213
  0
DIMSTYLE
105
221
100
AcDbSymbolTableRecord
100
AcDbDimStyleTableRecord
  2
DIMSTYLE_2
 70
0
  3

  4

 40
1.0
 41
1.7201834862
 42
0.0625
 43
0.38
 44
0.125
 45
0.0
 46
0.0
 47
0.01
 48
0.01
140
1.4334862385
141
0.09
142
0.0
143
25.4
144
1.0
145
0.0
146
1.0
147
0.078125
 71
0.0
 72
0.0
 73
1
 74
1
 75
0
 76
0
 77
0
 78
4
170
0
171
2
172
0
173
0
174
0
175
0
176
0
177
0
178
0
270
2
271
1
272
1
273
2
274
2
275
0
280
0
281
0
282
0
283
1
284
4
285
0
286
0
287
3
288
0
340
11
278
46
341
213
342
213
343
213
344
213
  0
ENDTAB
  0
ENDSEC
  0
SECTION
  2
BLOCKS
  0
BLOCK
  5
20
100
AcDbEntity
  8
0
100
AcDbBlockBegin
  2
*Model_Space
 70
0
 10
0.0
 20
0.0
 30
0.0
  3
*Model_Space
  1

  0
ENDBLK
  5
21
100
AcDbEntity
  8
0
100
AcDbBlockEnd
  0
BLOCK
  5
1C
100
AcDbEntity
  8
0
100
AcDbBlockBegin
  2
*Paper_Space
 70
0
 10
0.0
 20
0.0
 30
0.0
  3
*Paper_Space
  1

  0
ENDBLK
  5
1D
100
AcDbEntity
  8
0
100
AcDbBlockEnd
  0
BLOCK
  5
222
100
AcDbEntity
  8
0
100
AcDbBlockBegin
 62
2
  6
CONTINUOUS
  2
CG_3D_BL3
 70
64
 10
81.395989198
 20
45.715149001
  3
CG_3D_BL3
  1

  0
ARC
  5
223
100
AcDbEntity
  8
0
100
AcDbCircle
 62
7
  6
CONTINUOUS
 10
81.395989198
 20
45.715149001
 40
0.6422018349
100
AcDbArc
 50
90.0
 51
180.0
  0
ARC
  5
224
100
AcDbEntity
  8
0
100
AcDbCircle
 62
7
  6
CONTINUOUS
 10
81.395989198
 20
45.715149001
 40
0.6422018349
100
AcDbArc
 50
180.0
 51
270.0
  0
ARC
  5
225
100
AcDbEntity
  8
0
100
AcDbCircle
 62
7
  6
CONTINUOUS
 10
81.395989198
 20
45.715149001
 40
0.6422018349
100
AcDbArc
 50
270.0
 51
360.0
  0
ARC
  5
226
100
AcDbEntity
  8
0
100
AcDbCircle
 62
7
  6
CONTINUOUS
 10
81.395989198
 20
45.715149001
 40
0.6422018349
100
AcDbArc
 50
0.0
 51
90.0
  0
LINE
  5
227
100
AcDbEntity
  8
0
100
AcDbLine
 62
7
  6
CONTINUOUS
 10
81.395989198
 20
45.715149001
 11
82.0381910329
 21
45.715149001
  0
LINE
  5
228
100
AcDbEntity
  8
0
100
AcDbLine
 62
7
  6
CONTINUOUS
 10
81.395989198
 20
45.715149001
 11
81.395989198
 21
45.0729471662
  0
LINE
  5
229
100
AcDbEntity
  8
0
100
AcDbLine
 62
7
  6
CONTINUOUS
 10
80.7537873631
 20
45.715149001
 11
81.395989198
 21
45.715149001
  0
LINE
  5
22A
100
AcDbEntity
  8
0
100
AcDbLine
 62
7
  6
CONTINUOUS
 10
81.395989198
 20
46.3573508359
 11
81.395989198
 21
45.715149001
  0
LINE
  5
22B
100
AcDbEntity
  8
0
100
AcDbLine
 62
2
  6
CONTINUOUS
 10
81.395989198
 20
45.7109164675
 11
81.4002217315
 21
45.715149001
  0
LWPOLYLINE
  5
22C
100
AcDbEntity
  8
0
100
AcDbPolyline
 62
7
  6
CONTINUOUS
 90
8
 70
0
 10
81.395989198
 20
45.715149001
 10
81.395989198
 20
45.0729471662
 10
81.5944404788
 20
45.1043787612
 10
81.7734659655
 20
45.1955968028
 10
81.9155413962
 20
45.3376722335
 10
82.0067594378
 20
45.5166977202
 10
82.0381910329
 20
45.715149001
 10
81.395989198
 20
45.715149001
  0
HATCH
  5
22D
100
AcDbEntity
  8
0
100
AcDbHatch
 62
7
  6
CONTINUOUS
 10
0.0
 20
0.0
 30
0.0
210
0.0
220
0.0
230
1.0
  2
SOLID
 70
1
 71
1
 91
1
 92
1
 93
7
 72
1
 10
81.395989198
 20
45.715149001
 11
81.395989198
 21
45.0729471662
 72
1
 10
81.395989198
 20
45.0729471662
 11
81.5944404788
 21
45.1043787612
 72
1
 10
81.5944404788
 20
45.1043787612
 11
81.7734659655
 21
45.1955968028
 72
1
 10
81.7734659655
 20
45.1955968028
 11
81.9155413962
 21
45.3376722335
 72
1
 10
81.9155413962
 20
45.3376722335
 11
82.0067594378
 21
45.5166977202
 72
1
 10
82.0067594378
 20
45.5166977202
 11
82.0381910329
 21
45.715149001
 72
1
 10
82.0381910329
 20
45.715149001
 11
81.395989198
 21
45.715149001
 97
1
330
22C
 75
0
 76
1
 98
1
 10
0.0
 20
0.0
  0
LWPOLYLINE
  5
22E
100
AcDbEntity
  8
0
100
AcDbPolyline
 62
7
  6
CONTINUOUS
 90
8
 70
0
 10
81.395989198
 20
45.715149001
 10
80.7537873631
 20
45.715149001
 10
80.7852189582
 20
45.9136002818
 10
80.8764369998
 20
46.0926257686
 10
81.0185124305
 20
46.2347011993
 10
81.1975379172
 20
46.3259192409
 10
81.395989198
 20
46.3573508359
 10
81.395989198
 20
45.715149001
  0
HATCH
  5
22F
100
AcDbEntity
  8
0
100
AcDbHatch
 62
7
  6
CONTINUOUS
 10
0.0
 20
0.0
 30
0.0
210
0.0
220
0.0
230
1.0
  2
SOLID
 70
1
 71
1
 91
1
 92
1
 93
7
 72
1
 10
81.395989198
 20
45.715149001
 11
80.7537873631
 21
45.715149001
 72
1
 10
80.7537873631
 20
45.715149001
 11
80.7852189582
 21
45.9136002818
 72
1
 10
80.7852189582
 20
45.9136002818
 11
80.8764369998
 21
46.0926257686
 72
1
 10
80.8764369998
 20
46.0926257686
 11
81.0185124305
 21
46.2347011993
 72
1
 10
81.0185124305
 20
46.2347011993
 11
81.1975379172
 21
46.3259192409
 72
1
 10
81.1975379172
 20
46.3259192409
 11
81.395989198
 21
46.3573508359
 72
1
 10
81.395989198
 20
46.3573508359
 11
81.395989198
 21
45.715149001
 97
1
330
22E
 75
0
 76
1
 98
1
 10
0.0
 20
0.0
  0
ENDBLK
  5
230
100
AcDbEntity
  8
0
  6
BYBLOCK
 62
0
100
AcDbBlockEnd
  0
BLOCK
  5
231
100
AcDbEntity
  8
0
100
AcDbBlockBegin
 62
2
  6
CONTINUOUS
  2
CG_3D_BL2
 70
64
 10
42.8237786228
 20
45.7277050224
  3
CG_3D_BL2
  1

  0
ARC
  5
232
100
AcDbEntity
  8
0
100
AcDbCircle
 62
7
  6
CONTINUOUS
 10
42.8237786228
 20
45.7277050224
 40
0.6422018349
100
AcDbArc
 50
90.0
 51
180.0
  0
ARC
  5
233
100
AcDbEntity
  8
0
100
AcDbCircle
 62
7
  6
CONTINUOUS
 10
42.8237786228
 20
45.7277050224
 40
0.6422018349
100
AcDbArc
 50
180.0
 51
270.0
  0
ARC
  5
234
100
AcDbEntity
  8
0
100
AcDbCircle
 62
7
  6
CONTINUOUS
 10
42.8237786228
 20
45.7277050224
 40
0.6422018349
100
AcDbArc
 50
270.0
 51
360.0
  0
ARC
  5
235
100
AcDbEntity
  8
0
100
AcDbCircle
 62
7
  6
CONTINUOUS
 10
42.8237786228
 20
45.7277050224
 40
0.6422018349
100
AcDbArc
 50
0.0
 51
90.0
  0
LINE
  5
236
100
AcDbEntity
  8
0
100
AcDbLine
 62
7
  6
CONTINUOUS
 10
42.8237786228
 20
45.7277050224
 11
43.4659804577
 21
45.7277050224
  0
LINE
  5
237
100
AcDbEntity
  8
0
100
AcDbLine
 62
7
  6
CONTINUOUS
 10
42.8237786228
 20
45.7277050224
 11
42.8237786228
 21
45.0855031876
  0
LINE
  5
238
100
AcDbEntity
  8
0
100
AcDbLine
 62
7
  6
CONTINUOUS
 10
42.1815767879
 20
45.7277050224
 11
42.8237786228
 21
45.7277050224
  0
LINE
  5
239
100
AcDbEntity
  8
0
100
AcDbLine
 62
7
  6
CONTINUOUS
 10
42.8237786228
 20
46.3699068573
 11
42.8237786228
 21
45.7277050224
  0
LINE
  5
23A
100
AcDbEntity
  8
0
100
AcDbLine
 62
2
  6
CONTINUOUS
 10
42.8237786228
 20
45.7234724889
 11
42.8280111563
 21
45.7277050224
  0
LWPOLYLINE
  5
23B
100
AcDbEntity
  8
0
100
AcDbPolyline
 62
7
  6
CONTINUOUS
 90
8
 70
0
 10
42.8237786228
 20
45.7277050224
 10
42.8237786228
 20
45.0855031876
 10
43.0222299036
 20
45.1169347826
 10
43.2012553903
 20
45.2081528242
 10
43.343330821
 20
45.3502282549
 10
43.4345488626
 20
45.5292537417
 10
43.4659804577
 20
45.7277050224
 10
42.8237786228
 20
45.7277050224
  0
HATCH
  5
23C
100
AcDbEntity
  8
0
100
AcDbHatch
 62
7
  6
CONTINUOUS
 10
0.0
 20
0.0
 30
0.0
210
0.0
220
0.0
230
1.0
  2
SOLID
 70
1
 71
1
 91
1
 92
1
 93
7
 72
1
 10
42.8237786228
 20
45.7277050224
 11
42.8237786228
 21
45.0855031876
 72
1
 10
42.8237786228
 20
45.0855031876
 11
43.0222299036
 21
45.1169347826
 72
1
 10
43.0222299036
 20
45.1169347826
 11
43.2012553903
 21
45.2081528242
 72
1
 10
43.2012553903
 20
45.2081528242
 11
43.343330821
 21
45.3502282549
 72
1
 10
43.343330821
 20
45.3502282549
 11
43.4345488626
 21
45.5292537417
 72
1
 10
43.4345488626
 20
45.5292537417
 11
43.4659804577
 21
45.7277050224
 72
1
 10
43.4659804577
 20
45.7277050224
 11
42.8237786228
 21
45.7277050224
 97
1
330
23B
 75
0
 76
1
 98
1
 10
0.0
 20
0.0
  0
LWPOLYLINE
  5
23D
100
AcDbEntity
  8
0
100
AcDbPolyline
 62
7
  6
CONTINUOUS
 90
8
 70
0
 10
42.8237786228
 20
45.7277050224
 10
42.1815767879
 20
45.7277050224
 10
42.213008383
 20
45.9261563032
 10
42.3042264246
 20
46.10518179
 10
42.4463018553
 20
46.2472572207
 10
42.625327342
 20
46.3384752623
 10
42.8237786228
 20
46.3699068573
 10
42.8237786228
 20
45.7277050224
  0
HATCH
  5
23E
100
AcDbEntity
  8
0
100
AcDbHatch
 62
7
  6
CONTINUOUS
 10
0.0
 20
0.0
 30
0.0
210
0.0
220
0.0
230
1.0
  2
SOLID
 70
1
 71
1
 91
1
 92
1
 93
7
 72
1
 10
42.8237786228
 20
45.7277050224
 11
42.1815767879
 21
45.7277050224
 72
1
 10
42.1815767879
 20
45.7277050224
 11
42.213008383
 21
45.9261563032
 72
1
 10
42.213008383
 20
45.9261563032
 11
42.3042264246
 21
46.10518179
 72
1
 10
42.3042264246
 20
46.10518179
 11
42.4463018553
 21
46.2472572207
 72
1
 10
42.4463018553
 20
46.2472572207
 11
42.625327342
 21
46.3384752623
 72
1
 10
42.625327342
 20
46.3384752623
 11
42.8237786228
 21
46.3699068573
 72
1
 10
42.8237786228
 20
46.3699068573
 11
42.8237786228
 21
45.7277050224
 97
1
330
23D
 75
0
 76
1
 98
1
 10
0.0
 20
0.0
  0
ENDBLK
  5
23F
100
AcDbEntity
  8
0
  6
BYBLOCK
 62
0
100
AcDbBlockEnd
  0
BLOCK
  5
240
100
AcDbEntity
  8
0
100
AcDbBlockBegin
 62
2
  6
CONTINUOUS
  2
CG_3D_BL1
 70
64
 10
16.4493085522
 20
19.0244952412
  3
CG_3D_BL1
  1

  0
ARC
  5
241
100
AcDbEntity
  8
0
100
AcDbCircle
 62
7
  6
CONTINUOUS
 10
16.4493085522
 20
19.0244952412
 40
0.8623853211
100
AcDbArc
 50
90.0
 51
180.0
  0
ARC
  5
242
100
AcDbEntity
  8
0
100
AcDbCircle
 62
7
  6
CONTINUOUS
 10
16.4493085522
 20
19.0244952412
 40
0.8623853211
100
AcDbArc
 50
180.0
 51
270.0
  0
ARC
  5
243
100
AcDbEntity
  8
0
100
AcDbCircle
 62
7
  6
CONTINUOUS
 10
16.4493085522
 20
19.0244952412
 40
0.8623853211
100
AcDbArc
 50
270.0
 51
360.0
  0
ARC
  5
244
100
AcDbEntity
  8
0
100
AcDbCircle
 62
7
  6
CONTINUOUS
 10
16.4493085522
 20
19.0244952412
 40
0.8623853211
100
AcDbArc
 50
0.0
 51
90.0
  0
LINE
  5
245
100
AcDbEntity
  8
0
100
AcDbLine
 62
7
  6
CONTINUOUS
 10
16.4493085522
 20
19.0244952412
 11
17.3116938733
 21
19.0244952412
  0
LINE
  5
246
100
AcDbEntity
  8
0
100
AcDbLine
 62
7
  6
CONTINUOUS
 10
16.4493085522
 20
19.0244952412
 11
16.4493085522
 21
18.1621099201
  0
LINE
  5
247
100
AcDbEntity
  8
0
100
AcDbLine
 62
7
  6
CONTINUOUS
 10
15.5869232311
 20
19.0244952412
 11
16.4493085522
 21
19.0244952412
  0
LINE
  5
248
100
AcDbEntity
  8
0
100
AcDbLine
 62
7
  6
CONTINUOUS
 10
16.4493085522
 20
19.8868805623
 11
16.4493085522
 21
19.0244952412
  0
LINE
  5
249
100
AcDbEntity
  8
0
100
AcDbLine
 62
2
  6
CONTINUOUS
 10
16.4493085522
 20
19.0188115533
 11
16.4549922401
 21
19.0244952412
  0
LWPOLYLINE
  5
24A
100
AcDbEntity
  8
0
100
AcDbPolyline
 62
7
  6
CONTINUOUS
 90
8
 70
0
 10
16.4493085522
 20
19.0244952412
 10
16.4493085522
 20
18.1621099201
 10
16.7158002721
 20
18.204318062
 10
16.9562059257
 20
18.3268108608
 10
17.1469929326
 20
18.5175978677
 10
17.2694857314
 20
18.7580035213
 10
17.3116938733
 20
19.0244952412
 10
16.4493085522
 20
19.0244952412
  0
HATCH
  5
24B
100
AcDbEntity
  8
0
100
AcDbHatch
 62
7
  6
CONTINUOUS
 10
0.0
 20
0.0
 30
0.0
210
0.0
220
0.0
230
1.0
  2
SOLID
 70
1
 71
1
 91
1
 92
1
 93
7
 72
1
 10
16.4493085522
 20
19.0244952412
 11
16.4493085522
 21
18.1621099201
 72
1
 10
16.4493085522
 20
18.1621099201
 11
16.7158002721
 21
18.204318062
 72
1
 10
16.7158002721
 20
18.204318062
 11
16.9562059257
 21
18.3268108608
 72
1
 10
16.9562059257
 20
18.3268108608
 11
17.1469929326
 21
18.5175978677
 72
1
 10
17.1469929326
 20
18.5175978677
 11
17.2694857314
 21
18.7580035213
 72
1
 10
17.2694857314
 20
18.7580035213
 11
17.3116938733
 21
19.0244952412
 72
1
 10
17.3116938733
 20
19.0244952412
 11
16.4493085522
 21
19.0244952412
 97
1
330
24A
 75
0
 76
1
 98
1
 10
0.0
 20
0.0
  0
LWPOLYLINE
  5
24C
100
AcDbEntity
  8
0
100
AcDbPolyline
 62
7
  6
CONTINUOUS
 90
8
 70
0
 10
16.4493085522
 20
19.0244952412
 10
15.5869232311
 20
19.0244952412
 10
15.629131373
 20
19.2909869612
 10
15.7516241717
 20
19.5313926148
 10
15.9424111786
 20
19.7221796217
 10
16.1828168323
 20
19.8446724204
 10
16.4493085522
 20
19.8868805623
 10
16.4493085522
 20
19.0244952412
  0
HATCH
  5
24D
100
AcDbEntity
  8
0
100
AcDbHatch
 62
7
  6
CONTINUOUS
 10
0.0
 20
0.0
 30
0.0
210
0.0
220
0.0
230
1.0
  2
SOLID
 70
1
 71
1
 91
1
 92
1
 93
7
 72
1
 10
16.4493085522
 20
19.0244952412
 11
15.5869232311
 21
19.0244952412
 72
1
 10
15.5869232311
 20
19.0244952412
 11
15.629131373
 21
19.2909869612
 72
1
 10
15.629131373
 20
19.2909869612
 11
15.7516241717
 21
19.5313926148
 72
1
 10
15.7516241717
 20
19.5313926148
 11
15.9424111786
 21
19.7221796217
 72
1
 10
15.9424111786
 20
19.7221796217
 11
16.1828168323
 21
19.8446724204
 72
1
 10
16.1828168323
 20
19.8446724204
 11
16.4493085522
 21
19.8868805623
 72
1
 10
16.4493085522
 20
19.8868805623
 11
16.4493085522
 21
19.0244952412
 97
1
330
24C
 75
0
 76
1
 98
1
 10
0.0
 20
0.0
  0
ENDBLK
  5
24E
100
AcDbEntity
  8
0
  6
BYBLOCK
 62
0
100
AcDbBlockEnd
  0
BLOCK
  5
24F
100
AcDbEntity
  8
0
100
AcDbBlockBegin
 62
7
  6
CONTINUOUS
  2
RD010411_BL0
 70
64
 10
109.0717458606
 20
24.7808317906
  3
RD010411_BL0
  1

  0
ARC
  5
250
100
AcDbEntity
  8
0
100
AcDbCircle
 62
7
  6
CONTINUOUS
 10
115.054879527
 20
25.7017213093
 40
0.1135001217
100
AcDbArc
 50
270.0
 51
360.0
  0
LINE
  5
251
100
AcDbEntity
  8
0
100
AcDbLine
 62
7
  6
CONTINUOUS
 10
115.1683796488
 20
25.7017213093
 11
115.1683796488
 21
25.9287995587
  0
ARC
  5
252
100
AcDbEntity
  8
0
100
AcDbCircle
 62
7
  6
CONTINUOUS
 10
115.054879527
 20
25.9287995587
 40
0.1135001217
100
AcDbArc
 50
0.0
 51
90.0
  0
LINE
  5
253
100
AcDbEntity
  8
0
100
AcDbLine
 62
7
  6
CONTINUOUS
 10
115.054879527
 20
26.0422996805
 11
112.0035645526
 21
26.0422996805
  0
SPLINE
  5
254
100
AcDbEntity
  8
0
100
AcDbSpline
 62
7
  6
CONTINUOUS
 70
0
 71
3
 72
13
 73
9
 74
0
 42
0.0000001
 43
0.0000001
 44
0.0000000001
 40
0.0
 40
0.0
 40
0.0
 40
0.0
 40
0.1310616762
 40
0.2699656353
 40
0.4157607805
 40
0.5899807757
 40
0.76586761
 40
0.9948829976
 40
0.9948829976
 40
0.9948829976
 40
0.9948829976
 10
112.0035645526
 20
26.0422996805
 30
0.0
 10
111.939423135
 20
26.0375223853
 30
0.0
 10
111.8073022985
 20
26.0276819387
 30
0.0
 10
111.6282522542
 20
25.9167323253
 30
0.0
 10
111.4997156887
 20
25.7304679077
 30
0.0
 10
111.4161345727
 20
25.5027075259
 30
0.0
 10
111.3690565854
 20
25.2242896563
 30
0.0
 10
111.3647219756
 20
25.0275547005
 30
0.0
 10
111.3624754484
 20
24.9162654861
 30
0.0
  0
LINE
  5
255
100
AcDbEntity
  8
0
100
AcDbLine
 62
7
  6
CONTINUOUS
 10
111.3624754484
 20
24.9162654861
 11
111.3626746534
 21
24.8989954961
  0
SPLINE
  5
256
100
AcDbEntity
  8
0
100
AcDbSpline
 62
7
  6
CONTINUOUS
 70
0
 71
3
 72
13
 73
9
 74
0
 42
0.0000001
 43
0.0000001
 44
0.0000000001
 40
0.0
 40
0.0
 40
0.0
 40
0.0
 40
0.2222860645
 40
0.3981728988
 40
0.572392894
 40
0.7181880393
 40
0.8570919984
 40
0.9881536746
 40
0.9881536746
 40
0.9881536746
 40
0.9881536746
 10
111.3626746534
 20
24.8989954961
 30
0.0
 10
111.364876905
 20
24.7909778022
 30
0.0
 10
111.3696026572
 20
24.5975484449
 30
0.0
 10
111.4161345343
 20
24.3223579425
 30
0.0
 10
111.4997166508
 20
24.0946230337
 30
0.0
 10
111.6282492071
 20
23.9082795658
 30
0.0
 10
111.8073129169
 20
23.7975951691
 30
0.0
 10
111.939401542
 20
23.7871302221
 30
0.0
 10
112.0035645526
 20
23.7823513204
 30
0.0
  0
LINE
  5
257
100
AcDbEntity
  8
0
100
AcDbLine
 62
7
  6
CONTINUOUS
 10
112.0035645526
 20
23.7823513204
 11
115.0551272524
 21
23.7890116665
  0
ARC
  5
258
100
AcDbEntity
  8
0
100
AcDbCircle
 62
7
  6
CONTINUOUS
 10
115.054879527
 20
23.9025115176
 40
0.1135001214
100
AcDbArc
 50
270.125053868
 51
360.0
  0
LINE
  5
259
100
AcDbEntity
  8
0
100
AcDbLine
 62
7
  6
CONTINUOUS
 10
115.1683796488
 20
23.9025115176
 11
115.1683796488
 21
24.1207241713
  0
ARC
  5
25A
100
AcDbEntity
  8
0
100
AcDbCircle
 62
7
  6
CONTINUOUS
 10
115.054879527
 20
24.1207241713
 40
0.1135001217
100
AcDbArc
 50
0.0
 51
90.0
  0
LINE
  5
25B
100
AcDbEntity
  8
0
100
AcDbLine
 62
7
  6
CONTINUOUS
 10
115.054879527
 20
24.234224293
 11
112.4394855527
 21
24.234224293
  0
LINE
  5
25C
100
AcDbEntity
  8
0
100
AcDbLine
 62
7
  6
CONTINUOUS
 10
112.325985431
 20
24.3477244148
 11
112.325985431
 21
25.4747210658
  0
ARC
  5
25D
100
AcDbEntity
  8
0
100
AcDbCircle
 62
7
  6
CONTINUOUS
 10
112.4394855538
 20
25.4747210658
 40
0.1135001217
100
AcDbArc
 50
90.0
 51
180.0
  0
LINE
  5
25E
100
AcDbEntity
  8
0
100
AcDbLine
 62
7
  6
CONTINUOUS
 10
112.4394855527
 20
25.5882211875
 11
115.054879527
 21
25.5882211875
  0
LINE
  5
25F
100
AcDbEntity
  8
0
100
AcDbLine
 62
7
  6
CONTINUOUS
 10
107.7760058074
 20
24.6831477117
 11
109.9559318094
 21
24.6831477117
  0
ARC
  5
260
100
AcDbEntity
  8
0
100
AcDbCircle
 62
7
  6
CONTINUOUS
 10
109.9559318092
 20
24.5696475903
 40
0.1135001217
100
AcDbArc
 50
0.0
 51
90.0
  0
LINE
  5
261
100
AcDbEntity
  8
0
100
AcDbLine
 62
7
  6
CONTINUOUS
 10
110.0694319312
 20
24.56964759
 11
110.0694319312
 21
24.3378920651
  0
LINE
  5
262
100
AcDbEntity
  8
0
100
AcDbLine
 62
7
  6
CONTINUOUS
 10
109.9559318094
 20
24.2243919434
 11
107.4148296087
 21
24.2243919434
  0
ARC
  5
263
100
AcDbEntity
  8
0
100
AcDbCircle
 62
7
  6
CONTINUOUS
 10
107.4148296087
 20
24.1108918216
 40
0.1135001217
100
AcDbArc
 50
90.0
 51
180.0
  0
LINE
  5
264
100
AcDbEntity
  8
0
100
AcDbLine
 62
7
  6
CONTINUOUS
 10
107.301329487
 20
24.1108918216
 11
107.301329487
 21
23.8958502967
  0
ARC
  5
265
100
AcDbEntity
  8
0
100
AcDbCircle
 62
7
  6
CONTINUOUS
 10
107.4148296087
 20
23.8958502967
 40
0.1135001217
100
AcDbArc
 50
180.0
 51
270.0
  0
LINE
  5
266
100
AcDbEntity
  8
0
100
AcDbLine
 62
7
  6
CONTINUOUS
 10
107.4148296087
 20
23.782350175
 11
110.569478389
 21
23.782350175
  0
SPLINE
  5
267
100
AcDbEntity
  8
0
100
AcDbSpline
 62
7
  6
CONTINUOUS
 70
0
 71
3
 72
13
 73
9
 74
0
 42
0.0000001
 43
0.0000001
 44
0.0000000001
 40
0.0
 40
0.0
 40
0.0
 40
0.0
 40
0.1604571392
 40
0.3334692485
 40
0.4767982758
 40
0.6242014838
 40
0.7505998515
 40
1.0
 40
1.0
 40
1.0
 40
1.0
 10
110.569478389
 20
23.782350175
 30
0.0
 10
110.6226661613
 20
23.7849110712
 30
0.0
 10
110.7332033816
 20
23.7902332386
 30
0.0
 10
110.8818446322
 20
23.8547664533
 30
0.0
 10
110.9938507117
 20
23.9632414008
 30
0.0
 10
111.0569705426
 20
24.0876037374
 30
0.0
 10
111.1053635755
 20
24.2544370862
 30
0.0
 10
111.1073273668
 20
24.3792872498
 30
0.0
 10
111.1086306433
 20
24.4621445458
 30
0.0
  0
SPLINE
  5
268
100
AcDbEntity
  8
0
100
AcDbSpline
 62
7
  6
CONTINUOUS
 70
0
 71
3
 72
13
 73
9
 74
0
 42
0.0000001
 43
0.0000001
 44
0.0000000001
 40
0.0
 40
0.0
 40
0.0
 40
0.0
 40
0.2494001485
 40
0.3757985162
 40
0.5232017242
 40
0.6665307515
 40
0.8395428608
 40
1.0
 40
1.0
 40
1.0
 40
1.0
 10
111.1086306433
 20
24.4621445458
 30
0.0
 10
111.1073273668
 20
24.5450018435
 30
0.0
 10
111.1053635755
 20
24.6698520054
 30
0.0
 10
111.0569705426
 20
24.8366853559
 30
0.0
 10
110.9938507117
 20
24.9610476925
 30
0.0
 10
110.8818446322
 20
25.0695226382
 30
0.0
 10
110.7332033816
 20
25.134055853
 30
0.0
 10
110.6226661613
 20
25.1393780221
 30
0.0
 10
110.569478389
 20
25.1419389166
 30
0.0
  0
LINE
  5
269
100
AcDbEntity
  8
0
100
AcDbLine
 62
7
  6
CONTINUOUS
 10
110.569478389
 20
25.1419389166
 11
108.4186093577
 21
25.1419389166
  0
LINE
  5
26A
100
AcDbEntity
  8
0
100
AcDbLine
 62
7
  6
CONTINUOUS
 10
108.3051092359
 20
25.2554390384
 11
108.3051092359
 21
25.4701926554
  0
ARC
  5
26B
100
AcDbEntity
  8
0
100
AcDbCircle
 62
7
  6
CONTINUOUS
 10
108.4186093567
 20
25.4701926554
 40
0.1135001217
100
AcDbArc
 50
90.0
 51
180.0
  0
LINE
  5
26C
100
AcDbEntity
  8
0
100
AcDbLine
 62
7
  6
CONTINUOUS
 10
108.4186093577
 20
25.5836927771
 11
110.963160731
 21
25.5836927771
  0
ARC
  5
26D
100
AcDbEntity
  8
0
100
AcDbCircle
 62
7
  6
CONTINUOUS
 10
110.963160731
 20
25.6971928989
 40
0.1135001217
100
AcDbArc
 50
270.0
 51
360.0
  0
LINE
  5
26E
100
AcDbEntity
  8
0
100
AcDbLine
 62
7
  6
CONTINUOUS
 10
111.0766608528
 20
25.6971928989
 11
111.0766608528
 21
25.9287995587
  0
ARC
  5
26F
100
AcDbEntity
  8
0
100
AcDbCircle
 62
7
  6
CONTINUOUS
 10
110.963160731
 20
25.9287995587
 40
0.1135001217
100
AcDbArc
 50
0.0
 51
90.0
  0
LINE
  5
270
100
AcDbEntity
  8
0
100
AcDbLine
 62
7
  6
CONTINUOUS
 10
110.963160731
 20
26.0422996805
 11
107.7760058074
 21
26.0422996805
  0
SPLINE
  5
271
100
AcDbEntity
  8
0
100
AcDbSpline
 62
7
  6
CONTINUOUS
 70
0
 71
3
 72
13
 73
9
 74
0
 42
0.0000001
 43
0.0000001
 44
0.0000000001
 40
0.0
 40
0.0
 40
0.0
 40
0.0
 40
0.1133740464
 40
0.2392044088
 40
0.3655787964
 40
0.4912154373
 40
0.7445390876
 40
1.0
 40
1.0
 40
1.0
 40
1.0
 10
107.7760058074
 20
26.0422996805
 30
0.0
 10
107.7395963933
 20
26.0405063471
 30
0.0
 10
107.6627772932
 20
26.036722646
 30
0.0
 10
107.5486701187
 20
26.0026308309
 30
0.0
 10
107.4465901313
 20
25.933788839
 30
0.0
 10
107.3423145137
 20
25.8069792634
 30
0.0
 10
107.2766976801
 20
25.6079051015
 30
0.0
 10
107.2695815245
 20
25.4446793873
 30
0.0
 10
107.2660085023
 20
25.3627236961
 30
0.0
  0
SPLINE
  5
272
100
AcDbEntity
  8
0
100
AcDbSpline
 62
7
  6
CONTINUOUS
 70
0
 71
3
 72
13
 73
9
 74
0
 42
0.0000001
 43
0.0000001
 44
0.0000000001
 40
0.0
 40
0.0
 40
0.0
 40
0.0
 40
0.2554609124
 40
0.5087845627
 40
0.6344212036
 40
0.7607955912
 40
0.8866259536
 40
1.0
 40
1.0
 40
1.0
 40
1.0
 10
107.2660085023
 20
25.3627236961
 30
0.0
 10
107.2695815245
 20
25.2807680049
 30
0.0
 10
107.2766976801
 20
25.117542289
 30
0.0
 10
107.3423145137
 20
24.9184681288
 30
0.0
 10
107.4465901313
 20
24.7916585532
 30
0.0
 10
107.5486701187
 20
24.7228165613
 30
0.0
 10
107.6627772932
 20
24.6887247463
 30
0.0
 10
107.7395963933
 20
24.6849410451
 30
0.0
 10
107.7760058074
 20
24.6831477117
 30
0.0
  0
LINE
  5
273
100
AcDbEntity
  8
0
100
AcDbLine
 62
7
  6
CONTINUOUS
 10
103.5823009707
 20
23.782350175
 11
105.3458559878
 21
23.782350175
  0
LINE
  5
274
100
AcDbEntity
  8
0
100
AcDbLine
 62
7
  6
CONTINUOUS
 10
105.3458559878
 20
23.782350175
 11
105.3458559878
 21
23.5630177936
  0
ARC
  5
275
100
AcDbEntity
  8
0
100
AcDbCircle
 62
7
  6
CONTINUOUS
 10
105.3895098807
 20
23.5630177936
 40
0.043653893
100
AcDbArc
 50
180.0
 51
270.0
  0
LINE
  5
276
100
AcDbEntity
  8
0
100
AcDbLine
 62
7
  6
CONTINUOUS
 10
105.3895098807
 20
23.5193639007
 11
106.0692453939
 21
23.5193639007
  0
ARC
  5
277
100
AcDbEntity
  8
0
100
AcDbCircle
 62
7
  6
CONTINUOUS
 10
106.0692453939
 20
23.5630177936
 40
0.043653893
100
AcDbArc
 50
270.0
 51
360.0
  0
LINE
  5
278
100
AcDbEntity
  8
0
100
AcDbLine
 62
7
  6
CONTINUOUS
 10
106.1128992869
 20
23.5630177936
 11
106.1128992869
 21
23.782350175
  0
LINE
  5
279
100
AcDbEntity
  8
0
100
AcDbLine
 62
7
  6
CONTINUOUS
 10
106.1128992869
 20
23.782350175
 11
106.4596802075
 21
23.782350175
  0
SPLINE
  5
27A
100
AcDbEntity
  8
0
100
AcDbSpline
 62
7
  6
CONTINUOUS
 70
0
 71
3
 72
12
 73
8
 74
0
 42
0.0000001
 43
0.0000001
 44
0.0000000001
 40
0.0
 40
0.0
 40
0.0
 40
0.0
 40
0.2415790084
 40
0.4893269843
 40
0.7378634303
 40
0.8656387112
 40
1.0
 40
1.0
 40
1.0
 40
1.0
 10
106.4596802075
 20
23.782350175
 30
0.0
 10
106.5218614431
 20
23.7842833195
 30
0.0
 10
106.6478117773
 20
23.7881989742
 30
0.0
 10
106.8321269491
 20
23.8539306664
 30
0.0
 10
106.9440651817
 20
23.9780147059
 30
0.0
 10
106.9933814508
 20
24.1019976151
 30
0.0
 10
106.9942702022
 20
24.1699151904
 30
0.0
 10
106.9947257428
 20
24.2047271689
 30
0.0
  0
LINE
  5
27B
100
AcDbEntity
  8
0
100
AcDbLine
 62
7
  6
CONTINUOUS
 10
106.9947257428
 20
24.2047271689
 11
106.9947257428
 21
25.6172720361
  0
SPLINE
  5
27C
100
AcDbEntity
  8
0
100
AcDbSpline
 62
7
  6
CONTINUOUS
 70
0
 71
3
 72
12
 73
8
 74
0
 42
0.0000001
 43
0.0000001
 44
0.0000000001
 40
0.0
 40
0.0
 40
0.0
 40
0.0
 40
0.1343612888
 40
0.2621365697
 40
0.5106730157
 40
0.7584209916
 40
1.0
 40
1.0
 40
1.0
 40
1.0
 10
106.9947257428
 20
25.6172720361
 30
0.0
 10
106.9942702022
 20
25.6520840164
 30
0.0
 10
106.9933814508
 20
25.7200015917
 30
0.0
 10
106.9440651817
 20
25.8439845009
 30
0.0
 10
106.8321269491
 20
25.9680685404
 30
0.0
 10
106.6478117773
 20
26.0338002309
 30
0.0
 10
106.5218614431
 20
26.0377158855
 30
0.0
 10
106.4596802075
 20
26.0396490301
 30
0.0
  0
LINE
  5
27D
100
AcDbEntity
  8
0
100
AcDbLine
 62
7
  6
CONTINUOUS
 10
106.4596802075
 20
26.0396490301
 11
103.5823009707
 21
26.0396490301
  0
SPLINE
  5
27E
100
AcDbEntity
  8
0
100
AcDbSpline
 62
7
  6
CONTINUOUS
 70
0
 71
3
 72
12
 73
8
 74
0
 42
0.0000001
 43
0.0000001
 44
0.0000000001
 40
0.0
 40
0.0
 40
0.0
 40
0.0
 40
0.1341799809
 40
0.290831959
 40
0.5815217441
 40
0.760783857
 40
1.0
 40
1.0
 40
1.0
 40
1.0
 10
103.5823009707
 20
26.0396490301
 30
0.0
 10
103.519540221
 20
26.0289226225
 30
0.0
 10
103.3835077704
 20
26.0056733833
 30
0.0
 10
103.1545189717
 20
25.8345963837
 30
0.0
 10
103.0460582553
 20
25.5467765115
 30
0.0
 10
102.98259886
 20
25.2205061595
 30
0.0
 10
102.9778351621
 20
25.0231629792
 30
0.0
 10
102.9751120724
 20
24.9103550283
 30
0.0
  0
SPLINE
  5
27F
100
AcDbEntity
  8
0
100
AcDbSpline
 62
7
  6
CONTINUOUS
 70
0
 71
3
 72
12
 73
8
 74
0
 42
0.0000001
 43
0.0000001
 44
0.0000000001
 40
0.0
 40
0.0
 40
0.0
 40
0.0
 40
0.2392679579
 40
0.4185688994
 40
0.7093216488
 40
0.8660075581
 40
1.0
 40
1.0
 40
1.0
 40
1.0
 10
102.9751120724
 20
24.9103550283
 30
0.0
 10
102.97783625
 20
24.7975514743
 30
0.0
 10
102.9826018494
 20
24.6002159858
 30
0.0
 10
103.0460475514
 20
24.2738902667
 30
0.0
 10
103.1545745343
 20
23.9863383508
 30
0.0
 10
103.3833249235
 20
23.8147058293
 30
0.0
 10
103.519519901
 20
23.7925590552
 30
0.0
 10
103.5823009707
 20
23.782350175
 30
0.0
  0
LINE
  5
280
100
AcDbEntity
  8
0
100
AcDbLine
 62
7
  6
CONTINUOUS
 10
106.4134968037
 20
24.3635087929
 11
106.4134968037
 21
25.4952794197
  0
ARC
  5
281
100
AcDbEntity
  8
0
100
AcDbCircle
 62
7
  6
CONTINUOUS
 10
104.032304722
 20
24.3635087929
 40
0.1135001217
100
AcDbArc
 50
180.0
 51
270.0
  0
LINE
  5
282
100
AcDbEntity
  8
0
100
AcDbLine
 62
7
  6
CONTINUOUS
 10
104.032304722
 20
24.2500086711
 11
105.3359275943
 21
24.2500086711
  0
LINE
  5
283
100
AcDbEntity
  8
0
100
AcDbLine
 62
7
  6
CONTINUOUS
 10
105.3359275943
 20
24.2500086711
 11
105.3359275943
 21
24.4686614643
  0
ARC
  5
284
100
AcDbEntity
  8
0
100
AcDbCircle
 62
7
  6
CONTINUOUS
 10
105.3795814881
 20
24.4686614643
 40
0.043653893
100
AcDbArc
 50
90.0
 51
180.0
  0
LINE
  5
285
100
AcDbEntity
  8
0
100
AcDbLine
 62
7
  6
CONTINUOUS
 10
105.3795814873
 20
24.5123153573
 11
106.0558529156
 21
24.5123153573
  0
ARC
  5
286
100
AcDbEntity
  8
0
100
AcDbCircle
 62
7
  6
CONTINUOUS
 10
106.055852914
 20
24.468661466
 40
0.043653893
100
AcDbArc
 50
0.0
 51
90.0
  0
LINE
  5
287
100
AcDbEntity
  8
0
100
AcDbLine
 62
7
  6
CONTINUOUS
 10
106.0995068086
 20
24.2500086711
 11
106.299996682
 21
24.2500086711
  0
ARC
  5
288
100
AcDbEntity
  8
0
100
AcDbCircle
 62
7
  6
CONTINUOUS
 10
106.299996682
 20
24.3635087929
 40
0.1135001217
100
AcDbArc
 50
270.0
 51
360.0
  0
LINE
  5
289
100
AcDbEntity
  8
0
100
AcDbLine
 62
7
  6
CONTINUOUS
 10
106.0995068086
 20
24.2500086711
 11
106.0995068086
 21
24.4686614643
  0
LINE
  5
28A
100
AcDbEntity
  8
0
100
AcDbLine
 62
7
  6
CONTINUOUS
 10
103.9188046002
 20
24.3635087929
 11
103.9188046002
 21
25.4952794197
  0
ARC
  5
28B
100
AcDbEntity
  8
0
100
AcDbCircle
 62
7
  6
CONTINUOUS
 10
104.0323047235
 20
25.4952794197
 40
0.1135001217
100
AcDbArc
 50
90.0
 51
180.0
  0
LINE
  5
28C
100
AcDbEntity
  8
0
100
AcDbLine
 62
7
  6
CONTINUOUS
 10
104.032304722
 20
25.6087795414
 11
106.299996682
 21
25.6087795414
  0
ARC
  5
28D
100
AcDbEntity
  8
0
100
AcDbCircle
 62
7
  6
CONTINUOUS
 10
106.299996683
 20
25.4952794186
 40
0.1135001217
100
AcDbArc
 50
0.0000000277
 51
90.0000000277
  0
ARC
  5
28E
100
AcDbEntity
  8
0
100
AcDbCircle
 62
7
  6
CONTINUOUS
 10
108.4186093577
 20
25.2554390384
 40
0.1135001217
100
AcDbArc
 50
180.0
 51
270.0
  0
ARC
  5
28F
100
AcDbEntity
  8
0
100
AcDbCircle
 62
7
  6
CONTINUOUS
 10
109.9559318094
 20
24.3378920651
 40
0.1135001217
100
AcDbArc
 50
270.0
 51
360.0
  0
ARC
  5
290
100
AcDbEntity
  8
0
100
AcDbCircle
 62
7
  6
CONTINUOUS
 10
112.4394855527
 20
24.3477244148
 40
0.1135001217
100
AcDbArc
 50
180.0
 51
270.0
  0
ENDBLK
  5
291
100
AcDbEntity
  8
0
  6
BYBLOCK
 62
0
100
AcDbBlockEnd
  0
BLOCK
  5
292
100
AcDbEntity
  8
0
100
AcDbBlockBegin
  2
_FILLED
 70
64
 10
0.0
 20
0.0
  3
_FILLED
  1

  0
SOLID
  5
293
100
AcDbEntity
  8
0
  6
BYBLOCK
 62
0
100
AcDbTrace
 10
0.0
 20
0.0
 11
-1.0
 21
0.1666666667
 12
-1.0
 22
-0.1666666667
 13
-1.0
 23
-0.1666666667
  0
ENDBLK
  5
294
100
AcDbEntity
  8
0
  6
BYBLOCK
 62
0
100
AcDbBlockEnd
  0
BLOCK
  5
295
100
AcDbEntity
  8
0
100
AcDbBlockBegin
 62
2
  6
CONTINUOUS
  2
*D0
 70
65
 10
0.0
 20
0.0
  3
*D0
  1

  0
MTEXT
  5
296
100
AcDbEntity
  8
0
100
AcDbMText
 62
2
  6
CONTINUOUS
  7
STANDARD
 71
2
 72
1
 10
45.8623062203
 20
31.439353546
 30
0.0
 11
1.0
 21
0.0
 31
0.0
 44
0.9
  1
191\P[7.5]
 40
1.4334862385
 41
6.2971002621
  0
LINE
  5
297
100
AcDbEntity
  8
0
100
AcDbLine
 62
2
  6
CONTINUOUS
 10
50.3290493396
 20
33.337948504
 11
50.3290493396
 21
29.5758214359
  0
LINE
  5
298
100
AcDbEntity
  8
0
100
AcDbLine
 62
2
  6
CONTINUOUS
 10
42.8290493396
 20
32.5455764576
 11
42.8290493396
 21
29.5758214359
  0
LINE
  5
299
100
AcDbEntity
  8
0
100
AcDbLine
 62
2
  6
CONTINUOUS
 10
50.3290493396
 20
30.7226104267
 11
54.9162053029
 21
30.7226104267
  0
LINE
  5
29A
100
AcDbEntity
  8
0
100
AcDbLine
 62
2
  6
CONTINUOUS
 10
42.8290493396
 20
30.7226104267
 11
38.2418933762
 21
30.7226104267
  0
INSERT
  5
29B
100
AcDbEntity
  8
0
100
AcDbBlockReference
 62
2
  6
CONTINUOUS
  2
_FILLED
 10
50.3290493396
 20
30.7226104267
 41
1.7201834862
 42
1.7201834862
 43
1.7201834862
 50
180.0
  0
INSERT
  5
29C
100
AcDbEntity
  8
0
100
AcDbBlockReference
 62
2
  6
CONTINUOUS
  2
_FILLED
 10
42.8290493396
 20
30.7226104267
 41
1.7201834862
 42
1.7201834862
 43
1.7201834862
  0
ENDBLK
  5
29D
100
AcDbEntity
  8
0
  6
BYBLOCK
 62
0
100
AcDbBlockEnd
  0
BLOCK
  5
29E
100
AcDbEntity
  8
0
100
AcDbBlockBegin
 62
2
  6
CONTINUOUS
  2
*D1
 70
65
 10
0.0
 20
0.0
  3
*D1
  1

  0
MTEXT
  5
29F
100
AcDbEntity
  8
0
100
AcDbMText
 62
2
  6
CONTINUOUS
  7
STANDARD
 71
2
 72
1
 10
21.9983381884
 20
78.3216531734
 30
0.0
 11
1.0
 21
0.0
 31
0.0
 44
0.9
  1
330\P[13.0]
 40
1.4334862385
 41
7.5258027523
  0
LINE
  5
2A0
100
AcDbEntity
  8
0
100
AcDbLine
 62
2
  6
CONTINUOUS
 10
38.5557194246
 20
82.7081157276
 11
21.7730760652
 21
82.7081157276
  0
LINE
  5
2A1
100
AcDbEntity
  8
0
100
AcDbLine
 62
2
  6
CONTINUOUS
 10
48.0889225607
 20
69.7081157276
 11
21.7730760652
 21
69.7081157276
  0
LINE
  5
2A2
100
AcDbEntity
  8
0
100
AcDbLine
 62
2
  6
CONTINUOUS
 10
22.919865056
 20
82.7081157276
 11
22.919865056
 21
79.0383962927
  0
LINE
  5
2A3
100
AcDbEntity
  8
0
100
AcDbLine
 62
2
  6
CONTINUOUS
 10
22.919865056
 20
69.7081157276
 11
22.919865056
 21
74.0211944578
  0
INSERT
  5
2A4
100
AcDbEntity
  8
0
100
AcDbBlockReference
 62
2
  6
CONTINUOUS
  2
_FILLED
 10
22.919865056
 20
82.7081157276
 41
1.7201834862
 42
1.7201834862
 43
1.7201834862
 50
90.0
  0
INSERT
  5
2A5
100
AcDbEntity
  8
0
100
AcDbBlockReference
 62
2
  6
CONTINUOUS
  2
_FILLED
 10
22.919865056
 20
69.7081157276
 41
1.7201834862
 42
1.7201834862
 43
1.7201834862
 50
270.0
  0
ENDBLK
  5
2A6
100
AcDbEntity
  8
0
  6
BYBLOCK
 62
0
100
AcDbBlockEnd
  0
BLOCK
  5
2A7
100
AcDbEntity
  8
0
100
AcDbBlockBegin
 62
2
  6
CONTINUOUS
  2
*D2
 70
65
 10
0.0
 20
0.0
  3
*D2
  1

  0
MTEXT
  5
2A8
100
AcDbEntity
  8
0
100
AcDbMText
 62
2
  6
CONTINUOUS
  7
STANDARD
 71
2
 72
1
 10
41.8051305977
 20
67.0186237249
 30
0.0
 11
1.0
 21
0.0
 31
0.0
 44
0.9
  1
381\P[15.0]
 40
1.4334862385
 41
7.5258027523
  0
LINE
  5
2A9
100
AcDbEntity
  8
0
100
AcDbLine
 62
2
  6
CONTINUOUS
 10
50.3290493396
 20
70.8014535157
 11
50.3290493396
 21
65.1550916148
  0
LINE
  5
2AA
100
AcDbEntity
  8
0
100
AcDbLine
 62
2
  6
CONTINUOUS
 10
35.3290493396
 20
70.8014535157
 11
35.3290493396
 21
65.1550916148
  0
LINE
  5
2AB
100
AcDbEntity
  8
0
100
AcDbLine
 62
2
  6
CONTINUOUS
 10
50.3290493396
 20
66.3018806056
 11
46.0543933762
 21
66.3018806056
  0
LINE
  5
2AC
100
AcDbEntity
  8
0
100
AcDbLine
 62
2
  6
CONTINUOUS
 10
35.3290493396
 20
66.3018806056
 11
39.6037053029
 21
66.3018806056
  0
INSERT
  5
2AD
100
AcDbEntity
  8
0
100
AcDbBlockReference
 62
2
  6
CONTINUOUS
  2
_FILLED
 10
50.3290493396
 20
66.3018806056
 41
1.7201834862
 42
1.7201834862
 43
1.7201834862
  0
INSERT
  5
2AE
100
AcDbEntity
  8
0
100
AcDbBlockReference
 62
2
  6
CONTINUOUS
  2
_FILLED
 10
35.3290493396
 20
66.3018806056
 41
1.7201834862
 42
1.7201834862
 43
1.7201834862
 50
180.0
  0
ENDBLK
  5
2AF
100
AcDbEntity
  8
0
  6
BYBLOCK
 62
0
100
AcDbBlockEnd
  0
BLOCK
  5
2B0
100
AcDbEntity
  8
0
100
AcDbBlockBegin
 62
2
  6
CONTINUOUS
  2
*D3
 70
65
 10
0.0
 20
0.0
  3
*D3
  1

  0
MTEXT
  5
2B1
100
AcDbEntity
  8
0
100
AcDbMText
 62
2
  6
CONTINUOUS
  7
STANDARD
 71
2
 72
1
 10
54.9327872243
 20
47.0296609219
 30
0.0
 11
1.0
 21
0.0
 31
0.0
 44
0.9
  1
660\P[26.0]
 40
1.4334862385
 41
8.1401539974
  0
LINE
  5
2B2
100
AcDbEntity
  8
0
100
AcDbLine
 62
2
  6
CONTINUOUS
 10
50.6662233625
 20
33.3207918184
 11
57.1034949569
 21
33.3207918184
  0
LINE
  5
2B3
100
AcDbEntity
  8
0
100
AcDbLine
 62
2
  6
CONTINUOUS
 10
50.6662233625
 20
59.3050437869
 11
57.1034949569
 21
59.3050437869
  0
LINE
  5
2B4
100
AcDbEntity
  8
0
100
AcDbLine
 62
2
  6
CONTINUOUS
 10
55.9567059661
 20
33.3207918184
 11
55.9567059661
 21
42.7292022063
  0
LINE
  5
2B5
100
AcDbEntity
  8
0
100
AcDbLine
 62
2
  6
CONTINUOUS
 10
55.9567059661
 20
59.3050437869
 11
55.9567059661
 21
47.7464040411
  0
INSERT
  5
2B6
100
AcDbEntity
  8
0
100
AcDbBlockReference
 62
2
  6
CONTINUOUS
  2
_FILLED
 10
55.9567059661
 20
33.3207918184
 41
1.7201834862
 42
1.7201834862
 43
1.7201834862
 50
270.0
  0
INSERT
  5
2B7
100
AcDbEntity
  8
0
100
AcDbBlockReference
 62
2
  6
CONTINUOUS
  2
_FILLED
 10
55.9567059661
 20
59.3050437869
 41
1.7201834862
 42
1.7201834862
 43
1.7201834862
 50
90.0
  0
ENDBLK
  5
2B8
100
AcDbEntity
  8
0
  6
BYBLOCK
 62
0
100
AcDbBlockEnd
  0
BLOCK
  5
2B9
100
AcDbEntity
  8
0
100
AcDbBlockBegin
 62
2
  6
CONTINUOUS
  2
*D4
 70
65
 10
0.0
 20
0.0
  3
*D4
  1

  0
MTEXT
  5
2BA
100
AcDbEntity
  8
0
100
AcDbMText
 62
2
  6
CONTINUOUS
  7
STANDARD
 71
2
 72
1
 10
84.4816564136
 20
64.8648159313
 30
0.0
 11
1.0
 21
0.0
 31
0.0
 44
0.9
  1
180\P[7.1]
 40
1.4334862385
 41
5.9899246396
  0
LINE
  5
2BB
100
AcDbEntity
  8
0
100
AcDbLine
 62
2
  6
CONTINUOUS
 10
88.485726934
 20
59.6422178098
 11
88.485726934
 21
65.2948618029
  0
LINE
  5
2BC
100
AcDbEntity
  8
0
100
AcDbLine
 62
2
  6
CONTINUOUS
 10
81.3991127608
 20
47.8774579813
 11
81.3991127608
 21
65.2948618029
  0
LINE
  5
2BD
100
AcDbEntity
  8
0
100
AcDbLine
 62
2
  6
CONTINUOUS
 10
88.485726934
 20
64.1480728121
 11
93.0728828973
 21
64.1480728121
  0
LINE
  5
2BE
100
AcDbEntity
  8
0
100
AcDbLine
 62
2
  6
CONTINUOUS
 10
81.3991127608
 20
64.1480728121
 11
76.8119567974
 21
64.1480728121
  0
INSERT
  5
2BF
100
AcDbEntity
  8
0
100
AcDbBlockReference
 62
2
  6
CONTINUOUS
  2
_FILLED
 10
88.485726934
 20
64.1480728121
 41
1.7201834862
 42
1.7201834862
 43
1.7201834862
 50
180.0
  0
INSERT
  5
2C0
100
AcDbEntity
  8
0
100
AcDbBlockReference
 62
2
  6
CONTINUOUS
  2
_FILLED
 10
81.3991127608
 20
64.1480728121
 41
1.7201834862
 42
1.7201834862
 43
1.7201834862
  0
ENDBLK
  5
2C1
100
AcDbEntity
  8
0
  6
BYBLOCK
 62
0
100
AcDbBlockEnd
  0
BLOCK
  5
2C2
100
AcDbEntity
  8
0
100
AcDbBlockBegin
 62
2
  6
CONTINUOUS
  2
*D5
 70
65
 10
0.0
 20
0.0
  3
*D5
  1

  0
MTEXT
  5
2C3
100
AcDbEntity
  8
0
100
AcDbMText
 62
2
  6
CONTINUOUS
  7
STANDARD
 71
2
 72
1
 10
91.8901804183
 20
41.1416232708
 30
0.0
 11
1.0
 21
0.0
 31
0.0
 44
0.9
  1
315\P[12.4]
 40
1.4334862385
 41
7.6793905636
  0
LINE
  5
2C4
100
AcDbEntity
  8
0
100
AcDbLine
 62
2
  6
CONTINUOUS
 10
83.8906951758
 20
45.7223666215
 11
94.1632800252
 21
45.7223666215
  0
LINE
  5
2C5
100
AcDbEntity
  8
0
100
AcDbLine
 62
2
  6
CONTINUOUS
 10
88.6406337862
 20
33.3207918184
 11
94.1632800252
 21
33.3207918184
  0
LINE
  5
2C6
100
AcDbEntity
  8
0
100
AcDbLine
 62
2
  6
CONTINUOUS
 10
93.0164910343
 20
45.7223666215
 11
93.0164910343
 21
41.8583663901
  0
LINE
  5
2C7
100
AcDbEntity
  8
0
100
AcDbLine
 62
2
  6
CONTINUOUS
 10
93.0164910343
 20
33.3207918184
 11
93.0164910343
 21
36.8411645552
  0
INSERT
  5
2C8
100
AcDbEntity
  8
0
100
AcDbBlockReference
 62
2
  6
CONTINUOUS
  2
_FILLED
 10
93.0164910343
 20
45.7223666215
 41
1.7201834862
 42
1.7201834862
 43
1.7201834862
 50
90.0
  0
INSERT
  5
2C9
100
AcDbEntity
  8
0
100
AcDbBlockReference
 62
2
  6
CONTINUOUS
  2
_FILLED
 10
93.0164910343
 20
33.3207918184
 41
1.7201834862
 42
1.7201834862
 43
1.7201834862
 50
270.0
  0
ENDBLK
  5
2CA
100
AcDbEntity
  8
0
  6
BYBLOCK
 62
0
100
AcDbBlockEnd
  0
BLOCK
  5
2CB
100
AcDbEntity
  8
0
100
AcDbBlockBegin
 62
2
  6
CONTINUOUS
  2
*D6
 70
65
 10
0.0
 20
0.0
  3
*D6
  1

  0
MTEXT
  5
2CC
100
AcDbEntity
  8
0
100
AcDbMText
 62
2
  6
CONTINUOUS
  7
STANDARD
 71
2
 72
1
 10
30.4364188754
 20
81.1796213482
 30
0.0
 11
1.0
 21
0.0
 31
0.0
 44
0.9
  1
182,9\P[7.2]
 40
1.4334862385
 41
7.5258027523
  0
LINE
  5
2CD
100
AcDbEntity
  8
0
100
AcDbLine
 62
2
  6
CONTINUOUS
 10
38.5557194246
 20
82.7081157276
 11
29.2896298846
 21
82.7081157276
  0
LINE
  5
2CE
100
AcDbEntity
  8
0
100
AcDbLine
 62
2
  6
CONTINUOUS
 10
41.1216882184
 20
75.5087062788
 11
29.2896298846
 21
75.5087062788
  0
LINE
  5
2CF
100
AcDbEntity
  8
0
100
AcDbLine
 62
2
  6
CONTINUOUS
 10
30.4364188754
 20
82.7081157276
 11
30.4364188754
 21
87.2952716909
  0
LINE
  5
2D0
100
AcDbEntity
  8
0
100
AcDbLine
 62
2
  6
CONTINUOUS
 10
30.4364188754
 20
75.5087062788
 11
30.4364188754
 21
70.9215503155
  0
INSERT
  5
2D1
100
AcDbEntity
  8
0
100
AcDbBlockReference
 62
2
  6
CONTINUOUS
  2
_FILLED
 10
30.4364188754
 20
82.7081157276
 41
1.7201834862
 42
1.7201834862
 43
1.7201834862
 50
270.0
  0
INSERT
  5
2D2
100
AcDbEntity
  8
0
100
AcDbBlockReference
 62
2
  6
CONTINUOUS
  2
_FILLED
 10
30.4364188754
 20
75.5087062788
 41
1.7201834862
 42
1.7201834862
 43
1.7201834862
 50
90.0
  0
ENDBLK
  5
2D3
100
AcDbEntity
  8
0
  6
BYBLOCK
 62
0
100
AcDbBlockEnd
  0
ENDSEC
  0
SECTION
  2
ENTITIES
  0
MTEXT
  5
2D4
100
AcDbEntity
  8
0
100
AcDbMText
 62
2
  6
CONTINUOUS
  7
STANDARD
 71
1
 72
1
 10
22.6701202833
 20
3.6983837287
 30
0.0
 11
1.0
 21
0.0
 31
0.0
 44
0.9
  1
4
 40
1.4334862385
 41
1.689465924
  0
MTEXT
  5
2D5
100
AcDbEntity
  8
0
100
AcDbMText
 62
2
  6
CONTINUOUS
  7
STANDARD
 71
1
 72
1
 10
58.2032548708
 20
3.6916774385
 30
0.0
 11
1.0
 21
0.0
 31
0.0
 44
0.9
  1
3
 40
1.4334862385
 41
1.5358781127
  0
MTEXT
  5
2D6
100
AcDbEntity
  8
0
100
AcDbMText
 62
2
  6
CONTINUOUS
  7
STANDARD
 71
1
 72
1
 10
93.6540996656
 20
3.6947284493
 30
0.0
 11
1.0
 21
0.0
 31
0.0
 44
0.9
  1
2
 40
1.4334862385
 41
1.689465924
  0
MTEXT
  5
2D7
100
AcDbEntity
  8
0
100
AcDbMText
 62
2
  6
CONTINUOUS
  7
STANDARD
 71
1
 72
1
 10
129.1715439677
 20
3.6948822597
 30
0.0
 11
1.0
 21
0.0
 31
0.0
 44
0.9
  1
1
 40
1.4334862385
 41
1.2287024902
  0
MTEXT
  5
2D8
100
AcDbEntity
  8
0
100
AcDbMText
 62
2
  6
CONTINUOUS
  7
STANDARD
 71
1
 72
1
 10
22.6752006548
 20
99.7207201416
 30
0.0
 11
1.0
 21
0.0
 31
0.0
 44
0.9
  1
4
 40
1.4334862385
 41
1.689465924
  0
MTEXT
  5
2D9
100
AcDbEntity
  8
0
100
AcDbMText
 62
2
  6
CONTINUOUS
  7
STANDARD
 71
1
 72
1
 10
58.1892250766
 20
99.7100645108
 30
0.0
 11
1.0
 21
0.0
 31
0.0
 44
0.9
  1
3
 40
1.4334862385
 41
1.5358781127
  0
MTEXT
  5
2DA
100
AcDbEntity
  8
0
100
AcDbMText
 62
2
  6
CONTINUOUS
  7
STANDARD
 71
1
 72
1
 10
93.6709345765
 20
99.7082627961
 30
0.0
 11
1.0
 21
0.0
 31
0.0
 44
0.9
  1
2
 40
1.4334862385
 41
1.689465924
  0
MTEXT
  5
2DB
100
AcDbEntity
  8
0
100
AcDbMText
 62
2
  6
CONTINUOUS
  7
STANDARD
 71
1
 72
1
 10
129.1731378437
 20
99.7095548029
 30
0.0
 11
1.0
 21
0.0
 31
0.0
 44
0.9
  1
1
 40
1.4334862385
 41
1.2287024902
  0
MTEXT
  5
2DC
100
AcDbEntity
  8
0
100
AcDbMText
 62
2
  6
CONTINUOUS
  7
STANDARD
 71
1
 72
1
 10
2.332735473
 20
17.0577643047
 30
0.0
 11
1.0
 21
0.0
 31
0.0
 44
0.9
  1
A
 40
1.4334862385
 41
1.8430537353
  0
MTEXT
  5
2DD
100
AcDbEntity
  8
0
100
AcDbMText
 62
2
  6
CONTINUOUS
  7
STANDARD
 71
1
 72
1
 10
2.3830021164
 20
40.0024826814
 30
0.0
 11
1.0
 21
0.0
 31
0.0
 44
0.9
  1
B
 40
1.4334862385
 41
1.689465924
  0
MTEXT
  5
2DE
100
AcDbEntity
  8
0
100
AcDbMText
 62
2
  6
CONTINUOUS
  7
STANDARD
 71
1
 72
1
 10
2.3697161154
 20
62.9165143435
 30
0.0
 11
1.0
 21
0.0
 31
0.0
 44
0.9
  1
C
 40
1.4334862385
 41
1.7918577982
  0
MTEXT
  5
2DF
100
AcDbEntity
  8
0
100
AcDbMText
 62
2
  6
CONTINUOUS
  7
STANDARD
 71
1
 72
1
 10
2.388915271
 20
85.8908963264
 30
0.0
 11
1.0
 21
0.0
 31
0.0
 44
0.9
  1
D
 40
1.4334862385
 41
1.9454456094
  0
MTEXT
  5
2E0
100
AcDbEntity
  8
0
100
AcDbMText
 62
2
  6
CONTINUOUS
  7
STANDARD
 71
1
 72
1
 10
149.0862277103
 20
17.0550017397
 30
0.0
 11
1.0
 21
0.0
 31
0.0
 44
0.9
  1
A
 40
1.4334862385
 41
1.8430537353
  0
MTEXT
  5
2E1
100
AcDbEntity
  8
0
100
AcDbMText
 62
2
  6
CONTINUOUS
  7
STANDARD
 71
1
 72
1
 10
149.0776776238
 20
39.9993866223
 30
0.0
 11
1.0
 21
0.0
 31
0.0
 44
0.9
  1
B
 40
1.4334862385
 41
1.689465924
  0
MTEXT
  5
2E2
100
AcDbEntity
  8
0
100
AcDbMText
 62
2
  6
CONTINUOUS
  7
STANDARD
 71
1
 72
1
 10
149.0738808097
 20
62.9114840382
 30
0.0
 11
1.0
 21
0.0
 31
0.0
 44
0.9
  1
C
 40
1.4334862385
 41
1.7918577982
  0
MTEXT
  5
2E3
100
AcDbEntity
  8
0
100
AcDbMText
 62
2
  6
CONTINUOUS
  7
STANDARD
 71
1
 72
1
 10
149.0773833374
 20
85.8882459703
 30
0.0
 11
1.0
 21
0.0
 31
0.0
 44
0.9
  1
D
 40
1.4334862385
 41
1.9454456094
  0
MTEXT
  5
2E4
100
AcDbEntity
  8
0
100
AcDbMText
 62
5
  6
CONTINUOUS
  7
STANDARD
 71
1
 72
1
 10
4.9930766618
 20
95.9859836707
 30
0.0
 11
1.0
 21
0.0
 31
0.0
 44
0.9
  1
THIS DOCUMENT CONTAINS PROPRIETARY INFORMATION\PWHICH IS THE PROPERTY OF QSC, LLC, THAT MAY NOT BE\PDISCLOSED, REPRODUCED OR USED WITHOUT EXPRESS\PWRITTEN CONSENT FROM QSC, LLC.
 40
0.6880733945
 41
40.7683486239
  0
MTEXT
  5
2E5
100
AcDbEntity
  8
0
100
AcDbMText
 62
2
  6
CONTINUOUS
  7
STANDARD
 71
2
 72
1
 10
66.3756631117
 20
23.7796834736
 30
0.0
 11
1.0
 21
0.0
 31
0.0
 44
0.9
  1
TOLERANCES ARE:
 40
0.8256880734
 41
14.1841415465
  0
MTEXT
  5
2E6
100
AcDbEntity
  8
0
100
AcDbMText
 62
2
  6
CONTINUOUS
  7
STANDARD
 71
2
 72
1
 10
74.5807063705
 20
21.6743182993
 30
0.0
 11
1.0
 21
0.0
 31
0.0
 44
0.9
  1
ANGLES\P\Fgdt;{\Fgdt;`}\Ftxt; 1/2
 40
0.8256880734
 41
5.8977719528
  0
MTEXT
  5
2E7
100
AcDbEntity
  8
0
100
AcDbMText
 62
2
  6
CONTINUOUS
  7
STANDARD
 71
2
 72
1
 10
59.2561878973
 20
15.4699075006
 30
0.0
 11
1.0
 21
0.0
 31
0.0
 44
0.9
  1
MATERIAL
 40
0.8256880734
 41
7.9325032765
  0
MTEXT
  5
2E8
100
AcDbEntity
  8
0
100
AcDbMText
 62
2
  6
CONTINUOUS
  7
STANDARD
 71
2
 72
1
 10
58.3774285874
 20
9.8820791463
 30
0.0
 11
1.0
 21
0.0
 31
0.0
 44
0.9
  1
FINISH
 40
0.8256880734
 41
5.6323722149
  0
MTEXT
  5
2E9
100
AcDbEntity
  8
0
100
AcDbMText
 62
2
  6
CONTINUOUS
  7
STANDARD
 71
2
 72
1
 10
121.7412138972
 20
6.246812493
 30
0.0
 11
1.0
 21
0.0
 31
0.0
 44
0.9
  1
DO NOT SCALE DRAWING
 40
1.1467889908
 41
28.5878112713
  0
MTEXT
  5
2EA
100
AcDbEntity
  8
0
100
AcDbMText
 62
2
  6
CONTINUOUS
  7
STANDARD
 71
2
 72
1
 10
79.8986555602
 20
27.6103006747
 30
0.0
 11
1.0
 21
0.0
 31
0.0
 44
0.9
  1
DESIGNER
 40
0.8256880734
 41
7.8145478375
  0
MTEXT
  5
2EB
100
AcDbEntity
  8
0
100
AcDbMText
 62
2
  6
CONTINUOUS
  7
STANDARD
 71
2
 72
1
 10
79.726972365
 20
22.9426596221
 30
0.0
 11
1.0
 21
0.0
 31
0.0
 44
0.9
  1
ENGINEER
 40
0.8256880734
 41
7.5786369594
  0
MTEXT
  5
2EC
100
AcDbEntity
  8
0
100
AcDbMText
 62
2
  6
CONTINUOUS
  7
STANDARD
 71
2
 72
1
 10
83.0068752771
 20
18.2068567613
 30
0.0
 11
1.0
 21
0.0
 31
0.0
 44
0.9
  1
TECHNICAL DIRECTOR
 40
0.8256880734
 41
17.6343381389
  0
MTEXT
  5
2ED
100
AcDbEntity
  8
0
100
AcDbMText
 62
2
  6
CONTINUOUS
  7
STANDARD
 71
2
 72
1
 10
84.3940850931
 20
13.4151925458
 30
0.0
 11
1.0
 21
0.0
 31
0.0
 44
0.9
  1
MANUFACTURING ENGINEER
 40
0.8256880734
 41
21.3499344692
  0
MTEXT
  5
2EE
100
AcDbEntity
  8
0
100
AcDbMText
 62
2
  6
CONTINUOUS
  7
STANDARD
 71
2
 72
1
 10
82.1699403704
 20
6.2018575124
 30
0.0
 11
1.0
 21
0.0
 31
0.0
 44
0.9
  1
MODEL INFO:
 40
0.8256880734
 41
10.1146788991
  0
MTEXT
  5
2EF
100
AcDbEntity
  8
0
100
AcDbMText
 62
2
  6
CONTINUOUS
  7
STANDARD
 71
2
 72
1
 10
81.3197329659
 20
8.425330656
 30
0.0
 11
1.0
 21
0.0
 31
0.0
 44
0.9
  1
DRAWING INFO:
 40
0.8256880734
 41
12.8571428571
  0
MTEXT
  5
2F0
100
AcDbEntity
  8
0
100
AcDbMText
 62
2
  6
CONTINUOUS
  7
STANDARD
 71
2
 72
1
 10
103.1134365265
 20
6.1194525709
 30
0.0
 11
1.0
 21
0.0
 31
0.0
 44
0.9
  1
SCALE:
 40
0.8256880734
 41
5.4259501966
  0
MTEXT
  5
2F1
100
AcDbEntity
  8
0
100
AcDbMText
 62
2
  6
CONTINUOUS
  7
STANDARD
 71
2
 72
1
 10
134.0939700393
 20
6.1346870322
 30
0.0
 11
1.0
 21
0.0
 31
0.0
 44
0.9
  1
SHEET
 40
0.8256880734
 41
5.0131061599
  0
MTEXT
  5
2F2
100
AcDbEntity
  8
0
100
AcDbMText
 62
2
  6
CONTINUOUS
  7
STANDARD
 71
2
 72
1
 10
103.1374261539
 20
11.103941902
 30
0.0
 11
1.0
 21
0.0
 31
0.0
 44
0.9
  1
SIZE
 40
0.8256880734
 41
3.8630406291
  0
MTEXT
  5
2F3
100
AcDbEntity
  8
0
100
AcDbMText
 62
2
  6
CONTINUOUS
  7
STANDARD
 71
2
 72
1
 10
109.9421798961
 20
11.1139123221
 30
0.0
 11
1.0
 21
0.0
 31
0.0
 44
0.9
  1
CAGE CODE
 40
0.8256880734
 41
9.1710353866
  0
MTEXT
  5
2F4
100
AcDbEntity
  8
0
100
AcDbMText
 62
2
  6
CONTINUOUS
  7
STANDARD
 71
2
 72
1
 10
118.724309615
 20
11.0947978506
 30
0.0
 11
1.0
 21
0.0
 31
0.0
 44
0.9
  1
DRAWING NO.
 40
0.8256880734
 41
11.4416775885
  0
MTEXT
  5
2F5
100
AcDbEntity
  8
0
100
AcDbMText
 62
2
  6
CONTINUOUS
  7
STANDARD
 71
2
 72
1
 10
144.6067216463
 20
11.1071000613
 30
0.0
 11
1.0
 21
0.0
 31
0.0
 44
0.9
  1
REV
 40
0.8256880734
 41
3.125819135
  0
MTEXT
  5
2F6
100
AcDbEntity
  8
0
100
AcDbMText
 62
2
  6
CONTINUOUS
  7
STANDARD
 71
2
 72
1
 10
122.9937495061
 20
27.3437765906
 30
0.0
 11
1.0
 21
0.0
 31
0.0
 44
0.9
  1
QSC, LLC
 40
1.4334862385
 41
13.2085517693
  0
MTEXT
  5
2F7
100
AcDbEntity
  8
0
100
AcDbMText
 62
2
  6
CONTINUOUS
  7
STANDARD
 71
1
 72
1
 10
118.4599304019
 20
25.2687170999
 30
0.0
 11
1.0
 21
0.0
 31
0.0
 44
0.9
  1
1675 MACARTHUR BOULEVARD\PCOSTA MESA, CA  92626
 40
1.1467889908
 41
32.8882699869
  0
MTEXT
  5
2F8
100
AcDbEntity
  8
0
100
AcDbMText
 62
2
  6
CONTINUOUS
  7
STANDARD
 71
1
 72
1
 10
106.6982430176
 20
9.1401513007
 30
0.0
 11
1.0
 21
0.0
 31
0.0
 44
0.9
  1
00PW4
 40
1.4334862385
 41
10.0855996068
  0
MTEXT
  5
2F9
100
AcDbEntity
  8
0
100
AcDbMText
 62
2
  6
CONTINUOUS
  7
STANDARD
 71
2
 72
1
 10
66.5602649279
 20
27.2640590353
 30
0.0
 11
1.0
 21
0.0
 31
0.0
 44
0.9
  1
UNLESS OTHERWISE SPECIFIED\PDIMENSIONS IN MILLIMETERS [IN]
 40
0.9174311927
 41
30.1441677588
  0
MTEXT
  5
2FA
100
AcDbEntity
  8
0
100
AcDbMText
 62
2
  6
CONTINUOUS
  7
STANDARD
 71
2
 72
1
 10
59.8938327031
 20
21.687295544
 30
0.0
 11
1.0
 21
0.0
 31
0.0
 44
0.9
  1
DECIMALS\P.X\Fgdt;{\Fgdt;`}\Ftxt;.5[.02]
 40
0.8256880734
 41
8.5222804718
  0
MTEXT
  5
2FB
100
AcDbEntity
  8
0
100
AcDbMText
 62
2
  6
CONTINUOUS
  7
STANDARD
 71
2
 72
1
 10
67.8973283282
 20
21.69169095
 30
0.0
 11
1.0
 21
0.0
 31
0.0
 44
0.9
  1
DECIMALS\P.XX\Fgdt;{\Fgdt;`}\Ftxt;.25[.010]
 40
0.8256880734
 41
11.2647444299
  0
MTEXT
  5
2FC
100
AcDbEntity
  8
0
100
AcDbMText
 62
2
  6
CONTINUOUS
  7
STANDARD
 71
2
 72
1
 10
66.4272591653
 20
18.0877414367
 30
0.0
 11
1.0
 21
0.0
 31
0.0
 44
0.9
  1
DEBURR EDGES .25 [.010] R MAX
 40
0.8256880734
 41
26.9823066841
  0
INSERT
  5
2FD
100
AcDbEntity
  8
0
100
AcDbBlockReference
 62
7
  6
CONTINUOUS
  2
RD010411_BL0
 10
109.0717458606
 20
24.7808317906
  0
DIMENSION
  5
2FE
100
AcDbEntity
  8
0
100
AcDbDimension
 62
2
  6
CONTINUOUS
  2
*D0
 10
42.8290493396
 20
30.7226104267
 11
46.5790493396
 21
29.6474957478
 70
160
 71
2
 42
190.5
  3
DIMSTYLE_1
100
AcDbAlignedDimension
 13
50.3290493396
 23
33.400448504
 14
42.8290493396
 24
32.6080764576
 50
180.0
100
AcDbRotatedDimension
  0
DIMENSION
  5
2FF
100
AcDbEntity
  8
0
100
AcDbDimension
 62
2
  6
CONTINUOUS
  2
*D1
 10
22.919865056
 20
69.7081157276
 11
22.919865056
 21
76.5297953753
 70
160
 71
2
 42
330.2
  3
DIMSTYLE_1
100
AcDbAlignedDimension
 13
38.6182194246
 23
82.7081157276
 14
48.1514225607
 24
69.7081157276
 50
270.0
100
AcDbRotatedDimension
  0
DIMENSION
  5
300
100
AcDbEntity
  8
0
100
AcDbDimension
 62
2
  6
CONTINUOUS
  2
*D2
 10
35.3290493396
 20
66.3018806056
 11
42.8290493396
 21
65.2267659267
 70
160
 71
2
 42
381.0
  3
DIMSTYLE_1
100
AcDbAlignedDimension
 13
50.3290493396
 23
70.8639535157
 14
35.3290493396
 24
70.8639535157
 50
180.0
100
AcDbRotatedDimension
  0
DIMENSION
  5
301
100
AcDbEntity
  8
0
100
AcDbDimension
 62
2
  6
CONTINUOUS
  2
*D3
 10
55.9567059661
 20
59.3050437869
 11
55.9567059661
 21
45.2378031237
 70
160
 71
2
 42
660.0
  3
DIMSTYLE_1
100
AcDbAlignedDimension
 13
50.6037233625
 23
33.3207918184
 14
50.6037233625
 24
59.3050437869
 50
90.0
100
AcDbRotatedDimension
  0
DIMENSION
  5
302
100
AcDbEntity
  8
0
100
AcDbDimension
 62
2
  6
CONTINUOUS
  2
*D4
 10
81.3991127608
 20
64.1480728121
 11
84.9424198474
 21
63.0729581332
 70
160
 71
2
 42
180.0
  3
DIMSTYLE_1
100
AcDbAlignedDimension
 13
88.485726934
 23
59.5797178098
 14
81.3991127608
 24
47.8149579813
 50
180.0
100
AcDbRotatedDimension
  0
DIMENSION
  5
303
100
AcDbEntity
  8
0
100
AcDbDimension
 62
2
  6
CONTINUOUS
  2
*D5
 10
93.0164910343
 20
33.3207918184
 11
93.0164910343
 21
39.3497654726
 70
160
 71
2
 42
315.0
  3
DIMSTYLE_1
100
AcDbAlignedDimension
 13
83.8281951758
 23
45.7223666215
 14
88.5781337862
 24
33.3207918184
 50
270.0
100
AcDbRotatedDimension
  0
DIMENSION
  5
304
100
AcDbEntity
  8
0
100
AcDbDimension
 62
2
  6
CONTINUOUS
  2
*D6
 10
30.4364188754
 20
75.5087062788
 11
30.4364188754
 21
79.3877635501
 70
160
 71
2
 42
182.865
  3
DIMSTYLE_2
100
AcDbAlignedDimension
 13
38.6182194246
 23
82.7081157276
 14
41.1841882184
 24
75.5087062788
 50
270.0
100
AcDbRotatedDimension
  0
LWPOLYLINE
  5
305
100
AcDbEntity
  8
0
100
AcDbPolyline
 62
2
  6
CONTINUOUS
 90
2
 70
0
 43
0.1834862385
 10
146.8606361292
 20
96.3220058795
 10
54.3606361292
 20
96.3220058795
  0
LWPOLYLINE
  5
306
100
AcDbEntity
  8
0
100
AcDbPolyline
 62
2
  6
CONTINUOUS
 90
2
 70
0
 43
0.1834862385
 10
146.7688930099
 20
96.3220058795
 10
146.7688930099
 20
87.7210884483
  0
LWPOLYLINE
  5
307
100
AcDbEntity
  8
0
100
AcDbPolyline
 62
2
  6
CONTINUOUS
 90
2
 70
0
 43
0.1834862385
 10
146.7688930099
 20
93.4550334024
 10
54.4523792484
 20
93.4550334024
  0
LWPOLYLINE
  5
308
100
AcDbEntity
  8
0
100
AcDbPolyline
 62
2
  6
CONTINUOUS
 90
2
 70
0
 43
0.1834862385
 10
146.7688930099
 20
90.5880609253
 10
54.4523792484
 20
90.5880609253
  0
LWPOLYLINE
  5
309
100
AcDbEntity
  8
0
100
AcDbPolyline
 62
2
  6
CONTINUOUS
 90
2
 70
0
 43
0.1834862385
 10
146.8606361292
 20
87.7210884483
 10
54.3606361292
 20
87.7210884483
  0
LWPOLYLINE
  5
30A
100
AcDbEntity
  8
0
100
AcDbPolyline
 62
2
  6
CONTINUOUS
 90
2
 70
0
 43
0.1834862385
 10
139.8881590649
 20
93.4550334024
 10
139.8881590649
 20
87.7210884483
  0
LWPOLYLINE
  5
30B
100
AcDbEntity
  8
0
100
AcDbPolyline
 62
2
  6
CONTINUOUS
 90
2
 70
0
 43
0.1834862385
 10
129.5670581475
 20
93.4550334024
 10
129.5670581475
 20
87.7210884483
  0
LWPOLYLINE
  5
30C
100
AcDbEntity
  8
0
100
AcDbPolyline
 62
2
  6
CONTINUOUS
 90
2
 70
0
 43
0.1834862385
 10
124.9799021842
 20
93.4550334024
 10
124.9799021842
 20
87.7210884483
  0
LWPOLYLINE
  5
30D
100
AcDbEntity
  8
0
100
AcDbPolyline
 62
2
  6
CONTINUOUS
 90
2
 70
0
 43
0.1834862385
 10
66.4936636521
 20
93.4550334024
 10
66.4936636521
 20
87.7210884483
  0
LWPOLYLINE
  5
30E
100
AcDbEntity
  8
0
100
AcDbPolyline
 62
2
  6
CONTINUOUS
 90
2
 70
0
 43
0.1834862385
 10
59.0395352117
 20
93.4550334024
 10
59.0395352117
 20
87.7210884483
  0
LWPOLYLINE
  5
30F
100
AcDbEntity
  8
0
100
AcDbPolyline
 62
2
  6
CONTINUOUS
 90
2
 70
0
 43
0.1834862385
 10
54.4523792484
 20
96.3220058795
 10
54.4523792484
 20
87.7210884483
  0
MTEXT
  5
310
100
AcDbEntity
  8
0
100
AcDbMText
 62
2
  6
CONTINUOUS
  7
STANDARD
 71
2
 72
1
 10
100.6106361292
 20
95.6052627602
 30
0.0
 11
1.0
 21
0.0
 31
0.0
 44
0.9
  1
REVISIONS
 40
1.4334862385
 41
14.5396461337
  0
MTEXT
  5
311
100
AcDbEntity
  8
0
100
AcDbMText
 62
2
  6
CONTINUOUS
  7
STANDARD
 71
2
 72
1
 10
143.3285260374
 20
92.7371434941
 30
0.0
 11
1.0
 21
0.0
 31
0.0
 44
0.9
  1
ISSUED
 40
1.4311926606
 41
9.9161205767
  0
MTEXT
  5
312
100
AcDbEntity
  8
0
100
AcDbMText
 62
2
  6
CONTINUOUS
  7
STANDARD
 71
2
 72
1
 10
134.7276086062
 20
92.7371434941
 30
0.0
 11
1.0
 21
0.0
 31
0.0
 44
0.9
  1
EFF DATE
 40
1.4311926606
 41
13.4429882045
  0
MTEXT
  5
313
100
AcDbEntity
  8
0
100
AcDbMText
 62
2
  6
CONTINUOUS
  7
STANDARD
 71
2
 72
1
 10
127.2734801659
 20
92.7382902831
 30
0.0
 11
1.0
 21
0.0
 31
0.0
 44
0.9
  1
BY
 40
1.4334862385
 41
3.5325196592
  0
MTEXT
  5
314
100
AcDbEntity
  8
0
100
AcDbMText
 62
2
  6
CONTINUOUS
  7
STANDARD
 71
2
 72
1
 10
95.7367829181
 20
92.7371434941
 30
0.0
 11
1.0
 21
0.0
 31
0.0
 44
0.9
  1
DESCRIPTION
 40
1.4311926606
 41
18.2988204456
  0
MTEXT
  5
315
100
AcDbEntity
  8
0
100
AcDbMText
 62
2
  6
CONTINUOUS
  7
STANDARD
 71
2
 72
1
 10
62.7665994319
 20
92.7382902831
 30
0.0
 11
1.0
 21
0.0
 31
0.0
 44
0.9
  1
ECO
 40
1.4334862385
 41
5.0172018349
  0
MTEXT
  5
316
100
AcDbEntity
  8
0
100
AcDbMText
 62
2
  6
CONTINUOUS
  7
STANDARD
 71
2
 72
1
 10
56.7459572301
 20
92.7371434941
 30
0.0
 11
1.0
 21
0.0
 31
0.0
 44
0.9
  1
REV
 40
1.4311926606
 41
5.0091743119
  0
MTEXT
  5
317
100
AcDbEntity
  8
0
100
AcDbMText
 62
2
  6
CONTINUOUS
  7
STANDARD
 71
2
 72
1
 10
143.3285260374
 20
89.8713178061
 30
0.0
 11
1.0
 21
0.0
 31
0.0
 44
0.9
  1
DD
 40
1.4334862385
 41
4.3004587156
  0
MTEXT
  5
318
100
AcDbEntity
  8
0
100
AcDbMText
 62
2
  6
CONTINUOUS
  7
STANDARD
 71
2
 72
1
 10
134.7276086062
 20
89.8713178061
 30
0.0
 11
1.0
 21
0.0
 31
0.0
 44
0.9
  1
16-SEP-13
 40
1.4334862385
 41
14.0788826999
  0
MTEXT
  5
319
100
AcDbEntity
  8
0
100
AcDbMText
 62
2
  6
CONTINUOUS
  7
STANDARD
 71
2
 72
1
 10
127.2734801659
 20
89.8713178061
 30
0.0
 11
1.0
 21
0.0
 31
0.0
 44
0.9
  1
 VU 
 40
1.4334862385
 41
7.2698230668
  0
MTEXT
  5
31A
100
AcDbEntity
  8
0
100
AcDbMText
 62
2
  6
CONTINUOUS
  7
STANDARD
 71
1
 72
1
 10
67.0670581475
 20
89.8713178061
 30
0.0
 11
1.0
 21
0.0
 31
0.0
 44
0.9
  1
ADD MOUNTING INFORMATION
 40
1.4334862385
 41
41.315121232
  0
MTEXT
  5
31B
100
AcDbEntity
  8
0
100
AcDbMText
 62
2
  6
CONTINUOUS
  7
STANDARD
 71
2
 72
1
 10
62.7665994319
 20
89.8713178061
 30
0.0
 11
1.0
 21
0.0
 31
0.0
 44
0.9
  1
13080
 40
1.4334862385
 41
8.2425458716
  0
MTEXT
  5
31C
100
AcDbEntity
  8
0
100
AcDbMText
 62
2
  6
CONTINUOUS
  7
STANDARD
 71
2
 72
1
 10
56.7459572301
 20
89.8713178061
 30
0.0
 11
1.0
 21
0.0
 31
0.0
 44
0.9
  1
B
 40
1.4334862385
 41
2.0990334207
  0
LINE
  5
31D
100
AcDbEntity
  8
0
100
AcDbLine
 62
2
  6
CONTINUOUS
 10
56.1926605505
 20
16.0550458716
 11
76.8348623853
 21
16.0550458716
  0
LINE
  5
31E
100
AcDbEntity
  8
0
100
AcDbLine
 62
2
  6
CONTINUOUS
 10
56.1926605505
 20
16.0550458716
 11
56.1926605505
 21
10.3211009174
  0
LINE
  5
31F
100
AcDbEntity
  8
0
100
AcDbLine
 62
2
  6
CONTINUOUS
 10
56.1926605505
 20
10.3211009174
 11
76.8348623853
 21
10.3211009174
  0
LINE
  5
320
100
AcDbEntity
  8
0
100
AcDbLine
 62
2
  6
CONTINUOUS
 10
76.8348623853
 20
16.0550458716
 11
76.8348623853
 21
10.3211009174
  0
LINE
  5
321
100
AcDbEntity
  8
0
100
AcDbLine
 62
2
  6
CONTINUOUS
 10
56.1926605505
 20
10.3211009174
 11
76.8348623853
 21
10.3211009174
  0
LINE
  5
322
100
AcDbEntity
  8
0
100
AcDbLine
 62
2
  6
CONTINUOUS
 10
56.1926605505
 20
10.3211009174
 11
56.1926605505
 21
4.5871559633
  0
LINE
  5
323
100
AcDbEntity
  8
0
100
AcDbLine
 62
2
  6
CONTINUOUS
 10
56.1926605505
 20
4.5871559633
 11
76.8348623853
 21
4.5871559633
  0
LINE
  5
324
100
AcDbEntity
  8
0
100
AcDbLine
 62
2
  6
CONTINUOUS
 10
76.8348623853
 20
10.3211009174
 11
76.8348623853
 21
4.5871559633
  0
LINE
  5
325
100
AcDbEntity
  8
0
100
AcDbLine
 62
2
  6
CONTINUOUS
 10
76.8348623853
 20
25.2293577982
 11
92.8899082569
 21
25.2293577982
  0
LINE
  5
326
100
AcDbEntity
  8
0
100
AcDbLine
 62
2
  6
CONTINUOUS
 10
76.8348623853
 20
25.2293577982
 11
76.8348623853
 21
21.2872706422
  0
LINE
  5
327
100
AcDbEntity
  8
0
100
AcDbLine
 62
2
  6
CONTINUOUS
 10
76.8348623853
 20
21.2872706422
 11
92.8899082569
 21
21.2872706422
  0
LINE
  5
328
100
AcDbEntity
  8
0
100
AcDbLine
 62
2
  6
CONTINUOUS
 10
92.8899082569
 20
25.2293577982
 11
92.8899082569
 21
21.2872706422
  0
MTEXT
  5
329
100
AcDbEntity
  8
0
100
AcDbMText
 62
2
  6
CONTINUOUS
  7
STANDARD
 71
1
 72
1
 10
77.4082568807
 20
23.4375
 30
0.0
 11
1.0
 21
0.0
 31
0.0
 44
0.9
  1
J. DELARM 
 40
1.4334862385
 41
16.2291120577
  0
LINE
  5
32A
100
AcDbEntity
  8
0
100
AcDbLine
 62
2
  6
CONTINUOUS
 10
76.8348623853
 20
21.2155963303
 11
92.8899082569
 21
21.2155963303
  0
LINE
  5
32B
100
AcDbEntity
  8
0
100
AcDbLine
 62
2
  6
CONTINUOUS
 10
76.8348623853
 20
21.2155963303
 11
76.8348623853
 21
17.1788990826
  0
LINE
  5
32C
100
AcDbEntity
  8
0
100
AcDbLine
 62
2
  6
CONTINUOUS
 10
76.8348623853
 20
17.1788990826
 11
92.8899082569
 21
17.1788990826
  0
LINE
  5
32D
100
AcDbEntity
  8
0
100
AcDbLine
 62
2
  6
CONTINUOUS
 10
92.8899082569
 20
21.2155963303
 11
92.8899082569
 21
17.1788990826
  0
MTEXT
  5
32E
100
AcDbEntity
  8
0
100
AcDbMText
 62
2
  6
CONTINUOUS
  7
STANDARD
 71
1
 72
1
 10
77.4082568807
 20
19.3291284404
 30
0.0
 11
1.0
 21
0.0
 31
0.0
 44
0.9
  1
P. SANCHEZ 
 40
1.4334862385
 41
18.2257536042
  0
LINE
  5
32F
100
AcDbEntity
  8
0
100
AcDbLine
 62
2
  6
CONTINUOUS
 10
76.8348623853
 20
17.2018348624
 11
92.8899082569
 21
17.2018348624
  0
LINE
  5
330
100
AcDbEntity
  8
0
100
AcDbLine
 62
2
  6
CONTINUOUS
 10
76.8348623853
 20
17.2018348624
 11
76.8348623853
 21
13.2597477064
  0
LINE
  5
331
100
AcDbEntity
  8
0
100
AcDbLine
 62
2
  6
CONTINUOUS
 10
76.8348623853
 20
13.2597477064
 11
92.8899082569
 21
13.2597477064
  0
LINE
  5
332
100
AcDbEntity
  8
0
100
AcDbLine
 62
2
  6
CONTINUOUS
 10
92.8899082569
 20
17.2018348624
 11
92.8899082569
 21
13.2597477064
  0
MTEXT
  5
333
100
AcDbEntity
  8
0
100
AcDbMText
 62
2
  6
CONTINUOUS
  7
STANDARD
 71
1
 72
1
 10
77.4082568807
 20
15.4099770642
 30
0.0
 11
1.0
 21
0.0
 31
0.0
 44
0.9
  1
-
 40
1.4334862385
 41
1.5358781127
  0
LINE
  5
334
100
AcDbEntity
  8
0
100
AcDbLine
 62
2
  6
CONTINUOUS
 10
76.8348623853
 20
13.1880733945
 11
92.8899082569
 21
13.1880733945
  0
LINE
  5
335
100
AcDbEntity
  8
0
100
AcDbLine
 62
2
  6
CONTINUOUS
 10
76.8348623853
 20
13.1880733945
 11
76.8348623853
 21
9.1513761468
  0
LINE
  5
336
100
AcDbEntity
  8
0
100
AcDbLine
 62
2
  6
CONTINUOUS
 10
76.8348623853
 20
9.1513761468
 11
92.8899082569
 21
9.1513761468
  0
LINE
  5
337
100
AcDbEntity
  8
0
100
AcDbLine
 62
2
  6
CONTINUOUS
 10
92.8899082569
 20
13.1880733945
 11
92.8899082569
 21
9.1513761468
  0
MTEXT
  5
338
100
AcDbEntity
  8
0
100
AcDbMText
 62
2
  6
CONTINUOUS
  7
STANDARD
 71
1
 72
1
 10
77.4082568807
 20
11.3016055046
 30
0.0
 11
1.0
 21
0.0
 31
0.0
 44
0.9
  1
-
 40
1.4334862385
 41
1.5358781127
  0
LINE
  5
339
100
AcDbEntity
  8
0
100
AcDbLine
 62
2
  6
CONTINUOUS
 10
92.8899082569
 20
25.2293577982
 11
100.9174311927
 21
25.2293577982
  0
LINE
  5
33A
100
AcDbEntity
  8
0
100
AcDbLine
 62
2
  6
CONTINUOUS
 10
92.8899082569
 20
25.2293577982
 11
92.8899082569
 21
21.1926605505
  0
LINE
  5
33B
100
AcDbEntity
  8
0
100
AcDbLine
 62
2
  6
CONTINUOUS
 10
92.8899082569
 20
21.1926605505
 11
100.9174311927
 21
21.1926605505
  0
LINE
  5
33C
100
AcDbEntity
  8
0
100
AcDbLine
 62
2
  6
CONTINUOUS
 10
100.9174311927
 20
25.2293577982
 11
100.9174311927
 21
21.1926605505
  0
MTEXT
  5
33D
100
AcDbEntity
  8
0
100
AcDbMText
 62
2
  6
CONTINUOUS
  7
STANDARD
 71
2
 72
1
 10
96.9036697248
 20
23.0103211009
 30
0.0
 11
1.0
 21
0.0
 31
0.0
 44
0.9
  1
08-OCT-12
 40
1.1009174312
 41
11.2844036697
  0
LINE
  5
33E
100
AcDbEntity
  8
0
100
AcDbLine
 62
2
  6
CONTINUOUS
 10
92.8899082569
 20
21.2155963303
 11
100.9174311927
 21
21.2155963303
  0
LINE
  5
33F
100
AcDbEntity
  8
0
100
AcDbLine
 62
2
  6
CONTINUOUS
 10
92.8899082569
 20
21.2155963303
 11
92.8899082569
 21
17.1788990826
  0
LINE
  5
340
100
AcDbEntity
  8
0
100
AcDbLine
 62
2
  6
CONTINUOUS
 10
92.8899082569
 20
17.1788990826
 11
100.9174311927
 21
17.1788990826
  0
LINE
  5
341
100
AcDbEntity
  8
0
100
AcDbLine
 62
2
  6
CONTINUOUS
 10
100.9174311927
 20
21.2155963303
 11
100.9174311927
 21
17.1788990826
  0
MTEXT
  5
342
100
AcDbEntity
  8
0
100
AcDbMText
 62
2
  6
CONTINUOUS
  7
STANDARD
 71
2
 72
1
 10
96.9036697248
 20
18.996559633
 30
0.0
 11
1.0
 21
0.0
 31
0.0
 44
0.9
  1
15-OCT-12
 40
1.1009174312
 41
10.8125819135
  0
LINE
  5
343
100
AcDbEntity
  8
0
100
AcDbLine
 62
2
  6
CONTINUOUS
 10
92.8899082569
 20
17.2018348624
 11
100.9174311927
 21
17.2018348624
  0
LINE
  5
344
100
AcDbEntity
  8
0
100
AcDbLine
 62
2
  6
CONTINUOUS
 10
92.8899082569
 20
17.2018348624
 11
92.8899082569
 21
13.1651376147
  0
LINE
  5
345
100
AcDbEntity
  8
0
100
AcDbLine
 62
2
  6
CONTINUOUS
 10
92.8899082569
 20
13.1651376147
 11
100.9174311927
 21
13.1651376147
  0
LINE
  5
346
100
AcDbEntity
  8
0
100
AcDbLine
 62
2
  6
CONTINUOUS
 10
100.9174311927
 20
17.2018348624
 11
100.9174311927
 21
13.1651376147
  0
MTEXT
  5
347
100
AcDbEntity
  8
0
100
AcDbMText
 62
2
  6
CONTINUOUS
  7
STANDARD
 71
2
 72
1
 10
96.9036697248
 20
14.9827981651
 30
0.0
 11
1.0
 21
0.0
 31
0.0
 44
0.9
  1
-
 40
1.1009174312
 41
1.1795543906
  0
LINE
  5
348
100
AcDbEntity
  8
0
100
AcDbLine
 62
2
  6
CONTINUOUS
 10
92.8899082569
 20
13.1880733945
 11
100.9174311927
 21
13.1880733945
  0
LINE
  5
349
100
AcDbEntity
  8
0
100
AcDbLine
 62
2
  6
CONTINUOUS
 10
92.8899082569
 20
13.1880733945
 11
92.8899082569
 21
9.2459862385
  0
LINE
  5
34A
100
AcDbEntity
  8
0
100
AcDbLine
 62
2
  6
CONTINUOUS
 10
92.8899082569
 20
9.2459862385
 11
100.9174311927
 21
9.2459862385
  0
LINE
  5
34B
100
AcDbEntity
  8
0
100
AcDbLine
 62
2
  6
CONTINUOUS
 10
100.9174311927
 20
13.1880733945
 11
100.9174311927
 21
9.2459862385
  0
MTEXT
  5
34C
100
AcDbEntity
  8
0
100
AcDbMText
 62
2
  6
CONTINUOUS
  7
STANDARD
 71
2
 72
1
 10
96.9036697248
 20
11.063646789
 30
0.0
 11
1.0
 21
0.0
 31
0.0
 44
0.9
  1
-
 40
1.1009174312
 41
1.1795543906
  0
LINE
  5
34D
100
AcDbEntity
  8
0
100
AcDbLine
 62
2
  6
CONTINUOUS
 10
76.8348623853
 20
9.1743119266
 11
100.9174311927
 21
9.1743119266
  0
LINE
  5
34E
100
AcDbEntity
  8
0
100
AcDbLine
 62
2
  6
CONTINUOUS
 10
76.8348623853
 20
9.1743119266
 11
76.8348623853
 21
6.880733945
  0
LINE
  5
34F
100
AcDbEntity
  8
0
100
AcDbLine
 62
2
  6
CONTINUOUS
 10
76.8348623853
 20
6.880733945
 11
100.9174311927
 21
6.880733945
  0
LINE
  5
350
100
AcDbEntity
  8
0
100
AcDbLine
 62
2
  6
CONTINUOUS
 10
100.9174311927
 20
9.1743119266
 11
100.9174311927
 21
6.880733945
  0
MTEXT
  5
351
100
AcDbEntity
  8
0
100
AcDbMText
 62
2
  6
CONTINUOUS
  7
STANDARD
 71
3
 72
1
 10
100.3440366972
 20
8.6066513761
 30
0.0
 11
1.0
 21
0.0
 31
0.0
 44
0.9
  1
FG-012230-2D.B.3
 40
1.0091743119
 41
17.6965923984
  0
LINE
  5
352
100
AcDbEntity
  8
0
100
AcDbLine
 62
2
  6
CONTINUOUS
 10
76.8348623853
 20
6.880733945
 11
100.9174311927
 21
6.880733945
  0
LINE
  5
353
100
AcDbEntity
  8
0
100
AcDbLine
 62
2
  6
CONTINUOUS
 10
76.8348623853
 20
6.880733945
 11
76.8348623853
 21
4.5871559633
  0
LINE
  5
354
100
AcDbEntity
  8
0
100
AcDbLine
 62
2
  6
CONTINUOUS
 10
76.8348623853
 20
4.5871559633
 11
100.9174311927
 21
4.5871559633
  0
LINE
  5
355
100
AcDbEntity
  8
0
100
AcDbLine
 62
2
  6
CONTINUOUS
 10
100.9174311927
 20
6.880733945
 11
100.9174311927
 21
4.5871559633
  0
MTEXT
  5
356
100
AcDbEntity
  8
0
100
AcDbMText
 62
2
  6
CONTINUOUS
  7
STANDARD
 71
3
 72
1
 10
100.3440366972
 20
6.3130733945
 30
0.0
 11
1.0
 21
0.0
 31
0.0
 44
0.9
  1
FG-012230-3D.B.0
 40
1.0091743119
 41
17.6965923984
  0
LINE
  5
357
100
AcDbEntity
  8
0
100
AcDbLine
 62
2
  6
CONTINUOUS
 10
100.9174311927
 20
21.7889908257
 11
146.7889908257
 21
21.7889908257
  0
LINE
  5
358
100
AcDbEntity
  8
0
100
AcDbLine
 62
2
  6
CONTINUOUS
 10
100.9174311927
 20
21.7889908257
 11
100.9174311927
 21
11.4678899083
  0
LINE
  5
359
100
AcDbEntity
  8
0
100
AcDbLine
 62
2
  6
CONTINUOUS
 10
100.9174311927
 20
11.4678899083
 11
146.7889908257
 21
11.4678899083
  0
LINE
  5
35A
100
AcDbEntity
  8
0
100
AcDbLine
 62
2
  6
CONTINUOUS
 10
146.7889908257
 20
21.7889908257
 11
146.7889908257
 21
11.4678899083
  0
MTEXT
  5
35B
100
AcDbEntity
  8
0
100
AcDbMText
 62
2
  6
CONTINUOUS
  7
STANDARD
 71
2
 72
1
 10
123.8532110092
 20
17.8669724771
 30
0.0
 11
1.0
 21
0.0
 31
0.0
 44
1.02
  1
SPEAKER, FINISHED, AP-5122
 40
1.8348623853
 41
53.2110091743
  0
LINE
  5
35C
100
AcDbEntity
  8
0
100
AcDbLine
 62
2
  6
CONTINUOUS
 10
100.9274523206
 20
11.4489951146
 11
105.5146082839
 21
11.4489951146
  0
LINE
  5
35D
100
AcDbEntity
  8
0
100
AcDbLine
 62
2
  6
CONTINUOUS
 10
100.9274523206
 20
11.4489951146
 11
100.9274523206
 21
6.8618391513
  0
LINE
  5
35E
100
AcDbEntity
  8
0
100
AcDbLine
 62
2
  6
CONTINUOUS
 10
100.9274523206
 20
6.8618391513
 11
105.5146082839
 21
6.8618391513
  0
LINE
  5
35F
100
AcDbEntity
  8
0
100
AcDbLine
 62
2
  6
CONTINUOUS
 10
105.5146082839
 20
11.4489951146
 11
105.5146082839
 21
6.8618391513
  0
MTEXT
  5
360
100
AcDbEntity
  8
0
100
AcDbMText
 62
2
  6
CONTINUOUS
  7
STANDARD
 71
2
 72
1
 10
103.2210303022
 20
9.4134446559
 30
0.0
 11
1.0
 21
0.0
 31
0.0
 44
0.9
  1
B
 40
1.8348623853
 41
2.1625163827
  0
LINE
  5
361
100
AcDbEntity
  8
0
100
AcDbLine
 62
2
  6
CONTINUOUS
 10
114.6836467669
 20
11.4217852213
 11
142.2065825467
 21
11.4217852213
  0
LINE
  5
362
100
AcDbEntity
  8
0
100
AcDbLine
 62
2
  6
CONTINUOUS
 10
114.6836467669
 20
11.4217852213
 11
114.6836467669
 21
6.834629258
  0
LINE
  5
363
100
AcDbEntity
  8
0
100
AcDbLine
 62
2
  6
CONTINUOUS
 10
114.6836467669
 20
6.834629258
 11
142.2065825467
 21
6.834629258
  0
LINE
  5
364
100
AcDbEntity
  8
0
100
AcDbLine
 62
2
  6
CONTINUOUS
 10
142.2065825467
 20
11.4217852213
 11
142.2065825467
 21
6.834629258
  0
MTEXT
  5
365
100
AcDbEntity
  8
0
100
AcDbMText
 62
2
  6
CONTINUOUS
  7
STANDARD
 71
2
 72
1
 10
128.4451146568
 20
9.6614641204
 30
0.0
 11
1.0
 21
0.0
 31
0.0
 44
0.9
  1
FG-012230-2D
 40
2.1100917431
 41
28.6369593709
  0
LINE
  5
366
100
AcDbEntity
  8
0
100
AcDbLine
 62
2
  6
CONTINUOUS
 10
142.1899073052
 20
11.4521818589
 11
146.7770632685
 21
11.4521818589
  0
LINE
  5
367
100
AcDbEntity
  8
0
100
AcDbLine
 62
2
  6
CONTINUOUS
 10
142.1899073052
 20
11.4521818589
 11
142.1899073052
 21
6.8650258956
  0
LINE
  5
368
100
AcDbEntity
  8
0
100
AcDbLine
 62
2
  6
CONTINUOUS
 10
142.1899073052
 20
6.8650258956
 11
146.7770632685
 21
6.8650258956
  0
LINE
  5
369
100
AcDbEntity
  8
0
100
AcDbLine
 62
2
  6
CONTINUOUS
 10
146.7770632685
 20
11.4521818589
 11
146.7770632685
 21
6.8650258956
  0
MTEXT
  5
36A
100
AcDbEntity
  8
0
100
AcDbMText
 62
2
  6
CONTINUOUS
  7
STANDARD
 71
2
 72
1
 10
144.4834852868
 20
9.2331451616
 30
0.0
 11
1.0
 21
0.0
 31
0.0
 44
0.9
  1
B
 40
1.6513761468
 41
1.9462647444
  0
LINE
  5
36B
100
AcDbEntity
  8
0
100
AcDbLine
 62
2
  6
CONTINUOUS
 10
131.8864277007
 20
6.8158613177
 11
146.7946845814
 21
6.8158613177
  0
LINE
  5
36C
100
AcDbEntity
  8
0
100
AcDbLine
 62
2
  6
CONTINUOUS
 10
131.8864277007
 20
6.8158613177
 11
131.8864277007
 21
4.5222833361
  0
LINE
  5
36D
100
AcDbEntity
  8
0
100
AcDbLine
 62
2
  6
CONTINUOUS
 10
131.8864277007
 20
4.5222833361
 11
146.7946845814
 21
4.5222833361
  0
LINE
  5
36E
100
AcDbEntity
  8
0
100
AcDbLine
 62
2
  6
CONTINUOUS
 10
146.7946845814
 20
6.8158613177
 11
146.7946845814
 21
4.5222833361
  0
MTEXT
  5
36F
100
AcDbEntity
  8
0
100
AcDbMText
 62
2
  6
CONTINUOUS
  7
STANDARD
 71
3
 72
1
 10
146.221290086
 20
6.523430125
 30
0.0
 11
1.0
 21
0.0
 31
0.0
 44
0.9
  1
1 OF 1
 40
1.2844036697
 41
8.119266055
  0
LINE
  5
370
100
AcDbEntity
  8
0
100
AcDbLine
 62
2
  6
CONTINUOUS
 10
100.9014661661
 20
6.8699377698
 11
111.8005487349
 21
6.8699377698
  0
LINE
  5
371
100
AcDbEntity
  8
0
100
AcDbLine
 62
2
  6
CONTINUOUS
 10
100.9014661661
 20
6.8699377698
 11
100.9014661661
 21
4.5405226322
  0
LINE
  5
372
100
AcDbEntity
  8
0
100
AcDbLine
 62
2
  6
CONTINUOUS
 10
100.9014661661
 20
4.5405226322
 11
111.8005487349
 21
4.5405226322
  0
LINE
  5
373
100
AcDbEntity
  8
0
100
AcDbLine
 62
2
  6
CONTINUOUS
 10
111.8005487349
 20
6.8699377698
 11
111.8005487349
 21
4.5405226322
  0
MTEXT
  5
374
100
AcDbEntity
  8
0
100
AcDbMText
 62
2
  6
CONTINUOUS
  7
STANDARD
 71
3
 72
1
 10
111.2271542395
 20
6.3581831827
 30
0.0
 11
1.0
 21
0.0
 31
0.0
 44
0.9
  1
0.109
 40
1.1009174312
 41
5.7798165138
  0
MTEXT
  5
375
100
AcDbEntity
  8
0
100
AcDbMText
 62
2
  6
CONTINUOUS
  7
STANDARD
 71
1
 72
1
 10
5.5321498908
 20
24.8089574069
 30
0.0
 11
1.0
 21
0.0
 31
0.0
 44
1.2
  3
5. PARTS ARE SYMMETRICAL ABOUT CENTER LINES \P   UNLESS OTHERWISE NOTED.\P4. SYMBOL    INDICATES CENTER OF BALANCE.\P3. SYMBOL \Fgdt;{\Fgdt;r}\Ftxt; INDICATES SUSPENSION POINT, \P   15 TOTAL:  M10-1.5 THD. \P2. TOLERANCES (MM): X \Fgdt;{\Fgdt;`}\Ftxt
  1
; 5, ANGLES: \Fgdt;{\Fgdt;`}\Ftxt; 1\Fgdt;{\Fgdt;~}\Ftxt;.\P1. NET WEIGHT APPROX. 29.5 KG (65 LBS)\PNOTE:  UNLESS OTHERWISE SPECIFIED
 40
1.2844036697
 41
66.3302752294
  0
LEADER
  5
376
100
AcDbEntity
  8
0
100
AcDbLeader
 62
2
  6
CONTINUOUS
  3
STANDARD
 71
1
 72
0
 73
0
 75
0
 40
1.4334862385
 41
32.0486566186
 76
3
 10
43.2058561724
 20
75.7219996836
 30
0.0
 10
55.1109873057
 20
81.606790927
 30
0.0
 10
57.4045652873
 20
81.606790927
 30
0.0
340
377
1001
ACAD
1000
DSTYLE
1002
{
1070
77
1070
0
1002
}
  0
MTEXT
  5
377
102
{ACAD_REACTORS
330
376
102
}
100
AcDbEntity
  8
0
100
AcDbMText
 62
2
  6
CONTINUOUS
  7
STANDARD
 71
1
 72
1
 10
57.4045652873
 20
82.3235340463
 30
0.0
 11
1.0
 21
0.0
 31
0.0
 44
0.9
  1
MOUNTING LOCATION TOP/BOTTOM\PUSES M10 FASTENER
 40
1.4334862385
 41
48.0729849279
  0
MTEXT
  5
378
100
AcDbEntity
  8
0
100
AcDbMText
 62
2
  6
CONTINUOUS
  7
STANDARD
 71
1
 72
1
 10
123.0095389701
 20
45.7776664326
 30
0.0
 11
1.0
 21
0.0
 31
0.0
 44
0.9
  1
AP-5122
 40
1.4334862385
 41
11.6214777195
  0
INSERT
  5
379
100
AcDbEntity
  8
0
100
AcDbBlockReference
 62
2
  6
CONTINUOUS
  2
CG_3D_BL1
 10
16.4493085522
 20
19.0244952412
  0
INSERT
  5
37A
100
AcDbEntity
  8
0
100
AcDbBlockReference
 62
2
  6
CONTINUOUS
  2
CG_3D_BL2
 10
42.8237786228
 20
45.7277050224
  0
INSERT
  5
37B
100
AcDbEntity
  8
0
100
AcDbBlockReference
 62
2
  6
CONTINUOUS
  2
CG_3D_BL3
 10
81.395989198
 20
45.715149001
  0
LINE
  5
37C
100
AcDbEntity
  8
DEFAULT_3
100
AcDbLine
 62
7
  6
PHANTOM
 10
-0.0000178154
 20
-0.0
 11
-0.0000178154
 21
100.9172760791
  0
LWPOLYLINE
  5
37D
100
AcDbEntity
  8
0
100
AcDbPolyline
 62
7
  6
CONTINUOUS
 90
2
 70
0
 43
0.1834862462
 10
2.4083343315
 20
48.9114985202
 10
2.4083343315
 20
52.0060836456
  0
LWPOLYLINE
  5
37E
100
AcDbEntity
  8
0
100
AcDbPolyline
 62
7
  6
CONTINUOUS
 90
2
 70
0
 43
0.27522936
 10
4.5859394193
 20
96.3269191651
 10
4.5859394193
 20
4.5871559633
  0
LINE
  5
37F
100
AcDbEntity
  8
DEFAULT_3
100
AcDbLine
 62
7
  6
PHANTOM
 10
-0.0000178154
 20
-0.0
 11
155.9633027523
 21
-0.0
  0
LWPOLYLINE
  5
380
100
AcDbEntity
  8
0
100
AcDbPolyline
 62
7
  6
CONTINUOUS
 90
2
 70
0
 43
0.27522936
 10
32.5787027072
 20
96.3847126785
 10
32.5787027072
 20
91.7975567152
  0
LWPOLYLINE
  5
381
100
AcDbEntity
  8
0
100
AcDbPolyline
 62
7
  6
CONTINUOUS
 90
2
 70
0
 43
0.1834862462
 10
74.141062936
 20
2.4123245088
 10
77.2356480614
 20
2.4123245088
  0
LWPOLYLINE
  5
382
100
AcDbEntity
  8
0
100
AcDbPolyline
 62
7
  6
CONTINUOUS
 90
2
 70
0
 43
0.27522936
 10
4.5859394193
 20
4.5871559633
 10
146.7889908257
 20
4.5871559633
  0
LWPOLYLINE
  5
383
100
AcDbEntity
  8
0
100
AcDbPolyline
 62
7
  6
CONTINUOUS
 90
2
 70
0
 43
0.1834862462
 10
76.8348623853
 20
6.880733945
 10
146.7889908257
 20
6.880733945
  0
LWPOLYLINE
  5
384
100
AcDbEntity
  8
0
100
AcDbPolyline
 62
7
  6
CONTINUOUS
 90
2
 70
0
 43
0.1834862462
 10
40.1367700425
 20
4.5865637875
 10
40.1367700425
 20
-0.0005921758
  0
LWPOLYLINE
  5
385
100
AcDbEntity
  8
0
100
AcDbPolyline
 62
7
  6
CONTINUOUS
 90
2
 70
0
 43
0.1834862462
 10
40.1373374689
 20
96.3283694673
 10
40.1373374689
 20
100.9155254306
  0
LWPOLYLINE
  5
386
100
AcDbEntity
  8
0
100
AcDbPolyline
 62
7
  6
CONTINUOUS
 90
2
 70
0
 43
0.1834862462
 10
4.587575413
 20
50.4587910829
 10
2.4083343315
 20
48.9114985202
  0
LINE
  5
387
100
AcDbEntity
  8
0
100
AcDbLine
 62
7
  6
CONTINUOUS
 10
76.8754982748
 20
10.3398324822
 11
56.2764336622
 21
4.6499874562
  0
LWPOLYLINE
  5
388
100
AcDbEntity
  8
0
100
AcDbPolyline
 62
7
  6
CONTINUOUS
 90
2
 70
0
 43
0.1834862462
 10
76.8348623853
 20
9.1743119266
 10
100.9174311927
 20
9.1743119266
  0
LWPOLYLINE
  5
389
100
AcDbEntity
  8
0
100
AcDbPolyline
 62
7
  6
CONTINUOUS
 90
2
 70
0
 43
0.1834862462
 10
76.8348623853
 20
10.3211009174
 10
56.1926605505
 20
10.3211009174
  0
LWPOLYLINE
  5
38A
100
AcDbEntity
  8
0
100
AcDbPolyline
 62
7
  6
CONTINUOUS
 90
2
 70
0
 43
0.1834862462
 10
100.9174311927
 20
11.4678899083
 10
146.7889908257
 20
11.4678899083
  0
LWPOLYLINE
  5
38B
100
AcDbEntity
  8
0
100
AcDbPolyline
 62
7
  6
CONTINUOUS
 90
2
 70
0
 43
0.1834862462
 10
4.587575413
 20
50.4587910829
 10
2.4083343315
 20
52.0060836456
  0
LINE
  5
38C
100
AcDbEntity
  8
0
100
AcDbLine
 62
7
  6
CONTINUOUS
 10
76.8526780407
 20
16.0201690772
 11
56.2383999387
 21
10.3911780088
  0
LWPOLYLINE
  5
38D
100
AcDbEntity
  8
0
100
AcDbPolyline
 62
7
  6
CONTINUOUS
 90
2
 70
0
 43
0.1834862462
 10
76.8502604054
 20
13.9308601703
 10
100.9328292128
 20
13.9308601703
  0
LWPOLYLINE
  5
38E
100
AcDbEntity
  8
0
100
AcDbPolyline
 62
7
  6
CONTINUOUS
 90
2
 70
0
 43
0.1834862462
 10
56.1926605505
 20
16.0550458716
 10
76.8348623853
 20
16.0550458716
  0
LWPOLYLINE
  5
38F
100
AcDbEntity
  8
0
100
AcDbPolyline
 62
7
  6
CONTINUOUS
 90
2
 70
0
 43
0.1834862462
 10
75.6852307242
 20
96.330634575
 10
77.2325232869
 20
98.5098756564
  0
LWPOLYLINE
  5
390
100
AcDbEntity
  8
0
100
AcDbPolyline
 62
7
  6
CONTINUOUS
 90
2
 70
0
 43
0.1834862462
 10
76.8123864174
 20
18.6750702371
 10
100.8949552247
 20
18.6750702371
  0
LWPOLYLINE
  5
391
100
AcDbEntity
  8
0
100
AcDbPolyline
 62
7
  6
CONTINUOUS
 90
2
 70
0
 43
0.1834862462
 10
100.9174311927
 20
21.7889908257
 10
146.7889908257
 20
21.7889908257
  0
LWPOLYLINE
  5
392
100
AcDbEntity
  8
0
100
AcDbPolyline
 62
7
  6
CONTINUOUS
 90
2
 70
0
 43
0.1834862462
 10
76.8930020452
 20
23.3596443767
 10
100.9755708525
 20
23.3596443767
  0
LINE
  5
393
100
AcDbEntity
  8
0
100
AcDbLine
 62
7
  6
CONTINUOUS
 10
56.2003662153
 20
28.0768594063
 11
76.7385768704
 21
16.172303971
  0
LWPOLYLINE
  5
394
100
AcDbEntity
  8
0
100
AcDbPolyline
 62
7
  6
CONTINUOUS
 90
2
 70
0
 43
0.1834862462
 10
75.6883554987
 20
4.5915655902
 10
77.2356480614
 20
2.4123245088
  0
LWPOLYLINE
  5
395
100
AcDbEntity
  8
0
100
AcDbPolyline
 62
7
  6
CONTINUOUS
 90
2
 70
0
 43
0.1834862462
 10
56.1926605505
 20
4.5871559633
 10
56.1926605505
 20
28.0963302752
  0
LWPOLYLINE
  5
396
100
AcDbEntity
  8
0
100
AcDbPolyline
 62
7
  6
CONTINUOUS
 90
2
 70
0
 43
0.1834862462
 10
4.5869417288
 20
27.5214393005
 10
-0.0002142345
 20
27.5214393005
  0
LWPOLYLINE
  5
397
100
AcDbEntity
  8
0
100
AcDbPolyline
 62
7
  6
CONTINUOUS
 90
2
 70
0
 43
0.1834862462
 10
146.8766800127
 20
27.5215268957
 10
151.463835976
 20
27.5215268957
  0
LWPOLYLINE
  5
398
100
AcDbEntity
  8
0
100
AcDbPolyline
 62
7
  6
CONTINUOUS
 90
2
 70
0
 43
0.1834862462
 10
56.1926605505
 20
28.0963302752
 10
146.7889908257
 20
28.0963302752
  0
LWPOLYLINE
  5
399
100
AcDbEntity
  8
0
100
AcDbPolyline
 62
7
  6
CONTINUOUS
 90
2
 70
0
 43
0.1834862462
 10
75.6852307242
 20
96.330634575
 10
75.6852307242
 20
100.9177905383
  0
LWPOLYLINE
  5
39A
100
AcDbEntity
  8
0
100
AcDbPolyline
 62
7
  6
CONTINUOUS
 90
2
 70
0
 43
0.1834862462
 10
75.6883554987
 20
4.5915655902
 10
75.6883554987
 20
0.0044096269
  0
LWPOLYLINE
  5
39B
100
AcDbEntity
  8
0
100
AcDbPolyline
 62
7
  6
CONTINUOUS
 90
2
 70
0
 43
0.1834862462
 10
76.8348623853
 20
4.5871559633
 10
76.8348623853
 20
28.0963302752
  0
LWPOLYLINE
  5
39C
100
AcDbEntity
  8
0
100
AcDbPolyline
 62
7
  6
CONTINUOUS
 90
2
 70
0
 43
0.1834862462
 10
146.8205303202
 20
50.4586065888
 10
151.4076862835
 20
50.4586065888
  0
LWPOLYLINE
  5
39D
100
AcDbEntity
  8
0
100
AcDbPolyline
 62
7
  6
CONTINUOUS
 90
2
 70
0
 43
0.1834862462
 10
4.587575413
 20
50.4587910829
 10
0.0004194497
 20
50.4587910829
  0
LINE
  5
39E
100
AcDbEntity
  8
0
100
AcDbLine
 62
7
  6
CONTINUOUS
 10
76.8526780407
 20
28.0388256828
 11
56.2383999387
 21
16.0201690772
  0
LWPOLYLINE
  5
39F
100
AcDbEntity
  8
0
100
AcDbPolyline
 62
7
  6
CONTINUOUS
 90
2
 70
0
 43
0.1834862462
 10
100.9174311927
 20
4.5871559633
 10
100.9174311927
 20
28.0963302752
  0
LWPOLYLINE
  5
3A0
100
AcDbEntity
  8
0
100
AcDbPolyline
 62
7
  6
CONTINUOUS
 90
2
 70
0
 43
0.1834862462
 10
105.504587156
 20
6.880733945
 10
105.504587156
 20
11.4678899083
  0
LWPOLYLINE
  5
3A1
100
AcDbEntity
  8
0
100
AcDbPolyline
 62
7
  6
CONTINUOUS
 90
2
 70
0
 43
0.1834862462
 10
75.6883554987
 20
4.5915655902
 10
74.141062936
 20
2.4123245088
  0
LWPOLYLINE
  5
3A2
100
AcDbEntity
  8
0
100
AcDbPolyline
 62
7
  6
CONTINUOUS
 90
2
 70
0
 43
0.1834862462
 10
146.8305639236
 20
73.3916200322
 10
151.4177198869
 20
73.3916200322
  0
LWPOLYLINE
  5
3A3
100
AcDbEntity
  8
0
100
AcDbPolyline
 62
7
  6
CONTINUOUS
 90
2
 70
0
 43
0.1834862462
 10
4.5859382728
 20
73.3919179314
 10
-0.0012176905
 20
73.3919179314
  0
LWPOLYLINE
  5
3A4
100
AcDbEntity
  8
0
100
AcDbPolyline
 62
7
  6
CONTINUOUS
 90
2
 70
0
 43
0.1834862462
 10
75.6852307242
 20
96.330634575
 10
74.1379381615
 20
98.5098756564
  0
LWPOLYLINE
  5
3A5
100
AcDbEntity
  8
0
100
AcDbPolyline
 62
7
  6
CONTINUOUS
 90
2
 70
0
 43
0.1834862462
 10
111.2358983504
 20
96.3434110099
 10
111.2358983504
 20
100.9305669732
  0
LWPOLYLINE
  5
3A6
100
AcDbEntity
  8
0
100
AcDbPolyline
 62
7
  6
CONTINUOUS
 90
2
 70
0
 43
0.1834862462
 10
111.2384458278
 20
4.584146827
 10
111.2384458278
 20
-0.0030091363
  0
LWPOLYLINE
  5
3A7
100
AcDbEntity
  8
0
100
AcDbPolyline
 62
7
  6
CONTINUOUS
 90
2
 70
0
 43
0.1834862462
 10
111.7764125371
 20
4.630735372
 10
111.7764125371
 20
6.9243133537
  0
LWPOLYLINE
  5
3A8
100
AcDbEntity
  8
0
100
AcDbPolyline
 62
7
  6
CONTINUOUS
 90
2
 70
0
 43
0.1834862462
 10
114.6788990826
 20
6.880733945
 10
114.6788990826
 20
11.4678899083
  0
LWPOLYLINE
  5
3A9
100
AcDbEntity
  8
0
100
AcDbPolyline
 62
7
  6
CONTINUOUS
 90
2
 70
0
 43
0.1834862462
 10
146.8205303202
 20
50.4586065888
 10
148.9997714017
 20
52.0058991515
  0
LWPOLYLINE
  5
3AA
100
AcDbEntity
  8
0
100
AcDbPolyline
 62
7
  6
CONTINUOUS
 90
2
 70
0
 43
0.27522936
 10
32.5787027072
 20
91.7975567152
 10
4.4823724319
 20
91.7975567152
  0
LWPOLYLINE
  5
3AB
100
AcDbEntity
  8
0
100
AcDbPolyline
 62
7
  6
CONTINUOUS
 90
2
 70
0
 43
0.1834862462
 10
146.8205303202
 20
50.4586065888
 10
148.9997714017
 20
48.9113140261
  0
LWPOLYLINE
  5
3AC
100
AcDbEntity
  8
0
100
AcDbPolyline
 62
7
  6
CONTINUOUS
 90
2
 70
0
 43
0.27522936
 10
146.7889908257
 20
96.3269191651
 10
4.5859394193
 20
96.3269191651
  0
LWPOLYLINE
  5
3AD
100
AcDbEntity
  8
0
100
AcDbPolyline
 62
7
  6
CONTINUOUS
 90
2
 70
0
 43
0.1834862462
 10
74.1379381615
 20
98.5098756564
 10
77.2325232869
 20
98.5098756564
  0
LWPOLYLINE
  5
3AE
100
AcDbEntity
  8
0
100
AcDbPolyline
 62
7
  6
CONTINUOUS
 90
2
 70
0
 43
0.1834862462
 10
131.880733945
 20
4.5871559633
 10
131.880733945
 20
6.880733945
  0
LINE
  5
3AF
100
AcDbEntity
  8
DEFAULT_3
100
AcDbLine
 62
7
  6
PHANTOM
 10
-0.0000178154
 20
100.9172760791
 11
155.963394208
 21
100.9172760791
  0
LWPOLYLINE
  5
3B0
100
AcDbEntity
  8
0
100
AcDbPolyline
 62
7
  6
CONTINUOUS
 90
2
 70
0
 43
0.1834862462
 10
142.2018348624
 20
6.880733945
 10
142.2018348624
 20
11.4678899083
  0
LWPOLYLINE
  5
3B1
100
AcDbEntity
  8
0
100
AcDbPolyline
 62
7
  6
CONTINUOUS
 90
2
 70
0
 43
0.27522936
 10
146.7889908257
 20
96.3269191651
 10
146.7889908257
 20
4.5871559633
  0
LWPOLYLINE
  5
3B2
100
AcDbEntity
  8
0
100
AcDbPolyline
 62
7
  6
CONTINUOUS
 90
2
 70
0
 43
0.1834862462
 10
148.9997714017
 20
48.9113140261
 10
148.9997714017
 20
52.0058991515
  0
LINE
  5
3B3
100
AcDbEntity
  8
DEFAULT_3
100
AcDbLine
 62
7
  6
PHANTOM
 10
155.9633027523
 20
-0.0
 11
155.9633027523
 21
100.9140751284
  0
LINE
  5
3B4
100
AcDbEntity
  8
7_ALL_ROUNDS
100
AcDbLine
 62
7
  6
CONTINUOUS
 10
35.565269812
 20
33.3207918184
 11
50.0928288671
 21
33.3207918184
  0
LINE
  5
3B5
100
AcDbEntity
  8
7_ALL_ROUNDS
100
AcDbLine
 62
9
  6
CONTINUOUS
 10
45.5794378833
 20
33.5570122908
 11
40.0786607958
 21
33.5570122908
  0
LINE
  5
3B6
100
AcDbEntity
  8
7_ALL_ROUNDS
100
AcDbLine
 62
9
  6
CONTINUOUS
 10
35.3290493396
 20
33.5570122908
 11
40.0365977278
 21
33.5570122908
  0
LINE
  5
3B7
100
AcDbEntity
  8
7_ALL_ROUNDS
100
AcDbLine
 62
9
  6
CONTINUOUS
 10
45.6215009513
 20
33.5570122908
 11
50.3290493396
 21
33.5570122908
  0
LINE
  5
3B8
100
AcDbEntity
  8
0
100
AcDbLine
 62
7
  6
CONTINUOUS
 10
35.3290493396
 20
33.9113429995
 11
36.995781623
 21
33.9113429995
  0
LINE
  5
3B9
100
AcDbEntity
  8
3_ALL_AXES
100
AcDbLine
 62
7
  6
CONTINUOUS
 10
36.995781623
 20
33.9113429995
 11
48.6623170561
 21
33.9113429995
  0
LINE
  5
3BA
100
AcDbEntity
  8
0
100
AcDbLine
 62
7
  6
CONTINUOUS
 10
48.6623170561
 20
33.9113429995
 11
50.3290493396
 21
33.9113429995
  0
LINE
  5
3BB
100
AcDbEntity
  8
3_AXES_OTHER
100
AcDbLine
 62
7
  6
CONTINUOUS
 10
48.6347277163
 20
34.5018941806
 11
37.0233709628
 21
34.5018941806
  0
LINE
  5
3BC
100
AcDbEntity
  8
3_AXES_OTHER
100
AcDbLine
 62
7
  6
CONTINUOUS
 10
39.8963928953
 20
34.5018941806
 11
36.5810178435
 21
37.6515004798
  0
LINE
  5
3BD
100
AcDbEntity
  8
7_ALL_ROUNDS
100
AcDbLine
 62
7
  6
CONTINUOUS
 10
35.3290493396
 20
59.0688233144
 11
35.3290493396
 21
58.7144926058
  0
LINE
  5
3BE
100
AcDbEntity
  8
7_ALL_ROUNDS
100
AcDbLine
 62
7
  6
CONTINUOUS
 10
35.3290493396
 20
33.5570122908
 11
35.3290493396
 21
33.9113429995
  0
LINE
  5
3BF
100
AcDbEntity
  8
3_AXES_OTHER
100
AcDbLine
 62
7
  6
CONTINUOUS
 10
35.3290493396
 20
33.9113429995
 11
35.3290493396
 21
58.7144926058
  0
LINE
  5
3C0
100
AcDbEntity
  8
3_AXES_OTHER
100
AcDbLine
 62
7
  6
CONTINUOUS
 10
35.5377107569
 20
33.9113429995
 11
35.5377107569
 21
58.7144926058
  0
LINE
  5
3C1
100
AcDbEntity
  8
3_AXES_OTHER
100
AcDbLine
 62
7
  6
CONTINUOUS
 10
36.0573957962
 20
47.5727603223
 11
36.0573957962
 21
58.0452012672
  0
LINE
  5
3C2
100
AcDbEntity
  8
3_AXES_OTHER
100
AcDbLine
 62
7
  6
CONTINUOUS
 10
36.5810178435
 20
37.6515004798
 11
36.5810178435
 21
33.9113429995
  0
LINE
  5
3C3
100
AcDbEntity
  8
7_ALL_ROUNDS
100
AcDbLine
 62
7
  6
CONTINUOUS
 10
36.995781623
 20
59.0688233144
 11
36.995781623
 21
58.7144926058
  0
LINE
  5
3C4
100
AcDbEntity
  8
7_ALL_ROUNDS
100
AcDbLine
 62
7
  6
CONTINUOUS
 10
36.995781623
 20
33.5570122908
 11
36.995781623
 21
33.9113429995
  0
LINE
  5
3C5
100
AcDbEntity
  8
3_AXES_OTHER
100
AcDbLine
 62
7
  6
CONTINUOUS
 10
37.0233709628
 20
58.7144926058
 11
37.0233709628
 21
58.1239414247
  0
LINE
  5
3C6
100
AcDbEntity
  8
3_AXES_OTHER
100
AcDbLine
 62
7
  6
CONTINUOUS
 10
37.0233709628
 20
34.5018941806
 11
37.0233709628
 21
33.9113429995
  0
LINE
  5
3C7
100
AcDbEntity
  8
3_AXES_OTHER
100
AcDbLine
 62
7
  6
CONTINUOUS
 10
42.2752914779
 20
52.3807843087
 11
36.0573957962
 21
47.5727603223
  0
LINE
  5
3C8
100
AcDbEntity
  8
3_AXES_OTHER
100
AcDbLine
 62
7
  6
CONTINUOUS
 10
43.3828072012
 20
53.2371772808
 11
49.6007028829
 21
58.0452012672
  0
LINE
  5
3C9
100
AcDbEntity
  8
7_ALL_ROUNDS
100
AcDbLine
 62
7
  6
CONTINUOUS
 10
40.0365977278
 20
33.5570122908
 11
40.0365977278
 21
33.9113429995
  0
LINE
  5
3CA
100
AcDbEntity
  8
7_ALL_ROUNDS
100
AcDbLine
 62
7
  6
CONTINUOUS
 10
40.0365977278
 20
58.7144926058
 11
40.0365977278
 21
59.0688233144
  0
LINE
  5
3CB
100
AcDbEntity
  8
7_ALL_ROUNDS
100
AcDbLine
 62
7
  6
CONTINUOUS
 10
40.0786607958
 20
33.5570122908
 11
40.0786607958
 21
33.9113429995
  0
LINE
  5
3CC
100
AcDbEntity
  8
7_ALL_ROUNDS
100
AcDbLine
 62
7
  6
CONTINUOUS
 10
40.0786607958
 20
58.7144926058
 11
40.0786607958
 21
59.0688233144
  0
LINE
  5
3CD
100
AcDbEntity
  8
3_ALL_AXES
100
AcDbLine
 62
7
  6
CENTER
 10
42.8290493396
 20
45.7223666215
 11
42.8290493396
 21
33.1636244635
  0
LINE
  5
3CE
100
AcDbEntity
  8
3_ALL_AXES
100
AcDbLine
 62
7
  6
CENTER
 10
42.8290493396
 20
45.7223666215
 11
42.8290493396
 21
59.8823151769
  0
LINE
  5
3CF
100
AcDbEntity
  8
3_ALL_AXES
100
AcDbLine
 62
7
  6
CENTER
 10
42.8290493396
 20
45.7223666215
 11
41.4538912003
 21
45.7223666215
  0
LINE
  5
3D0
100
AcDbEntity
  8
3_ALL_AXES
100
AcDbLine
 62
7
  6
CENTER
 10
42.8290493396
 20
45.7223666215
 11
44.2168641716
 21
45.7223666215
  0
LINE
  5
3D1
100
AcDbEntity
  8
3_AXES_OTHER
100
AcDbLine
 62
7
  6
CONTINUOUS
 10
49.0770808356
 20
47.1987445743
 11
45.1400729616
 21
47.1987445743
  0
LINE
  5
3D2
100
AcDbEntity
  8
3_AXES_OTHER
100
AcDbLine
 62
7
  6
CONTINUOUS
 10
49.6007028829
 20
47.5727603223
 11
36.0573957962
 21
47.5727603223
  0
LINE
  5
3D3
100
AcDbEntity
  8
7_ALL_ROUNDS
100
AcDbLine
 62
7
  6
CONTINUOUS
 10
45.5794378833
 20
33.5570122908
 11
45.5794378833
 21
33.9113429995
  0
LINE
  5
3D4
100
AcDbEntity
  8
7_ALL_ROUNDS
100
AcDbLine
 62
7
  6
CONTINUOUS
 10
45.5794378833
 20
58.7144926058
 11
45.5794378833
 21
59.0688233144
  0
LINE
  5
3D5
100
AcDbEntity
  8
7_ALL_ROUNDS
100
AcDbLine
 62
7
  6
CONTINUOUS
 10
45.6215009513
 20
33.5570122908
 11
45.6215009513
 21
33.9113429995
  0
LINE
  5
3D6
100
AcDbEntity
  8
7_ALL_ROUNDS
100
AcDbLine
 62
7
  6
CONTINUOUS
 10
45.6215009513
 20
58.7144926058
 11
45.6215009513
 21
59.0688233144
  0
LINE
  5
3D7
100
AcDbEntity
  8
3_AXES_OTHER
100
AcDbLine
 62
7
  6
CONTINUOUS
 10
45.1400729616
 20
47.1987445743
 11
49.0770808356
 21
43.4585870939
  0
LINE
  5
3D8
100
AcDbEntity
  8
3_AXES_OTHER
100
AcDbLine
 62
7
  6
CONTINUOUS
 10
48.6347277163
 20
58.7144926058
 11
48.6347277163
 21
58.1239414247
  0
LINE
  5
3D9
100
AcDbEntity
  8
3_AXES_OTHER
100
AcDbLine
 62
7
  6
CONTINUOUS
 10
48.6347277163
 20
34.5018941806
 11
48.6347277163
 21
33.9113429995
  0
LINE
  5
3DA
100
AcDbEntity
  8
7_ALL_ROUNDS
100
AcDbLine
 62
7
  6
CONTINUOUS
 10
48.6623170561
 20
59.0688233144
 11
48.6623170561
 21
58.7144926058
  0
LINE
  5
3DB
100
AcDbEntity
  8
7_ALL_ROUNDS
100
AcDbLine
 62
7
  6
CONTINUOUS
 10
48.6623170561
 20
33.5570122908
 11
48.6623170561
 21
33.9113429995
  0
LINE
  5
3DC
100
AcDbEntity
  8
3_AXES_OTHER
100
AcDbLine
 62
7
  6
CONTINUOUS
 10
43.3828072012
 20
52.3807843087
 11
49.6007028829
 21
47.5727603223
  0
LINE
  5
3DD
100
AcDbEntity
  8
3_AXES_OTHER
100
AcDbLine
 62
7
  6
CONTINUOUS
 10
42.2752914779
 20
53.2371772808
 11
36.0573957962
 21
58.0452012672
  0
LINE
  5
3DE
100
AcDbEntity
  8
3_AXES_OTHER
100
AcDbLine
 62
7
  6
CONTINUOUS
 10
49.0770808356
 20
43.4585870939
 11
49.0770808356
 21
47.1987445743
  0
LINE
  5
3DF
100
AcDbEntity
  8
3_AXES_OTHER
100
AcDbLine
 62
7
  6
CONTINUOUS
 10
49.6007028829
 20
58.0452012672
 11
49.6007028829
 21
47.5727603223
  0
LINE
  5
3E0
100
AcDbEntity
  8
3_AXES_OTHER
100
AcDbLine
 62
7
  6
CONTINUOUS
 10
50.1203879222
 20
58.7144926058
 11
50.1203879222
 21
33.9113429995
  0
LINE
  5
3E1
100
AcDbEntity
  8
7_ALL_ROUNDS
100
AcDbLine
 62
7
  6
CONTINUOUS
 10
50.3290493396
 20
59.0688233144
 11
50.3290493396
 21
58.7144926058
  0
LINE
  5
3E2
100
AcDbEntity
  8
7_ALL_ROUNDS
100
AcDbLine
 62
7
  6
CONTINUOUS
 10
50.3290493396
 20
33.5570122908
 11
50.3290493396
 21
33.9113429995
  0
LINE
  5
3E3
100
AcDbEntity
  8
3_AXES_OTHER
100
AcDbLine
 62
7
  6
CONTINUOUS
 10
50.3290493396
 20
33.9113429995
 11
50.3290493396
 21
58.7144926058
  0
LINE
  5
3E4
100
AcDbEntity
  8
3_AXES_OTHER
100
AcDbLine
 62
7
  6
CONTINUOUS
 10
36.0573957962
 20
58.0452012672
 11
49.6007028829
 21
58.0452012672
  0
LINE
  5
3E5
100
AcDbEntity
  8
3_AXES_OTHER
100
AcDbLine
 62
7
  6
CONTINUOUS
 10
48.6347277163
 20
58.1239414247
 11
37.0233709628
 21
58.1239414247
  0
LINE
  5
3E6
100
AcDbEntity
  8
3_ALL_AXES
100
AcDbLine
 62
7
  6
CONTINUOUS
 10
35.3290493396
 20
58.7144926058
 11
50.3290493396
 21
58.7144926058
  0
LINE
  5
3E7
100
AcDbEntity
  8
7_ALL_ROUNDS
100
AcDbLine
 62
9
  6
CONTINUOUS
 10
35.3290493396
 20
59.0688233144
 11
40.0365977278
 21
59.0688233144
  0
LINE
  5
3E8
100
AcDbEntity
  8
7_ALL_ROUNDS
100
AcDbLine
 62
9
  6
CONTINUOUS
 10
40.0786607958
 20
59.0688233144
 11
45.5794378833
 21
59.0688233144
  0
LINE
  5
3E9
100
AcDbEntity
  8
7_ALL_ROUNDS
100
AcDbLine
 62
9
  6
CONTINUOUS
 10
45.6215009513
 20
59.0688233144
 11
50.3290493396
 21
59.0688233144
  0
LINE
  5
3EA
100
AcDbEntity
  8
7_ALL_ROUNDS
100
AcDbLine
 62
7
  6
CONTINUOUS
 10
35.565269812
 20
59.3050437869
 11
50.0928288671
 21
59.3050437869
  0
LINE
  5
3EB
100
AcDbEntity
  8
7_ALL_ROUNDS
100
AcDbLine
 62
7
  6
CONTINUOUS
 10
35.3290493396
 20
71.3748480111
 11
35.3290493396
 21
72.1307535229
  0
LINE
  5
3EC
100
AcDbEntity
  8
7_ALL_ROUNDS
100
AcDbLine
 62
9
  6
CONTINUOUS
 10
35.565269812
 20
71.419667906
 11
35.565269812
 21
72.0933398756
  0
LINE
  5
3ED
100
AcDbEntity
  8
3_ALL_AXES
100
AcDbLine
 62
7
  6
CENTER
 10
37.4504534688
 20
73.5126323435
 11
37.4504534688
 21
72.3786657178
  0
LINE
  5
3EE
100
AcDbEntity
  8
3_ALL_AXES
100
AcDbLine
 62
7
  6
CENTER
 10
37.4504534688
 20
73.5126323435
 11
37.4504534688
 21
74.6465989693
  0
LINE
  5
3EF
100
AcDbEntity
  8
7_ALL_ROUNDS
100
AcDbLine
 62
7
  6
CONTINUOUS
 10
38.6535856599
 20
82.3626242248
 11
35.3290493396
 21
72.1307535229
  0
LINE
  5
3F0
100
AcDbEntity
  8
7_ALL_ROUNDS
100
AcDbLine
 62
9
  6
CONTINUOUS
 10
38.8782446795
 20
82.2896280844
 11
35.565269812
 21
72.0933398756
  0
LINE
  5
3F1
100
AcDbEntity
  8
3_ALL_AXES
100
AcDbLine
 62
7
  6
CONTINUOUS
 10
41.9081674498
 20
70.4842688834
 11
42.0680887096
 21
70.4842688834
  0
LINE
  5
3F2
100
AcDbEntity
  8
3_ALL_AXES
100
AcDbLine
 62
7
  6
CONTINUOUS
 10
41.4673446151
 20
70.5382177023
 11
41.8912422529
 21
70.5382177023
  0
LINE
  5
3F3
100
AcDbEntity
  8
3_ALL_AXES
100
AcDbLine
 62
7
  6
CONTINUOUS
 10
42.0850139065
 20
70.5382177023
 11
42.1661083947
 21
70.5382177023
  0
LINE
  5
3F4
100
AcDbEntity
  8
3_ALL_AXES
100
AcDbLine
 62
7
  6
CONTINUOUS
 10
42.4004745364
 20
70.5382177023
 11
43.1673446151
 21
70.5382177023
  0
LINE
  5
3F5
100
AcDbEntity
  8
3_ALL_AXES
100
AcDbLine
 62
7
  6
CONTINUOUS
 10
43.5123957962
 20
70.5382177023
 11
44.2533721742
 21
70.5382177023
  0
LINE
  5
3F6
100
AcDbEntity
  8
3_ALL_AXES
100
AcDbLine
 62
7
  6
CONTINUOUS
 10
44.2533721742
 20
70.6493358125
 11
43.6214194183
 21
70.6493358125
  0
LINE
  5
3F7
100
AcDbEntity
  8
3_ALL_AXES
100
AcDbLine
 62
7
  6
CONTINUOUS
 10
43.0116556388
 20
70.6493358125
 11
42.4004745364
 21
70.6493358125
  0
LINE
  5
3F8
100
AcDbEntity
  8
3_ALL_AXES
100
AcDbLine
 62
7
  6
CONTINUOUS
 10
42.1220375285
 20
70.6493358125
 11
42.0850139065
 21
70.6493358125
  0
LINE
  5
3F9
100
AcDbEntity
  8
3_ALL_AXES
100
AcDbLine
 62
7
  6
CONTINUOUS
 10
41.8912422529
 20
70.6493358125
 11
41.579781623
 21
70.6493358125
  0
LINE
  5
3FA
100
AcDbEntity
  8
3_ALL_AXES
100
AcDbLine
 62
7
  6
CONTINUOUS
 10
42.0680887096
 20
70.7033082535
 11
41.9081674498
 21
70.7033082535
  0
LINE
  5
3FB
100
AcDbEntity
  8
3_ALL_AXES
100
AcDbLine
 62
7
  6
CONTINUOUS
 10
42.4889627254
 20
70.7604539228
 11
43.0116556388
 21
70.7604539228
  0
LINE
  5
3FC
100
AcDbEntity
  8
3_ALL_AXES
100
AcDbLine
 62
7
  6
CONTINUOUS
 10
43.1673446151
 20
70.8669696708
 11
42.6446517018
 21
70.8669696708
  0
LINE
  5
3FD
100
AcDbEntity
  8
3_ALL_AXES
100
AcDbLine
 62
7
  6
CONTINUOUS
 10
41.579781623
 20
70.978087781
 11
42.1220375285
 21
70.978087781
  0
LINE
  5
3FE
100
AcDbEntity
  8
3_ALL_AXES
100
AcDbLine
 62
7
  6
CONTINUOUS
 10
42.6446517018
 20
70.978087781
 11
43.2558328041
 21
70.978087781
  0
LINE
  5
3FF
100
AcDbEntity
  8
3_ALL_AXES
100
AcDbLine
 62
7
  6
CONTINUOUS
 10
43.6214194183
 20
70.978087781
 11
44.2533721742
 21
70.978087781
  0
LINE
  5
400
100
AcDbEntity
  8
3_ALL_AXES
100
AcDbLine
 62
7
  6
CONTINUOUS
 10
44.2533721742
 20
71.0892058913
 11
43.5123957962
 21
71.0892058913
  0
LINE
  5
401
100
AcDbEntity
  8
3_ALL_AXES
100
AcDbLine
 62
7
  6
CONTINUOUS
 10
43.2558328041
 20
71.0892058913
 11
42.4889627254
 21
71.0892058913
  0
LINE
  5
402
100
AcDbEntity
  8
3_ALL_AXES
100
AcDbLine
 62
7
  6
CONTINUOUS
 10
42.1661083947
 20
71.0892058913
 11
41.4673446151
 21
71.0892058913
  0
LINE
  5
403
100
AcDbEntity
  8
7_ALL_ROUNDS
100
AcDbLine
 62
9
  6
CONTINUOUS
 10
46.7798539996
 20
82.2896280844
 11
47.0045130198
 21
82.3626242229
  0
LINE
  5
404
100
AcDbEntity
  8
7_ALL_ROUNDS
100
AcDbLine
 62
9
  6
CONTINUOUS
 10
39.1291139181
 20
82.4718952552
 11
39.12911392
 21
82.7081157276
  0
LINE
  5
405
100
AcDbEntity
  8
3_ALL_AXES
100
AcDbLine
 62
7
  6
CENTER
 10
48.2076452103
 20
73.5126323435
 11
47.0736785845
 21
73.5126323435
  0
LINE
  5
406
100
AcDbEntity
  8
3_ALL_AXES
100
AcDbLine
 62
7
  6
CENTER
 10
37.4504534688
 20
73.5126323435
 11
36.3164868431
 21
73.5126323435
  0
LINE
  5
407
100
AcDbEntity
  8
3_ALL_AXES
100
AcDbLine
 62
7
  6
CENTER
 10
37.4504534688
 20
73.5126323435
 11
38.5844200946
 21
73.5126323435
  0
LINE
  5
408
100
AcDbEntity
  8
3_ALL_AXES
100
AcDbLine
 62
7
  6
CENTER
 10
48.2076452103
 20
73.5126323435
 11
49.341611836
 21
73.5126323435
  0
LINE
  5
409
100
AcDbEntity
  8
3_ALL_AXES
100
AcDbLine
 62
7
  6
CONTINUOUS
 10
41.5427343789
 20
70.6863830566
 11
41.5427343789
 21
70.9410405369
  0
LINE
  5
40A
100
AcDbEntity
  8
3_ALL_AXES
100
AcDbLine
 62
7
  6
CONTINUOUS
 10
41.8912422529
 20
70.6863830566
 11
41.8912422529
 21
70.6493358125
  0
LINE
  5
40B
100
AcDbEntity
  8
3_ALL_AXES
100
AcDbLine
 62
7
  6
CONTINUOUS
 10
41.8912422529
 20
70.5382177023
 11
41.8912422529
 21
70.5011940802
  0
LINE
  5
40C
100
AcDbEntity
  8
3_ALL_AXES
100
AcDbLine
 62
7
  6
CONTINUOUS
 10
42.0850139065
 20
70.5011940802
 11
42.0850139065
 21
70.5382177023
  0
LINE
  5
40D
100
AcDbEntity
  8
3_ALL_AXES
100
AcDbLine
 62
7
  6
CONTINUOUS
 10
42.0850139065
 20
70.6493358125
 11
42.0850139065
 21
70.6863830566
  0
LINE
  5
40E
100
AcDbEntity
  8
3_ALL_AXES
100
AcDbLine
 62
7
  6
CONTINUOUS
 10
42.1590847726
 20
70.9410405369
 11
42.1590847726
 21
70.6863830566
  0
LINE
  5
40F
100
AcDbEntity
  8
7_ALL_ROUNDS
100
AcDbLine
 62
7
  6
CONTINUOUS
 10
40.0365977278
 20
69.9395042005
 11
40.4991749983
 21
71.3631706506
  0
LINE
  5
410
100
AcDbEntity
  8
7_ALL_ROUNDS
100
AcDbLine
 62
7
  6
CONTINUOUS
 10
40.0786607958
 20
69.9415567616
 11
40.5366181682
 21
71.3510046272
  0
LINE
  5
411
100
AcDbEntity
  8
3_ALL_AXES
100
AcDbLine
 62
7
  6
CENTER
 10
42.8290493396
 20
75.5087062788
 11
41.6950827138
 21
75.5087062788
  0
LINE
  5
412
100
AcDbEntity
  8
3_ALL_AXES
100
AcDbLine
 62
7
  6
CENTER
 10
42.8290493396
 20
75.5087062788
 11
43.9630159653
 21
75.5087062788
  0
LINE
  5
413
100
AcDbEntity
  8
3_ALL_AXES
100
AcDbLine
 62
7
  6
CONTINUOUS
 10
42.2960335915
 20
70.6421153401
 11
42.2960335915
 21
70.9851547102
  0
LINE
  5
414
100
AcDbEntity
  8
3_ALL_AXES
100
AcDbLine
 62
7
  6
CONTINUOUS
 10
42.3634272923
 20
70.6122885684
 11
42.3634272923
 21
70.5752649464
  0
LINE
  5
415
100
AcDbEntity
  8
3_ALL_AXES
100
AcDbLine
 62
7
  6
CONTINUOUS
 10
42.6076044577
 20
70.9040169149
 11
42.6076044577
 21
70.9410405369
  0
LINE
  5
416
100
AcDbEntity
  8
3_ALL_AXES
100
AcDbLine
 62
7
  6
CENTER
 10
42.8290493396
 20
81.1175645465
 11
42.8290493396
 21
79.9835979208
  0
LINE
  5
417
100
AcDbEntity
  8
3_ALL_AXES
100
AcDbLine
 62
7
  6
CENTER
 10
42.8290493396
 20
75.5087062788
 11
42.8290493396
 21
69.546066744
  0
LINE
  5
418
100
AcDbEntity
  8
3_ALL_AXES
100
AcDbLine
 62
7
  6
CENTER
 10
42.8290493396
 20
81.1175645465
 11
42.8290493396
 21
82.2515311722
  0
LINE
  5
419
100
AcDbEntity
  8
3_ALL_AXES
100
AcDbLine
 62
7
  6
CENTER
 10
42.8290493396
 20
75.5087062788
 11
42.8290493396
 21
79.9835979208
  0
LINE
  5
41A
100
AcDbEntity
  8
3_ALL_AXES
100
AcDbLine
 62
7
  6
CENTER
 10
42.8290493396
 20
82.2515311722
 11
42.8290493396
 21
83.4683446773
  0
LINE
  5
41B
100
AcDbEntity
  8
3_ALL_AXES
100
AcDbLine
 62
7
  6
CONTINUOUS
 10
43.0487028829
 20
70.7234066787
 11
43.0487028829
 21
70.6863830566
  0
LINE
  5
41C
100
AcDbEntity
  8
3_ALL_AXES
100
AcDbLine
 62
7
  6
CONTINUOUS
 10
43.2928800482
 20
71.0151350251
 11
43.2928800482
 21
71.0521586472
  0
LINE
  5
41D
100
AcDbEntity
  8
3_ALL_AXES
100
AcDbLine
 62
7
  6
CONTINUOUS
 10
43.3567304419
 20
70.8143594346
 11
43.3567304419
 21
70.8064854188
  0
LINE
  5
41E
100
AcDbEntity
  8
3_ALL_AXES
100
AcDbLine
 62
7
  6
CONTINUOUS
 10
43.5843721742
 20
70.6863830566
 11
43.5843721742
 21
70.9410405369
  0
LINE
  5
41F
100
AcDbEntity
  8
7_ALL_ROUNDS
100
AcDbLine
 62
7
  6
CONTINUOUS
 10
45.5794378833
 20
69.9415567616
 11
45.1214805109
 21
71.3510046272
  0
LINE
  5
420
100
AcDbEntity
  8
7_ALL_ROUNDS
100
AcDbLine
 62
7
  6
CONTINUOUS
 10
45.6215009513
 20
69.9395042005
 11
45.1589236808
 21
71.3631706506
  0
LINE
  5
421
100
AcDbEntity
  8
3_ALL_AXES
100
AcDbLine
 62
7
  6
CONTINUOUS
 10
44.2904194183
 20
70.5752649464
 11
44.2904194183
 21
70.6122885684
  0
LINE
  5
422
100
AcDbEntity
  8
3_ALL_AXES
100
AcDbLine
 62
7
  6
CONTINUOUS
 10
44.2904194183
 20
71.0151350251
 11
44.2904194183
 21
71.0521586472
  0
LINE
  5
423
100
AcDbEntity
  8
7_ALL_ROUNDS
100
AcDbLine
 62
9
  6
CONTINUOUS
 10
46.528984761
 20
82.4718952552
 11
46.528984761
 21
82.7081157276
  0
LINE
  5
424
100
AcDbEntity
  8
7_ALL_ROUNDS
100
AcDbLine
 62
9
  6
CONTINUOUS
 10
38.8782446795
 20
82.2896280844
 11
38.6535856599
 21
82.3626242248
  0
LINE
  5
425
100
AcDbEntity
  8
3_ALL_AXES
100
AcDbLine
 62
7
  6
CENTER
 10
48.2076452103
 20
73.5126323435
 11
48.2076452103
 21
72.3786657178
  0
LINE
  5
426
100
AcDbEntity
  8
3_ALL_AXES
100
AcDbLine
 62
7
  6
CENTER
 10
48.2076452103
 20
73.5126323435
 11
48.2076452103
 21
74.6465989693
  0
LINE
  5
427
100
AcDbEntity
  8
3_ALL_AXES
100
AcDbLine
 62
7
  6
CENTER
 10
42.8290493396
 20
81.1175645465
 11
41.6950827138
 21
81.1175645465
  0
LINE
  5
428
100
AcDbEntity
  8
3_ALL_AXES
100
AcDbLine
 62
7
  6
CENTER
 10
42.8290493396
 20
81.1175645465
 11
43.9630159653
 21
81.1175645465
  0
LINE
  5
429
100
AcDbEntity
  8
7_ALL_ROUNDS
100
AcDbLine
 62
9
  6
CONTINUOUS
 10
50.0928288671
 20
72.0933398756
 11
46.7798539996
 21
82.2896280844
  0
LINE
  5
42A
100
AcDbEntity
  8
7_ALL_ROUNDS
100
AcDbLine
 62
7
  6
CONTINUOUS
 10
50.3290493396
 20
72.1307535229
 11
47.0045130192
 21
82.3626242248
  0
LINE
  5
42B
100
AcDbEntity
  8
7_ALL_ROUNDS
100
AcDbLine
 62
9
  6
CONTINUOUS
 10
46.528984761
 20
82.4718952552
 11
39.1291139181
 21
82.4718952552
  0
LINE
  5
42C
100
AcDbEntity
  8
7_ALL_ROUNDS
100
AcDbLine
 62
7
  6
CONTINUOUS
 10
46.528984761
 20
82.7081157276
 11
39.1291139181
 21
82.7081157276
  0
LINE
  5
42D
100
AcDbEntity
  8
7_ALL_ROUNDS
100
AcDbLine
 62
9
  6
CONTINUOUS
 10
50.0928288671
 20
72.0933398756
 11
50.0928288671
 21
71.419667906
  0
LINE
  5
42E
100
AcDbEntity
  8
7_ALL_ROUNDS
100
AcDbLine
 62
7
  6
CONTINUOUS
 10
50.3290493396
 20
72.1307535229
 11
50.3290493396
 21
71.3748480111
  0
LINE
  5
42F
100
AcDbEntity
  8
7_ALL_ROUNDS
100
AcDbLine
 62
7
  6
CONTINUOUS
 10
75.7266087132
 20
33.3207918184
 11
88.2495064615
 21
33.3207918184
  0
LINE
  5
430
100
AcDbEntity
  8
7_ALL_ROUNDS
100
AcDbLine
 62
9
  6
CONTINUOUS
 10
75.485726934
 20
33.5570122908
 11
88.485726934
 21
33.5570122908
  0
LINE
  5
431
100
AcDbEntity
  8
3_AXES_OTHER
100
AcDbLine
 62
7
  6
CONTINUOUS
 10
77.9083647293
 20
33.9113429995
 11
77.1524592174
 21
33.9113429995
  0
LINE
  5
432
100
AcDbEntity
  8
0
100
AcDbLine
 62
7
  6
CONTINUOUS
 10
75.485726934
 20
33.9113429995
 11
77.1524592174
 21
33.9113429995
  0
LINE
  5
433
100
AcDbEntity
  8
3_AXES_OTHER
100
AcDbLine
 62
7
  6
CONTINUOUS
 10
75.6864463579
 20
34.5018941806
 11
77.3493096111
 21
34.5018941806
  0
LINE
  5
434
100
AcDbEntity
  8
7_ALL_ROUNDS
100
AcDbLine
 62
7
  6
CONTINUOUS
 10
75.485726934
 20
59.0688233144
 11
75.485726934
 21
58.7144926058
  0
LINE
  5
435
100
AcDbEntity
  8
7_ALL_ROUNDS
100
AcDbLine
 62
7
  6
CONTINUOUS
 10
75.485726934
 20
33.5570122908
 11
75.485726934
 21
33.9113429995
  0
LINE
  5
436
100
AcDbEntity
  8
3_AXES_OTHER
100
AcDbLine
 62
7
  6
CONTINUOUS
 10
75.6864463579
 20
58.7144926058
 11
75.6864463579
 21
58.1239414247
  0
LINE
  5
437
100
AcDbEntity
  8
3_AXES_OTHER
100
AcDbLine
 62
7
  6
CONTINUOUS
 10
75.6864463579
 20
34.5018941806
 11
75.6864463579
 21
33.9113429995
  0
LINE
  5
438
100
AcDbEntity
  8
3_AXES_OTHER
100
AcDbLine
 62
7
  6
CONTINUOUS
 10
76.6864463579
 20
34.5018941806
 11
76.6864463579
 21
33.9113429995
  0
LINE
  5
439
100
AcDbEntity
  8
3_AXES_OTHER
100
AcDbLine
 62
7
  6
CONTINUOUS
 10
76.6864463579
 20
58.1239414247
 11
76.6864463579
 21
58.7144926058
  0
LINE
  5
43A
100
AcDbEntity
  8
7_ALL_ROUNDS
100
AcDbLine
 62
7
  6
CONTINUOUS
 10
77.1524592174
 20
59.0688233144
 11
77.1524592174
 21
58.7144926058
  0
LINE
  5
43B
100
AcDbEntity
  8
7_ALL_ROUNDS
100
AcDbLine
 62
7
  6
CONTINUOUS
 10
77.1524592174
 20
33.5570122908
 11
77.1524592174
 21
33.9113429995
  0
LINE
  5
43C
100
AcDbEntity
  8
3_AXES_OTHER
100
AcDbLine
 62
7
  6
CONTINUOUS
 10
77.3493096111
 20
58.7144926058
 11
77.3493096111
 21
33.9113429995
  0
LINE
  5
43D
100
AcDbEntity
  8
7_ALL_ROUNDS
100
AcDbLine
 62
7
  6
CONTINUOUS
 10
77.9083647293
 20
33.5570122908
 11
77.9083647293
 21
33.9113429995
  0
LINE
  5
43E
100
AcDbEntity
  8
3_AXES_OTHER
100
AcDbLine
 62
7
  6
CONTINUOUS
 10
77.9083647293
 20
33.9113429995
 11
77.9083647293
 21
58.7144926058
  0
LINE
  5
43F
100
AcDbEntity
  8
7_ALL_ROUNDS
100
AcDbLine
 62
7
  6
CONTINUOUS
 10
77.9083647293
 20
58.7144926058
 11
77.9083647293
 21
59.0688233144
  0
LINE
  5
440
100
AcDbEntity
  8
3_ALL_AXES
100
AcDbLine
 62
7
  6
CENTER
 10
81.3991127608
 20
47.3040634859
 11
81.3991127608
 21
44.1299210629
  0
LINE
  5
441
100
AcDbEntity
  8
3_ALL_AXES
100
AcDbLine
 62
7
  6
CENTER
 10
79.6912960376
 20
45.7223666215
 11
83.1386419009
 21
45.7223666215
  0
LINE
  5
442
100
AcDbEntity
  8
7_ALL_ROUNDS
100
AcDbLine
 62
9
  6
CONTINUOUS
 10
88.1402354312
 20
59.0688233144
 11
88.1402354312
 21
33.5570122908
  0
LINE
  5
443
100
AcDbEntity
  8
7_ALL_ROUNDS
100
AcDbLine
 62
7
  6
CONTINUOUS
 10
88.485726934
 20
59.0688233144
 11
88.485726934
 21
33.5570122908
  0
LINE
  5
444
100
AcDbEntity
  8
3_AXES_OTHER
100
AcDbLine
 62
7
  6
CONTINUOUS
 10
75.6864463579
 20
58.1239414247
 11
77.3493096111
 21
58.1239414247
  0
LINE
  5
445
100
AcDbEntity
  8
3_ALL_AXES
100
AcDbLine
 62
7
  6
CONTINUOUS
 10
75.485726934
 20
58.7144926058
 11
77.1524592174
 21
58.7144926058
  0
LINE
  5
446
100
AcDbEntity
  8
3_AXES_OTHER
100
AcDbLine
 62
7
  6
CONTINUOUS
 10
77.1524592174
 20
58.7144926058
 11
77.9083647293
 21
58.7144926058
  0
LINE
  5
447
100
AcDbEntity
  8
7_ALL_ROUNDS
100
AcDbLine
 62
9
  6
CONTINUOUS
 10
75.485726934
 20
59.0688233144
 11
88.485726934
 21
59.0688233144
  0
LINE
  5
448
100
AcDbEntity
  8
7_ALL_ROUNDS
100
AcDbLine
 62
7
  6
CONTINUOUS
 10
75.7266087132
 20
59.3050437869
 11
88.2495064615
 21
59.3050437869
  0
LINE
  5
449
100
AcDbEntity
  8
7_ALL_ROUNDS
100
AcDbLine
 62
7
  6
CONTINUOUS
 10
119.7971643623
 20
72.4494959
 11
119.7696299842
 21
72.4253238108
  0
LINE
  5
44A
100
AcDbEntity
  8
7_ALL_ROUNDS
100
AcDbLine
 62
7
  6
CONTINUOUS
 10
119.7971823121
 20
72.4495062661
 11
120.2435400177
 21
72.7072784938
  0
LINE
  5
44B
100
AcDbEntity
  8
7_ALL_ROUNDS
100
AcDbLine
 62
7
  6
CONTINUOUS
 10
119.9184894316
 20
72.4506275546
 11
120.3292935939
 21
72.687867559
  0
LINE
  5
44C
100
AcDbEntity
  8
7_ALL_ROUNDS
100
AcDbLine
 62
7
  6
CONTINUOUS
 10
120.2539417373
 20
72.7117384041
 11
120.2435519011
 21
72.7072853564
  0
LINE
  5
44D
100
AcDbEntity
  8
7_ALL_ROUNDS
100
AcDbLine
 62
7
  6
CONTINUOUS
 10
128.5097169918
 20
75.1410109088
 11
120.2541705848
 21
72.7118024093
  0
LINE
  5
44E
100
AcDbEntity
  8
7_ALL_ROUNDS
100
AcDbLine
 62
7
  6
CONTINUOUS
 10
128.5672220694
 20
75.1118919523
 11
120.3292935939
 21
72.687867559
  0
LINE
  5
44F
100
AcDbEntity
  8
0
100
AcDbLine
 62
7
  6
CONTINUOUS
 10
122.6084441746
 20
72.3712895039
 11
122.6083363229
 21
72.3712281418
  0
LINE
  5
450
100
AcDbEntity
  8
7_ALL_ROUNDS
100
AcDbLine
 62
7
  6
CONTINUOUS
 10
119.7689988082
 20
53.143632867
 11
119.8014446945
 21
53.1174703676
  0
LINE
  5
451
100
AcDbEntity
  8
7_ALL_ROUNDS
100
AcDbLine
 62
7
  6
CONTINUOUS
 10
121.9366222403
 20
70.4118747686
 11
122.8927255134
 21
70.6932097746
  0
LINE
  5
452
100
AcDbEntity
  8
7_ALL_ROUNDS
100
AcDbLine
 62
7
  6
CONTINUOUS
 10
121.9634695551
 20
70.3977687006
 11
122.9081394797
 21
70.6757394244
  0
LINE
  5
453
100
AcDbEntity
  8
3_ALL_AXES
100
AcDbLine
 62
7
  6
CONTINUOUS
 10
121.7424969058
 20
69.9389799597
 11
121.7693985507
 21
69.9468958142
  0
LINE
  5
454
100
AcDbEntity
  8
3_AXES_OTHER
100
AcDbLine
 62
7
  6
CONTINUOUS
 10
123.2210423082
 20
53.1880061824
 11
120.4961322869
 21
54.2947784802
  0
LINE
  5
455
100
AcDbEntity
  8
3_AXES_OTHER
100
AcDbLine
 62
7
  6
CONTINUOUS
 10
119.9943919323
 20
54.6356283916
 11
120.6305990377
 21
54.268217858
  0
LINE
  5
456
100
AcDbEntity
  8
3_AXES_OTHER
100
AcDbLine
 62
7
  6
CONTINUOUS
 10
127.3669795968
 20
50.3779482353
 11
128.8868867183
 21
49.5001996502
  0
LINE
  5
457
100
AcDbEntity
  8
3_AXES_OTHER
100
AcDbLine
 62
7
  6
CONTINUOUS
 10
129.3550391166
 20
49.6235941313
 11
129.2277976956
 21
49.697076238
  0
LINE
  5
458
100
AcDbEntity
  8
3_AXES_OTHER
100
AcDbLine
 62
7
  6
CONTINUOUS
 10
123.2210423082
 20
53.1880061824
 11
125.6602363424
 21
51.7793680611
  0
LINE
  5
459
100
AcDbEntity
  8
3_ALL_AXES
100
AcDbLine
 62
7
  6
CONTINUOUS
 10
123.1163824019
 20
70.087373192
 11
123.2716721536
 21
70.1770532507
  0
LINE
  5
45A
100
AcDbEntity
  8
3_ALL_AXES
100
AcDbLine
 62
7
  6
CONTINUOUS
 10
123.3289019837
 20
69.9646428228
 11
123.3063106295
 21
69.9515962827
  0
LINE
  5
45B
100
AcDbEntity
  8
3_ALL_AXES
100
AcDbLine
 62
7
  6
CONTINUOUS
 10
123.2385509716
 20
69.9124649812
 11
123.2159740221
 21
69.8994267598
  0
LINE
  5
45C
100
AcDbEntity
  8
3_ALL_AXES
100
AcDbLine
 62
7
  6
CONTINUOUS
 10
123.3289019837
 20
69.936924616
 11
123.3063106295
 21
69.923878076
  0
LINE
  5
45D
100
AcDbEntity
  8
3_ALL_AXES
100
AcDbLine
 62
7
  6
CONTINUOUS
 10
123.2385509716
 20
69.8847467745
 11
123.2296514489
 21
69.8796072871
  0
LINE
  5
45E
100
AcDbEntity
  8
3_ALL_AXES
100
AcDbLine
 62
7
  6
CONTINUOUS
 10
123.3341356874
 20
69.8311882253
 11
123.3567126369
 21
69.8442264467
  0
LINE
  5
45F
100
AcDbEntity
  8
3_ALL_AXES
100
AcDbLine
 62
7
  6
CONTINUOUS
 10
123.4244722948
 20
69.8833577482
 11
123.447063649
 21
69.8964042883
  0
LINE
  5
460
100
AcDbEntity
  8
3_ALL_AXES
100
AcDbLine
 62
7
  6
CONTINUOUS
 10
123.6475217044
 20
69.9599995855
 11
123.4922319527
 21
69.8703195268
  0
LINE
  5
461
100
AcDbEntity
  8
3_ALL_AXES
100
AcDbLine
 62
7
  6
CONTINUOUS
 10
123.6475217044
 20
69.9322813788
 11
123.4922319527
 21
69.8426013201
  0
LINE
  5
462
100
AcDbEntity
  8
3_ALL_AXES
100
AcDbLine
 62
7
  6
CONTINUOUS
 10
123.5487487507
 20
69.8065023968
 11
123.757933647
 21
69.9273069803
  0
LINE
  5
463
100
AcDbEntity
  8
3_ALL_AXES
100
AcDbLine
 62
7
  6
CONTINUOUS
 10
123.5716570081
 20
69.7722652809
 11
123.5490800586
 21
69.7592270596
  0
LINE
  5
464
100
AcDbEntity
  8
3_ALL_AXES
100
AcDbLine
 62
7
  6
CONTINUOUS
 10
123.5716570081
 20
69.7445470742
 11
123.5490800586
 21
69.7315088528
  0
LINE
  5
465
100
AcDbEntity
  8
3_ALL_AXES
100
AcDbLine
 62
7
  6
CONTINUOUS
 10
123.8984513899
 20
69.7890108825
 11
123.9210283394
 21
69.8020491039
  0
LINE
  5
466
100
AcDbEntity
  8
3_AXES_OTHER
100
AcDbLine
 62
7
  6
CONTINUOUS
 10
127.5767203174
 20
50.2057285394
 11
125.6602363424
 21
51.7793680611
  0
LINE
  5
467
100
AcDbEntity
  8
0
100
AcDbLine
 62
7
  6
CONTINUOUS
 10
119.5313995047
 20
53.8033682375
 11
119.5313995047
 21
54.052832098
  0
LINE
  5
468
100
AcDbEntity
  8
3_ALL_AXES
100
AcDbLine
 62
7
  6
CONTINUOUS
 10
119.5313995047
 20
71.5153023331
 11
119.5313995047
 21
71.7647661936
  0
LINE
  5
469
100
AcDbEntity
  8
7_ALL_ROUNDS
100
AcDbLine
 62
7
  6
CONTINUOUS
 10
119.7471114347
 20
71.1778105355
 11
119.7471114347
 21
70.928346675
  0
LINE
  5
46A
100
AcDbEntity
  8
7_ALL_ROUNDS
100
AcDbLine
 62
7
  6
CONTINUOUS
 10
119.7471114347
 20
53.2164125794
 11
119.7471114347
 21
53.4658764399
  0
LINE
  5
46B
100
AcDbEntity
  8
3_ALL_AXES
100
AcDbLine
 62
7
  6
CONTINUOUS
 10
124.057296699
 20
69.5700702523
 11
124.0347197495
 21
69.557032031
  0
LINE
  5
46C
100
AcDbEntity
  8
3_ALL_AXES
100
AcDbLine
 62
7
  6
CONTINUOUS
 10
124.057296699
 20
69.5423520456
 11
124.0347197495
 21
69.5293138242
  0
LINE
  5
46D
100
AcDbEntity
  8
3_ALL_AXES
100
AcDbLine
 62
7
  6
CONTINUOUS
 10
124.3840910809
 20
69.5868158539
 11
124.4066680304
 21
69.5998540753
  0
LINE
  5
46E
100
AcDbEntity
  8
3_ALL_AXES
100
AcDbLine
 62
7
  6
CONTINUOUS
 10
124.3005943
 20
69.4936252916
 11
124.295792737
 21
69.4908523819
  0
LINE
  5
46F
100
AcDbEntity
  8
3_ALL_AXES
100
AcDbLine
 62
7
  6
CONTINUOUS
 10
124.3005943
 20
69.4659070849
 11
124.295792737
 21
69.4631341752
  0
LINE
  5
470
100
AcDbEntity
  8
3_ALL_AXES
100
AcDbLine
 62
7
  6
CONTINUOUS
 10
124.3613700845
 20
69.3683909849
 11
124.5166598361
 21
69.4580710436
  0
LINE
  5
471
100
AcDbEntity
  8
3_ALL_AXES
100
AcDbLine
 62
7
  6
CONTINUOUS
 10
124.724156983
 20
69.0806184175
 11
124.7467339325
 21
69.0936566389
  0
LINE
  5
472
100
AcDbEntity
  8
3_ALL_AXES
100
AcDbLine
 62
7
  6
CONTINUOUS
 10
124.9923891009
 20
69.2355228579
 11
125.0149660504
 21
69.2485610792
  0
LINE
  5
473
100
AcDbEntity
  8
0
100
AcDbLine
 62
7
  6
CONTINUOUS
 10
130.5257802296
 20
73.155315061
 11
130.525672378
 21
73.1552536989
  0
LINE
  5
474
100
AcDbEntity
  8
0
100
AcDbLine
 62
7
  6
CONTINUOUS
 10
127.1055068233
 20
71.1801021678
 11
127.1053989717
 21
71.1800408057
  0
LINE
  5
475
100
AcDbEntity
  8
3_AXES_OTHER
100
AcDbLine
 62
7
  6
CONTINUOUS
 10
122.7291479599
 20
53.3877981145
 11
120.6305990377
 21
56.9014474966
  0
LINE
  5
476
100
AcDbEntity
  8
3_AXES_OTHER
100
AcDbLine
 62
7
  6
CONTINUOUS
 10
119.8863337784
 20
70.8611675067
 11
119.8863337784
 21
70.5735429833
  0
LINE
  5
477
100
AcDbEntity
  8
3_AXES_OTHER
100
AcDbLine
 62
7
  6
CONTINUOUS
 10
119.8863337784
 20
53.9426189498
 11
119.8863337784
 21
53.526845849
  0
LINE
  5
478
100
AcDbEntity
  8
3_AXES_OTHER
100
AcDbLine
 62
7
  6
CONTINUOUS
 10
119.9943919323
 20
54.6356283916
 11
119.9943919323
 21
70.5200185279
  0
LINE
  5
479
100
AcDbEntity
  8
3_AXES_OTHER
100
AcDbLine
 62
7
  6
CONTINUOUS
 10
120.3112950942
 20
64.0708340849
 11
120.3112950942
 21
70.3630468556
  0
LINE
  5
47A
100
AcDbEntity
  8
3_AXES_OTHER
100
AcDbLine
 62
7
  6
CONTINUOUS
 10
120.6305990377
 20
56.9014474966
 11
120.6305990377
 21
54.268217858
  0
LINE
  5
47B
100
AcDbEntity
  8
7_ALL_ROUNDS
100
AcDbLine
 62
7
  6
CONTINUOUS
 10
121.7424969058
 20
52.2270458641
 11
121.7424969058
 21
52.4765097246
  0
LINE
  5
47C
100
AcDbEntity
  8
7_ALL_ROUNDS
100
AcDbLine
 62
7
  6
CONTINUOUS
 10
121.7424969058
 20
69.9389799597
 11
121.7424969058
 21
70.1884438202
  0
LINE
  5
47D
100
AcDbEntity
  8
7_ALL_ROUNDS
100
AcDbLine
 62
7
  6
CONTINUOUS
 10
125.2226483302
 20
68.5155881924
 11
125.7039816982
 21
69.0611364552
  0
LINE
  5
47E
100
AcDbEntity
  8
7_ALL_ROUNDS
100
AcDbLine
 62
7
  6
CONTINUOUS
 10
125.2470743602
 20
68.5000838289
 11
125.7342333103
 21
69.0522348671
  0
LINE
  5
47F
100
AcDbEntity
  8
3_ALL_AXES
100
AcDbLine
 62
7
  6
CONTINUOUS
 10
125.1237642145
 20
67.9877388028
 11
125.148162562
 21
68.0153921445
  0
LINE
  5
480
100
AcDbEntity
  8
3_ALL_AXES
100
AcDbLine
 62
7
  6
CONTINUOUS
 10
125.8878896195
 20
56.3723589817
 11
125.9266276752
 21
56.3492729959
  0
LINE
  5
481
100
AcDbEntity
  8
7_ALL_ROUNDS
100
AcDbLine
 62
7
  6
CONTINUOUS
 10
121.7693985507
 20
52.2129557827
 11
121.7693985507
 21
52.4624196432
  0
LINE
  5
482
100
AcDbEntity
  8
7_ALL_ROUNDS
100
AcDbLine
 62
7
  6
CONTINUOUS
 10
121.7693985507
 20
69.9248898783
 11
121.7693985507
 21
70.1743537388
  0
LINE
  5
483
100
AcDbEntity
  8
0
100
AcDbLine
 62
7
  6
CONTINUOUS
 10
129.1681636547
 20
68.5830419126
 11
129.168055803
 21
68.5829805505
  0
LINE
  5
484
100
AcDbEntity
  8
3_AXES_OTHER
100
AcDbLine
 62
7
  6
CONTINUOUS
 10
126.0235838309
 20
66.3753597277
 11
120.3112950942
 21
64.0708340849
  0
LINE
  5
485
100
AcDbEntity
  8
3_ALL_AXES
100
AcDbLine
 62
7
  6
CONTINUOUS
 10
122.8927255134
 20
70.6932097746
 11
122.8927255134
 21
70.6712038387
  0
LINE
  5
486
100
AcDbEntity
  8
3_ALL_AXES
100
AcDbLine
 62
7
  6
CONTINUOUS
 10
123.0579953951
 20
70.2106040714
 11
123.0579953951
 21
70.1828858647
  0
LINE
  5
487
100
AcDbEntity
  8
3_ALL_AXES
100
AcDbLine
 62
7
  6
CONTINUOUS
 10
123.1070247566
 20
70.0466084452
 11
123.1070247566
 21
70.0743266519
  0
LINE
  5
488
100
AcDbEntity
  8
3_ALL_AXES
100
AcDbLine
 62
7
  6
CONTINUOUS
 10
123.1163824019
 20
70.0612801118
 11
123.1163824019
 21
70.0335619051
  0
LINE
  5
489
100
AcDbEntity
  8
3_ALL_AXES
100
AcDbLine
 62
7
  6
CONTINUOUS
 10
123.163365526
 20
70.6705481378
 11
123.163365526
 21
70.6432916503
  0
LINE
  5
48A
100
AcDbEntity
  8
3_ALL_AXES
100
AcDbLine
 62
7
  6
CONTINUOUS
 10
123.2159740221
 20
69.8994267598
 11
123.2159740221
 21
69.8875060211
  0
LINE
  5
48B
100
AcDbEntity
  8
3_ALL_AXES
100
AcDbLine
 62
7
  6
CONTINUOUS
 10
123.2385509716
 20
69.9124649812
 11
123.2385509716
 21
69.8847467745
  0
LINE
  5
48C
100
AcDbEntity
  8
3_ALL_AXES
100
AcDbLine
 62
7
  6
CONTINUOUS
 10
123.3063106295
 20
69.9515962827
 11
123.3063106295
 21
69.923878076
  0
LINE
  5
48D
100
AcDbEntity
  8
3_ALL_AXES
100
AcDbLine
 62
7
  6
CONTINUOUS
 10
123.3160506002
 20
70.2557803161
 11
123.3160506002
 21
70.2280621093
  0
LINE
  5
48E
100
AcDbEntity
  8
3_ALL_AXES
100
AcDbLine
 62
7
  6
CONTINUOUS
 10
123.3289019837
 20
69.9646428228
 11
123.3289019837
 21
69.936924616
  0
LINE
  5
48F
100
AcDbEntity
  8
3_ALL_AXES
100
AcDbLine
 62
7
  6
CONTINUOUS
 10
123.3495439033
 20
69.9646428228
 11
123.3495439033
 21
69.936924616
  0
LINE
  5
490
100
AcDbEntity
  8
3_ALL_AXES
100
AcDbLine
 62
7
  6
CONTINUOUS
 10
123.4244722948
 20
69.8833577482
 11
123.4244722948
 21
69.8556395415
  0
LINE
  5
491
100
AcDbEntity
  8
3_ALL_AXES
100
AcDbLine
 62
7
  6
CONTINUOUS
 10
123.4470492443
 20
69.8703195268
 11
123.4470492443
 21
69.8426013201
  0
LINE
  5
492
100
AcDbEntity
  8
3_ALL_AXES
100
AcDbLine
 62
7
  6
CONTINUOUS
 10
123.447063649
 20
69.908325027
 11
123.447063649
 21
69.8964042883
  0
LINE
  5
493
100
AcDbEntity
  8
3_ALL_AXES
100
AcDbLine
 62
7
  6
CONTINUOUS
 10
123.4922319527
 20
69.8703195268
 11
123.4922319527
 21
69.8426013201
  0
LINE
  5
494
100
AcDbEntity
  8
3_ALL_AXES
100
AcDbLine
 62
7
  6
CONTINUOUS
 10
123.5490800586
 20
69.7592270596
 11
123.5490800586
 21
69.7315088528
  0
LINE
  5
495
100
AcDbEntity
  8
3_ALL_AXES
100
AcDbLine
 62
7
  6
CONTINUOUS
 10
123.5716570081
 20
69.7722652809
 11
123.5716570081
 21
69.7445470742
  0
LINE
  5
496
100
AcDbEntity
  8
3_ALL_AXES
100
AcDbLine
 62
7
  6
CONTINUOUS
 10
123.6168397165
 20
69.7722652809
 11
123.6168397165
 21
69.7445470742
  0
LINE
  5
497
100
AcDbEntity
  8
3_ALL_AXES
100
AcDbLine
 62
7
  6
CONTINUOUS
 10
123.6475217044
 20
69.9599995855
 11
123.6475217044
 21
69.9322813788
  0
LINE
  5
498
100
AcDbEntity
  8
3_ALL_AXES
100
AcDbLine
 62
7
  6
CONTINUOUS
 10
123.6568793497
 20
69.9453279189
 11
123.6568793497
 21
69.9730461256
  0
LINE
  5
499
100
AcDbEntity
  8
3_ALL_AXES
100
AcDbLine
 62
7
  6
CONTINUOUS
 10
123.7421557107
 20
70.0097039916
 11
123.7421557107
 21
69.9819857849
  0
LINE
  5
49A
100
AcDbEntity
  8
3_AXES_OTHER
100
AcDbLine
 62
7
  6
CONTINUOUS
 10
126.9669218088
 20
66.4844930425
 11
127.3837780841
 21
66.725228151
  0
LINE
  5
49B
100
AcDbEntity
  8
7_ALL_ROUNDS
100
AcDbLine
 62
7
  6
CONTINUOUS
 10
129.1881774385
 20
67.5718491854
 11
128.7773732762
 21
67.334609181
  0
LINE
  5
49C
100
AcDbEntity
  8
7_ALL_ROUNDS
100
AcDbLine
 62
7
  6
CONTINUOUS
 10
129.3550391166
 20
67.3355282269
 11
128.8940890629
 21
67.0693288969
  0
LINE
  5
49D
100
AcDbEntity
  8
3_AXES_OTHER
100
AcDbLine
 62
7
  6
CONTINUOUS
 10
128.8940890629
 20
66.8198650364
 11
129.3550391166
 21
67.0860643664
  0
LINE
  5
49E
100
AcDbEntity
  8
3_ALL_AXES
100
AcDbLine
 62
7
  6
CONTINUOUS
 10
123.7603992496
 20
69.8823289987
 11
123.7603992496
 21
69.854610792
  0
LINE
  5
49F
100
AcDbEntity
  8
3_ALL_AXES
100
AcDbLine
 62
7
  6
CONTINUOUS
 10
123.8890937446
 20
69.7482461357
 11
123.8890937446
 21
69.7759643424
  0
LINE
  5
4A0
100
AcDbEntity
  8
3_ALL_AXES
100
AcDbLine
 62
7
  6
CONTINUOUS
 10
123.8984513899
 20
69.7629178024
 11
123.8984513899
 21
69.7351995956
  0
LINE
  5
4A1
100
AcDbEntity
  8
3_ALL_AXES
100
AcDbLine
 62
7
  6
CONTINUOUS
 10
123.9390318001
 20
69.8960077622
 11
123.9390318001
 21
69.8682895555
  0
LINE
  5
4A2
100
AcDbEntity
  8
3_ALL_AXES
100
AcDbLine
 62
7
  6
CONTINUOUS
 10
123.9895370411
 20
69.557032031
 11
123.9895370411
 21
69.5293138242
  0
LINE
  5
4A3
100
AcDbEntity
  8
3_ALL_AXES
100
AcDbLine
 62
7
  6
CONTINUOUS
 10
124.0347197495
 20
69.557032031
 11
124.0347197495
 21
69.5293138242
  0
LINE
  5
4A4
100
AcDbEntity
  8
3_ALL_AXES
100
AcDbLine
 62
7
  6
CONTINUOUS
 10
124.057296699
 20
69.5700702523
 11
124.057296699
 21
69.5423520456
  0
LINE
  5
4A5
100
AcDbEntity
  8
3_ALL_AXES
100
AcDbLine
 62
7
  6
CONTINUOUS
 10
124.0666543443
 20
69.5553985857
 11
124.0666543443
 21
69.5831167924
  0
LINE
  5
4A6
100
AcDbEntity
  8
3_ALL_AXES
100
AcDbLine
 62
7
  6
CONTINUOUS
 10
124.2171887489
 20
69.5788465115
 11
124.2171887489
 21
69.5511283048
  0
LINE
  5
4A7
100
AcDbEntity
  8
3_ALL_AXES
100
AcDbLine
 62
7
  6
CONTINUOUS
 10
124.295792737
 20
69.4908523819
 11
124.295792737
 21
69.4631341752
  0
LINE
  5
4A8
100
AcDbEntity
  8
3_ALL_AXES
100
AcDbLine
 62
7
  6
CONTINUOUS
 10
124.3005943
 20
69.4936252916
 11
124.3005943
 21
69.4659070849
  0
LINE
  5
4A9
100
AcDbEntity
  8
3_ALL_AXES
100
AcDbLine
 62
7
  6
CONTINUOUS
 10
124.3520124392
 20
69.3276262381
 11
124.3520124392
 21
69.3553444448
  0
LINE
  5
4AA
100
AcDbEntity
  8
3_ALL_AXES
100
AcDbLine
 62
7
  6
CONTINUOUS
 10
124.3613700845
 20
69.3422979048
 11
124.3613700845
 21
69.314579698
  0
LINE
  5
4AB
100
AcDbEntity
  8
3_ALL_AXES
100
AcDbLine
 62
7
  6
CONTINUOUS
 10
124.4066680304
 20
69.6259471554
 11
124.4066680304
 21
69.5982289487
  0
LINE
  5
4AC
100
AcDbEntity
  8
3_ALL_AXES
100
AcDbLine
 62
7
  6
CONTINUOUS
 10
124.5631197603
 20
69.5355960526
 11
124.5631197603
 21
69.5078778459
  0
LINE
  5
4AD
100
AcDbEntity
  8
3_ALL_AXES
100
AcDbLine
 62
7
  6
CONTINUOUS
 10
124.7467339325
 20
69.1197497191
 11
124.7467339325
 21
69.0920315123
  0
LINE
  5
4AE
100
AcDbEntity
  8
3_ALL_AXES
100
AcDbLine
 62
7
  6
CONTINUOUS
 10
125.0149660504
 20
69.2746541594
 11
125.0149660504
 21
69.2469359527
  0
LINE
  5
4AF
100
AcDbEntity
  8
7_ALL_ROUNDS
100
AcDbLine
 62
7
  6
CONTINUOUS
 10
125.1237642145
 20
50.2758047072
 11
125.1237642145
 21
50.5252685677
  0
LINE
  5
4B0
100
AcDbEntity
  8
7_ALL_ROUNDS
100
AcDbLine
 62
7
  6
CONTINUOUS
 10
125.1237642145
 20
67.9877388028
 11
125.1237642145
 21
68.2372026633
  0
LINE
  5
4B1
100
AcDbEntity
  8
7_ALL_ROUNDS
100
AcDbLine
 62
7
  6
CONTINUOUS
 10
125.148162562
 20
50.260268968
 11
125.148162562
 21
50.5097328285
  0
LINE
  5
4B2
100
AcDbEntity
  8
7_ALL_ROUNDS
100
AcDbLine
 62
7
  6
CONTINUOUS
 10
125.148162562
 20
67.9722030635
 11
125.148162562
 21
68.2216669241
  0
LINE
  5
4B3
100
AcDbEntity
  8
3_ALL_AXES
100
AcDbLine
 62
7
  6
CONTINUOUS
 10
125.6949924802
 20
69.2085298701
 11
125.6949924802
 21
69.1744831645
  0
LINE
  5
4B4
100
AcDbEntity
  8
3_ALL_AXES
100
AcDbLine
 62
7
  6
CONTINUOUS
 10
125.7039816982
 20
69.0611364552
 11
125.7039816982
 21
69.0179473742
  0
LINE
  5
4B5
100
AcDbEntity
  8
3_ALL_AXES
100
AcDbLine
 62
7
  6
CONTINUOUS
 10
125.7261034608
 20
69.0430204108
 11
125.7261034608
 21
69.1143496186
  0
LINE
  5
4B6
100
AcDbEntity
  8
7_ALL_ROUNDS
100
AcDbLine
 62
7
  6
CONTINUOUS
 10
129.1881774385
 20
67.5718491854
 11
133.3856116479
 21
72.3292649253
  0
LINE
  5
4B7
100
AcDbEntity
  8
7_ALL_ROUNDS
100
AcDbLine
 62
7
  6
CONTINUOUS
 10
129.3550391166
 20
67.3355282269
 11
133.5671213205
 21
72.1095461567
  0
LINE
  5
4B8
100
AcDbEntity
  8
3_ALL_AXES
100
AcDbLine
 62
7
  6
CONTINUOUS
 10
122.6726123346
 20
61.1118414382
 11
122.6725558082
 21
61.1118088407
  0
LINE
  5
4B9
100
AcDbEntity
  8
3_ALL_AXES
100
AcDbLine
 62
7
  6
CONTINUOUS
 10
122.7795435815
 20
60.9265892658
 11
122.7794866397
 21
60.9265564287
  0
LINE
  5
4BA
100
AcDbEntity
  8
3_AXES_OTHER
100
AcDbLine
 62
7
  6
CONTINUOUS
 10
128.250679613
 20
59.2225049526
 11
125.8498980833
 21
60.6089597964
  0
LINE
  5
4BB
100
AcDbEntity
  8
3_AXES_OTHER
100
AcDbLine
 62
7
  6
CONTINUOUS
 10
128.5699835564
 20
59.3014294222
 11
120.3112950942
 21
64.0708340849
  0
LINE
  5
4BC
100
AcDbEntity
  8
3_AXES_OTHER
100
AcDbLine
 62
7
  6
CONTINUOUS
 10
125.8498980833
 20
60.6089597964
 11
128.250679613
 21
56.589275314
  0
LINE
  5
4BD
100
AcDbEntity
  8
7_ALL_ROUNDS
100
AcDbLine
 62
7
  6
CONTINUOUS
 10
126.8613473417
 20
67.0693288969
 11
126.8613473417
 21
66.8198650364
  0
LINE
  5
4BE
100
AcDbEntity
  8
7_ALL_ROUNDS
100
AcDbLine
 62
7
  6
CONTINUOUS
 10
126.8613473417
 20
49.1079309408
 11
126.8613473417
 21
49.3573948013
  0
LINE
  5
4BF
100
AcDbEntity
  8
3_AXES_OTHER
100
AcDbLine
 62
7
  6
CONTINUOUS
 10
126.9669218088
 20
66.8000857451
 11
126.9669218088
 21
66.4844930425
  0
LINE
  5
4C0
100
AcDbEntity
  8
3_AXES_OTHER
100
AcDbLine
 62
7
  6
CONTINUOUS
 10
126.9669218088
 20
49.8535690091
 11
126.9669218088
 21
49.4377959083
  0
LINE
  5
4C1
100
AcDbEntity
  8
3_AXES_OTHER
100
AcDbLine
 62
7
  6
CONTINUOUS
 10
127.5767203174
 20
50.2057285394
 11
127.5767203174
 21
49.7899554386
  0
LINE
  5
4C2
100
AcDbEntity
  8
3_AXES_OTHER
100
AcDbLine
 62
7
  6
CONTINUOUS
 10
126.6989452672
 20
65.9853375107
 11
128.5699835564
 21
59.3014294222
  0
LINE
  5
4C3
100
AcDbEntity
  8
3_AXES_OTHER
100
AcDbLine
 62
7
  6
CONTINUOUS
 10
128.250679613
 20
56.589275314
 11
128.250679613
 21
59.2225049526
  0
LINE
  5
4C4
100
AcDbEntity
  8
3_AXES_OTHER
100
AcDbLine
 62
7
  6
CONTINUOUS
 10
128.5699835564
 20
66.6744724104
 11
128.5699835564
 21
59.3014294222
  0
LINE
  5
4C5
100
AcDbEntity
  8
3_AXES_OTHER
100
AcDbLine
 62
7
  6
CONTINUOUS
 10
128.8868867183
 20
66.8198650364
 11
128.8868867183
 21
49.5001996502
  0
LINE
  5
4C6
100
AcDbEntity
  8
7_ALL_ROUNDS
100
AcDbLine
 62
7
  6
CONTINUOUS
 10
128.8940890629
 20
67.0693288969
 11
128.8940890629
 21
66.8198650364
  0
LINE
  5
4C7
100
AcDbEntity
  8
7_ALL_ROUNDS
100
AcDbLine
 62
7
  6
CONTINUOUS
 10
128.8940890629
 20
49.1079309408
 11
128.8940890629
 21
49.3573948013
  0
LINE
  5
4C8
100
AcDbEntity
  8
3_AXES_OTHER
100
AcDbLine
 62
7
  6
CONTINUOUS
 10
129.2277976956
 20
49.697076238
 11
129.2277976956
 21
67.0125822596
  0
LINE
  5
4C9
100
AcDbEntity
  8
7_ALL_ROUNDS
100
AcDbLine
 62
7
  6
CONTINUOUS
 10
129.3550391166
 20
49.3741302708
 11
129.3550391166
 21
49.6235941313
  0
LINE
  5
4CA
100
AcDbEntity
  8
3_AXES_OTHER
100
AcDbLine
 62
7
  6
CONTINUOUS
 10
129.3550391166
 20
49.6235941313
 11
129.3550391166
 21
67.0860643664
  0
LINE
  5
4CB
100
AcDbEntity
  8
7_ALL_ROUNDS
100
AcDbLine
 62
7
  6
CONTINUOUS
 10
129.3550391166
 20
67.0860643664
 11
129.3550391166
 21
67.3355282269
  0
LINE
  5
4CC
100
AcDbEntity
  8
3_AXES_OTHER
100
AcDbLine
 62
7
  6
CONTINUOUS
 10
119.7471114347
 20
54.6397877561
 11
119.9943919323
 21
54.782592605
  0
LINE
  5
4CD
100
AcDbEntity
  8
3_AXES_OTHER
100
AcDbLine
 62
7
  6
CONTINUOUS
 10
119.8863337784
 20
53.9426189498
 11
120.4961322869
 21
54.2947784802
  0
LINE
  5
4CE
100
AcDbEntity
  8
3_AXES_OTHER
100
AcDbLine
 62
7
  6
CONTINUOUS
 10
120.6305990377
 20
54.268217858
 11
121.799974945
 21
54.9435341543
  0
LINE
  5
4CF
100
AcDbEntity
  8
3_AXES_OTHER
100
AcDbLine
 62
7
  6
CONTINUOUS
 10
126.0235838309
 20
66.9782967346
 11
124.9516980815
 21
67.81624316
  0
LINE
  5
4D0
100
AcDbEntity
  8
3_AXES_OTHER
100
AcDbLine
 62
7
  6
CONTINUOUS
 10
126.6989452672
 20
66.5882745176
 11
126.8054939019
 21
66.5931831653
  0
LINE
  5
4D1
100
AcDbEntity
  8
3_AXES_OTHER
100
AcDbLine
 62
7
  6
CONTINUOUS
 10
127.1854390474
 20
66.6106870673
 11
128.5699835564
 21
66.6744724104
  0
LINE
  5
4D2
100
AcDbEntity
  8
3_AXES_OTHER
100
AcDbLine
 62
7
  6
CONTINUOUS
 10
128.4592799568
 20
66.738403901
 11
128.5699835564
 21
66.6744724104
  0
LINE
  5
4D3
100
AcDbEntity
  8
3_ALL_AXES
100
AcDbLine
 62
7
  6
CONTINUOUS
 10
123.2159740221
 20
69.8875060211
 11
123.3134937678
 21
69.8311882253
  0
LINE
  5
4D4
100
AcDbEntity
  8
3_ALL_AXES
100
AcDbLine
 62
7
  6
CONTINUOUS
 10
122.9800588243
 20
70.0617445742
 11
123.2385509716
 21
69.9124649812
  0
LINE
  5
4D5
100
AcDbEntity
  8
3_ALL_AXES
100
AcDbLine
 62
7
  6
CONTINUOUS
 10
123.3567126369
 20
69.8442264467
 11
123.4061639349
 21
69.8156682498
  0
LINE
  5
4D6
100
AcDbEntity
  8
3_ALL_AXES
100
AcDbLine
 62
7
  6
CONTINUOUS
 10
123.5490800586
 20
69.7331339794
 11
124.0167162888
 21
69.4630733727
  0
LINE
  5
4D7
100
AcDbEntity
  8
3_ALL_AXES
100
AcDbLine
 62
7
  6
CONTINUOUS
 10
124.2271279844
 20
69.3415603108
 11
124.6789742746
 21
69.0806184175
  0
LINE
  5
4D8
100
AcDbEntity
  8
3_ALL_AXES
100
AcDbLine
 62
7
  6
CONTINUOUS
 10
124.7467339325
 20
69.0920315123
 11
124.3613700845
 21
69.314579698
  0
LINE
  5
4D9
100
AcDbEntity
  8
3_ALL_AXES
100
AcDbLine
 62
7
  6
CONTINUOUS
 10
123.9895370411
 20
69.5293138242
 11
123.6168397165
 21
69.7445470742
  0
LINE
  5
4DA
100
AcDbEntity
  8
3_ALL_AXES
100
AcDbLine
 62
7
  6
CONTINUOUS
 10
123.4470492443
 20
69.8426013201
 11
123.4244722948
 21
69.8556395415
  0
LINE
  5
4DB
100
AcDbEntity
  8
3_ALL_AXES
100
AcDbLine
 62
7
  6
CONTINUOUS
 10
123.3063106295
 20
69.923878076
 11
123.1163824019
 21
70.0335619051
  0
LINE
  5
4DC
100
AcDbEntity
  8
3_ALL_AXES
100
AcDbLine
 62
7
  6
CONTINUOUS
 10
124.7467339325
 20
69.1197497191
 11
124.3613700845
 21
69.3422979048
  0
LINE
  5
4DD
100
AcDbEntity
  8
3_ALL_AXES
100
AcDbLine
 62
7
  6
CONTINUOUS
 10
123.9895370411
 20
69.557032031
 11
123.6168397165
 21
69.7722652809
  0
LINE
  5
4DE
100
AcDbEntity
  8
3_ALL_AXES
100
AcDbLine
 62
7
  6
CONTINUOUS
 10
123.4470492443
 20
69.8703195268
 11
123.4244722948
 21
69.8833577482
  0
LINE
  5
4DF
100
AcDbEntity
  8
3_ALL_AXES
100
AcDbLine
 62
7
  6
CONTINUOUS
 10
123.3063106295
 20
69.9515962827
 11
123.1163824019
 21
70.0612801118
  0
LINE
  5
4E0
100
AcDbEntity
  8
3_ALL_AXES
100
AcDbLine
 62
7
  6
CONTINUOUS
 10
123.4333862222
 20
69.8885055543
 11
123.3495439033
 21
69.936924616
  0
LINE
  5
4E1
100
AcDbEntity
  8
3_ALL_AXES
100
AcDbLine
 62
7
  6
CONTINUOUS
 10
123.447063649
 20
69.908325027
 11
123.3495439033
 21
69.9646428228
  0
LINE
  5
4E2
100
AcDbEntity
  8
3_ALL_AXES
100
AcDbLine
 62
7
  6
CONTINUOUS
 10
123.73855934
 20
69.7802346234
 11
124.057296699
 21
69.5961633325
  0
LINE
  5
4E3
100
AcDbEntity
  8
3_ALL_AXES
100
AcDbLine
 62
7
  6
CONTINUOUS
 10
124.2171887489
 20
69.5511283048
 11
123.8984513899
 21
69.7351995956
  0
LINE
  5
4E4
100
AcDbEntity
  8
3_ALL_AXES
100
AcDbLine
 62
7
  6
CONTINUOUS
 10
124.2171887489
 20
69.5788465115
 11
123.8984513899
 21
69.7629178024
  0
LINE
  5
4E5
100
AcDbEntity
  8
3_ALL_AXES
100
AcDbLine
 62
7
  6
CONTINUOUS
 10
123.316854862
 20
70.1770532507
 11
123.6475217044
 21
69.9860926657
  0
LINE
  5
4E6
100
AcDbEntity
  8
3_ALL_AXES
100
AcDbLine
 62
7
  6
CONTINUOUS
 10
123.9662110478
 20
69.8020491039
 11
124.3389083725
 21
69.5868158539
  0
LINE
  5
4E7
100
AcDbEntity
  8
3_ALL_AXES
100
AcDbLine
 62
7
  6
CONTINUOUS
 10
124.5618425445
 20
69.4580710436
 11
124.9472063926
 21
69.2355228579
  0
LINE
  5
4E8
100
AcDbEntity
  8
3_ALL_AXES
100
AcDbLine
 62
7
  6
CONTINUOUS
 10
125.0149660504
 20
69.2469359527
 11
124.5631197603
 21
69.5078778459
  0
LINE
  5
4E9
100
AcDbEntity
  8
3_ALL_AXES
100
AcDbLine
 62
7
  6
CONTINUOUS
 10
124.4066680304
 20
69.5982289487
 11
123.9390318001
 21
69.8682895555
  0
LINE
  5
4EA
100
AcDbEntity
  8
3_ALL_AXES
100
AcDbLine
 62
7
  6
CONTINUOUS
 10
123.7421557107
 20
69.9819857849
 11
123.3160506002
 21
70.2280621093
  0
LINE
  5
4EB
100
AcDbEntity
  8
3_ALL_AXES
100
AcDbLine
 62
7
  6
CONTINUOUS
 10
125.0149660504
 20
69.2746541594
 11
124.5631197603
 21
69.5355960526
  0
LINE
  5
4EC
100
AcDbEntity
  8
3_ALL_AXES
100
AcDbLine
 62
7
  6
CONTINUOUS
 10
124.4066680304
 20
69.6259471554
 11
123.9390318001
 21
69.8960077622
  0
LINE
  5
4ED
100
AcDbEntity
  8
3_ALL_AXES
100
AcDbLine
 62
7
  6
CONTINUOUS
 10
123.7421557107
 20
70.0097039916
 11
123.3160506002
 21
70.2557803161
  0
LINE
  5
4EE
100
AcDbEntity
  8
7_ALL_ROUNDS
100
AcDbLine
 62
7
  6
CONTINUOUS
 10
133.5671213205
 20
72.1095461567
 11
133.5671213205
 21
54.1481482006
  0
LINE
  5
4EF
100
AcDbEntity
  8
7_ALL_ROUNDS
100
AcDbLine
 62
7
  6
CONTINUOUS
 10
133.6141185073
 20
72.2225963249
 11
133.6141185073
 21
54.2611983689
  0
LINE
  5
4F0
100
AcDbEntity
  8
3_ALL_AXES
100
AcDbLine
 62
7
  6
CONTINUOUS
 10
125.1237642145
 20
50.5252685677
 11
125.2061717144
 21
50.6186700882
  0
LINE
  5
4F1
100
AcDbEntity
  8
3_ALL_AXES
100
AcDbLine
 62
7
  6
CONTINUOUS
 10
125.148162562
 20
50.5097328285
 11
125.23059315
 21
50.6031605173
  0
LINE
  5
4F2
100
AcDbEntity
  8
3_ALL_AXES
100
AcDbLine
 62
7
  6
CONTINUOUS
 10
127.1263863345
 20
53.3959429915
 11
127.1263482162
 21
53.3959210106
  0
LINE
  5
4F3
100
AcDbEntity
  8
3_ALL_AXES
100
AcDbLine
 62
7
  6
CONTINUOUS
 10
127.2333175831
 20
53.2106908201
 11
127.2332789977
 21
53.2106685698
  0
LINE
  5
4F4
100
AcDbEntity
  8
3_ALL_AXES
100
AcDbLine
 62
7
  6
CONTINUOUS
 10
121.7424969058
 20
52.4765097246
 11
121.9042760439
 21
52.5241135097
  0
LINE
  5
4F5
100
AcDbEntity
  8
3_ALL_AXES
100
AcDbLine
 62
7
  6
CONTINUOUS
 10
121.7693985507
 20
52.4624196432
 11
121.9311323758
 21
52.5100100949
  0
LINE
  5
4F6
100
AcDbEntity
  8
7_ALL_ROUNDS
100
AcDbLine
 62
7
  6
CONTINUOUS
 10
133.5671213205
 20
54.1481482006
 11
129.3550391166
 21
49.3741302708
  0
LINE
  5
4F7
100
AcDbEntity
  8
7_ALL_ROUNDS
100
AcDbLine
 62
7
  6
CONTINUOUS
 10
133.5383679667
 20
54.0667819109
 11
129.3288391052
 21
49.295657966
  0
LINE
  5
4F8
100
AcDbEntity
  8
3_AXES_OTHER
100
AcDbLine
 62
7
  6
CONTINUOUS
 10
126.9669218088
 20
49.8535690091
 11
127.5767203174
 21
50.2057285394
  0
LINE
  5
4F9
100
AcDbEntity
  8
7_ALL_ROUNDS
100
AcDbLine
 62
7
  6
CONTINUOUS
 10
129.3061871753
 20
49.2770497937
 11
129.328580688
 21
49.2953686617
  0
LINE
  5
4FA
100
AcDbEntity
  8
3_AXES_OTHER
100
AcDbLine
 62
7
  6
CONTINUOUS
 10
126.9669218088
 20
49.4377959083
 11
127.5767203174
 21
49.7899554386
  0
LINE
  5
4FB
100
AcDbEntity
  8
3_AXES_OTHER
100
AcDbLine
 62
7
  6
CONTINUOUS
 10
129.2277976956
 20
49.697076238
 11
128.8868867183
 21
49.5001996502
  0
LINE
  5
4FC
100
AcDbEntity
  8
3_AXES_OTHER
100
AcDbLine
 62
7
  6
CONTINUOUS
 10
129.3550391166
 20
49.6235941313
 11
128.8940890629
 21
49.3573948013
  0
LINE
  5
4FD
100
AcDbEntity
  8
7_ALL_ROUNDS
100
AcDbLine
 62
7
  6
CONTINUOUS
 10
128.8940890629
 20
49.1079309408
 11
129.3550391166
 21
49.3741302708
  0
LINE
  5
4FE
100
AcDbEntity
  8
7_ALL_ROUNDS
100
AcDbLine
 62
7
  6
CONTINUOUS
 10
128.8598192311
 20
49.0192716533
 11
129.3061769368
 21
49.277043881
  0
LINE
  5
4FF
100
AcDbEntity
  8
7_ALL_ROUNDS
100
AcDbLine
 62
7
  6
CONTINUOUS
 10
128.8485492669
 20
49.0146909218
 11
128.8597976611
 21
49.0192591966
  0
LINE
  5
500
100
AcDbEntity
  8
7_ALL_ROUNDS
100
AcDbLine
 62
7
  6
CONTINUOUS
 10
133.3437782093
 20
72.4817980398
 11
128.8313480058
 21
75.0877330803
  0
LINE
  5
501
100
AcDbEntity
  8
7_ALL_ROUNDS
100
AcDbLine
 62
7
  6
CONTINUOUS
 10
133.4456547465
 20
72.4918979411
 11
128.933224543
 21
75.0978329816
  0
ARC
  5
502
100
AcDbEntity
  8
7_ALL_ROUNDS
100
AcDbCircle
 62
7
  6
CONTINUOUS
 10
40.7231399659
 20
33.5563374712
 40
0.6865425698
100
AcDbArc
 50
179.9436825609
 51
185.8861251901
  0
ARC
  5
503
100
AcDbEntity
  8
7_ALL_ROUNDS
100
AcDbCircle
 62
7
  6
CONTINUOUS
 10
35.565269812
 20
33.5570122908
 40
0.2362204724
100
AcDbArc
 50
180.0
 51
270.0
  0
ARC
  5
504
100
AcDbEntity
  8
7_ALL_ROUNDS
100
AcDbCircle
 62
7
  6
CONTINUOUS
 10
40.7231111653
 20
59.0694991022
 40
0.6865137701
100
AcDbArc
 50
174.110126842
 51
180.0564006056
  0
ARC
  5
505
100
AcDbEntity
  8
7_ALL_ROUNDS
100
AcDbCircle
 62
7
  6
CONTINUOUS
 10
35.565269812
 20
59.0688233144
 40
0.2362204724
100
AcDbArc
 50
90.0
 51
180.0
  0
ARC
  5
506
100
AcDbEntity
  8
7_ALL_ROUNDS
100
AcDbCircle
 62
7
  6
CONTINUOUS
 10
44.9349587132
 20
33.5563374712
 40
0.6865425698
100
AcDbArc
 50
354.1138748099
 51
0.0563174391
  0
CIRCLE
  5
507
100
AcDbEntity
  8
3_ALL_AXES
100
AcDbCircle
 62
7
  6
CONTINUOUS
 10
42.8290493396
 20
40.7617367002
 40
6.1811023622
  0
CIRCLE
  5
508
100
AcDbEntity
  8
3_ALL_AXES
100
AcDbCircle
 62
7
  6
CONTINUOUS
 10
42.8290493396
 20
40.7617367002
 40
5.5118110236
  0
CIRCLE
  5
509
100
AcDbEntity
  8
3_ALL_AXES
100
AcDbCircle
 62
7
  6
CONTINUOUS
 10
42.8290493396
 20
40.7617367002
 40
5.3149606299
  0
CIRCLE
  5
50A
100
AcDbEntity
  8
3_ALL_AXES
100
AcDbCircle
 62
7
  6
CONTINUOUS
 10
42.8290493396
 20
40.7617367002
 40
5.2637795276
  0
CIRCLE
  5
50B
100
AcDbEntity
  8
3_ALL_AXES
100
AcDbCircle
 62
7
  6
CONTINUOUS
 10
42.8290493396
 20
40.7617367002
 40
5.0669291339
  0
CIRCLE
  5
50C
100
AcDbEntity
  8
3_ALL_AXES
100
AcDbCircle
 62
7
  6
CONTINUOUS
 10
42.8290493396
 20
40.7617367002
 40
5.0157480315
  0
CIRCLE
  5
50D
100
AcDbEntity
  8
3_ALL_AXES
100
AcDbCircle
 62
7
  6
CONTINUOUS
 10
42.8290493396
 20
40.7617367002
 40
4.8188976378
  0
CIRCLE
  5
50E
100
AcDbEntity
  8
3_ALL_AXES
100
AcDbCircle
 62
7
  6
CONTINUOUS
 10
42.8290493396
 20
40.7617367002
 40
1.9881889764
  0
ARC
  5
50F
100
AcDbEntity
  8
7_ALL_ROUNDS
100
AcDbCircle
 62
7
  6
CONTINUOUS
 10
50.0928288671
 20
33.5570122908
 40
0.2362204724
100
AcDbArc
 50
270.0
 51
360.0
  0
CIRCLE
  5
510
100
AcDbEntity
  8
3_AXES_OTHER
100
AcDbCircle
 62
7
  6
CONTINUOUS
 10
42.8290493396
 20
52.8089807947
 40
0.7
  0
ARC
  5
511
100
AcDbEntity
  8
7_ALL_ROUNDS
100
AcDbCircle
 62
7
  6
CONTINUOUS
 10
44.9349875138
 20
59.0694991022
 40
0.6865137701
100
AcDbArc
 50
359.9435993944
 51
5.8898731581
  0
ARC
  5
512
100
AcDbEntity
  8
7_ALL_ROUNDS
100
AcDbCircle
 62
7
  6
CONTINUOUS
 10
50.0928288671
 20
59.0688233144
 40
0.2362204724
100
AcDbArc
 50
0.0
 51
90.0
  0
ARC
  5
513
100
AcDbEntity
  8
7_ALL_ROUNDS
100
AcDbCircle
 62
7
  6
CONTINUOUS
 10
26.1405922578
 20
66.7140777667
 40
22.7198668834
100
AcDbArc
 50
7.5724992022
 51
8.1857559282
  0
ARC
  5
514
100
AcDbEntity
  8
7_ALL_ROUNDS
100
AcDbCircle
 62
7
  6
CONTINUOUS
 10
29.9106950407
 20
100.5768503954
 40
29.7004294003
100
AcDbArc
 50
280.5115384804
 51
280.9753682005
  0
ARC
  5
515
100
AcDbEntity
  8
7_ALL_ROUNDS
100
AcDbCircle
 62
7
  6
CONTINUOUS
 10
38.0372672202
 20
72.4163336083
 40
2.9015748031
100
AcDbArc
 50
201.034992262
 51
248.965007738
  0
ARC
  5
516
100
AcDbEntity
  8
0
100
AcDbCircle
 62
7
  6
CONTINUOUS
 10
38.0372672202
 20
72.4163336083
 40
2.9015748031
100
AcDbArc
 50
211.9930674421
 51
215.409791393
  0
ARC
  5
517
100
AcDbEntity
  8
0
100
AcDbCircle
 62
7
  6
CONTINUOUS
 10
38.0372672202
 20
72.4163336083
 40
2.9015748031
100
AcDbArc
 50
223.084920011
 51
226.915079989
  0
ARC
  5
518
100
AcDbEntity
  8
0
100
AcDbCircle
 62
7
  6
CONTINUOUS
 10
38.0372672202
 20
72.4163336083
 40
2.9015748031
100
AcDbArc
 50
234.590208607
 51
238.0069325579
  0
ARC
  5
519
100
AcDbEntity
  8
7_ALL_ROUNDS
100
AcDbCircle
 62
9
  6
CONTINUOUS
 10
38.0372672202
 20
72.4163336083
 40
2.6653543307
100
AcDbArc
 50
201.958421892
 51
247.7751469001
  0
CIRCLE
  5
51A
100
AcDbEntity
  8
0
100
AcDbCircle
 62
7
  6
CONTINUOUS
 10
37.4504534688
 20
73.5126323435
 40
0.4330708661
  0
CIRCLE
  5
51B
100
AcDbEntity
  8
0
100
AcDbCircle
 62
7
  6
CONTINUOUS
 10
37.4504534688
 20
73.5126323435
 40
0.2165354331
  0
ARC
  5
51C
100
AcDbEntity
  8
7_ALL_ROUNDS
100
AcDbCircle
 62
7
  6
CONTINUOUS
 10
39.1291139181
 20
82.2081157276
 40
0.5
100
AcDbArc
 50
90.0
 51
162.0
  0
ARC
  5
51D
100
AcDbEntity
  8
7_ALL_ROUNDS
100
AcDbCircle
 62
9
  6
CONTINUOUS
 10
39.1291139181
 20
82.2081157276
 40
0.2637795276
100
AcDbArc
 50
90.0
 51
162.0
  0
ARC
  5
51E
100
AcDbEntity
  8
3_ALL_AXES
100
AcDbCircle
 62
7
  6
CONTINUOUS
 10
40.760451209
 20
71.2782768636
 40
0.2747220657
100
AcDbArc
 50
91.5000432079
 51
162.0
  0
ARC
  5
51F
100
AcDbEntity
  8
3_ALL_AXES
100
AcDbCircle
 62
7
  6
CONTINUOUS
 10
40.760451209
 20
71.2782768636
 40
0.2353519869
100
AcDbArc
 50
91.5000432079
 51
162.0
  0
ARC
  5
520
100
AcDbEntity
  8
3_ALL_AXES
100
AcDbCircle
 62
7
  6
CONTINUOUS
 10
42.4004745364
 20
70.6122885684
 40
0.0370472441
100
AcDbArc
 50
90.0
 51
180.0
  0
ARC
  5
521
100
AcDbEntity
  8
3_ALL_AXES
100
AcDbCircle
 62
7
  6
CONTINUOUS
 10
42.4004745364
 20
70.5752649464
 40
0.0370472441
100
AcDbArc
 50
180.0
 51
270.0
  0
ARC
  5
522
100
AcDbEntity
  8
3_ALL_AXES
100
AcDbCircle
 62
7
  6
CONTINUOUS
 10
42.6446517018
 20
70.9040169149
 40
0.0370472441
100
AcDbArc
 50
180.0
 51
270.0
  0
ARC
  5
523
100
AcDbEntity
  8
3_ALL_AXES
100
AcDbCircle
 62
7
  6
CONTINUOUS
 10
42.6446517018
 20
70.9410405369
 40
0.0370472441
100
AcDbArc
 50
90.0
 51
180.0
  0
ARC
  5
524
100
AcDbEntity
  8
3_ALL_AXES
100
AcDbCircle
 62
7
  6
CONTINUOUS
 10
42.1220375285
 20
70.6863830566
 40
0.0370472441
100
AcDbArc
 50
270.0
 51
360.0
  0
ARC
  5
525
100
AcDbEntity
  8
3_ALL_AXES
100
AcDbCircle
 62
7
  6
CONTINUOUS
 10
41.579781623
 20
70.6863830566
 40
0.0370472441
100
AcDbArc
 50
180.0
 51
270.0
  0
ARC
  5
526
100
AcDbEntity
  8
3_ALL_AXES
100
AcDbCircle
 62
7
  6
CONTINUOUS
 10
41.579781623
 20
70.9410405369
 40
0.0370472441
100
AcDbArc
 50
90.0
 51
180.0
  0
ARC
  5
527
100
AcDbEntity
  8
3_ALL_AXES
100
AcDbCircle
 62
7
  6
CONTINUOUS
 10
42.1220375285
 20
70.9410405369
 40
0.0370472441
100
AcDbArc
 50
0.0
 51
90.0
  0
ARC
  5
528
100
AcDbEntity
  8
3_ALL_AXES
100
AcDbCircle
 62
7
  6
CONTINUOUS
 10
41.9081674498
 20
70.5011940802
 40
0.0169251969
100
AcDbArc
 50
180.0
 51
270.0
  0
ARC
  5
529
100
AcDbEntity
  8
3_ALL_AXES
100
AcDbCircle
 62
7
  6
CONTINUOUS
 10
42.0680887096
 20
70.5011940802
 40
0.0169251969
100
AcDbArc
 50
270.0
 51
360.0
  0
ARC
  5
52A
100
AcDbEntity
  8
3_ALL_AXES
100
AcDbCircle
 62
7
  6
CONTINUOUS
 10
42.0680887096
 20
70.6863830566
 40
0.0169251969
100
AcDbArc
 50
0.0
 51
90.0
  0
ARC
  5
52B
100
AcDbEntity
  8
3_ALL_AXES
100
AcDbCircle
 62
7
  6
CONTINUOUS
 10
41.9081674498
 20
70.6863830566
 40
0.0169251969
100
AcDbArc
 50
90.0
 51
180.0
  0
ARC
  5
52C
100
AcDbEntity
  8
3_ALL_AXES
100
AcDbCircle
 62
7
  6
CONTINUOUS
 10
42.8290493396
 20
-7.7160221561
 40
79.2961012984
100
AcDbArc
 50
88.4999567921
 51
91.5000432079
  0
ARC
  5
52D
100
AcDbEntity
  8
3_ALL_AXES
100
AcDbCircle
 62
7
  6
CONTINUOUS
 10
42.8290493396
 20
-7.7160221561
 40
79.2567312197
100
AcDbArc
 50
88.4999567921
 51
91.5000432079
  0
ARC
  5
52E
100
AcDbEntity
  8
7_ALL_ROUNDS
100
AcDbCircle
 62
9
  6
CONTINUOUS
 10
42.8290493396
 20
13.1459082577
 40
57.0984251969
100
AcDbArc
 50
84.1699659116
 51
87.2752091395
  0
ARC
  5
52F
100
AcDbEntity
  8
7_ALL_ROUNDS
100
AcDbCircle
 62
9
  6
CONTINUOUS
 10
42.8290493396
 20
13.1459082577
 40
57.0984251969
100
AcDbArc
 50
87.3174426821
 51
92.6825573179
  0
ARC
  5
530
100
AcDbEntity
  8
7_ALL_ROUNDS
100
AcDbCircle
 62
9
  6
CONTINUOUS
 10
42.8290493396
 20
13.1459082577
 40
57.0984251969
100
AcDbArc
 50
92.7247908605
 51
95.8300340884
  0
ARC
  5
531
100
AcDbEntity
  8
3_ALL_AXES
100
AcDbCircle
 62
7
  6
CONTINUOUS
 10
42.8290493396
 20
13.1459082577
 40
57.0590551181
100
AcDbArc
 50
92.6974827329
 51
92.7397495835
  0
ARC
  5
532
100
AcDbEntity
  8
3_ALL_AXES
100
AcDbCircle
 62
7
  6
CONTINUOUS
 10
42.8290493396
 20
13.1459082577
 40
57.0590551181
100
AcDbArc
 50
87.2602504165
 51
87.3025172671
  0
ARC
  5
533
100
AcDbEntity
  8
7_ALL_ROUNDS
100
AcDbCircle
 62
7
  6
CONTINUOUS
 10
42.8290493396
 20
13.1459082577
 40
56.8622047244
100
AcDbArc
 50
92.8148762941
 51
95.8881050255
  0
ARC
  5
534
100
AcDbEntity
  8
7_ALL_ROUNDS
100
AcDbCircle
 62
7
  6
CONTINUOUS
 10
42.8290493396
 20
13.1459082577
 40
56.8622047244
100
AcDbArc
 50
84.1118949745
 51
87.1851237059
  0
ARC
  5
535
100
AcDbEntity
  8
7_ALL_ROUNDS
100
AcDbCircle
 62
7
  6
CONTINUOUS
 10
42.8290493396
 20
13.1459082577
 40
56.8622047244
100
AcDbArc
 50
87.2275579377
 51
92.7724420623
  0
CIRCLE
  5
536
100
AcDbEntity
  8
0
100
AcDbCircle
 62
7
  6
CONTINUOUS
 10
42.8290493396
 20
75.5087062788
 40
0.4330708661
  0
ARC
  5
537
100
AcDbEntity
  8
3_ALL_AXES
100
AcDbCircle
 62
7
  6
CONTINUOUS
 10
44.8976474701
 20
71.2782768636
 40
0.2747220657
100
AcDbArc
 50
18.0
 51
88.4999567921
  0
ARC
  5
538
100
AcDbEntity
  8
3_ALL_AXES
100
AcDbCircle
 62
7
  6
CONTINUOUS
 10
44.8976474701
 20
71.2782768636
 40
0.2353519869
100
AcDbArc
 50
18.0
 51
88.4999567921
  0
CIRCLE
  5
539
100
AcDbEntity
  8
0
100
AcDbCircle
 62
7
  6
CONTINUOUS
 10
42.8290493396
 20
75.5087062788
 40
0.2165354331
  0
ARC
  5
53A
100
AcDbEntity
  8
3_ALL_AXES
100
AcDbCircle
 62
7
  6
CONTINUOUS
 10
44.2533721742
 20
71.0151350251
 40
0.0370472441
100
AcDbArc
 50
270.0
 51
360.0
  0
ARC
  5
53B
100
AcDbEntity
  8
3_ALL_AXES
100
AcDbCircle
 62
7
  6
CONTINUOUS
 10
44.2533721742
 20
71.0521586472
 40
0.0370472441
100
AcDbArc
 50
0.0
 51
90.0
  0
ARC
  5
53C
100
AcDbEntity
  8
3_ALL_AXES
100
AcDbCircle
 62
7
  6
CONTINUOUS
 10
44.2533721742
 20
70.5752649464
 40
0.0370472441
100
AcDbArc
 50
270.0
 51
360.0
  0
ARC
  5
53D
100
AcDbEntity
  8
3_ALL_AXES
100
AcDbCircle
 62
7
  6
CONTINUOUS
 10
44.2533721742
 20
70.6122885684
 40
0.0370472441
100
AcDbArc
 50
0.0
 51
90.0
  0
ARC
  5
53E
100
AcDbEntity
  8
3_ALL_AXES
100
AcDbCircle
 62
7
  6
CONTINUOUS
 10
43.6214194183
 20
70.6863830566
 40
0.0370472441
100
AcDbArc
 50
180.0
 51
270.0
  0
ARC
  5
53F
100
AcDbEntity
  8
3_ALL_AXES
100
AcDbCircle
 62
7
  6
CONTINUOUS
 10
43.6214194183
 20
70.9410405369
 40
0.0370472441
100
AcDbArc
 50
90.0
 51
180.0
  0
ARC
  5
540
100
AcDbEntity
  8
3_ALL_AXES
100
AcDbCircle
 62
7
  6
CONTINUOUS
 10
43.0116556388
 20
70.7234066787
 40
0.0370472441
100
AcDbArc
 50
0.0
 51
90.0
  0
ARC
  5
541
100
AcDbEntity
  8
3_ALL_AXES
100
AcDbCircle
 62
7
  6
CONTINUOUS
 10
43.0116556388
 20
70.6863830566
 40
0.0370472441
100
AcDbArc
 50
270.0
 51
360.0
  0
ARC
  5
542
100
AcDbEntity
  8
3_ALL_AXES
100
AcDbCircle
 62
7
  6
CONTINUOUS
 10
43.2558328041
 20
71.0151350251
 40
0.0370472441
100
AcDbArc
 50
270.0
 51
360.0
  0
ARC
  5
543
100
AcDbEntity
  8
3_ALL_AXES
100
AcDbCircle
 62
7
  6
CONTINUOUS
 10
43.2558328041
 20
71.0521586472
 40
0.0370472441
100
AcDbArc
 50
0.0
 51
90.0
  0
CIRCLE
  5
544
100
AcDbEntity
  8
0
100
AcDbCircle
 62
7
  6
CONTINUOUS
 10
42.8290493396
 20
81.1175645465
 40
0.4330708661
  0
CIRCLE
  5
545
100
AcDbEntity
  8
0
100
AcDbCircle
 62
7
  6
CONTINUOUS
 10
42.8290493396
 20
81.1175645465
 40
0.2165354331
  0
ARC
  5
546
100
AcDbEntity
  8
7_ALL_ROUNDS
100
AcDbCircle
 62
7
  6
CONTINUOUS
 10
47.6208314589
 20
72.4163336083
 40
2.9015748031
100
AcDbArc
 50
291.034992262
 51
338.965007738
  0
ARC
  5
547
100
AcDbEntity
  8
0
100
AcDbCircle
 62
7
  6
CONTINUOUS
 10
47.6208314589
 20
72.4163336083
 40
2.9015748031
100
AcDbArc
 50
313.084920011
 51
316.915079989
  0
ARC
  5
548
100
AcDbEntity
  8
0
100
AcDbCircle
 62
7
  6
CONTINUOUS
 10
47.6208314589
 20
72.4163336083
 40
2.9015748031
100
AcDbArc
 50
324.590208607
 51
328.0069325579
  0
ARC
  5
549
100
AcDbEntity
  8
7_ALL_ROUNDS
100
AcDbCircle
 62
9
  6
CONTINUOUS
 10
47.6208314589
 20
72.4163336083
 40
2.6653543307
100
AcDbArc
 50
292.2248530999
 51
338.041578108
  0
CIRCLE
  5
54A
100
AcDbEntity
  8
0
100
AcDbCircle
 62
7
  6
CONTINUOUS
 10
48.2076452103
 20
73.5126323435
 40
0.4330708661
  0
CIRCLE
  5
54B
100
AcDbEntity
  8
0
100
AcDbCircle
 62
7
  6
CONTINUOUS
 10
48.2076452103
 20
73.5126323435
 40
0.2165354331
  0
ARC
  5
54C
100
AcDbEntity
  8
7_ALL_ROUNDS
100
AcDbCircle
 62
7
  6
CONTINUOUS
 10
46.528984761
 20
82.2081157276
 40
0.5
100
AcDbArc
 50
18.0
 51
90.0
  0
ARC
  5
54D
100
AcDbEntity
  8
7_ALL_ROUNDS
100
AcDbCircle
 62
9
  6
CONTINUOUS
 10
46.528984761
 20
82.2081157276
 40
0.2637795276
100
AcDbArc
 50
18.0
 51
90.0
  0
ARC
  5
54E
100
AcDbEntity
  8
7_ALL_ROUNDS
100
AcDbCircle
 62
7
  6
CONTINUOUS
 10
59.5175064291
 20
66.7140777656
 40
22.7198668913
100
AcDbArc
 50
171.8142440719
 51
172.4275007977
  0
ARC
  5
54F
100
AcDbEntity
  8
7_ALL_ROUNDS
100
AcDbCircle
 62
7
  6
CONTINUOUS
 10
55.8752188233
 20
101.250492388
 40
30.3860843624
100
AcDbArc
 50
259.0298649323
 51
259.4832283868
  0
ARC
  5
550
100
AcDbEntity
  8
7_ALL_ROUNDS
100
AcDbCircle
 62
7
  6
CONTINUOUS
 10
88.2495064615
 20
33.5570122908
 40
0.2362204724
100
AcDbArc
 50
270.0
 51
360.0
  0
ARC
  5
551
100
AcDbEntity
  8
7_ALL_ROUNDS
100
AcDbCircle
 62
7
  6
CONTINUOUS
 10
88.2495064615
 20
59.0688233144
 40
0.2362204724
100
AcDbArc
 50
0.0
 51
90.0
  0
ARC
  5
552
100
AcDbEntity
  8
3_ALL_AXES
100
AcDbCircle
 62
7
  6
CONTINUOUS
 10
79.5988329493
 20
34.893214606
 40
0.1984309707
100
AcDbArc
 50
287.1408184533
 51
293.5353553303
  0
ARC
  5
553
100
AcDbEntity
  8
3_ALL_AXES
100
AcDbCircle
 62
7
  6
CONTINUOUS
 10
79.5988329493
 20
57.6963642123
 40
0.1984309707
100
AcDbArc
 50
287.1408184533
 51
293.5353553303
  0
ARC
  5
554
100
AcDbEntity
  8
3_ALL_AXES
100
AcDbCircle
 62
7
  6
CONTINUOUS
 10
79.5988329591
 20
34.9294714194
 40
0.1984309425
100
AcDbArc
 50
66.4646442304
 51
72.858928729
  0
ARC
  5
555
100
AcDbEntity
  8
3_ALL_AXES
100
AcDbCircle
 62
7
  6
CONTINUOUS
 10
79.5988329591
 20
57.7326210257
 40
0.1984309425
100
AcDbArc
 50
66.4646442305
 51
72.858928729
  0
ARC
  5
556
100
AcDbEntity
  8
3_ALL_AXES
100
AcDbCircle
 62
7
  6
CONTINUOUS
 10
92.4104506983
 20
14.4959940065
 40
64.0415669878
100
AcDbArc
 50
58.6856293533
 51
61.3013774167
  0
ARC
  5
557
100
AcDbEntity
  8
3_ALL_AXES
100
AcDbCircle
 62
7
  6
CONTINUOUS
 10
92.4072440583
 20
14.5178765413
 40
64.0002079405
100
AcDbArc
 50
58.6855515356
 51
61.2895683312
  0
ARC
  5
558
100
AcDbEntity
  8
7_ALL_ROUNDS
100
AcDbCircle
 62
7
  6
CONTINUOUS
 10
97.7782182554
 20
24.3523747711
 40
52.0106337504
100
AcDbArc
 50
62.3227982955
 51
64.8108841294
  0
ARC
  5
559
100
AcDbEntity
  8
3_AXES_OTHER
100
AcDbCircle
 62
7
  6
CONTINUOUS
 10
97.7654381127
 20
6.4779275753
 40
51.9897560658
100
AcDbArc
 50
62.3350785739
 51
64.8185920317
  0
ARC
  5
55A
100
AcDbEntity
  8
3_ALL_AXES
100
AcDbCircle
 62
7
  6
CONTINUOUS
 10
97.7020757117
 20
23.9603740201
 40
51.8842370604
100
AcDbArc
 50
62.3966854687
 51
64.856369492
  0
ARC
  5
55B
100
AcDbEntity
  8
3_ALL_AXES
100
AcDbCircle
 62
7
  6
CONTINUOUS
 10
97.7020757118
 20
6.4979037851
 40
51.8842370602
100
AcDbArc
 50
62.3966854687
 51
64.856369492
  0
ARC
  5
55C
100
AcDbEntity
  8
7_ALL_ROUNDS
100
AcDbCircle
 62
7
  6
CONTINUOUS
 10
97.7021039367
 20
24.2098948055
 40
51.8841735369
100
AcDbArc
 50
62.3966839628
 51
64.856370998
  0
ARC
  5
55D
100
AcDbEntity
  8
7_ALL_ROUNDS
100
AcDbCircle
 62
7
  6
CONTINUOUS
 10
97.9909529477
 20
6.6518607413
 40
51.3298200611
100
AcDbArc
 50
62.4729404963
 51
64.8550899385
  0
ARC
  5
55E
100
AcDbEntity
  8
7_ALL_ROUNDS
100
AcDbCircle
 62
7
  6
CONTINUOUS
 10
98.0136623623
 20
6.8749345182
 40
51.1846812271
100
AcDbArc
 50
62.3808306919
 51
64.7706953825
  0
ARC
  5
55F
100
AcDbEntity
  8
3_AXES_OTHER
100
AcDbCircle
 62
7
  6
CONTINUOUS
 10
98.5688500017
 20
8.506151095
 40
50.1887211004
100
AcDbArc
 50
60.9993683659
 51
64.8653810652
  0
ARC
  5
560
100
AcDbEntity
  8
3_ALL_AXES
100
AcDbCircle
 62
7
  6
CONTINUOUS
 10
99.2434096973
 20
9.3339824477
 40
48.773990238
100
AcDbArc
 50
60.777731745
 51
62.2794047805
  0
ARC
  5
561
100
AcDbEntity
  8
3_ALL_AXES
100
AcDbCircle
 62
7
  6
CONTINUOUS
 10
99.1873762998
 20
9.3738649374
 40
48.6474179744
100
AcDbArc
 50
60.7586439252
 51
62.3416854658
  0
ARC
  5
562
100
AcDbEntity
  8
3_ALL_AXES
100
AcDbCircle
 62
7
  6
CONTINUOUS
 10
100.052019334
 20
10.7926517179
 40
47.106200414
100
AcDbArc
 50
60.232227542
 51
60.7699219549
  0
ARC
  5
563
100
AcDbEntity
  8
3_ALL_AXES
100
AcDbCircle
 62
7
  6
CONTINUOUS
 10
100.0739126967
 20
10.9711107143
 40
46.8206453932
100
AcDbArc
 50
60.145507877
 51
60.6858091075
  0
ARC
  5
564
100
AcDbEntity
  8
3_ALL_AXES
100
AcDbCircle
 62
7
  6
CONTINUOUS
 10
100.4115057154
 20
11.4210359607
 40
46.3822539793
100
AcDbArc
 50
59.9225704808
 51
60.0705187308
  0
ARC
  5
565
100
AcDbEntity
  8
3_ALL_AXES
100
AcDbCircle
 62
7
  6
CONTINUOUS
 10
100.383873295
 20
11.5117872731
 40
46.1974224704
100
AcDbArc
 50
59.860987034
 51
60.0965416908
  0
ARC
  5
566
100
AcDbEntity
  8
3_ALL_AXES
100
AcDbCircle
 62
7
  6
CONTINUOUS
 10
100.5251720963
 20
11.6172566554
 40
46.1554884469
100
AcDbArc
 50
59.7407639396
 51
59.922596767
  0
ARC
  5
567
100
AcDbEntity
  8
3_ALL_AXES
100
AcDbCircle
 62
7
  6
CONTINUOUS
 10
100.5521314609
 20
11.8015186081
 40
45.8623775684
100
AcDbArc
 50
59.6289525691
 51
59.8384123535
  0
ARC
  5
568
100
AcDbEntity
  8
3_ALL_AXES
100
AcDbCircle
 62
7
  6
CONTINUOUS
 10
100.7631149338
 20
12.0240586897
 40
45.6842085379
100
AcDbArc
 50
59.2766171656
 51
59.6961617522
  0
ARC
  5
569
100
AcDbEntity
  8
7_ALL_ROUNDS
100
AcDbCircle
 62
7
  6
CONTINUOUS
 10
100.6801769777
 20
11.6512184265
 40
45.653270333
100
AcDbArc
 50
57.6707618352
 51
62.2879160143
  0
ARC
  5
56A
100
AcDbEntity
  8
3_ALL_AXES
100
AcDbCircle
 62
7
  6
CONTINUOUS
 10
100.8247403971
 20
12.2654679546
 40
45.3242656287
100
AcDbArc
 50
59.0638866181
 51
59.6109809213
  0
ARC
  5
56B
100
AcDbEntity
  8
3_ALL_AXES
100
AcDbCircle
 62
7
  6
CONTINUOUS
 10
101.1309816819
 20
12.6414372862
 40
44.9655399837
100
AcDbArc
 50
58.8525044883
 51
59.061307199
  0
ARC
  5
56C
100
AcDbEntity
  8
3_AXES_OTHER
100
AcDbCircle
 62
7
  6
CONTINUOUS
 10
101.3688649589
 20
13.4850536161
 40
44.4766140833
100
AcDbArc
 50
56.8616014011
 51
61.0445404764
  0
ARC
  5
56D
100
AcDbEntity
  8
3_ALL_AXES
100
AcDbCircle
 62
7
  6
CONTINUOUS
 10
101.4198893698
 20
13.1176067627
 40
44.4085786625
100
AcDbArc
 50
58.4117248725
 51
58.6770627246
  0
ARC
  5
56E
100
AcDbEntity
  8
3_ALL_AXES
100
AcDbCircle
 62
7
  6
CONTINUOUS
 10
101.4374109436
 20
13.2805830176
 40
44.1385824136
100
AcDbArc
 50
58.3190643068
 51
58.594602015
  0
ARC
  5
56F
100
AcDbEntity
  8
3_ALL_AXES
100
AcDbCircle
 62
7
  6
CONTINUOUS
 10
101.8162754876
 20
13.7594335435
 40
43.6542158807
100
AcDbArc
 50
57.6018690194
 51
58.3631145935
  0
ARC
  5
570
100
AcDbEntity
  8
3_ALL_AXES
100
AcDbCircle
 62
7
  6
CONTINUOUS
 10
101.8099379828
 20
13.8822117541
 40
43.4309579241
100
AcDbArc
 50
57.5337968556
 51
58.3204452187
  0
ARC
  5
571
100
AcDbEntity
  8
7_ALL_ROUNDS
100
AcDbCircle
 62
7
  6
CONTINUOUS
 10
102.9272878396
 20
33.3489023767
 40
41.638665058
100
AcDbArc
 50
54.7010103648
 51
57.5858625239
  0
ARC
  5
572
100
AcDbEntity
  8
3_AXES_OTHER
100
AcDbCircle
 62
7
  6
CONTINUOUS
 10
102.9258694522
 20
15.494159772
 40
41.594983262
100
AcDbArc
 50
54.6914354619
 51
57.5722333408
  0
ARC
  5
573
100
AcDbEntity
  8
7_ALL_ROUNDS
100
AcDbCircle
 62
7
  6
CONTINUOUS
 10
102.9181008792
 20
33.3224924734
 40
41.3778687194
100
AcDbArc
 50
54.6444504913
 51
57.503695617
  0
ARC
  5
574
100
AcDbEntity
  8
3_ALL_AXES
100
AcDbCircle
 62
7
  6
CONTINUOUS
 10
102.9181656098
 20
33.0731248481
 40
41.3777527758
100
AcDbArc
 50
54.6444464846
 51
57.5036996237
  0
ARC
  5
575
100
AcDbEntity
  8
3_ALL_AXES
100
AcDbCircle
 62
7
  6
CONTINUOUS
 10
102.9181656099
 20
15.6106546131
 40
41.3777527758
100
AcDbArc
 50
54.6444464846
 51
57.5036996237
  0
ARC
  5
576
100
AcDbEntity
  8
7_ALL_ROUNDS
100
AcDbCircle
 62
7
  6
CONTINUOUS
 10
103.2521648001
 20
15.7043149203
 40
40.8529383049
100
AcDbArc
 50
54.7469380946
 51
57.5450066728
  0
ARC
  5
577
100
AcDbEntity
  8
7_ALL_ROUNDS
100
AcDbCircle
 62
7
  6
CONTINUOUS
 10
103.2743606644
 20
15.8894195913
 40
40.740832549
100
AcDbArc
 50
54.6231340557
 51
57.4299582221
  0
ARC
  5
578
100
AcDbEntity
  8
3_AXES_OTHER
100
AcDbCircle
 62
7
  6
CONTINUOUS
 10
103.4717034621
 20
16.7119702618
 40
40.6250028023
100
AcDbArc
 50
54.6658617864
 51
56.8570605896
  0
ARC
  5
579
100
AcDbEntity
  8
3_AXES_OTHER
100
AcDbCircle
 62
7
  6
CONTINUOUS
 10
103.9719695545
 20
34.0553550927
 40
39.7544565721
100
AcDbArc
 50
54.6601924689
 51
55.0593069971
  0
ARC
  5
57A
100
AcDbEntity
  8
3_ALL_AXES
100
AcDbCircle
 62
7
  6
CONTINUOUS
 10
121.3786920999
 20
56.0489552229
 40
6.0307539381
100
AcDbArc
 50
53.658581311
 51
54.1737616554
  0
ARC
  5
57B
100
AcDbEntity
  8
3_ALL_AXES
100
AcDbCircle
 62
7
  6
CONTINUOUS
 10
126.6250144713
 20
59.0743551567
 40
4.9246531201
100
AcDbArc
 50
182.7179669934
 51
185.9376601127
  0
ARC
  5
57C
100
AcDbEntity
  8
3_ALL_AXES
100
AcDbCircle
 62
7
  6
CONTINUOUS
 10
126.5478579565
 20
58.9861063822
 40
4.6962299349
100
AcDbArc
 50
182.7524041664
 51
185.9222297922
  0
ARC
  5
57D
100
AcDbEntity
  8
3_ALL_AXES
100
AcDbCircle
 62
7
  6
CONTINUOUS
 10
122.5934914628
 20
56.9344331129
 40
4.6030051444
100
AcDbArc
 50
56.5336939065
 51
59.3014401194
  0
ARC
  5
57E
100
AcDbEntity
  8
3_ALL_AXES
100
AcDbCircle
 62
7
  6
CONTINUOUS
 10
123.5904797626
 20
55.3217808448
 40
4.5613350132
100
AcDbArc
 50
0.9802776314
 51
3.2504272878
  0
ARC
  5
57F
100
AcDbEntity
  8
3_ALL_AXES
100
AcDbCircle
 62
7
  6
CONTINUOUS
 10
122.6929015414
 20
56.9963397898
 40
4.4933139434
100
AcDbArc
 50
56.7424266753
 51
59.965186466
  0
ARC
  5
580
100
AcDbEntity
  8
3_ALL_AXES
100
AcDbCircle
 62
7
  6
CONTINUOUS
 10
127.1171319943
 20
57.2048133074
 40
4.3494006575
100
AcDbArc
 50
239.3221316957
 51
239.9922548277
  0
ARC
  5
581
100
AcDbEntity
  8
3_ALL_AXES
100
AcDbCircle
 62
7
  6
CONTINUOUS
 10
122.7252822063
 20
57.1534915234
 40
4.3473627339
100
AcDbArc
 50
59.3210547492
 51
59.9922326062
  0
ARC
  5
582
100
AcDbEntity
  8
3_ALL_AXES
100
AcDbCircle
 62
7
  6
CONTINUOUS
 10
123.8674977984
 20
55.3269559734
 40
4.2842690055
100
AcDbArc
 50
359.2367801948
 51
0.9744590684
  0
ARC
  5
583
100
AcDbEntity
  8
3_ALL_AXES
100
AcDbCircle
 62
7
  6
CONTINUOUS
 10
127.0126196996
 20
57.129182649
 40
4.2253091311
100
AcDbArc
 50
239.9923088149
 51
240.7233729046
  0
ARC
  5
584
100
AcDbEntity
  8
3_ALL_AXES
100
AcDbCircle
 62
7
  6
CONTINUOUS
 10
122.8327589668
 20
57.2342558639
 40
4.2173430755
100
AcDbArc
 50
59.9922813957
 51
60.7270755106
  0
ARC
  5
585
100
AcDbEntity
  8
3_ALL_AXES
100
AcDbCircle
 62
7
  6
CONTINUOUS
 10
127.0167579038
 20
57.2056212864
 40
4.1486839137
100
AcDbArc
 50
239.2894339369
 51
239.9921307808
  0
ARC
  5
586
100
AcDbEntity
  8
3_ALL_AXES
100
AcDbCircle
 62
7
  6
CONTINUOUS
 10
122.8256869836
 20
57.152737017
 40
4.1465843381
100
AcDbArc
 50
59.2883121972
 51
59.9921050841
  0
ARC
  5
587
100
AcDbEntity
  8
3_ALL_AXES
100
AcDbCircle
 62
7
  6
CONTINUOUS
 10
123.9184295867
 20
55.4142593264
 40
4.0820880852
100
AcDbArc
 50
359.2860585496
 51
0.9223493735
  0
ARC
  5
588
100
AcDbEntity
  8
3_ALL_AXES
100
AcDbCircle
 62
7
  6
CONTINUOUS
 10
126.9122134139
 20
57.1299355006
 40
4.0245285478
100
AcDbArc
 50
239.9921880411
 51
240.7595595692
  0
ARC
  5
589
100
AcDbEntity
  8
3_ALL_AXES
100
AcDbCircle
 62
7
  6
CONTINUOUS
 10
122.9331363123
 20
57.2334533078
 40
4.0166200077
100
AcDbArc
 50
59.9921561185
 51
60.7635720241
  0
ARC
  5
58A
100
AcDbEntity
  8
3_ALL_AXES
100
AcDbCircle
 62
7
  6
CONTINUOUS
 10
125.5197482161
 20
59.0695307727
 40
3.8184661674
100
AcDbArc
 50
175.4272348231
 51
176.2881493981
  0
ARC
  5
58B
100
AcDbEntity
  8
3_ALL_AXES
100
AcDbCircle
 62
7
  6
CONTINUOUS
 10
125.4925859078
 20
58.9814088917
 40
3.6400716852
100
AcDbArc
 50
175.5275064663
 51
176.183669613
  0
ARC
  5
58C
100
AcDbEntity
  8
3_ALL_AXES
100
AcDbCircle
 62
7
  6
CONTINUOUS
 10
127.1776245344
 20
58.4714949508
 40
2.4636939679
100
AcDbArc
 50
181.5800697
 51
238.4329235301
  0
ARC
  5
58D
100
AcDbEntity
  8
7_ALL_ROUNDS
100
AcDbCircle
 62
7
  6
CONTINUOUS
 10
120.8297677207
 20
53.9548610903
 40
1.3354080348
100
AcDbArc
 50
214.2037034463
 51
217.4073342537
  0
ARC
  5
58E
100
AcDbEntity
  8
3_AXES_OTHER
100
AcDbCircle
 62
7
  6
CONTINUOUS
 10
125.760458192
 20
66.1345363864
 40
1.0424184774
100
AcDbArc
 50
25.8027589483
 51
34.0368327537
  0
ARC
  5
58F
100
AcDbEntity
  8
0
100
AcDbCircle
 62
7
  6
CONTINUOUS
 10
120.4512769568
 20
54.0711718202
 40
0.9220573386
100
AcDbArc
 50
196.420959876
 51
200.198001949
  0
ARC
  5
590
100
AcDbEntity
  8
7_ALL_ROUNDS
100
AcDbCircle
 62
7
  6
CONTINUOUS
 10
120.3768036304
 20
53.8038806676
 40
0.8453946504
100
AcDbArc
 50
180.0347299016
 51
190.3370810531
  0
ARC
  5
591
100
AcDbEntity
  8
7_ALL_ROUNDS
100
AcDbCircle
 62
7
  6
CONTINUOUS
 10
128.661621948
 20
74.6234659885
 40
0.5393772893
100
AcDbArc
 50
100.9560493426
 51
106.3575267286
  0
ARC
  5
592
100
AcDbEntity
  8
7_ALL_ROUNDS
100
AcDbCircle
 62
7
  6
CONTINUOUS
 10
125.4462408031
 20
68.2214879266
 40
0.2980782949
100
AcDbArc
 50
177.5459196864
 51
179.9655935991
  0
ARC
  5
593
100
AcDbEntity
  8
7_ALL_ROUNDS
100
AcDbCircle
 62
7
  6
CONTINUOUS
 10
122.0467732131
 20
70.1222448984
 40
0.2879155229
100
AcDbArc
 50
110.5225134506
 51
120.1055515612
  0
ARC
  5
594
100
AcDbEntity
  8
7_ALL_ROUNDS
100
AcDbCircle
 62
7
  6
CONTINUOUS
 10
133.3324383404
 20
54.2613626197
 40
0.2816802149
100
AcDbArc
 50
346.0979509067
 51
359.9665901874
  0
ARC
  5
595
100
AcDbEntity
  8
7_ALL_ROUNDS
100
AcDbCircle
 62
7
  6
CONTINUOUS
 10
122.0378726532
 20
70.1453187665
 40
0.2631858473
100
AcDbArc
 50
106.4215196523
 51
110.468839126
  0
ARC
  5
596
100
AcDbEntity
  8
7_ALL_ROUNDS
100
AcDbCircle
 62
7
  6
CONTINUOUS
 10
121.9141922774
 20
70.1742982147
 40
0.1447937373
100
AcDbArc
 50
176.4498217361
 51
179.9780287756
  0
ARC
  5
597
100
AcDbEntity
  8
7_ALL_ROUNDS
100
AcDbCircle
 62
7
  6
CONTINUOUS
 10
121.8763475476
 20
52.2269175201
 40
0.1338507033
100
AcDbArc
 50
179.9450614084
 51
188.2805741056
  0
ARC
  5
598
100
AcDbEntity
  8
7_ALL_ROUNDS
100
AcDbCircle
 62
7
  6
CONTINUOUS
 10
121.8629255449
 20
52.2399947614
 40
0.1303569571
100
AcDbArc
 50
242.4145883085
 51
250.6629981842
  0
ARC
  5
599
100
AcDbEntity
  8
7_ALL_ROUNDS
100
AcDbCircle
 62
7
  6
CONTINUOUS
 10
121.8852214909
 20
52.2168692871
 40
0.1202281627
100
AcDbArc
 50
236.7048829225
 51
242.3347238556
  0
ARC
  5
59A
100
AcDbEntity
  8
7_ALL_ROUNDS
100
AcDbCircle
 62
7
  6
CONTINUOUS
 10
121.8808705574
 20
52.2103235951
 40
0.1123684756
100
AcDbArc
 50
227.7778697269
 51
236.7270518966
  0
ARC
  5
59B
100
AcDbEntity
  8
3_ALL_AXES
100
AcDbCircle
 62
7
  6
CONTINUOUS
 10
123.7525108833
 20
69.7869911937
 40
0.0481371223
100
AcDbArc
 50
148.6698447426
 51
153.416326977
  0
ARC
  5
59C
100
AcDbEntity
  8
3_ALL_AXES
100
AcDbCircle
 62
7
  6
CONTINUOUS
 10
123.7556403437
 20
69.9620467992
 40
0.0289696257
100
AcDbArc
 50
347.7953395741
 51
359.9395324283
  0
ARC
  5
59D
100
AcDbEntity
  8
7_ALL_ROUNDS
100
AcDbCircle
 62
7
  6
CONTINUOUS
 10
128.5176558549
 20
75.1141331357
 40
0.0280226911
100
AcDbArc
 50
99.193895415
 51
106.4555164494
  0
SPLINE
  5
59E
100
AcDbEntity
  8
7_ALL_ROUNDS
100
AcDbSpline
 62
7
  6
CONTINUOUS
 70
0
 71
3
 72
9
 73
5
 74
0
 42
0.0000001
 43
0.0000001
 44
0.0000000001
 40
0.0
 40
0.0
 40
0.0
 40
0.0
 40
0.2873481337
 40
1.0
 40
1.0
 40
1.0
 40
1.0
 10
45.5794378833
 20
33.5570122908
 30
0.0
 10
45.5794378833
 20
33.5385412473
 30
0.0
 10
45.5767203484
 20
33.4745139415
 30
0.0
 10
45.5665325222
 20
33.4092392978
 30
0.0
 10
45.5479226605
 20
33.3673796402
 30
0.0
  0
SPLINE
  5
59F
100
AcDbEntity
  8
7_ALL_ROUNDS
100
AcDbSpline
 62
7
  6
CONTINUOUS
 70
0
 71
3
 72
9
 73
5
 74
0
 42
0.0000001
 43
0.0000001
 44
0.0000000001
 40
0.0
 40
0.0
 40
0.0
 40
0.0
 40
0.2885492256
 40
1.0
 40
1.0
 40
1.0
 40
1.0
 10
45.5479226605
 20
33.3673796402
 30
0.0
 10
45.5463186753
 20
33.3637717537
 30
0.0
 10
45.5403881358
 20
33.3514695024
 30
0.0
 10
45.532843722
 20
33.3397171929
 30
0.0
 10
45.525973035
 20
33.3328203245
 30
0.0
  0
SPLINE
  5
5A0
100
AcDbEntity
  8
7_ALL_ROUNDS
100
AcDbSpline
 62
7
  6
CONTINUOUS
 70
0
 71
3
 72
8
 73
4
 74
0
 42
0.0000001
 43
0.0000001
 44
0.0000000001
 40
0.0
 40
0.0
 40
0.0
 40
0.0
 40
1.0
 40
1.0
 40
1.0
 40
1.0
 10
45.525973035
 20
33.3328203245
 30
0.0
 10
45.5195346142
 20
33.3263573694
 30
0.0
 10
45.5105127301
 20
33.3207918184
 30
0.0
 10
45.5013900631
 20
33.3207918184
 30
0.0
  0
SPLINE
  5
5A1
100
AcDbEntity
  8
7_ALL_ROUNDS
100
AcDbSpline
 62
7
  6
CONTINUOUS
 70
0
 71
3
 72
8
 73
4
 74
0
 42
0.0000001
 43
0.0000001
 44
0.0000000001
 40
0.0
 40
0.0
 40
0.0
 40
0.0
 40
1.0
 40
1.0
 40
1.0
 40
1.0
 10
40.156708616
 20
33.3207918184
 30
0.0
 10
40.147585949
 20
33.3207918184
 30
0.0
 10
40.1385640649
 20
33.3263573694
 30
0.0
 10
40.1321256441
 20
33.3328203245
 30
0.0
  0
SPLINE
  5
5A2
100
AcDbEntity
  8
7_ALL_ROUNDS
100
AcDbSpline
 62
7
  6
CONTINUOUS
 70
0
 71
3
 72
9
 73
5
 74
0
 42
0.0000001
 43
0.0000001
 44
0.0000000001
 40
0.0
 40
0.0
 40
0.0
 40
0.0
 40
0.2133437369
 40
1.0
 40
1.0
 40
1.0
 40
1.0
 10
40.1321256441
 20
33.3328203245
 30
0.0
 10
40.1300641821
 20
33.3348896419
 30
0.0
 10
40.121086885
 20
33.3452729069
 30
0.0
 10
40.1145512957
 20
33.357538213
 30
0.0
 10
40.1101760186
 20
33.3673796402
 30
0.0
  0
SPLINE
  5
5A3
100
AcDbEntity
  8
7_ALL_ROUNDS
100
AcDbSpline
 62
7
  6
CONTINUOUS
 70
0
 71
3
 72
9
 73
5
 74
0
 42
0.0000001
 43
0.0000001
 44
0.0000000001
 40
0.0
 40
0.0
 40
0.0
 40
0.0
 40
0.2023129857
 40
1.0
 40
1.0
 40
1.0
 40
1.0
 10
40.1101760186
 20
33.3673796402
 30
0.0
 10
40.1048893531
 20
33.3792710777
 30
0.0
 10
40.0843866376
 20
33.4404751416
 30
0.0
 10
40.0786607958
 20
33.5057015927
 30
0.0
 10
40.0786607958
 20
33.5570122908
 30
0.0
  0
SPLINE
  5
5A4
100
AcDbEntity
  8
7_ALL_ROUNDS
100
AcDbSpline
 62
7
  6
CONTINUOUS
 70
0
 71
3
 72
9
 73
5
 74
0
 42
0.0000001
 43
0.0000001
 44
0.0000000001
 40
0.0
 40
0.0
 40
0.0
 40
0.0
 40
0.2873280438
 40
1.0
 40
1.0
 40
1.0
 40
1.0
 10
40.0786607958
 20
59.0688233144
 30
0.0
 10
40.0786607958
 20
59.0872893291
 30
0.0
 10
40.081376875
 20
59.1513040528
 30
0.0
 10
40.0915615706
 20
59.2165636226
 30
0.0
 10
40.1101598826
 20
59.2584196824
 30
0.0
  0
SPLINE
  5
5A5
100
AcDbEntity
  8
7_ALL_ROUNDS
100
AcDbSpline
 62
7
  6
CONTINUOUS
 70
0
 71
3
 72
9
 73
5
 74
0
 42
0.0000001
 43
0.0000001
 44
0.0000000001
 40
0.0
 40
0.0
 40
0.0
 40
0.0
 40
0.2885851531
 40
1.0
 40
1.0
 40
1.0
 40
1.0
 10
40.1101598826
 20
59.2584196824
 30
0.0
 10
40.1117652007
 20
59.2620324989
 30
0.0
 10
40.1177003335
 20
59.2743499343
 30
0.0
 10
40.1252521444
 20
59.2861172949
 30
0.0
 10
40.1321312596
 20
59.2930209223
 30
0.0
  0
SPLINE
  5
5A6
100
AcDbEntity
  8
7_ALL_ROUNDS
100
AcDbSpline
 62
7
  6
CONTINUOUS
 70
0
 71
3
 72
8
 73
4
 74
0
 42
0.0000001
 43
0.0000001
 44
0.0000000001
 40
0.0
 40
0.0
 40
0.0
 40
0.0
 40
1.0
 40
1.0
 40
1.0
 40
1.0
 10
40.1321312596
 20
59.2930209223
 30
0.0
 10
40.1385687065
 20
59.2994813076
 30
0.0
 10
40.1475884569
 20
59.3050437869
 30
0.0
 10
40.156708616
 20
59.3050437869
 30
0.0
  0
SPLINE
  5
5A7
100
AcDbEntity
  8
7_ALL_ROUNDS
100
AcDbSpline
 62
7
  6
CONTINUOUS
 70
0
 71
3
 72
8
 73
4
 74
0
 42
0.0000001
 43
0.0000001
 44
0.0000000001
 40
0.0
 40
0.0
 40
0.0
 40
0.0
 40
1.0
 40
1.0
 40
1.0
 40
1.0
 10
45.5013900631
 20
59.3050437869
 30
0.0
 10
45.5105102222
 20
59.3050437869
 30
0.0
 10
45.5195299726
 20
59.2994813076
 30
0.0
 10
45.5259674195
 20
59.2930209223
 30
0.0
  0
SPLINE
  5
5A8
100
AcDbEntity
  8
7_ALL_ROUNDS
100
AcDbSpline
 62
7
  6
CONTINUOUS
 70
0
 71
3
 72
9
 73
5
 74
0
 42
0.0000001
 43
0.0000001
 44
0.0000000001
 40
0.0
 40
0.0
 40
0.0
 40
0.0
 40
0.2133097487
 40
1.0
 40
1.0
 40
1.0
 40
1.0
 10
45.5259674195
 20
59.2930209223
 30
0.0
 10
45.5280311886
 20
59.2909497994
 30
0.0
 10
45.5370192367
 20
59.2805547631
 30
0.0
 10
45.5435602334
 20
59.2682737701
 30
0.0
 10
45.5479387965
 20
59.2584196824
 30
0.0
  0
SPLINE
  5
5A9
100
AcDbEntity
  8
7_ALL_ROUNDS
100
AcDbSpline
 62
7
  6
CONTINUOUS
 70
0
 71
3
 72
9
 73
5
 74
0
 42
0.0000001
 43
0.0000001
 44
0.0000000001
 40
0.0
 40
0.0
 40
0.0
 40
0.0
 40
0.2023388207
 40
1.0
 40
1.0
 40
1.0
 40
1.0
 10
45.5479387965
 20
59.2584196824
 30
0.0
 10
45.5532227015
 20
59.2465280954
 30
0.0
 10
45.573713561
 20
59.1853342349
 30
0.0
 10
45.5794378833
 20
59.1201219185
 30
0.0
 10
45.5794378833
 20
59.0688233144
 30
0.0
  0
SPLINE
  5
5AA
100
AcDbEntity
  8
7_ALL_ROUNDS
100
AcDbSpline
 62
7
  6
CONTINUOUS
 70
0
 71
3
 72
11
 73
7
 74
0
 42
0.0000001
 43
0.0000001
 44
0.0000000001
 40
0.0
 40
0.0
 40
0.0
 40
0.0
 40
0.3786602787
 40
0.6971412171
 40
0.9101854387
 40
1.0
 40
1.0
 40
1.0
 40
1.0
 10
36.995781623
 20
33.5570122908
 30
0.0
 10
36.995781623
 20
33.5264706843
 30
0.0
 10
36.9970350595
 20
33.471148254
 30
0.0
 10
37.0037627489
 20
33.3947120699
 30
0.0
 10
37.0113053471
 20
33.3517601061
 30
0.0
 10
37.0218731213
 20
33.3207918184
 30
0.0
 10
37.0291172954
 20
33.3207918184
 30
0.0
  0
SPLINE
  5
5AB
100
AcDbEntity
  8
7_ALL_ROUNDS
100
AcDbSpline
 62
7
  6
CONTINUOUS
 70
0
 71
3
 72
11
 73
7
 74
0
 42
0.0000001
 43
0.0000001
 44
0.0000000001
 40
0.0
 40
0.0
 40
0.0
 40
0.0
 40
0.3786602787
 40
0.6971412171
 40
0.9101854387
 40
1.0
 40
1.0
 40
1.0
 40
1.0
 10
48.6623170561
 20
33.5570122908
 30
0.0
 10
48.6623170561
 20
33.5264706843
 30
0.0
 10
48.6610636196
 20
33.471148254
 30
0.0
 10
48.6543359302
 20
33.3947120699
 30
0.0
 10
48.646793332
 20
33.3517601061
 30
0.0
 10
48.6362255578
 20
33.3207918184
 30
0.0
 10
48.6289813837
 20
33.3207918184
 30
0.0
  0
SPLINE
  5
5AC
100
AcDbEntity
  8
7_ALL_ROUNDS
100
AcDbSpline
 62
7
  6
CONTINUOUS
 70
0
 71
3
 72
11
 73
7
 74
0
 42
0.0000001
 43
0.0000001
 44
0.0000000001
 40
0.0
 40
0.0
 40
0.0
 40
0.0
 40
0.3786602787
 40
0.6971412171
 40
0.9101854387
 40
1.0
 40
1.0
 40
1.0
 40
1.0
 10
36.995781623
 20
59.0688233144
 30
0.0
 10
36.995781623
 20
59.0993649209
 30
0.0
 10
36.9970350595
 20
59.1546873512
 30
0.0
 10
37.0037627489
 20
59.2311235353
 30
0.0
 10
37.0113053471
 20
59.2740754991
 30
0.0
 10
37.0218731213
 20
59.3050437869
 30
0.0
 10
37.0291172954
 20
59.3050437869
 30
0.0
  0
SPLINE
  5
5AD
100
AcDbEntity
  8
7_ALL_ROUNDS
100
AcDbSpline
 62
7
  6
CONTINUOUS
 70
0
 71
3
 72
11
 73
7
 74
0
 42
0.0000001
 43
0.0000001
 44
0.0000000001
 40
0.0
 40
0.0
 40
0.0
 40
0.0
 40
0.3786602787
 40
0.6971412171
 40
0.9101854387
 40
1.0
 40
1.0
 40
1.0
 40
1.0
 10
48.6623170561
 20
59.0688233144
 30
0.0
 10
48.6623170561
 20
59.0993649209
 30
0.0
 10
48.6610636196
 20
59.1546873512
 30
0.0
 10
48.6543359302
 20
59.2311235353
 30
0.0
 10
48.646793332
 20
59.2740754991
 30
0.0
 10
48.6362255578
 20
59.3050437869
 30
0.0
 10
48.6289813837
 20
59.3050437869
 30
0.0
  0
SPLINE
  5
5AE
100
AcDbEntity
  8
7_ALL_ROUNDS
100
AcDbSpline
 62
7
  6
CONTINUOUS
 70
0
 71
3
 72
9
 73
5
 74
0
 42
0.0000001
 43
0.0000001
 44
0.0000000001
 40
0.0
 40
0.0
 40
0.0
 40
0.0
 40
0.3375394736
 40
1.0
 40
1.0
 40
1.0
 40
1.0
 10
40.1146673973
 20
59.3050437869
 30
0.0
 10
40.0935449859
 20
59.3050437869
 30
0.0
 10
40.0516460642
 20
59.2378556115
 30
0.0
 10
40.0445189948
 20
59.1811787376
 30
0.0
 10
40.0402215221
 20
59.1399468967
 30
0.0
  0
SPLINE
  5
5AF
100
AcDbEntity
  8
7_ALL_ROUNDS
100
AcDbSpline
 62
7
  6
CONTINUOUS
 70
0
 71
3
 72
9
 73
5
 74
0
 42
0.0000001
 43
0.0000001
 44
0.0000000001
 40
0.0
 40
0.0
 40
0.0
 40
0.0
 40
0.6624694749
 40
1.0
 40
1.0
 40
1.0
 40
1.0
 10
40.040217068
 20
33.4859313942
 30
0.0
 10
40.044512795
 20
33.4446895031
 30
0.0
 10
40.0516380068
 20
33.388001356
 30
0.0
 10
40.0935408303
 20
33.3207918184
 30
0.0
 10
40.1146673973
 20
33.3207918184
 30
0.0
  0
SPLINE
  5
5B0
100
AcDbEntity
  8
7_ALL_ROUNDS
100
AcDbSpline
 62
7
  6
CONTINUOUS
 70
0
 71
3
 72
9
 73
5
 74
0
 42
0.0000001
 43
0.0000001
 44
0.0000000001
 40
0.0
 40
0.0
 40
0.0
 40
0.0
 40
0.3375305251
 40
1.0
 40
1.0
 40
1.0
 40
1.0
 10
45.5434312818
 20
33.3207918184
 30
0.0
 10
45.5645578488
 20
33.3207918184
 30
0.0
 10
45.6064606723
 20
33.388001356
 30
0.0
 10
45.6135858841
 20
33.4446895031
 30
0.0
 10
45.6178816111
 20
33.4859313942
 30
0.0
  0
SPLINE
  5
5B1
100
AcDbEntity
  8
7_ALL_ROUNDS
100
AcDbSpline
 62
7
  6
CONTINUOUS
 70
0
 71
3
 72
9
 73
5
 74
0
 42
0.0000001
 43
0.0000001
 44
0.0000000001
 40
0.0
 40
0.0
 40
0.0
 40
0.0
 40
0.6624605264
 40
1.0
 40
1.0
 40
1.0
 40
1.0
 10
45.617877157
 20
59.1399468967
 30
0.0
 10
45.6135796843
 20
59.1811787376
 30
0.0
 10
45.6064526149
 20
59.2378556115
 30
0.0
 10
45.5645536932
 20
59.3050437869
 30
0.0
 10
45.5434312818
 20
59.3050437869
 30
0.0
  0
SPLINE
  5
5B2
100
AcDbEntity
  8
3_ALL_AXES
100
AcDbSpline
 62
7
  6
CONTINUOUS
 70
0
 71
3
 72
13
 73
9
 74
0
 42
0.0000001
 43
0.0000001
 44
0.0000000001
 40
0.0
 40
0.0
 40
0.0
 40
0.0
 40
0.1317357684
 40
0.2713541552
 40
0.4178991716
 40
0.5930152361
 40
0.7698067128
 40
1.0
 40
1.0
 40
1.0
 40
1.0
 10
43.5123957962
 20
71.0892058913
 30
0.0
 10
43.4967165165
 20
71.0892058913
 30
0.0
 10
43.4645835428
 20
71.0849452186
 30
0.0
 10
43.42096481
 20
71.0585610677
 30
0.0
 10
43.389752475
 20
71.0128580599
 30
0.0
 10
43.369449671
 20
70.9573640897
 30
0.0
 10
43.3583386418
 20
70.8894431518
 30
0.0
 10
43.3567304419
 20
70.84149431
 30
0.0
 10
43.3567304419
 20
70.8143594346
 30
0.0
  0
SPLINE
  5
5B3
100
AcDbEntity
  8
3_ALL_AXES
100
AcDbSpline
 62
7
  6
CONTINUOUS
 70
0
 71
3
 72
13
 73
9
 74
0
 42
0.0000001
 43
0.0000001
 44
0.0000000001
 40
0.0
 40
0.0
 40
0.0
 40
0.0
 40
0.2249509062
 40
0.4029463322
 40
0.5792549365
 40
0.726797924
 40
0.8673671115
 40
1.0
 40
1.0
 40
1.0
 40
1.0
 10
43.3567304419
 20
70.8064854188
 30
0.0
 10
43.3567304419
 20
70.7804582638
 30
0.0
 10
43.3589818018
 20
70.7338831827
 30
0.0
 10
43.3702097271
 20
70.6676190478
 30
0.0
 10
43.3906766071
 20
70.6129196477
 30
0.0
 10
43.4218302917
 20
70.5679725048
 30
0.0
 10
43.4651206245
 20
70.542196159
 30
0.0
 10
43.4968959441
 20
70.5382177023
 30
0.0
 10
43.5123957962
 20
70.5382177023
 30
0.0
  0
SPLINE
  5
5B4
100
AcDbEntity
  8
3_ALL_AXES
100
AcDbSpline
 62
7
  6
CONTINUOUS
 70
0
 71
3
 72
13
 73
9
 74
0
 42
0.0000001
 43
0.0000001
 44
0.0000000001
 40
0.0
 40
0.0
 40
0.0
 40
0.0
 40
0.1604571392
 40
0.3334692485
 40
0.4767982758
 40
0.6242014838
 40
0.7505998515
 40
1.0
 40
1.0
 40
1.0
 40
1.0
 10
43.1673446151
 20
70.5382177023
 30
0.0
 10
43.180218878
 20
70.5382177023
 30
0.0
 10
43.2068809451
 20
70.5411695959
 30
0.0
 10
43.2425785904
 20
70.5568323206
 30
0.0
 10
43.2692444071
 20
70.583603226
 30
0.0
 10
43.2839896203
 20
70.6138810606
 30
0.0
 10
43.2951990285
 20
70.6544041602
 30
0.0
 10
43.2945189566
 20
70.6845994631
 30
0.0
 10
43.2950650876
 20
70.7046271511
 30
0.0
  0
SPLINE
  5
5B5
100
AcDbEntity
  8
3_ALL_AXES
100
AcDbSpline
 62
7
  6
CONTINUOUS
 70
0
 71
3
 72
13
 73
9
 74
0
 42
0.0000001
 43
0.0000001
 44
0.0000000001
 40
0.0
 40
0.0
 40
0.0
 40
0.0
 40
0.2494001485
 40
0.3757985162
 40
0.5232017242
 40
0.6665307515
 40
0.8395428608
 40
1.0
 40
1.0
 40
1.0
 40
1.0
 10
43.2950650876
 20
70.7046271511
 30
0.0
 10
43.2956028579
 20
70.7243482379
 30
0.0
 10
43.2943066536
 20
70.754078074
 30
0.0
 10
43.2831561396
 20
70.7938462842
 30
0.0
 10
43.2681944247
 20
70.8234892669
 30
0.0
 10
43.2416474285
 20
70.8495122218
 30
0.0
 10
43.2063055436
 20
70.8646066582
 30
0.0
 10
43.1800217873
 20
70.8669696708
 30
0.0
 10
43.1673446151
 20
70.8669696708
 30
0.0
  0
SPLINE
  5
5B6
100
AcDbEntity
  8
3_ALL_AXES
100
AcDbSpline
 62
7
  6
CONTINUOUS
 70
0
 71
3
 72
13
 73
9
 74
0
 42
0.0000001
 43
0.0000001
 44
0.0000000001
 40
0.0
 40
0.0
 40
0.0
 40
0.0
 40
0.1133740464
 40
0.2392044088
 40
0.3655787964
 40
0.4912154373
 40
0.7445390876
 40
1.0
 40
1.0
 40
1.0
 40
1.0
 10
42.4889627254
 20
71.0892058913
 30
0.0
 10
42.479997958
 20
71.0892058913
 30
0.0
 10
42.4611089089
 20
71.087923719
 30
0.0
 10
42.4329613942
 20
71.0800485353
 30
0.0
 10
42.4076973392
 20
71.0633000259
 30
0.0
 10
42.381736085
 20
71.0323885443
 30
0.0
 10
42.3652263114
 20
70.9835759359
 30
0.0
 10
42.3627941544
 20
70.9434709184
 30
0.0
 10
42.3619154813
 20
70.9233161275
 30
0.0
  0
SPLINE
  5
5B7
100
AcDbEntity
  8
3_ALL_AXES
100
AcDbSpline
 62
7
  6
CONTINUOUS
 70
0
 71
3
 72
13
 73
9
 74
0
 42
0.0000001
 43
0.0000001
 44
0.0000000001
 40
0.0
 40
0.0
 40
0.0
 40
0.0
 40
0.2554609124
 40
0.5087845627
 40
0.6344212036
 40
0.7607955912
 40
0.8866259536
 40
1.0
 40
1.0
 40
1.0
 40
1.0
 10
42.3619154813
 20
70.9233161275
 30
0.0
 10
42.3610468813
 20
70.9033923929
 30
0.0
 10
42.3666229824
 20
70.8637820639
 30
0.0
 10
42.3823582679
 20
70.8156742739
 30
0.0
 10
42.4084248559
 20
70.7853429503
 30
0.0
 10
42.4335192359
 20
70.7690240094
 30
0.0
 10
42.4614196446
 20
70.761435118
 30
0.0
 10
42.4801007309
 20
70.7604539228
 30
0.0
 10
42.4889627254
 20
70.7604539228
 30
0.0
  0
SPLINE
  5
5B8
100
AcDbEntity
  8
3_ALL_AXES
100
AcDbSpline
 62
7
  6
CONTINUOUS
 70
0
 71
3
 72
12
 73
8
 74
0
 42
0.0000001
 43
0.0000001
 44
0.0000000001
 40
0.0
 40
0.0
 40
0.0
 40
0.0
 40
0.2415790084
 40
0.4893269843
 40
0.7378634303
 40
0.8656387112
 40
1.0
 40
1.0
 40
1.0
 40
1.0
 10
42.1661083947
 20
70.5382177023
 30
0.0
 10
42.1812907782
 20
70.5382177023
 30
0.0
 10
42.2120074076
 20
70.5402041782
 30
0.0
 10
42.2568875946
 20
70.5561822606
 30
0.0
 10
42.284031439
 20
70.5867202144
 30
0.0
 10
42.2958382926
 20
70.617041092
 30
0.0
 10
42.2960335915
 20
70.6336189054
 30
0.0
 10
42.2960335915
 20
70.6421153401
 30
0.0
  0
SPLINE
  5
5B9
100
AcDbEntity
  8
3_ALL_AXES
100
AcDbSpline
 62
7
  6
CONTINUOUS
 70
0
 71
3
 72
12
 73
8
 74
0
 42
0.0000001
 43
0.0000001
 44
0.0000000001
 40
0.0
 40
0.0
 40
0.0
 40
0.0
 40
0.1343612888
 40
0.2621365697
 40
0.5106730157
 40
0.7584209916
 40
1.0
 40
1.0
 40
1.0
 40
1.0
 10
42.2960335915
 20
70.9851547102
 30
0.0
 10
42.2960335915
 20
70.9936560451
 30
0.0
 10
42.2958588832
 20
71.0102435922
 30
0.0
 10
42.2840630078
 20
71.0405902329
 30
0.0
 10
42.2569274612
 20
71.0711669915
 30
0.0
 10
42.2120322957
 20
71.0871799622
 30
0.0
 10
42.1812995337
 20
71.0892058913
 30
0.0
 10
42.1661083947
 20
71.0892058913
 30
0.0
  0
SPLINE
  5
5BA
100
AcDbEntity
  8
3_ALL_AXES
100
AcDbSpline
 62
7
  6
CONTINUOUS
 70
0
 71
3
 72
12
 73
8
 74
0
 42
0.0000001
 43
0.0000001
 44
0.0000000001
 40
0.0
 40
0.0
 40
0.0
 40
0.0
 40
0.1341799809
 40
0.290831959
 40
0.5815217441
 40
0.760783857
 40
1.0
 40
1.0
 40
1.0
 40
1.0
 10
41.4673446151
 20
71.0892058913
 30
0.0
 10
41.4518174201
 20
71.0892058913
 30
0.0
 10
41.4190064887
 20
71.0793938457
 30
0.0
 10
41.3630655578
 20
71.0397706602
 30
0.0
 10
41.3368676097
 20
70.968556886
 30
0.0
 10
41.3215249865
 20
70.8891623186
 30
0.0
 10
41.3205598659
 20
70.8409837343
 30
0.0
 10
41.3198957962
 20
70.8134736078
 30
0.0
  0
SPLINE
  5
5BB
100
AcDbEntity
  8
3_ALL_AXES
100
AcDbSpline
 62
7
  6
CONTINUOUS
 70
0
 71
3
 72
12
 73
8
 74
0
 42
0.0000001
 43
0.0000001
 44
0.0000000001
 40
0.0
 40
0.0
 40
0.0
 40
0.0
 40
0.2392679579
 40
0.4185688994
 40
0.7093216488
 40
0.8660075581
 40
1.0
 40
1.0
 40
1.0
 40
1.0
 10
41.3198957962
 20
70.8134736078
 30
0.0
 10
41.3192320565
 20
70.7859771513
 30
0.0
 10
41.3219932429
 20
70.7378252581
 30
0.0
 10
41.3367095902
 20
70.6584475713
 30
0.0
 10
41.363151013
 20
70.5873832518
 30
0.0
 10
41.418964462
 20
70.5475515858
 30
0.0
 10
41.4518403991
 20
70.5382177023
 30
0.0
 10
41.4673446151
 20
70.5382177023
 30
0.0
  0
LINE
  5
5BC
100
AcDbEntity
  8
7_ALL_ROUNDS
100
AcDbLine
 62
7
  6
CONTINUOUS
 10
35.565269812
 20
72.0933398756
 11
35.3290493396
 21
72.1307535229
  0
LINE
  5
5BD
100
AcDbEntity
  8
7_ALL_ROUNDS
100
AcDbLine
 62
7
  6
CONTINUOUS
 10
50.0928288671
 20
72.0933398756
 11
50.3290493396
 21
72.1307535229
  0
SPLINE
  5
5BE
100
AcDbEntity
  8
0
100
AcDbSpline
 62
7
  6
CONTINUOUS
 70
0
 71
3
 72
9
 73
5
 74
0
 42
0.0000001
 43
0.0000001
 44
0.0000000001
 40
0.0
 40
0.0
 40
0.0
 40
0.0
 40
0.4911394605
 40
1.0
 40
1.0
 40
1.0
 40
1.0
 10
79.7148377112
 20
34.6948167672
 30
0.0
 10
79.6618948313
 20
34.6948167875
 30
0.0
 10
79.5503214223
 20
34.7436768336
 30
0.0
 10
79.508900332
 20
34.8564898577
 30
0.0
 10
79.508900332
 20
34.9113429995
 30
0.0
  0
SPLINE
  5
5BF
100
AcDbEntity
  8
0
100
AcDbSpline
 62
7
  6
CONTINUOUS
 70
0
 71
3
 72
9
 73
5
 74
0
 42
0.0000001
 43
0.0000001
 44
0.0000000001
 40
0.0
 40
0.0
 40
0.0
 40
0.0
 40
0.4911394605
 40
1.0
 40
1.0
 40
1.0
 40
1.0
 10
79.7148377112
 20
57.4979663735
 30
0.0
 10
79.6618948313
 20
57.4979663938
 30
0.0
 10
79.5503214223
 20
57.5468264399
 30
0.0
 10
79.508900332
 20
57.659639464
 30
0.0
 10
79.508900332
 20
57.7144926058
 30
0.0
  0
SPLINE
  5
5C0
100
AcDbEntity
  8
7_ALL_ROUNDS
100
AcDbSpline
 62
7
  6
CONTINUOUS
 70
0
 71
3
 72
9
 73
5
 74
0
 42
0.0000001
 43
0.0000001
 44
0.0000000001
 40
0.0
 40
0.0
 40
0.0
 40
0.0
 40
0.5011762892
 40
1.0
 40
1.0
 40
1.0
 40
1.0
 10
75.485726934
 20
33.5570122908
 30
0.0
 10
75.485726934
 20
33.4960070543
 30
0.0
 10
75.5389278589
 20
33.3693956937
 30
0.0
 10
75.6658898423
 20
33.3207918184
 30
0.0
 10
75.7266087132
 20
33.3207918184
 30
0.0
  0
SPLINE
  5
5C1
100
AcDbEntity
  8
7_ALL_ROUNDS
100
AcDbSpline
 62
7
  6
CONTINUOUS
 70
0
 71
3
 72
9
 73
5
 74
0
 42
0.0000001
 43
0.0000001
 44
0.0000000001
 40
0.0
 40
0.0
 40
0.0
 40
0.0
 40
0.5011762892
 40
1.0
 40
1.0
 40
1.0
 40
1.0
 10
75.485726934
 20
59.0688233144
 30
0.0
 10
75.485726934
 20
59.1298285509
 30
0.0
 10
75.5389278589
 20
59.2564399115
 30
0.0
 10
75.6658898423
 20
59.3050437869
 30
0.0
 10
75.7266087132
 20
59.3050437869
 30
0.0
  0
SPLINE
  5
5C2
100
AcDbEntity
  8
0
100
AcDbSpline
 62
7
  6
CONTINUOUS
 70
0
 71
3
 72
9
 73
5
 74
0
 42
0.0000001
 43
0.0000001
 44
0.0000000001
 40
0.0
 40
0.0
 40
0.0
 40
0.0
 40
0.5088606351
 40
1.0
 40
1.0
 40
1.0
 40
1.0
 10
79.508900332
 20
34.9113429995
 30
0.0
 10
79.5089003318
 20
34.9661961692
 30
0.0
 10
79.5503214584
 20
35.0790092333
 30
0.0
 10
79.6618949352
 20
35.1278692521
 30
0.0
 10
79.7148378219
 20
35.1278692317
 30
0.0
  0
SPLINE
  5
5C3
100
AcDbEntity
  8
0
100
AcDbSpline
 62
7
  6
CONTINUOUS
 70
0
 71
3
 72
9
 73
5
 74
0
 42
0.0000001
 43
0.0000001
 44
0.0000000001
 40
0.0
 40
0.0
 40
0.0
 40
0.0
 40
0.5088606351
 40
1.0
 40
1.0
 40
1.0
 40
1.0
 10
79.508900332
 20
57.7144926058
 30
0.0
 10
79.5089003318
 20
57.7693457755
 30
0.0
 10
79.5503214584
 20
57.8821588396
 30
0.0
 10
79.6618949352
 20
57.9310188584
 30
0.0
 10
79.7148378219
 20
57.931018838
 30
0.0
  0
SPLINE
  5
5C4
100
AcDbEntity
  8
0
100
AcDbSpline
 62
7
  6
CONTINUOUS
 70
0
 71
3
 72
9
 73
5
 74
0
 42
0.0000001
 43
0.0000001
 44
0.0000000001
 40
0.0
 40
0.0
 40
0.0
 40
0.0
 40
0.5088606351
 40
1.0
 40
1.0
 40
1.0
 40
1.0
 10
79.9207752012
 20
34.9113429995
 30
0.0
 10
79.920775201
 20
34.8564898297
 30
0.0
 10
79.8793540749
 20
34.7436767656
 30
0.0
 10
79.7677805979
 20
34.6948167468
 30
0.0
 10
79.7148377112
 20
34.6948167672
 30
0.0
  0
SPLINE
  5
5C5
100
AcDbEntity
  8
0
100
AcDbSpline
 62
7
  6
CONTINUOUS
 70
0
 71
3
 72
9
 73
5
 74
0
 42
0.0000001
 43
0.0000001
 44
0.0000000001
 40
0.0
 40
0.0
 40
0.0
 40
0.0
 40
0.5088606351
 40
1.0
 40
1.0
 40
1.0
 40
1.0
 10
79.9207752012
 20
57.7144926058
 30
0.0
 10
79.920775201
 20
57.659639436
 30
0.0
 10
79.8793540749
 20
57.5468263719
 30
0.0
 10
79.7677805979
 20
57.4979663531
 30
0.0
 10
79.7148377112
 20
57.4979663735
 30
0.0
  0
SPLINE
  5
5C6
100
AcDbEntity
  8
0
100
AcDbSpline
 62
7
  6
CONTINUOUS
 70
0
 71
3
 72
9
 73
5
 74
0
 42
0.0000001
 43
0.0000001
 44
0.0000000001
 40
0.0
 40
0.0
 40
0.0
 40
0.0
 40
0.4911394605
 40
1.0
 40
1.0
 40
1.0
 40
1.0
 10
79.7148378219
 20
35.1278692317
 30
0.0
 10
79.7677807019
 20
35.1278692114
 30
0.0
 10
79.8793541108
 20
35.0790091653
 30
0.0
 10
79.9207752012
 20
34.9661961412
 30
0.0
 10
79.9207752012
 20
34.9113429995
 30
0.0
  0
SPLINE
  5
5C7
100
AcDbEntity
  8
3_ALL_AXES
100
AcDbSpline
 62
7
  6
CONTINUOUS
 70
0
 71
3
 72
8
 73
4
 74
0
 42
0.0000001
 43
0.0000001
 44
0.0000000001
 40
0.0
 40
0.0
 40
0.0
 40
0.0
 40
1.0
 40
1.0
 40
1.0
 40
1.0
 10
79.6780693886
 20
35.1113956541
 30
0.0
 10
79.7030214449
 20
35.1005251029
 30
0.0
 10
79.7261172963
 20
35.0841727488
 30
0.0
 10
79.7448803008
 20
35.0644566725
 30
0.0
  0
SPLINE
  5
5C8
100
AcDbEntity
  8
3_ALL_AXES
100
AcDbSpline
 62
7
  6
CONTINUOUS
 70
0
 71
3
 72
8
 73
4
 74
0
 42
0.0000001
 43
0.0000001
 44
0.0000000001
 40
0.0
 40
0.0
 40
0.0
 40
0.0
 40
1.0
 40
1.0
 40
1.0
 40
1.0
 10
79.7448803008
 20
35.0644566725
 30
0.0
 10
79.7826965789
 20
35.0247195067
 30
0.0
 10
79.8051979789
 20
34.9661983843
 30
0.0
 10
79.8051979789
 20
34.9113429995
 30
0.0
  0
SPLINE
  5
5C9
100
AcDbEntity
  8
3_ALL_AXES
100
AcDbSpline
 62
7
  6
CONTINUOUS
 70
0
 71
3
 72
8
 73
4
 74
0
 42
0.0000001
 43
0.0000001
 44
0.0000000001
 40
0.0
 40
0.0
 40
0.0
 40
0.0
 40
1.0
 40
1.0
 40
1.0
 40
1.0
 10
79.8051979789
 20
34.9113429995
 30
0.0
 10
79.8051979789
 20
34.8564876147
 30
0.0
 10
79.7826965789
 20
34.7979664923
 30
0.0
 10
79.7448803008
 20
34.7582293264
 30
0.0
  0
SPLINE
  5
5CA
100
AcDbEntity
  8
3_ALL_AXES
100
AcDbSpline
 62
7
  6
CONTINUOUS
 70
0
 71
3
 72
8
 73
4
 74
0
 42
0.0000001
 43
0.0000001
 44
0.0000000001
 40
0.0
 40
0.0
 40
0.0
 40
0.0
 40
1.0
 40
1.0
 40
1.0
 40
1.0
 10
79.7448803008
 20
34.7582293264
 30
0.0
 10
79.7261172963
 20
34.7385132502
 30
0.0
 10
79.7030214449
 20
34.722160896
 30
0.0
 10
79.6780693886
 20
34.7112903448
 30
0.0
  0
SPLINE
  5
5CB
100
AcDbEntity
  8
3_ALL_AXES
100
AcDbSpline
 62
7
  6
CONTINUOUS
 70
0
 71
3
 72
8
 73
4
 74
0
 42
0.0000001
 43
0.0000001
 44
0.0000000001
 40
0.0
 40
0.0
 40
0.0
 40
0.0
 40
1.0
 40
1.0
 40
1.0
 40
1.0
 10
79.8051979789
 20
57.7144926058
 30
0.0
 10
79.8051979789
 20
57.659637221
 30
0.0
 10
79.7826965789
 20
57.6011160986
 30
0.0
 10
79.7448803008
 20
57.5613789327
 30
0.0
  0
SPLINE
  5
5CC
100
AcDbEntity
  8
3_ALL_AXES
100
AcDbSpline
 62
7
  6
CONTINUOUS
 70
0
 71
3
 72
8
 73
4
 74
0
 42
0.0000001
 43
0.0000001
 44
0.0000000001
 40
0.0
 40
0.0
 40
0.0
 40
0.0
 40
1.0
 40
1.0
 40
1.0
 40
1.0
 10
79.7448803008
 20
57.5613789327
 30
0.0
 10
79.7261172963
 20
57.5416628565
 30
0.0
 10
79.7030214449
 20
57.5253105023
 30
0.0
 10
79.6780693886
 20
57.5144399511
 30
0.0
  0
SPLINE
  5
5CD
100
AcDbEntity
  8
7_ALL_ROUNDS
100
AcDbSpline
 62
7
  6
CONTINUOUS
 70
0
 71
3
 72
11
 73
7
 74
0
 42
0.0000001
 43
0.0000001
 44
0.0000000001
 40
0.0
 40
0.0
 40
0.0
 40
0.0
 40
0.093682479
 40
0.308795613
 40
0.6259401945
 40
1.0
 40
1.0
 40
1.0
 40
1.0
 10
77.8709510819
 20
33.3207918184
 30
0.0
 10
77.8785432793
 20
33.3207918184
 30
0.0
 10
77.8907175687
 20
33.3514498663
 30
0.0
 10
77.8991010169
 20
33.3954210615
 30
0.0
 10
77.9069308053
 20
33.4714763545
 30
0.0
 10
77.9083647293
 20
33.5266978081
 30
0.0
 10
77.9083647293
 20
33.5570122908
 30
0.0
  0
SPLINE
  5
5CE
100
AcDbEntity
  8
0
100
AcDbSpline
 62
7
  6
CONTINUOUS
 70
0
 71
3
 72
9
 73
5
 74
0
 42
0.0000001
 43
0.0000001
 44
0.0000000001
 40
0.0
 40
0.0
 40
0.0
 40
0.0
 40
0.4911394605
 40
1.0
 40
1.0
 40
1.0
 40
1.0
 10
79.7148378219
 20
57.931018838
 30
0.0
 10
79.7677807019
 20
57.9310188177
 30
0.0
 10
79.8793541108
 20
57.8821587716
 30
0.0
 10
79.9207752012
 20
57.7693457475
 30
0.0
 10
79.9207752012
 20
57.7144926058
 30
0.0
  0
SPLINE
  5
5CF
100
AcDbEntity
  8
7_ALL_ROUNDS
100
AcDbSpline
 62
7
  6
CONTINUOUS
 70
0
 71
3
 72
11
 73
7
 74
0
 42
0.0000001
 43
0.0000001
 44
0.0000000001
 40
0.0
 40
0.0
 40
0.0
 40
0.0
 40
0.1004087756
 40
0.3149184137
 40
0.6292448005
 40
1.0
 40
1.0
 40
1.0
 40
1.0
 10
77.1972791124
 20
33.3207918184
 30
0.0
 10
77.1890475257
 20
33.3207918184
 30
0.0
 10
77.173133465
 20
33.3493771864
 30
0.0
 10
77.1636417324
 20
33.3956418672
 30
0.0
 10
77.1540579127
 20
33.470984478
 30
0.0
 10
77.1524592174
 20
33.5266175014
 30
0.0
 10
77.1524592174
 20
33.5570122908
 30
0.0
  0
SPLINE
  5
5D0
100
AcDbEntity
  8
0
100
AcDbSpline
 62
7
  6
CONTINUOUS
 70
0
 71
3
 72
11
 73
7
 74
0
 42
0.0000001
 43
0.0000001
 44
0.0000000001
 40
0.0
 40
0.0
 40
0.0
 40
0.0
 40
0.2544295359
 40
0.5000000309
 40
0.7455705897
 40
1.0
 40
1.0
 40
1.0
 40
1.0
 10
80.1936257645
 20
34.9113429995
 30
0.0
 10
80.1936257656
 20
34.8016357811
 30
0.0
 10
80.1096778181
 20
34.5760154219
 30
0.0
 10
79.7817508201
 20
34.4302663681
 30
0.0
 10
79.4538239096
 20
34.5760155174
 30
0.0
 10
79.3698760262
 20
34.8016358353
 30
0.0
 10
79.369876026
 20
34.9113429995
 30
0.0
  0
SPLINE
  5
5D1
100
AcDbEntity
  8
0
100
AcDbSpline
 62
7
  6
CONTINUOUS
 70
0
 71
3
 72
11
 73
7
 74
0
 42
0.0000001
 43
0.0000001
 44
0.0000000001
 40
0.0
 40
0.0
 40
0.0
 40
0.0
 40
0.2544295359
 40
0.5000000309
 40
0.7455705897
 40
1.0
 40
1.0
 40
1.0
 40
1.0
 10
79.369876026
 20
34.9113429995
 30
0.0
 10
79.369876025
 20
35.0210502178
 30
0.0
 10
79.4538239725
 20
35.246670577
 30
0.0
 10
79.7817509704
 20
35.3924196308
 30
0.0
 10
80.1096778809
 20
35.2466704815
 30
0.0
 10
80.1936257644
 20
35.0210501636
 30
0.0
 10
80.1936257645
 20
34.9113429995
 30
0.0
  0
SPLINE
  5
5D2
100
AcDbEntity
  8
0
100
AcDbSpline
 62
7
  6
CONTINUOUS
 70
0
 71
3
 72
11
 73
7
 74
0
 42
0.0000001
 43
0.0000001
 44
0.0000000001
 40
0.0
 40
0.0
 40
0.0
 40
0.0
 40
0.2544295359
 40
0.5000000309
 40
0.7455705897
 40
1.0
 40
1.0
 40
1.0
 40
1.0
 10
80.1936257645
 20
57.7144926058
 30
0.0
 10
80.1936257656
 20
57.6047853874
 30
0.0
 10
80.1096778181
 20
57.3791650282
 30
0.0
 10
79.7817508201
 20
57.2334159744
 30
0.0
 10
79.4538239096
 20
57.3791651237
 30
0.0
 10
79.3698760262
 20
57.6047854416
 30
0.0
 10
79.369876026
 20
57.7144926058
 30
0.0
  0
SPLINE
  5
5D3
100
AcDbEntity
  8
0
100
AcDbSpline
 62
7
  6
CONTINUOUS
 70
0
 71
3
 72
11
 73
7
 74
0
 42
0.0000001
 43
0.0000001
 44
0.0000000001
 40
0.0
 40
0.0
 40
0.0
 40
0.0
 40
0.2544295359
 40
0.5000000309
 40
0.7455705897
 40
1.0
 40
1.0
 40
1.0
 40
1.0
 10
79.369876026
 20
57.7144926058
 30
0.0
 10
79.369876025
 20
57.8241998241
 30
0.0
 10
79.4538239725
 20
58.0498201833
 30
0.0
 10
79.7817509704
 20
58.1955692371
 30
0.0
 10
80.1096778809
 20
58.0498200878
 30
0.0
 10
80.1936257644
 20
57.8241997699
 30
0.0
 10
80.1936257645
 20
57.7144926058
 30
0.0
  0
SPLINE
  5
5D4
100
AcDbEntity
  8
7_ALL_ROUNDS
100
AcDbSpline
 62
7
  6
CONTINUOUS
 70
0
 71
3
 72
11
 73
7
 74
0
 42
0.0000001
 43
0.0000001
 44
0.0000000001
 40
0.0
 40
0.0
 40
0.0
 40
0.0
 40
0.3707551995
 40
0.6850815863
 40
0.8995912244
 40
1.0
 40
1.0
 40
1.0
 40
1.0
 10
77.1524592174
 20
59.0688233144
 30
0.0
 10
77.1524592174
 20
59.0992181038
 30
0.0
 10
77.1540579127
 20
59.1548511273
 30
0.0
 10
77.1636417324
 20
59.230193738
 30
0.0
 10
77.173133465
 20
59.2764584188
 30
0.0
 10
77.1890475257
 20
59.3050437869
 30
0.0
 10
77.1972791124
 20
59.3050437869
 30
0.0
  0
SPLINE
  5
5D5
100
AcDbEntity
  8
3_ALL_AXES
100
AcDbSpline
 62
7
  6
CONTINUOUS
 70
0
 71
3
 72
8
 73
4
 74
0
 42
0.0000001
 43
0.0000001
 44
0.0000000001
 40
0.0
 40
0.0
 40
0.0
 40
0.0
 40
1.0
 40
1.0
 40
1.0
 40
1.0
 10
79.6780693886
 20
57.9145452604
 30
0.0
 10
79.7030214449
 20
57.9036747092
 30
0.0
 10
79.7261172963
 20
57.8873223551
 30
0.0
 10
79.7448803008
 20
57.8676062788
 30
0.0
  0
SPLINE
  5
5D6
100
AcDbEntity
  8
3_ALL_AXES
100
AcDbSpline
 62
7
  6
CONTINUOUS
 70
0
 71
3
 72
8
 73
4
 74
0
 42
0.0000001
 43
0.0000001
 44
0.0000000001
 40
0.0
 40
0.0
 40
0.0
 40
0.0
 40
1.0
 40
1.0
 40
1.0
 40
1.0
 10
79.7448803008
 20
57.8676062788
 30
0.0
 10
79.7826965789
 20
57.827869113
 30
0.0
 10
79.8051979789
 20
57.7693479906
 30
0.0
 10
79.8051979789
 20
57.7144926058
 30
0.0
  0
SPLINE
  5
5D7
100
AcDbEntity
  8
7_ALL_ROUNDS
100
AcDbSpline
 62
9
  6
CONTINUOUS
 70
0
 71
3
 72
10
 73
6
 74
0
 42
0.0000001
 43
0.0000001
 44
0.0000000001
 40
0.0
 40
0.0
 40
0.0
 40
0.0
 40
0.1287638703
 40
0.3474159866
 40
1.0
 40
1.0
 40
1.0
 40
1.0
 10
88.0672392908
 20
33.3207918184
 30
0.0
 10
88.0783144164
 20
33.3207918184
 30
0.0
 10
88.1040249431
 20
33.3442457531
 30
0.0
 10
88.1320192808
 20
33.4242875931
 30
0.0
 10
88.1402354312
 20
33.500882804
 30
0.0
 10
88.1402354312
 20
33.5570122908
 30
0.0
  0
SPLINE
  5
5D8
100
AcDbEntity
  8
7_ALL_ROUNDS
100
AcDbSpline
 62
9
  6
CONTINUOUS
 70
0
 71
3
 72
10
 73
6
 74
0
 42
0.0000001
 43
0.0000001
 44
0.0000000001
 40
0.0
 40
0.0
 40
0.0
 40
0.0
 40
0.1287638705
 40
0.3474159868
 40
1.0
 40
1.0
 40
1.0
 40
1.0
 10
88.0672392908
 20
59.3050437869
 30
0.0
 10
88.0783144164
 20
59.3050437869
 30
0.0
 10
88.1040249431
 20
59.2815898521
 30
0.0
 10
88.1320192809
 20
59.2015480122
 30
0.0
 10
88.1402354293
 20
59.1249528012
 30
0.0
 10
88.1402354293
 20
59.0688233144
 30
0.0
  0
SPLINE
  5
5D9
100
AcDbEntity
  8
7_ALL_ROUNDS
100
AcDbSpline
 62
7
  6
CONTINUOUS
 70
0
 71
3
 72
11
 73
7
 74
0
 42
0.0000001
 43
0.0000001
 44
0.0000000001
 40
0.0
 40
0.0
 40
0.0
 40
0.0
 40
0.093682479
 40
0.308795613
 40
0.6259401945
 40
1.0
 40
1.0
 40
1.0
 40
1.0
 10
77.8709510819
 20
59.3050437869
 30
0.0
 10
77.8785432793
 20
59.3050437869
 30
0.0
 10
77.8907175687
 20
59.2743857389
 30
0.0
 10
77.8991010169
 20
59.2304145437
 30
0.0
 10
77.9069308053
 20
59.1543592508
 30
0.0
 10
77.9083647293
 20
59.0991377971
 30
0.0
 10
77.9083647293
 20
59.0688233144
 30
0.0
  0
SPLINE
  5
5DA
100
AcDbEntity
  8
7_ALL_ROUNDS
100
AcDbSpline
 62
7
  6
CONTINUOUS
 70
0
 71
3
 72
8
 73
4
 74
0
 42
0.0000001
 43
0.0000001
 44
0.0000000001
 40
0.0
 40
0.0
 40
0.0
 40
0.0
 40
1.0
 40
1.0
 40
1.0
 40
1.0
 10
121.8053581921
 20
52.1271096721
 30
0.0
 10
121.79377876
 20
52.1376409064
 30
0.0
 10
121.7843655797
 20
52.1510851745
 30
0.0
 10
121.7783975483
 20
52.1655548927
 30
0.0
  0
SPLINE
  5
5DB
100
AcDbEntity
  8
7_ALL_ROUNDS
100
AcDbSpline
 62
7
  6
CONTINUOUS
 70
0
 71
3
 72
8
 73
4
 74
0
 42
0.0000001
 43
0.0000001
 44
0.0000000001
 40
0.0
 40
0.0
 40
0.0
 40
0.0
 40
1.0
 40
1.0
 40
1.0
 40
1.0
 10
121.7783975483
 20
52.1655548927
 30
0.0
 10
121.7722654257
 20
52.1804224562
 30
0.0
 10
121.7693985507
 20
52.1968732652
 30
0.0
 10
121.7693985507
 20
52.2129557827
 30
0.0
  0
SPLINE
  5
5DC
100
AcDbEntity
  8
7_ALL_ROUNDS
100
AcDbSpline
 62
7
  6
CONTINUOUS
 70
0
 71
3
 72
8
 73
4
 74
0
 42
0.0000001
 43
0.0000001
 44
0.0000000001
 40
0.0
 40
0.0
 40
0.0
 40
0.0
 40
1.0
 40
1.0
 40
1.0
 40
1.0
 10
125.1509852004
 20
50.1920824381
 30
0.0
 10
125.1551141269
 20
50.1894595598
 30
0.0
 10
125.1600271025
 20
50.1878101091
 30
0.0
 10
125.1649041854
 20
50.1874338275
 30
0.0
  0
LINE
  5
5DD
100
AcDbEntity
  8
7_ALL_ROUNDS
100
AcDbLine
 62
7
  6
CONTINUOUS
 10
125.1509825818
 20
50.1920746965
 11
125.1190358092
 21
50.2123643443
  0
LINE
  5
5DE
100
AcDbEntity
  8
7_ALL_ROUNDS
100
AcDbLine
 62
7
  6
CONTINUOUS
 10
125.1190358092
 20
50.2123643443
 11
125.0947980967
 21
50.2277315881
  0
LINE
  5
5DF
100
AcDbEntity
  8
7_ALL_ROUNDS
100
AcDbLine
 62
7
  6
CONTINUOUS
 10
121.9102611101
 20
52.067856335
 11
121.8293939665
 21
52.1103796892
  0
LINE
  5
5E0
100
AcDbEntity
  8
7_ALL_ROUNDS
100
AcDbLine
 62
7
  6
CONTINUOUS
 10
121.8025561668
 20
52.1244500959
 11
121.7407655374
 21
52.1567661216
  0
LINE
  5
5E1
100
AcDbEntity
  8
7_ALL_ROUNDS
100
AcDbLine
 62
7
  6
CONTINUOUS
 10
121.7407655374
 20
52.1567661216
 11
121.7139263762
 21
52.1707684524
  0
SPLINE
  5
5E2
100
AcDbEntity
  8
7_ALL_ROUNDS
100
AcDbSpline
 62
7
  6
CONTINUOUS
 70
0
 71
3
 72
9
 73
5
 74
0
 42
0.0000001
 43
0.0000001
 44
0.0000000001
 40
0.0
 40
0.0
 40
0.0
 40
0.0
 40
0.4914692774
 40
1.0
 40
1.0
 40
1.0
 40
1.0
 10
119.5313995047
 20
53.8033682375
 30
0.0
 10
119.5313995047
 20
53.699014287
 30
0.0
 10
119.5667179888
 20
53.4854207662
 30
0.0
 10
119.6646535289
 20
53.2934974452
 30
0.0
 10
119.7253261962
 20
53.2041790416
 30
0.0
  0
SPLINE
  5
5E3
100
AcDbEntity
  8
7_ALL_ROUNDS
100
AcDbSpline
 62
7
  6
CONTINUOUS
 70
0
 71
3
 72
8
 73
4
 74
0
 42
0.0000001
 43
0.0000001
 44
0.0000000001
 40
0.0
 40
0.0
 40
0.0
 40
0.0
 40
1.0
 40
1.0
 40
1.0
 40
1.0
 10
133.6058675473
 20
54.1936853543
 30
0.0
 10
133.6002401464
 20
54.1709797338
 30
0.0
 10
133.5917297315
 20
54.1488262061
 30
0.0
 10
133.5808454482
 20
54.1281200422
 30
0.0
  0
SPLINE
  5
5E4
100
AcDbEntity
  8
7_ALL_ROUNDS
100
AcDbSpline
 62
7
  6
CONTINUOUS
 70
0
 71
3
 72
8
 73
4
 74
0
 42
0.0000001
 43
0.0000001
 44
0.0000000001
 40
0.0
 40
0.0
 40
0.0
 40
0.0
 40
1.0
 40
1.0
 40
1.0
 40
1.0
 10
133.5808454482
 20
54.1281200422
 30
0.0
 10
133.5692736872
 20
54.1061060267
 30
0.0
 10
133.5548219423
 20
54.0854310186
 30
0.0
 10
133.5383679667
 20
54.0667819109
 30
0.0
  0
SPLINE
  5
5E5
100
AcDbEntity
  8
7_ALL_ROUNDS
100
AcDbSpline
 62
7
  6
CONTINUOUS
 70
0
 71
3
 72
9
 73
5
 74
0
 42
0.0000001
 43
0.0000001
 44
0.0000000001
 40
0.0
 40
0.0
 40
0.0
 40
0.0
 40
0.5000551275
 40
1.0
 40
1.0
 40
1.0
 40
1.0
 10
126.9107776885
 20
49.0137142998
 30
0.0
 10
127.2263076667
 20
48.9344140245
 30
0.0
 10
127.8797806583
 20
48.8598524062
 30
0.0
 10
128.533190194
 20
48.9350573074
 30
0.0
 10
128.8485606165
 20
49.0146972897
 30
0.0
  0
SPLINE
  5
5E6
100
AcDbEntity
  8
7_ALL_ROUNDS
100
AcDbSpline
 62
7
  6
CONTINUOUS
 70
0
 71
3
 72
9
 73
5
 74
0
 42
0.0000001
 43
0.0000001
 44
0.0000000001
 40
0.0
 40
0.0
 40
0.0
 40
0.0
 40
0.2063440319
 40
1.0
 40
1.0
 40
1.0
 40
1.0
 10
125.1753634761
 20
50.1765729736
 30
0.0
 10
125.1727153845
 20
50.1782576418
 30
0.0
 10
125.1610987948
 20
50.1883919758
 30
0.0
 10
125.1555432058
 20
50.2036786635
 30
0.0
 10
125.1527481514
 20
50.2154223542
 30
0.0
  0
SPLINE
  5
5E7
100
AcDbEntity
  8
7_ALL_ROUNDS
100
AcDbSpline
 62
7
  6
CONTINUOUS
 70
0
 71
3
 72
8
 73
4
 74
0
 42
0.0000001
 43
0.0000001
 44
0.0000000001
 40
0.0
 40
0.0
 40
0.0
 40
0.0
 40
1.0
 40
1.0
 40
1.0
 40
1.0
 10
125.1527481514
 20
50.2154223542
 30
0.0
 10
125.1492688843
 20
50.2300408307
 30
0.0
 10
125.148162562
 20
50.2452421534
 30
0.0
 10
125.148162562
 20
50.260268968
 30
0.0
  0
SPLINE
  5
5E8
100
AcDbEntity
  8
7_ALL_ROUNDS
100
AcDbSpline
 62
7
  6
CONTINUOUS
 70
0
 71
3
 72
8
 73
4
 74
0
 42
0.0000001
 43
0.0000001
 44
0.0000000001
 40
0.0
 40
0.0
 40
0.0
 40
0.0
 40
1.0
 40
1.0
 40
1.0
 40
1.0
 10
126.8936081152
 20
49.0216335388
 30
0.0
 10
126.8987449098
 20
49.0179818837
 30
0.0
 10
126.9046661961
 20
49.0152526156
 30
0.0
 10
126.9107791029
 20
49.013718466
 30
0.0
  0
LINE
  5
5E9
100
AcDbEntity
  8
7_ALL_ROUNDS
100
AcDbLine
 62
7
  6
CONTINUOUS
 10
126.8936066021
 20
49.0216306858
 11
126.8320244954
 21
49.0652619226
  0
SPLINE
  5
5EA
100
AcDbEntity
  8
7_ALL_ROUNDS
100
AcDbSpline
 62
7
  6
CONTINUOUS
 70
0
 71
3
 72
9
 73
5
 74
0
 42
0.0000001
 43
0.0000001
 44
0.0000000001
 40
0.0
 40
0.0
 40
0.0
 40
0.0
 40
0.510540623
 40
1.0
 40
1.0
 40
1.0
 40
1.0
 10
119.7696320874
 20
72.4253249594
 30
0.0
 10
119.6959912896
 20
72.3291286378
 30
0.0
 10
119.5756414021
 20
72.1198820224
 30
0.0
 10
119.5313995047
 20
71.8809112017
 30
0.0
 10
119.5313995047
 20
71.7647661936
 30
0.0
  0
SPLINE
  5
5EB
100
AcDbEntity
  8
7_ALL_ROUNDS
100
AcDbSpline
 62
7
  6
CONTINUOUS
 70
0
 71
3
 72
8
 73
4
 74
0
 42
0.0000001
 43
0.0000001
 44
0.0000000001
 40
0.0
 40
0.0
 40
0.0
 40
0.0
 40
1.0
 40
1.0
 40
1.0
 40
1.0
 10
128.5591100853
 20
75.1530121888
 30
0.0
 10
128.6549855795
 20
75.1716348246
 30
0.0
 10
128.7590747617
 20
75.1660590073
 30
0.0
 10
128.8515322164
 20
75.1345862886
 30
0.0
  0
SPLINE
  5
5EC
100
AcDbEntity
  8
7_ALL_ROUNDS
100
AcDbSpline
 62
7
  6
CONTINUOUS
 70
0
 71
3
 72
8
 73
4
 74
0
 42
0.0000001
 43
0.0000001
 44
0.0000000001
 40
0.0
 40
0.0
 40
0.0
 40
0.0
 40
1.0
 40
1.0
 40
1.0
 40
1.0
 10
128.8515322164
 20
75.1345862886
 30
0.0
 10
128.879799147
 20
75.124964164
 30
0.0
 10
128.9073669344
 20
75.1127657884
 30
0.0
 10
128.933224543
 20
75.0978329816
 30
0.0
  0
SPLINE
  5
5ED
100
AcDbEntity
  8
7_ALL_ROUNDS
100
AcDbSpline
 62
7
  6
CONTINUOUS
 70
0
 71
3
 72
9
 73
5
 74
0
 42
0.0000001
 43
0.0000001
 44
0.0000000001
 40
0.0
 40
0.0
 40
0.0
 40
0.0
 40
0.5007042137
 40
1.0
 40
1.0
 40
1.0
 40
1.0
 10
133.4456547465
 20
72.491897941
 30
0.0
 10
133.4932303527
 20
72.4644229589
 30
0.0
 10
133.579360706
 20
72.3892251227
 30
0.0
 10
133.6141185073
 20
72.2773809619
 30
0.0
 10
133.6141185073
 20
72.2225963249
 30
0.0
  0
SPLINE
  5
5EE
100
AcDbEntity
  8
3_ALL_AXES
100
AcDbSpline
 62
7
  6
CONTINUOUS
 70
0
 71
3
 72
8
 73
4
 74
0
 42
0.0000001
 43
0.0000001
 44
0.0000000001
 40
0.0
 40
0.0
 40
0.0
 40
0.0
 40
1.0
 40
1.0
 40
1.0
 40
1.0
 10
124.9472063926
 20
69.2355228579
 30
0.0
 10
124.960248663
 20
69.2279909276
 30
0.0
 10
124.9793468305
 20
69.2279909276
 30
0.0
 10
124.9923891009
 20
69.2355228579
 30
0.0
  0
SPLINE
  5
5EF
100
AcDbEntity
  8
3_ALL_AXES
100
AcDbSpline
 62
7
  6
CONTINUOUS
 70
0
 71
3
 72
9
 73
5
 74
0
 42
0.0000001
 43
0.0000001
 44
0.0000000001
 40
0.0
 40
0.0
 40
0.0
 40
0.0
 40
0.5349783062
 40
1.0
 40
1.0
 40
1.0
 40
1.0
 10
125.0149660504
 20
69.2485610792
 30
0.0
 10
125.0167924143
 20
69.249615807
 30
0.0
 10
125.0200121458
 20
69.2519614933
 30
0.0
 10
125.0224581783
 20
69.255171752
 30
0.0
 10
125.02323506
 20
69.2568322542
 30
0.0
  0
SPLINE
  5
5F0
100
AcDbEntity
  8
3_ALL_AXES
100
AcDbSpline
 62
7
  6
CONTINUOUS
 70
0
 71
3
 72
9
 73
5
 74
0
 42
0.0000001
 43
0.0000001
 44
0.0000000001
 40
0.0
 40
0.0
 40
0.0
 40
0.0
 40
0.5084508602
 40
1.0
 40
1.0
 40
1.0
 40
1.0
 10
125.02323506
 20
69.2568322542
 30
0.0
 10
125.0235890458
 20
69.2575888613
 30
0.0
 10
125.0241383725
 20
69.2591520732
 30
0.0
 10
125.0243278003
 20
69.2608000663
 30
0.0
 10
125.0243278003
 20
69.2616076193
 30
0.0
  0
SPLINE
  5
5F1
100
AcDbEntity
  8
3_ALL_AXES
100
AcDbSpline
 62
7
  6
CONTINUOUS
 70
0
 71
3
 72
8
 73
4
 74
0
 42
0.0000001
 43
0.0000001
 44
0.0000000001
 40
0.0
 40
0.0
 40
0.0
 40
0.0
 40
1.0
 40
1.0
 40
1.0
 40
1.0
 10
124.6789742746
 20
69.0806184175
 30
0.0
 10
124.6920165451
 20
69.0730864873
 30
0.0
 10
124.7111147125
 20
69.0730864873
 30
0.0
 10
124.724156983
 20
69.0806184175
 30
0.0
  0
SPLINE
  5
5F2
100
AcDbEntity
  8
3_ALL_AXES
100
AcDbSpline
 62
7
  6
CONTINUOUS
 70
0
 71
3
 72
9
 73
5
 74
0
 42
0.0000001
 43
0.0000001
 44
0.0000000001
 40
0.0
 40
0.0
 40
0.0
 40
0.0
 40
0.5349783062
 40
1.0
 40
1.0
 40
1.0
 40
1.0
 10
124.7467339325
 20
69.0936566389
 30
0.0
 10
124.7485602963
 20
69.0947113667
 30
0.0
 10
124.7517800278
 20
69.097057053
 30
0.0
 10
124.7542260604
 20
69.1002673117
 30
0.0
 10
124.755002942
 20
69.1019278139
 30
0.0
  0
SPLINE
  5
5F3
100
AcDbEntity
  8
3_ALL_AXES
100
AcDbSpline
 62
7
  6
CONTINUOUS
 70
0
 71
3
 72
9
 73
5
 74
0
 42
0.0000001
 43
0.0000001
 44
0.0000000001
 40
0.0
 40
0.0
 40
0.0
 40
0.0
 40
0.5084508602
 40
1.0
 40
1.0
 40
1.0
 40
1.0
 10
124.755002942
 20
69.1019278139
 30
0.0
 10
124.7553569278
 20
69.102684421
 30
0.0
 10
124.7559062546
 20
69.1042476328
 30
0.0
 10
124.7560956823
 20
69.1058956259
 30
0.0
 10
124.7560956823
 20
69.106703179
 30
0.0
  0
SPLINE
  5
5F4
100
AcDbEntity
  8
3_ALL_AXES
100
AcDbSpline
 62
7
  6
CONTINUOUS
 70
0
 71
3
 72
8
 73
4
 74
0
 42
0.0000001
 43
0.0000001
 44
0.0000000001
 40
0.0
 40
0.0
 40
0.0
 40
0.0
 40
1.0
 40
1.0
 40
1.0
 40
1.0
 10
124.3613700845
 20
69.3683909849
 30
0.0
 10
124.3567348857
 20
69.3657141509
 30
0.0
 10
124.3520083346
 20
69.3606970617
 30
0.0
 10
124.3520083346
 20
69.3553444448
 30
0.0
  0
SPLINE
  5
5F5
100
AcDbEntity
  8
3_ALL_AXES
100
AcDbSpline
 62
7
  6
CONTINUOUS
 70
0
 71
3
 72
8
 73
4
 74
0
 42
0.0000001
 43
0.0000001
 44
0.0000000001
 40
0.0
 40
0.0
 40
0.0
 40
0.0
 40
1.0
 40
1.0
 40
1.0
 40
1.0
 10
124.5618425445
 20
69.4580710436
 30
0.0
 10
124.548800274
 20
69.4656029739
 30
0.0
 10
124.5297021066
 20
69.4656029739
 30
0.0
 10
124.5166598361
 20
69.4580710436
 30
0.0
  0
SPLINE
  5
5F6
100
AcDbEntity
  8
3_ALL_AXES
100
AcDbSpline
 62
7
  6
CONTINUOUS
 70
0
 71
3
 72
9
 73
5
 74
0
 42
0.0000001
 43
0.0000001
 44
0.0000000001
 40
0.0
 40
0.0
 40
0.0
 40
0.0
 40
0.5119397022
 40
1.0
 40
1.0
 40
1.0
 40
1.0
 10
124.0167162888
 20
69.4630733727
 30
0.0
 10
124.0443474509
 20
69.4471163361
 30
0.0
 10
124.1114361733
 20
69.4342516053
 30
0.0
 10
124.1693867412
 20
69.4621031066
 30
0.0
 10
124.1960762761
 20
69.4766980644
 30
0.0
  0
SPLINE
  5
5F7
100
AcDbEntity
  8
3_ALL_AXES
100
AcDbSpline
 62
7
  6
CONTINUOUS
 70
0
 71
3
 72
8
 73
4
 74
0
 42
0.0000001
 43
0.0000001
 44
0.0000000001
 40
0.0
 40
0.0
 40
0.0
 40
0.0
 40
1.0
 40
1.0
 40
1.0
 40
1.0
 10
124.1960762761
 20
69.4766980644
 30
0.0
 10
124.2067217851
 20
69.4825194755
 30
0.0
 10
124.2171840817
 20
69.4888766079
 30
0.0
 10
124.2265987805
 20
69.4965303086
 30
0.0
  0
SPLINE
  5
5F8
100
AcDbEntity
  8
3_ALL_AXES
100
AcDbSpline
 62
7
  6
CONTINUOUS
 70
0
 71
3
 72
8
 73
4
 74
0
 42
0.0000001
 43
0.0000001
 44
0.0000000001
 40
0.0
 40
0.0
 40
0.0
 40
0.0
 40
1.0
 40
1.0
 40
1.0
 40
1.0
 10
124.2265987805
 20
69.4965303086
 30
0.0
 10
124.2339948598
 20
69.5025429681
 30
0.0
 10
124.2409296644
 20
69.5094989798
 30
0.0
 10
124.2458889548
 20
69.5176389738
 30
0.0
  0
SPLINE
  5
5F9
100
AcDbEntity
  8
3_ALL_AXES
100
AcDbSpline
 62
7
  6
CONTINUOUS
 70
0
 71
3
 72
8
 73
4
 74
0
 42
0.0000001
 43
0.0000001
 44
0.0000000001
 40
0.0
 40
0.0
 40
0.0
 40
0.0
 40
1.0
 40
1.0
 40
1.0
 40
1.0
 10
124.2458889548
 20
69.5176389738
 30
0.0
 10
124.2492494133
 20
69.5231547049
 30
0.0
 10
124.2516276859
 20
69.5296872284
 30
0.0
 10
124.2516276862
 20
69.5361460187
 30
0.0
  0
SPLINE
  5
5FA
100
AcDbEntity
  8
3_ALL_AXES
100
AcDbSpline
 62
7
  6
CONTINUOUS
 70
0
 71
3
 72
8
 73
4
 74
0
 42
0.0000001
 43
0.0000001
 44
0.0000000001
 40
0.0
 40
0.0
 40
0.0
 40
0.0
 40
1.0
 40
1.0
 40
1.0
 40
1.0
 10
123.8984513899
 20
69.7890108825
 30
0.0
 10
123.8938161912
 20
69.7863340485
 30
0.0
 10
123.8890896401
 20
69.7813169593
 30
0.0
 10
123.8890896401
 20
69.7759643424
 30
0.0
  0
SPLINE
  5
5FB
100
AcDbEntity
  8
3_ALL_AXES
100
AcDbSpline
 62
7
  6
CONTINUOUS
 70
0
 71
3
 72
8
 73
4
 74
0
 42
0.0000001
 43
0.0000001
 44
0.0000000001
 40
0.0
 40
0.0
 40
0.0
 40
0.0
 40
1.0
 40
1.0
 40
1.0
 40
1.0
 10
123.9662110478
 20
69.8020491039
 30
0.0
 10
123.9531687773
 20
69.8095810341
 30
0.0
 10
123.9340706099
 20
69.8095810341
 30
0.0
 10
123.9210283394
 20
69.8020491039
 30
0.0
  0
SPLINE
  5
5FC
100
AcDbEntity
  8
3_ALL_AXES
100
AcDbSpline
 62
7
  6
CONTINUOUS
 70
0
 71
3
 72
8
 73
4
 74
0
 42
0.0000001
 43
0.0000001
 44
0.0000000001
 40
0.0
 40
0.0
 40
0.0
 40
0.0
 40
1.0
 40
1.0
 40
1.0
 40
1.0
 10
124.3389083725
 20
69.5868158539
 30
0.0
 10
124.3519506429
 20
69.5792839236
 30
0.0
 10
124.3710488104
 20
69.5792839236
 30
0.0
 10
124.3840910809
 20
69.5868158539
 30
0.0
  0
SPLINE
  5
5FD
100
AcDbEntity
  8
3_ALL_AXES
100
AcDbSpline
 62
7
  6
CONTINUOUS
 70
0
 71
3
 72
9
 73
5
 74
0
 42
0.0000001
 43
0.0000001
 44
0.0000000001
 40
0.0
 40
0.0
 40
0.0
 40
0.0
 40
0.5349783062
 40
1.0
 40
1.0
 40
1.0
 40
1.0
 10
124.4066680304
 20
69.5998540753
 30
0.0
 10
124.4084943942
 20
69.6009088031
 30
0.0
 10
124.4117141257
 20
69.6032544893
 30
0.0
 10
124.4141601582
 20
69.6064647481
 30
0.0
 10
124.4149370399
 20
69.6081252503
 30
0.0
  0
SPLINE
  5
5FE
100
AcDbEntity
  8
3_ALL_AXES
100
AcDbSpline
 62
7
  6
CONTINUOUS
 70
0
 71
3
 72
9
 73
5
 74
0
 42
0.0000001
 43
0.0000001
 44
0.0000000001
 40
0.0
 40
0.0
 40
0.0
 40
0.0
 40
0.5084508602
 40
1.0
 40
1.0
 40
1.0
 40
1.0
 10
124.4149370399
 20
69.6081252503
 30
0.0
 10
124.4152910257
 20
69.6088818573
 30
0.0
 10
124.4158403525
 20
69.6104450692
 30
0.0
 10
124.4160297802
 20
69.6120930623
 30
0.0
 10
124.4160297802
 20
69.6129006154
 30
0.0
  0
SPLINE
  5
5FF
100
AcDbEntity
  8
3_ALL_AXES
100
AcDbSpline
 62
7
  6
CONTINUOUS
 70
0
 71
3
 72
8
 73
4
 74
0
 42
0.0000001
 43
0.0000001
 44
0.0000000001
 40
0.0
 40
0.0
 40
0.0
 40
0.0
 40
1.0
 40
1.0
 40
1.0
 40
1.0
 10
123.3134937678
 20
69.8311882253
 30
0.0
 10
123.318081951
 20
69.8285385428
 30
0.0
 10
123.3283069317
 20
69.8263301594
 30
0.0
 10
123.3293853286
 20
69.8315175771
 30
0.0
  0
SPLINE
  5
600
100
AcDbEntity
  8
3_ALL_AXES
100
AcDbSpline
 62
7
  6
CONTINUOUS
 70
0
 71
3
 72
9
 73
5
 74
0
 42
0.0000001
 43
0.0000001
 44
0.0000000001
 40
0.0
 40
0.0
 40
0.0
 40
0.0
 40
0.4914234044
 40
1.0
 40
1.0
 40
1.0
 40
1.0
 10
123.4061639349
 20
69.8156682498
 30
0.0
 10
123.4271666644
 20
69.8035391428
 30
0.0
 10
123.4744180784
 20
69.7846866066
 30
0.0
 10
123.5270129184
 20
69.7939499219
 30
0.0
 10
123.5487487507
 20
69.8065023968
 30
0.0
  0
SPLINE
  5
601
100
AcDbEntity
  8
3_ALL_AXES
100
AcDbSpline
 62
7
  6
CONTINUOUS
 70
0
 71
3
 72
9
 73
5
 74
0
 42
0.0000001
 43
0.0000001
 44
0.0000000001
 40
0.0
 40
0.0
 40
0.0
 40
0.0
 40
0.29245214
 40
1.0
 40
1.0
 40
1.0
 40
1.0
 10
123.757933647
 20
69.9273069803
 30
0.0
 10
123.7612525051
 20
69.9292236257
 30
0.0
 10
123.7726100384
 20
69.9355000373
 30
0.0
 10
123.7820069564
 20
69.9468571864
 30
0.0
 10
123.7839552183
 20
69.9559224958
 30
0.0
  0
SPLINE
  5
602
100
AcDbEntity
  8
3_ALL_AXES
100
AcDbSpline
 62
7
  6
CONTINUOUS
 70
0
 71
3
 72
9
 73
5
 74
0
 42
0.0000001
 43
0.0000001
 44
0.0000000001
 40
0.0
 40
0.0
 40
0.0
 40
0.0
 40
0.5074422654
 40
1.0
 40
1.0
 40
1.0
 40
1.0
 10
123.447063649
 20
69.8964042883
 30
0.0
 10
123.4478864931
 20
69.8968794819
 30
0.0
 10
123.4494164184
 20
69.8979740133
 30
0.0
 10
123.4507403396
 20
69.8993281312
 30
0.0
 10
123.45127257
 20
69.9000814051
 30
0.0
  0
SPLINE
  5
603
100
AcDbEntity
  8
3_ALL_AXES
100
AcDbSpline
 62
7
  6
CONTINUOUS
 70
0
 71
3
 72
9
 73
5
 74
0
 42
0.0000001
 43
0.0000001
 44
0.0000000001
 40
0.0
 40
0.0
 40
0.0
 40
0.0
 40
0.5350037677
 40
1.0
 40
1.0
 40
1.0
 40
1.0
 10
123.45127257
 20
69.9000814051
 30
0.0
 10
123.4515271412
 20
69.9004417035
 30
0.0
 10
123.4519522378
 20
69.9011539768
 30
0.0
 10
123.4521783942
 20
69.9019676443
 30
0.0
 10
123.4521966213
 20
69.9023506424
 30
0.0
  0
SPLINE
  5
604
100
AcDbEntity
  8
3_ALL_AXES
100
AcDbSpline
 62
7
  6
CONTINUOUS
 70
0
 71
3
 72
8
 73
4
 74
0
 42
0.0000001
 43
0.0000001
 44
0.0000000001
 40
0.0
 40
0.0
 40
0.0
 40
0.0
 40
1.0
 40
1.0
 40
1.0
 40
1.0
 10
123.1163824019
 20
70.087373192
 30
0.0
 10
123.1117472032
 20
70.084696358
 30
0.0
 10
123.1070206521
 20
70.0796792688
 30
0.0
 10
123.1070206521
 20
70.0743266519
 30
0.0
  0
SPLINE
  5
605
100
AcDbEntity
  8
3_ALL_AXES
100
AcDbSpline
 62
7
  6
CONTINUOUS
 70
0
 71
3
 72
8
 73
4
 74
0
 42
0.0000001
 43
0.0000001
 44
0.0000000001
 40
0.0
 40
0.0
 40
0.0
 40
0.0
 40
1.0
 40
1.0
 40
1.0
 40
1.0
 10
123.316854862
 20
70.1770532507
 30
0.0
 10
123.3038125915
 20
70.1845851809
 30
0.0
 10
123.2847144241
 20
70.1845851809
 30
0.0
 10
123.2716721536
 20
70.1770532507
 30
0.0
  0
SPLINE
  5
606
100
AcDbEntity
  8
3_ALL_AXES
100
AcDbSpline
 62
7
  6
CONTINUOUS
 70
0
 71
3
 72
8
 73
4
 74
0
 42
0.0000001
 43
0.0000001
 44
0.0000000001
 40
0.0
 40
0.0
 40
0.0
 40
0.0
 40
1.0
 40
1.0
 40
1.0
 40
1.0
 10
125.7342333103
 20
69.0522348671
 30
0.0
 10
125.7443384144
 20
69.0636880976
 30
0.0
 10
125.752686546
 20
69.0773786405
 30
0.0
 10
125.7568912194
 20
69.0920623165
 30
0.0
  0
SPLINE
  5
607
100
AcDbEntity
  8
3_ALL_AXES
100
AcDbSpline
 62
7
  6
CONTINUOUS
 70
0
 71
3
 72
8
 73
4
 74
0
 42
0.0000001
 43
0.0000001
 44
0.0000000001
 40
0.0
 40
0.0
 40
0.0
 40
0.0
 40
1.0
 40
1.0
 40
1.0
 40
1.0
 10
125.7568912194
 20
69.0920623165
 30
0.0
 10
125.7589577939
 20
69.0992792644
 30
0.0
 10
125.7600545347
 20
69.1068532679
 30
0.0
 10
125.7600530096
 20
69.1143602689
 30
0.0
  0
SPLINE
  5
608
100
AcDbEntity
  8
3_ALL_AXES
100
AcDbSpline
 62
7
  6
CONTINUOUS
 70
0
 71
3
 72
9
 73
5
 74
0
 42
0.0000001
 43
0.0000001
 44
0.0000000001
 40
0.0
 40
0.0
 40
0.0
 40
0.0
 40
0.233550677
 40
1.0
 40
1.0
 40
1.0
 40
1.0
 10
123.1399944074
 20
70.6563253987
 30
0.0
 10
123.1238968526
 20
70.665147303
 30
0.0
 10
123.0500947396
 20
70.6933909065
 30
0.0
 10
122.965930194
 20
70.6927444399
 30
0.0
 10
122.9081394797
 20
70.6757394244
 30
0.0
  0
LINE
  5
609
100
AcDbEntity
  8
3_ALL_AXES
100
AcDbLine
 62
7
  6
CONTINUOUS
 10
123.1518680342
 20
70.6498167626
 11
123.1399944074
 21
70.6563253987
  0
SPLINE
  5
60A
100
AcDbEntity
  8
3_ALL_AXES
100
AcDbSpline
 62
7
  6
CONTINUOUS
 70
0
 71
3
 72
9
 73
5
 74
0
 42
0.0000001
 43
0.0000001
 44
0.0000000001
 40
0.0
 40
0.0
 40
0.0
 40
0.0
 40
0.2444026193
 40
1.0
 40
1.0
 40
1.0
 40
1.0
 10
124.4406393253
 20
61.242640446
 30
0.0
 10
124.4800204416
 20
61.2198977937
 30
0.0
 10
124.6398801141
 20
61.1246500208
 30
0.0
 10
124.7946726362
 20
61.0209587487
 30
0.0
 10
124.9086674929
 20
60.9386655198
 30
0.0
  0
SPLINE
  5
60B
100
AcDbEntity
  8
3_ALL_AXES
100
AcDbSpline
 62
7
  6
CONTINUOUS
 70
0
 71
3
 72
15
 73
11
 74
0
 42
0.0000001
 43
0.0000001
 44
0.0000000001
 40
0.0
 40
0.0
 40
0.0
 40
0.0
 40
0.1351885307
 40
0.2799658397
 40
0.4272832251
 40
0.569686724
 40
0.7005168986
 40
0.8152558971
 40
0.9132878065
 40
1.0
 40
1.0
 40
1.0
 40
1.0
 10
124.9524904905
 20
60.9067281824
 30
0.0
 10
125.3155149706
 20
60.63966185
 30
0.0
 10
126.0076441404
 20
60.0034803585
 30
0.0
 10
126.8801151971
 20
58.8703379526
 30
0.0
 10
127.5757091584
 20
57.5927827553
 30
0.0
 10
128.0431746356
 20
56.2641143898
 30
0.0
 10
128.2490721563
 20
54.9786831662
 30
0.0
 10
128.1753296428
 20
53.8234394479
 30
0.0
 10
127.8140440989
 20
52.8704201332
 30
0.0
 10
127.3567349402
 20
52.4194057375
 30
0.0
 10
127.1064065743
 20
52.2748415485
 30
0.0
  0
SPLINE
  5
60C
100
AcDbEntity
  8
0
100
AcDbSpline
 62
7
  6
CONTINUOUS
 70
0
 71
3
 72
10
 73
6
 74
0
 42
0.0000001
 43
0.0000001
 44
0.0000000001
 40
0.0
 40
0.0
 40
0.0
 40
0.0
 40
0.5484865544
 40
0.8085951571
 40
1.0
 40
1.0
 40
1.0
 40
1.0
 10
129.9566891866
 20
51.0095530505
 30
0.0
 10
129.956689186
 20
51.1174874354
 30
0.0
 10
129.9949110595
 20
51.2775505399
 30
0.0
 10
130.0809663878
 20
51.4536340593
 30
0.0
 10
130.1384690582
 20
51.5252833797
 30
0.0
 10
130.1699982306
 20
51.5458897114
 30
0.0
  0
SPLINE
  5
60D
100
AcDbEntity
  8
0
100
AcDbSpline
 62
7
  6
CONTINUOUS
 70
0
 71
3
 72
10
 73
6
 74
0
 42
0.0000001
 43
0.0000001
 44
0.0000000001
 40
0.0
 40
0.0
 40
0.0
 40
0.0
 40
0.5484865544
 40
0.8085951571
 40
1.0
 40
1.0
 40
1.0
 40
1.0
 10
129.9566891866
 20
67.0639383841
 30
0.0
 10
129.956689186
 20
67.171872769
 30
0.0
 10
129.9949110595
 20
67.3319358735
 30
0.0
 10
130.0809663878
 20
67.5080193929
 30
0.0
 10
130.1384690582
 20
67.5796687133
 30
0.0
 10
130.1699982306
 20
67.600275045
 30
0.0
  0
SPLINE
  5
60E
100
AcDbEntity
  8
0
100
AcDbSpline
 62
7
  6
CONTINUOUS
 70
0
 71
3
 72
9
 73
5
 74
0
 42
0.0000001
 43
0.0000001
 44
0.0000000001
 40
0.0
 40
0.0
 40
0.0
 40
0.0
 40
0.4999945836
 40
1.0
 40
1.0
 40
1.0
 40
1.0
 10
122.6083370992
 20
72.3712276932
 30
0.0
 10
122.5299750398
 20
72.3260107684
 30
0.0
 10
122.3443566151
 20
72.2902402175
 30
0.0
 10
122.1587371724
 20
72.3260111707
 30
0.0
 10
122.0803742903
 20
72.3712305915
 30
0.0
  0
SPLINE
  5
60F
100
AcDbEntity
  8
0
100
AcDbSpline
 62
7
  6
CONTINUOUS
 70
0
 71
3
 72
8
 73
4
 74
0
 42
0.0000001
 43
0.0000001
 44
0.0000000001
 40
0.0
 40
0.0
 40
0.0
 40
0.0
 40
1.0
 40
1.0
 40
1.0
 40
1.0
 10
122.1705576614
 20
72.3319169024
 30
0.0
 10
122.1627728726
 20
72.34335107
 30
0.0
 10
122.1576381751
 20
72.3575165763
 30
0.0
 10
122.1576279426
 20
72.3713492556
 30
0.0
  0
SPLINE
  5
610
100
AcDbEntity
  8
0
100
AcDbSpline
 62
7
  6
CONTINUOUS
 70
0
 71
3
 72
9
 73
5
 74
0
 42
0.0000001
 43
0.0000001
 44
0.0000000001
 40
0.0
 40
0.0
 40
0.0
 40
0.0
 40
0.4999945836
 40
1.0
 40
1.0
 40
1.0
 40
1.0
 10
127.1053997479
 20
71.1800403571
 30
0.0
 10
127.0270376885
 20
71.1348234323
 30
0.0
 10
126.8414192638
 20
71.0990528814
 30
0.0
 10
126.6557998211
 20
71.1348238346
 30
0.0
 10
126.577436939
 20
71.1800432554
 30
0.0
  0
SPLINE
  5
611
100
AcDbEntity
  8
0
100
AcDbSpline
 62
7
  6
CONTINUOUS
 70
0
 71
3
 72
8
 73
4
 74
0
 42
0.0000001
 43
0.0000001
 44
0.0000000001
 40
0.0
 40
0.0
 40
0.0
 40
0.0
 40
1.0
 40
1.0
 40
1.0
 40
1.0
 10
126.6676203101
 20
71.1407295663
 30
0.0
 10
126.6598355213
 20
71.1521637339
 30
0.0
 10
126.6547008238
 20
71.1663292402
 30
0.0
 10
126.6546905913
 20
71.1801619195
 30
0.0
  0
SPLINE
  5
612
100
AcDbEntity
  8
0
100
AcDbSpline
 62
7
  6
CONTINUOUS
 70
0
 71
3
 72
9
 73
5
 74
0
 42
0.0000001
 43
0.0000001
 44
0.0000000001
 40
0.0
 40
0.0
 40
0.0
 40
0.0
 40
0.4999945836
 40
1.0
 40
1.0
 40
1.0
 40
1.0
 10
130.5256731542
 20
73.1552532503
 30
0.0
 10
130.4473110948
 20
73.1100363255
 30
0.0
 10
130.2616926701
 20
73.0742657746
 30
0.0
 10
130.0760732274
 20
73.1100367278
 30
0.0
 10
129.9977103453
 20
73.1552561487
 30
0.0
  0
SPLINE
  5
613
100
AcDbEntity
  8
0
100
AcDbSpline
 62
7
  6
CONTINUOUS
 70
0
 71
3
 72
8
 73
4
 74
0
 42
0.0000001
 43
0.0000001
 44
0.0000000001
 40
0.0
 40
0.0
 40
0.0
 40
0.0
 40
1.0
 40
1.0
 40
1.0
 40
1.0
 10
130.0878937164
 20
73.1159424596
 30
0.0
 10
130.0801089276
 20
73.1273766271
 30
0.0
 10
130.0749742301
 20
73.1415421334
 30
0.0
 10
130.0749639976
 20
73.1553748128
 30
0.0
  0
SPLINE
  5
614
100
AcDbEntity
  8
0
100
AcDbSpline
 62
7
  6
CONTINUOUS
 70
0
 71
3
 72
9
 73
5
 74
0
 42
0.0000001
 43
0.0000001
 44
0.0000000001
 40
0.0
 40
0.0
 40
0.0
 40
0.0
 40
0.4999945836
 40
1.0
 40
1.0
 40
1.0
 40
1.0
 10
129.1680565793
 20
68.5829801019
 30
0.0
 10
129.0896945199
 20
68.5377631772
 30
0.0
 10
128.9040760952
 20
68.5019926262
 30
0.0
 10
128.7184566525
 20
68.5377635794
 30
0.0
 10
128.6400937703
 20
68.5829830003
 30
0.0
  0
SPLINE
  5
615
100
AcDbEntity
  8
0
100
AcDbSpline
 62
7
  6
CONTINUOUS
 70
0
 71
3
 72
8
 73
4
 74
0
 42
0.0000001
 43
0.0000001
 44
0.0000000001
 40
0.0
 40
0.0
 40
0.0
 40
0.0
 40
1.0
 40
1.0
 40
1.0
 40
1.0
 10
128.7302771414
 20
68.5436693112
 30
0.0
 10
128.7224923527
 20
68.5551034787
 30
0.0
 10
128.7173576552
 20
68.569268985
 30
0.0
 10
128.7173474227
 20
68.5831016644
 30
0.0
  0
SPLINE
  5
616
100
AcDbEntity
  8
0
100
AcDbSpline
 62
7
  6
CONTINUOUS
 70
0
 71
3
 72
9
 73
5
 74
0
 42
0.0000001
 43
0.0000001
 44
0.0000000001
 40
0.0
 40
0.0
 40
0.0
 40
0.0
 40
0.208610951
 40
1.0
 40
1.0
 40
1.0
 40
1.0
 10
129.9765949044
 20
50.8887741056
 30
0.0
 10
129.973113645
 20
50.8965809852
 30
0.0
 10
129.9597415279
 20
50.9354759517
 30
0.0
 10
129.9566891866
 20
50.9771256457
 30
0.0
 10
129.9566891866
 20
51.0095530505
 30
0.0
  0
SPLINE
  5
617
100
AcDbEntity
  8
0
100
AcDbSpline
 62
7
  6
CONTINUOUS
 70
0
 71
3
 72
9
 73
5
 74
0
 42
0.0000001
 43
0.0000001
 44
0.0000000001
 40
0.0
 40
0.0
 40
0.0
 40
0.0
 40
0.208610951
 40
1.0
 40
1.0
 40
1.0
 40
1.0
 10
129.9765949044
 20
66.9431594392
 30
0.0
 10
129.973113645
 20
66.9509663188
 30
0.0
 10
129.9597415279
 20
66.9898612853
 30
0.0
 10
129.9566891866
 20
67.0315109793
 30
0.0
 10
129.9566891866
 20
67.0639383841
 30
0.0
  0
SPLINE
  5
618
100
AcDbEntity
  8
0
100
AcDbSpline
 62
7
  6
CONTINUOUS
 70
0
 71
3
 72
8
 73
4
 74
0
 42
0.0000001
 43
0.0000001
 44
0.0000000001
 40
0.0
 40
0.0
 40
0.0
 40
0.0
 40
1.0
 40
1.0
 40
1.0
 40
1.0
 10
122.53108847
 20
72.3713495438
 30
0.0
 10
122.5310985359
 20
72.3577420336
 30
0.0
 10
122.5261207387
 20
72.3438098827
 30
0.0
 10
122.5185575512
 20
72.332497826
 30
0.0
  0
SPLINE
  5
619
100
AcDbEntity
  8
0
100
AcDbSpline
 62
7
  6
CONTINUOUS
 70
0
 71
3
 72
8
 73
4
 74
0
 42
0.0000001
 43
0.0000001
 44
0.0000000001
 40
0.0
 40
0.0
 40
0.0
 40
0.0
 40
1.0
 40
1.0
 40
1.0
 40
1.0
 10
127.0281511187
 20
71.1801622077
 30
0.0
 10
127.0281611846
 20
71.1665546975
 30
0.0
 10
127.0231833874
 20
71.1526225466
 30
0.0
 10
127.0156201999
 20
71.1413104899
 30
0.0
  0
SPLINE
  5
61A
100
AcDbEntity
  8
0
100
AcDbSpline
 62
7
  6
CONTINUOUS
 70
0
 71
3
 72
8
 73
4
 74
0
 42
0.0000001
 43
0.0000001
 44
0.0000000001
 40
0.0
 40
0.0
 40
0.0
 40
0.0
 40
1.0
 40
1.0
 40
1.0
 40
1.0
 10
130.448424525
 20
73.1553751009
 30
0.0
 10
130.4484345909
 20
73.1417675908
 30
0.0
 10
130.4434567937
 20
73.1278354398
 30
0.0
 10
130.4358936062
 20
73.1165233831
 30
0.0
  0
SPLINE
  5
61B
100
AcDbEntity
  8
3_ALL_AXES
100
AcDbSpline
 62
7
  6
CONTINUOUS
 70
0
 71
3
 72
9
 73
5
 74
0
 42
0.0000001
 43
0.0000001
 44
0.0000000001
 40
0.0
 40
0.0
 40
0.0
 40
0.0
 40
0.25453265
 40
1.0
 40
1.0
 40
1.0
 40
1.0
 10
121.7693985507
 20
69.9248898783
 30
0.0
 10
122.0605312554
 20
69.7722918823
 30
0.0
 10
123.1983236366
 20
69.1614239824
 30
0.0
 10
124.3115493835
 20
68.5045349374
 30
0.0
 10
125.1237642145
 20
67.9877388028
 30
0.0
  0
SPLINE
  5
61C
100
AcDbEntity
  8
0
100
AcDbSpline
 62
7
  6
CONTINUOUS
 70
0
 71
3
 72
8
 73
4
 74
0
 42
0.0000001
 43
0.0000001
 44
0.0000000001
 40
0.0
 40
0.0
 40
0.0
 40
0.0
 40
1.0
 40
1.0
 40
1.0
 40
1.0
 10
129.0908079501
 20
68.5831019525
 30
0.0
 10
129.090818016
 20
68.5694944424
 30
0.0
 10
129.0858402188
 20
68.5555622915
 30
0.0
 10
129.0782770312
 20
68.5442502347
 30
0.0
  0
SPLINE
  5
61D
100
AcDbEntity
  8
3_ALL_AXES
100
AcDbSpline
 62
7
  6
CONTINUOUS
 70
0
 71
3
 72
11
 73
7
 74
0
 42
0.0000001
 43
0.0000001
 44
0.0000000001
 40
0.0
 40
0.0
 40
0.0
 40
0.0
 40
0.217751611
 40
0.4509247102
 40
0.7101684765
 40
1.0
 40
1.0
 40
1.0
 40
1.0
 10
121.7748720763
 20
61.5069224327
 30
0.0
 10
121.9507078349
 20
61.6084672725
 30
0.0
 10
122.3547928088
 20
61.7552393026
 30
0.0
 10
123.0258842955
 20
61.7719815785
 30
0.0
 10
123.7412783129
 20
61.5994039319
 30
0.0
 10
124.2065989236
 20
61.3777991202
 30
0.0
 10
124.4406393253
 20
61.242640446
 30
0.0
  0
SPLINE
  5
61E
100
AcDbEntity
  8
3_ALL_AXES
100
AcDbSpline
 62
7
  6
CONTINUOUS
 70
0
 71
3
 72
16
 73
12
 74
0
 42
0.0000001
 43
0.0000001
 44
0.0000000001
 40
0.0
 40
0.0
 40
0.0
 40
0.0
 40
0.1284559089
 40
0.2694089331
 40
0.4157556251
 40
0.5593161704
 40
0.6924534298
 40
0.8097858809
 40
0.9102705239
 40
0.9559219466
 40
1.0
 40
1.0
 40
1.0
 40
1.0
 10
124.8994739515
 20
53.2956165286
 30
0.0
 10
124.5481247457
 20
53.4985212088
 30
0.0
 10
123.8669679183
 20
54.0225709433
 30
0.0
 10
122.9961529677
 20
55.0137765291
 30
0.0
 10
122.2807715381
 20
56.1791708075
 30
0.0
 10
121.7788016461
 20
57.4246026515
 30
0.0
 10
121.5312325176
 20
58.6530444043
 30
0.0
 10
121.5587776708
 20
59.772231159
 30
0.0
 10
121.8396815349
 20
60.579150705
 30
0.0
 10
122.2169254998
 20
61.0533825082
 30
0.0
 10
122.4450450105
 20
61.2275310637
 30
0.0
 10
122.5656561037
 20
61.2970686963
 30
0.0
  0
LINE
  5
61F
100
AcDbEntity
  8
3_ALL_AXES
100
AcDbLine
 62
7
  6
CONTINUOUS
 10
122.6505354744
 20
61.150063664
 11
122.654538062
 21
61.1523633693
  0
SPLINE
  5
620
100
AcDbEntity
  8
3_ALL_AXES
100
AcDbSpline
 62
7
  6
CONTINUOUS
 70
0
 71
3
 72
11
 73
7
 74
0
 42
0.0000001
 43
0.0000001
 44
0.0000000001
 40
0.0
 40
0.0
 40
0.0
 40
0.0
 40
0.2144804996
 40
0.4463296951
 40
0.7067701918
 40
1.0
 40
1.0
 40
1.0
 40
1.0
 10
122.654538062
 20
61.1523633693
 30
0.0
 10
122.8007099205
 20
61.2360422427
 30
0.0
 10
123.138038711
 20
61.3569276121
 30
0.0
 10
123.7004720726
 20
61.3689073427
 30
0.0
 10
124.3050811155
 20
61.2217222409
 30
0.0
 10
124.7000672904
 20
61.0332810157
 30
0.0
 10
124.8994739515
 20
60.9181233773
 30
0.0
  0
SPLINE
  5
621
100
AcDbEntity
  8
3_ALL_AXES
100
AcDbSpline
 62
7
  6
CONTINUOUS
 70
0
 71
3
 72
9
 73
5
 74
0
 42
0.0000001
 43
0.0000001
 44
0.0000000001
 40
0.0
 40
0.0
 40
0.0
 40
0.0
 40
0.5
 40
1.0
 40
1.0
 40
1.0
 40
1.0
 10
126.8613473417
 20
66.8198650364
 30
0.0
 10
127.1919542255
 20
66.7349990033
 30
0.0
 10
127.8777182023
 20
66.6555831594
 30
0.0
 10
128.5634821791
 20
66.7349990033
 30
0.0
 10
128.8940890629
 20
66.8198650364
 30
0.0
  0
SPLINE
  5
622
100
AcDbEntity
  8
3_ALL_AXES
100
AcDbSpline
 62
7
  6
CONTINUOUS
 70
0
 71
3
 72
16
 73
12
 74
0
 42
0.0000001
 43
0.0000001
 44
0.0000000001
 40
0.0
 40
0.0
 40
0.0
 40
0.0
 40
0.1284420779
 40
0.2693617577
 40
0.4156672453
 40
0.5591880419
 40
0.6922980113
 40
0.8096320477
 40
0.910167845
 40
0.9558661622
 40
1.0
 40
1.0
 40
1.0
 40
1.0
 10
124.8994739515
 20
53.470241231
 30
0.0
 10
124.5639579411
 20
53.6640022176
 30
0.0
 10
123.9135354504
 20
54.1643967704
 30
0.0
 10
123.0820601588
 20
55.110846367
 30
0.0
 10
122.3990575534
 20
56.2235697338
 30
0.0
 10
121.9198416413
 20
57.412728526
 30
0.0
 10
121.6835395362
 20
58.5857644155
 30
0.0
 10
121.7099861187
 20
59.6547130492
 30
0.0
 10
121.9785097004
 20
60.4255905803
 30
0.0
 10
122.3391351561
 20
60.8788221843
 30
0.0
 10
122.557252642
 20
61.0453213647
 30
0.0
 10
122.6725867166
 20
61.111816527
 30
0.0
  0
LINE
  5
623
100
AcDbEntity
  8
3_ALL_AXES
100
AcDbLine
 62
7
  6
CONTINUOUS
 10
122.7574660365
 20
60.9648115174
 11
122.7614664323
 21
60.9671095613
  0
SPLINE
  5
624
100
AcDbEntity
  8
3_ALL_AXES
100
AcDbSpline
 62
7
  6
CONTINUOUS
 70
0
 71
3
 72
11
 73
7
 74
0
 42
0.0000001
 43
0.0000001
 44
0.0000000001
 40
0.0
 40
0.0
 40
0.0
 40
0.0
 40
0.2143152019
 40
0.4460973803
 40
0.7065983715
 40
1.0
 40
1.0
 40
1.0
 40
1.0
 10
122.7614664323
 20
60.9671095613
 30
0.0
 10
122.9005813344
 20
61.0467199953
 30
0.0
 10
123.2216974733
 20
61.1617265783
 30
0.0
 10
123.7572116766
 20
61.173045988
 30
0.0
 10
124.3331291039
 20
61.0327882438
 30
0.0
 10
124.7094534934
 20
60.8532357673
 30
0.0
 10
124.8994739515
 20
60.7434986749
 30
0.0
  0
SPLINE
  5
625
100
AcDbEntity
  8
0
100
AcDbSpline
 62
7
  6
CONTINUOUS
 70
0
 71
3
 72
9
 73
5
 74
0
 42
0.0000001
 43
0.0000001
 44
0.0000000001
 40
0.0
 40
0.0
 40
0.0
 40
0.0
 40
0.5190736424
 40
1.0
 40
1.0
 40
1.0
 40
1.0
 10
119.7471114347
 20
54.6397877561
 30
0.0
 10
119.6801978666
 20
54.5528520161
 30
0.0
 10
119.5716708557
 20
54.3672471251
 30
0.0
 10
119.5313995047
 20
54.1544750182
 30
0.0
 10
119.5313995047
 20
54.052832098
 30
0.0
  0
SPLINE
  5
626
100
AcDbEntity
  8
3_ALL_AXES
100
AcDbSpline
 62
7
  6
CONTINUOUS
 70
0
 71
3
 72
15
 73
11
 74
0
 42
0.0000001
 43
0.0000001
 44
0.0000000001
 40
0.0
 40
0.0
 40
0.0
 40
0.0
 40
0.1285118214
 40
0.2694880543
 40
0.4158450167
 40
0.5594170421
 40
0.6925850456
 40
0.8099984148
 40
0.9106568787
 40
1.0
 40
1.0
 40
1.0
 40
1.0
 10
124.8994739515
 20
53.6448659333
 30
0.0
 10
124.5797910633
 20
53.8294832687
 30
0.0
 10
123.9601002551
 20
54.3062216228
 30
0.0
 10
123.1679767441
 20
55.2079213068
 30
0.0
 10
122.5173055741
 20
56.2679520325
 30
0.0
 10
122.0610138527
 20
57.4009178182
 30
0.0
 10
121.8354136487
 20
58.5182835219
 30
0.0
 10
121.862518472
 20
59.5378160387
 30
0.0
 10
122.1556463023
 20
60.3914919218
 30
0.0
 10
122.5571773327
 20
60.7983756378
 30
0.0
 10
122.7795172762
 20
60.9265643341
 30
0.0
  0
SPLINE
  5
627
100
AcDbEntity
  8
3_ALL_AXES
100
AcDbSpline
 62
7
  6
CONTINUOUS
 70
0
 71
3
 72
11
 73
7
 74
0
 42
0.0000001
 43
0.0000001
 44
0.0000000001
 40
0.0
 40
0.0
 40
0.0
 40
0.0
 40
0.2141348907
 40
0.4457809521
 40
0.7063316995
 40
1.0
 40
1.0
 40
1.0
 40
1.0
 10
122.8643965374
 20
60.7795593506
 30
0.0
 10
122.996474697
 20
60.8557227068
 30
0.0
 10
123.3016985672
 20
60.9660160284
 30
0.0
 10
123.8113620265
 20
60.9776069064
 30
0.0
 10
124.3598964965
 20
60.8444290433
 30
0.0
 10
124.7184061412
 20
60.6734408978
 30
0.0
 10
124.8994739515
 20
60.5688739726
 30
0.0
  0
SPLINE
  5
628
100
AcDbEntity
  8
3_AXES_OTHER
100
AcDbSpline
 62
7
  6
CONTINUOUS
 70
0
 71
3
 72
9
 73
5
 74
0
 42
0.0000001
 43
0.0000001
 44
0.0000000001
 40
0.0
 40
0.0
 40
0.0
 40
0.0
 40
0.2408760489
 40
1.0
 40
1.0
 40
1.0
 40
1.0
 10
126.7404688236
 20
66.643884645
 30
0.0
 10
126.2200935825
 20
67.0074585993
 30
0.0
 10
124.0239159189
 20
68.4653308871
 30
0.0
 10
121.6966884821
 20
69.7220790461
 30
0.0
 10
119.8863337784
 20
70.5735429833
 30
0.0
  0
LINE
  5
629
100
AcDbEntity
  8
3_ALL_AXES
100
AcDbLine
 62
7
  6
CONTINUOUS
 10
125.2061717144
 20
50.6186700882
 11
125.23059315
 21
50.6031605173
  0
LINE
  5
62A
100
AcDbEntity
  8
3_ALL_AXES
100
AcDbLine
 62
7
  6
CONTINUOUS
 10
121.9042760439
 20
52.5241135097
 11
121.9311323758
 21
52.5100100949
  0
SPLINE
  5
62B
100
AcDbEntity
  8
3_ALL_AXES
100
AcDbSpline
 62
7
  6
CONTINUOUS
 70
0
 71
3
 72
11
 73
7
 74
0
 42
0.0000001
 43
0.0000001
 44
0.0000000001
 40
0.0
 40
0.0
 40
0.0
 40
0.0
 40
0.2207058852
 40
0.4551542679
 40
0.713338655
 40
1.0
 40
1.0
 40
1.0
 40
1.0
 10
127.3181889137
 20
53.0636788276
 30
0.0
 10
127.1564520518
 20
52.9704303695
 30
0.0
 10
126.78657042
 20
52.835879411
 30
0.0
 10
126.175115832
 20
52.8197898091
 30
0.0
 10
125.5284180946
 20
52.9750563417
 30
0.0
 10
125.109457019
 20
53.1743510001
 30
0.0
 10
124.8994739515
 20
53.2956165286
 30
0.0
  0
SPLINE
  5
62C
100
AcDbEntity
  8
3_ALL_AXES
100
AcDbSpline
 62
7
  6
CONTINUOUS
 70
0
 71
3
 72
11
 73
7
 74
0
 42
0.0000001
 43
0.0000001
 44
0.0000000001
 40
0.0
 40
0.0
 40
0.0
 40
0.0
 40
0.2968850678
 40
0.5588044397
 40
0.7891719826
 40
1.0
 40
1.0
 40
1.0
 40
1.0
 10
128.1514930823
 20
55.5168235294
 30
0.0
 10
128.1653008927
 20
55.2596601102
 30
0.0
 10
128.1525386555
 20
54.7717949767
 30
0.0
 10
127.99002966
 20
54.1002413869
 30
0.0
 10
127.6883634609
 20
53.5594454878
 30
0.0
 10
127.3917396439
 20
53.3020416157
 30
0.0
 10
127.2333095431
 20
53.2106838599
 30
0.0
  0
SPLINE
  5
62D
100
AcDbEntity
  8
3_ALL_AXES
100
AcDbSpline
 62
7
  6
CONTINUOUS
 70
0
 71
3
 72
11
 73
7
 74
0
 42
0.0000001
 43
0.0000001
 44
0.0000000001
 40
0.0
 40
0.0
 40
0.0
 40
0.0
 40
0.2215964363
 40
0.4564340166
 40
0.7142793834
 40
1.0
 40
1.0
 40
1.0
 40
1.0
 10
127.2112583008
 20
53.2489309969
 30
0.0
 10
127.0594788332
 20
53.1614234639
 30
0.0
 10
126.7134999879
 20
53.0342132587
 30
0.0
 10
126.1416023364
 20
53.0141301133
 30
0.0
 10
125.5363069746
 20
53.1521674925
 30
0.0
 10
125.143375718
 20
53.3331118648
 30
0.0
 10
124.94633087
 20
53.4435771729
 30
0.0
  0
SPLINE
  5
62E
100
AcDbEntity
  8
3_ALL_AXES
100
AcDbSpline
 62
7
  6
CONTINUOUS
 70
0
 71
3
 72
15
 73
11
 74
0
 42
0.0000001
 43
0.0000001
 44
0.0000000001
 40
0.0
 40
0.0
 40
0.0
 40
0.0
 40
0.1299006995
 40
0.2728189356
 40
0.4211475453
 40
0.5663779735
 40
0.7005055236
 40
0.8175417288
 40
0.9155930672
 40
1.0
 40
1.0
 40
1.0
 40
1.0
 10
124.9434235253
 20
60.7177550552
 30
0.0
 10
125.2650322382
 20
60.5267195986
 30
0.0
 10
125.8888741152
 20
60.0368924557
 30
0.0
 10
126.6870701226
 20
59.1164429394
 30
0.0
 10
127.3431912884
 20
58.0374263068
 30
0.0
 10
127.8027021008
 20
56.8883492052
 30
0.0
 10
128.0293165033
 20
55.7617989902
 30
0.0
 10
128.0036801015
 20
54.7459350293
 30
0.0
 10
127.7217429173
 20
53.9108804604
 30
0.0
 10
127.3369407407
 20
53.5173561316
 30
0.0
 10
127.126378981
 20
53.3959360065
 30
0.0
  0
SPLINE
  5
62F
100
AcDbEntity
  8
3_ALL_AXES
100
AcDbSpline
 62
7
  6
CONTINUOUS
 70
0
 71
3
 72
11
 73
7
 74
0
 42
0.0000001
 43
0.0000001
 44
0.0000000001
 40
0.0
 40
0.0
 40
0.0
 40
0.0
 40
0.2217788309
 40
0.4566960159
 40
0.7144756569
 40
1.0
 40
1.0
 40
1.0
 40
1.0
 10
127.1043277412
 20
53.4341831899
 30
0.0
 10
126.9596089791
 20
53.3507464976
 30
0.0
 10
126.6298475358
 20
53.2294180823
 30
0.0
 10
126.0848728366
 20
53.2099982353
 30
0.0
 10
125.5082651466
 20
53.3411129206
 30
0.0
 10
125.1339907044
 20
53.5131736744
 30
0.0
 10
124.9463291662
 20
53.6182223636
 30
0.0
  0
SPLINE
  5
630
100
AcDbEntity
  8
3_ALL_AXES
100
AcDbSpline
 62
7
  6
CONTINUOUS
 70
0
 71
3
 72
15
 73
11
 74
0
 42
0.0000001
 43
0.0000001
 44
0.0000000001
 40
0.0
 40
0.0
 40
0.0
 40
0.0
 40
0.1291962653
 40
0.2718020053
 40
0.4201659158
 40
0.5656705673
 40
0.7001668224
 40
0.8175117545
 40
0.915681301
 40
1.0
 40
1.0
 40
1.0
 40
1.0
 10
124.8994739515
 20
60.5688739726
 30
0.0
 10
125.2076539794
 20
60.3908995559
 30
0.0
 10
125.80674975
 20
59.9295613763
 30
0.0
 10
126.5745999016
 20
59.0563554037
 30
0.0
 10
127.2079404825
 20
58.0276237948
 30
0.0
 10
127.6534406011
 20
56.9287964502
 30
0.0
 10
127.875500855
 20
55.8495361435
 30
0.0
 10
127.8550376878
 20
54.8754942147
 30
0.0
 10
127.5882227995
 20
54.0746387592
 30
0.0
 10
127.2206530407
 20
53.6972135228
 30
0.0
 10
127.01944848
 20
53.5811881733
 30
0.0
  0
SPLINE
  5
631
100
AcDbEntity
  8
3_ALL_AXES
100
AcDbSpline
 62
7
  6
CONTINUOUS
 70
0
 71
3
 72
9
 73
5
 74
0
 42
0.0000001
 43
0.0000001
 44
0.0000000001
 40
0.0
 40
0.0
 40
0.0
 40
0.0
 40
0.4915491398
 40
1.0
 40
1.0
 40
1.0
 40
1.0
 10
123.6568834542
 20
69.9730461256
 30
0.0
 10
123.6568834542
 20
69.9738536786
 30
0.0
 10
123.6566940265
 20
69.9755016717
 30
0.0
 10
123.6561446997
 20
69.9770648836
 30
0.0
 10
123.655790714
 20
69.9778214907
 30
0.0
  0
SPLINE
  5
632
100
AcDbEntity
  8
3_ALL_AXES
100
AcDbSpline
 62
7
  6
CONTINUOUS
 70
0
 71
3
 72
9
 73
5
 74
0
 42
0.0000001
 43
0.0000001
 44
0.0000000001
 40
0.0
 40
0.0
 40
0.0
 40
0.0
 40
0.4650216938
 40
1.0
 40
1.0
 40
1.0
 40
1.0
 10
123.655790714
 20
69.9778214907
 30
0.0
 10
123.6550138323
 20
69.9794819929
 30
0.0
 10
123.6525677997
 20
69.9826922516
 30
0.0
 10
123.6493480683
 20
69.9850379379
 30
0.0
 10
123.6475217044
 20
69.9860926657
 30
0.0
  0
SPLINE
  5
633
100
AcDbEntity
  8
3_ALL_AXES
100
AcDbSpline
 62
7
  6
CONTINUOUS
 70
0
 71
3
 72
8
 73
4
 74
0
 42
0.0000001
 43
0.0000001
 44
0.0000000001
 40
0.0
 40
0.0
 40
0.0
 40
0.0
 40
1.0
 40
1.0
 40
1.0
 40
1.0
 10
122.9519476038
 20
70.105051347
 30
0.0
 10
122.9519476072
 20
70.0948177891
 30
0.0
 10
122.9565415836
 20
70.0843878276
 30
0.0
 10
122.9629034546
 20
70.0763720739
 30
0.0
  0
SPLINE
  5
634
100
AcDbEntity
  8
3_ALL_AXES
100
AcDbSpline
 62
7
  6
CONTINUOUS
 70
0
 71
3
 72
8
 73
4
 74
0
 42
0.0000001
 43
0.0000001
 44
0.0000000001
 40
0.0
 40
0.0
 40
0.0
 40
0.0
 40
1.0
 40
1.0
 40
1.0
 40
1.0
 10
122.9629034546
 20
70.0763720739
 30
0.0
 10
122.9675752561
 20
70.0704857537
 30
0.0
 10
122.9735511115
 20
70.0655027879
 30
0.0
 10
122.9800588243
 20
70.0617445742
 30
0.0
  0
SPLINE
  5
635
100
AcDbEntity
  8
3_ALL_AXES
100
AcDbSpline
 62
7
  6
CONTINUOUS
 70
0
 71
3
 72
9
 73
5
 74
0
 42
0.0000001
 43
0.0000001
 44
0.0000000001
 40
0.0
 40
0.0
 40
0.0
 40
0.0
 40
0.4566751644
 40
1.0
 40
1.0
 40
1.0
 40
1.0
 10
123.2108410498
 20
69.8934804057
 30
0.0
 10
123.2108215531
 20
69.8930707312
 30
0.0
 10
123.211034876
 20
69.8921322605
 30
0.0
 10
123.2117737323
 20
69.8915287707
 30
0.0
 10
123.2121962886
 20
69.8912847438
 30
0.0
  0
SPLINE
  5
636
100
AcDbEntity
  8
3_ALL_AXES
100
AcDbSpline
 62
7
  6
CONTINUOUS
 70
0
 71
3
 72
9
 73
5
 74
0
 42
0.0000001
 43
0.0000001
 44
0.0000000001
 40
0.0
 40
0.0
 40
0.0
 40
0.0
 40
0.4157209901
 40
1.0
 40
1.0
 40
1.0
 40
1.0
 10
123.2121962886
 20
69.8912847438
 30
0.0
 10
123.2127357564
 20
69.8909732004
 30
0.0
 10
123.2141798671
 20
69.8904907402
 30
0.0
 10
123.2156708722
 20
69.8903099186
 30
0.0
 10
123.2165443268
 20
69.8902493602
 30
0.0
  0
SPLINE
  5
637
100
AcDbEntity
  8
3_ALL_AXES
100
AcDbSpline
 62
7
  6
CONTINUOUS
 70
0
 71
3
 72
8
 73
4
 74
0
 42
0.0000001
 43
0.0000001
 44
0.0000000001
 40
0.0
 40
0.0
 40
0.0
 40
0.0
 40
1.0
 40
1.0
 40
1.0
 40
1.0
 10
123.7056398743
 20
69.8208986286
 30
0.0
 10
123.7056399034
 20
69.8124628335
 30
0.0
 10
123.7098266048
 20
69.8038323238
 30
0.0
 10
123.7155036482
 20
69.797592627
 30
0.0
  0
SPLINE
  5
638
100
AcDbEntity
  8
3_ALL_AXES
100
AcDbSpline
 62
7
  6
CONTINUOUS
 70
0
 71
3
 72
8
 73
4
 74
0
 42
0.0000001
 43
0.0000001
 44
0.0000000001
 40
0.0
 40
0.0
 40
0.0
 40
0.0
 40
1.0
 40
1.0
 40
1.0
 40
1.0
 10
123.7155036482
 20
69.797592627
 30
0.0
 10
123.7219774932
 20
69.7904771572
 30
0.0
 10
123.730228893
 20
69.7850454687
 30
0.0
 10
123.73855934
 20
69.7802346234
 30
0.0
  0
SPLINE
  5
639
100
AcDbEntity
  8
3_ALL_AXES
100
AcDbSpline
 62
7
  6
CONTINUOUS
 70
0
 71
3
 72
9
 73
5
 74
0
 42
0.0000001
 43
0.0000001
 44
0.0000000001
 40
0.0
 40
0.0
 40
0.0
 40
0.0
 40
0.4915491398
 40
1.0
 40
1.0
 40
1.0
 40
1.0
 10
123.5397183088
 20
69.7461805195
 30
0.0
 10
123.5397183088
 20
69.7453729664
 30
0.0
 10
123.5399077365
 20
69.7437249734
 30
0.0
 10
123.5404570632
 20
69.7421617615
 30
0.0
 10
123.540811049
 20
69.7414051544
 30
0.0
  0
SPLINE
  5
63A
100
AcDbEntity
  8
3_ALL_AXES
100
AcDbSpline
 62
7
  6
CONTINUOUS
 70
0
 71
3
 72
9
 73
5
 74
0
 42
0.0000001
 43
0.0000001
 44
0.0000000001
 40
0.0
 40
0.0
 40
0.0
 40
0.0
 40
0.4650216938
 40
1.0
 40
1.0
 40
1.0
 40
1.0
 10
123.540811049
 20
69.7414051544
 30
0.0
 10
123.5415879307
 20
69.7397446522
 30
0.0
 10
123.5440339632
 20
69.7365343935
 30
0.0
 10
123.5472536947
 20
69.7341887072
 30
0.0
 10
123.5490800586
 20
69.7331339794
 30
0.0
  0
SPLINE
  5
63B
100
AcDbEntity
  8
3_ALL_AXES
100
AcDbSpline
 62
7
  6
CONTINUOUS
 70
0
 71
3
 72
9
 73
5
 74
0
 42
0.0000001
 43
0.0000001
 44
0.0000000001
 40
0.0
 40
0.0
 40
0.0
 40
0.0
 40
0.4915491398
 40
1.0
 40
1.0
 40
1.0
 40
1.0
 10
124.0666584488
 20
69.5831167924
 30
0.0
 10
124.0666584488
 20
69.5839243454
 30
0.0
 10
124.0664690211
 20
69.5855723385
 30
0.0
 10
124.0659196944
 20
69.5871355504
 30
0.0
 10
124.0655657086
 20
69.5878921575
 30
0.0
  0
SPLINE
  5
63C
100
AcDbEntity
  8
3_ALL_AXES
100
AcDbSpline
 62
7
  6
CONTINUOUS
 70
0
 71
3
 72
9
 73
5
 74
0
 42
0.0000001
 43
0.0000001
 44
0.0000000001
 40
0.0
 40
0.0
 40
0.0
 40
0.0
 40
0.4650216938
 40
1.0
 40
1.0
 40
1.0
 40
1.0
 10
124.0655657086
 20
69.5878921575
 30
0.0
 10
124.0647888269
 20
69.5895526597
 30
0.0
 10
124.0623427944
 20
69.5927629184
 30
0.0
 10
124.0591230629
 20
69.5951086047
 30
0.0
 10
124.057296699
 20
69.5961633325
 30
0.0
  0
SPLINE
  5
63D
100
AcDbEntity
  8
3_ALL_AXES
100
AcDbSpline
 62
7
  6
CONTINUOUS
 70
0
 71
3
 72
8
 73
4
 74
0
 42
0.0000001
 43
0.0000001
 44
0.0000000001
 40
0.0
 40
0.0
 40
0.0
 40
0.0
 40
1.0
 40
1.0
 40
1.0
 40
1.0
 10
124.1931182186
 20
69.3859714313
 30
0.0
 10
124.1931182151
 20
69.3775790235
 30
0.0
 10
124.1966361319
 20
69.368988201
 30
0.0
 10
124.2017157669
 20
69.362307646
 30
0.0
  0
SPLINE
  5
63E
100
AcDbEntity
  8
3_ALL_AXES
100
AcDbSpline
 62
7
  6
CONTINUOUS
 70
0
 71
3
 72
8
 73
4
 74
0
 42
0.0000001
 43
0.0000001
 44
0.0000000001
 40
0.0
 40
0.0
 40
0.0
 40
0.0
 40
1.0
 40
1.0
 40
1.0
 40
1.0
 10
124.2017157669
 20
69.362307646
 30
0.0
 10
124.2083345443
 20
69.3536028657
 30
0.0
 10
124.217658332
 20
69.3470290489
 30
0.0
 10
124.2271279844
 20
69.3415603108
 30
0.0
  0
SPLINE
  5
63F
100
AcDbEntity
  8
3_ALL_AXES
100
AcDbSpline
 62
7
  6
CONTINUOUS
 70
0
 71
3
 72
8
 73
4
 74
0
 42
0.0000001
 43
0.0000001
 44
0.0000000001
 40
0.0
 40
0.0
 40
0.0
 40
0.0
 40
1.0
 40
1.0
 40
1.0
 40
1.0
 10
125.7261012084
 20
69.1143587426
 30
0.0
 10
125.7260974813
 20
69.1327058838
 30
0.0
 10
125.7175603656
 20
69.1514565308
 30
0.0
 10
125.7057560117
 20
69.1655019867
 30
0.0
  0
SPLINE
  5
640
100
AcDbEntity
  8
3_ALL_AXES
100
AcDbSpline
 62
7
  6
CONTINUOUS
 70
0
 71
3
 72
8
 73
4
 74
0
 42
0.0000001
 43
0.0000001
 44
0.0000000001
 40
0.0
 40
0.0
 40
0.0
 40
0.0
 40
1.0
 40
1.0
 40
1.0
 40
1.0
 10
125.7057560117
 20
69.1655019867
 30
0.0
 10
125.6958705749
 20
69.1772642118
 30
0.0
 10
125.6834896539
 20
69.187045518
 30
0.0
 10
125.6703644228
 20
69.195033015
 30
0.0
  0
SPLINE
  5
641
100
AcDbEntity
  8
3_ALL_AXES
100
AcDbSpline
 62
7
  6
CONTINUOUS
 70
0
 71
3
 72
9
 73
5
 74
0
 42
0.0000001
 43
0.0000001
 44
0.0000000001
 40
0.0
 40
0.0
 40
0.0
 40
0.0
 40
0.4809263576
 40
1.0
 40
1.0
 40
1.0
 40
1.0
 10
119.5313995047
 20
71.5153023331
 30
0.0
 10
119.5313995047
 20
71.4136594129
 30
0.0
 10
119.5716708557
 20
71.200887306
 30
0.0
 10
119.6801978666
 20
71.015282415
 30
0.0
 10
119.7471114347
 20
70.928346675
 30
0.0
  0
SPLINE
  5
642
100
AcDbEntity
  8
7_ALL_ROUNDS
100
AcDbSpline
 62
7
  6
CONTINUOUS
 70
0
 71
3
 72
8
 73
4
 74
0
 42
0.0000001
 43
0.0000001
 44
0.0000000001
 40
0.0
 40
0.0
 40
0.0
 40
0.0
 40
1.0
 40
1.0
 40
1.0
 40
1.0
 10
121.7696764064
 20
70.1832642279
 30
0.0
 10
121.7705931433
 20
70.1981297197
 30
0.0
 10
121.7737146781
 20
70.2129491157
 30
0.0
 10
121.7784086066
 20
70.227083835
 30
0.0
  0
SPLINE
  5
643
100
AcDbEntity
  8
7_ALL_ROUNDS
100
AcDbSpline
 62
7
  6
CONTINUOUS
 70
0
 71
3
 72
9
 73
5
 74
0
 42
0.0000001
 43
0.0000001
 44
0.0000000001
 40
0.0
 40
0.0
 40
0.0
 40
0.0
 40
0.2408616988
 40
1.0
 40
1.0
 40
1.0
 40
1.0
 10
121.7784086066
 20
70.227083835
 30
0.0
 10
121.7832805668
 20
70.2417546574
 30
0.0
 10
121.8106468921
 20
70.3002130818
 30
0.0
 10
121.8601811413
 20
70.3469273252
 30
0.0
 10
121.9023563525
 20
70.3713214303
 30
0.0
  0
SPLINE
  5
644
100
AcDbEntity
  8
7_ALL_ROUNDS
100
AcDbSpline
 62
7
  6
CONTINUOUS
 70
0
 71
3
 72
8
 73
4
 74
0
 42
0.0000001
 43
0.0000001
 44
0.0000000001
 40
0.0
 40
0.0
 40
0.0
 40
0.0
 40
1.0
 40
1.0
 40
1.0
 40
1.0
 10
125.1484358879
 20
68.2342512476
 30
0.0
 10
125.1490404251
 20
68.2485422148
 30
0.0
 10
125.1505672901
 20
68.2628090531
 30
0.0
 10
125.1527537945
 20
68.2769446962
 30
0.0
  0
SPLINE
  5
645
100
AcDbEntity
  8
7_ALL_ROUNDS
100
AcDbSpline
 62
7
  6
CONTINUOUS
 70
0
 71
3
 72
9
 73
5
 74
0
 42
0.0000001
 43
0.0000001
 44
0.0000000001
 40
0.0
 40
0.0
 40
0.0
 40
0.0
 40
0.7656993585
 40
1.0
 40
1.0
 40
1.0
 40
1.0
 10
125.1527537945
 20
68.2769446962
 30
0.0
 10
125.1601961804
 20
68.3250593525
 30
0.0
 10
125.1792246392
 20
68.3869107175
 30
0.0
 10
125.2083405684
 20
68.4434879749
 30
0.0
 10
125.2159239936
 20
68.4563114273
 30
0.0
  0
SPLINE
  5
646
100
AcDbEntity
  8
7_ALL_ROUNDS
100
AcDbSpline
 62
7
  6
CONTINUOUS
 70
0
 71
3
 72
8
 73
4
 74
0
 42
0.0000001
 43
0.0000001
 44
0.0000000001
 40
0.0
 40
0.0
 40
0.0
 40
0.0
 40
1.0
 40
1.0
 40
1.0
 40
1.0
 10
125.2159239936
 20
68.4563114273
 30
0.0
 10
125.2250397599
 20
68.4717260442
 30
0.0
 10
125.2352262873
 20
68.4866550993
 30
0.0
 10
125.2470743602
 20
68.5000838289
 30
0.0
  0
SPLINE
  5
647
100
AcDbEntity
  8
3_ALL_AXES
100
AcDbSpline
 62
7
  6
CONTINUOUS
 70
0
 71
3
 72
11
 73
7
 74
0
 42
0.0000001
 43
0.0000001
 44
0.0000000001
 40
0.0
 40
0.0
 40
0.0
 40
0.0
 40
0.2185912171
 40
0.4545682658
 40
0.7142307057
 40
1.0
 40
1.0
 40
1.0
 40
1.0
 10
127.3128093041
 20
52.4281453757
 30
0.0
 10
127.1429297719
 20
52.3675432035
 30
0.0
 10
126.7692717104
 20
52.2943152974
 30
0.0
 10
126.1760875972
 20
52.3334994788
 30
0.0
 10
125.5524912871
 20
52.5122576283
 30
0.0
 10
125.1461143046
 20
52.7106942459
 30
0.0
 10
124.9419225087
 20
52.8286153065
 30
0.0
  0
SPLINE
  5
648
100
AcDbEntity
  8
3_ALL_AXES
100
AcDbSpline
 62
7
  6
CONTINUOUS
 70
0
 71
3
 72
11
 73
7
 74
0
 42
0.0000001
 43
0.0000001
 44
0.0000000001
 40
0.0
 40
0.0
 40
0.0
 40
0.0
 40
0.217751611
 40
0.4509247102
 40
0.7101684765
 40
1.0
 40
1.0
 40
1.0
 40
1.0
 10
127.1064065743
 20
52.2748415485
 30
0.0
 10
126.9305708158
 20
52.1732967086
 30
0.0
 10
126.5264858418
 20
52.0265246786
 30
0.0
 10
125.8553943551
 20
52.0097824027
 30
0.0
 10
125.1400003377
 20
52.1823600492
 30
0.0
 10
124.674679727
 20
52.403964861
 30
0.0
 10
124.4406393253
 20
52.5391235352
 30
0.0
  0
LINE
  5
649
100
AcDbEntity
  8
3_ALL_AXES
100
AcDbLine
 62
7
  6
CONTINUOUS
 10
127.2332731263
 20
53.2106787419
 11
127.2304599978
 21
53.2090605871
  0
SPLINE
  5
64A
100
AcDbEntity
  8
3_ALL_AXES
100
AcDbSpline
 62
7
  6
CONTINUOUS
 70
0
 71
3
 72
11
 73
7
 74
0
 42
0.0000001
 43
0.0000001
 44
0.0000000001
 40
0.0
 40
0.0
 40
0.0
 40
0.0
 40
0.2177462438
 40
0.4509633703
 40
0.7102218192
 40
1.0
 40
1.0
 40
1.0
 40
1.0
 10
127.2304599978
 20
53.2090605871
 30
0.0
 10
127.0792899189
 20
53.1223185528
 30
0.0
 10
126.7321419866
 20
52.9971747573
 30
0.0
 10
126.1560818823
 20
52.9836281549
 30
0.0
 10
125.5421294637
 20
53.1321599494
 30
0.0
 10
125.1427793353
 20
53.3224207434
 30
0.0
 10
124.9419225087
 20
53.4384158544
 30
0.0
  0
LINE
  5
64B
100
AcDbEntity
  8
3_ALL_AXES
100
AcDbLine
 62
7
  6
CONTINUOUS
 10
127.1263426188
 20
53.3959307079
 11
127.1235293359
 21
53.3943126614
  0
SPLINE
  5
64C
100
AcDbEntity
  8
3_ALL_AXES
100
AcDbSpline
 62
7
  6
CONTINUOUS
 70
0
 71
3
 72
11
 73
7
 74
0
 42
0.0000001
 43
0.0000001
 44
0.0000000001
 40
0.0
 40
0.0
 40
0.0
 40
0.0
 40
0.2177460821
 40
0.4509648396
 40
0.7102238237
 40
1.0
 40
1.0
 40
1.0
 40
1.0
 10
127.1235293359
 20
53.3943126614
 30
0.0
 10
126.9794148107
 20
53.3116391635
 30
0.0
 10
126.6484782912
 20
53.1923738075
 30
0.0
 10
126.0993367242
 20
53.1794899213
 30
0.0
 10
125.5140783732
 20
53.3210951566
 30
0.0
 10
125.1333920851
 20
53.5024665965
 30
0.0
 10
124.9419225087
 20
53.6130405568
 30
0.0
  0
SPLINE
  5
64D
100
AcDbEntity
  8
3_ALL_AXES
100
AcDbSpline
 62
7
  6
CONTINUOUS
 70
0
 71
3
 72
11
 73
7
 74
0
 42
0.0000001
 43
0.0000001
 44
0.0000000001
 40
0.0
 40
0.0
 40
0.0
 40
0.0
 40
0.2177496975
 40
0.4509337423
 40
0.7101812611
 40
1.0
 40
1.0
 40
1.0
 40
1.0
 10
127.0194121642
 20
53.5811827045
 30
0.0
 10
126.882333423
 20
53.5021394757
 30
0.0
 10
126.5673712351
 20
53.3879343414
 30
0.0
 10
126.0443877977
 20
53.3750619652
 30
0.0
 10
125.4869091788
 20
53.5096353268
 30
0.0
 10
125.1243013706
 20
53.6823411997
 30
0.0
 10
124.9419225087
 20
53.7876652591
 30
0.0
  0
SPLINE
  5
64E
100
AcDbEntity
  8
0
100
AcDbSpline
 62
7
  6
CONTINUOUS
 70
0
 71
3
 72
14
 73
10
 74
0
 42
0.0000001
 43
0.0000001
 44
0.0000000001
 40
0.0
 40
0.0
 40
0.0
 40
0.0
 40
0.3212033961
 40
0.49060519
 40
0.6446556566
 40
0.7702646691
 40
0.8608359932
 40
0.9257827974
 40
1.0
 40
1.0
 40
1.0
 40
1.0
 10
130.2957964442
 20
51.3939007555
 30
0.0
 10
130.2957964447
 20
51.3168351853
 30
0.0
 10
130.2741794737
 20
51.1989814416
 30
0.0
 10
130.2224154481
 20
51.0533083854
 30
0.0
 10
130.1734108248
 20
50.9565324342
 30
0.0
 10
130.1199700619
 20
50.8857578012
 30
0.0
 10
130.0663968638
 20
50.8407038359
 30
0.0
 10
130.0045325631
 20
50.8407271182
 30
0.0
 10
129.9838469741
 20
50.8725110154
 30
0.0
 10
129.9765949044
 20
50.8887741056
 30
0.0
  0
SPLINE
  5
64F
100
AcDbEntity
  8
7_ALL_ROUNDS
100
AcDbSpline
 62
7
  6
CONTINUOUS
 70
0
 71
3
 72
9
 73
5
 74
0
 42
0.0000001
 43
0.0000001
 44
0.0000000001
 40
0.0
 40
0.0
 40
0.0
 40
0.0
 40
0.7269855286
 40
1.0
 40
1.0
 40
1.0
 40
1.0
 10
129.3285833672
 20
49.295375675
 30
0.0
 10
129.3420699878
 20
49.3106396548
 30
0.0
 10
129.3531682901
 20
49.3385872821
 30
0.0
 10
129.3550391166
 20
49.3664809987
 30
0.0
 10
129.3550391166
 20
49.3741302708
 30
0.0
  0
SPLINE
  5
650
100
AcDbEntity
  8
0
100
AcDbSpline
 62
7
  6
CONTINUOUS
 70
0
 71
3
 72
14
 73
10
 74
0
 42
0.0000001
 43
0.0000001
 44
0.0000000001
 40
0.0
 40
0.0
 40
0.0
 40
0.0
 40
0.3212033961
 40
0.49060519
 40
0.6446556566
 40
0.7702646691
 40
0.8608359932
 40
0.9257827974
 40
1.0
 40
1.0
 40
1.0
 40
1.0
 10
130.2957964442
 20
67.4482860891
 30
0.0
 10
130.2957964447
 20
67.3712205189
 30
0.0
 10
130.2741794737
 20
67.2533667752
 30
0.0
 10
130.2224154481
 20
67.107693719
 30
0.0
 10
130.1734108248
 20
67.0109177678
 30
0.0
 10
130.1199700619
 20
66.9401431348
 30
0.0
 10
130.0663968638
 20
66.8950891695
 30
0.0
 10
130.0045325631
 20
66.8951124518
 30
0.0
 10
129.9838469741
 20
66.926896349
 30
0.0
 10
129.9765949044
 20
66.9431594392
 30
0.0
  0
SPLINE
  5
651
100
AcDbEntity
  8
0
100
AcDbSpline
 62
7
  6
CONTINUOUS
 70
0
 71
3
 72
11
 73
7
 74
0
 42
0.0000001
 43
0.0000001
 44
0.0000000001
 40
0.0
 40
0.0
 40
0.0
 40
0.0
 40
0.2753970362
 40
0.5000473721
 40
0.7246250002
 40
1.0
 40
1.0
 40
1.0
 40
1.0
 10
122.0803742903
 20
72.3712305915
 30
0.0
 10
122.0494675744
 20
72.3890653591
 30
0.0
 10
121.9963613839
 20
72.4297356088
 30
0.0
 10
121.9594763797
 20
72.5237455652
 30
0.0
 10
121.9962832526
 20
72.6177865811
 30
0.0
 10
122.0493740153
 20
72.6584658007
 30
0.0
 10
122.080272238
 20
72.6763095695
 30
0.0
  0
SPLINE
  5
652
100
AcDbEntity
  8
3_ALL_AXES
100
AcDbSpline
 62
7
  6
CONTINUOUS
 70
0
 71
3
 72
9
 73
5
 74
0
 42
0.0000001
 43
0.0000001
 44
0.0000000001
 40
0.0
 40
0.0
 40
0.0
 40
0.0
 40
0.2545093957
 40
1.0
 40
1.0
 40
1.0
 40
1.0
 10
124.5631197603
 20
69.5355960526
 30
0.0
 10
124.5429436913
 20
69.547247762
 30
0.0
 10
124.4503671067
 20
69.5707583709
 30
0.0
 10
124.3596925893
 20
69.5277546401
 30
0.0
 10
124.3005943
 20
69.4936252916
 30
0.0
  0
SPLINE
  5
653
100
AcDbEntity
  8
3_ALL_AXES
100
AcDbSpline
 62
7
  6
CONTINUOUS
 70
0
 71
3
 72
9
 73
5
 74
0
 42
0.0000001
 43
0.0000001
 44
0.0000000001
 40
0.0
 40
0.0
 40
0.0
 40
0.0
 40
0.5083504959
 40
1.0
 40
1.0
 40
1.0
 40
1.0
 10
123.9390318001
 20
69.8960077622
 30
0.0
 10
123.9117849517
 20
69.911742857
 30
0.0
 10
123.8450388295
 20
69.922847425
 30
0.0
 10
123.7872949788
 20
69.8965635958
 30
0.0
 10
123.7603992496
 20
69.8823289987
 30
0.0
  0
SPLINE
  5
654
100
AcDbEntity
  8
3_ALL_AXES
100
AcDbSpline
 62
7
  6
CONTINUOUS
 70
0
 71
3
 72
9
 73
5
 74
0
 42
0.0000001
 43
0.0000001
 44
0.0000000001
 40
0.0
 40
0.0
 40
0.0
 40
0.0
 40
0.5519388605
 40
1.0
 40
1.0
 40
1.0
 40
1.0
 10
123.7603992496
 20
69.8823289987
 30
0.0
 10
123.7466870662
 20
69.8750718091
 30
0.0
 10
123.7244920633
 20
69.8587864782
 30
0.0
 10
123.7056398308
 20
69.8334929865
 30
0.0
 10
123.7056398743
 20
69.8208986286
 30
0.0
  0
SPLINE
  5
655
100
AcDbEntity
  8
3_ALL_AXES
100
AcDbSpline
 62
7
  6
CONTINUOUS
 70
0
 71
3
 72
9
 73
5
 74
0
 42
0.0000001
 43
0.0000001
 44
0.0000000001
 40
0.0
 40
0.0
 40
0.0
 40
0.0
 40
0.5074422654
 40
1.0
 40
1.0
 40
1.0
 40
1.0
 10
123.2159740221
 20
69.8994267598
 30
0.0
 10
123.215151178
 20
69.8989515662
 30
0.0
 10
123.2136212527
 20
69.8978570348
 30
0.0
 10
123.2122973316
 20
69.8965029169
 30
0.0
 10
123.2117651011
 20
69.895749643
 30
0.0
  0
SPLINE
  5
656
100
AcDbEntity
  8
3_ALL_AXES
100
AcDbSpline
 62
7
  6
CONTINUOUS
 70
0
 71
3
 72
9
 73
5
 74
0
 42
0.0000001
 43
0.0000001
 44
0.0000000001
 40
0.0
 40
0.0
 40
0.0
 40
0.0
 40
0.5350037677
 40
1.0
 40
1.0
 40
1.0
 40
1.0
 10
123.2117651011
 20
69.895749643
 30
0.0
 10
123.2115105299
 20
69.8953893446
 30
0.0
 10
123.2110854333
 20
69.8946770713
 30
0.0
 10
123.210859277
 20
69.8938634038
 30
0.0
 10
123.2108410498
 20
69.8934804057
 30
0.0
  0
SPLINE
  5
657
100
AcDbEntity
  8
3_ALL_AXES
100
AcDbSpline
 62
7
  6
CONTINUOUS
 70
0
 71
3
 72
8
 73
4
 74
0
 42
0.0000001
 43
0.0000001
 44
0.0000000001
 40
0.0
 40
0.0
 40
0.0
 40
0.0
 40
1.0
 40
1.0
 40
1.0
 40
1.0
 10
123.6568834542
 20
69.9453279189
 30
0.0
 10
123.6568834542
 20
69.939975302
 30
0.0
 10
123.6521569031
 20
69.9349582128
 30
0.0
 10
123.6475217044
 20
69.9322813788
 30
0.0
  0
SPLINE
  5
658
100
AcDbEntity
  8
0
100
AcDbSpline
 62
7
  6
CONTINUOUS
 70
0
 71
3
 72
11
 73
7
 74
0
 42
0.0000001
 43
0.0000001
 44
0.0000000001
 40
0.0
 40
0.0
 40
0.0
 40
0.0
 40
0.2753970362
 40
0.5000473721
 40
0.7246250002
 40
1.0
 40
1.0
 40
1.0
 40
1.0
 10
126.577436939
 20
71.1800432554
 30
0.0
 10
126.5465302232
 20
71.197878023
 30
0.0
 10
126.4934240326
 20
71.2385482727
 30
0.0
 10
126.4565390284
 20
71.3325582291
 30
0.0
 10
126.4933459013
 20
71.426599245
 30
0.0
 10
126.546436664
 20
71.4672784646
 30
0.0
 10
126.5773348868
 20
71.4851222334
 30
0.0
  0
SPLINE
  5
659
100
AcDbEntity
  8
3_ALL_AXES
100
AcDbSpline
 62
7
  6
CONTINUOUS
 70
0
 71
3
 72
8
 73
4
 74
0
 42
0.0000001
 43
0.0000001
 44
0.0000000001
 40
0.0
 40
0.0
 40
0.0
 40
0.0
 40
1.0
 40
1.0
 40
1.0
 40
1.0
 10
123.1070206521
 20
70.0743266519
 30
0.0
 10
123.1070206521
 20
70.068974035
 30
0.0
 10
123.1117472032
 20
70.0639569459
 30
0.0
 10
123.1163824019
 20
70.0612801118
 30
0.0
  0
SPLINE
  5
65A
100
AcDbEntity
  8
3_ALL_AXES
100
AcDbSpline
 62
7
  6
CONTINUOUS
 70
0
 71
3
 72
9
 73
5
 74
0
 42
0.0000001
 43
0.0000001
 44
0.0000000001
 40
0.0
 40
0.0
 40
0.0
 40
0.0
 40
0.5516546125
 40
1.0
 40
1.0
 40
1.0
 40
1.0
 10
124.295792737
 20
69.4908523819
 30
0.0
 10
124.2719085367
 20
69.4770592213
 30
0.0
 10
124.2314901374
 20
69.4514697913
 30
0.0
 10
124.193118228
 20
69.4083872166
 30
0.0
 10
124.1931182186
 20
69.3859714313
 30
0.0
  0
SPLINE
  5
65B
100
AcDbEntity
  8
3_ALL_AXES
100
AcDbSpline
 62
7
  6
CONTINUOUS
 70
0
 71
3
 72
9
 73
5
 74
0
 42
0.0000001
 43
0.0000001
 44
0.0000000001
 40
0.0
 40
0.0
 40
0.0
 40
0.0
 40
0.3436275064
 40
1.0
 40
1.0
 40
1.0
 40
1.0
 10
123.4521966213
 20
69.9023506424
 30
0.0
 10
123.4522350752
 20
69.903158653
 30
0.0
 10
123.4505746478
 20
69.9054288898
 30
0.0
 10
123.4480347944
 20
69.9054748161
 30
0.0
 10
123.4464933444
 20
69.9055816879
 30
0.0
  0
SPLINE
  5
65C
100
AcDbEntity
  8
3_ALL_AXES
100
AcDbSpline
 62
7
  6
CONTINUOUS
 70
0
 71
3
 72
9
 73
5
 74
0
 42
0.0000001
 43
0.0000001
 44
0.0000000001
 40
0.0
 40
0.0
 40
0.0
 40
0.0
 40
0.2129183773
 40
1.0
 40
1.0
 40
1.0
 40
1.0
 10
123.7846099533
 20
69.9620162259
 30
0.0
 10
123.7846099685
 20
69.9666886606
 30
0.0
 10
123.7780718005
 20
69.9886425741
 30
0.0
 10
123.7571129714
 20
70.0010661518
 30
0.0
 10
123.7421557107
 20
70.0097039916
 30
0.0
  0
SPLINE
  5
65D
100
AcDbEntity
  8
3_ALL_AXES
100
AcDbSpline
 62
7
  6
CONTINUOUS
 70
0
 71
3
 72
8
 73
4
 74
0
 42
0.0000001
 43
0.0000001
 44
0.0000000001
 40
0.0
 40
0.0
 40
0.0
 40
0.0
 40
1.0
 40
1.0
 40
1.0
 40
1.0
 10
123.7807272999
 20
69.9487212311
 30
0.0
 10
123.7773247743
 20
69.9549146892
 30
0.0
 10
123.7723044352
 20
69.9602136724
 30
0.0
 10
123.7669782428
 20
69.9648577845
 30
0.0
  0
SPLINE
  5
65E
100
AcDbEntity
  8
3_ALL_AXES
100
AcDbSpline
 62
7
  6
CONTINUOUS
 70
0
 71
3
 72
8
 73
4
 74
0
 42
0.0000001
 43
0.0000001
 44
0.0000000001
 40
0.0
 40
0.0
 40
0.0
 40
0.0
 40
1.0
 40
1.0
 40
1.0
 40
1.0
 10
123.7669782428
 20
69.9648577845
 30
0.0
 10
123.7594012661
 20
69.9714644421
 30
0.0
 10
123.7508611085
 20
69.976958405
 30
0.0
 10
123.7421557107
 20
69.9819857849
 30
0.0
  0
SPLINE
  5
65F
100
AcDbEntity
  8
7_ALL_ROUNDS
100
AcDbSpline
 62
7
  6
CONTINUOUS
 70
0
 71
3
 72
9
 73
5
 74
0
 42
0.0000001
 43
0.0000001
 44
0.0000000001
 40
0.0
 40
0.0
 40
0.0
 40
0.0
 40
0.2371095921
 40
1.0
 40
1.0
 40
1.0
 40
1.0
 10
133.614119369
 20
54.261198367
 30
0.0
 10
133.6141196516
 20
54.2513932861
 30
0.0
 10
133.6099203134
 20
54.2099770231
 30
0.0
 10
133.5879929953
 20
54.1718043745
 30
0.0
 10
133.5671213205
 20
54.1481482006
 30
0.0
  0
SPLINE
  5
660
100
AcDbEntity
  8
0
100
AcDbSpline
 62
7
  6
CONTINUOUS
 70
0
 71
3
 72
11
 73
7
 74
0
 42
0.0000001
 43
0.0000001
 44
0.0000000001
 40
0.0
 40
0.0
 40
0.0
 40
0.0
 40
0.2753970362
 40
0.5000473721
 40
0.7246250002
 40
1.0
 40
1.0
 40
1.0
 40
1.0
 10
129.9977103453
 20
73.1552561487
 30
0.0
 10
129.9668036295
 20
73.1730909162
 30
0.0
 10
129.9136974389
 20
73.2137611659
 30
0.0
 10
129.8768124347
 20
73.3077711223
 30
0.0
 10
129.9136193076
 20
73.4018121382
 30
0.0
 10
129.9667100703
 20
73.4424913578
 30
0.0
 10
129.9976082931
 20
73.4603351266
 30
0.0
  0
SPLINE
  5
661
100
AcDbEntity
  8
3_ALL_AXES
100
AcDbSpline
 62
7
  6
CONTINUOUS
 70
0
 71
3
 72
8
 73
4
 74
0
 42
0.0000001
 43
0.0000001
 44
0.0000000001
 40
0.0
 40
0.0
 40
0.0
 40
0.0
 40
1.0
 40
1.0
 40
1.0
 40
1.0
 10
124.4160297802
 20
69.6129006154
 30
0.0
 10
124.4160297802
 20
69.6182532322
 30
0.0
 10
124.4113032291
 20
69.6232703214
 30
0.0
 10
124.4066680304
 20
69.6259471554
 30
0.0
  0
SPLINE
  5
662
100
AcDbEntity
  8
3_ALL_AXES
100
AcDbSpline
 62
7
  6
CONTINUOUS
 70
0
 71
3
 72
8
 73
4
 74
0
 42
0.0000001
 43
0.0000001
 44
0.0000000001
 40
0.0
 40
0.0
 40
0.0
 40
0.0
 40
1.0
 40
1.0
 40
1.0
 40
1.0
 10
123.8890896401
 20
69.7759643424
 30
0.0
 10
123.8890896401
 20
69.7706117256
 30
0.0
 10
123.8938161912
 20
69.7655946364
 30
0.0
 10
123.8984513899
 20
69.7629178024
 30
0.0
  0
SPLINE
  5
663
100
AcDbEntity
  8
3_ALL_AXES
100
AcDbSpline
 62
7
  6
CONTINUOUS
 70
0
 71
3
 72
9
 73
5
 74
0
 42
0.0000001
 43
0.0000001
 44
0.0000000001
 40
0.0
 40
0.0
 40
0.0
 40
0.0
 40
0.7050993002
 40
1.0
 40
1.0
 40
1.0
 40
1.0
 10
124.2516276862
 20
69.5361460187
 30
0.0
 10
124.2516276866
 20
69.5492992162
 30
0.0
 10
124.2374293375
 20
69.5664793693
 30
0.0
 10
124.2219526096
 20
69.5760953749
 30
0.0
 10
124.2171887489
 20
69.5788465115
 30
0.0
  0
SPLINE
  5
664
100
AcDbEntity
  8
3_ALL_AXES
100
AcDbSpline
 62
7
  6
CONTINUOUS
 70
0
 71
3
 72
8
 73
4
 74
0
 42
0.0000001
 43
0.0000001
 44
0.0000000001
 40
0.0
 40
0.0
 40
0.0
 40
0.0
 40
1.0
 40
1.0
 40
1.0
 40
1.0
 10
124.2487281376
 20
69.5213784028
 30
0.0
 10
124.2469117814
 20
69.5253595466
 30
0.0
 10
124.2443675056
 20
69.5290335579
 30
0.0
 10
124.2414906148
 20
69.532330853
 30
0.0
  0
SPLINE
  5
665
100
AcDbEntity
  8
3_ALL_AXES
100
AcDbSpline
 62
7
  6
CONTINUOUS
 70
0
 71
3
 72
8
 73
4
 74
0
 42
0.0000001
 43
0.0000001
 44
0.0000000001
 40
0.0
 40
0.0
 40
0.0
 40
0.0
 40
1.0
 40
1.0
 40
1.0
 40
1.0
 10
124.2414906148
 20
69.532330853
 30
0.0
 10
124.2347577222
 20
69.5400476334
 30
0.0
 10
124.2260572385
 20
69.5460067391
 30
0.0
 10
124.2171887489
 20
69.5511283048
 30
0.0
  0
SPLINE
  5
666
100
AcDbEntity
  8
0
100
AcDbSpline
 62
7
  6
CONTINUOUS
 70
0
 71
3
 72
11
 73
7
 74
0
 42
0.0000001
 43
0.0000001
 44
0.0000000001
 40
0.0
 40
0.0
 40
0.0
 40
0.0
 40
0.2753970362
 40
0.5000473721
 40
0.7246250002
 40
1.0
 40
1.0
 40
1.0
 40
1.0
 10
128.6400937703
 20
68.5829830003
 30
0.0
 10
128.6091870545
 20
68.6008177679
 30
0.0
 10
128.556080864
 20
68.6414880175
 30
0.0
 10
128.5191958598
 20
68.7354979739
 30
0.0
 10
128.5560027327
 20
68.8295389899
 30
0.0
 10
128.6090934954
 20
68.8702182094
 30
0.0
 10
128.6399917181
 20
68.8880619783
 30
0.0
  0
SPLINE
  5
667
100
AcDbEntity
  8
3_ALL_AXES
100
AcDbSpline
 62
7
  6
CONTINUOUS
 70
0
 71
3
 72
8
 73
4
 74
0
 42
0.0000001
 43
0.0000001
 44
0.0000000001
 40
0.0
 40
0.0
 40
0.0
 40
0.0
 40
1.0
 40
1.0
 40
1.0
 40
1.0
 10
124.0666584488
 20
69.5553985857
 30
0.0
 10
124.0666584488
 20
69.5500459688
 30
0.0
 10
124.0619318977
 20
69.5450288796
 30
0.0
 10
124.057296699
 20
69.5423520456
 30
0.0
  0
SPLINE
  5
668
100
AcDbEntity
  8
3_ALL_AXES
100
AcDbSpline
 62
7
  6
CONTINUOUS
 70
0
 71
3
 72
8
 73
4
 74
0
 42
0.0000001
 43
0.0000001
 44
0.0000000001
 40
0.0
 40
0.0
 40
0.0
 40
0.0
 40
1.0
 40
1.0
 40
1.0
 40
1.0
 10
124.3520083346
 20
69.3553444448
 30
0.0
 10
124.3520083346
 20
69.349991828
 30
0.0
 10
124.3567348857
 20
69.3449747388
 30
0.0
 10
124.3613700845
 20
69.3422979048
 30
0.0
  0
SPLINE
  5
669
100
AcDbEntity
  8
3_ALL_AXES
100
AcDbSpline
 62
7
  6
CONTINUOUS
 70
0
 71
3
 72
9
 73
5
 74
0
 42
0.0000001
 43
0.0000001
 44
0.0000000001
 40
0.0
 40
0.0
 40
0.0
 40
0.0
 40
0.2589105107
 40
1.0
 40
1.0
 40
1.0
 40
1.0
 10
123.3160506002
 20
70.2557803161
 30
0.0
 10
123.2959092999
 20
70.2674119464
 30
0.0
 10
123.2027667884
 20
70.2830389168
 30
0.0
 10
123.1163219662
 20
70.2426998935
 30
0.0
 10
123.0579953951
 20
70.2106040714
 30
0.0
  0
SPLINE
  5
66A
100
AcDbEntity
  8
3_ALL_AXES
100
AcDbSpline
 62
7
  6
CONTINUOUS
 70
0
 71
3
 72
8
 73
4
 74
0
 42
0.0000001
 43
0.0000001
 44
0.0000000001
 40
0.0
 40
0.0
 40
0.0
 40
0.0
 40
1.0
 40
1.0
 40
1.0
 40
1.0
 10
124.7560956823
 20
69.106703179
 30
0.0
 10
124.7560956823
 20
69.1120557959
 30
0.0
 10
124.7513691312
 20
69.117072885
 30
0.0
 10
124.7467339325
 20
69.1197497191
 30
0.0
  0
SPLINE
  5
66B
100
AcDbEntity
  8
0
100
AcDbSpline
 62
7
  6
CONTINUOUS
 70
0
 71
3
 72
11
 73
7
 74
0
 42
0.0000001
 43
0.0000001
 44
0.0000000001
 40
0.0
 40
0.0
 40
0.0
 40
0.0
 40
0.2107450849
 40
0.3942603452
 40
0.6480164133
 40
1.0
 40
1.0
 40
1.0
 40
1.0
 10
130.1699982306
 20
51.5458897114
 30
0.0
 10
130.1847527043
 20
51.5555327042
 30
0.0
 10
130.2187443436
 20
51.5708907357
 30
0.0
 10
130.2703959986
 20
51.5389615866
 30
0.0
 10
130.291504511
 20
51.4736695185
 30
0.0
 10
130.2957964442
 20
51.4233397428
 30
0.0
 10
130.2957964442
 20
51.3939007555
 30
0.0
  0
SPLINE
  5
66C
100
AcDbEntity
  8
3_ALL_AXES
100
AcDbSpline
 62
7
  6
CONTINUOUS
 70
0
 71
3
 72
8
 73
4
 74
0
 42
0.0000001
 43
0.0000001
 44
0.0000000001
 40
0.0
 40
0.0
 40
0.0
 40
0.0
 40
1.0
 40
1.0
 40
1.0
 40
1.0
 10
125.0243278003
 20
69.2616076193
 30
0.0
 10
125.0243278003
 20
69.2669602362
 30
0.0
 10
125.0196012492
 20
69.2719773254
 30
0.0
 10
125.0149660504
 20
69.2746541594
 30
0.0
  0
SPLINE
  5
66D
100
AcDbEntity
  8
3_ALL_AXES
100
AcDbSpline
 62
7
  6
CONTINUOUS
 70
0
 71
3
 72
9
 73
5
 74
0
 42
0.0000001
 43
0.0000001
 44
0.0000000001
 40
0.0
 40
0.0
 40
0.0
 40
0.0
 40
0.5473598047
 40
1.0
 40
1.0
 40
1.0
 40
1.0
 10
123.0579953951
 20
70.2106040714
 30
0.0
 10
123.0336274979
 20
70.1971949565
 30
0.0
 10
122.9939902301
 20
70.169850032
 30
0.0
 10
122.9519475962
 20
70.1280518908
 30
0.0
 10
122.9519476038
 20
70.105051347
 30
0.0
  0
SPLINE
  5
66E
100
AcDbEntity
  8
3_ALL_AXES
100
AcDbSpline
 62
7
  6
CONTINUOUS
 70
0
 71
3
 72
8
 73
4
 74
0
 42
0.0000001
 43
0.0000001
 44
0.0000000001
 40
0.0
 40
0.0
 40
0.0
 40
0.0
 40
1.0
 40
1.0
 40
1.0
 40
1.0
 10
123.4470492443
 20
69.8703195268
 30
0.0
 10
123.4600915148
 20
69.8627875966
 30
0.0
 10
123.4791896822
 20
69.8627875966
 30
0.0
 10
123.4922319527
 20
69.8703195268
 30
0.0
  0
SPLINE
  5
66F
100
AcDbEntity
  8
3_ALL_AXES
100
AcDbSpline
 62
7
  6
CONTINUOUS
 70
0
 71
3
 72
8
 73
4
 74
0
 42
0.0000001
 43
0.0000001
 44
0.0000000001
 40
0.0
 40
0.0
 40
0.0
 40
0.0
 40
1.0
 40
1.0
 40
1.0
 40
1.0
 10
125.7600530096
 20
69.1143602689
 30
0.0
 10
125.7600516706
 20
69.1209516486
 30
0.0
 10
125.7592089724
 20
69.1275891893
 30
0.0
 10
125.7576038967
 20
69.1339821558
 30
0.0
  0
SPLINE
  5
670
100
AcDbEntity
  8
3_ALL_AXES
100
AcDbSpline
 62
7
  6
CONTINUOUS
 70
0
 71
3
 72
9
 73
5
 74
0
 42
0.0000001
 43
0.0000001
 44
0.0000000001
 40
0.0
 40
0.0
 40
0.0
 40
0.0
 40
0.2225668324
 40
1.0
 40
1.0
 40
1.0
 40
1.0
 10
125.7576038967
 20
69.1339821558
 30
0.0
 10
125.7558180836
 20
69.1410949935
 30
0.0
 10
125.743508934
 20
69.1720461667
 30
0.0
 10
125.7168753529
 20
69.1952128185
 30
0.0
 10
125.6949924802
 20
69.2085298701
 30
0.0
  0
SPLINE
  5
671
100
AcDbEntity
  8
0
100
AcDbSpline
 62
7
  6
CONTINUOUS
 70
0
 71
3
 72
11
 73
7
 74
0
 42
0.0000001
 43
0.0000001
 44
0.0000000001
 40
0.0
 40
0.0
 40
0.0
 40
0.0
 40
0.2107450849
 40
0.3942603452
 40
0.6480164133
 40
1.0
 40
1.0
 40
1.0
 40
1.0
 10
130.1699982306
 20
67.600275045
 30
0.0
 10
130.1847527043
 20
67.6099180378
 30
0.0
 10
130.2187443436
 20
67.6252760693
 30
0.0
 10
130.2703959986
 20
67.5933469202
 30
0.0
 10
130.291504511
 20
67.528054852
 30
0.0
 10
130.2957964442
 20
67.4777250764
 30
0.0
 10
130.2957964442
 20
67.4482860891
 30
0.0
  0
SPLINE
  5
672
100
AcDbEntity
  8
3_ALL_AXES
100
AcDbSpline
 62
7
  6
CONTINUOUS
 70
0
 71
3
 72
8
 73
4
 74
0
 42
0.0000001
 43
0.0000001
 44
0.0000000001
 40
0.0
 40
0.0
 40
0.0
 40
0.0
 40
1.0
 40
1.0
 40
1.0
 40
1.0
 10
123.3495439033
 20
69.9646428228
 30
0.0
 10
123.3449557201
 20
69.9672925053
 30
0.0
 10
123.3347307394
 20
69.9695008887
 30
0.0
 10
123.3336523425
 20
69.964313471
 30
0.0
  0
SPLINE
  5
673
100
AcDbEntity
  8
3_ALL_AXES
100
AcDbSpline
 62
7
  6
CONTINUOUS
 70
0
 71
3
 72
8
 73
4
 74
0
 42
0.0000001
 43
0.0000001
 44
0.0000000001
 40
0.0
 40
0.0
 40
0.0
 40
0.0
 40
1.0
 40
1.0
 40
1.0
 40
1.0
 10
124.057296699
 20
69.5700702523
 30
0.0
 10
124.0619318977
 20
69.5727470864
 30
0.0
 10
124.0666584488
 20
69.5777641755
 30
0.0
 10
124.0666584488
 20
69.5831167924
 30
0.0
  0
SPLINE
  5
674
100
AcDbEntity
  8
3_ALL_AXES
100
AcDbSpline
 62
7
  6
CONTINUOUS
 70
0
 71
3
 72
8
 73
4
 74
0
 42
0.0000001
 43
0.0000001
 44
0.0000000001
 40
0.0
 40
0.0
 40
0.0
 40
0.0
 40
1.0
 40
1.0
 40
1.0
 40
1.0
 10
123.6475217044
 20
69.9599995855
 30
0.0
 10
123.6521569031
 20
69.9626764195
 30
0.0
 10
123.6568834542
 20
69.9676935087
 30
0.0
 10
123.6568834542
 20
69.9730461256
 30
0.0
  0
SPLINE
  5
675
100
AcDbEntity
  8
0
100
AcDbSpline
 62
7
  6
CONTINUOUS
 70
0
 71
3
 72
14
 73
10
 74
0
 42
0.0000001
 43
0.0000001
 44
0.0000000001
 40
0.0
 40
0.0
 40
0.0
 40
0.0
 40
0.2907606187
 40
0.44481399
 40
0.5838825317
 40
0.6984640253
 40
0.7919419194
 40
0.8854023824
 40
1.0
 40
1.0
 40
1.0
 40
1.0
 10
122.080272238
 20
72.6763095695
 30
0.0
 10
122.1586512896
 20
72.7215735873
 30
0.0
 10
122.3026849593
 20
72.7491551542
 30
0.0
 10
122.4837703349
 20
72.7295756181
 30
0.0
 10
122.604485139
 20
72.6856278462
 30
0.0
 10
122.6922807795
 20
72.6178035455
 30
0.0
 10
122.7292637191
 20
72.523801974
 30
0.0
 10
122.6924038288
 20
72.4297992188
 30
0.0
 10
122.6393357467
 20
72.389129432
 30
0.0
 10
122.6084441746
 20
72.3712895039
 30
0.0
  0
SPLINE
  5
676
100
AcDbEntity
  8
0
100
AcDbSpline
 62
7
  6
CONTINUOUS
 70
0
 71
3
 72
9
 73
5
 74
0
 42
0.0000001
 43
0.0000001
 44
0.0000000001
 40
0.0
 40
0.0
 40
0.0
 40
0.0
 40
0.2209095119
 40
1.0
 40
1.0
 40
1.0
 40
1.0
 10
122.1576279426
 20
72.3713492556
 30
0.0
 10
122.1576226819
 20
72.3784609319
 30
0.0
 10
122.1633624189
 20
72.410878749
 30
0.0
 10
122.1905958242
 20
72.4350614321
 30
0.0
 10
122.2123152222
 20
72.4476044161
 30
0.0
  0
SPLINE
  5
677
100
AcDbEntity
  8
0
100
AcDbSpline
 62
7
  6
CONTINUOUS
 70
0
 71
3
 72
14
 73
10
 74
0
 42
0.0000001
 43
0.0000001
 44
0.0000000001
 40
0.0
 40
0.0
 40
0.0
 40
0.0
 40
0.2907606187
 40
0.44481399
 40
0.5838825317
 40
0.6984640253
 40
0.7919419194
 40
0.8854023824
 40
1.0
 40
1.0
 40
1.0
 40
1.0
 10
126.5773348868
 20
71.4851222334
 30
0.0
 10
126.6557139383
 20
71.5303862512
 30
0.0
 10
126.799747608
 20
71.5579678181
 30
0.0
 10
126.9808329836
 20
71.538388282
 30
0.0
 10
127.1015477877
 20
71.4944405101
 30
0.0
 10
127.1893434282
 20
71.4266162094
 30
0.0
 10
127.2263263678
 20
71.3326146379
 30
0.0
 10
127.1894664775
 20
71.2386118827
 30
0.0
 10
127.1363983954
 20
71.1979420959
 30
0.0
 10
127.1055068233
 20
71.1801021678
 30
0.0
  0
SPLINE
  5
678
100
AcDbEntity
  8
0
100
AcDbSpline
 62
7
  6
CONTINUOUS
 70
0
 71
3
 72
9
 73
5
 74
0
 42
0.0000001
 43
0.0000001
 44
0.0000000001
 40
0.0
 40
0.0
 40
0.0
 40
0.0
 40
0.2209095119
 40
1.0
 40
1.0
 40
1.0
 40
1.0
 10
126.6546905913
 20
71.1801619195
 30
0.0
 10
126.6546853306
 20
71.1872735958
 30
0.0
 10
126.6604250676
 20
71.2196914129
 30
0.0
 10
126.6876584729
 20
71.243874096
 30
0.0
 10
126.7093778709
 20
71.25641708
 30
0.0
  0
SPLINE
  5
679
100
AcDbEntity
  8
0
100
AcDbSpline
 62
7
  6
CONTINUOUS
 70
0
 71
3
 72
9
 73
5
 74
0
 42
0.0000001
 43
0.0000001
 44
0.0000000001
 40
0.0
 40
0.0
 40
0.0
 40
0.0
 40
0.2209095119
 40
1.0
 40
1.0
 40
1.0
 40
1.0
 10
130.0749639976
 20
73.1553748128
 30
0.0
 10
130.0749587369
 20
73.162486489
 30
0.0
 10
130.0806984739
 20
73.1949043061
 30
0.0
 10
130.1079318793
 20
73.2190869892
 30
0.0
 10
130.1296512772
 20
73.2316299732
 30
0.0
  0
SPLINE
  5
67A
100
AcDbEntity
  8
0
100
AcDbSpline
 62
7
  6
CONTINUOUS
 70
0
 71
3
 72
14
 73
10
 74
0
 42
0.0000001
 43
0.0000001
 44
0.0000000001
 40
0.0
 40
0.0
 40
0.0
 40
0.0
 40
0.2907606187
 40
0.44481399
 40
0.5838825317
 40
0.6984640253
 40
0.7919419194
 40
0.8854023824
 40
1.0
 40
1.0
 40
1.0
 40
1.0
 10
129.9976082931
 20
73.4603351266
 30
0.0
 10
130.0759873446
 20
73.5055991444
 30
0.0
 10
130.2200210143
 20
73.5331807113
 30
0.0
 10
130.4011063899
 20
73.5136011752
 30
0.0
 10
130.521821194
 20
73.4696534033
 30
0.0
 10
130.6096168345
 20
73.4018291026
 30
0.0
 10
130.6465997741
 20
73.3078275311
 30
0.0
 10
130.6097398838
 20
73.2138247759
 30
0.0
 10
130.5566718017
 20
73.1731549891
 30
0.0
 10
130.5257802296
 20
73.155315061
 30
0.0
  0
SPLINE
  5
67B
100
AcDbEntity
  8
0
100
AcDbSpline
 62
7
  6
CONTINUOUS
 70
0
 71
3
 72
14
 73
10
 74
0
 42
0.0000001
 43
0.0000001
 44
0.0000000001
 40
0.0
 40
0.0
 40
0.0
 40
0.0
 40
0.2907606187
 40
0.44481399
 40
0.5838825317
 40
0.6984640253
 40
0.7919419194
 40
0.8854023824
 40
1.0
 40
1.0
 40
1.0
 40
1.0
 10
128.6399917181
 20
68.8880619783
 30
0.0
 10
128.7183707697
 20
68.933325996
 30
0.0
 10
128.8624044394
 20
68.9609075629
 30
0.0
 10
129.043489815
 20
68.9413280269
 30
0.0
 10
129.1642046191
 20
68.8973802549
 30
0.0
 10
129.2520002595
 20
68.8295559542
 30
0.0
 10
129.2889831992
 20
68.7355543827
 30
0.0
 10
129.2521233089
 20
68.6415516275
 30
0.0
 10
129.1990552268
 20
68.6008818407
 30
0.0
 10
129.1681636547
 20
68.5830419126
 30
0.0
  0
SPLINE
  5
67C
100
AcDbEntity
  8
0
100
AcDbSpline
 62
7
  6
CONTINUOUS
 70
0
 71
3
 72
9
 73
5
 74
0
 42
0.0000001
 43
0.0000001
 44
0.0000000001
 40
0.0
 40
0.0
 40
0.0
 40
0.0
 40
0.2209095119
 40
1.0
 40
1.0
 40
1.0
 40
1.0
 10
128.7173474227
 20
68.5831016644
 30
0.0
 10
128.7173421619
 20
68.5902133407
 30
0.0
 10
128.723081899
 20
68.6226311577
 30
0.0
 10
128.7503153043
 20
68.6468138408
 30
0.0
 10
128.7720347023
 20
68.6593568249
 30
0.0
  0
SPLINE
  5
67D
100
AcDbEntity
  8
0
100
AcDbSpline
 62
7
  6
CONTINUOUS
 70
0
 71
3
 72
8
 73
4
 74
0
 42
0.0000001
 43
0.0000001
 44
0.0000000001
 40
0.0
 40
0.0
 40
0.0
 40
0.0
 40
1.0
 40
1.0
 40
1.0
 40
1.0
 10
130.0435790712
 20
51.3694882044
 30
0.0
 10
130.0443210156
 20
51.3619445344
 30
0.0
 10
130.0446357633
 20
51.354352632
 30
0.0
 10
130.0446357633
 20
51.3467725635
 30
0.0
  0
SPLINE
  5
67E
100
AcDbEntity
  8
0
100
AcDbSpline
 62
7
  6
CONTINUOUS
 70
0
 71
3
 72
8
 73
4
 74
0
 42
0.0000001
 43
0.0000001
 44
0.0000000001
 40
0.0
 40
0.0
 40
0.0
 40
0.0
 40
1.0
 40
1.0
 40
1.0
 40
1.0
 10
130.0435790712
 20
67.423873538
 30
0.0
 10
130.0443210156
 20
67.416329868
 30
0.0
 10
130.0446357633
 20
67.4087379656
 30
0.0
 10
130.0446357633
 20
67.4011578971
 30
0.0
  0
SPLINE
  5
67F
100
AcDbEntity
  8
7_ALL_ROUNDS
100
AcDbSpline
 62
7
  6
CONTINUOUS
 70
0
 71
3
 72
9
 73
5
 74
0
 42
0.0000001
 43
0.0000001
 44
0.0000000001
 40
0.0
 40
0.0
 40
0.0
 40
0.0
 40
0.2321255993
 40
1.0
 40
1.0
 40
1.0
 40
1.0
 10
128.8313480058
 20
75.0877330803
 30
0.0
 10
128.8133245454
 20
75.0981416551
 30
0.0
 10
128.7295872875
 20
75.1316955622
 30
0.0
 10
128.6332718633
 20
75.1313272159
 30
0.0
 10
128.5672220694
 20
75.1118919523
 30
0.0
  0
SPLINE
  5
680
100
AcDbEntity
  8
0
100
AcDbSpline
 62
7
  6
CONTINUOUS
 70
0
 71
3
 72
8
 73
4
 74
0
 42
0.0000001
 43
0.0000001
 44
0.0000000001
 40
0.0
 40
0.0
 40
0.0
 40
0.0
 40
1.0
 40
1.0
 40
1.0
 40
1.0
 10
119.5313995047
 20
54.052832098
 30
0.0
 10
119.5313995047
 20
53.971200316
 30
0.0
 10
119.5437704301
 20
53.8888204272
 30
0.0
 10
119.5668297612
 20
53.8105132431
 30
0.0
  0
SPLINE
  5
681
100
AcDbEntity
  8
0
100
AcDbSpline
 62
7
  6
CONTINUOUS
 70
0
 71
3
 72
9
 73
5
 74
0
 42
0.0000001
 43
0.0000001
 44
0.0000000001
 40
0.0
 40
0.0
 40
0.0
 40
0.0
 40
0.2413072401
 40
1.0
 40
1.0
 40
1.0
 40
1.0
 10
119.5859214756
 20
53.7528172588
 30
0.0
 10
119.5950767968
 20
53.7279154959
 30
0.0
 10
119.6373720649
 20
53.6263344816
 30
0.0
 10
119.6962318931
 20
53.5319803815
 30
0.0
 10
119.7471114347
 20
53.4658764399
 30
0.0
  0
SPLINE
  5
682
100
AcDbEntity
  8
7_ALL_ROUNDS
100
AcDbSpline
 62
7
  6
CONTINUOUS
 70
0
 71
3
 72
9
 73
5
 74
0
 42
0.0000001
 43
0.0000001
 44
0.0000000001
 40
0.0
 40
0.0
 40
0.0
 40
0.0
 40
0.2391587965
 40
1.0
 40
1.0
 40
1.0
 40
1.0
 10
119.5451304846
 20
53.6521839521
 30
0.0
 10
119.5520302207
 20
53.6143045586
 30
0.0
 10
119.5914431847
 20
53.4578289509
 30
0.0
 10
119.6724003478
 20
53.313479046
 30
0.0
 10
119.7471114347
 20
53.2164125794
 30
0.0
  0
SPLINE
  5
683
100
AcDbEntity
  8
3_ALL_AXES
100
AcDbSpline
 62
7
  6
CONTINUOUS
 70
0
 71
3
 72
15
 73
11
 74
0
 42
0.0000001
 43
0.0000001
 44
0.0000000001
 40
0.0
 40
0.0
 40
0.0
 40
0.0
 40
0.0884540929
 40
0.1910206274
 40
0.3107428248
 40
0.4451964535
 40
0.588680759
 40
0.7338760319
 40
0.873180362
 40
1.0
 40
1.0
 40
1.0
 40
1.0
 10
122.0369105387
 20
61.6308490121
 30
0.0
 10
121.8014482345
 20
61.437979076
 30
0.0
 10
121.4004114009
 20
60.8853201757
 30
0.0
 10
121.144300871
 20
59.829522159
 30
0.0
 10
121.1809464032
 20
58.5915590795
 30
0.0
 10
121.5024140599
 20
57.2533724726
 30
0.0
 10
122.0823908978
 20
55.9108133252
 30
0.0
 10
122.8781055826
 20
54.663789658
 30
0.0
 10
123.8286254186
 20
53.6066372599
 30
0.0
 10
124.5640257954
 20
53.046851211
 30
0.0
 10
124.9419225087
 20
52.8286153065
 30
0.0
  0
SPLINE
  5
684
100
AcDbEntity
  8
7_ALL_ROUNDS
100
AcDbSpline
 62
7
  6
CONTINUOUS
 70
0
 71
3
 72
10
 73
6
 74
0
 42
0.0000001
 43
0.0000001
 44
0.0000000001
 40
0.0
 40
0.0
 40
0.0
 40
0.0
 40
0.2458548413
 40
0.4711670297
 40
1.0
 40
1.0
 40
1.0
 40
1.0
 10
133.3856116479
 20
72.3292649253
 30
0.0
 10
133.3955026546
 20
72.3404754956
 30
0.0
 10
133.4112161793
 20
72.3659626374
 30
0.0
 10
133.411072549
 20
72.4300290585
 30
0.0
 10
133.3716259115
 20
72.4657159511
 30
0.0
 10
133.3437782093
 20
72.4817980398
 30
0.0
  0
SPLINE
  5
685
100
AcDbEntity
  8
7_ALL_ROUNDS
100
AcDbSpline
 62
7
  6
CONTINUOUS
 70
0
 71
3
 72
9
 73
5
 74
0
 42
0.0000001
 43
0.0000001
 44
0.0000000001
 40
0.0
 40
0.0
 40
0.0
 40
0.0
 40
0.2723565374
 40
1.0
 40
1.0
 40
1.0
 40
1.0
 10
119.7471114347
 20
53.2164125794
 30
0.0
 10
119.7471114347
 20
53.2094473754
 30
0.0
 10
119.7486952049
 20
53.1839735836
 30
0.0
 10
119.7576961086
 20
53.1584097585
 30
0.0
 10
119.7690041763
 20
53.1436310867
 30
0.0
  0
SPLINE
  5
686
100
AcDbEntity
  8
7_ALL_ROUNDS
100
AcDbSpline
 62
7
  6
CONTINUOUS
 70
0
 71
3
 72
9
 73
5
 74
0
 42
0.0000001
 43
0.0000001
 44
0.0000000001
 40
0.0
 40
0.0
 40
0.0
 40
0.0
 40
0.5000000005
 40
1.0
 40
1.0
 40
1.0
 40
1.0
 10
126.8613473417
 20
49.1079309408
 30
0.0
 10
127.1919540074
 20
49.0230649637
 30
0.0
 10
127.8777182027
 20
48.9436601311
 30
0.0
 10
128.5634823979
 20
49.0230649639
 30
0.0
 10
128.8940890629
 20
49.1079309408
 30
0.0
  0
SPLINE
  5
687
100
AcDbEntity
  8
7_ALL_ROUNDS
100
AcDbSpline
 62
7
  6
CONTINUOUS
 70
0
 71
3
 72
9
 73
5
 74
0
 42
0.0000001
 43
0.0000001
 44
0.0000000001
 40
0.0
 40
0.0
 40
0.0
 40
0.0
 40
0.3054490752
 40
1.0
 40
1.0
 40
1.0
 40
1.0
 10
126.8613473417
 20
49.1079309408
 30
0.0
 10
126.8613473417
 20
49.0983841843
 30
0.0
 10
126.8631732032
 20
49.0676827287
 30
0.0
 10
126.8759150978
 20
49.0342111872
 30
0.0
 10
126.8936081152
 20
49.0216335388
 30
0.0
  0
SPLINE
  5
688
100
AcDbEntity
  8
7_ALL_ROUNDS
100
AcDbSpline
 62
7
  6
CONTINUOUS
 70
0
 71
3
 72
9
 73
5
 74
0
 42
0.0000001
 43
0.0000001
 44
0.0000000001
 40
0.0
 40
0.0
 40
0.0
 40
0.0
 40
0.2817778229
 40
1.0
 40
1.0
 40
1.0
 40
1.0
 10
119.9184894316
 20
72.4506275546
 30
0.0
 10
119.9076877047
 20
72.4548384415
 30
0.0
 10
119.8686218031
 20
72.4669081291
 30
0.0
 10
119.8227507139
 20
72.4642752049
 30
0.0
 10
119.7971622368
 20
72.4494945939
 30
0.0
  0
SPLINE
  5
689
100
AcDbEntity
  8
7_ALL_ROUNDS
100
AcDbSpline
 62
7
  6
CONTINUOUS
 70
0
 71
3
 72
9
 73
5
 74
0
 42
0.0000001
 43
0.0000001
 44
0.0000000001
 40
0.0
 40
0.0
 40
0.0
 40
0.0
 40
0.2620962202
 40
1.0
 40
1.0
 40
1.0
 40
1.0
 10
119.7471114347
 20
71.1778105355
 30
0.0
 10
119.726072139
 20
71.2051453017
 30
0.0
 10
119.6500532599
 20
71.3125564516
 30
0.0
 10
119.5924631728
 20
71.4336702734
 30
0.0
 10
119.5655109493
 20
71.5269696803
 30
0.0
  0
SPLINE
  5
68A
100
AcDbEntity
  8
7_ALL_ROUNDS
100
AcDbSpline
 62
7
  6
CONTINUOUS
 70
0
 71
3
 72
8
 73
4
 74
0
 42
0.0000001
 43
0.0000001
 44
0.0000000001
 40
0.0
 40
0.0
 40
0.0
 40
0.0
 40
1.0
 40
1.0
 40
1.0
 40
1.0
 10
119.5655109493
 20
71.5269696803
 30
0.0
 10
119.5432872782
 20
71.6039004511
 30
0.0
 10
119.5314091353
 20
71.684689761
 30
0.0
 10
119.5314091354
 20
71.7647661936
 30
0.0
  0
SPLINE
  5
68B
100
AcDbEntity
  8
7_ALL_ROUNDS
100
AcDbSpline
 62
7
  6
CONTINUOUS
 70
0
 71
3
 72
9
 73
5
 74
0
 42
0.0000001
 43
0.0000001
 44
0.0000000001
 40
0.0
 40
0.0
 40
0.0
 40
0.0
 40
0.2378354616
 40
1.0
 40
1.0
 40
1.0
 40
1.0
 10
119.7471114347
 20
71.1778105355
 30
0.0
 10
119.7471114347
 20
71.2016200342
 30
0.0
 10
119.7678575538
 20
71.3007528324
 30
0.0
 10
119.8442873628
 20
71.3869465086
 30
0.0
 10
119.9143288278
 20
71.4172091153
 30
0.0
  0
SPLINE
  5
68C
100
AcDbEntity
  8
3_ALL_AXES
100
AcDbSpline
 62
7
  6
CONTINUOUS
 70
0
 71
3
 72
8
 73
4
 74
0
 42
0.0000001
 43
0.0000001
 44
0.0000000001
 40
0.0
 40
0.0
 40
0.0
 40
0.0
 40
1.0
 40
1.0
 40
1.0
 40
1.0
 10
123.9895370411
 20
69.557032031
 30
0.0
 10
124.0025793116
 20
69.5495001007
 30
0.0
 10
124.021677479
 20
69.5495001007
 30
0.0
 10
124.0347197495
 20
69.557032031
 30
0.0
  0
LINE
  5
68D
100
AcDbEntity
  8
3_ALL_AXES
100
AcDbLine
 62
7
  6
CONTINUOUS
 10
122.6505333058
 20
61.1500465319
 11
122.6476331544
 21
61.1483698753
  0
SPLINE
  5
68E
100
AcDbEntity
  8
3_ALL_AXES
100
AcDbSpline
 62
7
  6
CONTINUOUS
 70
0
 71
3
 72
11
 73
7
 74
0
 42
0.0000001
 43
0.0000001
 44
0.0000000001
 40
0.0
 40
0.0
 40
0.0
 40
0.0
 40
0.2227069537
 40
0.4580799126
 40
0.7155249957
 40
1.0
 40
1.0
 40
1.0
 40
1.0
 10
122.6476331544
 20
61.1483698753
 30
0.0
 10
122.5139618819
 20
61.0708954303
 30
0.0
 10
122.2624081073
 20
60.867622046
 30
0.0
 10
121.9784282777
 20
60.4535809568
 30
0.0
 10
121.7884757183
 20
59.9442940177
 30
0.0
 10
121.7291768061
 20
59.5706806768
 30
0.0
 10
121.7134366565
 20
59.3739584044
 30
0.0
  0
SPLINE
  5
68F
100
AcDbEntity
  8
3_ALL_AXES
100
AcDbSpline
 62
7
  6
CONTINUOUS
 70
0
 71
3
 72
9
 73
5
 74
0
 42
0.0000001
 43
0.0000001
 44
0.0000000001
 40
0.0
 40
0.0
 40
0.0
 40
0.0
 40
0.2439784438
 40
1.0
 40
1.0
 40
1.0
 40
1.0
 10
121.7092922377
 20
59.316733338
 30
0.0
 10
121.7067845869
 20
59.2780987332
 30
0.0
 10
121.6988833058
 20
59.1195965378
 30
0.0
 10
121.7002666251
 20
58.9606671117
 30
0.0
 10
121.7059013197
 20
58.8408296646
 30
0.0
  0
SPLINE
  5
690
100
AcDbEntity
  8
3_ALL_AXES
100
AcDbSpline
 62
7
  6
CONTINUOUS
 70
0
 71
3
 72
9
 73
5
 74
0
 42
0.0000001
 43
0.0000001
 44
0.0000000001
 40
0.0
 40
0.0
 40
0.0
 40
0.0
 40
0.256867332
 40
1.0
 40
1.0
 40
1.0
 40
1.0
 10
124.3762572924
 20
53.8225210473
 30
0.0
 10
124.4189665561
 20
53.7891189636
 30
0.0
 10
124.5871561946
 20
53.6615717856
 30
0.0
 10
124.7631111196
 20
53.5441430455
 30
0.0
 10
124.8980210494
 20
53.4641138148
 30
0.0
  0
SPLINE
  5
691
100
AcDbEntity
  8
7_ALL_ROUNDS
100
AcDbSpline
 62
7
  6
CONTINUOUS
 70
0
 71
3
 72
9
 73
5
 74
0
 42
0.0000001
 43
0.0000001
 44
0.0000000001
 40
0.0
 40
0.0
 40
0.0
 40
0.0
 40
0.5004191123
 40
1.0
 40
1.0
 40
1.0
 40
1.0
 10
119.9184894316
 20
72.4506275546
 30
0.0
 10
119.8101541564
 20
72.3035333965
 30
0.0
 10
119.6616353941
 20
71.9348148338
 30
0.0
 10
119.8070846843
 20
71.5647225289
 30
0.0
 10
119.9143288278
 20
71.4172091153
 30
0.0
  0
SPLINE
  5
692
100
AcDbEntity
  8
3_ALL_AXES
100
AcDbSpline
 62
7
  6
CONTINUOUS
 70
0
 71
3
 72
9
 73
5
 74
0
 42
0.0000001
 43
0.0000001
 44
0.0000000001
 40
0.0
 40
0.0
 40
0.0
 40
0.0
 40
0.233550677
 40
1.0
 40
1.0
 40
1.0
 40
1.0
 10
123.163365526
 20
70.6705481378
 30
0.0
 10
123.1445751449
 20
70.6808457852
 30
0.0
 10
123.0584272895
 20
70.7138140266
 30
0.0
 10
122.9601835563
 20
70.7130594179
 30
0.0
 10
122.8927255134
 20
70.6932097746
 30
0.0
  0
SPLINE
  5
693
100
AcDbEntity
  8
7_ALL_ROUNDS
100
AcDbSpline
 62
7
  6
CONTINUOUS
 70
0
 71
3
 72
9
 73
5
 74
0
 42
0.0000001
 43
0.0000001
 44
0.0000000001
 40
0.0
 40
0.0
 40
0.0
 40
0.0
 40
0.2545412399
 40
1.0
 40
1.0
 40
1.0
 40
1.0
 10
121.7693985507
 20
70.1743537388
 30
0.0
 10
122.0605410832
 20
70.0217505916
 30
0.0
 10
123.1983339295
 20
69.4108835103
 30
0.0
 10
124.3115587349
 20
68.7539928478
 30
0.0
 10
125.1237642145
 20
68.2372026633
 30
0.0
  0
SPLINE
  5
694
100
AcDbEntity
  8
7_ALL_ROUNDS
100
AcDbSpline
 62
7
  6
CONTINUOUS
 70
0
 71
3
 72
9
 73
5
 74
0
 42
0.0000001
 43
0.0000001
 44
0.0000000001
 40
0.0
 40
0.0
 40
0.0
 40
0.0
 40
0.2543864177
 40
1.0
 40
1.0
 40
1.0
 40
1.0
 10
121.9634695551
 20
70.3977687006
 30
0.0
 10
122.2459828986
 20
70.2492211042
 30
0.0
 10
123.3508875041
 20
69.6545986716
 30
0.0
 10
124.4326194259
 20
69.0166859892
 30
0.0
 10
125.2226483302
 20
68.5155881924
 30
0.0
  0
SPLINE
  5
695
100
AcDbEntity
  8
7_ALL_ROUNDS
100
AcDbSpline
 62
7
  6
CONTINUOUS
 70
0
 71
3
 72
9
 73
5
 74
0
 42
0.0000001
 43
0.0000001
 44
0.0000000001
 40
0.0
 40
0.0
 40
0.0
 40
0.0
 40
0.3026126613
 40
1.0
 40
1.0
 40
1.0
 40
1.0
 10
120.3292935939
 20
72.687867559
 30
0.0
 10
120.3229369473
 20
72.6929202194
 30
0.0
 10
120.3013265237
 20
72.7081501666
 30
0.0
 10
120.2718870836
 20
72.7169951734
 30
0.0
 10
120.2539306614
 20
72.7117270759
 30
0.0
  0
SPLINE
  5
696
100
AcDbEntity
  8
7_ALL_ROUNDS
100
AcDbSpline
 62
7
  6
CONTINUOUS
 70
0
 71
3
 72
9
 73
5
 74
0
 42
0.0000001
 43
0.0000001
 44
0.0000000001
 40
0.0
 40
0.0
 40
0.0
 40
0.0
 40
0.3215046352
 40
1.0
 40
1.0
 40
1.0
 40
1.0
 10
128.5672220694
 20
75.1118919523
 30
0.0
 10
128.5627631042
 20
75.11694579
 30
0.0
 10
128.5485088041
 20
75.1315795675
 30
0.0
 10
128.5272186334
 20
75.1440711736
 30
0.0
 10
128.5131785011
 20
75.1417958275
 30
0.0
  0
SPLINE
  5
697
100
AcDbEntity
  8
7_ALL_ROUNDS
100
AcDbSpline
 62
7
  6
CONTINUOUS
 70
0
 71
3
 72
9
 73
5
 74
0
 42
0.0000001
 43
0.0000001
 44
0.0000000001
 40
0.0
 40
0.0
 40
0.0
 40
0.0
 40
0.295379316
 40
1.0
 40
1.0
 40
1.0
 40
1.0
 10
128.8313480058
 20
75.0877330803
 30
0.0
 10
128.8402835991
 20
75.0928933985
 30
0.0
 10
128.8712761309
 20
75.1081570328
 30
0.0
 10
128.9119041257
 20
75.1101345648
 30
0.0
 10
128.9332198075
 20
75.0978247874
 30
0.0
  0
LINE
  5
698
100
AcDbEntity
  8
3_ALL_AXES
100
AcDbLine
 62
7
  6
CONTINUOUS
 10
123.4395782048
 20
51.6829465017
 11
123.4735950327
 21
51.6634707467
  0
LINE
  5
699
100
AcDbEntity
  8
3_ALL_AXES
100
AcDbLine
 62
7
  6
CONTINUOUS
 10
123.4735950327
 20
51.6634707467
 11
123.5531767603
 21
51.6177590293
  0
LINE
  5
69A
100
AcDbEntity
  8
3_ALL_AXES
100
AcDbLine
 62
7
  6
CONTINUOUS
 10
123.783532923
 20
51.4842576139
 11
123.814702387
 21
51.4660569355
  0
LINE
  5
69B
100
AcDbEntity
  8
3_ALL_AXES
100
AcDbLine
 62
7
  6
CONTINUOUS
 10
124.1028932628
 20
51.2962073104
 11
124.1875006765
 21
51.2457990945
  0
LINE
  5
69C
100
AcDbEntity
  8
3_ALL_AXES
100
AcDbLine
 62
7
  6
CONTINUOUS
 10
124.1875006765
 20
51.2457990945
 11
124.2486921018
 21
51.2091861311
  0
LINE
  5
69D
100
AcDbEntity
  8
3_ALL_AXES
100
AcDbLine
 62
7
  6
CONTINUOUS
 10
124.3890905252
 20
51.1246824593
 11
124.4042102202
 21
51.115540464
  0
LINE
  5
69E
100
AcDbEntity
  8
3_ALL_AXES
100
AcDbLine
 62
7
  6
CONTINUOUS
 10
124.4042102202
 20
51.115540464
 11
124.4949868423
 21
51.0604814533
  0
LINE
  5
69F
100
AcDbEntity
  8
3_ALL_AXES
100
AcDbLine
 62
7
  6
CONTINUOUS
 10
124.4949868423
 20
51.0604814533
 11
124.5004467144
 21
51.0571604438
  0
LINE
  5
6A0
100
AcDbEntity
  8
3_ALL_AXES
100
AcDbLine
 62
7
  6
CONTINUOUS
 10
124.5004467144
 20
51.0571604438
 11
124.5061835472
 21
51.053669816
  0
LINE
  5
6A1
100
AcDbEntity
  8
3_ALL_AXES
100
AcDbLine
 62
7
  6
CONTINUOUS
 10
124.6816179959
 20
50.9463503336
 11
124.714400986
 21
50.9261715335
  0
SPLINE
  5
6A2
100
AcDbEntity
  8
7_ALL_ROUNDS
100
AcDbSpline
 62
7
  6
CONTINUOUS
 70
0
 71
3
 72
9
 73
5
 74
0
 42
0.0000001
 43
0.0000001
 44
0.0000000001
 40
0.0
 40
0.0
 40
0.0
 40
0.0
 40
0.2953793212
 40
1.0
 40
1.0
 40
1.0
 40
1.0
 10
133.3437782093
 20
72.4817980398
 30
0.0
 10
133.3527138029
 20
72.4869583582
 30
0.0
 10
133.3837063357
 20
72.5022219923
 30
0.0
 10
133.4243343319
 20
72.5041995241
 30
0.0
 10
133.4456500135
 20
72.4918897455
 30
0.0
  0
SPLINE
  5
6A3
100
AcDbEntity
  8
7_ALL_ROUNDS
100
AcDbSpline
 62
7
  6
CONTINUOUS
 70
0
 71
3
 72
9
 73
5
 74
0
 42
0.0000001
 43
0.0000001
 44
0.0000000001
 40
0.0
 40
0.0
 40
0.0
 40
0.0
 40
0.2611932956
 40
1.0
 40
1.0
 40
1.0
 40
1.0
 10
133.3856116479
 20
72.3292649253
 30
0.0
 10
133.4102192955
 20
72.3220240834
 30
0.0
 10
133.4987220276
 20
72.2797484368
 30
0.0
 10
133.5671213197
 20
72.1821016937
 30
0.0
 10
133.5671213197
 20
72.1095461558
 30
0.0
  0
SPLINE
  5
6A4
100
AcDbEntity
  8
7_ALL_ROUNDS
100
AcDbSpline
 62
7
  6
CONTINUOUS
 70
0
 71
3
 72
9
 73
5
 74
0
 42
0.0000001
 43
0.0000001
 44
0.0000000001
 40
0.0
 40
0.0
 40
0.0
 40
0.0
 40
0.7629568117
 40
1.0
 40
1.0
 40
1.0
 40
1.0
 10
129.1881774385
 20
67.5718491854
 30
0.0
 10
129.2579905336
 20
67.5425570507
 30
0.0
 10
129.3345935266
 20
67.4573440917
 30
0.0
 10
129.3550391166
 20
67.3590503614
 30
0.0
 10
129.3550391166
 20
67.3355282269
 30
0.0
  0
LINE
  5
6A5
100
AcDbEntity
  8
3_ALL_AXES
100
AcDbLine
 62
7
  6
CONTINUOUS
 10
122.9511343811
 20
51.8221284758
 11
122.9628585215
 21
51.8155602217
  0
LINE
  5
6A6
100
AcDbEntity
  8
3_ALL_AXES
100
AcDbLine
 62
7
  6
CONTINUOUS
 10
122.9628585215
 20
51.8155602217
 11
122.9972271228
 21
51.7962805334
  0
LINE
  5
6A7
100
AcDbEntity
  8
3_ALL_AXES
100
AcDbLine
 62
7
  6
CONTINUOUS
 10
123.3811849878
 20
51.5783008828
 11
123.4151392392
 21
51.5587925534
  0
LINE
  5
6A8
100
AcDbEntity
  8
3_ALL_AXES
100
AcDbLine
 62
7
  6
CONTINUOUS
 10
123.57958556
 20
51.463768143
 11
123.5952430092
 21
51.4546734183
  0
LINE
  5
6A9
100
AcDbEntity
  8
3_ALL_AXES
100
AcDbLine
 62
7
  6
CONTINUOUS
 10
123.7400512372
 20
51.3701684799
 11
123.7528564569
 21
51.3626615717
  0
LINE
  5
6AA
100
AcDbEntity
  8
3_ALL_AXES
100
AcDbLine
 62
7
  6
CONTINUOUS
 10
124.1251288905
 20
51.1419512169
 11
124.1377901931
 21
51.1343596898
  0
LINE
  5
6AB
100
AcDbEntity
  8
3_ALL_AXES
100
AcDbLine
 62
7
  6
CONTINUOUS
 10
124.1377901931
 20
51.1343596898
 11
124.1821903851
 21
51.1076932505
  0
LINE
  5
6AC
100
AcDbEntity
  8
3_ALL_AXES
100
AcDbLine
 62
7
  6
CONTINUOUS
 10
124.1821903851
 20
51.1076932505
 11
124.1862324827
 21
51.1052621304
  0
LINE
  5
6AD
100
AcDbEntity
  8
3_ALL_AXES
100
AcDbLine
 62
7
  6
CONTINUOUS
 10
124.1862324827
 20
51.1052621304
 11
124.2726877048
 21
51.0531246002
  0
LINE
  5
6AE
100
AcDbEntity
  8
3_ALL_AXES
100
AcDbLine
 62
7
  6
CONTINUOUS
 10
124.2726877048
 20
51.0531246002
 11
124.2834345648
 21
51.0466249982
  0
LINE
  5
6AF
100
AcDbEntity
  8
3_ALL_AXES
100
AcDbLine
 62
7
  6
CONTINUOUS
 10
124.2834345648
 20
51.0466249982
 11
124.3414984141
 21
51.011436957
  0
LINE
  5
6B0
100
AcDbEntity
  8
3_ALL_AXES
100
AcDbLine
 62
7
  6
CONTINUOUS
 10
124.3414984141
 20
51.011436957
 11
124.4321517204
 21
50.9562562848
  0
LINE
  5
6B1
100
AcDbEntity
  8
3_ALL_AXES
100
AcDbLine
 62
7
  6
CONTINUOUS
 10
124.4321517204
 20
50.9562562848
 11
124.4375868299
 21
50.9529384878
  0
SPLINE
  5
6B2
100
AcDbEntity
  8
7_ALL_ROUNDS
100
AcDbSpline
 62
7
  6
CONTINUOUS
 70
0
 71
3
 72
9
 73
5
 74
0
 42
0.0000001
 43
0.0000001
 44
0.0000000001
 40
0.0
 40
0.0
 40
0.0
 40
0.0
 40
0.5000000002
 40
1.0
 40
1.0
 40
1.0
 40
1.0
 10
128.8940890629
 20
67.0693288969
 30
0.0
 10
128.5634823975
 20
66.9844629199
 30
0.0
 10
127.8777182022
 20
66.9050580873
 30
0.0
 10
127.1919540069
 20
66.9844629199
 30
0.0
 10
126.8613473417
 20
67.0693288969
 30
0.0
  0
SPLINE
  5
6B3
100
AcDbEntity
  8
7_ALL_ROUNDS
100
AcDbSpline
 62
7
  6
CONTINUOUS
 70
0
 71
3
 72
9
 73
5
 74
0
 42
0.0000001
 43
0.0000001
 44
0.0000000001
 40
0.0
 40
0.0
 40
0.0
 40
0.0
 40
0.513257804
 40
1.0
 40
1.0
 40
1.0
 40
1.0
 10
128.8940890629
 20
67.0693288969
 30
0.0
 10
128.8940890629
 20
67.1198050904
 30
0.0
 10
128.8669999663
 20
67.2169414353
 30
0.0
 10
128.8137470751
 20
67.303490982
 30
0.0
 10
128.7773732762
 20
67.334609181
 30
0.0
  0
SPLINE
  5
6B4
100
AcDbEntity
  8
7_ALL_ROUNDS
100
AcDbSpline
 62
7
  6
CONTINUOUS
 70
0
 71
3
 72
9
 73
5
 74
0
 42
0.0000001
 43
0.0000001
 44
0.0000000001
 40
0.0
 40
0.0
 40
0.0
 40
0.0
 40
0.5001548746
 40
1.0
 40
1.0
 40
1.0
 40
1.0
 10
126.9879086481
 20
67.3322064262
 30
0.0
 10
127.2798225963
 20
67.2614276425
 30
0.0
 10
127.8829137236
 20
67.1952173909
 30
0.0
 10
128.4858527064
 20
67.2630031097
 30
0.0
 10
128.7773732762
 20
67.334609181
 30
0.0
  0
SPLINE
  5
6B5
100
AcDbEntity
  8
7_ALL_ROUNDS
100
AcDbSpline
 62
7
  6
CONTINUOUS
 70
0
 71
3
 72
9
 73
5
 74
0
 42
0.0000001
 43
0.0000001
 44
0.0000000001
 40
0.0
 40
0.0
 40
0.0
 40
0.0
 40
0.5105713565
 40
1.0
 40
1.0
 40
1.0
 40
1.0
 10
126.8613473417
 20
67.0693288969
 30
0.0
 10
126.8613473417
 20
67.1200017685
 30
0.0
 10
126.891266209
 20
67.2179636601
 30
0.0
 10
126.9494567817
 20
67.302525839
 30
0.0
 10
126.9879086481
 20
67.3322064262
 30
0.0
  0
SPLINE
  5
6B6
100
AcDbEntity
  8
7_ALL_ROUNDS
100
AcDbSpline
 62
7
  6
CONTINUOUS
 70
0
 71
3
 72
9
 73
5
 74
0
 42
0.0000001
 43
0.0000001
 44
0.0000000001
 40
0.0
 40
0.0
 40
0.0
 40
0.0
 40
0.2716811642
 40
1.0
 40
1.0
 40
1.0
 40
1.0
 10
133.5671213205
 20
72.1095461567
 30
0.0
 10
133.5745452085
 20
72.1179604687
 30
0.0
 10
133.5997516507
 20
72.150612202
 30
0.0
 10
133.6141202361
 20
72.1925147647
 30
0.0
 10
133.6141193689
 20
72.2225963231
 30
0.0
  0
SPLINE
  5
6B7
100
AcDbEntity
  8
3_ALL_AXES
100
AcDbSpline
 62
7
  6
CONTINUOUS
 70
0
 71
3
 72
8
 73
4
 74
0
 42
0.0000001
 43
0.0000001
 44
0.0000000001
 40
0.0
 40
0.0
 40
0.0
 40
0.0
 40
1.0
 40
1.0
 40
1.0
 40
1.0
 10
123.6168397165
 20
69.7722652809
 30
0.0
 10
123.603797446
 20
69.7797972112
 30
0.0
 10
123.5846992786
 20
69.7797972112
 30
0.0
 10
123.5716570081
 20
69.7722652809
 30
0.0
  0
SPLINE
  5
6B8
100
AcDbEntity
  8
3_ALL_AXES
100
AcDbSpline
 62
7
  6
CONTINUOUS
 70
0
 71
3
 72
8
 73
4
 74
0
 42
0.0000001
 43
0.0000001
 44
0.0000000001
 40
0.0
 40
0.0
 40
0.0
 40
0.0
 40
1.0
 40
1.0
 40
1.0
 40
1.0
 10
123.5490800586
 20
69.7592270596
 30
0.0
 10
123.5444448599
 20
69.7565502255
 30
0.0
 10
123.5397183088
 20
69.7515331364
 30
0.0
 10
123.5397183088
 20
69.7461805195
 30
0.0
  0
LINE
  5
6B9
100
AcDbEntity
  8
3_ALL_AXES
100
AcDbLine
 62
7
  6
CONTINUOUS
 10
122.7574642804
 20
60.9647948352
 11
122.7545637897
 21
60.9631177728
  0
SPLINE
  5
6BA
100
AcDbEntity
  8
3_ALL_AXES
100
AcDbSpline
 62
7
  6
CONTINUOUS
 70
0
 71
3
 72
11
 73
7
 74
0
 42
0.0000001
 43
0.0000001
 44
0.0000000001
 40
0.0
 40
0.0
 40
0.0
 40
0.0
 40
0.2226012583
 40
0.4579274604
 40
0.7154101385
 40
1.0
 40
1.0
 40
1.0
 40
1.0
 10
122.7545637897
 20
60.9631177728
 30
0.0
 10
122.6268036351
 20
60.8890509195
 30
0.0
 10
122.3864063102
 20
60.6945829144
 30
0.0
 10
122.1153449661
 20
60.2983599896
 30
0.0
 10
121.9344282137
 20
59.8109744216
 30
0.0
 10
121.8783249965
 20
59.4534896853
 30
0.0
 10
121.8635986582
 20
59.2652634589
 30
0.0
  0
SPLINE
  5
6BB
100
AcDbEntity
  8
3_ALL_AXES
100
AcDbSpline
 62
7
  6
CONTINUOUS
 70
0
 71
3
 72
9
 73
5
 74
0
 42
0.0000001
 43
0.0000001
 44
0.0000000001
 40
0.0
 40
0.0
 40
0.0
 40
0.0
 40
0.2438491291
 40
1.0
 40
1.0
 40
1.0
 40
1.0
 10
121.8605859417
 20
59.2236858389
 30
0.0
 10
121.8580790345
 20
59.1861150218
 30
0.0
 10
121.8501650968
 20
59.031887711
 30
0.0
 10
121.8514899349
 20
58.8772232458
 30
0.0
 10
121.857045722
 20
58.7605932293
 30
0.0
  0
SPLINE
  5
6BC
100
AcDbEntity
  8
3_ALL_AXES
100
AcDbSpline
 62
7
  6
CONTINUOUS
 70
0
 71
3
 72
9
 73
5
 74
0
 42
0.0000001
 43
0.0000001
 44
0.0000000001
 40
0.0
 40
0.0
 40
0.0
 40
0.0
 40
0.2568449988
 40
1.0
 40
1.0
 40
1.0
 40
1.0
 10
124.4018568822
 20
53.97984516
 30
0.0
 10
124.4424709264
 20
53.9480689809
 30
0.0
 10
124.6024194545
 20
53.8267125778
 30
0.0
 10
124.769736124
 20
53.7149532635
 30
0.0
 10
124.8980189022
 20
53.6387566606
 30
0.0
  0
SPLINE
  5
6BD
100
AcDbEntity
  8
3_ALL_AXES
100
AcDbSpline
 62
7
  6
CONTINUOUS
 70
0
 71
3
 72
8
 73
4
 74
0
 42
0.0000001
 43
0.0000001
 44
0.0000000001
 40
0.0
 40
0.0
 40
0.0
 40
0.0
 40
1.0
 40
1.0
 40
1.0
 40
1.0
 10
125.7039816982
 20
69.0611364552
 30
0.0
 10
125.7166922412
 20
69.0755427172
 30
0.0
 10
125.7261051112
 20
69.0951468121
 30
0.0
 10
125.7261012084
 20
69.1143587426
 30
0.0
  0
SPLINE
  5
6BE
100
AcDbEntity
  8
0
100
AcDbSpline
 62
7
  6
CONTINUOUS
 70
0
 71
3
 72
9
 73
5
 74
0
 42
0.0000001
 43
0.0000001
 44
0.0000000001
 40
0.0
 40
0.0
 40
0.0
 40
0.0
 40
0.5
 40
1.0
 40
1.0
 40
1.0
 40
1.0
 10
126.8613473417
 20
49.3573948013
 30
0.0
 10
127.1919542255
 20
49.2725287682
 30
0.0
 10
127.8777182023
 20
49.1931129243
 30
0.0
 10
128.5634821791
 20
49.2725287682
 30
0.0
 10
128.8940890629
 20
49.3573948013
 30
0.0
  0
SPLINE
  5
6BF
100
AcDbEntity
  8
3_ALL_AXES
100
AcDbSpline
 62
7
  6
CONTINUOUS
 70
0
 71
3
 72
15
 73
11
 74
0
 42
0.0000001
 43
0.0000001
 44
0.0000000001
 40
0.0
 40
0.0
 40
0.0
 40
0.0
 40
0.0869213665
 40
0.1863736849
 40
0.3037514062
 40
0.4375613326
 40
0.582069033
 40
0.7293969859
 40
0.8711589466
 40
1.0
 40
1.0
 40
1.0
 40
1.0
 10
122.8644328533
 20
60.7795648195
 30
0.0
 10
122.6568110591
 20
60.6598446001
 30
0.0
 10
122.2798315625
 20
60.2754336026
 30
0.0
 10
122.0055489413
 20
59.464527362
 30
0.0
 10
121.9823640683
 20
58.4876823679
 30
0.0
 10
122.2017674151
 20
57.4114189448
 30
0.0
 10
122.6436471667
 20
56.3179455438
 30
0.0
 10
123.272790908
 20
55.2945655569
 30
0.0
 10
124.0371261201
 20
54.4249439239
 30
0.0
 10
124.6342872194
 20
53.9653250886
 30
0.0
 10
124.9419225087
 20
53.7876652591
 30
0.0
  0
LINE
  5
6C0
100
AcDbEntity
  8
7_ALL_ROUNDS
100
AcDbLine
 62
7
  6
CONTINUOUS
 10
119.8307243104
 20
53.1770662216
 11
119.7471114347
 21
53.2164125794
  0
LINE
  5
6C1
100
AcDbEntity
  8
7_ALL_ROUNDS
100
AcDbLine
 62
7
  6
CONTINUOUS
 10
125.2063819572
 20
50.2231039086
 11
125.148162562
 21
50.260268968
  0
SPLINE
  5
6C2
100
AcDbEntity
  8
7_ALL_ROUNDS
100
AcDbSpline
 62
7
  6
CONTINUOUS
 70
0
 71
3
 72
9
 73
5
 74
0
 42
0.0000001
 43
0.0000001
 44
0.0000000001
 40
0.0
 40
0.0
 40
0.0
 40
0.0
 40
0.2455864019
 40
1.0
 40
1.0
 40
1.0
 40
1.0
 10
125.1237642145
 20
50.2758047072
 30
0.0
 10
124.8632483153
 20
50.4415657898
 30
0.0
 10
123.7951922004
 20
51.1050654229
 30
0.0
 10
122.6991442898
 20
51.723296349
 30
0.0
 10
121.8599290312
 20
52.1653848353
 30
0.0
  0
LINE
  5
6C3
100
AcDbEntity
  8
7_ALL_ROUNDS
100
AcDbLine
 62
7
  6
CONTINUOUS
 10
121.8599290312
 20
52.1653848353
 11
121.7693985507
 21
52.2129557827
  0
SPLINE
  5
6C4
100
AcDbEntity
  8
7_ALL_ROUNDS
100
AcDbSpline
 62
7
  6
CONTINUOUS
 70
0
 71
3
 72
8
 73
4
 74
0
 42
0.0000001
 43
0.0000001
 44
0.0000000001
 40
0.0
 40
0.0
 40
0.0
 40
0.0
 40
1.0
 40
1.0
 40
1.0
 40
1.0
 10
125.2226483302
 20
68.5155881924
 30
0.0
 10
125.2108044097
 20
68.5021641693
 30
0.0
 10
125.2006217826
 20
68.4872400649
 30
0.0
 10
125.1915095982
 20
68.4718306215
 30
0.0
  0
SPLINE
  5
6C5
100
AcDbEntity
  8
7_ALL_ROUNDS
100
AcDbSpline
 62
7
  6
CONTINUOUS
 70
0
 71
3
 72
9
 73
5
 74
0
 42
0.0000001
 43
0.0000001
 44
0.0000000001
 40
0.0
 40
0.0
 40
0.0
 40
0.0
 40
0.2422671604
 40
1.0
 40
1.0
 40
1.0
 40
1.0
 10
125.1915095982
 20
68.4718306215
 30
0.0
 10
125.1814169302
 20
68.4547631007
 30
0.0
 10
125.1454630778
 20
68.3813027641
 30
0.0
 10
125.1237642145
 20
68.299219191
 30
0.0
 10
125.1237642145
 20
68.2372026633
 30
0.0
  0
SPLINE
  5
6C6
100
AcDbEntity
  8
7_ALL_ROUNDS
100
AcDbSpline
 62
7
  6
CONTINUOUS
 70
0
 71
3
 72
9
 73
5
 74
0
 42
0.0000001
 43
0.0000001
 44
0.0000000001
 40
0.0
 40
0.0
 40
0.0
 40
0.0
 40
0.1981651099
 40
1.0
 40
1.0
 40
1.0
 40
1.0
 10
128.8597950196
 20
49.0192577497
 30
0.0
 10
128.8653850678
 20
49.0224870425
 30
0.0
 10
128.8898417651
 20
49.0454337937
 30
0.0
 10
128.8940890629
 20
49.0818089764
 30
0.0
 10
128.8940890629
 20
49.1079309408
 30
0.0
  0
SPLINE
  5
6C7
100
AcDbEntity
  8
7_ALL_ROUNDS
100
AcDbSpline
 62
7
  6
CONTINUOUS
 70
0
 71
3
 72
8
 73
4
 74
0
 42
0.0000001
 43
0.0000001
 44
0.0000000001
 40
0.0
 40
0.0
 40
0.0
 40
0.0
 40
1.0
 40
1.0
 40
1.0
 40
1.0
 10
121.9366222403
 20
70.4118747686
 30
0.0
 10
121.8560995528
 20
70.3881808316
 30
0.0
 10
121.7779649094
 20
70.3208268162
 30
0.0
 10
121.7515077071
 20
70.2411692849
 30
0.0
  0
SPLINE
  5
6C8
100
AcDbEntity
  8
7_ALL_ROUNDS
100
AcDbSpline
 62
7
  6
CONTINUOUS
 70
0
 71
3
 72
8
 73
4
 74
0
 42
0.0000001
 43
0.0000001
 44
0.0000000001
 40
0.0
 40
0.0
 40
0.0
 40
0.0
 40
1.0
 40
1.0
 40
1.0
 40
1.0
 10
121.7515077071
 20
70.2411692849
 30
0.0
 10
121.7458876012
 20
70.2242482301
 30
0.0
 10
121.7424969058
 20
70.2062737861
 30
0.0
 10
121.7424969058
 20
70.1884438202
 30
0.0
  0
SPLINE
  5
6C9
100
AcDbEntity
  8
3_ALL_AXES
100
AcDbSpline
 62
7
  6
CONTINUOUS
 70
0
 71
3
 72
16
 73
12
 74
0
 42
0.0000001
 43
0.0000001
 44
0.0000000001
 40
0.0
 40
0.0
 40
0.0
 40
0.0
 40
0.1287473048
 40
0.2704094502
 40
0.4176336425
 40
0.5620437106
 40
0.695770186
 40
0.8130812398
 40
0.9124811765
 40
0.9571258241
 40
1.0
 40
1.0
 40
1.0
 40
1.0
 10
124.4406393253
 20
52.5391235352
 30
0.0
 10
124.0461147905
 20
52.7669620309
 30
0.0
 10
123.2802732721
 20
53.3563861144
 30
0.0
 10
122.2999692322
 20
54.4715861803
 30
0.0
 10
121.4930884682
 20
55.7840350025
 30
0.0
 10
120.9260134047
 20
57.1862735219
 30
0.0
 10
120.645140238
 20
58.566945909
 30
0.0
 10
120.6723721211
 20
59.8188562132
 30
0.0
 10
120.9806447713
 20
60.7170010638
 30
0.0
 10
121.3944490408
 20
61.2403826685
 30
0.0
 10
121.6434911672
 20
61.4310501898
 30
0.0
 10
121.7748720763
 20
61.5069224327
 30
0.0
  0
SPLINE
  5
6CA
100
AcDbEntity
  8
7_ALL_ROUNDS
100
AcDbSpline
 62
7
  6
CONTINUOUS
 70
0
 71
3
 72
8
 73
4
 74
0
 42
0.0000001
 43
0.0000001
 44
0.0000000001
 40
0.0
 40
0.0
 40
0.0
 40
0.0
 40
1.0
 40
1.0
 40
1.0
 40
1.0
 10
125.1237642145
 20
50.2758047072
 30
0.0
 10
125.1237642145
 20
50.2693556522
 30
0.0
 10
125.1239894044
 20
50.262900333
 30
0.0
 10
125.1245003813
 20
50.2564715529
 30
0.0
  0
SPLINE
  5
6CB
100
AcDbEntity
  8
7_ALL_ROUNDS
100
AcDbSpline
 62
7
  6
CONTINUOUS
 70
0
 71
3
 72
8
 73
4
 74
0
 42
0.0000001
 43
0.0000001
 44
0.0000000001
 40
0.0
 40
0.0
 40
0.0
 40
0.0
 40
1.0
 40
1.0
 40
1.0
 40
1.0
 10
125.1245003813
 20
50.2564715529
 30
0.0
 10
125.1251819796
 20
50.2478961247
 30
0.0
 10
125.1263580517
 20
50.2393215892
 30
0.0
 10
125.1283494328
 20
50.2309527812
 30
0.0
  0
SPLINE
  5
6CC
100
AcDbEntity
  8
7_ALL_ROUNDS
100
AcDbSpline
 62
7
  6
CONTINUOUS
 70
0
 71
3
 72
8
 73
4
 74
0
 42
0.0000001
 43
0.0000001
 44
0.0000000001
 40
0.0
 40
0.0
 40
0.0
 40
0.0
 40
1.0
 40
1.0
 40
1.0
 40
1.0
 10
125.1283494328
 20
50.2309527812
 30
0.0
 10
125.1309523362
 20
50.2200140415
 30
0.0
 10
125.1349900831
 20
50.2088660287
 30
0.0
 10
125.1420865669
 20
50.2001441567
 30
0.0
  0
SPLINE
  5
6CD
100
AcDbEntity
  8
7_ALL_ROUNDS
100
AcDbSpline
 62
7
  6
CONTINUOUS
 70
0
 71
3
 72
9
 73
5
 74
0
 42
0.0000001
 43
0.0000001
 44
0.0000000001
 40
0.0
 40
0.0
 40
0.0
 40
0.0
 40
0.5161704478
 40
1.0
 40
1.0
 40
1.0
 40
1.0
 10
125.1420865669
 20
50.2001441567
 30
0.0
 10
125.1433946927
 20
50.1985364161
 30
0.0
 10
125.1461476333
 20
50.1955899246
 30
0.0
 10
125.1493452873
 20
50.1931241841
 30
0.0
 10
125.1509852004
 20
50.1920824381
 30
0.0
  0
SPLINE
  5
6CE
100
AcDbEntity
  8
7_ALL_ROUNDS
100
AcDbSpline
 62
7
  6
CONTINUOUS
 70
0
 71
3
 72
8
 73
4
 74
0
 42
0.0000001
 43
0.0000001
 44
0.0000000001
 40
0.0
 40
0.0
 40
0.0
 40
0.0
 40
1.0
 40
1.0
 40
1.0
 40
1.0
 10
121.7438922813
 20
52.2076402484
 30
0.0
 10
121.7452957294
 20
52.1980744025
 30
0.0
 10
121.7478096049
 20
52.1885876919
 30
0.0
 10
121.7514966319
 20
52.17965008
 30
0.0
  0
SPLINE
  5
6CF
100
AcDbEntity
  8
7_ALL_ROUNDS
100
AcDbSpline
 62
7
  6
CONTINUOUS
 70
0
 71
3
 72
8
 73
4
 74
0
 42
0.0000001
 43
0.0000001
 44
0.0000000001
 40
0.0
 40
0.0
 40
0.0
 40
0.0
 40
1.0
 40
1.0
 40
1.0
 40
1.0
 10
121.7514966319
 20
52.17965008
 30
0.0
 10
121.7574657364
 20
52.1651805523
 30
0.0
 10
121.7668808679
 20
52.151737119
 30
0.0
 10
121.7784617766
 20
52.141207162
 30
0.0
  0
SPLINE
  5
6D0
100
AcDbEntity
  8
7_ALL_ROUNDS
100
AcDbSpline
 62
7
  6
CONTINUOUS
 70
0
 71
3
 72
8
 73
4
 74
0
 42
0.0000001
 43
0.0000001
 44
0.0000000001
 40
0.0
 40
0.0
 40
0.0
 40
0.0
 40
1.0
 40
1.0
 40
1.0
 40
1.0
 10
121.7784617766
 20
52.141207162
 30
0.0
 10
121.7857000126
 20
52.134625786
 30
0.0
 10
121.7938960269
 20
52.1289978518
 30
0.0
 10
121.8025610992
 20
52.1244565861
 30
0.0
  0
SPLINE
  5
6D1
100
AcDbEntity
  8
0
100
AcDbSpline
 62
7
  6
CONTINUOUS
 70
0
 71
3
 72
10
 73
6
 74
0
 42
0.0000001
 43
0.0000001
 44
0.0000000001
 40
0.0
 40
0.0
 40
0.0
 40
0.0
 40
0.2775997666
 40
0.5773476675
 40
1.0
 40
1.0
 40
1.0
 40
1.0
 10
122.2123152222
 20
72.4476044161
 30
0.0
 10
122.2412013895
 20
72.4642862197
 30
0.0
 10
122.3116688078
 20
72.4821069997
 30
0.0
 10
122.4260015821
 20
72.4807236927
 30
0.0
 10
122.5310509012
 20
72.4221364523
 30
0.0
 10
122.53108847
 20
72.3713495438
 30
0.0
  0
SPLINE
  5
6D2
100
AcDbEntity
  8
7_ALL_ROUNDS
100
AcDbSpline
 62
7
  6
CONTINUOUS
 70
0
 71
3
 72
8
 73
4
 74
0
 42
0.0000001
 43
0.0000001
 44
0.0000000001
 40
0.0
 40
0.0
 40
0.0
 40
0.0
 40
1.0
 40
1.0
 40
1.0
 40
1.0
 10
133.5383686456
 20
54.0667813119
 30
0.0
 10
133.5573993171
 20
54.0883523541
 30
0.0
 10
133.5671213205
 20
54.1193823124
 30
0.0
 10
133.5671213205
 20
54.1481482006
 30
0.0
  0
SPLINE
  5
6D3
100
AcDbEntity
  8
0
100
AcDbSpline
 62
7
  6
CONTINUOUS
 70
0
 71
3
 72
10
 73
6
 74
0
 42
0.0000001
 43
0.0000001
 44
0.0000000001
 40
0.0
 40
0.0
 40
0.0
 40
0.0
 40
0.2775997666
 40
0.5773476675
 40
1.0
 40
1.0
 40
1.0
 40
1.0
 10
126.7093778709
 20
71.25641708
 30
0.0
 10
126.7382640382
 20
71.2730988836
 30
0.0
 10
126.8087314565
 20
71.2909196636
 30
0.0
 10
126.9230642308
 20
71.2895363566
 30
0.0
 10
127.0281135499
 20
71.2309491162
 30
0.0
 10
127.0281511187
 20
71.1801622077
 30
0.0
  0
SPLINE
  5
6D4
100
AcDbEntity
  8
0
100
AcDbSpline
 62
7
  6
CONTINUOUS
 70
0
 71
3
 72
10
 73
6
 74
0
 42
0.0000001
 43
0.0000001
 44
0.0000000001
 40
0.0
 40
0.0
 40
0.0
 40
0.0
 40
0.2775997666
 40
0.5773476675
 40
1.0
 40
1.0
 40
1.0
 40
1.0
 10
130.1296512772
 20
73.2316299732
 30
0.0
 10
130.1585374445
 20
73.2483117768
 30
0.0
 10
130.2290048628
 20
73.2661325568
 30
0.0
 10
130.3433376371
 20
73.2647492499
 30
0.0
 10
130.4483869562
 20
73.2061620094
 30
0.0
 10
130.448424525
 20
73.1553751009
 30
0.0
  0
SPLINE
  5
6D5
100
AcDbEntity
  8
0
100
AcDbSpline
 62
7
  6
CONTINUOUS
 70
0
 71
3
 72
10
 73
6
 74
0
 42
0.0000001
 43
0.0000001
 44
0.0000000001
 40
0.0
 40
0.0
 40
0.0
 40
0.0
 40
0.2775997666
 40
0.5773476675
 40
1.0
 40
1.0
 40
1.0
 40
1.0
 10
128.7720347023
 20
68.6593568249
 30
0.0
 10
128.8009208696
 20
68.6760386284
 30
0.0
 10
128.8713882879
 20
68.6938594084
 30
0.0
 10
128.9857210621
 20
68.6924761015
 30
0.0
 10
129.0907703813
 20
68.6338888611
 30
0.0
 10
129.0908079501
 20
68.5831019525
 30
0.0
  0
SPLINE
  5
6D6
100
AcDbEntity
  8
3_ALL_AXES
100
AcDbSpline
 62
7
  6
CONTINUOUS
 70
0
 71
3
 72
8
 73
4
 74
0
 42
0.0000001
 43
0.0000001
 44
0.0000000001
 40
0.0
 40
0.0
 40
0.0
 40
0.0
 40
1.0
 40
1.0
 40
1.0
 40
1.0
 10
124.3613700845
 20
69.314579698
 30
0.0
 10
124.3567348857
 20
69.3172565321
 30
0.0
 10
124.3520083346
 20
69.3222736212
 30
0.0
 10
124.3520083346
 20
69.3276262381
 30
0.0
  0
SPLINE
  5
6D7
100
AcDbEntity
  8
3_ALL_AXES
100
AcDbSpline
 62
7
  6
CONTINUOUS
 70
0
 71
3
 72
8
 73
4
 74
0
 42
0.0000001
 43
0.0000001
 44
0.0000000001
 40
0.0
 40
0.0
 40
0.0
 40
0.0
 40
1.0
 40
1.0
 40
1.0
 40
1.0
 10
124.295792737
 20
69.4631341752
 30
0.0
 10
124.281489976
 20
69.4548743098
 30
0.0
 10
124.2674689275
 20
69.4460712287
 30
0.0
 10
124.2540268338
 20
69.4364741216
 30
0.0
  0
SPLINE
  5
6D8
100
AcDbEntity
  8
3_ALL_AXES
100
AcDbSpline
 62
7
  6
CONTINUOUS
 70
0
 71
3
 72
9
 73
5
 74
0
 42
0.0000001
 43
0.0000001
 44
0.0000000001
 40
0.0
 40
0.0
 40
0.0
 40
0.0
 40
0.2695687611
 40
1.0
 40
1.0
 40
1.0
 40
1.0
 10
124.2540268338
 20
69.4364741216
 30
0.0
 10
124.2484549467
 20
69.4324960213
 30
0.0
 10
124.2282429489
 20
69.4172959869
 30
0.0
 10
124.209347953
 20
69.3989732547
 30
0.0
 10
124.2004189311
 20
69.3827127173
 30
0.0
  0
SPLINE
  5
6D9
100
AcDbEntity
  8
3_ALL_AXES
100
AcDbSpline
 62
7
  6
CONTINUOUS
 70
0
 71
3
 72
9
 73
5
 74
0
 42
0.0000001
 43
0.0000001
 44
0.0000000001
 40
0.0
 40
0.0
 40
0.0
 40
0.0
 40
0.5048474334
 40
1.0
 40
1.0
 40
1.0
 40
1.0
 10
124.2004189311
 20
69.3827127173
 30
0.0
 10
124.1996087684
 20
69.3812373395
 30
0.0
 10
124.1980882817
 20
69.3782675784
 30
0.0
 10
124.1967756123
 20
69.375198704
 30
0.0
 10
124.1961908076
 20
69.3736548969
 30
0.0
  0
SPLINE
  5
6DA
100
AcDbEntity
  8
3_ALL_AXES
100
AcDbSpline
 62
7
  6
CONTINUOUS
 70
0
 71
3
 72
9
 73
5
 74
0
 42
0.0000001
 43
0.0000001
 44
0.0000000001
 40
0.0
 40
0.0
 40
0.0
 40
0.0
 40
0.2545093957
 40
1.0
 40
1.0
 40
1.0
 40
1.0
 10
124.5631197603
 20
69.5078778459
 30
0.0
 10
124.5429436913
 20
69.5195295553
 30
0.0
 10
124.4503671067
 20
69.5430401642
 30
0.0
 10
124.3596925893
 20
69.5000364333
 30
0.0
 10
124.3005943
 20
69.4659070849
 30
0.0
  0
SPLINE
  5
6DB
100
AcDbEntity
  8
0
100
AcDbSpline
 62
7
  6
CONTINUOUS
 70
0
 71
3
 72
9
 73
5
 74
0
 42
0.0000001
 43
0.0000001
 44
0.0000000001
 40
0.0
 40
0.0
 40
0.0
 40
0.0
 40
0.5146983684
 40
1.0
 40
1.0
 40
1.0
 40
1.0
 10
130.0446357633
 20
51.3467725635
 30
0.0
 10
130.0446357628
 20
51.3023701691
 30
0.0
 10
130.0266554952
 20
51.2168350943
 30
0.0
 10
129.9908528072
 20
51.1361542674
 30
0.0
 10
129.9644474927
 20
51.1036649977
 30
0.0
  0
SPLINE
  5
6DC
100
AcDbEntity
  8
3_ALL_AXES
100
AcDbSpline
 62
7
  6
CONTINUOUS
 70
0
 71
3
 72
8
 73
4
 74
0
 42
0.0000001
 43
0.0000001
 44
0.0000000001
 40
0.0
 40
0.0
 40
0.0
 40
0.0
 40
1.0
 40
1.0
 40
1.0
 40
1.0
 10
123.7603992496
 20
69.854610792
 30
0.0
 10
123.7496611036
 20
69.8489276153
 30
0.0
 10
123.7396405489
 20
69.8417432198
 30
0.0
 10
123.7305892914
 20
69.8336388375
 30
0.0
  0
SPLINE
  5
6DD
100
AcDbEntity
  8
3_ALL_AXES
100
AcDbSpline
 62
7
  6
CONTINUOUS
 70
0
 71
3
 72
8
 73
4
 74
0
 42
0.0000001
 43
0.0000001
 44
0.0000000001
 40
0.0
 40
0.0
 40
0.0
 40
0.0
 40
1.0
 40
1.0
 40
1.0
 40
1.0
 10
123.7305892914
 20
69.8336388375
 30
0.0
 10
123.7234097732
 20
69.827210387
 30
0.0
 10
123.7163932794
 20
69.8202590923
 30
0.0
 10
123.7113928618
 20
69.812020993
 30
0.0
  0
SPLINE
  5
6DE
100
AcDbEntity
  8
3_ALL_AXES
100
AcDbSpline
 62
7
  6
CONTINUOUS
 70
0
 71
3
 72
9
 73
5
 74
0
 42
0.0000001
 43
0.0000001
 44
0.0000000001
 40
0.0
 40
0.0
 40
0.0
 40
0.0
 40
0.5083504959
 40
1.0
 40
1.0
 40
1.0
 40
1.0
 10
123.9390318001
 20
69.8682895555
 30
0.0
 10
123.9117849517
 20
69.8840246503
 30
0.0
 10
123.8450388295
 20
69.8951292183
 30
0.0
 10
123.7872949788
 20
69.868845389
 30
0.0
 10
123.7603992496
 20
69.854610792
 30
0.0
  0
SPLINE
  5
6DF
100
AcDbEntity
  8
0
100
AcDbSpline
 62
7
  6
CONTINUOUS
 70
0
 71
3
 72
9
 73
5
 74
0
 42
0.0000001
 43
0.0000001
 44
0.0000000001
 40
0.0
 40
0.0
 40
0.0
 40
0.0
 40
0.5146983684
 40
1.0
 40
1.0
 40
1.0
 40
1.0
 10
130.0446357633
 20
67.4011578971
 30
0.0
 10
130.0446357628
 20
67.3567555027
 30
0.0
 10
130.0266554952
 20
67.2712204279
 30
0.0
 10
129.9908528072
 20
67.190539601
 30
0.0
 10
129.9644474927
 20
67.1580503313
 30
0.0
  0
SPLINE
  5
6E0
100
AcDbEntity
  8
3_ALL_AXES
100
AcDbSpline
 62
7
  6
CONTINUOUS
 70
0
 71
3
 72
8
 73
4
 74
0
 42
0.0000001
 43
0.0000001
 44
0.0000000001
 40
0.0
 40
0.0
 40
0.0
 40
0.0
 40
1.0
 40
1.0
 40
1.0
 40
1.0
 10
123.8984513899
 20
69.7351995956
 30
0.0
 10
123.8938161912
 20
69.7378764297
 30
0.0
 10
123.8890896401
 20
69.7428935188
 30
0.0
 10
123.8890896401
 20
69.7482461357
 30
0.0
  0
SPLINE
  5
6E1
100
AcDbEntity
  8
3_ALL_AXES
100
AcDbSpline
 62
7
  6
CONTINUOUS
 70
0
 71
3
 72
8
 73
4
 74
0
 42
0.0000001
 43
0.0000001
 44
0.0000000001
 40
0.0
 40
0.0
 40
0.0
 40
0.0
 40
1.0
 40
1.0
 40
1.0
 40
1.0
 10
123.6168397165
 20
69.7445470742
 30
0.0
 10
123.603797446
 20
69.7520790045
 30
0.0
 10
123.5846992786
 20
69.7520790045
 30
0.0
 10
123.5716570081
 20
69.7445470742
 30
0.0
  0
SPLINE
  5
6E2
100
AcDbEntity
  8
3_ALL_AXES
100
AcDbSpline
 62
7
  6
CONTINUOUS
 70
0
 71
3
 72
8
 73
4
 74
0
 42
0.0000001
 43
0.0000001
 44
0.0000000001
 40
0.0
 40
0.0
 40
0.0
 40
0.0
 40
1.0
 40
1.0
 40
1.0
 40
1.0
 10
124.0347197495
 20
69.5293138242
 30
0.0
 10
124.021677479
 20
69.521781894
 30
0.0
 10
124.0025793116
 20
69.521781894
 30
0.0
 10
123.9895370411
 20
69.5293138242
 30
0.0
  0
SPLINE
  5
6E3
100
AcDbEntity
  8
3_ALL_AXES
100
AcDbSpline
 62
7
  6
CONTINUOUS
 70
0
 71
3
 72
9
 73
5
 74
0
 42
0.0000001
 43
0.0000001
 44
0.0000000001
 40
0.0
 40
0.0
 40
0.0
 40
0.0
 40
0.2642954656
 40
1.0
 40
1.0
 40
1.0
 40
1.0
 10
123.0579953951
 20
70.1828858647
 30
0.0
 10
123.0507198794
 20
70.1788823093
 30
0.0
 10
123.0236715777
 20
70.1629145553
 30
0.0
 10
122.9982310047
 20
70.1439575324
 30
0.0
 10
122.9816210821
 20
70.1278804874
 30
0.0
  0
SPLINE
  5
6E4
100
AcDbEntity
  8
3_ALL_AXES
100
AcDbSpline
 62
7
  6
CONTINUOUS
 70
0
 71
3
 72
8
 73
4
 74
0
 42
0.0000001
 43
0.0000001
 44
0.0000000001
 40
0.0
 40
0.0
 40
0.0
 40
0.0
 40
1.0
 40
1.0
 40
1.0
 40
1.0
 10
122.9816210821
 20
70.1278804874
 30
0.0
 10
122.9730601631
 20
70.1195942187
 30
0.0
 10
122.964782617
 20
70.1106621348
 30
0.0
 10
122.9588495898
 20
70.1003301083
 30
0.0
  0
SPLINE
  5
6E5
100
AcDbEntity
  8
3_ALL_AXES
100
AcDbSpline
 62
7
  6
CONTINUOUS
 70
0
 71
3
 72
9
 73
5
 74
0
 42
0.0000001
 43
0.0000001
 44
0.0000000001
 40
0.0
 40
0.0
 40
0.0
 40
0.0
 40
0.5081135751
 40
1.0
 40
1.0
 40
1.0
 40
1.0
 10
122.9588495898
 20
70.1003301083
 30
0.0
 10
122.9579230786
 20
70.0987166423
 30
0.0
 10
122.9562219437
 20
70.0954686732
 30
0.0
 10
122.9548323362
 20
70.0920727915
 30
0.0
 10
122.9542445598
 20
70.0903702525
 30
0.0
  0
SPLINE
  5
6E6
100
AcDbEntity
  8
3_ALL_AXES
100
AcDbSpline
 62
7
  6
CONTINUOUS
 70
0
 71
3
 72
9
 73
5
 74
0
 42
0.0000001
 43
0.0000001
 44
0.0000000001
 40
0.0
 40
0.0
 40
0.0
 40
0.0
 40
0.2589105107
 40
1.0
 40
1.0
 40
1.0
 40
1.0
 10
123.3160506002
 20
70.2280621093
 30
0.0
 10
123.2959092999
 20
70.2396937397
 30
0.0
 10
123.2027667884
 20
70.2553207101
 30
0.0
 10
123.1163219662
 20
70.2149816868
 30
0.0
 10
123.0579953951
 20
70.1828858647
 30
0.0
  0
SPLINE
  5
6E7
100
AcDbEntity
  8
3_ALL_AXES
100
AcDbSpline
 62
7
  6
CONTINUOUS
 70
0
 71
3
 72
11
 73
7
 74
0
 42
0.0000001
 43
0.0000001
 44
0.0000000001
 40
0.0
 40
0.0
 40
0.0
 40
0.0
 40
0.2889930955
 40
0.5479207331
 40
0.781442875
 40
1.0
 40
1.0
 40
1.0
 40
1.0
 10
124.8949144539
 20
60.9130460676
 30
0.0
 10
124.6993274392
 20
61.0226773652
 30
0.0
 10
124.3107450477
 20
61.2018357527
 30
0.0
 10
123.7146280126
 20
61.3385399986
 30
0.0
 10
123.1559513978
 20
61.3198565641
 30
0.0
 10
122.8195138333
 20
61.1965383321
 30
0.0
 10
122.6726181495
 20
61.1118313641
 30
0.0
  0
SPLINE
  5
6E8
100
AcDbEntity
  8
3_ALL_AXES
100
AcDbSpline
 62
7
  6
CONTINUOUS
 70
0
 71
3
 72
11
 73
7
 74
0
 42
0.0000001
 43
0.0000001
 44
0.0000000001
 40
0.0
 40
0.0
 40
0.0
 40
0.0
 40
0.288951677
 40
0.5478636355
 40
0.7814027601
 40
1.0
 40
1.0
 40
1.0
 40
1.0
 10
124.8949119819
 20
60.7384030233
 30
0.0
 10
124.7087135249
 20
60.842615451
 30
0.0
 10
124.3387966308
 20
61.0128884847
 30
0.0
 10
123.7713749005
 20
61.1426723933
 30
0.0
 10
123.2396163723
 20
61.1246565502
 30
0.0
 10
122.9193891961
 20
61.0072179777
 30
0.0
 10
122.7795491224
 20
60.9265796665
 30
0.0
  0
SPLINE
  5
6E9
100
AcDbEntity
  8
3_ALL_AXES
100
AcDbSpline
 62
7
  6
CONTINUOUS
 70
0
 71
3
 72
8
 73
4
 74
0
 42
0.0000001
 43
0.0000001
 44
0.0000000001
 40
0.0
 40
0.0
 40
0.0
 40
0.0
 40
1.0
 40
1.0
 40
1.0
 40
1.0
 10
123.4922319527
 20
69.8426013201
 30
0.0
 10
123.4791896822
 20
69.8350693898
 30
0.0
 10
123.4600915148
 20
69.8350693898
 30
0.0
 10
123.4470492443
 20
69.8426013201
 30
0.0
  0
SPLINE
  5
6EA
100
AcDbEntity
  8
3_ALL_AXES
100
AcDbSpline
 62
7
  6
CONTINUOUS
 70
0
 71
3
 72
8
 73
4
 74
0
 42
0.0000001
 43
0.0000001
 44
0.0000000001
 40
0.0
 40
0.0
 40
0.0
 40
0.0
 40
1.0
 40
1.0
 40
1.0
 40
1.0
 10
123.1163824019
 20
70.0335619051
 30
0.0
 10
123.1117472032
 20
70.0362387391
 30
0.0
 10
123.1070206521
 20
70.0412558283
 30
0.0
 10
123.1070206521
 20
70.0466084452
 30
0.0
  0
SPLINE
  5
6EB
100
AcDbEntity
  8
3_ALL_AXES
100
AcDbSpline
 62
7
  6
CONTINUOUS
 70
0
 71
3
 72
8
 73
4
 74
0
 42
0.0000001
 43
0.0000001
 44
0.0000000001
 40
0.0
 40
0.0
 40
0.0
 40
0.0
 40
1.0
 40
1.0
 40
1.0
 40
1.0
 10
123.3495439033
 20
69.936924616
 30
0.0
 10
123.3449557201
 20
69.9395742985
 30
0.0
 10
123.3347307394
 20
69.9417826819
 30
0.0
 10
123.3336523425
 20
69.9365952643
 30
0.0
  0
SPLINE
  5
6EC
100
AcDbEntity
  8
3_ALL_AXES
100
AcDbSpline
 62
7
  6
CONTINUOUS
 70
0
 71
3
 72
13
 73
9
 74
0
 42
0.0000001
 43
0.0000001
 44
0.0000000001
 40
0.0
 40
0.0
 40
0.0
 40
0.0
 40
0.2719572148
 40
0.3878196151
 40
0.4962695894
 40
0.605395113
 40
0.7230610478
 40
1.0
 40
1.0
 40
1.0
 40
1.0
 10
125.9266276752
 20
59.1488118749
 30
0.0
 10
125.7822804251
 20
59.2321726229
 30
0.0
 10
125.5514794717
 20
59.3239231581
 30
0.0
 10
125.2431966133
 20
59.3117343074
 30
0.0
 10
125.0488428982
 20
59.2358342169
 30
0.0
 10
124.8928079957
 20
59.095796304
 30
0.0
 10
124.7386548414
 20
58.8235680772
 30
0.0
 10
124.7101771975
 20
58.573237494
 30
0.0
 10
124.7148693169
 20
58.4035601769
 30
0.0
  0
SPLINE
  5
6ED
100
AcDbEntity
  8
3_ALL_AXES
100
AcDbSpline
 62
7
  6
CONTINUOUS
 70
0
 71
3
 72
9
 73
5
 74
0
 42
0.0000001
 43
0.0000001
 44
0.0000000001
 40
0.0
 40
0.0
 40
0.0
 40
0.0
 40
0.5285854649
 40
1.0
 40
1.0
 40
1.0
 40
1.0
 10
124.0973977458
 20
61.4241429149
 30
0.0
 10
123.831102558
 20
61.4981131153
 30
0.0
 10
123.3009800379
 20
61.5707581507
 30
0.0
 10
122.7791534609
 20
61.4201894816
 30
0.0
 10
122.5656310268
 20
61.2970506816
 30
0.0
  0
SPLINE
  5
6EE
100
AcDbEntity
  8
3_ALL_AXES
100
AcDbSpline
 62
7
  6
CONTINUOUS
 70
0
 71
3
 72
9
 73
5
 74
0
 42
0.0000001
 43
0.0000001
 44
0.0000000001
 40
0.0
 40
0.0
 40
0.0
 40
0.0
 40
0.5286001597
 40
1.0
 40
1.0
 40
1.0
 40
1.0
 10
128.195472453
 20
54.3277045186
 30
0.0
 10
128.1263548339
 20
54.0597907007
 30
0.0
 10
127.9239973608
 20
53.5637811901
 30
0.0
 10
127.5319617691
 20
53.1869655989
 30
0.0
 10
127.3182139906
 20
53.0636968423
 30
0.0
  0
SPLINE
  5
6EF
100
AcDbEntity
  8
3_ALL_AXES
100
AcDbSpline
 62
7
  6
CONTINUOUS
 70
0
 71
3
 72
11
 73
7
 74
0
 42
0.0000001
 43
0.0000001
 44
0.0000000001
 40
0.0
 40
0.0
 40
0.0
 40
0.0
 40
0.2889207247
 40
0.5478405604
 40
0.7813717598
 40
1.0
 40
1.0
 40
1.0
 40
1.0
 10
128.1513867071
 20
55.2698882053
 30
0.0
 10
128.148373556
 20
55.0459684232
 30
0.0
 10
128.1089159159
 20
54.6203811045
 30
0.0
 10
127.9289146708
 20
54.0365593411
 30
0.0
 10
127.6331219275
 20
53.5628178937
 30
0.0
 10
127.3580784344
 20
53.3336061159
 30
0.0
 10
127.2112833942
 20
53.2489487571
 30
0.0
  0
SPLINE
  5
6F0
100
AcDbEntity
  8
3_ALL_AXES
100
AcDbSpline
 62
7
  6
CONTINUOUS
 70
0
 71
3
 72
9
 73
5
 74
0
 42
0.0000001
 43
0.0000001
 44
0.0000000001
 40
0.0
 40
0.0
 40
0.0
 40
0.0
 40
0.2428551264
 40
1.0
 40
1.0
 40
1.0
 40
1.0
 10
124.9419225087
 20
60.7116732984
 30
0.0
 10
124.9837616613
 20
60.6875111266
 30
0.0
 10
125.1542579809
 20
60.5849450223
 30
0.0
 10
125.3176567135
 20
60.4707135573
 30
0.0
 10
125.4371872384
 20
60.3790514256
 30
0.0
  0
SPLINE
  5
6F1
100
AcDbEntity
  8
3_ALL_AXES
100
AcDbSpline
 62
7
  6
CONTINUOUS
 70
0
 71
3
 72
9
 73
5
 74
0
 42
0.0000001
 43
0.0000001
 44
0.0000000001
 40
0.0
 40
0.0
 40
0.0
 40
0.0
 40
0.254934929
 40
1.0
 40
1.0
 40
1.0
 40
1.0
 10
127.9733675762
 20
55.8991509822
 30
0.0
 10
127.9772302335
 20
55.8636604774
 30
0.0
 10
127.9908623026
 20
55.7242876628
 30
0.0
 10
127.9983215482
 20
55.5842927395
 30
0.0
 10
127.9999887535
 20
55.4799700786
 30
0.0
  0
SPLINE
  5
6F2
100
AcDbEntity
  8
3_ALL_AXES
100
AcDbSpline
 62
7
  6
CONTINUOUS
 70
0
 71
3
 72
11
 73
7
 74
0
 42
0.0000001
 43
0.0000001
 44
0.0000000001
 40
0.0
 40
0.0
 40
0.0
 40
0.0
 40
0.2889786934
 40
0.5479194511
 40
0.7814270657
 40
1.0
 40
1.0
 40
1.0
 40
1.0
 10
128.0002007686
 20
55.3633952576
 30
0.0
 10
127.9975116353
 20
55.1496480384
 30
0.0
 10
127.9601969424
 20
54.7433888865
 30
0.0
 10
127.7888303225
 20
54.1860300382
 30
0.0
 10
127.5068228278
 20
53.7337626895
 30
0.0
 10
127.2444137337
 20
53.5149748424
 30
0.0
 10
127.1043528368
 20
53.4342006944
 30
0.0
  0
SPLINE
  5
6F3
100
AcDbEntity
  8
3_ALL_AXES
100
AcDbSpline
 62
7
  6
CONTINUOUS
 70
0
 71
3
 72
18
 73
14
 74
0
 42
0.0000001
 43
0.0000001
 44
0.0000000001
 40
0.0
 40
0.0
 40
0.0
 40
0.0
 40
0.1383542231
 40
0.2916046254
 40
0.4448495329
 40
0.5831792637
 40
0.6436644882
 40
0.697771346
 40
0.7464364957
 40
0.7918874857
 40
0.837343282
 40
0.8860134376
 40
1.0
 40
1.0
 40
1.0
 40
1.0
 10
125.9266276752
 20
59.1488118749
 30
0.0
 10
126.0987415661
 20
59.0494158512
 30
0.0
 10
126.4244612189
 20
58.775241266
 30
0.0
 10
126.8046602099
 20
58.2557528528
 30
0.0
 10
127.0643897184
 20
57.666576603
 30
0.0
 10
127.1546938788
 20
57.1610494324
 30
0.0
 10
127.1259146179
 20
56.7968541381
 30
0.0
 10
127.0589430632
 20
56.5698809951
 30
0.0
 10
126.9462051097
 20
56.3856588752
 30
0.0
 10
126.7897392255
 20
56.2540913632
 30
0.0
 10
126.5974682848
 20
56.1844406506
 30
0.0
 10
126.2946056517
 20
56.1768762182
 30
0.0
 10
126.0684279783
 20
56.2673831136
 30
0.0
 10
125.9266276752
 20
56.3492729959
 30
0.0
  0
SPLINE
  5
6F4
100
AcDbEntity
  8
3_AXES_OTHER
100
AcDbSpline
 62
7
  6
CONTINUOUS
 70
0
 71
3
 72
11
 73
7
 74
0
 42
0.0000001
 43
0.0000001
 44
0.0000000001
 40
0.0
 40
0.0
 40
0.0
 40
0.0
 40
0.3111739283
 40
0.5928095876
 40
0.8179283467
 40
1.0
 40
1.0
 40
1.0
 40
1.0
 10
126.0235838309
 20
66.3753597277
 30
0.0
 10
126.0630343246
 20
66.2936734238
 30
0.0
 10
126.1588156368
 20
66.1467140717
 30
0.0
 10
126.3390124264
 20
65.9871779831
 30
0.0
 10
126.5338989102
 20
65.9092986001
 30
0.0
 10
126.6597979897
 20
65.949494267
 30
0.0
 10
126.6989452672
 20
65.9853375107
 30
0.0
  0
SPLINE
  5
6F5
100
AcDbEntity
  8
3_AXES_OTHER
100
AcDbSpline
 62
7
  6
CONTINUOUS
 70
0
 71
3
 72
10
 73
6
 74
0
 42
0.0000001
 43
0.0000001
 44
0.0000000001
 40
0.0
 40
0.0
 40
0.0
 40
0.0
 40
0.1939250277
 40
0.5570121903
 40
1.0
 40
1.0
 40
1.0
 40
1.0
 10
126.6989452672
 20
65.9853375107
 30
0.0
 10
126.7292454925
 20
66.0130803943
 30
0.0
 10
126.7915058754
 20
66.119719865
 30
0.0
 10
126.7939213964
 20
66.3395890923
 30
0.0
 10
126.739757822
 20
66.5037679261
 30
0.0
 10
126.6989452672
 20
66.5882745176
 30
0.0
  0
SPLINE
  5
6F6
100
AcDbEntity
  8
3_AXES_OTHER
100
AcDbSpline
 62
7
  6
CONTINUOUS
 70
0
 71
3
 72
9
 73
5
 74
0
 42
0.0000001
 43
0.0000001
 44
0.0000000001
 40
0.0
 40
0.0
 40
0.0
 40
0.0
 40
0.2606641609
 40
1.0
 40
1.0
 40
1.0
 40
1.0
 10
126.1595313975
 20
67.0326330666
 30
0.0
 10
126.1466729423
 20
67.0320883652
 30
0.0
 10
126.0975657313
 20
67.026390062
 30
0.0
 10
126.0505070892
 20
67.0029476674
 30
0.0
 10
126.0235838309
 20
66.9782967346
 30
0.0
  0
SPLINE
  5
6F7
100
AcDbEntity
  8
3_AXES_OTHER
100
AcDbSpline
 62
7
  6
CONTINUOUS
 70
0
 71
3
 72
10
 73
6
 74
0
 42
0.0000001
 43
0.0000001
 44
0.0000000001
 40
0.0
 40
0.0
 40
0.0
 40
0.0
 40
0.1939250277
 40
0.5570121903
 40
1.0
 40
1.0
 40
1.0
 40
1.0
 10
126.0235838309
 20
66.9782967346
 30
0.0
 10
125.9932836056
 20
66.950553851
 30
0.0
 10
125.9310232227
 20
66.8439143803
 30
0.0
 10
125.9286077018
 20
66.624045153
 30
0.0
 10
125.9827712762
 20
66.4598663192
 30
0.0
 10
126.0235838309
 20
66.3753597277
 30
0.0
  0
ENDSEC
  0
SECTION
  2
OBJECTS
  0
DICTIONARY
  5
C
100
AcDbDictionary
280
0
281
1
  3
ACAD_GROUP
350
D
  3
ACAD_MLINESTYLE
350
17
  3
ACAD_LAYOUT
350
1A
  3
ACAD_PLOTSETTINGS
350
19
  3
ACAD_PLOTSTYLENAME
350
E
  0
DICTIONARY
  5
D
102
{ACAD_REACTORS
330
C
102
}
100
AcDbDictionary
280
0
281
1
  0
ACDBDICTIONARYWDFLT
  5
E
102
{ACAD_REACTORS
330
C
102
}
100
AcDbDictionary
281
1
  3
Normal
350
F
100
AcDbDictionaryWithDefault
340
F
  0
DICTIONARY
  5
17
102
{ACAD_REACTORS
330
C
102
}
100
AcDbDictionary
280
0
281
1
  3
Standard
350
18
  0
DICTIONARY
  5
19
102
{ACAD_REACTORS
330
C
102
}
100
AcDbDictionary
281
1
  0
DICTIONARY
  5
1A
102
{ACAD_REACTORS
330
C
102
}
100
AcDbDictionary
281
1
  3
Model
350
6F8
  3
Layout1
350
6F9
  0
ACDBPLACEHOLDER
  5
F
102
{ACAD_REACTORS
330
E
102
}
  0
MLINESTYLE
  5
18
102
{ACAD_REACTORS
330
17
102
}
100
AcDbMlineStyle
  2
STANDARD
 70
0
  3

 62
256
 51
90.0
 52
90.0
 71
2
 49
0.5
 62
256
  6
BYLAYER
 49
-0.5
 62
256
  6
BYLAYER
  0
LAYOUT
  5
6F8
102
{ACAD_REACTORS
330
1A
102
}
100
AcDbPlotSettings
  1

  2
none_device
  4
ANSI_B_(17.00_x_11.00_Inches)
  6

 40
0.0
 41
0.0
 42
0.0
 43
0.0
 44
431.8
 45
279.4
 46
0.0
 47
0.0
 48
0.0
 49
0.0
140
0.0
141
0.0
142
1.0
143
1.0
 70
1024
 72
0
 73
0
 74
0
  7

 75
0
147
1.0
148
0.0
149
0.0
100
AcDbLayout
  1
Model
 70
0
 71
0
 10
0.0
 20
0.0
 11
17.0
 21
11.0
 12
0.0
 22
0.0
 32
0.0
 14
0.0
 24
0.0
 34
0.0
 15
0.0
 25
0.0
 35
0.0
146
0.0
 13
0.0
 23
0.0
 33
0.0
 16
1.0
 26
0.0
 36
0.0
 17
0.0
 27
1.0
 37
0.0
 76
0
330
211
345
0
346
0
  0
LAYOUT
  5
6F9
102
{ACAD_REACTORS
330
1A
102
}
100
AcDbPlotSettings
  1

  2
none_device
  4
ANSI_B_(17.00_x_11.00_Inches)
  6

 40
0.0
 41
0.0
 42
0.0
 43
0.0
 44
431.8
 45
279.4
 46
0.0
 47
0.0
 48
0.0
 49
0.0
140
0.0
141
0.0
142
1.0
143
1.0
 70
0
 72
0
 73
0
 74
0
  7

 75
0
147
1.0
148
0.0
149
0.0
100
AcDbLayout
  1
Layout1
 70
0
 71
1
 10
0.0
 20
0.0
 11
17.0
 21
11.0
 12
0.0
 22
0.0
 32
0.0
 14
0.0
 24
0.0
 34
0.0
 15
0.0
 25
0.0
 35
0.0
146
0.0
 13
0.0
 23
0.0
 33
0.0
 16
1.0
 26
0.0
 36
0.0
 17
0.0
 27
1.0
 37
0.0
 76
0
330
212
345
0
346
0
  0
ENDSEC
  0
EOF
