999
DXF file: fg-010230-2d-B.dxf
999
Pro/ENGINEER 2016130 by Parametric Technology Corporation
  0
SECTION
  2
HEADER
  9
$ACADVER
  1
AC1015
  9
$DWGCODEPAGE
  3
ANSI_1252
  9
$EXTMAX
 10
136.0
 20
88.0
 30
0.0
  9
$EXTMIN
 10
0.0
 20
0.0
 30
0.0
  9
$LIMMIN
 10
0.0
 20
0.0
  9
$LIMMAX
 10
136.0
 20
88.0
  9
$VIEWCTR
 10
68.0
 20
44.0
  9
$VIEWSIZE
 40
88.0
  9
$CLAYER
  8
0
  9
$LTSCALE
 40
7.48
  9
$CELTYPE
  6
BYLAYER
  9
$DIMSCALE
 40
1.0
  9
$DIMASZ
 40
1.5
  9
$DIMEXO
 40
0.0625
  9
$DIMDLI
 40
5.168
  9
$DIMEXE
 40
0.125
  9
$DIMCEN
 40
1.224
  9
$DIMLFAC
 40
1.0
  9
$DIMBLK
  1
_FILLED
  9
$DIMALT
 70
0
  9
$DIMALTF
 40
25.4
  9
$DIMTXT
 40
1.25
  9
$DIMTOL
 70
1
  9
$DIMLIM
 70
0
  9
$DIMTFAC
 40
1.0
  9
$DIMTP
 40
0.01
  9
$DIMTM
 40
0.01
  9
$DIMGAP
 40
0.09
  9
$DIMDSEP
 70
46
  9
$AUNITS
 70
0
  9
$PDMODE
 70
3
  9
$PDSIZE
 40
0.3125
  9
$HANDSEED
  5
6DE
  9
$TILEMODE
 70
1
  9
$MEASUREMENT
 70
0
  9
$INSUNITS
 70
1
  0
ENDSEC
  0
SECTION
  2
CLASSES
  0
CLASS
  1
ACDBDICTIONARYWDFLT
  2
AcDbDictionaryWithDefault
  3
AutoCAD 2000
 90
0
280
0
281
0
  0
CLASS
  1
ACDBPLACEHOLDER
  2
AcDbPlaceHolder
  3
AutoCAD 2000
 90
0
280
0
281
0
  0
CLASS
  1
LAYOUT
  2
AcDbLayout
  3
AutoCAD 2000
 90
0
280
0
281
0
  0
ENDSEC
  0
SECTION
  2
TABLES
  0
TABLE
  2
VPORT
  5
8
100
AcDbSymbolTable
 70
2
  0
VPORT
  5
1F4
100
AcDbSymbolTableRecord
100
AcDbViewportTableRecord
  2
*ACTIVE
 70
0
 10
0.0
 20
0.0
 11
1.0
 21
1.0
 12
68.0
 22
44.0
 13
0.0
 23
0.0
 14
1.0
 24
1.0
 15
0.0
 25
0.0
 16
0.0
 26
0.0
 36
1.0
 17
0.0
 27
0.0
 37
0.0
 40
88.0
 41
1.5454545455
 42
50.0
 43
0.0
 44
0.0
 50
0.0
 51
0.0
 71
0
 72
100
 73
1
 74
1
 75
0
 76
0
 77
0
 78
0
  0
ENDTAB
  0
TABLE
  2
LTYPE
  5
5
100
AcDbSymbolTable
 70
6
  0
LTYPE
  5
14
100
AcDbSymbolTableRecord
100
AcDbLinetypeTableRecord
  2
BYBLOCK
 70
0
  3

 72
65
 73
0
 40
0.0
  0
LTYPE
  5
15
100
AcDbSymbolTableRecord
100
AcDbLinetypeTableRecord
  2
BYLAYER
 70
0
  3

 72
65
 73
0
 40
0.0
  0
LTYPE
  5
16
100
AcDbSymbolTableRecord
100
AcDbLinetypeTableRecord
  2
CONTINUOUS
 70
64
  3
Solid line
 72
65
 73
0
 40
0.0
  0
LTYPE
  5
1F5
100
AcDbSymbolTableRecord
100
AcDbLinetypeTableRecord
  2
CENTER
 70
64
  3
____ _ ____ _ ____ _ ____ _ ____ _ ____ _ ____
 72
65
 73
4
 40
0.6
 49
0.375
 74
0
 49
-0.075
 74
0
 49
0.075
 74
0
 49
-0.075
 74
0
  0
LTYPE
  5
1F6
100
AcDbSymbolTableRecord
100
AcDbLinetypeTableRecord
  2
HIDDEN
 70
64
  3
- - - - - - - - - - - - - - - - - - - -
 72
65
 73
2
 40
0.2
 49
0.1
 74
0
 49
-0.1
 74
0
  0
LTYPE
  5
1F7
100
AcDbSymbolTableRecord
100
AcDbLinetypeTableRecord
  2
PHANTOM
 70
64
  3
_____ _ _ _____ _ _ _____ _ _ _____
 72
65
 73
6
 40
0.8
 49
0.45
 74
0
 49
-0.05
 74
0
 49
0.1
 74
0
 49
-0.05
 74
0
 49
0.1
 74
0
 49
-0.05
 74
0
  0
LTYPE
  5
1F8
100
AcDbSymbolTableRecord
100
AcDbLinetypeTableRecord
  2
DOT
 70
64
  3
. . . . . . . . . . . . . . . . . . . .
 72
65
 73
2
 40
0.2
 49
0.1
 74
0
 49
-0.1
 74
0
  0
LTYPE
  5
1F9
100
AcDbSymbolTableRecord
100
AcDbLinetypeTableRecord
  2
DASHED
 70
64
  3
- - - - - - - - - - - - - - - - - - - -
 72
65
 73
2
 40
0.2
 49
0.1
 74
0
 49
-0.1
 74
0
  0
ENDTAB
  0
TABLE
  2
LAYER
  5
2
100
AcDbSymbolTable
 70
36
  0
LAYER
  5
10
100
AcDbSymbolTableRecord
100
AcDbLayerTableRecord
  2
0
 70
0
 62
7
  6
CONTINUOUS
370
-3
390
F
  0
LAYER
  5
1FA
100
AcDbSymbolTableRecord
100
AcDbLayerTableRecord
  2
DEFAULT_1
 70
0
 62
7
  6
CENTER
370
-3
390
F
  0
LAYER
  5
1FB
100
AcDbSymbolTableRecord
100
AcDbLayerTableRecord
  2
DEFAULT_2
 70
0
 62
8
  6
HIDDEN
370
-3
390
F
  0
LAYER
  5
1FC
100
AcDbSymbolTableRecord
100
AcDbLayerTableRecord
  2
DEFAULT_3
 70
0
 62
7
  6
PHANTOM
370
-3
390
F
  0
LAYER
  5
1FD
100
AcDbSymbolTableRecord
100
AcDbLayerTableRecord
  2
0_SNAPLINES
 70
0
 62
7
  6
CONTINUOUS
370
-3
390
F
  0
LAYER
  5
1FE
100
AcDbSymbolTableRecord
100
AcDbLayerTableRecord
  2
1_ALL_PLANES
 70
0
 62
7
  6
CONTINUOUS
370
-3
390
F
  0
LAYER
  5
1FF
100
AcDbSymbolTableRecord
100
AcDbLayerTableRecord
  2
1__DEF_PLANES
 70
0
 62
7
  6
CONTINUOUS
370
-3
390
F
  0
LAYER
  5
200
100
AcDbSymbolTableRecord
100
AcDbLayerTableRecord
  2
2_ALL_CSYS
 70
0
 62
7
  6
CONTINUOUS
370
-3
390
F
  0
LAYER
  5
201
100
AcDbSymbolTableRecord
100
AcDbLayerTableRecord
  2
2__DEF_CSYS
 70
0
 62
7
  6
CONTINUOUS
370
-3
390
F
  0
LAYER
  5
202
100
AcDbSymbolTableRecord
100
AcDbLayerTableRecord
  2
3_ALL_AXES
 70
0
 62
7
  6
CONTINUOUS
370
-3
390
F
  0
LAYER
  5
203
100
AcDbSymbolTableRecord
100
AcDbLayerTableRecord
  2
3_AXES_OTHER
 70
0
 62
7
  6
CONTINUOUS
370
-3
390
F
  0
LAYER
  5
204
100
AcDbSymbolTableRecord
100
AcDbLayerTableRecord
  2
3_HOLES
 70
0
 62
7
  6
CONTINUOUS
370
-3
390
F
  0
LAYER
  5
205
100
AcDbSymbolTableRecord
100
AcDbLayerTableRecord
  2
4_ALL_POINTS
 70
0
 62
7
  6
CONTINUOUS
370
-3
390
F
  0
LAYER
  5
206
100
AcDbSymbolTableRecord
100
AcDbLayerTableRecord
  2
5_ALL_CURVES
 70
0
 62
7
  6
CONTINUOUS
370
-3
390
F
  0
LAYER
  5
207
100
AcDbSymbolTableRecord
100
AcDbLayerTableRecord
  2
6_ALL_SURFS
 70
0
 62
7
  6
CONTINUOUS
370
-3
390
F
  0
LAYER
  5
208
100
AcDbSymbolTableRecord
100
AcDbLayerTableRecord
  2
6_COPYGEOM
 70
0
 62
7
  6
CONTINUOUS
370
-3
390
F
  0
LAYER
  5
209
100
AcDbSymbolTableRecord
100
AcDbLayerTableRecord
  2
7_ALL_ROUNDS
 70
0
 62
7
  6
CONTINUOUS
370
-3
390
F
  0
LAYER
  5
20A
100
AcDbSymbolTableRecord
100
AcDbLayerTableRecord
  2
7_MERGES
 70
0
 62
7
  6
CONTINUOUS
370
-3
390
F
  0
LAYER
  5
20B
100
AcDbSymbolTableRecord
100
AcDbLayerTableRecord
  2
8_GDT
 70
0
 62
7
  6
CONTINUOUS
370
-3
390
F
  0
LAYER
  5
20C
100
AcDbSymbolTableRecord
100
AcDbLayerTableRecord
  2
8_SET_DATUMS
 70
0
 62
7
  6
CONTINUOUS
370
-3
390
F
  0
LAYER
  5
20D
100
AcDbSymbolTableRecord
100
AcDbLayerTableRecord
  2
9_COSMETICS
 70
0
 62
7
  6
CONTINUOUS
370
-3
390
F
  0
LAYER
  5
20E
100
AcDbSymbolTableRecord
100
AcDbLayerTableRecord
  2
9_THREADS
 70
0
 62
7
  6
CONTINUOUS
370
-3
390
F
  0
ENDTAB
  0
TABLE
  2
STYLE
  5
3
100
AcDbSymbolTable
 70
1
  0
STYLE
  5
11
100
AcDbSymbolTableRecord
100
AcDbTextStyleTableRecord
  2
STANDARD
 70
0
 40
0.0
 41
0.8
 50
0.0
 71
0
 42
0.2
  3
txt
  4

  0
STYLE
  5
20F
100
AcDbSymbolTableRecord
100
AcDbTextStyleTableRecord
  2
TEXTSTYLE_1
 70
0
 40
0.0
 41
0.8
 50
0.0
 71
0
 42
0.2
  3
gdt
  4

  0
ENDTAB
  0
TABLE
  2
VIEW
  5
6
100
AcDbSymbolTable
 70
0
  0
ENDTAB
  0
TABLE
  2
UCS
  5
7
100
AcDbSymbolTable
 70
0
  0
ENDTAB
  0
TABLE
  2
APPID
  5
9
100
AcDbSymbolTable
 70
1
  0
APPID
  5
210
100
AcDbSymbolTableRecord
100
AcDbRegAppTableRecord
  2
ACAD
 70
0
  0
ENDTAB
  0
TABLE
  2
BLOCK_RECORD
  5
1
100
AcDbSymbolTable
 70
0
  0
BLOCK_RECORD
  5
211
100
AcDbSymbolTableRecord
100
AcDbBlockTableRecord
  2
*Model_Space
  0
BLOCK_RECORD
  5
212
100
AcDbSymbolTableRecord
100
AcDbBlockTableRecord
  2
*Paper_Space
  0
BLOCK_RECORD
  5
213
100
AcDbSymbolTableRecord
100
AcDbBlockTableRecord
  2
_FILLED
  0
BLOCK_RECORD
  5
214
100
AcDbSymbolTableRecord
100
AcDbBlockTableRecord
  2
*D0
  0
BLOCK_RECORD
  5
215
100
AcDbSymbolTableRecord
100
AcDbBlockTableRecord
  2
*D1
  0
BLOCK_RECORD
  5
216
100
AcDbSymbolTableRecord
100
AcDbBlockTableRecord
  2
*D2
  0
BLOCK_RECORD
  5
217
100
AcDbSymbolTableRecord
100
AcDbBlockTableRecord
  2
*D3
  0
BLOCK_RECORD
  5
218
100
AcDbSymbolTableRecord
100
AcDbBlockTableRecord
  2
*D4
  0
BLOCK_RECORD
  5
219
100
AcDbSymbolTableRecord
100
AcDbBlockTableRecord
  2
*D5
  0
BLOCK_RECORD
  5
21A
100
AcDbSymbolTableRecord
100
AcDbBlockTableRecord
  2
*D6
  0
BLOCK_RECORD
  5
21B
100
AcDbSymbolTableRecord
100
AcDbBlockTableRecord
  2
CG_3D_BL3
  0
BLOCK_RECORD
  5
21C
100
AcDbSymbolTableRecord
100
AcDbBlockTableRecord
  2
CG_3D_BL2
  0
BLOCK_RECORD
  5
21D
100
AcDbSymbolTableRecord
100
AcDbBlockTableRecord
  2
CG_3D_BL1
  0
BLOCK_RECORD
  5
21E
100
AcDbSymbolTableRecord
100
AcDbBlockTableRecord
  2
RD010411_BL0
  0
ENDTAB
  0
TABLE
  2
DIMSTYLE
  5
A
100
AcDbSymbolTable
 70
1
100
AcDbDimStyleTable
 71
0
  0
DIMSTYLE
105
21F
100
AcDbSymbolTableRecord
100
AcDbDimStyleTableRecord
  2
STANDARD
 70
0
  3

  4

 40
1.0
 41
1.5
 42
0.0625
 43
0.38
 44
0.125
 45
0.0
 46
0.0
 47
0.01
 48
0.01
140
1.25
141
0.09
142
0.0
143
25.4
144
1.0
145
0.0
146
1.0
147
0.09
 71
1.0
 72
0.0
 73
1
 74
1
 75
0
 76
0
 77
0
 78
4
170
0
171
2
172
0
173
0
174
0
175
0
176
0
177
0
178
0
270
2
271
3
272
3
273
2
274
2
275
0
280
0
281
0
282
0
283
1
284
4
285
0
286
0
287
3
288
0
340
11
278
46
341
213
342
213
343
213
344
213
  0
DIMSTYLE
105
220
100
AcDbSymbolTableRecord
100
AcDbDimStyleTableRecord
  2
DIMSTYLE_1
 70
0
  3

  4

 40
1.0
 41
1.5
 42
0.0625
 43
0.38
 44
0.125
 45
0.0
 46
0.0
 47
0.01
 48
0.01
140
1.25
141
0.09
142
0.0
143
25.4
144
1.0
145
0.0
146
1.0
147
0.078125
 71
0.0
 72
0.0
 73
1
 74
1
 75
0
 76
0
 77
0
 78
4
170
0
171
2
172
0
173
0
174
0
175
0
176
0
177
0
178
0
270
2
271
0
272
0
273
2
274
2
275
0
280
0
281
0
282
0
283
1
284
4
285
0
286
0
287
3
288
0
340
11
278
46
341
213
342
213
343
213
344
213
  0
DIMSTYLE
105
221
100
AcDbSymbolTableRecord
100
AcDbDimStyleTableRecord
  2
DIMSTYLE_2
 70
0
  3

  4

 40
1.0
 41
1.5
 42
0.0625
 43
0.38
 44
0.125
 45
0.0
 46
0.0
 47
0.01
 48
0.01
140
1.25
141
0.09
142
0.0
143
25.4
144
1.0
145
0.0
146
1.0
147
0.078125
 71
0.0
 72
0.0
 73
1
 74
1
 75
0
 76
0
 77
0
 78
4
170
0
171
2
172
0
173
0
174
0
175
0
176
0
177
0
178
0
270
2
271
1
272
1
273
2
274
2
275
0
280
0
281
0
282
0
283
1
284
4
285
0
286
0
287
3
288
0
340
11
278
46
341
213
342
213
343
213
344
213
  0
ENDTAB
  0
ENDSEC
  0
SECTION
  2
BLOCKS
  0
BLOCK
  5
20
100
AcDbEntity
  8
0
100
AcDbBlockBegin
  2
*Model_Space
 70
0
 10
0.0
 20
0.0
 30
0.0
  3
*Model_Space
  1

  0
ENDBLK
  5
21
100
AcDbEntity
  8
0
100
AcDbBlockEnd
  0
BLOCK
  5
1C
100
AcDbEntity
  8
0
100
AcDbBlockBegin
  2
*Paper_Space
 70
0
 10
0.0
 20
0.0
 30
0.0
  3
*Paper_Space
  1

  0
ENDBLK
  5
1D
100
AcDbEntity
  8
0
100
AcDbBlockEnd
  0
BLOCK
  5
222
100
AcDbEntity
  8
0
100
AcDbBlockBegin
 62
2
  6
CONTINUOUS
  2
CG_3D_BL3
 70
64
 10
73.509086439
 20
40.1932791984
  3
CG_3D_BL3
  1

  0
ARC
  5
223
100
AcDbEntity
  8
0
100
AcDbCircle
 62
7
  6
CONTINUOUS
 10
73.509086439
 20
40.1932791984
 40
0.56
100
AcDbArc
 50
90.0
 51
180.0
  0
ARC
  5
224
100
AcDbEntity
  8
0
100
AcDbCircle
 62
7
  6
CONTINUOUS
 10
73.509086439
 20
40.1932791984
 40
0.56
100
AcDbArc
 50
180.0
 51
270.0
  0
ARC
  5
225
100
AcDbEntity
  8
0
100
AcDbCircle
 62
7
  6
CONTINUOUS
 10
73.509086439
 20
40.1932791984
 40
0.56
100
AcDbArc
 50
270.0
 51
360.0
  0
ARC
  5
226
100
AcDbEntity
  8
0
100
AcDbCircle
 62
7
  6
CONTINUOUS
 10
73.509086439
 20
40.1932791984
 40
0.56
100
AcDbArc
 50
0.0
 51
90.0
  0
LINE
  5
227
100
AcDbEntity
  8
0
100
AcDbLine
 62
7
  6
CONTINUOUS
 10
73.509086439
 20
40.1932791984
 11
74.069086439
 21
40.1932791984
  0
LINE
  5
228
100
AcDbEntity
  8
0
100
AcDbLine
 62
7
  6
CONTINUOUS
 10
73.509086439
 20
40.1932791984
 11
73.509086439
 21
39.6332791984
  0
LINE
  5
229
100
AcDbEntity
  8
0
100
AcDbLine
 62
7
  6
CONTINUOUS
 10
72.949086439
 20
40.1932791984
 11
73.509086439
 21
40.1932791984
  0
LINE
  5
22A
100
AcDbEntity
  8
0
100
AcDbLine
 62
7
  6
CONTINUOUS
 10
73.509086439
 20
40.7532791984
 11
73.509086439
 21
40.1932791984
  0
LINE
  5
22B
100
AcDbEntity
  8
0
100
AcDbLine
 62
2
  6
CONTINUOUS
 10
73.509086439
 20
40.1895884292
 11
73.5127772082
 21
40.1932791984
  0
LWPOLYLINE
  5
22C
100
AcDbEntity
  8
0
100
AcDbPolyline
 62
7
  6
CONTINUOUS
 90
8
 70
0
 10
73.509086439
 20
40.1932791984
 10
73.509086439
 20
39.6332791984
 10
73.6821359559
 20
39.6606875493
 10
73.8382461803
 20
39.7402296816
 10
73.9621359559
 20
39.8641194572
 10
74.0416780881
 20
40.0202296816
 10
74.069086439
 20
40.1932791984
 10
73.509086439
 20
40.1932791984
  0
HATCH
  5
22D
100
AcDbEntity
  8
0
100
AcDbHatch
 62
7
  6
CONTINUOUS
 10
0.0
 20
0.0
 30
0.0
210
0.0
220
0.0
230
1.0
  2
SOLID
 70
1
 71
1
 91
1
 92
1
 93
7
 72
1
 10
73.509086439
 20
40.1932791984
 11
73.509086439
 21
39.6332791984
 72
1
 10
73.509086439
 20
39.6332791984
 11
73.6821359559
 21
39.6606875493
 72
1
 10
73.6821359559
 20
39.6606875493
 11
73.8382461803
 21
39.7402296816
 72
1
 10
73.8382461803
 20
39.7402296816
 11
73.9621359559
 21
39.8641194572
 72
1
 10
73.9621359559
 20
39.8641194572
 11
74.0416780881
 21
40.0202296816
 72
1
 10
74.0416780881
 20
40.0202296816
 11
74.069086439
 21
40.1932791984
 72
1
 10
74.069086439
 20
40.1932791984
 11
73.509086439
 21
40.1932791984
 97
1
330
22C
 75
0
 76
1
 98
1
 10
0.0
 20
0.0
  0
LWPOLYLINE
  5
22E
100
AcDbEntity
  8
0
100
AcDbPolyline
 62
7
  6
CONTINUOUS
 90
8
 70
0
 10
73.509086439
 20
40.1932791984
 10
72.949086439
 20
40.1932791984
 10
72.9764947899
 20
40.3663287153
 10
73.0560369222
 20
40.5224389397
 10
73.1799266977
 20
40.6463287153
 10
73.3360369222
 20
40.7258708476
 10
73.509086439
 20
40.7532791984
 10
73.509086439
 20
40.1932791984
  0
HATCH
  5
22F
100
AcDbEntity
  8
0
100
AcDbHatch
 62
7
  6
CONTINUOUS
 10
0.0
 20
0.0
 30
0.0
210
0.0
220
0.0
230
1.0
  2
SOLID
 70
1
 71
1
 91
1
 92
1
 93
7
 72
1
 10
73.509086439
 20
40.1932791984
 11
72.949086439
 21
40.1932791984
 72
1
 10
72.949086439
 20
40.1932791984
 11
72.9764947899
 21
40.3663287153
 72
1
 10
72.9764947899
 20
40.3663287153
 11
73.0560369222
 21
40.5224389397
 72
1
 10
73.0560369222
 20
40.5224389397
 11
73.1799266977
 21
40.6463287153
 72
1
 10
73.1799266977
 20
40.6463287153
 11
73.3360369222
 21
40.7258708476
 72
1
 10
73.3360369222
 20
40.7258708476
 11
73.509086439
 21
40.7532791984
 72
1
 10
73.509086439
 20
40.7532791984
 11
73.509086439
 21
40.1932791984
 97
1
330
22E
 75
0
 76
1
 98
1
 10
0.0
 20
0.0
  0
ENDBLK
  5
230
100
AcDbEntity
  8
0
  6
BYBLOCK
 62
0
100
AcDbBlockEnd
  0
BLOCK
  5
231
100
AcDbEntity
  8
0
100
AcDbBlockBegin
 62
2
  6
CONTINUOUS
  2
CG_3D_BL2
 70
64
 10
34.8962483587
 20
40.1899219403
  3
CG_3D_BL2
  1

  0
ARC
  5
232
100
AcDbEntity
  8
0
100
AcDbCircle
 62
7
  6
CONTINUOUS
 10
34.8962483587
 20
40.1899219403
 40
0.56
100
AcDbArc
 50
90.0
 51
180.0
  0
ARC
  5
233
100
AcDbEntity
  8
0
100
AcDbCircle
 62
7
  6
CONTINUOUS
 10
34.8962483587
 20
40.1899219403
 40
0.56
100
AcDbArc
 50
180.0
 51
270.0
  0
ARC
  5
234
100
AcDbEntity
  8
0
100
AcDbCircle
 62
7
  6
CONTINUOUS
 10
34.8962483587
 20
40.1899219403
 40
0.56
100
AcDbArc
 50
270.0
 51
360.0
  0
ARC
  5
235
100
AcDbEntity
  8
0
100
AcDbCircle
 62
7
  6
CONTINUOUS
 10
34.8962483587
 20
40.1899219403
 40
0.56
100
AcDbArc
 50
0.0
 51
90.0
  0
LINE
  5
236
100
AcDbEntity
  8
0
100
AcDbLine
 62
7
  6
CONTINUOUS
 10
34.8962483587
 20
40.1899219403
 11
35.4562483587
 21
40.1899219403
  0
LINE
  5
237
100
AcDbEntity
  8
0
100
AcDbLine
 62
7
  6
CONTINUOUS
 10
34.8962483587
 20
40.1899219403
 11
34.8962483587
 21
39.6299219403
  0
LINE
  5
238
100
AcDbEntity
  8
0
100
AcDbLine
 62
7
  6
CONTINUOUS
 10
34.3362483587
 20
40.1899219403
 11
34.8962483587
 21
40.1899219403
  0
LINE
  5
239
100
AcDbEntity
  8
0
100
AcDbLine
 62
7
  6
CONTINUOUS
 10
34.8962483587
 20
40.7499219403
 11
34.8962483587
 21
40.1899219403
  0
LINE
  5
23A
100
AcDbEntity
  8
0
100
AcDbLine
 62
2
  6
CONTINUOUS
 10
34.8962483587
 20
40.1862311711
 11
34.8999391279
 21
40.1899219403
  0
LWPOLYLINE
  5
23B
100
AcDbEntity
  8
0
100
AcDbPolyline
 62
7
  6
CONTINUOUS
 90
8
 70
0
 10
34.8962483587
 20
40.1899219403
 10
34.8962483587
 20
39.6299219403
 10
35.0692978755
 20
39.6573302912
 10
35.2254081
 20
39.7368724235
 10
35.3492978755
 20
39.860762199
 10
35.4288400078
 20
40.0168724235
 10
35.4562483587
 20
40.1899219403
 10
34.8962483587
 20
40.1899219403
  0
HATCH
  5
23C
100
AcDbEntity
  8
0
100
AcDbHatch
 62
7
  6
CONTINUOUS
 10
0.0
 20
0.0
 30
0.0
210
0.0
220
0.0
230
1.0
  2
SOLID
 70
1
 71
1
 91
1
 92
1
 93
7
 72
1
 10
34.8962483587
 20
40.1899219403
 11
34.8962483587
 21
39.6299219403
 72
1
 10
34.8962483587
 20
39.6299219403
 11
35.0692978755
 21
39.6573302912
 72
1
 10
35.0692978755
 20
39.6573302912
 11
35.2254081
 21
39.7368724235
 72
1
 10
35.2254081
 20
39.7368724235
 11
35.3492978755
 21
39.860762199
 72
1
 10
35.3492978755
 20
39.860762199
 11
35.4288400078
 21
40.0168724235
 72
1
 10
35.4288400078
 20
40.0168724235
 11
35.4562483587
 21
40.1899219403
 72
1
 10
35.4562483587
 20
40.1899219403
 11
34.8962483587
 21
40.1899219403
 97
1
330
23B
 75
0
 76
1
 98
1
 10
0.0
 20
0.0
  0
LWPOLYLINE
  5
23D
100
AcDbEntity
  8
0
100
AcDbPolyline
 62
7
  6
CONTINUOUS
 90
8
 70
0
 10
34.8962483587
 20
40.1899219403
 10
34.3362483587
 20
40.1899219403
 10
34.3636567095
 20
40.3629714572
 10
34.4431988418
 20
40.5190816816
 10
34.5670886174
 20
40.6429714572
 10
34.7231988418
 20
40.7225135895
 10
34.8962483587
 20
40.7499219403
 10
34.8962483587
 20
40.1899219403
  0
HATCH
  5
23E
100
AcDbEntity
  8
0
100
AcDbHatch
 62
7
  6
CONTINUOUS
 10
0.0
 20
0.0
 30
0.0
210
0.0
220
0.0
230
1.0
  2
SOLID
 70
1
 71
1
 91
1
 92
1
 93
7
 72
1
 10
34.8962483587
 20
40.1899219403
 11
34.3362483587
 21
40.1899219403
 72
1
 10
34.3362483587
 20
40.1899219403
 11
34.3636567095
 21
40.3629714572
 72
1
 10
34.3636567095
 20
40.3629714572
 11
34.4431988418
 21
40.5190816816
 72
1
 10
34.4431988418
 20
40.5190816816
 11
34.5670886174
 21
40.6429714572
 72
1
 10
34.5670886174
 20
40.6429714572
 11
34.7231988418
 21
40.7225135895
 72
1
 10
34.7231988418
 20
40.7225135895
 11
34.8962483587
 21
40.7499219403
 72
1
 10
34.8962483587
 20
40.7499219403
 11
34.8962483587
 21
40.1899219403
 97
1
330
23D
 75
0
 76
1
 98
1
 10
0.0
 20
0.0
  0
ENDBLK
  5
23F
100
AcDbEntity
  8
0
  6
BYBLOCK
 62
0
100
AcDbBlockEnd
  0
BLOCK
  5
240
100
AcDbEntity
  8
0
100
AcDbBlockBegin
 62
2
  6
CONTINUOUS
  2
CG_3D_BL1
 70
64
 10
14.6590236418
 20
16.6934492708
  3
CG_3D_BL1
  1

  0
ARC
  5
241
100
AcDbEntity
  8
0
100
AcDbCircle
 62
7
  6
CONTINUOUS
 10
14.6590236418
 20
16.6934492708
 40
0.752
100
AcDbArc
 50
90.0
 51
180.0
  0
ARC
  5
242
100
AcDbEntity
  8
0
100
AcDbCircle
 62
7
  6
CONTINUOUS
 10
14.6590236418
 20
16.6934492708
 40
0.752
100
AcDbArc
 50
180.0
 51
270.0
  0
ARC
  5
243
100
AcDbEntity
  8
0
100
AcDbCircle
 62
7
  6
CONTINUOUS
 10
14.6590236418
 20
16.6934492708
 40
0.752
100
AcDbArc
 50
270.0
 51
360.0
  0
ARC
  5
244
100
AcDbEntity
  8
0
100
AcDbCircle
 62
7
  6
CONTINUOUS
 10
14.6590236418
 20
16.6934492708
 40
0.752
100
AcDbArc
 50
0.0
 51
90.0
  0
LINE
  5
245
100
AcDbEntity
  8
0
100
AcDbLine
 62
7
  6
CONTINUOUS
 10
14.6590236418
 20
16.6934492708
 11
15.4110236418
 21
16.6934492708
  0
LINE
  5
246
100
AcDbEntity
  8
0
100
AcDbLine
 62
7
  6
CONTINUOUS
 10
14.6590236418
 20
16.6934492708
 11
14.6590236418
 21
15.9414492708
  0
LINE
  5
247
100
AcDbEntity
  8
0
100
AcDbLine
 62
7
  6
CONTINUOUS
 10
13.9070236418
 20
16.6934492708
 11
14.6590236418
 21
16.6934492708
  0
LINE
  5
248
100
AcDbEntity
  8
0
100
AcDbLine
 62
7
  6
CONTINUOUS
 10
14.6590236418
 20
17.4454492708
 11
14.6590236418
 21
16.6934492708
  0
LINE
  5
249
100
AcDbEntity
  8
0
100
AcDbLine
 62
2
  6
CONTINUOUS
 10
14.6590236418
 20
16.6884930949
 11
14.6639798176
 21
16.6934492708
  0
LWPOLYLINE
  5
24A
100
AcDbEntity
  8
0
100
AcDbPolyline
 62
7
  6
CONTINUOUS
 90
8
 70
0
 10
14.6590236418
 20
16.6934492708
 10
14.6590236418
 20
15.9414492708
 10
14.8914044215
 20
15.9782547705
 10
15.1010381515
 20
16.085068491
 10
15.2674044215
 20
16.2514347611
 10
15.374218142
 20
16.461068491
 10
15.4110236418
 20
16.6934492708
 10
14.6590236418
 20
16.6934492708
  0
HATCH
  5
24B
100
AcDbEntity
  8
0
100
AcDbHatch
 62
7
  6
CONTINUOUS
 10
0.0
 20
0.0
 30
0.0
210
0.0
220
0.0
230
1.0
  2
SOLID
 70
1
 71
1
 91
1
 92
1
 93
7
 72
1
 10
14.6590236418
 20
16.6934492708
 11
14.6590236418
 21
15.9414492708
 72
1
 10
14.6590236418
 20
15.9414492708
 11
14.8914044215
 21
15.9782547705
 72
1
 10
14.8914044215
 20
15.9782547705
 11
15.1010381515
 21
16.085068491
 72
1
 10
15.1010381515
 20
16.085068491
 11
15.2674044215
 21
16.2514347611
 72
1
 10
15.2674044215
 20
16.2514347611
 11
15.374218142
 21
16.461068491
 72
1
 10
15.374218142
 20
16.461068491
 11
15.4110236418
 21
16.6934492708
 72
1
 10
15.4110236418
 20
16.6934492708
 11
14.6590236418
 21
16.6934492708
 97
1
330
24A
 75
0
 76
1
 98
1
 10
0.0
 20
0.0
  0
LWPOLYLINE
  5
24C
100
AcDbEntity
  8
0
100
AcDbPolyline
 62
7
  6
CONTINUOUS
 90
8
 70
0
 10
14.6590236418
 20
16.6934492708
 10
13.9070236418
 20
16.6934492708
 10
13.9438291415
 20
16.9258300505
 10
14.050642862
 20
17.1354637805
 10
14.217009132
 20
17.3018300505
 10
14.426642862
 20
17.408643771
 10
14.6590236418
 20
17.4454492708
 10
14.6590236418
 20
16.6934492708
  0
HATCH
  5
24D
100
AcDbEntity
  8
0
100
AcDbHatch
 62
7
  6
CONTINUOUS
 10
0.0
 20
0.0
 30
0.0
210
0.0
220
0.0
230
1.0
  2
SOLID
 70
1
 71
1
 91
1
 92
1
 93
7
 72
1
 10
14.6590236418
 20
16.6934492708
 11
13.9070236418
 21
16.6934492708
 72
1
 10
13.9070236418
 20
16.6934492708
 11
13.9438291415
 21
16.9258300505
 72
1
 10
13.9438291415
 20
16.9258300505
 11
14.050642862
 21
17.1354637805
 72
1
 10
14.050642862
 20
17.1354637805
 11
14.217009132
 21
17.3018300505
 72
1
 10
14.217009132
 20
17.3018300505
 11
14.426642862
 21
17.408643771
 72
1
 10
14.426642862
 20
17.408643771
 11
14.6590236418
 21
17.4454492708
 72
1
 10
14.6590236418
 20
17.4454492708
 11
14.6590236418
 21
16.6934492708
 97
1
330
24C
 75
0
 76
1
 98
1
 10
0.0
 20
0.0
  0
ENDBLK
  5
24E
100
AcDbEntity
  8
0
  6
BYBLOCK
 62
0
100
AcDbBlockEnd
  0
BLOCK
  5
24F
100
AcDbEntity
  8
0
100
AcDbBlockBegin
 62
7
  6
CONTINUOUS
  2
RD010411_BL0
 70
64
 10
95.1105623904
 20
21.6088853214
  3
RD010411_BL0
  1

  0
ARC
  5
250
100
AcDbEntity
  8
0
100
AcDbCircle
 62
7
  6
CONTINUOUS
 10
100.3278549476
 20
22.4119009817
 40
0.0989721062
100
AcDbArc
 50
270.0
 51
360.0
  0
LINE
  5
251
100
AcDbEntity
  8
0
100
AcDbLine
 62
7
  6
CONTINUOUS
 10
100.4268270537
 20
22.4119009817
 11
100.4268270537
 21
22.6099132152
  0
ARC
  5
252
100
AcDbEntity
  8
0
100
AcDbCircle
 62
7
  6
CONTINUOUS
 10
100.3278549476
 20
22.6099132152
 40
0.0989721062
100
AcDbArc
 50
0.0
 51
90.0
  0
LINE
  5
253
100
AcDbEntity
  8
0
100
AcDbLine
 62
7
  6
CONTINUOUS
 10
100.3278549476
 20
22.7088853214
 11
97.6671082898
 21
22.7088853214
  0
SPLINE
  5
254
100
AcDbEntity
  8
0
100
AcDbSpline
 62
7
  6
CONTINUOUS
 70
0
 71
3
 72
13
 73
9
 74
0
 42
0.0000001
 43
0.0000001
 44
0.0000000001
 40
0.0
 40
0.0
 40
0.0
 40
0.0
 40
0.1310616762
 40
0.2699656353
 40
0.4157607805
 40
0.5899807757
 40
0.76586761
 40
0.9948829976
 40
0.9948829976
 40
0.9948829976
 40
0.9948829976
 10
97.6671082898
 20
22.7088853214
 30
0.0
 10
97.6111769737
 20
22.70471952
 30
0.0
 10
97.4959676043
 20
22.6961386505
 30
0.0
 10
97.3398359656
 20
22.5993905877
 30
0.0
 10
97.2277520805
 20
22.4369680155
 30
0.0
 10
97.1548693474
 20
22.2383609626
 30
0.0
 10
97.1138173424
 20
21.9955805803
 30
0.0
 10
97.1100375627
 20
21.8240276989
 30
0.0
 10
97.108078591
 20
21.7269835038
 30
0.0
  0
LINE
  5
255
100
AcDbEntity
  8
0
100
AcDbLine
 62
7
  6
CONTINUOUS
 10
97.108078591
 20
21.7269835038
 11
97.1082522977
 21
21.7119240726
  0
SPLINE
  5
256
100
AcDbEntity
  8
0
100
AcDbSpline
 62
7
  6
CONTINUOUS
 70
0
 71
3
 72
13
 73
9
 74
0
 42
0.0000001
 43
0.0000001
 44
0.0000000001
 40
0.0
 40
0.0
 40
0.0
 40
0.0
 40
0.2222860645
 40
0.3981728988
 40
0.572392894
 40
0.7181880393
 40
0.8570919984
 40
0.9881536746
 40
0.9881536746
 40
0.9881536746
 40
0.9881536746
 10
97.1082522977
 20
21.7119240726
 30
0.0
 10
97.1101726611
 20
21.6177326435
 30
0.0
 10
97.114293517
 20
21.4490622439
 30
0.0
 10
97.1548693139
 20
21.2090961259
 30
0.0
 10
97.2277529195
 20
21.0105112854
 30
0.0
 10
97.3398333086
 20
20.8480197814
 30
0.0
 10
97.4959768635
 20
20.7515029874
 30
0.0
 10
97.6111581447
 20
20.7423775537
 30
0.0
 10
97.6671082898
 20
20.7382103514
 30
0.0
  0
LINE
  5
257
100
AcDbEntity
  8
0
100
AcDbLine
 62
7
  6
CONTINUOUS
 10
97.6671082898
 20
20.7382103514
 11
100.3280709641
 21
20.7440181732
  0
ARC
  5
258
100
AcDbEntity
  8
0
100
AcDbCircle
 62
7
  6
CONTINUOUS
 10
100.3278549476
 20
20.8429900433
 40
0.0989721059
100
AcDbArc
 50
270.125053868
 51
360.0
  0
LINE
  5
259
100
AcDbEntity
  8
0
100
AcDbLine
 62
7
  6
CONTINUOUS
 10
100.4268270537
 20
20.8429900433
 11
100.4268270537
 21
21.0332714774
  0
ARC
  5
25A
100
AcDbEntity
  8
0
100
AcDbCircle
 62
7
  6
CONTINUOUS
 10
100.3278549476
 20
21.0332714774
 40
0.0989721062
100
AcDbArc
 50
0.0
 51
90.0
  0
LINE
  5
25B
100
AcDbEntity
  8
0
100
AcDbLine
 62
7
  6
CONTINUOUS
 10
100.3278549476
 20
21.1322435835
 11
98.047231402
 21
21.1322435835
  0
LINE
  5
25C
100
AcDbEntity
  8
0
100
AcDbLine
 62
7
  6
CONTINUOUS
 10
97.9482592958
 20
21.2312156897
 11
97.9482592958
 21
22.2139567693
  0
ARC
  5
25D
100
AcDbEntity
  8
0
100
AcDbCircle
 62
7
  6
CONTINUOUS
 10
98.0472314029
 20
22.2139567693
 40
0.0989721062
100
AcDbArc
 50
90.0
 51
180.0
  0
LINE
  5
25E
100
AcDbEntity
  8
0
100
AcDbLine
 62
7
  6
CONTINUOUS
 10
98.047231402
 20
22.3129288755
 11
100.3278549476
 21
22.3129288755
  0
LINE
  5
25F
100
AcDbEntity
  8
0
100
AcDbLine
 62
7
  6
CONTINUOUS
 10
93.9806770641
 20
21.5237048046
 11
95.8815725378
 21
21.5237048046
  0
ARC
  5
260
100
AcDbEntity
  8
0
100
AcDbCircle
 62
7
  6
CONTINUOUS
 10
95.8815725376
 20
21.4247326987
 40
0.0989721062
100
AcDbArc
 50
0.0
 51
90.0
  0
LINE
  5
261
100
AcDbEntity
  8
0
100
AcDbLine
 62
7
  6
CONTINUOUS
 10
95.980544644
 20
21.4247326985
 11
95.980544644
 21
21.2226418808
  0
LINE
  5
262
100
AcDbEntity
  8
0
100
AcDbLine
 62
7
  6
CONTINUOUS
 10
95.8815725378
 20
21.1236697746
 11
93.6657314188
 21
21.1236697746
  0
ARC
  5
263
100
AcDbEntity
  8
0
100
AcDbCircle
 62
7
  6
CONTINUOUS
 10
93.6657314188
 20
21.0246976684
 40
0.0989721062
100
AcDbArc
 50
90.0
 51
180.0
  0
LINE
  5
264
100
AcDbEntity
  8
0
100
AcDbLine
 62
7
  6
CONTINUOUS
 10
93.5667593127
 20
21.0246976684
 11
93.5667593127
 21
20.8371814587
  0
ARC
  5
265
100
AcDbEntity
  8
0
100
AcDbCircle
 62
7
  6
CONTINUOUS
 10
93.6657314188
 20
20.8371814587
 40
0.0989721062
100
AcDbArc
 50
180.0
 51
270.0
  0
LINE
  5
266
100
AcDbEntity
  8
0
100
AcDbLine
 62
7
  6
CONTINUOUS
 10
93.6657314188
 20
20.7382093526
 11
96.4165851552
 21
20.7382093526
  0
SPLINE
  5
267
100
AcDbEntity
  8
0
100
AcDbSpline
 62
7
  6
CONTINUOUS
 70
0
 71
3
 72
13
 73
9
 74
0
 42
0.0000001
 43
0.0000001
 44
0.0000000001
 40
0.0
 40
0.0
 40
0.0
 40
0.0
 40
0.1604571392
 40
0.3334692485
 40
0.4767982758
 40
0.6242014838
 40
0.7505998515
 40
1.0
 40
1.0
 40
1.0
 40
1.0
 10
96.4165851552
 20
20.7382093526
 30
0.0
 10
96.4629648926
 20
20.7404424541
 30
0.0
 10
96.5593533487
 20
20.7450833841
 30
0.0
 10
96.6889685193
 20
20.8013563473
 30
0.0
 10
96.7866378206
 20
20.8959465015
 30
0.0
 10
96.8416783131
 20
21.004390459
 30
0.0
 10
96.8838770378
 20
21.1498691391
 30
0.0
 10
96.8855894639
 20
21.2587384818
 30
0.0
 10
96.886725921
 20
21.3309900439
 30
0.0
  0
SPLINE
  5
268
100
AcDbEntity
  8
0
100
AcDbSpline
 62
7
  6
CONTINUOUS
 70
0
 71
3
 72
13
 73
9
 74
0
 42
0.0000001
 43
0.0000001
 44
0.0000000001
 40
0.0
 40
0.0
 40
0.0
 40
0.0
 40
0.2494001485
 40
0.3757985162
 40
0.5232017242
 40
0.6665307515
 40
0.8395428608
 40
1.0
 40
1.0
 40
1.0
 40
1.0
 10
96.886725921
 20
21.3309900439
 30
0.0
 10
96.8855894639
 20
21.4032416076
 30
0.0
 10
96.8838770378
 20
21.5121109487
 30
0.0
 10
96.8416783131
 20
21.6575896303
 30
0.0
 10
96.7866378206
 20
21.7660335878
 30
0.0
 10
96.6889685193
 20
21.8606237405
 30
0.0
 10
96.5593533487
 20
21.9168967038
 30
0.0
 10
96.4629648926
 20
21.9215376353
 30
0.0
 10
96.4165851552
 20
21.9237707353
 30
0.0
  0
LINE
  5
269
100
AcDbEntity
  8
0
100
AcDbLine
 62
7
  6
CONTINUOUS
 10
96.4165851552
 20
21.9237707353
 11
94.5410273599
 21
21.9237707353
  0
LINE
  5
26A
100
AcDbEntity
  8
0
100
AcDbLine
 62
7
  6
CONTINUOUS
 10
94.4420552537
 20
22.0227428414
 11
94.4420552537
 21
22.2100079955
  0
ARC
  5
26B
100
AcDbEntity
  8
0
100
AcDbCircle
 62
7
  6
CONTINUOUS
 10
94.541027359
 20
22.2100079955
 40
0.0989721062
100
AcDbArc
 50
90.0
 51
180.0
  0
LINE
  5
26C
100
AcDbEntity
  8
0
100
AcDbLine
 62
7
  6
CONTINUOUS
 10
94.5410273599
 20
22.3089801016
 11
96.7598761575
 21
22.3089801016
  0
ARC
  5
26D
100
AcDbEntity
  8
0
100
AcDbCircle
 62
7
  6
CONTINUOUS
 10
96.7598761575
 20
22.4079522078
 40
0.0989721062
100
AcDbArc
 50
270.0
 51
360.0
  0
LINE
  5
26E
100
AcDbEntity
  8
0
100
AcDbLine
 62
7
  6
CONTINUOUS
 10
96.8588482636
 20
22.4079522078
 11
96.8588482636
 21
22.6099132152
  0
ARC
  5
26F
100
AcDbEntity
  8
0
100
AcDbCircle
 62
7
  6
CONTINUOUS
 10
96.7598761575
 20
22.6099132152
 40
0.0989721062
100
AcDbArc
 50
0.0
 51
90.0
  0
LINE
  5
270
100
AcDbEntity
  8
0
100
AcDbLine
 62
7
  6
CONTINUOUS
 10
96.7598761575
 20
22.7088853214
 11
93.9806770641
 21
22.7088853214
  0
SPLINE
  5
271
100
AcDbEntity
  8
0
100
AcDbSpline
 62
7
  6
CONTINUOUS
 70
0
 71
3
 72
13
 73
9
 74
0
 42
0.0000001
 43
0.0000001
 44
0.0000000001
 40
0.0
 40
0.0
 40
0.0
 40
0.0
 40
0.1133740464
 40
0.2392044088
 40
0.3655787964
 40
0.4912154373
 40
0.7445390876
 40
1.0
 40
1.0
 40
1.0
 40
1.0
 10
93.9806770641
 20
22.7088853214
 30
0.0
 10
93.9489280549
 20
22.7073215347
 30
0.0
 10
93.8819417997
 20
22.7040221473
 30
0.0
 10
93.7824403435
 20
22.6742940846
 30
0.0
 10
93.6934265945
 20
22.6142638676
 30
0.0
 10
93.6024982559
 20
22.5036859177
 30
0.0
 10
93.545280377
 20
22.3300932485
 30
0.0
 10
93.5390750894
 20
22.1877604257
 30
0.0
 10
93.535959414
 20
22.116295063
 30
0.0
  0
SPLINE
  5
272
100
AcDbEntity
  8
0
100
AcDbSpline
 62
7
  6
CONTINUOUS
 70
0
 71
3
 72
13
 73
9
 74
0
 42
0.0000001
 43
0.0000001
 44
0.0000000001
 40
0.0
 40
0.0
 40
0.0
 40
0.0
 40
0.2554609124
 40
0.5087845627
 40
0.6344212036
 40
0.7607955912
 40
0.8866259536
 40
1.0
 40
1.0
 40
1.0
 40
1.0
 10
93.535959414
 20
22.116295063
 30
0.0
 10
93.5390750894
 20
22.0448297003
 30
0.0
 10
93.545280377
 20
21.902496876
 30
0.0
 10
93.6024982559
 20
21.7289042083
 30
0.0
 10
93.6934265945
 20
21.6183262584
 30
0.0
 10
93.7824403435
 20
21.5582960415
 30
0.0
 10
93.8819417997
 20
21.5285679787
 30
0.0
 10
93.9489280549
 20
21.5252685913
 30
0.0
 10
93.9806770641
 20
21.5237048046
 30
0.0
  0
LINE
  5
273
100
AcDbEntity
  8
0
100
AcDbLine
 62
7
  6
CONTINUOUS
 10
90.3237664464
 20
20.7382093526
 11
91.8615864213
 21
20.7382093526
  0
LINE
  5
274
100
AcDbEntity
  8
0
100
AcDbLine
 62
7
  6
CONTINUOUS
 10
91.8615864213
 20
20.7382093526
 11
91.8615864213
 21
20.5469515161
  0
ARC
  5
275
100
AcDbEntity
  8
0
100
AcDbCircle
 62
7
  6
CONTINUOUS
 10
91.899652616
 20
20.5469515161
 40
0.0380661947
100
AcDbArc
 50
180.0
 51
270.0
  0
LINE
  5
276
100
AcDbEntity
  8
0
100
AcDbLine
 62
7
  6
CONTINUOUS
 10
91.899652616
 20
20.5088853214
 11
92.4923819835
 21
20.5088853214
  0
ARC
  5
277
100
AcDbEntity
  8
0
100
AcDbCircle
 62
7
  6
CONTINUOUS
 10
92.4923819835
 20
20.5469515161
 40
0.0380661947
100
AcDbArc
 50
270.0
 51
360.0
  0
LINE
  5
278
100
AcDbEntity
  8
0
100
AcDbLine
 62
7
  6
CONTINUOUS
 10
92.5304481782
 20
20.5469515161
 11
92.5304481782
 21
20.7382093526
  0
LINE
  5
279
100
AcDbEntity
  8
0
100
AcDbLine
 62
7
  6
CONTINUOUS
 10
92.5304481782
 20
20.7382093526
 11
92.832841141
 21
20.7382093526
  0
SPLINE
  5
27A
100
AcDbEntity
  8
0
100
AcDbSpline
 62
7
  6
CONTINUOUS
 70
0
 71
3
 72
12
 73
8
 74
0
 42
0.0000001
 43
0.0000001
 44
0.0000000001
 40
0.0
 40
0.0
 40
0.0
 40
0.0
 40
0.2415790084
 40
0.4893269843
 40
0.7378634303
 40
0.8656387112
 40
1.0
 40
1.0
 40
1.0
 40
1.0
 10
92.832841141
 20
20.7382093526
 30
0.0
 10
92.8870631783
 20
20.7398950546
 30
0.0
 10
92.9968918698
 20
20.7433095055
 30
0.0
 10
93.1576146996
 20
20.8006275411
 30
0.0
 10
93.2552248385
 20
20.9088288235
 30
0.0
 10
93.2982286251
 20
21.0169419203
 30
0.0
 10
93.2990036163
 20
21.076166046
 30
0.0
 10
93.2994008477
 20
21.1065220913
 30
0.0
  0
LINE
  5
27B
100
AcDbEntity
  8
0
100
AcDbLine
 62
7
  6
CONTINUOUS
 10
93.2994008477
 20
21.1065220913
 11
93.2994008477
 21
22.3382612155
  0
SPLINE
  5
27C
100
AcDbEntity
  8
0
100
AcDbSpline
 62
7
  6
CONTINUOUS
 70
0
 71
3
 72
12
 73
8
 74
0
 42
0.0000001
 43
0.0000001
 44
0.0000000001
 40
0.0
 40
0.0
 40
0.0
 40
0.0
 40
0.1343612888
 40
0.2621365697
 40
0.5106730157
 40
0.7584209916
 40
1.0
 40
1.0
 40
1.0
 40
1.0
 10
93.2994008477
 20
22.3382612155
 30
0.0
 10
93.2990036163
 20
22.3686172623
 30
0.0
 10
93.2982286251
 20
22.427841388
 30
0.0
 10
93.2552248385
 20
22.5359544848
 30
0.0
 10
93.1576146996
 20
22.6441557672
 30
0.0
 10
92.9968918698
 20
22.7014738013
 30
0.0
 10
92.8870631783
 20
22.7048882522
 30
0.0
 10
92.832841141
 20
22.7065739542
 30
0.0
  0
LINE
  5
27D
100
AcDbEntity
  8
0
100
AcDbLine
 62
7
  6
CONTINUOUS
 10
92.832841141
 20
22.7065739542
 11
90.3237664464
 21
22.7065739542
  0
SPLINE
  5
27E
100
AcDbEntity
  8
0
100
AcDbSpline
 62
7
  6
CONTINUOUS
 70
0
 71
3
 72
12
 73
8
 74
0
 42
0.0000001
 43
0.0000001
 44
0.0000000001
 40
0.0
 40
0.0
 40
0.0
 40
0.0
 40
0.1341799809
 40
0.290831959
 40
0.5815217441
 40
0.760783857
 40
1.0
 40
1.0
 40
1.0
 40
1.0
 10
90.3237664464
 20
22.7065739542
 30
0.0
 10
90.2690390727
 20
22.6972205268
 30
0.0
 10
90.1504187758
 20
22.6769471902
 30
0.0
 10
89.9507405433
 20
22.5277680466
 30
0.0
 10
89.8561627986
 20
22.2767891181
 30
0.0
 10
89.8008262059
 20
21.9922813711
 30
0.0
 10
89.7966722614
 20
21.8201981179
 30
0.0
 10
89.7942977272
 20
21.7218295847
 30
0.0
  0
SPLINE
  5
27F
100
AcDbEntity
  8
0
100
AcDbSpline
 62
7
  6
CONTINUOUS
 70
0
 71
3
 72
12
 73
8
 74
0
 42
0.0000001
 43
0.0000001
 44
0.0000000001
 40
0.0
 40
0.0
 40
0.0
 40
0.0
 40
0.2392679579
 40
0.4185688994
 40
0.7093216488
 40
0.8660075581
 40
1.0
 40
1.0
 40
1.0
 40
1.0
 10
89.7942977272
 20
21.7218295847
 30
0.0
 10
89.79667321
 20
21.6234648856
 30
0.0
 10
89.8008288127
 20
21.4513883397
 30
0.0
 10
89.8561534648
 20
21.1668323125
 30
0.0
 10
89.9507889939
 20
20.9160870419
 30
0.0
 10
90.1502593333
 20
20.7664234831
 30
0.0
 10
90.2690213536
 20
20.7471114961
 30
0.0
 10
90.3237664464
 20
20.7382093526
 30
0.0
  0
LINE
  5
280
100
AcDbEntity
  8
0
100
AcDbLine
 62
7
  6
CONTINUOUS
 10
92.7925692128
 20
21.2449796674
 11
92.7925692128
 21
22.2318836539
  0
ARC
  5
281
100
AcDbEntity
  8
0
100
AcDbCircle
 62
7
  6
CONTINUOUS
 10
90.7161697175
 20
21.2449796674
 40
0.0989721062
100
AcDbArc
 50
180.0
 51
270.0
  0
LINE
  5
282
100
AcDbEntity
  8
0
100
AcDbLine
 62
7
  6
CONTINUOUS
 10
90.7161697175
 20
21.1460075612
 11
91.8529288622
 21
21.1460075612
  0
LINE
  5
283
100
AcDbEntity
  8
0
100
AcDbLine
 62
7
  6
CONTINUOUS
 10
91.8529288622
 20
21.1460075612
 11
91.8529288622
 21
21.3366727969
  0
ARC
  5
284
100
AcDbEntity
  8
0
100
AcDbCircle
 62
7
  6
CONTINUOUS
 10
91.8909950576
 20
21.3366727969
 40
0.0380661947
100
AcDbArc
 50
90.0
 51
180.0
  0
LINE
  5
285
100
AcDbEntity
  8
0
100
AcDbLine
 62
7
  6
CONTINUOUS
 10
91.8909950569
 20
21.3747389916
 11
92.4807037424
 21
21.3747389916
  0
ARC
  5
286
100
AcDbEntity
  8
0
100
AcDbCircle
 62
7
  6
CONTINUOUS
 10
92.480703741
 20
21.3366727983
 40
0.0380661947
100
AcDbArc
 50
0.0
 51
90.0
  0
LINE
  5
287
100
AcDbEntity
  8
0
100
AcDbLine
 62
7
  6
CONTINUOUS
 10
92.5187699371
 20
21.1460075612
 11
92.6935971067
 21
21.1460075612
  0
ARC
  5
288
100
AcDbEntity
  8
0
100
AcDbCircle
 62
7
  6
CONTINUOUS
 10
92.6935971067
 20
21.2449796674
 40
0.0989721062
100
AcDbArc
 50
270.0
 51
360.0
  0
LINE
  5
289
100
AcDbEntity
  8
0
100
AcDbLine
 62
7
  6
CONTINUOUS
 10
92.5187699371
 20
21.1460075612
 11
92.5187699371
 21
21.3366727969
  0
LINE
  5
28A
100
AcDbEntity
  8
0
100
AcDbLine
 62
7
  6
CONTINUOUS
 10
90.6171976114
 20
21.2449796674
 11
90.6171976114
 21
22.2318836539
  0
ARC
  5
28B
100
AcDbEntity
  8
0
100
AcDbCircle
 62
7
  6
CONTINUOUS
 10
90.7161697189
 20
22.2318836539
 40
0.0989721062
100
AcDbArc
 50
90.0
 51
180.0
  0
LINE
  5
28C
100
AcDbEntity
  8
0
100
AcDbLine
 62
7
  6
CONTINUOUS
 10
90.7161697175
 20
22.3308557601
 11
92.6935971067
 21
22.3308557601
  0
ARC
  5
28D
100
AcDbEntity
  8
0
100
AcDbCircle
 62
7
  6
CONTINUOUS
 10
92.6935971075
 20
22.2318836531
 40
0.0989721062
100
AcDbArc
 50
0.0000000277
 51
90.0000000277
  0
ARC
  5
28E
100
AcDbEntity
  8
0
100
AcDbCircle
 62
7
  6
CONTINUOUS
 10
94.5410273599
 20
22.0227428414
 40
0.0989721062
100
AcDbArc
 50
180.0
 51
270.0
  0
ARC
  5
28F
100
AcDbEntity
  8
0
100
AcDbCircle
 62
7
  6
CONTINUOUS
 10
95.8815725378
 20
21.2226418808
 40
0.0989721062
100
AcDbArc
 50
270.0
 51
360.0
  0
ARC
  5
290
100
AcDbEntity
  8
0
100
AcDbCircle
 62
7
  6
CONTINUOUS
 10
98.047231402
 20
21.2312156897
 40
0.0989721062
100
AcDbArc
 50
180.0
 51
270.0
  0
ENDBLK
  5
291
100
AcDbEntity
  8
0
  6
BYBLOCK
 62
0
100
AcDbBlockEnd
  0
BLOCK
  5
292
100
AcDbEntity
  8
0
100
AcDbBlockBegin
  2
_FILLED
 70
64
 10
0.0
 20
0.0
  3
_FILLED
  1

  0
SOLID
  5
293
100
AcDbEntity
  8
0
  6
BYBLOCK
 62
0
100
AcDbTrace
 10
0.0
 20
0.0
 11
-1.0
 21
0.1666666667
 12
-1.0
 22
-0.1666666667
 13
-1.0
 23
-0.1666666667
  0
ENDBLK
  5
294
100
AcDbEntity
  8
0
  6
BYBLOCK
 62
0
100
AcDbBlockEnd
  0
BLOCK
  5
295
100
AcDbEntity
  8
0
100
AcDbBlockBegin
 62
2
  6
CONTINUOUS
  2
*D0
 70
65
 10
0.0
 20
0.0
  3
*D0
  1

  0
MTEXT
  5
296
100
AcDbEntity
  8
0
100
AcDbMText
 62
2
  6
CONTINUOUS
  7
STANDARD
 71
2
 72
1
 10
45.2477224658
 20
41.1885837417
 30
0.0
 11
1.0
 21
0.0
 31
0.0
 44
0.9
  1
559\P[22.0]
 40
1.25
 41
7.0982142857
  0
LINE
  5
297
100
AcDbEntity
  8
0
100
AcDbLine
 62
2
  6
CONTINUOUS
 10
41.1602593327
 20
51.5635837417
 11
47.2298653229
 21
51.5635837417
  0
LINE
  5
298
100
AcDbEntity
  8
0
100
AcDbLine
 62
2
  6
CONTINUOUS
 10
41.1602593327
 20
29.5635837417
 11
47.2298653229
 21
29.5635837417
  0
LINE
  5
299
100
AcDbEntity
  8
0
100
AcDbLine
 62
2
  6
CONTINUOUS
 10
46.2298653229
 20
51.5635837417
 11
46.2298653229
 21
41.8135837417
  0
LINE
  5
29A
100
AcDbEntity
  8
0
100
AcDbLine
 62
2
  6
CONTINUOUS
 10
46.2298653229
 20
29.5635837417
 11
46.2298653229
 21
37.4385837417
  0
INSERT
  5
29B
100
AcDbEntity
  8
0
100
AcDbBlockReference
 62
2
  6
CONTINUOUS
  2
_FILLED
 10
46.2298653229
 20
51.5635837417
 41
1.5
 42
1.5
 43
1.5
 50
90.0
  0
INSERT
  5
29C
100
AcDbEntity
  8
0
100
AcDbBlockReference
 62
2
  6
CONTINUOUS
  2
_FILLED
 10
46.2298653229
 20
29.5635837417
 41
1.5
 42
1.5
 43
1.5
 50
270.0
  0
ENDBLK
  5
29D
100
AcDbEntity
  8
0
  6
BYBLOCK
 62
0
100
AcDbBlockEnd
  0
BLOCK
  5
29E
100
AcDbEntity
  8
0
100
AcDbBlockBegin
 62
2
  6
CONTINUOUS
  2
*D1
 70
65
 10
0.0
 20
0.0
  3
*D1
  1

  0
MTEXT
  5
29F
100
AcDbEntity
  8
0
100
AcDbMText
 62
2
  6
CONTINUOUS
  7
STANDARD
 71
2
 72
1
 10
75.8228919445
 20
55.8267556091
 30
0.0
 11
1.0
 21
0.0
 31
0.0
 44
0.9
  1
140\P[5.5]
 40
1.25
 41
5.3571428571
  0
LINE
  5
2A0
100
AcDbEntity
  8
0
100
AcDbLine
 62
2
  6
CONTINUOUS
 10
73.5134150042
 20
41.975489499
 11
73.5134150042
 21
56.2017556091
  0
LINE
  5
2A1
100
AcDbEntity
  8
0
100
AcDbLine
 62
2
  6
CONTINUOUS
 10
79.0252260278
 20
51.8273632692
 11
79.0252260278
 21
56.2017556091
  0
LINE
  5
2A2
100
AcDbEntity
  8
0
100
AcDbLine
 62
2
  6
CONTINUOUS
 10
73.5134150042
 20
55.2017556091
 11
69.5134150042
 21
55.2017556091
  0
LINE
  5
2A3
100
AcDbEntity
  8
0
100
AcDbLine
 62
2
  6
CONTINUOUS
 10
79.0252260278
 20
55.2017556091
 11
83.0252260278
 21
55.2017556091
  0
INSERT
  5
2A4
100
AcDbEntity
  8
0
100
AcDbBlockReference
 62
2
  6
CONTINUOUS
  2
_FILLED
 10
73.5134150042
 20
55.2017556091
 41
1.5
 42
1.5
 43
1.5
  0
INSERT
  5
2A5
100
AcDbEntity
  8
0
100
AcDbBlockReference
 62
2
  6
CONTINUOUS
  2
_FILLED
 10
79.0252260278
 20
55.2017556091
 41
1.5
 42
1.5
 43
1.5
 50
180.0
  0
ENDBLK
  5
2A6
100
AcDbEntity
  8
0
  6
BYBLOCK
 62
0
100
AcDbBlockEnd
  0
BLOCK
  5
2A7
100
AcDbEntity
  8
0
100
AcDbBlockBegin
 62
2
  6
CONTINUOUS
  2
*D2
 70
65
 10
0.0
 20
0.0
  3
*D2
  1

  0
MTEXT
  5
2A8
100
AcDbEntity
  8
0
100
AcDbMText
 62
2
  6
CONTINUOUS
  7
STANDARD
 71
2
 72
1
 10
82.3260217939
 20
36.4974108033
 30
0.0
 11
1.0
 21
0.0
 31
0.0
 44
0.9
  1
270\P[10.6]
 40
1.25
 41
6.6964285714
  0
LINE
  5
2A9
100
AcDbEntity
  8
0
100
AcDbLine
 62
2
  6
CONTINUOUS
 10
79.1067383846
 20
29.5635837417
 11
84.0849503653
 21
29.5635837417
  0
LINE
  5
2AA
100
AcDbEntity
  8
0
100
AcDbLine
 62
2
  6
CONTINUOUS
 10
75.1217312085
 20
40.1935050015
 11
84.0849503653
 21
40.1935050015
  0
LINE
  5
2AB
100
AcDbEntity
  8
0
100
AcDbLine
 62
2
  6
CONTINUOUS
 10
83.0849503653
 20
29.5635837417
 11
83.0849503653
 21
32.7474108033
  0
LINE
  5
2AC
100
AcDbEntity
  8
0
100
AcDbLine
 62
2
  6
CONTINUOUS
 10
83.0849503653
 20
40.1935050015
 11
83.0849503653
 21
37.1224108033
  0
INSERT
  5
2AD
100
AcDbEntity
  8
0
100
AcDbBlockReference
 62
2
  6
CONTINUOUS
  2
_FILLED
 10
83.0849503653
 20
29.5635837417
 41
1.5
 42
1.5
 43
1.5
 50
270.0
  0
INSERT
  5
2AE
100
AcDbEntity
  8
0
100
AcDbBlockReference
 62
2
  6
CONTINUOUS
  2
_FILLED
 10
83.0849503653
 20
40.1935050015
 41
1.5
 42
1.5
 43
1.5
 50
90.0
  0
ENDBLK
  5
2AF
100
AcDbEntity
  8
0
  6
BYBLOCK
 62
0
100
AcDbBlockEnd
  0
BLOCK
  5
2B0
100
AcDbEntity
  8
0
100
AcDbBlockBegin
 62
2
  6
CONTINUOUS
  2
*D3
 70
65
 10
0.0
 20
0.0
  3
*D3
  1

  0
MTEXT
  5
2B1
100
AcDbEntity
  8
0
100
AcDbMText
 62
2
  6
CONTINUOUS
  7
STANDARD
 71
2
 72
1
 10
17.2625409241
 20
68.4871241396
 30
0.0
 11
1.0
 21
0.0
 31
0.0
 44
0.9
  1
267\P[10.5]
 40
1.25
 41
6.5625
  0
LINE
  5
2B2
100
AcDbEntity
  8
0
100
AcDbLine
 62
2
  6
CONTINUOUS
 10
31.4504443334
 20
72.1861453297
 11
16.9768266384
 21
72.1861453297
  0
LINE
  5
2B3
100
AcDbEntity
  8
0
100
AcDbLine
 62
2
  6
CONTINUOUS
 10
38.9334876792
 20
61.6861453297
 11
16.9768266384
 21
61.6861453297
  0
LINE
  5
2B4
100
AcDbEntity
  8
0
100
AcDbLine
 62
2
  6
CONTINUOUS
 10
17.9768266384
 20
72.1861453297
 11
17.9768266384
 21
69.1121241396
  0
LINE
  5
2B5
100
AcDbEntity
  8
0
100
AcDbLine
 62
2
  6
CONTINUOUS
 10
17.9768266384
 20
61.6861453297
 11
17.9768266384
 21
64.7371241396
  0
INSERT
  5
2B6
100
AcDbEntity
  8
0
100
AcDbBlockReference
 62
2
  6
CONTINUOUS
  2
_FILLED
 10
17.9768266384
 20
72.1861453297
 41
1.5
 42
1.5
 43
1.5
 50
90.0
  0
INSERT
  5
2B7
100
AcDbEntity
  8
0
100
AcDbBlockReference
 62
2
  6
CONTINUOUS
  2
_FILLED
 10
17.9768266384
 20
61.6861453297
 41
1.5
 42
1.5
 43
1.5
 50
270.0
  0
ENDBLK
  5
2B8
100
AcDbEntity
  8
0
  6
BYBLOCK
 62
0
100
AcDbBlockEnd
  0
BLOCK
  5
2B9
100
AcDbEntity
  8
0
100
AcDbBlockBegin
 62
2
  6
CONTINUOUS
  2
*D4
 70
65
 10
0.0
 20
0.0
  3
*D4
  1

  0
MTEXT
  5
2BA
100
AcDbEntity
  8
0
100
AcDbMText
 62
2
  6
CONTINUOUS
  7
STANDARD
 71
2
 72
1
 10
34.0482655194
 20
58.4387610759
 30
0.0
 11
1.0
 21
0.0
 31
0.0
 44
0.9
  1
305\P[12.0]
 40
1.25
 41
6.6964285714
  0
LINE
  5
2BB
100
AcDbEntity
  8
0
100
AcDbLine
 62
2
  6
CONTINUOUS
 10
28.8964798051
 20
62.6491374556
 11
28.8964798051
 21
56.8137610759
  0
LINE
  5
2BC
100
AcDbEntity
  8
0
100
AcDbLine
 62
2
  6
CONTINUOUS
 10
40.8964798051
 20
62.6491374556
 11
40.8964798051
 21
56.8137610759
  0
LINE
  5
2BD
100
AcDbEntity
  8
0
100
AcDbLine
 62
2
  6
CONTINUOUS
 10
28.8964798051
 20
57.8137610759
 11
32.039336948
 21
57.8137610759
  0
LINE
  5
2BE
100
AcDbEntity
  8
0
100
AcDbLine
 62
2
  6
CONTINUOUS
 10
40.8964798051
 20
57.8137610759
 11
37.7536226623
 21
57.8137610759
  0
INSERT
  5
2BF
100
AcDbEntity
  8
0
100
AcDbBlockReference
 62
2
  6
CONTINUOUS
  2
_FILLED
 10
28.8964798051
 20
57.8137610759
 41
1.5
 42
1.5
 43
1.5
 50
180.0
  0
INSERT
  5
2C0
100
AcDbEntity
  8
0
100
AcDbBlockReference
 62
2
  6
CONTINUOUS
  2
_FILLED
 10
40.8964798051
 20
57.8137610759
 41
1.5
 42
1.5
 43
1.5
  0
ENDBLK
  5
2C1
100
AcDbEntity
  8
0
  6
BYBLOCK
 62
0
100
AcDbBlockEnd
  0
BLOCK
  5
2C2
100
AcDbEntity
  8
0
100
AcDbBlockBegin
 62
2
  6
CONTINUOUS
  2
*D5
 70
65
 10
0.0
 20
0.0
  3
*D5
  1

  0
MTEXT
  5
2C3
100
AcDbEntity
  8
0
100
AcDbMText
 62
2
  6
CONTINUOUS
  7
STANDARD
 71
2
 72
1
 10
37.3161226623
 20
28.3931891413
 30
0.0
 11
1.0
 21
0.0
 31
0.0
 44
0.9
  1
152\P[6.0]
 40
1.25
 41
5.625
  0
LINE
  5
2C4
100
AcDbEntity
  8
0
100
AcDbLine
 62
2
  6
CONTINUOUS
 10
40.8964798051
 20
29.6541349228
 11
40.8964798051
 21
26.7681891413
  0
LINE
  5
2C5
100
AcDbEntity
  8
0
100
AcDbLine
 62
2
  6
CONTINUOUS
 10
34.8964798051
 20
28.9116548817
 11
34.8964798051
 21
26.7681891413
  0
LINE
  5
2C6
100
AcDbEntity
  8
0
100
AcDbLine
 62
2
  6
CONTINUOUS
 10
40.8964798051
 20
27.7681891413
 11
44.8964798051
 21
27.7681891413
  0
LINE
  5
2C7
100
AcDbEntity
  8
0
100
AcDbLine
 62
2
  6
CONTINUOUS
 10
34.8964798051
 20
27.7681891413
 11
30.8964798051
 21
27.7681891413
  0
INSERT
  5
2C8
100
AcDbEntity
  8
0
100
AcDbBlockReference
 62
2
  6
CONTINUOUS
  2
_FILLED
 10
40.8964798051
 20
27.7681891413
 41
1.5
 42
1.5
 43
1.5
 50
180.0
  0
INSERT
  5
2C9
100
AcDbEntity
  8
0
100
AcDbBlockReference
 62
2
  6
CONTINUOUS
  2
_FILLED
 10
34.8964798051
 20
27.7681891413
 41
1.5
 42
1.5
 43
1.5
  0
ENDBLK
  5
2CA
100
AcDbEntity
  8
0
  6
BYBLOCK
 62
0
100
AcDbBlockEnd
  0
BLOCK
  5
2CB
100
AcDbEntity
  8
0
100
AcDbBlockBegin
 62
2
  6
CONTINUOUS
  2
*D6
 70
65
 10
0.0
 20
0.0
  3
*D6
  1

  0
MTEXT
  5
2CC
100
AcDbEntity
  8
0
100
AcDbMText
 62
2
  6
CONTINUOUS
  7
STANDARD
 71
2
 72
1
 10
24.701115041
 20
71.2714919138
 30
0.0
 11
1.0
 21
0.0
 31
0.0
 44
0.9
  1
134,5\P[5.3]
 40
1.25
 41
6.2946428571
  0
LINE
  5
2CD
100
AcDbEntity
  8
0
100
AcDbLine
 62
2
  6
CONTINUOUS
 10
31.4504443334
 20
72.1861453297
 11
23.701115041
 21
72.1861453297
  0
LINE
  5
2CE
100
AcDbEntity
  8
0
100
AcDbLine
 62
2
  6
CONTINUOUS
 10
33.3799443721
 20
66.889294936
 11
23.701115041
 21
66.889294936
  0
LINE
  5
2CF
100
AcDbEntity
  8
0
100
AcDbLine
 62
2
  6
CONTINUOUS
 10
24.701115041
 20
72.1861453297
 11
24.701115041
 21
76.1861453297
  0
LINE
  5
2D0
100
AcDbEntity
  8
0
100
AcDbLine
 62
2
  6
CONTINUOUS
 10
24.701115041
 20
66.889294936
 11
24.701115041
 21
62.889294936
  0
INSERT
  5
2D1
100
AcDbEntity
  8
0
100
AcDbBlockReference
 62
2
  6
CONTINUOUS
  2
_FILLED
 10
24.701115041
 20
72.1861453297
 41
1.5
 42
1.5
 43
1.5
 50
270.0
  0
INSERT
  5
2D2
100
AcDbEntity
  8
0
100
AcDbBlockReference
 62
2
  6
CONTINUOUS
  2
_FILLED
 10
24.701115041
 20
66.889294936
 41
1.5
 42
1.5
 43
1.5
 50
90.0
  0
ENDBLK
  5
2D3
100
AcDbEntity
  8
0
  6
BYBLOCK
 62
0
100
AcDbBlockEnd
  0
ENDSEC
  0
SECTION
  2
ENTITIES
  0
MTEXT
  5
2D4
100
AcDbEntity
  8
0
100
AcDbMText
 62
2
  6
CONTINUOUS
  7
STANDARD
 71
1
 72
1
 10
19.768344887
 20
3.2249906114
 30
0.0
 11
1.0
 21
0.0
 31
0.0
 44
0.9
  1
4
 40
1.25
 41
1.4732142857
  0
MTEXT
  5
2D5
100
AcDbEntity
  8
0
100
AcDbMText
 62
2
  6
CONTINUOUS
  7
STANDARD
 71
1
 72
1
 10
50.7532382473
 20
3.2191427264
 30
0.0
 11
1.0
 21
0.0
 31
0.0
 44
0.9
  1
3
 40
1.25
 41
1.3392857143
  0
MTEXT
  5
2D6
100
AcDbEntity
  8
0
100
AcDbMText
 62
2
  6
CONTINUOUS
  7
STANDARD
 71
1
 72
1
 10
81.6663749084
 20
3.2218032078
 30
0.0
 11
1.0
 21
0.0
 31
0.0
 44
0.9
  1
2
 40
1.25
 41
1.4732142857
  0
MTEXT
  5
2D7
100
AcDbEntity
  8
0
100
AcDbMText
 62
2
  6
CONTINUOUS
  7
STANDARD
 71
1
 72
1
 10
112.6375863398
 20
3.2219373305
 30
0.0
 11
1.0
 21
0.0
 31
0.0
 44
0.9
  1
1
 40
1.25
 41
1.0714285714
  0
MTEXT
  5
2D8
100
AcDbEntity
  8
0
100
AcDbMText
 62
2
  6
CONTINUOUS
  7
STANDARD
 71
1
 72
1
 10
19.772774971
 20
86.9564679635
 30
0.0
 11
1.0
 21
0.0
 31
0.0
 44
0.9
  1
4
 40
1.25
 41
1.4732142857
  0
MTEXT
  5
2D9
100
AcDbEntity
  8
0
100
AcDbMText
 62
2
  6
CONTINUOUS
  7
STANDARD
 71
1
 72
1
 10
50.7410042668
 20
86.9471762534
 30
0.0
 11
1.0
 21
0.0
 31
0.0
 44
0.9
  1
3
 40
1.25
 41
1.3392857143
  0
MTEXT
  5
2DA
100
AcDbEntity
  8
0
100
AcDbMText
 62
2
  6
CONTINUOUS
  7
STANDARD
 71
1
 72
1
 10
81.6810549507
 20
86.9456051582
 30
0.0
 11
1.0
 21
0.0
 31
0.0
 44
0.9
  1
2
 40
1.25
 41
1.4732142857
  0
MTEXT
  5
2DB
100
AcDbEntity
  8
0
100
AcDbMText
 62
2
  6
CONTINUOUS
  7
STANDARD
 71
1
 72
1
 10
112.6389761997
 20
86.9467317881
 30
0.0
 11
1.0
 21
0.0
 31
0.0
 44
0.9
  1
1
 40
1.25
 41
1.0714285714
  0
MTEXT
  5
2DC
100
AcDbEntity
  8
0
100
AcDbMText
 62
2
  6
CONTINUOUS
  7
STANDARD
 71
1
 72
1
 10
2.0341453325
 20
14.8743704737
 30
0.0
 11
1.0
 21
0.0
 31
0.0
 44
0.9
  1
A
 40
1.25
 41
1.6071428571
  0
MTEXT
  5
2DD
100
AcDbEntity
  8
0
100
AcDbMText
 62
2
  6
CONTINUOUS
  7
STANDARD
 71
1
 72
1
 10
2.0779778455
 20
34.8821648982
 30
0.0
 11
1.0
 21
0.0
 31
0.0
 44
0.9
  1
B
 40
1.25
 41
1.4732142857
  0
MTEXT
  5
2DE
100
AcDbEntity
  8
0
100
AcDbMText
 62
2
  6
CONTINUOUS
  7
STANDARD
 71
1
 72
1
 10
2.0663924527
 20
54.8632005076
 30
0.0
 11
1.0
 21
0.0
 31
0.0
 44
0.9
  1
C
 40
1.25
 41
1.5625
  0
MTEXT
  5
2DF
100
AcDbEntity
  8
0
100
AcDbMText
 62
2
  6
CONTINUOUS
  7
STANDARD
 71
1
 72
1
 10
2.0831341163
 20
74.8968615966
 30
0.0
 11
1.0
 21
0.0
 31
0.0
 44
0.9
  1
D
 40
1.25
 41
1.6964285714
  0
MTEXT
  5
2E0
100
AcDbEntity
  8
0
100
AcDbMText
 62
2
  6
CONTINUOUS
  7
STANDARD
 71
1
 72
1
 10
130.0031905634
 20
14.871961517
 30
0.0
 11
1.0
 21
0.0
 31
0.0
 44
0.9
  1
A
 40
1.25
 41
1.6071428571
  0
MTEXT
  5
2E1
100
AcDbEntity
  8
0
100
AcDbMText
 62
2
  6
CONTINUOUS
  7
STANDARD
 71
1
 72
1
 10
129.995734888
 20
34.8794651346
 30
0.0
 11
1.0
 21
0.0
 31
0.0
 44
0.9
  1
B
 40
1.25
 41
1.4732142857
  0
MTEXT
  5
2E2
100
AcDbEntity
  8
0
100
AcDbMText
 62
2
  6
CONTINUOUS
  7
STANDARD
 71
1
 72
1
 10
129.9924240661
 20
54.8588140813
 30
0.0
 11
1.0
 21
0.0
 31
0.0
 44
0.9
  1
C
 40
1.25
 41
1.5625
  0
MTEXT
  5
2E3
100
AcDbEntity
  8
0
100
AcDbMText
 62
2
  6
CONTINUOUS
  7
STANDARD
 71
1
 72
1
 10
129.9954782703
 20
74.8945504861
 30
0.0
 11
1.0
 21
0.0
 31
0.0
 44
0.9
  1
D
 40
1.25
 41
1.6964285714
  0
MTEXT
  5
2E4
100
AcDbEntity
  8
0
100
AcDbMText
 62
5
  6
CONTINUOUS
  7
STANDARD
 71
1
 72
1
 10
4.3539628491
 20
83.6997777609
 30
0.0
 11
1.0
 21
0.0
 31
0.0
 44
0.9
  1
THIS DOCUMENT CONTAINS PROPRIETARY INFORMATION\PWHICH IS THE PROPERTY OF QSC, LLC, THAT MAY NOT BE\PDISCLOSED, REPRODUCED OR USED WITHOUT EXPRESS\PWRITTEN CONSENT FROM QSC, LLC.
 40
0.6
 41
35.55
  0
MTEXT
  5
2E5
100
AcDbEntity
  8
0
100
AcDbMText
 62
2
  6
CONTINUOUS
  7
STANDARD
 71
2
 72
1
 10
57.8795782334
 20
20.7358839889
 30
0.0
 11
1.0
 21
0.0
 31
0.0
 44
0.9
  1
TOLERANCES ARE:
 40
0.72
 41
12.3685714286
  0
MTEXT
  5
2E6
100
AcDbEntity
  8
0
100
AcDbMText
 62
2
  6
CONTINUOUS
  7
STANDARD
 71
2
 72
1
 10
65.0343759551
 20
18.900005557
 30
0.0
 11
1.0
 21
0.0
 31
0.0
 44
0.9
  1
ANGLES\P\Fgdt;{\Fgdt;`}\Ftxt; 1/2
 40
0.72
 41
5.1428571429
  0
MTEXT
  5
2E7
100
AcDbEntity
  8
0
100
AcDbMText
 62
2
  6
CONTINUOUS
  7
STANDARD
 71
2
 72
1
 10
51.6713958464
 20
13.4897593405
 30
0.0
 11
1.0
 21
0.0
 31
0.0
 44
0.9
  1
MATERIAL
 40
0.72
 41
6.9171428571
  0
MTEXT
  5
2E8
100
AcDbEntity
  8
0
100
AcDbMText
 62
2
  6
CONTINUOUS
  7
STANDARD
 71
2
 72
1
 10
50.9051177282
 20
8.6171730156
 30
0.0
 11
1.0
 21
0.0
 31
0.0
 44
0.9
  1
FINISH
 40
0.72
 41
4.9114285714
  0
MTEXT
  5
2E9
100
AcDbEntity
  8
0
100
AcDbMText
 62
2
  6
CONTINUOUS
  7
STANDARD
 71
2
 72
1
 10
106.1583385184
 20
5.4472204939
 30
0.0
 11
1.0
 21
0.0
 31
0.0
 44
0.9
  1
DO NOT SCALE DRAWING
 40
1.0
 41
24.9285714286
  0
MTEXT
  5
2EA
100
AcDbEntity
  8
0
100
AcDbMText
 62
2
  6
CONTINUOUS
  7
STANDARD
 71
2
 72
1
 10
69.6716276485
 20
24.0761821884
 30
0.0
 11
1.0
 21
0.0
 31
0.0
 44
0.9
  1
DESIGNER
 40
0.72
 41
6.8142857143
  0
MTEXT
  5
2EB
100
AcDbEntity
  8
0
100
AcDbMText
 62
2
  6
CONTINUOUS
  7
STANDARD
 71
2
 72
1
 10
69.5219199023
 20
20.0059991905
 30
0.0
 11
1.0
 21
0.0
 31
0.0
 44
0.9
  1
ENGINEER
 40
0.72
 41
6.6085714286
  0
MTEXT
  5
2EC
100
AcDbEntity
  8
0
100
AcDbMText
 62
2
  6
CONTINUOUS
  7
STANDARD
 71
2
 72
1
 10
72.3819952416
 20
15.8763790958
 30
0.0
 11
1.0
 21
0.0
 31
0.0
 44
0.9
  1
TECHNICAL DIRECTOR
 40
0.72
 41
15.3771428571
  0
MTEXT
  5
2ED
100
AcDbEntity
  8
0
100
AcDbMText
 62
2
  6
CONTINUOUS
  7
STANDARD
 71
2
 72
1
 10
73.5916422012
 20
11.6980478999
 30
0.0
 11
1.0
 21
0.0
 31
0.0
 44
0.9
  1
MANUFACTURING ENGINEER
 40
0.72
 41
18.6171428571
  0
MTEXT
  5
2EE
100
AcDbEntity
  8
0
100
AcDbMText
 62
2
  6
CONTINUOUS
  7
STANDARD
 71
2
 72
1
 10
71.652188003
 20
5.4080197508
 30
0.0
 11
1.0
 21
0.0
 31
0.0
 44
0.9
  1
MODEL INFO:
 40
0.72
 41
8.82
  0
MTEXT
  5
2EF
100
AcDbEntity
  8
0
100
AcDbMText
 62
2
  6
CONTINUOUS
  7
STANDARD
 71
2
 72
1
 10
70.9108071463
 20
7.346888332
 30
0.0
 11
1.0
 21
0.0
 31
0.0
 44
0.9
  1
DRAWING INFO:
 40
0.72
 41
11.2114285714
  0
MTEXT
  5
2F0
100
AcDbEntity
  8
0
100
AcDbMText
 62
2
  6
CONTINUOUS
  7
STANDARD
 71
2
 72
1
 10
89.9149166511
 20
5.3361626418
 30
0.0
 11
1.0
 21
0.0
 31
0.0
 44
0.9
  1
SCALE:
 40
0.72
 41
4.7314285714
  0
MTEXT
  5
2F1
100
AcDbEntity
  8
0
100
AcDbMText
 62
2
  6
CONTINUOUS
  7
STANDARD
 71
2
 72
1
 10
116.9299418743
 20
5.3494470921
 30
0.0
 11
1.0
 21
0.0
 31
0.0
 44
0.9
  1
SHEET
 40
0.72
 41
4.3714285714
  0
MTEXT
  5
2F2
100
AcDbEntity
  8
0
100
AcDbMText
 62
2
  6
CONTINUOUS
  7
STANDARD
 71
2
 72
1
 10
89.9358356062
 20
9.6826373385
 30
0.0
 11
1.0
 21
0.0
 31
0.0
 44
0.9
  1
SIZE
 40
0.72
 41
3.3685714286
  0
MTEXT
  5
2F3
100
AcDbEntity
  8
0
100
AcDbMText
 62
2
  6
CONTINUOUS
  7
STANDARD
 71
2
 72
1
 10
95.8695808694
 20
9.6913315449
 30
0.0
 11
1.0
 21
0.0
 31
0.0
 44
0.9
  1
CAGE CODE
 40
0.72
 41
7.9971428571
  0
MTEXT
  5
2F4
100
AcDbEntity
  8
0
100
AcDbMText
 62
2
  6
CONTINUOUS
  7
STANDARD
 71
2
 72
1
 10
103.5275979842
 20
9.6746637257
 30
0.0
 11
1.0
 21
0.0
 31
0.0
 44
0.9
  1
DRAWING NO.
 40
0.72
 41
9.9771428571
  0
MTEXT
  5
2F5
100
AcDbEntity
  8
0
100
AcDbMText
 62
2
  6
CONTINUOUS
  7
STANDARD
 71
2
 72
1
 10
126.0970612755
 20
9.6853912535
 30
0.0
 11
1.0
 21
0.0
 31
0.0
 44
0.9
  1
REV
 40
0.72
 41
2.7257142857
  0
MTEXT
  5
2F6
100
AcDbEntity
  8
0
100
AcDbMText
 62
2
  6
CONTINUOUS
  7
STANDARD
 71
2
 72
1
 10
107.2505495693
 20
23.843773187
 30
0.0
 11
1.0
 21
0.0
 31
0.0
 44
0.9
  1
QSC, LLC
 40
1.25
 41
11.5178571429
  0
MTEXT
  5
2F7
100
AcDbEntity
  8
0
100
AcDbMText
 62
2
  6
CONTINUOUS
  7
STANDARD
 71
1
 72
1
 10
103.2970593104
 20
22.0343213111
 30
0.0
 11
1.0
 21
0.0
 31
0.0
 44
0.9
  1
1675 MACARTHUR BOULEVARD\PCOSTA MESA, CA  92626
 40
1.0
 41
28.6785714286
  0
MTEXT
  5
2F8
100
AcDbEntity
  8
0
100
AcDbMText
 62
2
  6
CONTINUOUS
  7
STANDARD
 71
1
 72
1
 10
93.0408679113
 20
7.9702119342
 30
0.0
 11
1.0
 21
0.0
 31
0.0
 44
0.9
  1
00PW4
 40
1.25
 41
8.7946428571
  0
MTEXT
  5
2F9
100
AcDbEntity
  8
0
100
AcDbMText
 62
2
  6
CONTINUOUS
  7
STANDARD
 71
2
 72
1
 10
58.0405510172
 20
23.7742594788
 30
0.0
 11
1.0
 21
0.0
 31
0.0
 44
0.9
  1
UNLESS OTHERWISE SPECIFIED\PDIMENSIONS IN MILLIMETERS [IN]
 40
0.8
 41
26.2857142857
  0
MTEXT
  5
2FA
100
AcDbEntity
  8
0
100
AcDbMText
 62
2
  6
CONTINUOUS
  7
STANDARD
 71
2
 72
1
 10
52.2274221171
 20
18.9113217143
 30
0.0
 11
1.0
 21
0.0
 31
0.0
 44
0.9
  1
DECIMALS\P.X\Fgdt;{\Fgdt;`}\Ftxt;.5[.02]
 40
0.72
 41
7.4314285714
  0
MTEXT
  5
2FB
100
AcDbEntity
  8
0
100
AcDbMText
 62
2
  6
CONTINUOUS
  7
STANDARD
 71
2
 72
1
 10
59.2064703022
 20
18.9151545084
 30
0.0
 11
1.0
 21
0.0
 31
0.0
 44
0.9
  1
DECIMALS\P.XX\Fgdt;{\Fgdt;`}\Ftxt;.25[.010]
 40
0.72
 41
9.8228571429
  0
MTEXT
  5
2FC
100
AcDbEntity
  8
0
100
AcDbMText
 62
2
  6
CONTINUOUS
  7
STANDARD
 71
2
 72
1
 10
57.9245699921
 20
15.7725105328
 30
0.0
 11
1.0
 21
0.0
 31
0.0
 44
0.9
  1
DEBURR EDGES .25 [.010] R MAX
 40
0.72
 41
23.5285714286
  0
INSERT
  5
2FD
100
AcDbEntity
  8
0
100
AcDbBlockReference
 62
7
  6
CONTINUOUS
  2
RD010411_BL0
 10
95.1105623904
 20
21.6088853214
  0
DIMENSION
  5
2FE
100
AcDbEntity
  8
0
100
AcDbDimension
 62
2
  6
CONTINUOUS
  2
*D0
 10
46.2298653229
 20
29.5635837417
 11
46.2298653229
 21
39.6260837417
 70
160
 71
2
 42
558.8
  3
DIMSTYLE_1
100
AcDbAlignedDimension
 13
41.0977593327
 23
51.5635837417
 14
41.0977593327
 24
29.5635837417
 50
270.0
100
AcDbRotatedDimension
  0
DIMENSION
  5
2FF
100
AcDbEntity
  8
0
100
AcDbDimension
 62
2
  6
CONTINUOUS
  2
*D1
 10
79.0252260278
 20
55.2017556091
 11
76.269320516
 21
54.2642556091
 70
160
 71
2
 42
140.0
  3
DIMSTYLE_1
100
AcDbAlignedDimension
 13
73.5134150042
 23
41.912989499
 14
79.0252260278
 24
51.7648632692
100
AcDbRotatedDimension
  0
DIMENSION
  5
300
100
AcDbEntity
  8
0
100
AcDbDimension
 62
2
  6
CONTINUOUS
  2
*D2
 10
83.0849503653
 20
40.1935050015
 11
83.0849503653
 21
34.9349108033
 70
160
 71
2
 42
270.0
  3
DIMSTYLE_1
100
AcDbAlignedDimension
 13
79.0442383846
 23
29.5635837417
 14
75.0592312085
 24
40.1935050015
 50
90.0
100
AcDbRotatedDimension
  0
DIMENSION
  5
301
100
AcDbEntity
  8
0
100
AcDbDimension
 62
2
  6
CONTINUOUS
  2
*D3
 10
17.9768266384
 20
61.6861453297
 11
17.9768266384
 21
66.9246241396
 70
160
 71
2
 42
266.7
  3
DIMSTYLE_1
100
AcDbAlignedDimension
 13
31.5129443334
 23
72.1861453297
 14
38.9959876792
 24
61.6861453297
 50
270.0
100
AcDbRotatedDimension
  0
DIMENSION
  5
302
100
AcDbEntity
  8
0
100
AcDbDimension
 62
2
  6
CONTINUOUS
  2
*D4
 10
40.8964798051
 20
57.8137610759
 11
34.8964798051
 21
56.8762610759
 70
160
 71
2
 42
304.8
  3
DIMSTYLE_1
100
AcDbAlignedDimension
 13
28.8964798051
 23
62.7116374556
 14
40.8964798051
 24
62.7116374556
100
AcDbRotatedDimension
  0
DIMENSION
  5
303
100
AcDbEntity
  8
0
100
AcDbDimension
 62
2
  6
CONTINUOUS
  2
*D5
 10
34.8964798051
 20
27.7681891413
 11
37.8964798051
 21
26.8306891413
 70
160
 71
2
 42
152.4
  3
DIMSTYLE_1
100
AcDbAlignedDimension
 13
40.8964798051
 23
29.7166349228
 14
34.8964798051
 24
28.9741548817
 50
180.0
100
AcDbRotatedDimension
  0
DIMENSION
  5
304
100
AcDbEntity
  8
0
100
AcDbDimension
 62
2
  6
CONTINUOUS
  2
*D6
 10
24.701115041
 20
66.889294936
 11
24.701115041
 21
69.7089919138
 70
160
 71
2
 42
134.54
  3
DIMSTYLE_2
100
AcDbAlignedDimension
 13
31.5129443334
 23
72.1861453297
 14
33.4424443721
 24
66.889294936
 50
270.0
100
AcDbRotatedDimension
  0
LWPOLYLINE
  5
305
100
AcDbEntity
  8
0
100
AcDbPolyline
 62
2
  6
CONTINUOUS
 90
2
 70
0
 43
0.16
 10
128.1150497468
 20
84.0246065853
 10
47.4550497468
 20
84.0246065853
  0
LWPOLYLINE
  5
306
100
AcDbEntity
  8
0
100
AcDbPolyline
 62
2
  6
CONTINUOUS
 90
2
 70
0
 43
0.16
 10
128.0350497468
 20
84.0246065853
 10
128.0350497468
 20
76.5246065853
  0
LWPOLYLINE
  5
307
100
AcDbEntity
  8
0
100
AcDbPolyline
 62
2
  6
CONTINUOUS
 90
2
 70
0
 43
0.16
 10
128.0350497468
 20
81.5246065853
 10
47.5350497468
 20
81.5246065853
  0
LWPOLYLINE
  5
308
100
AcDbEntity
  8
0
100
AcDbPolyline
 62
2
  6
CONTINUOUS
 90
2
 70
0
 43
0.16
 10
128.0350497468
 20
79.0246065853
 10
47.5350497468
 20
79.0246065853
  0
LWPOLYLINE
  5
309
100
AcDbEntity
  8
0
100
AcDbPolyline
 62
2
  6
CONTINUOUS
 90
2
 70
0
 43
0.16
 10
128.1150497468
 20
76.5246065853
 10
47.4550497468
 20
76.5246065853
  0
LWPOLYLINE
  5
30A
100
AcDbEntity
  8
0
100
AcDbPolyline
 62
2
  6
CONTINUOUS
 90
2
 70
0
 43
0.16
 10
122.0350497468
 20
81.5246065853
 10
122.0350497468
 20
76.5246065853
  0
LWPOLYLINE
  5
30B
100
AcDbEntity
  8
0
100
AcDbPolyline
 62
2
  6
CONTINUOUS
 90
2
 70
0
 43
0.16
 10
113.0350497468
 20
81.5246065853
 10
113.0350497468
 20
76.5246065853
  0
LWPOLYLINE
  5
30C
100
AcDbEntity
  8
0
100
AcDbPolyline
 62
2
  6
CONTINUOUS
 90
2
 70
0
 43
0.16
 10
109.0350497468
 20
81.5246065853
 10
109.0350497468
 20
76.5246065853
  0
LWPOLYLINE
  5
30D
100
AcDbEntity
  8
0
100
AcDbPolyline
 62
2
  6
CONTINUOUS
 90
2
 70
0
 43
0.16
 10
58.0350497468
 20
81.5246065853
 10
58.0350497468
 20
76.5246065853
  0
LWPOLYLINE
  5
30E
100
AcDbEntity
  8
0
100
AcDbPolyline
 62
2
  6
CONTINUOUS
 90
2
 70
0
 43
0.16
 10
51.5350497468
 20
81.5246065853
 10
51.5350497468
 20
76.5246065853
  0
LWPOLYLINE
  5
30F
100
AcDbEntity
  8
0
100
AcDbPolyline
 62
2
  6
CONTINUOUS
 90
2
 70
0
 43
0.16
 10
47.5350497468
 20
84.0246065853
 10
47.5350497468
 20
76.5246065853
  0
MTEXT
  5
310
100
AcDbEntity
  8
0
100
AcDbMText
 62
2
  6
CONTINUOUS
  7
STANDARD
 71
2
 72
1
 10
87.7850497468
 20
83.3996065853
 30
0.0
 11
1.0
 21
0.0
 31
0.0
 44
0.9
  1
REVISIONS
 40
1.25
 41
12.6785714286
  0
MTEXT
  5
311
100
AcDbEntity
  8
0
100
AcDbMText
 62
2
  6
CONTINUOUS
  7
STANDARD
 71
2
 72
1
 10
125.0350497468
 20
80.8986065853
 30
0.0
 11
1.0
 21
0.0
 31
0.0
 44
0.9
  1
ISSUED
 40
1.248
 41
8.6468571429
  0
MTEXT
  5
312
100
AcDbEntity
  8
0
100
AcDbMText
 62
2
  6
CONTINUOUS
  7
STANDARD
 71
2
 72
1
 10
117.5350497468
 20
80.8986065853
 30
0.0
 11
1.0
 21
0.0
 31
0.0
 44
0.9
  1
EFF DATE
 40
1.248
 41
11.7222857143
  0
MTEXT
  5
313
100
AcDbEntity
  8
0
100
AcDbMText
 62
2
  6
CONTINUOUS
  7
STANDARD
 71
2
 72
1
 10
111.0350497468
 20
80.8996065853
 30
0.0
 11
1.0
 21
0.0
 31
0.0
 44
0.9
  1
BY
 40
1.25
 41
3.0803571429
  0
MTEXT
  5
314
100
AcDbEntity
  8
0
100
AcDbMText
 62
2
  6
CONTINUOUS
  7
STANDARD
 71
2
 72
1
 10
83.5350497468
 20
80.8986065853
 30
0.0
 11
1.0
 21
0.0
 31
0.0
 44
0.9
  1
DESCRIPTION
 40
1.248
 41
15.9565714286
  0
MTEXT
  5
315
100
AcDbEntity
  8
0
100
AcDbMText
 62
2
  6
CONTINUOUS
  7
STANDARD
 71
2
 72
1
 10
54.7850497468
 20
80.8996065853
 30
0.0
 11
1.0
 21
0.0
 31
0.0
 44
0.9
  1
ECO
 40
1.25
 41
4.375
  0
MTEXT
  5
316
100
AcDbEntity
  8
0
100
AcDbMText
 62
2
  6
CONTINUOUS
  7
STANDARD
 71
2
 72
1
 10
49.5350497468
 20
80.8986065853
 30
0.0
 11
1.0
 21
0.0
 31
0.0
 44
0.9
  1
REV
 40
1.248
 41
4.368
  0
MTEXT
  5
317
100
AcDbEntity
  8
0
100
AcDbMText
 62
2
  6
CONTINUOUS
  7
STANDARD
 71
2
 72
1
 10
125.0350497468
 20
78.3996065853
 30
0.0
 11
1.0
 21
0.0
 31
0.0
 44
0.9
  1
DD
 40
1.25
 41
3.75
  0
MTEXT
  5
318
100
AcDbEntity
  8
0
100
AcDbMText
 62
2
  6
CONTINUOUS
  7
STANDARD
 71
2
 72
1
 10
117.5350497468
 20
78.3996065853
 30
0.0
 11
1.0
 21
0.0
 31
0.0
 44
0.9
  1
16-SEP-13
 40
1.25
 41
12.2767857143
  0
MTEXT
  5
319
100
AcDbEntity
  8
0
100
AcDbMText
 62
2
  6
CONTINUOUS
  7
STANDARD
 71
2
 72
1
 10
111.0350497468
 20
78.3996065853
 30
0.0
 11
1.0
 21
0.0
 31
0.0
 44
0.9
  1
VU
 40
1.25
 41
3.3928571429
  0
MTEXT
  5
31A
100
AcDbEntity
  8
0
100
AcDbMText
 62
2
  6
CONTINUOUS
  7
STANDARD
 71
1
 72
1
 10
58.5350497468
 20
78.3996065853
 30
0.0
 11
1.0
 21
0.0
 31
0.0
 44
0.9
  1
ADD MOUNTING INFORMATION
 40
1.25
 41
36.0267857143
  0
MTEXT
  5
31B
100
AcDbEntity
  8
0
100
AcDbMText
 62
2
  6
CONTINUOUS
  7
STANDARD
 71
2
 72
1
 10
54.7850497468
 20
78.3996065853
 30
0.0
 11
1.0
 21
0.0
 31
0.0
 44
0.9
  1
13080
 40
1.25
 41
7.1875
  0
MTEXT
  5
31C
100
AcDbEntity
  8
0
100
AcDbMText
 62
2
  6
CONTINUOUS
  7
STANDARD
 71
2
 72
1
 10
49.5350497468
 20
78.3996065853
 30
0.0
 11
1.0
 21
0.0
 31
0.0
 44
0.9
  1
B
 40
1.25
 41
1.8303571429
  0
LINE
  5
31D
100
AcDbEntity
  8
0
100
AcDbLine
 62
2
  6
CONTINUOUS
 10
49.0
 20
14.0
 11
67.0
 21
14.0
  0
LINE
  5
31E
100
AcDbEntity
  8
0
100
AcDbLine
 62
2
  6
CONTINUOUS
 10
49.0
 20
14.0
 11
49.0
 21
9.0
  0
LINE
  5
31F
100
AcDbEntity
  8
0
100
AcDbLine
 62
2
  6
CONTINUOUS
 10
49.0
 20
9.0
 11
67.0
 21
9.0
  0
LINE
  5
320
100
AcDbEntity
  8
0
100
AcDbLine
 62
2
  6
CONTINUOUS
 10
67.0
 20
14.0
 11
67.0
 21
9.0
  0
LINE
  5
321
100
AcDbEntity
  8
0
100
AcDbLine
 62
2
  6
CONTINUOUS
 10
49.0
 20
9.0
 11
67.0
 21
9.0
  0
LINE
  5
322
100
AcDbEntity
  8
0
100
AcDbLine
 62
2
  6
CONTINUOUS
 10
49.0
 20
9.0
 11
49.0
 21
4.0
  0
LINE
  5
323
100
AcDbEntity
  8
0
100
AcDbLine
 62
2
  6
CONTINUOUS
 10
49.0
 20
4.0
 11
67.0
 21
4.0
  0
LINE
  5
324
100
AcDbEntity
  8
0
100
AcDbLine
 62
2
  6
CONTINUOUS
 10
67.0
 20
9.0
 11
67.0
 21
4.0
  0
LINE
  5
325
100
AcDbEntity
  8
0
100
AcDbLine
 62
2
  6
CONTINUOUS
 10
67.0
 20
22.0
 11
81.0
 21
22.0
  0
LINE
  5
326
100
AcDbEntity
  8
0
100
AcDbLine
 62
2
  6
CONTINUOUS
 10
67.0
 20
22.0
 11
67.0
 21
18.5625
  0
LINE
  5
327
100
AcDbEntity
  8
0
100
AcDbLine
 62
2
  6
CONTINUOUS
 10
67.0
 20
18.5625
 11
81.0
 21
18.5625
  0
LINE
  5
328
100
AcDbEntity
  8
0
100
AcDbLine
 62
2
  6
CONTINUOUS
 10
81.0
 20
22.0
 11
81.0
 21
18.5625
  0
MTEXT
  5
329
100
AcDbEntity
  8
0
100
AcDbMText
 62
2
  6
CONTINUOUS
  7
STANDARD
 71
1
 72
1
 10
67.5
 20
20.4375
 30
0.0
 11
1.0
 21
0.0
 31
0.0
 44
0.9
  1
J. DELARM 
 40
1.25
 41
14.1517857143
  0
LINE
  5
32A
100
AcDbEntity
  8
0
100
AcDbLine
 62
2
  6
CONTINUOUS
 10
67.0
 20
18.5
 11
81.0
 21
18.5
  0
LINE
  5
32B
100
AcDbEntity
  8
0
100
AcDbLine
 62
2
  6
CONTINUOUS
 10
67.0
 20
18.5
 11
67.0
 21
14.98
  0
LINE
  5
32C
100
AcDbEntity
  8
0
100
AcDbLine
 62
2
  6
CONTINUOUS
 10
67.0
 20
14.98
 11
81.0
 21
14.98
  0
LINE
  5
32D
100
AcDbEntity
  8
0
100
AcDbLine
 62
2
  6
CONTINUOUS
 10
81.0
 20
18.5
 11
81.0
 21
14.98
  0
MTEXT
  5
32E
100
AcDbEntity
  8
0
100
AcDbMText
 62
2
  6
CONTINUOUS
  7
STANDARD
 71
1
 72
1
 10
67.5
 20
16.855
 30
0.0
 11
1.0
 21
0.0
 31
0.0
 44
0.9
  1
P. SANCHEZ 
 40
1.25
 41
15.8928571429
  0
LINE
  5
32F
100
AcDbEntity
  8
0
100
AcDbLine
 62
2
  6
CONTINUOUS
 10
67.0
 20
15.0
 11
81.0
 21
15.0
  0
LINE
  5
330
100
AcDbEntity
  8
0
100
AcDbLine
 62
2
  6
CONTINUOUS
 10
67.0
 20
15.0
 11
67.0
 21
11.5625
  0
LINE
  5
331
100
AcDbEntity
  8
0
100
AcDbLine
 62
2
  6
CONTINUOUS
 10
67.0
 20
11.5625
 11
81.0
 21
11.5625
  0
LINE
  5
332
100
AcDbEntity
  8
0
100
AcDbLine
 62
2
  6
CONTINUOUS
 10
81.0
 20
15.0
 11
81.0
 21
11.5625
  0
MTEXT
  5
333
100
AcDbEntity
  8
0
100
AcDbMText
 62
2
  6
CONTINUOUS
  7
STANDARD
 71
1
 72
1
 10
67.5
 20
13.4375
 30
0.0
 11
1.0
 21
0.0
 31
0.0
 44
0.9
  1
-
 40
1.25
 41
1.3392857143
  0
LINE
  5
334
100
AcDbEntity
  8
0
100
AcDbLine
 62
2
  6
CONTINUOUS
 10
67.0
 20
11.5
 11
81.0
 21
11.5
  0
LINE
  5
335
100
AcDbEntity
  8
0
100
AcDbLine
 62
2
  6
CONTINUOUS
 10
67.0
 20
11.5
 11
67.0
 21
7.98
  0
LINE
  5
336
100
AcDbEntity
  8
0
100
AcDbLine
 62
2
  6
CONTINUOUS
 10
67.0
 20
7.98
 11
81.0
 21
7.98
  0
LINE
  5
337
100
AcDbEntity
  8
0
100
AcDbLine
 62
2
  6
CONTINUOUS
 10
81.0
 20
11.5
 11
81.0
 21
7.98
  0
MTEXT
  5
338
100
AcDbEntity
  8
0
100
AcDbMText
 62
2
  6
CONTINUOUS
  7
STANDARD
 71
1
 72
1
 10
67.5
 20
9.855
 30
0.0
 11
1.0
 21
0.0
 31
0.0
 44
0.9
  1
-
 40
1.25
 41
1.3392857143
  0
LINE
  5
339
100
AcDbEntity
  8
0
100
AcDbLine
 62
2
  6
CONTINUOUS
 10
81.0
 20
22.0
 11
88.0
 21
22.0
  0
LINE
  5
33A
100
AcDbEntity
  8
0
100
AcDbLine
 62
2
  6
CONTINUOUS
 10
81.0
 20
22.0
 11
81.0
 21
18.48
  0
LINE
  5
33B
100
AcDbEntity
  8
0
100
AcDbLine
 62
2
  6
CONTINUOUS
 10
81.0
 20
18.48
 11
88.0
 21
18.48
  0
LINE
  5
33C
100
AcDbEntity
  8
0
100
AcDbLine
 62
2
  6
CONTINUOUS
 10
88.0
 20
22.0
 11
88.0
 21
18.48
  0
MTEXT
  5
33D
100
AcDbEntity
  8
0
100
AcDbMText
 62
2
  6
CONTINUOUS
  7
STANDARD
 71
2
 72
1
 10
84.5
 20
20.065
 30
0.0
 11
1.0
 21
0.0
 31
0.0
 44
0.9
  1
08-OCT-11
 40
0.96
 41
9.5314285714
  0
LINE
  5
33E
100
AcDbEntity
  8
0
100
AcDbLine
 62
2
  6
CONTINUOUS
 10
81.0
 20
18.5
 11
88.0
 21
18.5
  0
LINE
  5
33F
100
AcDbEntity
  8
0
100
AcDbLine
 62
2
  6
CONTINUOUS
 10
81.0
 20
18.5
 11
81.0
 21
14.98
  0
LINE
  5
340
100
AcDbEntity
  8
0
100
AcDbLine
 62
2
  6
CONTINUOUS
 10
81.0
 20
14.98
 11
88.0
 21
14.98
  0
LINE
  5
341
100
AcDbEntity
  8
0
100
AcDbLine
 62
2
  6
CONTINUOUS
 10
88.0
 20
18.5
 11
88.0
 21
14.98
  0
MTEXT
  5
342
100
AcDbEntity
  8
0
100
AcDbMText
 62
2
  6
CONTINUOUS
  7
STANDARD
 71
2
 72
1
 10
84.5
 20
16.565
 30
0.0
 11
1.0
 21
0.0
 31
0.0
 44
0.9
  1
15-OCT-12
 40
0.96
 41
9.4285714286
  0
LINE
  5
343
100
AcDbEntity
  8
0
100
AcDbLine
 62
2
  6
CONTINUOUS
 10
81.0
 20
15.0
 11
88.0
 21
15.0
  0
LINE
  5
344
100
AcDbEntity
  8
0
100
AcDbLine
 62
2
  6
CONTINUOUS
 10
81.0
 20
15.0
 11
81.0
 21
11.48
  0
LINE
  5
345
100
AcDbEntity
  8
0
100
AcDbLine
 62
2
  6
CONTINUOUS
 10
81.0
 20
11.48
 11
88.0
 21
11.48
  0
LINE
  5
346
100
AcDbEntity
  8
0
100
AcDbLine
 62
2
  6
CONTINUOUS
 10
88.0
 20
15.0
 11
88.0
 21
11.48
  0
MTEXT
  5
347
100
AcDbEntity
  8
0
100
AcDbMText
 62
2
  6
CONTINUOUS
  7
STANDARD
 71
2
 72
1
 10
84.5
 20
13.065
 30
0.0
 11
1.0
 21
0.0
 31
0.0
 44
0.9
  1
-
 40
0.96
 41
1.0285714286
  0
LINE
  5
348
100
AcDbEntity
  8
0
100
AcDbLine
 62
2
  6
CONTINUOUS
 10
81.0
 20
11.5
 11
88.0
 21
11.5
  0
LINE
  5
349
100
AcDbEntity
  8
0
100
AcDbLine
 62
2
  6
CONTINUOUS
 10
81.0
 20
11.5
 11
81.0
 21
8.0625
  0
LINE
  5
34A
100
AcDbEntity
  8
0
100
AcDbLine
 62
2
  6
CONTINUOUS
 10
81.0
 20
8.0625
 11
88.0
 21
8.0625
  0
LINE
  5
34B
100
AcDbEntity
  8
0
100
AcDbLine
 62
2
  6
CONTINUOUS
 10
88.0
 20
11.5
 11
88.0
 21
8.0625
  0
MTEXT
  5
34C
100
AcDbEntity
  8
0
100
AcDbMText
 62
2
  6
CONTINUOUS
  7
STANDARD
 71
2
 72
1
 10
84.5
 20
9.6475
 30
0.0
 11
1.0
 21
0.0
 31
0.0
 44
0.9
  1
-
 40
0.96
 41
1.0285714286
  0
LINE
  5
34D
100
AcDbEntity
  8
0
100
AcDbLine
 62
2
  6
CONTINUOUS
 10
67.0
 20
8.0
 11
88.0
 21
8.0
  0
LINE
  5
34E
100
AcDbEntity
  8
0
100
AcDbLine
 62
2
  6
CONTINUOUS
 10
67.0
 20
8.0
 11
67.0
 21
6.0
  0
LINE
  5
34F
100
AcDbEntity
  8
0
100
AcDbLine
 62
2
  6
CONTINUOUS
 10
67.0
 20
6.0
 11
88.0
 21
6.0
  0
LINE
  5
350
100
AcDbEntity
  8
0
100
AcDbLine
 62
2
  6
CONTINUOUS
 10
88.0
 20
8.0
 11
88.0
 21
6.0
  0
MTEXT
  5
351
100
AcDbEntity
  8
0
100
AcDbMText
 62
2
  6
CONTINUOUS
  7
STANDARD
 71
3
 72
1
 10
87.5
 20
7.505
 30
0.0
 11
1.0
 21
0.0
 31
0.0
 44
0.9
  1
FG-010230-2D.B.3
 40
0.88
 41
15.4314285714
  0
LINE
  5
352
100
AcDbEntity
  8
0
100
AcDbLine
 62
2
  6
CONTINUOUS
 10
67.0
 20
6.0
 11
88.0
 21
6.0
  0
LINE
  5
353
100
AcDbEntity
  8
0
100
AcDbLine
 62
2
  6
CONTINUOUS
 10
67.0
 20
6.0
 11
67.0
 21
4.0
  0
LINE
  5
354
100
AcDbEntity
  8
0
100
AcDbLine
 62
2
  6
CONTINUOUS
 10
67.0
 20
4.0
 11
88.0
 21
4.0
  0
LINE
  5
355
100
AcDbEntity
  8
0
100
AcDbLine
 62
2
  6
CONTINUOUS
 10
88.0
 20
6.0
 11
88.0
 21
4.0
  0
MTEXT
  5
356
100
AcDbEntity
  8
0
100
AcDbMText
 62
2
  6
CONTINUOUS
  7
STANDARD
 71
3
 72
1
 10
87.5
 20
5.505
 30
0.0
 11
1.0
 21
0.0
 31
0.0
 44
0.9
  1
FG-010230-3D.B.0
 40
0.88
 41
15.4314285714
  0
LINE
  5
357
100
AcDbEntity
  8
0
100
AcDbLine
 62
2
  6
CONTINUOUS
 10
88.0
 20
19.0
 11
128.0
 21
19.0
  0
LINE
  5
358
100
AcDbEntity
  8
0
100
AcDbLine
 62
2
  6
CONTINUOUS
 10
88.0
 20
19.0
 11
88.0
 21
10.0
  0
LINE
  5
359
100
AcDbEntity
  8
0
100
AcDbLine
 62
2
  6
CONTINUOUS
 10
88.0
 20
10.0
 11
128.0
 21
10.0
  0
LINE
  5
35A
100
AcDbEntity
  8
0
100
AcDbLine
 62
2
  6
CONTINUOUS
 10
128.0
 20
19.0
 11
128.0
 21
10.0
  0
MTEXT
  5
35B
100
AcDbEntity
  8
0
100
AcDbMText
 62
2
  6
CONTINUOUS
  7
STANDARD
 71
2
 72
1
 10
108.0
 20
15.58
 30
0.0
 11
1.0
 21
0.0
 31
0.0
 44
1.02
  1
SPEAKER, FINISHED, AP-5102
 40
1.6
 41
46.4
  0
LINE
  5
35C
100
AcDbEntity
  8
0
100
AcDbLine
 62
2
  6
CONTINUOUS
 10
88.0087384235
 20
9.9835237399
 11
92.0087384235
 21
9.9835237399
  0
LINE
  5
35D
100
AcDbEntity
  8
0
100
AcDbLine
 62
2
  6
CONTINUOUS
 10
88.0087384235
 20
9.9835237399
 11
88.0087384235
 21
5.9835237399
  0
LINE
  5
35E
100
AcDbEntity
  8
0
100
AcDbLine
 62
2
  6
CONTINUOUS
 10
88.0087384235
 20
5.9835237399
 11
92.0087384235
 21
5.9835237399
  0
LINE
  5
35F
100
AcDbEntity
  8
0
100
AcDbLine
 62
2
  6
CONTINUOUS
 10
92.0087384235
 20
9.9835237399
 11
92.0087384235
 21
5.9835237399
  0
MTEXT
  5
360
100
AcDbEntity
  8
0
100
AcDbMText
 62
2
  6
CONTINUOUS
  7
STANDARD
 71
2
 72
1
 10
90.0087384235
 20
8.2085237399
 30
0.0
 11
1.0
 21
0.0
 31
0.0
 44
0.9
  1
B
 40
1.6
 41
1.8857142857
  0
LINE
  5
361
100
AcDbEntity
  8
0
100
AcDbLine
 62
2
  6
CONTINUOUS
 10
100.0041399807
 20
9.959796713
 11
124.0041399807
 21
9.959796713
  0
LINE
  5
362
100
AcDbEntity
  8
0
100
AcDbLine
 62
2
  6
CONTINUOUS
 10
100.0041399807
 20
9.959796713
 11
100.0041399807
 21
5.959796713
  0
LINE
  5
363
100
AcDbEntity
  8
0
100
AcDbLine
 62
2
  6
CONTINUOUS
 10
100.0041399807
 20
5.959796713
 11
124.0041399807
 21
5.959796713
  0
LINE
  5
364
100
AcDbEntity
  8
0
100
AcDbLine
 62
2
  6
CONTINUOUS
 10
124.0041399807
 20
9.959796713
 11
124.0041399807
 21
5.959796713
  0
MTEXT
  5
365
100
AcDbEntity
  8
0
100
AcDbMText
 62
2
  6
CONTINUOUS
  7
STANDARD
 71
2
 72
1
 10
112.0041399807
 20
8.424796713
 30
0.0
 11
1.0
 21
0.0
 31
0.0
 44
0.9
  1
FG-010230-2D
 40
1.84
 41
24.9714285714
  0
LINE
  5
366
100
AcDbEntity
  8
0
100
AcDbLine
 62
2
  6
CONTINUOUS
 10
123.9895991701
 20
9.9863025809
 11
127.9895991701
 21
9.9863025809
  0
LINE
  5
367
100
AcDbEntity
  8
0
100
AcDbLine
 62
2
  6
CONTINUOUS
 10
123.9895991701
 20
9.9863025809
 11
123.9895991701
 21
5.9863025809
  0
LINE
  5
368
100
AcDbEntity
  8
0
100
AcDbLine
 62
2
  6
CONTINUOUS
 10
123.9895991701
 20
5.9863025809
 11
127.9895991701
 21
5.9863025809
  0
LINE
  5
369
100
AcDbEntity
  8
0
100
AcDbLine
 62
2
  6
CONTINUOUS
 10
127.9895991701
 20
9.9863025809
 11
127.9895991701
 21
5.9863025809
  0
MTEXT
  5
36A
100
AcDbEntity
  8
0
100
AcDbMText
 62
2
  6
CONTINUOUS
  7
STANDARD
 71
2
 72
1
 10
125.9895991701
 20
8.0513025809
 30
0.0
 11
1.0
 21
0.0
 31
0.0
 44
0.9
  1
B
 40
1.44
 41
1.6971428571
  0
LINE
  5
36B
100
AcDbEntity
  8
0
100
AcDbLine
 62
2
  6
CONTINUOUS
 10
115.004964955
 20
5.943431069
 11
128.004964955
 21
5.943431069
  0
LINE
  5
36C
100
AcDbEntity
  8
0
100
AcDbLine
 62
2
  6
CONTINUOUS
 10
115.004964955
 20
5.943431069
 11
115.004964955
 21
3.943431069
  0
LINE
  5
36D
100
AcDbEntity
  8
0
100
AcDbLine
 62
2
  6
CONTINUOUS
 10
115.004964955
 20
3.943431069
 11
128.004964955
 21
3.943431069
  0
LINE
  5
36E
100
AcDbEntity
  8
0
100
AcDbLine
 62
2
  6
CONTINUOUS
 10
128.004964955
 20
5.943431069
 11
128.004964955
 21
3.943431069
  0
MTEXT
  5
36F
100
AcDbEntity
  8
0
100
AcDbMText
 62
2
  6
CONTINUOUS
  7
STANDARD
 71
3
 72
1
 10
127.504964955
 20
5.688431069
 30
0.0
 11
1.0
 21
0.0
 31
0.0
 44
0.9
  1
1 OF 1
 40
1.12
 41
7.08
  0
LINE
  5
370
100
AcDbEntity
  8
0
100
AcDbLine
 62
2
  6
CONTINUOUS
 10
87.9860784968
 20
5.9905857353
 11
97.4900784968
 21
5.9905857353
  0
LINE
  5
371
100
AcDbEntity
  8
0
100
AcDbLine
 62
2
  6
CONTINUOUS
 10
87.9860784968
 20
5.9905857353
 11
87.9860784968
 21
3.9593357353
  0
LINE
  5
372
100
AcDbEntity
  8
0
100
AcDbLine
 62
2
  6
CONTINUOUS
 10
87.9860784968
 20
3.9593357353
 11
97.4900784968
 21
3.9593357353
  0
LINE
  5
373
100
AcDbEntity
  8
0
100
AcDbLine
 62
2
  6
CONTINUOUS
 10
97.4900784968
 20
5.9905857353
 11
97.4900784968
 21
3.9593357353
  0
MTEXT
  5
374
100
AcDbEntity
  8
0
100
AcDbMText
 62
2
  6
CONTINUOUS
  7
STANDARD
 71
3
 72
1
 10
96.9900784968
 20
5.5443357353
 30
0.0
 11
1.0
 21
0.0
 31
0.0
 44
0.9
  1
0.125
 40
0.96
 41
4.9371428571
  0
MTEXT
  5
375
100
AcDbEntity
  8
0
100
AcDbMText
 62
2
  6
CONTINUOUS
  7
STANDARD
 71
1
 72
1
 10
5.087632541
 20
21.706497864
 30
0.0
 11
1.0
 21
0.0
 31
0.0
 44
1.2
  3
5. PARTS ARE SYMMETRICAL ABOUT CENTER LINES \P   UNLESS OTHERWISE NOTED.\P4. SYMBOL    INDICATES CENTER OF BALANCE.\P3. SYMBOL \Fgdt;{\Fgdt;r}\Ftxt; INDICATES SUSPENSION POINT, \P   15 TOTAL:  M10-1.5 THD. \P2. TOLERANCES (MM): X \Fgdt;{\Fgdt;`}\Ftxt
  1
; 5, ANGLES: \Fgdt;{\Fgdt;`}\Ftxt; 1\Fgdt;{\Fgdt;~}\Ftxt;.\P1. NET WEIGHT APPROX. 21.8 KG (48 LBS)\PNOTE:  UNLESS OTHERWISE SPECIFIED
 40
1.12
 41
57.84
  0
LEADER
  5
376
100
AcDbEntity
  8
0
100
AcDbLeader
 62
2
  6
CONTINUOUS
  3
STANDARD
 71
1
 72
0
 73
0
 75
0
 40
1.25
 41
27.9464285714
 76
3
 10
35.2944405994
 20
67.0599451144
 30
0.0
 10
46.7301896239
 20
70.526410496
 30
0.0
 10
48.7301896239
 20
70.526410496
 30
0.0
340
377
1001
ACAD
1000
DSTYLE
1002
{
1070
77
1070
0
1002
}
  0
MTEXT
  5
377
102
{ACAD_REACTORS
330
376
102
}
100
AcDbEntity
  8
0
100
AcDbMText
 62
2
  6
CONTINUOUS
  7
STANDARD
 71
1
 72
1
 10
48.7301896239
 20
71.151410496
 30
0.0
 11
1.0
 21
0.0
 31
0.0
 44
0.9
  1
MOUNTING LOCATION TOP/BOTTOM\PUSES M10 FASTENER
 40
1.25
 41
41.9196428571
  0
MTEXT
  5
378
100
AcDbEntity
  8
0
100
AcDbMText
 62
2
  6
CONTINUOUS
  7
STANDARD
 71
1
 72
1
 10
106.6777286815
 20
39.8477369558
 30
0.0
 11
1.0
 21
0.0
 31
0.0
 44
0.9
  1
AP-5102
 40
1.25
 41
10.1339285714
  0
INSERT
  5
379
100
AcDbEntity
  8
0
100
AcDbBlockReference
 62
2
  6
CONTINUOUS
  2
CG_3D_BL1
 10
14.6590236418
 20
16.6934492708
  0
INSERT
  5
37A
100
AcDbEntity
  8
0
100
AcDbBlockReference
 62
2
  6
CONTINUOUS
  2
CG_3D_BL2
 10
34.8962483587
 20
40.1899219403
  0
INSERT
  5
37B
100
AcDbEntity
  8
0
100
AcDbBlockReference
 62
2
  6
CONTINUOUS
  2
CG_3D_BL3
 10
73.509086439
 20
40.1932791984
  0
LINE
  5
37C
100
AcDbEntity
  8
DEFAULT_3
100
AcDbLine
 62
7
  6
PHANTOM
 10
-0.0000155351
 20
-0.0
 11
-0.0000155351
 21
87.999864741
  0
LWPOLYLINE
  5
37D
100
AcDbEntity
  8
0
100
AcDbPolyline
 62
7
  6
CONTINUOUS
 90
2
 70
0
 43
0.1600000067
 10
2.1000675371
 20
42.6508267096
 10
2.1000675371
 20
45.3493049389
  0
LWPOLYLINE
  5
37E
100
AcDbEntity
  8
0
100
AcDbPolyline
 62
7
  6
CONTINUOUS
 90
2
 70
0
 43
0.2400000019
 10
3.9989391736
 20
83.997073512
 10
3.9989391736
 20
4.0
  0
LINE
  5
37F
100
AcDbEntity
  8
DEFAULT_3
100
AcDbLine
 62
7
  6
PHANTOM
 10
-0.0000155351
 20
-0.0
 11
136.0
 21
-0.0
  0
LWPOLYLINE
  5
380
100
AcDbEntity
  8
0
100
AcDbPolyline
 62
7
  6
CONTINUOUS
 90
2
 70
0
 43
0.2400000019
 10
28.4086287606
 20
84.0474694557
 10
28.4086287606
 20
80.0474694557
  0
LWPOLYLINE
  5
381
100
AcDbEntity
  8
0
100
AcDbPolyline
 62
7
  6
CONTINUOUS
 90
2
 70
0
 43
0.1600000067
 10
64.6510068802
 20
2.1035469717
 10
67.3494851095
 20
2.1035469717
  0
LWPOLYLINE
  5
382
100
AcDbEntity
  8
0
100
AcDbPolyline
 62
7
  6
CONTINUOUS
 90
2
 70
0
 43
0.2400000019
 10
3.9989391736
 20
4.0
 10
128.0
 20
4.0
  0
LWPOLYLINE
  5
383
100
AcDbEntity
  8
0
100
AcDbPolyline
 62
7
  6
CONTINUOUS
 90
2
 70
0
 43
0.1600000067
 10
67.0
 20
6.0
 10
128.0
 20
6.0
  0
LWPOLYLINE
  5
384
100
AcDbEntity
  8
0
100
AcDbPolyline
 62
7
  6
CONTINUOUS
 90
2
 70
0
 43
0.1600000067
 10
34.9992634771
 20
3.9994836227
 10
34.9992634771
 20
-0.0005163773
  0
LWPOLYLINE
  5
385
100
AcDbEntity
  8
0
100
AcDbPolyline
 62
7
  6
CONTINUOUS
 90
2
 70
0
 43
0.1600000067
 10
34.9997582729
 20
83.9983381755
 10
34.9997582729
 20
87.9983381755
  0
LWPOLYLINE
  5
386
100
AcDbEntity
  8
0
100
AcDbPolyline
 62
7
  6
CONTINUOUS
 90
2
 70
0
 43
0.1600000067
 10
4.0003657601
 20
44.0000658243
 10
2.1000675371
 20
42.6508267096
  0
LINE
  5
387
100
AcDbEntity
  8
0
100
AcDbLine
 62
7
  6
CONTINUOUS
 10
67.0598363665
 20
8.9394800533
 11
49.1682383006
 21
4.1463498555
  0
LWPOLYLINE
  5
388
100
AcDbEntity
  8
0
100
AcDbPolyline
 62
7
  6
CONTINUOUS
 90
2
 70
0
 43
0.1600000067
 10
67.0
 20
8.0
 10
88.0
 20
8.0
  0
LWPOLYLINE
  5
389
100
AcDbEntity
  8
0
100
AcDbPolyline
 62
7
  6
CONTINUOUS
 90
2
 70
0
 43
0.1600000067
 10
67.0
 20
9.0
 10
49.0
 20
9.0
  0
LWPOLYLINE
  5
38A
100
AcDbEntity
  8
0
100
AcDbPolyline
 62
7
  6
CONTINUOUS
 90
2
 70
0
 43
0.1600000067
 10
88.0
 20
10.0
 10
128.0
 20
10.0
  0
LWPOLYLINE
  5
38B
100
AcDbEntity
  8
0
100
AcDbPolyline
 62
7
  6
CONTINUOUS
 90
2
 70
0
 43
0.1600000067
 10
4.0003657601
 20
44.0000658243
 10
2.1000675371
 20
45.3493049389
  0
LINE
  5
38C
100
AcDbEntity
  8
0
100
AcDbLine
 62
7
  6
CONTINUOUS
 10
67.0598363665
 20
13.9392106907
 11
49.0442780369
 21
9.0221202291
  0
LWPOLYLINE
  5
38D
100
AcDbEntity
  8
0
100
AcDbPolyline
 62
7
  6
CONTINUOUS
 90
2
 70
0
 43
0.1600000067
 10
67.0134270735
 20
12.1477100685
 10
88.0134270735
 20
12.1477100685
  0
LWPOLYLINE
  5
38E
100
AcDbEntity
  8
0
100
AcDbPolyline
 62
7
  6
CONTINUOUS
 90
2
 70
0
 43
0.1600000067
 10
49.0
 20
14.0
 10
67.0
 20
14.0
  0
LWPOLYLINE
  5
38F
100
AcDbEntity
  8
0
100
AcDbPolyline
 62
7
  6
CONTINUOUS
 90
2
 70
0
 43
0.1600000067
 10
65.9975211915
 20
84.0003133494
 10
67.3467603061
 20
85.9006115724
  0
LWPOLYLINE
  5
390
100
AcDbEntity
  8
0
100
AcDbPolyline
 62
7
  6
CONTINUOUS
 90
2
 70
0
 43
0.1600000067
 10
66.980400956
 20
16.2846612468
 10
87.980400956
 20
16.2846612468
  0
LWPOLYLINE
  5
391
100
AcDbEntity
  8
0
100
AcDbPolyline
 62
7
  6
CONTINUOUS
 90
2
 70
0
 43
0.1600000067
 10
88.0
 20
19.0
 10
128.0
 20
19.0
  0
LWPOLYLINE
  5
392
100
AcDbEntity
  8
0
100
AcDbPolyline
 62
7
  6
CONTINUOUS
 90
2
 70
0
 43
0.1600000067
 10
67.0506977834
 20
20.3696098965
 10
88.0506977834
 20
20.3696098965
  0
LINE
  5
393
100
AcDbEntity
  8
0
100
AcDbLine
 62
7
  6
CONTINUOUS
 10
49.1269182127
 20
24.3931929324
 11
66.9771961907
 21
14.0218508665
  0
LWPOLYLINE
  5
394
100
AcDbEntity
  8
0
100
AcDbPolyline
 62
7
  6
CONTINUOUS
 90
2
 70
0
 43
0.1600000067
 10
66.0002459949
 20
4.0038451947
 10
67.3494851095
 20
2.1035469717
  0
LWPOLYLINE
  5
395
100
AcDbEntity
  8
0
100
AcDbPolyline
 62
7
  6
CONTINUOUS
 90
2
 70
0
 43
0.1600000067
 10
49.0
 20
4.0
 10
49.0
 20
24.5
  0
LWPOLYLINE
  5
396
100
AcDbEntity
  8
0
100
AcDbPolyline
 62
7
  6
CONTINUOUS
 90
2
 70
0
 43
0.1600000067
 10
3.9998131875
 20
23.9986950701
 10
-0.0001868125
 20
23.9986950701
  0
LWPOLYLINE
  5
397
100
AcDbEntity
  8
0
100
AcDbPolyline
 62
7
  6
CONTINUOUS
 90
2
 70
0
 43
0.1600000067
 10
128.0764649711
 20
23.998771453
 10
132.0764649711
 20
23.998771453
  0
LWPOLYLINE
  5
398
100
AcDbEntity
  8
0
100
AcDbPolyline
 62
7
  6
CONTINUOUS
 90
2
 70
0
 43
0.1600000067
 10
49.0
 20
24.5
 10
128.0
 20
24.5
  0
LWPOLYLINE
  5
399
100
AcDbEntity
  8
0
100
AcDbPolyline
 62
7
  6
CONTINUOUS
 90
2
 70
0
 43
0.1600000067
 10
65.9975211915
 20
84.0003133494
 10
65.9975211915
 20
88.0003133494
  0
LWPOLYLINE
  5
39A
100
AcDbEntity
  8
0
100
AcDbPolyline
 62
7
  6
CONTINUOUS
 90
2
 70
0
 43
0.1600000067
 10
66.0002459949
 20
4.0038451947
 10
66.0002459949
 20
0.0038451947
  0
LWPOLYLINE
  5
39B
100
AcDbEntity
  8
0
100
AcDbPolyline
 62
7
  6
CONTINUOUS
 90
2
 70
0
 43
0.1600000067
 10
67.0
 20
4.0
 10
67.0
 20
24.5
  0
LWPOLYLINE
  5
39C
100
AcDbEntity
  8
0
100
AcDbPolyline
 62
7
  6
CONTINUOUS
 90
2
 70
0
 43
0.1600000067
 10
128.0275024392
 20
43.9999049454
 10
132.0275024392
 20
43.9999049454
  0
LWPOLYLINE
  5
39D
100
AcDbEntity
  8
0
100
AcDbPolyline
 62
7
  6
CONTINUOUS
 90
2
 70
0
 43
0.1600000067
 10
4.0003657601
 20
44.0000658243
 10
0.0003657601
 20
44.0000658243
  0
LINE
  5
39E
100
AcDbEntity
  8
0
100
AcDbLine
 62
7
  6
CONTINUOUS
 10
67.0185162786
 20
24.4758331083
 11
49.1269182127
 21
14.1044910423
  0
LWPOLYLINE
  5
39F
100
AcDbEntity
  8
0
100
AcDbPolyline
 62
7
  6
CONTINUOUS
 90
2
 70
0
 43
0.1600000067
 10
88.0
 20
4.0
 10
88.0
 20
24.5
  0
LWPOLYLINE
  5
3A0
100
AcDbEntity
  8
0
100
AcDbPolyline
 62
7
  6
CONTINUOUS
 90
2
 70
0
 43
0.1600000067
 10
92.0
 20
6.0
 10
92.0
 20
10.0
  0
LWPOLYLINE
  5
3A1
100
AcDbEntity
  8
0
100
AcDbPolyline
 62
7
  6
CONTINUOUS
 90
2
 70
0
 43
0.1600000067
 10
66.0002459949
 20
4.0038451947
 10
64.6510068802
 20
2.1035469717
  0
LWPOLYLINE
  5
3A2
100
AcDbEntity
  8
0
100
AcDbPolyline
 62
7
  6
CONTINUOUS
 90
2
 70
0
 43
0.1600000067
 10
128.0362517414
 20
63.9974926681
 10
132.0362517414
 20
63.9974926681
  0
LWPOLYLINE
  5
3A3
100
AcDbEntity
  8
0
100
AcDbPolyline
 62
7
  6
CONTINUOUS
 90
2
 70
0
 43
0.1600000067
 10
3.9989381739
 20
63.9977524362
 10
-0.0010618261
 20
63.9977524362
  0
LWPOLYLINE
  5
3A4
100
AcDbEntity
  8
0
100
AcDbPolyline
 62
7
  6
CONTINUOUS
 90
2
 70
0
 43
0.1600000067
 10
65.9975211915
 20
84.0003133494
 10
64.6482820768
 20
85.9006115724
  0
LWPOLYLINE
  5
3A5
100
AcDbEntity
  8
0
100
AcDbPolyline
 62
7
  6
CONTINUOUS
 90
2
 70
0
 43
0.1600000067
 10
96.9977033616
 20
84.0114544006
 10
96.9977033616
 20
88.0114544006
  0
LWPOLYLINE
  5
3A6
100
AcDbEntity
  8
0
100
AcDbPolyline
 62
7
  6
CONTINUOUS
 90
2
 70
0
 43
0.1600000067
 10
96.9999247618
 20
3.9973760332
 10
96.9999247618
 20
-0.0026239668
  0
LWPOLYLINE
  5
3A7
100
AcDbEntity
  8
0
100
AcDbPolyline
 62
7
  6
CONTINUOUS
 90
2
 70
0
 43
0.1600000067
 10
97.4690317324
 20
4.0380012444
 10
97.4690317324
 20
6.0380012444
  0
LWPOLYLINE
  5
3A8
100
AcDbEntity
  8
0
100
AcDbPolyline
 62
7
  6
CONTINUOUS
 90
2
 70
0
 43
0.1600000067
 10
100.0
 20
6.0
 10
100.0
 20
10.0
  0
LWPOLYLINE
  5
3A9
100
AcDbEntity
  8
0
100
AcDbPolyline
 62
7
  6
CONTINUOUS
 90
2
 70
0
 43
0.1600000067
 10
128.0275024392
 20
43.9999049454
 10
129.9278006623
 20
45.3491440601
  0
LWPOLYLINE
  5
3AA
100
AcDbEntity
  8
0
100
AcDbPolyline
 62
7
  6
CONTINUOUS
 90
2
 70
0
 43
0.2400000019
 10
28.4086287606
 20
80.0474694557
 10
3.9086287606
 20
80.0474694557
  0
LWPOLYLINE
  5
3AB
100
AcDbEntity
  8
0
100
AcDbPolyline
 62
7
  6
CONTINUOUS
 90
2
 70
0
 43
0.1600000067
 10
128.0275024392
 20
43.9999049454
 10
129.9278006623
 20
42.6506658307
  0
LWPOLYLINE
  5
3AC
100
AcDbEntity
  8
0
100
AcDbPolyline
 62
7
  6
CONTINUOUS
 90
2
 70
0
 43
0.2400000019
 10
128.0
 20
83.997073512
 10
3.9989391736
 20
83.997073512
  0
LWPOLYLINE
  5
3AD
100
AcDbEntity
  8
0
100
AcDbPolyline
 62
7
  6
CONTINUOUS
 90
2
 70
0
 43
0.1600000067
 10
64.6482820768
 20
85.9006115724
 10
67.3467603061
 20
85.9006115724
  0
LWPOLYLINE
  5
3AE
100
AcDbEntity
  8
0
100
AcDbPolyline
 62
7
  6
CONTINUOUS
 90
2
 70
0
 43
0.1600000067
 10
115.0
 20
4.0
 10
115.0
 20
6.0
  0
LINE
  5
3AF
100
AcDbEntity
  8
DEFAULT_3
100
AcDbLine
 62
7
  6
PHANTOM
 10
-0.0000155351
 20
87.999864741
 11
136.0000797494
 21
87.999864741
  0
LWPOLYLINE
  5
3B0
100
AcDbEntity
  8
0
100
AcDbPolyline
 62
7
  6
CONTINUOUS
 90
2
 70
0
 43
0.1600000067
 10
124.0
 20
6.0
 10
124.0
 20
10.0
  0
LWPOLYLINE
  5
3B1
100
AcDbEntity
  8
0
100
AcDbPolyline
 62
7
  6
CONTINUOUS
 90
2
 70
0
 43
0.2400000019
 10
128.0
 20
83.997073512
 10
128.0
 20
4.0
  0
LWPOLYLINE
  5
3B2
100
AcDbEntity
  8
0
100
AcDbPolyline
 62
7
  6
CONTINUOUS
 90
2
 70
0
 43
0.1600000067
 10
129.9278006623
 20
42.6506658307
 10
129.9278006623
 20
45.3491440601
  0
LINE
  5
3B3
100
AcDbEntity
  8
DEFAULT_3
100
AcDbLine
 62
7
  6
PHANTOM
 10
136.0
 20
-0.0
 11
136.0
 21
87.997073512
  0
LINE
  5
3B4
100
AcDbEntity
  8
7_ALL_ROUNDS
100
AcDbLine
 62
7
  6
CONTINUOUS
 10
29.1327002776
 20
29.5635837417
 11
40.6602593327
 21
29.5635837417
  0
LINE
  5
3B5
100
AcDbEntity
  8
7_ALL_ROUNDS
100
AcDbLine
 62
9
  6
CONTINUOUS
 10
36.8577238661
 20
29.7998042141
 11
32.9352357442
 21
29.7998042141
  0
LINE
  5
3B6
100
AcDbEntity
  8
7_ALL_ROUNDS
100
AcDbLine
 62
9
  6
CONTINUOUS
 10
28.8964798051
 20
29.7998042141
 11
32.8933155821
 21
29.7998042141
  0
LINE
  5
3B7
100
AcDbEntity
  8
7_ALL_ROUNDS
100
AcDbLine
 62
9
  6
CONTINUOUS
 10
36.8996440282
 20
29.7998042141
 11
40.8964798051
 21
29.7998042141
  0
LINE
  5
3B8
100
AcDbEntity
  8
0
100
AcDbLine
 62
7
  6
CONTINUOUS
 10
28.8964798051
 20
30.1541349228
 11
30.3594719311
 21
30.1541349228
  0
LINE
  5
3B9
100
AcDbEntity
  8
3_ALL_AXES
100
AcDbLine
 62
7
  6
CONTINUOUS
 10
30.3594719311
 20
30.1541349228
 11
39.4334876792
 21
30.1541349228
  0
LINE
  5
3BA
100
AcDbEntity
  8
0
100
AcDbLine
 62
7
  6
CONTINUOUS
 10
39.4334876792
 20
30.1541349228
 11
40.8964798051
 21
30.1541349228
  0
LINE
  5
3BB
100
AcDbEntity
  8
3_AXES_OTHER
100
AcDbLine
 62
7
  6
CONTINUOUS
 10
40.6996294114
 20
30.7446861039
 11
39.4223309143
 21
30.7446861039
  0
LINE
  5
3BC
100
AcDbEntity
  8
0
100
AcDbLine
 62
7
  6
CONTINUOUS
 10
39.4223309143
 20
30.7446861039
 11
30.370628696
 21
30.7446861039
  0
LINE
  5
3BD
100
AcDbEntity
  8
3_AXES_OTHER
100
AcDbLine
 62
7
  6
CONTINUOUS
 10
30.370628696
 20
30.7446861039
 11
29.0933301988
 21
30.7446861039
  0
LINE
  5
3BE
100
AcDbEntity
  8
7_ALL_ROUNDS
100
AcDbLine
 62
7
  6
CONTINUOUS
 10
28.8964798051
 20
51.3273632692
 11
28.8964798051
 21
50.9730325606
  0
LINE
  5
3BF
100
AcDbEntity
  8
7_ALL_ROUNDS
100
AcDbLine
 62
7
  6
CONTINUOUS
 10
28.8964798051
 20
29.7998042141
 11
28.8964798051
 21
30.1541349228
  0
LINE
  5
3C0
100
AcDbEntity
  8
3_AXES_OTHER
100
AcDbLine
 62
7
  6
CONTINUOUS
 10
28.8964798051
 20
30.1541349228
 11
28.8964798051
 21
50.9730325606
  0
LINE
  5
3C1
100
AcDbEntity
  8
3_AXES_OTHER
100
AcDbLine
 62
7
  6
CONTINUOUS
 10
29.0933301988
 20
30.1541349228
 11
29.0933301988
 21
50.9730325606
  0
LINE
  5
3C2
100
AcDbEntity
  8
3_AXES_OTHER
100
AcDbLine
 62
7
  6
CONTINUOUS
 10
29.7783695689
 20
41.5242136629
 11
29.7783695689
 21
50.1856309858
  0
LINE
  5
3C3
100
AcDbEntity
  8
7_ALL_ROUNDS
100
AcDbLine
 62
7
  6
CONTINUOUS
 10
30.3594719311
 20
51.3273632692
 11
30.3594719311
 21
50.9730325606
  0
LINE
  5
3C4
100
AcDbEntity
  8
7_ALL_ROUNDS
100
AcDbLine
 62
7
  6
CONTINUOUS
 10
30.3594719311
 20
29.7998042141
 11
30.3594719311
 21
30.1541349228
  0
LINE
  5
3C5
100
AcDbEntity
  8
3_AXES_OTHER
100
AcDbLine
 62
7
  6
CONTINUOUS
 10
30.370628696
 20
50.9730325606
 11
30.370628696
 21
50.3824813795
  0
LINE
  5
3C6
100
AcDbEntity
  8
3_AXES_OTHER
100
AcDbLine
 62
7
  6
CONTINUOUS
 10
30.370628696
 20
30.1541349228
 11
30.370628696
 21
30.7446861039
  0
LINE
  5
3C7
100
AcDbEntity
  8
3_AXES_OTHER
100
AcDbLine
 62
7
  6
CONTINUOUS
 10
34.3621094054
 20
45.4027627553
 11
29.7783695689
 21
41.5242136629
  0
LINE
  5
3C8
100
AcDbEntity
  8
3_AXES_OTHER
100
AcDbLine
 62
7
  6
CONTINUOUS
 10
35.4308502049
 20
46.3070818934
 11
40.0145900414
 21
50.1856309858
  0
LINE
  5
3C9
100
AcDbEntity
  8
7_ALL_ROUNDS
100
AcDbLine
 62
7
  6
CONTINUOUS
 10
32.8933155821
 20
29.7998042141
 11
32.8933155821
 21
30.1541349228
  0
LINE
  5
3CA
100
AcDbEntity
  8
7_ALL_ROUNDS
100
AcDbLine
 62
7
  6
CONTINUOUS
 10
32.8933155821
 20
50.9730325606
 11
32.8933155821
 21
51.3273632692
  0
LINE
  5
3CB
100
AcDbEntity
  8
7_ALL_ROUNDS
100
AcDbLine
 62
7
  6
CONTINUOUS
 10
32.9352357442
 20
29.7998042141
 11
32.9352357442
 21
30.1541349228
  0
LINE
  5
3CC
100
AcDbEntity
  8
7_ALL_ROUNDS
100
AcDbLine
 62
7
  6
CONTINUOUS
 10
32.9352357442
 20
50.9730325606
 11
32.9352357442
 21
51.3273632692
  0
LINE
  5
3CD
100
AcDbEntity
  8
3_ALL_AXES
100
AcDbLine
 62
7
  6
CENTER
 10
34.8964798051
 20
40.1935050015
 11
34.8964798051
 21
29.2912831894
  0
LINE
  5
3CE
100
AcDbEntity
  8
3_ALL_AXES
100
AcDbLine
 62
7
  6
CENTER
 10
34.8964798051
 20
40.1935050015
 11
34.8964798051
 21
52.3814648158
  0
LINE
  5
3CF
100
AcDbEntity
  8
3_ALL_AXES
100
AcDbLine
 62
7
  6
CENTER
 10
34.8964798051
 20
40.1935050015
 11
33.7011318317
 21
40.1935050015
  0
LINE
  5
3D0
100
AcDbEntity
  8
3_ALL_AXES
100
AcDbLine
 62
7
  6
CENTER
 10
34.8964798051
 20
40.1935050015
 11
36.1578557182
 21
40.1935050015
  0
LINE
  5
3D1
100
AcDbEntity
  8
3_AXES_OTHER
100
AcDbLine
 62
7
  6
CONTINUOUS
 10
40.2665585453
 20
41.3509853165
 11
37.1169522461
 21
41.3509853165
  0
LINE
  5
3D2
100
AcDbEntity
  8
3_AXES_OTHER
100
AcDbLine
 62
7
  6
CONTINUOUS
 10
40.0145900414
 20
41.5242136629
 11
29.7783695689
 21
41.5242136629
  0
LINE
  5
3D3
100
AcDbEntity
  8
7_ALL_ROUNDS
100
AcDbLine
 62
7
  6
CONTINUOUS
 10
36.8577238661
 20
29.7998042141
 11
36.8577238661
 21
30.1541349228
  0
LINE
  5
3D4
100
AcDbEntity
  8
7_ALL_ROUNDS
100
AcDbLine
 62
7
  6
CONTINUOUS
 10
36.8577238661
 20
50.9730325606
 11
36.8577238661
 21
51.3273632692
  0
LINE
  5
3D5
100
AcDbEntity
  8
7_ALL_ROUNDS
100
AcDbLine
 62
7
  6
CONTINUOUS
 10
36.8996440282
 20
29.7998042141
 11
36.8996440282
 21
30.1541349228
  0
LINE
  5
3D6
100
AcDbEntity
  8
7_ALL_ROUNDS
100
AcDbLine
 62
7
  6
CONTINUOUS
 10
36.8996440282
 20
50.9730325606
 11
36.8996440282
 21
51.3273632692
  0
LINE
  5
3D7
100
AcDbEntity
  8
3_AXES_OTHER
100
AcDbLine
 62
7
  6
CONTINUOUS
 10
37.1169522461
 20
41.3509853165
 11
40.2665585453
 21
38.2013790172
  0
LINE
  5
3D8
100
AcDbEntity
  8
3_AXES_OTHER
100
AcDbLine
 62
7
  6
CONTINUOUS
 10
35.4308502049
 20
45.4027627553
 11
40.0145900414
 21
41.5242136629
  0
LINE
  5
3D9
100
AcDbEntity
  8
3_AXES_OTHER
100
AcDbLine
 62
7
  6
CONTINUOUS
 10
34.3621094054
 20
46.3070818934
 11
29.7783695689
 21
50.1856309858
  0
LINE
  5
3DA
100
AcDbEntity
  8
3_AXES_OTHER
100
AcDbLine
 62
7
  6
CONTINUOUS
 10
39.4223309143
 20
50.9730325606
 11
39.4223309143
 21
50.3824813795
  0
LINE
  5
3DB
100
AcDbEntity
  8
3_AXES_OTHER
100
AcDbLine
 62
7
  6
CONTINUOUS
 10
39.4223309143
 20
30.1541349228
 11
39.4223309143
 21
30.7446861039
  0
LINE
  5
3DC
100
AcDbEntity
  8
7_ALL_ROUNDS
100
AcDbLine
 62
7
  6
CONTINUOUS
 10
39.4334876792
 20
51.3273632692
 11
39.4334876792
 21
50.9730325606
  0
LINE
  5
3DD
100
AcDbEntity
  8
7_ALL_ROUNDS
100
AcDbLine
 62
7
  6
CONTINUOUS
 10
39.4334876792
 20
29.7998042141
 11
39.4334876792
 21
30.1541349228
  0
LINE
  5
3DE
100
AcDbEntity
  8
3_AXES_OTHER
100
AcDbLine
 62
7
  6
CONTINUOUS
 10
40.0145900414
 20
50.1856309858
 11
40.0145900414
 21
41.5242136629
  0
LINE
  5
3DF
100
AcDbEntity
  8
3_AXES_OTHER
100
AcDbLine
 62
7
  6
CONTINUOUS
 10
40.2665585453
 20
38.2013790172
 11
40.2665585453
 21
41.3509853165
  0
LINE
  5
3E0
100
AcDbEntity
  8
3_AXES_OTHER
100
AcDbLine
 62
7
  6
CONTINUOUS
 10
40.6996294114
 20
30.1541349228
 11
40.6996294114
 21
50.9730325606
  0
LINE
  5
3E1
100
AcDbEntity
  8
7_ALL_ROUNDS
100
AcDbLine
 62
7
  6
CONTINUOUS
 10
40.8964798051
 20
51.3273632692
 11
40.8964798051
 21
50.9730325606
  0
LINE
  5
3E2
100
AcDbEntity
  8
7_ALL_ROUNDS
100
AcDbLine
 62
7
  6
CONTINUOUS
 10
40.8964798051
 20
29.7998042141
 11
40.8964798051
 21
30.1541349228
  0
LINE
  5
3E3
100
AcDbEntity
  8
3_AXES_OTHER
100
AcDbLine
 62
7
  6
CONTINUOUS
 10
40.8964798051
 20
30.1541349228
 11
40.8964798051
 21
50.9730325606
  0
LINE
  5
3E4
100
AcDbEntity
  8
3_AXES_OTHER
100
AcDbLine
 62
7
  6
CONTINUOUS
 10
29.7783695689
 20
50.1856309858
 11
40.0145900414
 21
50.1856309858
  0
LINE
  5
3E5
100
AcDbEntity
  8
3_AXES_OTHER
100
AcDbLine
 62
7
  6
CONTINUOUS
 10
40.6996294114
 20
50.3824813795
 11
39.4223309143
 21
50.3824813795
  0
LINE
  5
3E6
100
AcDbEntity
  8
3_ALL_AXES
100
AcDbLine
 62
7
  6
CONTINUOUS
 10
39.4223309143
 20
50.3824813795
 11
30.370628696
 21
50.3824813795
  0
LINE
  5
3E7
100
AcDbEntity
  8
3_AXES_OTHER
100
AcDbLine
 62
7
  6
CONTINUOUS
 10
30.370628696
 20
50.3824813795
 11
29.0933301988
 21
50.3824813795
  0
LINE
  5
3E8
100
AcDbEntity
  8
3_ALL_AXES
100
AcDbLine
 62
7
  6
CONTINUOUS
 10
28.8964798051
 20
50.9730325606
 11
40.8964798051
 21
50.9730325606
  0
LINE
  5
3E9
100
AcDbEntity
  8
7_ALL_ROUNDS
100
AcDbLine
 62
9
  6
CONTINUOUS
 10
28.8964798051
 20
51.3273632692
 11
32.8933155821
 21
51.3273632692
  0
LINE
  5
3EA
100
AcDbEntity
  8
7_ALL_ROUNDS
100
AcDbLine
 62
9
  6
CONTINUOUS
 10
32.9352357442
 20
51.3273632692
 11
36.8577238661
 21
51.3273632692
  0
LINE
  5
3EB
100
AcDbEntity
  8
7_ALL_ROUNDS
100
AcDbLine
 62
9
  6
CONTINUOUS
 10
36.8996440282
 20
51.3273632692
 11
40.8964798051
 21
51.3273632692
  0
LINE
  5
3EC
100
AcDbEntity
  8
7_ALL_ROUNDS
100
AcDbLine
 62
7
  6
CONTINUOUS
 10
29.1327002776
 20
51.5635837417
 11
40.6602593327
 21
51.5635837417
  0
LINE
  5
3ED
100
AcDbEntity
  8
7_ALL_ROUNDS
100
AcDbLine
 62
7
  6
CONTINUOUS
 10
28.8964798051
 20
63.1491374556
 11
28.8964798051
 21
63.9050429674
  0
LINE
  5
3EE
100
AcDbEntity
  8
7_ALL_ROUNDS
100
AcDbLine
 62
9
  6
CONTINUOUS
 10
29.1327002776
 20
63.1787482407
 11
29.1327002776
 21
63.8676293201
  0
LINE
  5
3EF
100
AcDbEntity
  8
7_ALL_ROUNDS
100
AcDbLine
 62
7
  6
CONTINUOUS
 10
31.474916075
 20
71.8406538268
 11
28.8964798051
 21
63.9050429674
  0
LINE
  5
3F0
100
AcDbEntity
  8
7_ALL_ROUNDS
100
AcDbLine
 62
9
  6
CONTINUOUS
 10
31.6995750946
 20
71.7676576864
 11
29.1327002776
 21
63.8676293201
  0
LINE
  5
3F1
100
AcDbEntity
  8
3_AXES_OTHER
100
AcDbLine
 62
7
  6
CONTINUOUS
 10
34.2133616949
 20
62.2355574637
 11
34.3281294114
 21
62.2355574637
  0
LINE
  5
3F2
100
AcDbEntity
  8
3_AXES_OTHER
100
AcDbLine
 62
7
  6
CONTINUOUS
 10
34.5666727185
 20
62.2742700621
 11
35.1170349233
 21
62.2742700621
  0
LINE
  5
3F3
100
AcDbEntity
  8
3_AXES_OTHER
100
AcDbLine
 62
7
  6
CONTINUOUS
 10
34.3402750807
 20
62.2742739992
 11
34.3984758681
 21
62.2742739992
  0
LINE
  5
3F4
100
AcDbEntity
  8
3_AXES_OTHER
100
AcDbLine
 62
7
  6
CONTINUOUS
 10
35.3646648445
 20
62.2742739992
 11
35.8964404351
 21
62.2742739992
  0
LINE
  5
3F5
100
AcDbEntity
  8
3_AXES_OTHER
100
AcDbLine
 62
7
  6
CONTINUOUS
 10
33.8969994902
 20
62.2742779362
 11
34.2012160256
 21
62.2742779362
  0
LINE
  5
3F6
100
AcDbEntity
  8
3_AXES_OTHER
100
AcDbLine
 62
7
  6
CONTINUOUS
 10
35.0053026398
 20
62.3540180936
 11
34.5666727185
 21
62.3540180936
  0
LINE
  5
3F7
100
AcDbEntity
  8
3_AXES_OTHER
100
AcDbLine
 62
7
  6
CONTINUOUS
 10
35.8964404351
 20
62.3540220307
 11
35.442905002
 21
62.3540220307
  0
LINE
  5
3F8
100
AcDbEntity
  8
3_AXES_OTHER
100
AcDbLine
 62
7
  6
CONTINUOUS
 10
34.3668498839
 20
62.3540220307
 11
34.3402750807
 21
62.3540220307
  0
LINE
  5
3F9
100
AcDbEntity
  8
3_AXES_OTHER
100
AcDbLine
 62
7
  6
CONTINUOUS
 10
34.2012160256
 20
62.3540220307
 11
33.9776884666
 21
62.3540220307
  0
LINE
  5
3FA
100
AcDbEntity
  8
3_AXES_OTHER
100
AcDbLine
 62
7
  6
CONTINUOUS
 10
34.3281294114
 20
62.3927543141
 11
34.2133616949
 21
62.3927543141
  0
LINE
  5
3FB
100
AcDbEntity
  8
3_AXES_OTHER
100
AcDbLine
 62
7
  6
CONTINUOUS
 10
34.6301766555
 20
62.4337661251
 11
35.0053026398
 21
62.4337661251
  0
LINE
  5
3FC
100
AcDbEntity
  8
3_AXES_OTHER
100
AcDbLine
 62
7
  6
CONTINUOUS
 10
35.1170349233
 20
62.51020707
 11
34.741908939
 21
62.51020707
  0
LINE
  5
3FD
100
AcDbEntity
  8
3_AXES_OTHER
100
AcDbLine
 62
7
  6
CONTINUOUS
 10
33.9776884666
 20
62.5899551015
 11
34.3668498839
 21
62.5899551015
  0
LINE
  5
3FE
100
AcDbEntity
  8
3_AXES_OTHER
100
AcDbLine
 62
7
  6
CONTINUOUS
 10
34.741908939
 20
62.5899551015
 11
35.1805388603
 21
62.5899551015
  0
LINE
  5
3FF
100
AcDbEntity
  8
3_AXES_OTHER
100
AcDbLine
 62
7
  6
CONTINUOUS
 10
35.442905002
 20
62.5899551015
 11
35.8964404351
 21
62.5899551015
  0
LINE
  5
400
100
AcDbEntity
  8
3_ALL_AXES
100
AcDbLine
 62
7
  6
CENTER
 10
31.0179726844
 20
65.2871949323
 11
31.0179726844
 21
64.1292234301
  0
LINE
  5
401
100
AcDbEntity
  8
3_ALL_AXES
100
AcDbLine
 62
7
  6
CENTER
 10
31.0179726844
 20
65.2871949323
 11
31.0179726844
 21
66.3125107632
  0
LINE
  5
402
100
AcDbEntity
  8
3_AXES_OTHER
100
AcDbLine
 62
7
  6
CONTINUOUS
 10
35.8964404351
 20
62.669703133
 11
35.3646648445
 21
62.669703133
  0
LINE
  5
403
100
AcDbEntity
  8
3_AXES_OTHER
100
AcDbLine
 62
7
  6
CONTINUOUS
 10
35.1805388603
 20
62.669703133
 11
34.6301766555
 21
62.669703133
  0
LINE
  5
404
100
AcDbEntity
  8
3_AXES_OTHER
100
AcDbLine
 62
7
  6
CONTINUOUS
 10
34.3984798051
 20
62.669703133
 11
33.8969994902
 21
62.669703133
  0
LINE
  5
405
100
AcDbEntity
  8
7_ALL_ROUNDS
100
AcDbLine
 62
9
  6
CONTINUOUS
 10
38.0933845157
 20
71.7676576864
 11
38.3180435354
 21
71.8406538266
  0
LINE
  5
406
100
AcDbEntity
  8
7_ALL_ROUNDS
100
AcDbLine
 62
9
  6
CONTINUOUS
 10
31.9504443331
 20
71.9499248572
 11
31.9504443334
 21
72.1861453297
  0
LINE
  5
407
100
AcDbEntity
  8
3_ALL_AXES
100
AcDbLine
 62
7
  6
CENTER
 10
38.7749869259
 20
65.2871949323
 11
37.7584514928
 21
65.2871949323
  0
LINE
  5
408
100
AcDbEntity
  8
3_ALL_AXES
100
AcDbLine
 62
7
  6
CENTER
 10
31.0179726844
 20
65.2871949323
 11
29.9539023761
 21
65.2871949323
  0
LINE
  5
409
100
AcDbEntity
  8
3_ALL_AXES
100
AcDbLine
 62
7
  6
CENTER
 10
31.0179726844
 20
65.2871949323
 11
32.0525661692
 21
65.2871949323
  0
LINE
  5
40A
100
AcDbEntity
  8
3_ALL_AXES
100
AcDbLine
 62
7
  6
CENTER
 10
38.7749869259
 20
65.2871949323
 11
39.791522359
 21
65.2871949323
  0
LINE
  5
40B
100
AcDbEntity
  8
3_AXES_OTHER
100
AcDbLine
 62
7
  6
CONTINUOUS
 10
33.9511018524
 20
62.3806086448
 11
33.9511018524
 21
62.5633684873
  0
LINE
  5
40C
100
AcDbEntity
  8
3_AXES_OTHER
100
AcDbLine
 62
7
  6
CONTINUOUS
 10
34.2012160256
 20
62.3806086448
 11
34.2012160256
 21
62.3540220307
  0
LINE
  5
40D
100
AcDbEntity
  8
3_AXES_OTHER
100
AcDbLine
 62
7
  6
CONTINUOUS
 10
34.2012160256
 20
62.2742779362
 11
34.2012160256
 21
62.247703133
  0
LINE
  5
40E
100
AcDbEntity
  8
3_AXES_OTHER
100
AcDbLine
 62
7
  6
CONTINUOUS
 10
34.3402750807
 20
62.247703133
 11
34.3402750807
 21
62.2742739992
  0
LINE
  5
40F
100
AcDbEntity
  8
3_AXES_OTHER
100
AcDbLine
 62
7
  6
CONTINUOUS
 10
34.3402750807
 20
62.3540220307
 11
34.3402750807
 21
62.3806086448
  0
LINE
  5
410
100
AcDbEntity
  8
3_AXES_OTHER
100
AcDbLine
 62
7
  6
CONTINUOUS
 10
34.3934364981
 20
62.5633684873
 11
34.3934364981
 21
62.3806086448
  0
LINE
  5
411
100
AcDbEntity
  8
3_AXES_OTHER
100
AcDbLine
 62
7
  6
CONTINUOUS
 10
34.4917199626
 20
62.3488369913
 11
34.4917199626
 21
62.5950259677
  0
LINE
  5
412
100
AcDbEntity
  8
3_AXES_OTHER
100
AcDbLine
 62
7
  6
CONTINUOUS
 10
34.5400861044
 20
62.3274314795
 11
34.5400861044
 21
62.3008566763
  0
LINE
  5
413
100
AcDbEntity
  8
3_AXES_OTHER
100
AcDbLine
 62
7
  6
CONTINUOUS
 10
34.7153223248
 20
62.5367936842
 11
34.7153223248
 21
62.5633684873
  0
LINE
  5
414
100
AcDbEntity
  8
3_ALL_AXES
100
AcDbLine
 62
7
  6
CENTER
 10
34.8964798051
 20
70.5955941486
 11
34.8964798051
 21
61.346304405
  0
LINE
  5
415
100
AcDbEntity
  8
3_ALL_AXES
100
AcDbLine
 62
7
  6
CENTER
 10
34.8964798051
 20
70.5955941486
 11
34.8964798051
 21
72.8332888445
  0
LINE
  5
416
100
AcDbEntity
  8
7_ALL_ROUNDS
100
AcDbLine
 62
7
  6
CONTINUOUS
 10
32.8933155821
 20
61.8472168075
 11
33.2075507763
 21
62.8143332915
  0
LINE
  5
417
100
AcDbEntity
  8
7_ALL_ROUNDS
100
AcDbLine
 62
7
  6
CONTINUOUS
 10
32.9352357442
 20
61.8488295491
 11
33.2449939463
 21
62.8021672681
  0
LINE
  5
418
100
AcDbEntity
  8
3_ALL_AXES
100
AcDbLine
 62
7
  6
CENTER
 10
34.8964798051
 20
66.889294936
 11
33.8799443721
 21
66.889294936
  0
LINE
  5
419
100
AcDbEntity
  8
3_ALL_AXES
100
AcDbLine
 62
7
  6
CENTER
 10
34.8964798051
 20
66.889294936
 11
35.9130152382
 21
66.889294936
  0
LINE
  5
41A
100
AcDbEntity
  8
3_AXES_OTHER
100
AcDbLine
 62
7
  6
CONTINUOUS
 10
35.031889254
 20
62.407179511
 11
35.031889254
 21
62.3806047078
  0
LINE
  5
41B
100
AcDbEntity
  8
3_AXES_OTHER
100
AcDbLine
 62
7
  6
CONTINUOUS
 10
35.2071254744
 20
62.6165417157
 11
35.2071254744
 21
62.6431165188
  0
LINE
  5
41C
100
AcDbEntity
  8
3_AXES_OTHER
100
AcDbLine
 62
7
  6
CONTINUOUS
 10
35.2529483091
 20
62.4724511645
 11
35.2529483091
 21
62.4677267551
  0
LINE
  5
41D
100
AcDbEntity
  8
3_AXES_OTHER
100
AcDbLine
 62
7
  6
CONTINUOUS
 10
35.4163183878
 20
62.3806086448
 11
35.4163183878
 21
62.5633684873
  0
LINE
  5
41E
100
AcDbEntity
  8
7_ALL_ROUNDS
100
AcDbLine
 62
7
  6
CONTINUOUS
 10
36.8577238661
 20
61.8488295491
 11
36.547965664
 21
62.8021672681
  0
LINE
  5
41F
100
AcDbEntity
  8
7_ALL_ROUNDS
100
AcDbLine
 62
7
  6
CONTINUOUS
 10
36.8996440282
 20
61.8472168075
 11
36.5854088339
 21
62.8143332915
  0
LINE
  5
420
100
AcDbEntity
  8
3_AXES_OTHER
100
AcDbLine
 62
7
  6
CONTINUOUS
 10
35.9230270492
 20
62.3008606133
 11
35.9230270492
 21
62.3274354165
  0
LINE
  5
421
100
AcDbEntity
  8
3_AXES_OTHER
100
AcDbLine
 62
7
  6
CONTINUOUS
 10
35.9230270492
 20
62.6165417157
 11
35.9230270492
 21
62.6431165188
  0
LINE
  5
422
100
AcDbEntity
  8
7_ALL_ROUNDS
100
AcDbLine
 62
9
  6
CONTINUOUS
 10
37.8425152771
 20
71.9499248572
 11
37.8425152771
 21
72.1861453297
  0
LINE
  5
423
100
AcDbEntity
  8
3_ALL_AXES
100
AcDbLine
 62
7
  6
CENTER
 10
34.8964798051
 20
70.5955941486
 11
33.8799443721
 21
70.5955941486
  0
LINE
  5
424
100
AcDbEntity
  8
3_ALL_AXES
100
AcDbLine
 62
7
  6
CENTER
 10
34.8964798051
 20
70.5955941486
 11
35.9130152382
 21
70.5955941486
  0
LINE
  5
425
100
AcDbEntity
  8
7_ALL_ROUNDS
100
AcDbLine
 62
9
  6
CONTINUOUS
 10
31.6995750946
 20
71.7676576864
 11
31.474916075
 21
71.8406538268
  0
LINE
  5
426
100
AcDbEntity
  8
3_ALL_AXES
100
AcDbLine
 62
7
  6
CENTER
 10
38.7749869259
 20
65.2871949323
 11
38.7749869259
 21
64.2706594993
  0
LINE
  5
427
100
AcDbEntity
  8
3_ALL_AXES
100
AcDbLine
 62
7
  6
CENTER
 10
38.7749869259
 20
65.2871949323
 11
38.7749869259
 21
66.3037303654
  0
LINE
  5
428
100
AcDbEntity
  8
7_ALL_ROUNDS
100
AcDbLine
 62
9
  6
CONTINUOUS
 10
40.6602593327
 20
63.8676293201
 11
38.0933845157
 21
71.7676576864
  0
LINE
  5
429
100
AcDbEntity
  8
7_ALL_ROUNDS
100
AcDbLine
 62
7
  6
CONTINUOUS
 10
40.8964798051
 20
63.9050429674
 11
38.3180435353
 21
71.8406538268
  0
LINE
  5
42A
100
AcDbEntity
  8
7_ALL_ROUNDS
100
AcDbLine
 62
9
  6
CONTINUOUS
 10
37.8425152771
 20
71.9499248572
 11
31.9504443331
 21
71.9499248572
  0
LINE
  5
42B
100
AcDbEntity
  8
7_ALL_ROUNDS
100
AcDbLine
 62
7
  6
CONTINUOUS
 10
37.8425152771
 20
72.1861453297
 11
31.9504443331
 21
72.1861453297
  0
LINE
  5
42C
100
AcDbEntity
  8
7_ALL_ROUNDS
100
AcDbLine
 62
9
  6
CONTINUOUS
 10
40.6602593327
 20
63.8676293201
 11
40.6602593327
 21
63.1787482407
  0
LINE
  5
42D
100
AcDbEntity
  8
7_ALL_ROUNDS
100
AcDbLine
 62
7
  6
CONTINUOUS
 10
40.8964798051
 20
63.9050429674
 11
40.8964798051
 21
63.1491374556
  0
LINE
  5
42E
100
AcDbEntity
  8
7_ALL_ROUNDS
100
AcDbLine
 62
7
  6
CONTINUOUS
 10
68.7640898063
 20
29.5635837417
 11
78.7890055553
 21
29.5635837417
  0
LINE
  5
42F
100
AcDbEntity
  8
7_ALL_ROUNDS
100
AcDbLine
 62
9
  6
CONTINUOUS
 10
68.5252260278
 20
29.7998042141
 11
79.0252260278
 21
29.7998042141
  0
LINE
  5
430
100
AcDbEntity
  8
3_AXES_OTHER
100
AcDbLine
 62
7
  6
CONTINUOUS
 10
70.7441236656
 20
30.1541349228
 11
69.9882181538
 21
30.1541349228
  0
LINE
  5
431
100
AcDbEntity
  8
0
100
AcDbLine
 62
7
  6
CONTINUOUS
 10
68.5252260278
 20
30.1541349228
 11
69.9882181538
 21
30.1541349228
  0
LINE
  5
432
100
AcDbEntity
  8
3_AXES_OTHER
100
AcDbLine
 62
7
  6
CONTINUOUS
 10
70.1850685475
 20
30.7446861039
 11
68.6645380863
 21
30.7446861039
  0
LINE
  5
433
100
AcDbEntity
  8
7_ALL_ROUNDS
100
AcDbLine
 62
7
  6
CONTINUOUS
 10
68.5252260278
 20
51.3273632692
 11
68.5252260278
 21
50.9730325606
  0
LINE
  5
434
100
AcDbEntity
  8
7_ALL_ROUNDS
100
AcDbLine
 62
7
  6
CONTINUOUS
 10
68.5252260278
 20
29.7998042141
 11
68.5252260278
 21
30.1541349228
  0
LINE
  5
435
100
AcDbEntity
  8
3_AXES_OTHER
100
AcDbLine
 62
7
  6
CONTINUOUS
 10
68.6645380863
 20
50.9730325606
 11
68.6645380863
 21
50.3824813795
  0
LINE
  5
436
100
AcDbEntity
  8
3_AXES_OTHER
100
AcDbLine
 62
7
  6
CONTINUOUS
 10
68.6645380863
 20
30.1541349228
 11
68.6645380863
 21
30.7446861039
  0
LINE
  5
437
100
AcDbEntity
  8
3_AXES_OTHER
100
AcDbLine
 62
7
  6
CONTINUOUS
 10
69.8167928669
 20
50.9730325606
 11
69.8167928669
 21
50.3824813795
  0
LINE
  5
438
100
AcDbEntity
  8
3_AXES_OTHER
100
AcDbLine
 62
7
  6
CONTINUOUS
 10
69.8167928669
 20
30.7446861039
 11
69.8167928669
 21
30.1541349228
  0
LINE
  5
439
100
AcDbEntity
  8
7_ALL_ROUNDS
100
AcDbLine
 62
7
  6
CONTINUOUS
 10
69.9882181538
 20
51.3273632692
 11
69.9882181538
 21
50.9730325606
  0
LINE
  5
43A
100
AcDbEntity
  8
7_ALL_ROUNDS
100
AcDbLine
 62
7
  6
CONTINUOUS
 10
69.9882181538
 20
29.7998042141
 11
69.9882181538
 21
30.1541349228
  0
LINE
  5
43B
100
AcDbEntity
  8
3_AXES_OTHER
100
AcDbLine
 62
7
  6
CONTINUOUS
 10
70.1850685475
 20
30.7446861039
 11
70.1850685475
 21
50.3824813795
  0
LINE
  5
43C
100
AcDbEntity
  8
7_ALL_ROUNDS
100
AcDbLine
 62
7
  6
CONTINUOUS
 10
70.7441236656
 20
29.7998042141
 11
70.7441236656
 21
30.1541349228
  0
LINE
  5
43D
100
AcDbEntity
  8
3_AXES_OTHER
100
AcDbLine
 62
7
  6
CONTINUOUS
 10
70.7441236656
 20
30.1541349228
 11
70.7441236656
 21
50.9730325606
  0
LINE
  5
43E
100
AcDbEntity
  8
7_ALL_ROUNDS
100
AcDbLine
 62
7
  6
CONTINUOUS
 10
70.7441236656
 20
50.9730325606
 11
70.7441236656
 21
51.3273632692
  0
LINE
  5
43F
100
AcDbEntity
  8
3_ALL_AXES
100
AcDbLine
 62
7
  6
CENTER
 10
73.5134150042
 20
41.3720027677
 11
73.5134150042
 21
39.0053881352
  0
LINE
  5
440
100
AcDbEntity
  8
3_ALL_AXES
100
AcDbLine
 62
7
  6
CENTER
 10
72.24629443
 20
40.1935050015
 11
74.6720744283
 21
40.1935050015
  0
LINE
  5
441
100
AcDbEntity
  8
7_ALL_ROUNDS
100
AcDbLine
 62
9
  6
CONTINUOUS
 10
78.679734525
 20
51.3273632692
 11
78.679734525
 21
29.7998042141
  0
LINE
  5
442
100
AcDbEntity
  8
7_ALL_ROUNDS
100
AcDbLine
 62
7
  6
CONTINUOUS
 10
79.0252260278
 20
51.3273632692
 11
79.0252260278
 21
29.7998042141
  0
LINE
  5
443
100
AcDbEntity
  8
3_AXES_OTHER
100
AcDbLine
 62
7
  6
CONTINUOUS
 10
70.1850685475
 20
50.3824813795
 11
68.6645380863
 21
50.3824813795
  0
LINE
  5
444
100
AcDbEntity
  8
3_ALL_AXES
100
AcDbLine
 62
7
  6
CONTINUOUS
 10
68.5252260278
 20
50.9730325606
 11
69.9882181538
 21
50.9730325606
  0
LINE
  5
445
100
AcDbEntity
  8
3_AXES_OTHER
100
AcDbLine
 62
7
  6
CONTINUOUS
 10
69.9882181538
 20
50.9730325606
 11
70.7441236656
 21
50.9730325606
  0
LINE
  5
446
100
AcDbEntity
  8
7_ALL_ROUNDS
100
AcDbLine
 62
9
  6
CONTINUOUS
 10
68.5252260278
 20
51.3273632692
 11
79.0252260278
 21
51.3273632692
  0
LINE
  5
447
100
AcDbEntity
  8
7_ALL_ROUNDS
100
AcDbLine
 62
7
  6
CONTINUOUS
 10
68.7640898063
 20
51.5635837417
 11
78.7890055553
 21
51.5635837417
  0
LINE
  5
448
100
AcDbEntity
  8
7_ALL_ROUNDS
100
AcDbLine
 62
7
  6
CONTINUOUS
 10
103.8219625727
 20
62.8940441862
 11
103.8053741561
 21
62.8815723064
  0
LINE
  5
449
100
AcDbEntity
  8
7_ALL_ROUNDS
100
AcDbLine
 62
7
  6
CONTINUOUS
 10
103.8221124443
 20
62.8941307383
 11
104.2758580956
 21
63.1561695154
  0
LINE
  5
44A
100
AcDbEntity
  8
7_ALL_ROUNDS
100
AcDbLine
 62
7
  6
CONTINUOUS
 10
103.9379931182
 20
62.8913497085
 11
104.3627552031
 21
63.1366504336
  0
LINE
  5
44B
100
AcDbEntity
  8
7_ALL_ROUNDS
100
AcDbLine
 62
7
  6
CONTINUOUS
 10
104.2865320681
 20
63.1607722579
 11
104.2760676811
 21
63.156290549
  0
LINE
  5
44C
100
AcDbEntity
  8
7_ALL_ROUNDS
100
AcDbLine
 62
7
  6
CONTINUOUS
 10
110.758471292
 20
65.065153934
 11
104.2866556756
 21
63.1608112379
  0
LINE
  5
44D
100
AcDbEntity
  8
7_ALL_ROUNDS
100
AcDbLine
 62
7
  6
CONTINUOUS
 10
110.81661749
 20
65.0357103322
 11
104.3627552031
 21
63.1366504336
  0
LINE
  5
44E
100
AcDbEntity
  8
7_ALL_ROUNDS
100
AcDbLine
 62
7
  6
CONTINUOUS
 10
109.4043286391
 20
43.1092003351
 11
109.4185456502
 21
43.1020313089
  0
LINE
  5
44F
100
AcDbEntity
  8
7_ALL_ROUNDS
100
AcDbLine
 62
7
  6
CONTINUOUS
 10
103.8043905912
 20
46.345695612
 11
103.8251936572
 21
46.3311936281
  0
LINE
  5
450
100
AcDbEntity
  8
0
100
AcDbLine
 62
7
  6
CONTINUOUS
 10
106.6675390311
 20
62.8166085302
 11
106.6674307658
 21
62.8165467098
  0
LINE
  5
451
100
AcDbEntity
  8
7_ALL_ROUNDS
100
AcDbLine
 62
7
  6
CONTINUOUS
 10
105.6312937267
 20
61.1356452566
 11
106.2258369667
 21
61.3105906111
  0
LINE
  5
452
100
AcDbEntity
  8
7_ALL_ROUNDS
100
AcDbLine
 62
7
  6
CONTINUOUS
 10
105.6580777576
 20
61.1212752244
 11
106.2414227823
 21
61.292925485
  0
LINE
  5
453
100
AcDbEntity
  8
3_AXES_OTHER
100
AcDbLine
 62
7
  6
CONTINUOUS
 10
111.639336847
 20
43.7198483033
 11
111.5179594625
 21
43.7899439203
  0
LINE
  5
454
100
AcDbEntity
  8
3_AXES_OTHER
100
AcDbLine
 62
7
  6
CONTINUOUS
 10
104.0168371012
 20
48.1441184759
 11
111.1732476906
 21
44.0112808966
  0
LINE
  5
455
100
AcDbEntity
  8
3_AXES_OTHER
100
AcDbLine
 62
7
  6
CONTINUOUS
 10
106.4168750487
 20
60.8913795207
 11
106.52956424
 21
60.9564576934
  0
LINE
  5
456
100
AcDbEntity
  8
3_AXES_OTHER
100
AcDbLine
 62
7
  6
CONTINUOUS
 10
106.5710947259
 20
60.8023174316
 11
106.5547014963
 21
60.7928503176
  0
LINE
  5
457
100
AcDbEntity
  8
3_AXES_OTHER
100
AcDbLine
 62
7
  6
CONTINUOUS
 10
106.5055315179
 20
60.7644545831
 11
106.489145571
 21
60.7549916748
  0
LINE
  5
458
100
AcDbEntity
  8
3_ALL_AXES
100
AcDbLine
 62
7
  6
CONTINUOUS
 10
106.5710947259
 20
60.7742901964
 11
106.5547014963
 21
60.7648230823
  0
LINE
  5
459
100
AcDbEntity
  8
3_AXES_OTHER
100
AcDbLine
 62
7
  6
CONTINUOUS
 10
106.5748889829
 20
60.7054747291
 11
106.5912725023
 21
60.7149362354
  0
LINE
  5
45A
100
AcDbEntity
  8
3_AXES_OTHER
100
AcDbLine
 62
7
  6
CONTINUOUS
 10
106.6404449083
 20
60.7433333718
 11
106.6568381378
 21
60.7528004858
  0
LINE
  5
45B
100
AcDbEntity
  8
3_AXES_OTHER
100
AcDbLine
 62
7
  6
CONTINUOUS
 10
106.8023065056
 20
60.7989486363
 11
106.6896173143
 21
60.7338704635
  0
LINE
  5
45C
100
AcDbEntity
  8
3_ALL_AXES
100
AcDbLine
 62
7
  6
CONTINUOUS
 10
106.8023065056
 20
60.770921401
 11
106.6896173143
 21
60.7058432283
  0
LINE
  5
45D
100
AcDbEntity
  8
3_AXES_OTHER
100
AcDbLine
 62
7
  6
CONTINUOUS
 10
106.7306283049
 20
60.6875596913
 11
106.8824277171
 21
60.7752240737
  0
LINE
  5
45E
100
AcDbEntity
  8
3_AXES_OTHER
100
AcDbLine
 62
7
  6
CONTINUOUS
 10
106.7472521515
 20
60.6627150008
 11
106.7308662046
 21
60.6532520925
  0
LINE
  5
45F
100
AcDbEntity
  8
3_ALL_AXES
100
AcDbLine
 62
7
  6
CONTINUOUS
 10
106.7472521515
 20
60.6346877655
 11
106.7387389182
 21
60.6297713608
  0
LINE
  5
460
100
AcDbEntity
  8
3_AXES_OTHER
100
AcDbLine
 62
7
  6
CONTINUOUS
 10
106.9843944302
 20
60.6748667769
 11
107.0007803771
 21
60.6843296852
  0
LINE
  5
461
100
AcDbEntity
  8
3_AXES_OTHER
100
AcDbLine
 62
7
  6
CONTINUOUS
 10
107.0996689598
 20
60.5159880514
 11
107.0832830129
 21
60.5065251431
  0
LINE
  5
462
100
AcDbEntity
  8
3_ALL_AXES
100
AcDbLine
 62
7
  6
CONTINUOUS
 10
107.0996689598
 20
60.4879608162
 11
107.0832830129
 21
60.4784979079
  0
LINE
  5
463
100
AcDbEntity
  8
3_ALL_AXES
100
AcDbLine
 62
7
  6
CONTINUOUS
 10
105.4357592209
 20
60.6577003689
 11
105.4626014837
 21
60.6655987501
  0
LINE
  5
464
100
AcDbEntity
  8
0
100
AcDbLine
 62
7
  6
CONTINUOUS
 10
103.5226618405
 20
46.9505142045
 11
103.5226618405
 21
47.2027593217
  0
LINE
  5
465
100
AcDbEntity
  8
3_ALL_AXES
100
AcDbLine
 62
7
  6
CONTINUOUS
 10
103.5226618405
 20
62.0235613165
 11
103.5226618405
 21
62.2758064337
  0
LINE
  5
466
100
AcDbEntity
  8
3_AXES_OTHER
100
AcDbLine
 62
7
  6
CONTINUOUS
 10
107.3368112385
 20
60.5281398276
 11
107.3531971855
 21
60.5376027359
  0
LINE
  5
467
100
AcDbEntity
  8
3_AXES_OTHER
100
AcDbLine
 62
7
  6
CONTINUOUS
 10
107.2762196482
 20
60.4605143801
 11
107.273306591
 21
60.4588320853
  0
LINE
  5
468
100
AcDbEntity
  8
3_ALL_AXES
100
AcDbLine
 62
7
  6
CONTINUOUS
 10
107.2762196482
 20
60.4324871449
 11
107.273306591
 21
60.43080485
  0
LINE
  5
469
100
AcDbEntity
  8
3_AXES_OTHER
100
AcDbLine
 62
7
  6
CONTINUOUS
 10
107.3203233346
 20
60.3696368145
 11
107.4330125259
 21
60.4347149873
  0
LINE
  5
46A
100
AcDbEntity
  8
3_AXES_OTHER
100
AcDbLine
 62
7
  6
CONTINUOUS
 10
107.5835860265
 20
60.1608079523
 11
107.5999719734
 21
60.1702708606
  0
LINE
  5
46B
100
AcDbEntity
  8
3_AXES_OTHER
100
AcDbLine
 62
7
  6
CONTINUOUS
 10
107.7782340829
 20
60.2732174895
 11
107.7946200298
 21
60.2826803978
  0
LINE
  5
46C
100
AcDbEntity
  8
0
100
AcDbLine
 62
7
  6
CONTINUOUS
 10
112.3321589576
 20
63.3257727072
 11
112.3320505776
 21
63.3257108336
  0
LINE
  5
46D
100
AcDbEntity
  8
0
100
AcDbLine
 62
7
  6
CONTINUOUS
 10
110.0468655625
 20
62.00601243
 11
110.0467571824
 21
62.0059505564
  0
LINE
  5
46E
100
AcDbEntity
  8
3_ALL_AXES
100
AcDbLine
 62
7
  6
CONTINUOUS
 10
103.6428193208
 20
61.6657823125
 11
103.6428193208
 21
61.6031527879
  0
LINE
  5
46F
100
AcDbEntity
  8
0
100
AcDbLine
 62
7
  6
CONTINUOUS
 10
103.6428193208
 20
47.6231678503
 11
103.6428193208
 21
47.2027593217
  0
LINE
  5
470
100
AcDbEntity
  8
7_ALL_ROUNDS
100
AcDbLine
 62
7
  6
CONTINUOUS
 10
103.7740823322
 20
61.754855808
 11
103.7740823322
 21
61.5026106908
  0
LINE
  5
471
100
AcDbEntity
  8
7_ALL_ROUNDS
100
AcDbLine
 62
7
  6
CONTINUOUS
 10
103.7740823322
 20
46.4295635788
 11
103.7740823322
 21
46.681808696
  0
LINE
  5
472
100
AcDbEntity
  8
3_AXES_OTHER
100
AcDbLine
 62
7
  6
CONTINUOUS
 10
103.8668609743
 20
61.4565937132
 11
103.8668609743
 21
61.1278364341
  0
LINE
  5
473
100
AcDbEntity
  8
3_AXES_OTHER
100
AcDbLine
 62
7
  6
CONTINUOUS
 10
103.8668609743
 20
46.7274429678
 11
103.8668609743
 21
47.1478514964
  0
LINE
  5
474
100
AcDbEntity
  8
3_AXES_OTHER
100
AcDbLine
 62
7
  6
CONTINUOUS
 10
104.0168371012
 20
48.1441184759
 11
104.0168371012
 21
61.0507988511
  0
LINE
  5
475
100
AcDbEntity
  8
3_AXES_OTHER
100
AcDbLine
 62
7
  6
CONTINUOUS
 10
104.4392303992
 20
55.5740427374
 11
104.4392303992
 21
60.833829928
  0
LINE
  5
476
100
AcDbEntity
  8
7_ALL_ROUNDS
100
AcDbLine
 62
7
  6
CONTINUOUS
 10
107.9807964725
 20
59.7799017703
 11
108.2780256084
 21
60.116784375
  0
LINE
  5
477
100
AcDbEntity
  8
7_ALL_ROUNDS
100
AcDbLine
 62
7
  6
CONTINUOUS
 10
108.0056795822
 20
59.7644339533
 11
108.3086144938
 21
60.1077835438
  0
LINE
  5
478
100
AcDbEntity
  8
3_ALL_AXES
100
AcDbLine
 62
7
  6
CONTINUOUS
 10
107.8811963362
 20
59.2466054077
 11
107.9060497753
 21
59.274774555
  0
LINE
  5
479
100
AcDbEntity
  8
0
100
AcDbLine
 62
7
  6
CONTINUOUS
 10
111.4504916194
 20
60.0544464169
 11
111.4503832393
 21
60.0543845433
  0
LINE
  5
47A
100
AcDbEntity
  8
3_ALL_AXES
100
AcDbLine
 62
7
  6
CONTINUOUS
 10
108.7681772059
 20
49.2805940309
 11
108.7887403994
 21
49.2684927739
  0
LINE
  5
47B
100
AcDbEntity
  8
7_ALL_ROUNDS
100
AcDbLine
 62
7
  6
CONTINUOUS
 10
105.4357592209
 20
45.5846532569
 11
105.4357592209
 21
45.836898374
  0
LINE
  5
47C
100
AcDbEntity
  8
7_ALL_ROUNDS
100
AcDbLine
 62
7
  6
CONTINUOUS
 10
105.4357592209
 20
60.6577003689
 11
105.4357592209
 21
60.909945486
  0
LINE
  5
47D
100
AcDbEntity
  8
7_ALL_ROUNDS
100
AcDbLine
 62
7
  6
CONTINUOUS
 10
105.4626014837
 20
45.5703003595
 11
105.4626014837
 21
45.8225454766
  0
LINE
  5
47E
100
AcDbEntity
  8
7_ALL_ROUNDS
100
AcDbLine
 62
7
  6
CONTINUOUS
 10
105.4626014837
 20
60.6433474715
 11
105.4626014837
 21
60.8955925886
  0
LINE
  5
47F
100
AcDbEntity
  8
3_AXES_OTHER
100
AcDbLine
 62
7
  6
CONTINUOUS
 10
109.2075893018
 20
57.8244754417
 11
104.4392303992
 21
55.5740427374
  0
LINE
  5
480
100
AcDbEntity
  8
3_ALL_AXES
100
AcDbLine
 62
7
  6
CONTINUOUS
 10
106.2258369667
 20
61.3105906111
 11
106.2258369667
 21
61.2883393324
  0
LINE
  5
481
100
AcDbEntity
  8
3_AXES_OTHER
100
AcDbLine
 62
7
  6
CONTINUOUS
 10
106.3745046313
 20
60.9808047051
 11
106.3745046313
 21
60.9527774698
  0
LINE
  5
482
100
AcDbEntity
  8
3_ALL_AXES
100
AcDbLine
 62
7
  6
CONTINUOUS
 10
106.4100847507
 20
60.8538851714
 11
106.4100847507
 21
60.8724452926
  0
LINE
  5
483
100
AcDbEntity
  8
3_AXES_OTHER
100
AcDbLine
 62
7
  6
CONTINUOUS
 10
106.4168750487
 20
60.8724452926
 11
106.4168750487
 21
60.8444180574
  0
LINE
  5
484
100
AcDbEntity
  8
3_AXES_OTHER
100
AcDbLine
 62
7
  6
CONTINUOUS
 10
106.489145571
 20
60.7549916748
 11
106.489145571
 21
60.7463418757
  0
LINE
  5
485
100
AcDbEntity
  8
3_ALL_AXES
100
AcDbLine
 62
7
  6
CONTINUOUS
 10
106.500873328
 20
61.2869145395
 11
106.500873328
 21
61.2592111641
  0
LINE
  5
486
100
AcDbEntity
  8
3_AXES_OTHER
100
AcDbLine
 62
7
  6
CONTINUOUS
 10
106.5055315179
 20
60.7644545831
 11
106.5055315179
 21
60.7364273479
  0
LINE
  5
487
100
AcDbEntity
  8
3_AXES_OTHER
100
AcDbLine
 62
7
  6
CONTINUOUS
 10
106.5547014963
 20
60.7928503176
 11
106.5547014963
 21
60.7648230823
  0
LINE
  5
488
100
AcDbEntity
  8
3_AXES_OTHER
100
AcDbLine
 62
7
  6
CONTINUOUS
 10
106.5617705152
 20
61.0135870232
 11
106.5617705152
 21
60.985559788
  0
LINE
  5
489
100
AcDbEntity
  8
3_AXES_OTHER
100
AcDbLine
 62
7
  6
CONTINUOUS
 10
106.5710947259
 20
60.8023174316
 11
106.5710947259
 21
60.7742901964
  0
LINE
  5
48A
100
AcDbEntity
  8
3_AXES_OTHER
100
AcDbLine
 62
7
  6
CONTINUOUS
 10
106.5860726951
 20
60.8023174316
 11
106.5860726951
 21
60.7742901964
  0
LINE
  5
48B
100
AcDbEntity
  8
3_AXES_OTHER
100
AcDbLine
 62
7
  6
CONTINUOUS
 10
106.6404449083
 20
60.7433333718
 11
106.6404449083
 21
60.7153061366
  0
LINE
  5
48C
100
AcDbEntity
  8
3_AXES_OTHER
100
AcDbLine
 62
7
  6
CONTINUOUS
 10
106.6568308552
 20
60.7338704635
 11
106.6568308552
 21
60.7058432283
  0
LINE
  5
48D
100
AcDbEntity
  8
3_AXES_OTHER
100
AcDbLine
 62
7
  6
CONTINUOUS
 10
106.6568381378
 20
60.761450285
 11
106.6568381378
 21
60.7528004858
  0
LINE
  5
48E
100
AcDbEntity
  8
3_AXES_OTHER
100
AcDbLine
 62
7
  6
CONTINUOUS
 10
106.6896173143
 20
60.7338704635
 11
106.6896173143
 21
60.7058432283
  0
LINE
  5
48F
100
AcDbEntity
  8
3_AXES_OTHER
100
AcDbLine
 62
7
  6
CONTINUOUS
 10
106.7308662046
 20
60.6532520925
 11
106.7308662046
 21
60.6343178644
  0
LINE
  5
490
100
AcDbEntity
  8
3_AXES_OTHER
100
AcDbLine
 62
7
  6
CONTINUOUS
 10
106.7472521515
 20
60.6627150008
 11
106.7472521515
 21
60.6346877655
  0
LINE
  5
491
100
AcDbEntity
  8
3_AXES_OTHER
100
AcDbLine
 62
7
  6
CONTINUOUS
 10
106.7800386106
 20
60.6627150008
 11
106.7800386106
 21
60.6346877655
  0
LINE
  5
492
100
AcDbEntity
  8
3_AXES_OTHER
100
AcDbLine
 62
7
  6
CONTINUOUS
 10
106.8023065056
 20
60.7989486363
 11
106.8023065056
 21
60.770921401
  0
LINE
  5
493
100
AcDbEntity
  8
3_ALL_AXES
100
AcDbLine
 62
7
  6
CONTINUOUS
 10
106.8090968036
 20
60.7803885151
 11
106.8090968036
 21
60.7989486363
  0
LINE
  5
494
100
AcDbEntity
  8
3_AXES_OTHER
100
AcDbLine
 62
7
  6
CONTINUOUS
 10
106.8709818297
 20
60.835017037
 11
106.8709818297
 21
60.8069898017
  0
LINE
  5
495
100
AcDbEntity
  8
3_AXES_OTHER
100
AcDbLine
 62
7
  6
CONTINUOUS
 10
106.8842168197
 20
60.7425861525
 11
106.8842168197
 21
60.7145589173
  0
LINE
  5
496
100
AcDbEntity
  8
7_ALL_ROUNDS
100
AcDbLine
 62
7
  6
CONTINUOUS
 10
111.4706148387
 20
59.0318511011
 11
111.0458527537
 21
58.786550376
  0
LINE
  5
497
100
AcDbEntity
  8
7_ALL_ROUNDS
100
AcDbLine
 62
7
  6
CONTINUOUS
 10
111.639336847
 20
58.7928954153
 11
111.1732476906
 21
58.523728246
  0
LINE
  5
498
100
AcDbEntity
  8
3_AXES_OTHER
100
AcDbLine
 62
7
  6
CONTINUOUS
 10
111.1732476906
 20
58.2714831288
 11
111.639336847
 21
58.5406502981
  0
LINE
  5
499
100
AcDbEntity
  8
3_AXES_OTHER
100
AcDbLine
 62
7
  6
CONTINUOUS
 10
111.1732476906
 20
57.9912658342
 11
110.946169969
 21
57.860128118
  0
LINE
  5
49A
100
AcDbEntity
  8
3_ALL_AXES
100
AcDbLine
 62
7
  6
CONTINUOUS
 10
106.9776041322
 20
60.6373724277
 11
106.9776041322
 21
60.6559325489
  0
LINE
  5
49B
100
AcDbEntity
  8
3_AXES_OTHER
100
AcDbLine
 62
7
  6
CONTINUOUS
 10
106.9843944302
 20
60.6559325489
 11
106.9843944302
 21
60.6279053136
  0
LINE
  5
49C
100
AcDbEntity
  8
3_AXES_OTHER
100
AcDbLine
 62
7
  6
CONTINUOUS
 10
107.0138454388
 20
60.7525130938
 11
107.0138454388
 21
60.7244858586
  0
LINE
  5
49D
100
AcDbEntity
  8
3_AXES_OTHER
100
AcDbLine
 62
7
  6
CONTINUOUS
 10
107.0504965538
 20
60.5065251431
 11
107.0504965538
 21
60.4784979079
  0
LINE
  5
49E
100
AcDbEntity
  8
3_AXES_OTHER
100
AcDbLine
 62
7
  6
CONTINUOUS
 10
107.0832830129
 20
60.5065251431
 11
107.0832830129
 21
60.4784979079
  0
LINE
  5
49F
100
AcDbEntity
  8
3_AXES_OTHER
100
AcDbLine
 62
7
  6
CONTINUOUS
 10
107.0996689598
 20
60.5159880514
 11
107.0996689598
 21
60.4879608162
  0
LINE
  5
4A0
100
AcDbEntity
  8
3_ALL_AXES
100
AcDbLine
 62
7
  6
CONTINUOUS
 10
107.1064592578
 20
60.4974279302
 11
107.1064592578
 21
60.5159880514
  0
LINE
  5
4A1
100
AcDbEntity
  8
3_AXES_OTHER
100
AcDbLine
 62
7
  6
CONTINUOUS
 10
107.2156960292
 20
60.5223555373
 11
107.2156960292
 21
60.494328302
  0
LINE
  5
4A2
100
AcDbEntity
  8
3_AXES_OTHER
100
AcDbLine
 62
7
  6
CONTINUOUS
 10
107.273306591
 20
60.4588320853
 11
107.273306591
 21
60.43080485
  0
LINE
  5
4A3
100
AcDbEntity
  8
3_AXES_OTHER
100
AcDbLine
 62
7
  6
CONTINUOUS
 10
107.2762196482
 20
60.4605143801
 11
107.2762196482
 21
60.4324871449
  0
LINE
  5
4A4
100
AcDbEntity
  8
3_ALL_AXES
100
AcDbLine
 62
7
  6
CONTINUOUS
 10
107.3135330366
 20
60.3321424653
 11
107.3135330366
 21
60.3507025865
  0
LINE
  5
4A5
100
AcDbEntity
  8
3_AXES_OTHER
100
AcDbLine
 62
7
  6
CONTINUOUS
 10
107.3203233346
 20
60.3507025865
 11
107.3203233346
 21
60.3226753512
  0
LINE
  5
4A6
100
AcDbEntity
  8
3_AXES_OTHER
100
AcDbLine
 62
7
  6
CONTINUOUS
 10
107.3531971855
 20
60.5565369639
 11
107.3531971855
 21
60.5376027359
  0
LINE
  5
4A7
100
AcDbEntity
  8
3_AXES_OTHER
100
AcDbLine
 62
7
  6
CONTINUOUS
 10
107.4667287358
 20
60.4909723276
 11
107.4667287358
 21
60.4629450924
  0
LINE
  5
4A8
100
AcDbEntity
  8
3_AXES_OTHER
100
AcDbLine
 62
7
  6
CONTINUOUS
 10
107.5999719734
 20
60.1892050887
 11
107.5999719734
 21
60.1702708606
  0
LINE
  5
4A9
100
AcDbEntity
  8
7_ALL_ROUNDS
100
AcDbLine
 62
7
  6
CONTINUOUS
 10
111.4706148387
 20
59.0318511011
 11
114.7590219214
 21
62.7589660085
  0
LINE
  5
4AA
100
AcDbEntity
  8
3_AXES_OTHER
100
AcDbLine
 62
7
  6
CONTINUOUS
 10
107.7946200298
 20
60.3016146259
 11
107.7946200298
 21
60.2826803978
  0
LINE
  5
4AB
100
AcDbEntity
  8
7_ALL_ROUNDS
100
AcDbLine
 62
7
  6
CONTINUOUS
 10
107.8811963362
 20
44.1735582957
 11
107.8811963362
 21
44.4258034129
  0
LINE
  5
4AC
100
AcDbEntity
  8
7_ALL_ROUNDS
100
AcDbLine
 62
7
  6
CONTINUOUS
 10
107.8811963362
 20
59.2466054077
 11
107.8811963362
 21
59.4988505249
  0
LINE
  5
4AD
100
AcDbEntity
  8
7_ALL_ROUNDS
100
AcDbLine
 62
7
  6
CONTINUOUS
 10
107.9060497753
 20
44.1580568497
 11
107.9060497753
 21
44.4103019669
  0
LINE
  5
4AE
100
AcDbEntity
  8
7_ALL_ROUNDS
100
AcDbLine
 62
7
  6
CONTINUOUS
 10
107.9060497753
 20
59.2311039617
 11
107.9060497753
 21
59.4833490789
  0
LINE
  5
4AF
100
AcDbEntity
  8
3_ALL_AXES
100
AcDbLine
 62
7
  6
CONTINUOUS
 10
108.2676170712
 20
60.2666174445
 11
108.2676170712
 21
60.2325388623
  0
LINE
  5
4B0
100
AcDbEntity
  8
3_ALL_AXES
100
AcDbLine
 62
7
  6
CONTINUOUS
 10
108.2780256084
 20
60.116784375
 11
108.2780256084
 21
60.0731137818
  0
LINE
  5
4B1
100
AcDbEntity
  8
3_ALL_AXES
100
AcDbLine
 62
7
  6
CONTINUOUS
 10
108.3003940052
 20
60.0984663561
 11
108.3003940052
 21
60.1705908086
  0
LINE
  5
4B2
100
AcDbEntity
  8
7_ALL_ROUNDS
100
AcDbLine
 62
7
  6
CONTINUOUS
 10
111.639336847
 20
58.7928954153
 11
114.9425552338
 21
62.5367976094
  0
LINE
  5
4B3
100
AcDbEntity
  8
3_ALL_AXES
100
AcDbLine
 62
7
  6
CONTINUOUS
 10
106.0906887539
 20
53.385842114
 11
106.0906299326
 21
53.3858081928
  0
LINE
  5
4B4
100
AcDbEntity
  8
3_ALL_AXES
100
AcDbLine
 62
7
  6
CONTINUOUS
 10
106.1988121554
 20
53.1985245683
 11
106.1987527351
 21
53.1984903016
  0
LINE
  5
4B5
100
AcDbEntity
  8
3_AXES_OTHER
100
AcDbLine
 62
7
  6
CONTINUOUS
 10
110.9062174447
 20
51.7160284277
 11
108.9641792929
 21
52.8375582999
  0
LINE
  5
4B6
100
AcDbEntity
  8
3_AXES_OTHER
100
AcDbLine
 62
7
  6
CONTINUOUS
 10
110.7508543925
 20
51.9290706525
 11
104.4392303992
 21
55.5740427374
  0
LINE
  5
4B7
100
AcDbEntity
  8
3_AXES_OTHER
100
AcDbLine
 62
7
  6
CONTINUOUS
 10
108.9641792929
 20
52.8375582999
 11
110.9062174447
 21
49.4738496085
  0
LINE
  5
4B8
100
AcDbEntity
  8
7_ALL_ROUNDS
100
AcDbLine
 62
7
  6
CONTINUOUS
 10
109.3690942475
 20
58.523728246
 11
109.3690942475
 21
58.2714831288
  0
LINE
  5
4B9
100
AcDbEntity
  8
7_ALL_ROUNDS
100
AcDbLine
 62
7
  6
CONTINUOUS
 10
109.3690942475
 20
43.1984360168
 11
109.3690942475
 21
43.450681134
  0
LINE
  5
4BA
100
AcDbEntity
  8
3_AXES_OTHER
100
AcDbLine
 62
7
  6
CONTINUOUS
 10
109.692586663
 20
52.4169019786
 11
110.9062174447
 21
50.3148318392
  0
LINE
  5
4BB
100
AcDbEntity
  8
3_AXES_OTHER
100
AcDbLine
 62
7
  6
CONTINUOUS
 10
109.4481144316
 20
58.2502828317
 11
109.4481144316
 21
57.9046544017
  0
LINE
  5
4BC
100
AcDbEntity
  8
3_AXES_OTHER
100
AcDbLine
 62
7
  6
CONTINUOUS
 10
109.4481144316
 20
43.5042609354
 11
109.4481144316
 21
43.924669464
  0
LINE
  5
4BD
100
AcDbEntity
  8
3_AXES_OTHER
100
AcDbLine
 62
7
  6
CONTINUOUS
 10
110.7508543925
 20
57.8211222092
 11
110.7508543925
 21
51.9290706525
  0
LINE
  5
4BE
100
AcDbEntity
  8
3_AXES_OTHER
100
AcDbLine
 62
7
  6
CONTINUOUS
 10
110.9062174447
 20
49.4738496085
 11
110.9062174447
 21
51.7160284277
  0
LINE
  5
4BF
100
AcDbEntity
  8
3_AXES_OTHER
100
AcDbLine
 62
7
  6
CONTINUOUS
 10
110.946169969
 20
58.2105605276
 11
110.946169969
 21
57.860128118
  0
LINE
  5
4C0
100
AcDbEntity
  8
3_AXES_OTHER
100
AcDbLine
 62
7
  6
CONTINUOUS
 10
110.946169969
 20
43.8801431804
 11
110.946169969
 21
43.4597346518
  0
LINE
  5
4C1
100
AcDbEntity
  8
3_AXES_OTHER
100
AcDbLine
 62
7
  6
CONTINUOUS
 10
109.8665717935
 20
57.4439120891
 11
110.7508543925
 21
51.9290706525
  0
LINE
  5
4C2
100
AcDbEntity
  8
7_ALL_ROUNDS
100
AcDbLine
 62
7
  6
CONTINUOUS
 10
111.1732476906
 20
58.523728246
 11
111.1732476906
 21
58.2714831288
  0
LINE
  5
4C3
100
AcDbEntity
  8
7_ALL_ROUNDS
100
AcDbLine
 62
7
  6
CONTINUOUS
 10
111.1732476906
 20
43.1984360168
 11
111.1732476906
 21
43.450681134
  0
LINE
  5
4C4
100
AcDbEntity
  8
3_AXES_OTHER
100
AcDbLine
 62
7
  6
CONTINUOUS
 10
111.1732476906
 20
44.0112808966
 11
111.1732476906
 21
57.9912658342
  0
LINE
  5
4C5
100
AcDbEntity
  8
3_AXES_OTHER
100
AcDbLine
 62
7
  6
CONTINUOUS
 10
111.5179594625
 20
43.7899439203
 11
111.5179594625
 21
58.4705546811
  0
LINE
  5
4C6
100
AcDbEntity
  8
7_ALL_ROUNDS
100
AcDbLine
 62
7
  6
CONTINUOUS
 10
111.639336847
 20
43.4676031862
 11
111.639336847
 21
43.7198483033
  0
LINE
  5
4C7
100
AcDbEntity
  8
3_AXES_OTHER
100
AcDbLine
 62
7
  6
CONTINUOUS
 10
111.639336847
 20
43.7198483033
 11
111.639336847
 21
58.5406502981
  0
LINE
  5
4C8
100
AcDbEntity
  8
7_ALL_ROUNDS
100
AcDbLine
 62
7
  6
CONTINUOUS
 10
111.639336847
 20
58.5406502981
 11
111.639336847
 21
58.7928954153
  0
LINE
  5
4C9
100
AcDbEntity
  8
3_AXES_OTHER
100
AcDbLine
 62
7
  6
CONTINUOUS
 10
104.0168371012
 20
48.1441184759
 11
103.7897593797
 21
48.0129807597
  0
LINE
  5
4CA
100
AcDbEntity
  8
3_AXES_OTHER
100
AcDbLine
 62
7
  6
CONTINUOUS
 10
106.489145571
 20
60.7463418757
 11
106.5599110137
 21
60.7054747291
  0
LINE
  5
4CB
100
AcDbEntity
  8
3_AXES_OTHER
100
AcDbLine
 62
7
  6
CONTINUOUS
 10
106.7308662046
 20
60.6343178644
 11
107.0702179513
 21
60.4383417345
  0
LINE
  5
4CC
100
AcDbEntity
  8
3_AXES_OTHER
100
AcDbLine
 62
7
  6
CONTINUOUS
 10
106.5912725023
 20
60.7149362354
 11
106.6271589398
 21
60.6942117653
  0
LINE
  5
4CD
100
AcDbEntity
  8
3_AXES_OTHER
100
AcDbLine
 62
7
  6
CONTINUOUS
 10
107.2229082734
 20
60.350165654
 11
107.5507995674
 21
60.1608079523
  0
LINE
  5
4CE
100
AcDbEntity
  8
3_AXES_OTHER
100
AcDbLine
 62
7
  6
CONTINUOUS
 10
106.3179524803
 20
60.8727817516
 11
106.5055315179
 21
60.7644545831
  0
LINE
  5
4CF
100
AcDbEntity
  8
3_ALL_AXES
100
AcDbLine
 62
7
  6
CONTINUOUS
 10
107.0504965538
 20
60.4784979079
 11
106.7800386106
 21
60.6346877655
  0
LINE
  5
4D0
100
AcDbEntity
  8
3_ALL_AXES
100
AcDbLine
 62
7
  6
CONTINUOUS
 10
107.5920992599
 20
60.165724357
 11
107.3203233346
 21
60.3226753512
  0
LINE
  5
4D1
100
AcDbEntity
  8
3_ALL_AXES
100
AcDbLine
 62
7
  6
CONTINUOUS
 10
106.6568308552
 20
60.7058432283
 11
106.6404449083
 21
60.7153061366
  0
LINE
  5
4D2
100
AcDbEntity
  8
3_ALL_AXES
100
AcDbLine
 62
7
  6
CONTINUOUS
 10
106.5547014963
 20
60.7648230823
 11
106.4168750487
 21
60.8444180574
  0
LINE
  5
4D3
100
AcDbEntity
  8
3_ALL_AXES
100
AcDbLine
 62
7
  6
CONTINUOUS
 10
106.6402529684
 20
60.7430010093
 11
106.5860726951
 21
60.7742901964
  0
LINE
  5
4D4
100
AcDbEntity
  8
3_AXES_OTHER
100
AcDbLine
 62
7
  6
CONTINUOUS
 10
107.0504965538
 20
60.5065251431
 11
106.7800386106
 21
60.6627150008
  0
LINE
  5
4D5
100
AcDbEntity
  8
3_AXES_OTHER
100
AcDbLine
 62
7
  6
CONTINUOUS
 10
107.5999719734
 20
60.1892050887
 11
107.3203233346
 21
60.3507025865
  0
LINE
  5
4D6
100
AcDbEntity
  8
3_AXES_OTHER
100
AcDbLine
 62
7
  6
CONTINUOUS
 10
106.6568308552
 20
60.7338704635
 11
106.6404449083
 21
60.7433333718
  0
LINE
  5
4D7
100
AcDbEntity
  8
3_AXES_OTHER
100
AcDbLine
 62
7
  6
CONTINUOUS
 10
106.5547014963
 20
60.7928503176
 11
106.4168750487
 21
60.8724452926
  0
LINE
  5
4D8
100
AcDbEntity
  8
3_AXES_OTHER
100
AcDbLine
 62
7
  6
CONTINUOUS
 10
106.6568381378
 20
60.761450285
 11
106.5860726951
 21
60.8023174316
  0
LINE
  5
4D9
100
AcDbEntity
  8
3_AXES_OTHER
100
AcDbLine
 62
7
  6
CONTINUOUS
 10
106.8683673609
 20
60.6684992911
 11
107.0996689598
 21
60.5349222795
  0
LINE
  5
4DA
100
AcDbEntity
  8
3_ALL_AXES
100
AcDbLine
 62
7
  6
CONTINUOUS
 10
107.2156960292
 20
60.494328302
 11
106.9843944302
 21
60.6279053136
  0
LINE
  5
4DB
100
AcDbEntity
  8
3_AXES_OTHER
100
AcDbLine
 62
7
  6
CONTINUOUS
 10
107.2156960292
 20
60.5223555373
 11
106.9843944302
 21
60.6559325489
  0
LINE
  5
4DC
100
AcDbEntity
  8
3_AXES_OTHER
100
AcDbLine
 62
7
  6
CONTINUOUS
 10
106.5623506991
 20
60.9564576934
 11
106.8023065056
 21
60.8178828643
  0
LINE
  5
4DD
100
AcDbEntity
  8
3_AXES_OTHER
100
AcDbLine
 62
7
  6
CONTINUOUS
 10
107.0335668362
 20
60.6843296852
 11
107.3040247795
 21
60.5281398276
  0
LINE
  5
4DE
100
AcDbEntity
  8
3_AXES_OTHER
100
AcDbLine
 62
7
  6
CONTINUOUS
 10
107.465798985
 20
60.4347149873
 11
107.7454476238
 21
60.2732174895
  0
LINE
  5
4DF
100
AcDbEntity
  8
3_ALL_AXES
100
AcDbLine
 62
7
  6
CONTINUOUS
 10
107.7867473163
 20
60.2781338942
 11
107.4667287358
 21
60.4629450924
  0
LINE
  5
4E0
100
AcDbEntity
  8
3_ALL_AXES
100
AcDbLine
 62
7
  6
CONTINUOUS
 10
107.3453244719
 20
60.5330562323
 11
107.0138454388
 21
60.7244858586
  0
LINE
  5
4E1
100
AcDbEntity
  8
3_ALL_AXES
100
AcDbLine
 62
7
  6
CONTINUOUS
 10
106.8709818297
 20
60.8069898017
 11
106.5617705152
 21
60.985559788
  0
LINE
  5
4E2
100
AcDbEntity
  8
3_AXES_OTHER
100
AcDbLine
 62
7
  6
CONTINUOUS
 10
107.7946200298
 20
60.3016146259
 11
107.4667287358
 21
60.4909723276
  0
LINE
  5
4E3
100
AcDbEntity
  8
3_AXES_OTHER
100
AcDbLine
 62
7
  6
CONTINUOUS
 10
107.3531971855
 20
60.5565369639
 11
107.0138454388
 21
60.7525130938
  0
LINE
  5
4E4
100
AcDbEntity
  8
3_AXES_OTHER
100
AcDbLine
 62
7
  6
CONTINUOUS
 10
106.8709818297
 20
60.835017037
 11
106.5617705152
 21
61.0135870232
  0
LINE
  5
4E5
100
AcDbEntity
  8
7_ALL_ROUNDS
100
AcDbLine
 62
7
  6
CONTINUOUS
 10
114.9425552338
 20
62.5367976094
 11
114.9425552338
 21
47.2115053802
  0
LINE
  5
4E6
100
AcDbEntity
  8
7_ALL_ROUNDS
100
AcDbLine
 62
7
  6
CONTINUOUS
 10
114.9900763892
 20
62.6511081667
 11
114.9900763892
 21
47.3258159376
  0
LINE
  5
4E7
100
AcDbEntity
  8
3_ALL_AXES
100
AcDbLine
 62
7
  6
CONTINUOUS
 10
107.8811963362
 20
44.4258034129
 11
107.9393038472
 21
44.4916630723
  0
LINE
  5
4E8
100
AcDbEntity
  8
3_ALL_AXES
100
AcDbLine
 62
7
  6
CONTINUOUS
 10
107.9060497753
 20
44.4103019669
 11
107.9641746338
 21
44.4761812881
  0
LINE
  5
4E9
100
AcDbEntity
  8
3_ALL_AXES
100
AcDbLine
 62
7
  6
CONTINUOUS
 10
109.8389699641
 20
46.8921690955
 11
109.8389335247
 21
46.8921480828
  0
LINE
  5
4EA
100
AcDbEntity
  8
3_ALL_AXES
100
AcDbLine
 62
7
  6
CONTINUOUS
 10
109.9470933686
 20
46.7048515515
 11
109.9470562399
 21
46.7048301413
  0
LINE
  5
4EB
100
AcDbEntity
  8
3_ALL_AXES
100
AcDbLine
 62
7
  6
CONTINUOUS
 10
105.4357592209
 20
45.836898374
 11
105.5498356788
 21
45.8704655648
  0
LINE
  5
4EC
100
AcDbEntity
  8
3_ALL_AXES
100
AcDbLine
 62
7
  6
CONTINUOUS
 10
105.4626014837
 20
45.8225454766
 11
105.5766438953
 21
45.8561026492
  0
LINE
  5
4ED
100
AcDbEntity
  8
7_ALL_ROUNDS
100
AcDbLine
 62
7
  6
CONTINUOUS
 10
114.9425552338
 20
47.2115053802
 11
111.639336847
 21
43.4676031862
  0
LINE
  5
4EE
100
AcDbEntity
  8
7_ALL_ROUNDS
100
AcDbLine
 62
7
  6
CONTINUOUS
 10
114.9134813106
 20
47.1292319429
 11
111.6127094731
 21
43.3881026933
  0
LINE
  5
4EF
100
AcDbEntity
  8
3_AXES_OTHER
100
AcDbLine
 62
7
  6
CONTINUOUS
 10
111.1732476906
 20
44.0112808966
 11
110.946169969
 21
43.8801431804
  0
LINE
  5
4F0
100
AcDbEntity
  8
3_AXES_OTHER
100
AcDbLine
 62
7
  6
CONTINUOUS
 10
111.5179594625
 20
43.7899439203
 11
110.946169969
 21
43.4597346518
  0
LINE
  5
4F1
100
AcDbEntity
  8
3_AXES_OTHER
100
AcDbLine
 62
7
  6
CONTINUOUS
 10
111.639336847
 20
43.7198483033
 11
111.1732476906
 21
43.450681134
  0
LINE
  5
4F2
100
AcDbEntity
  8
7_ALL_ROUNDS
100
AcDbLine
 62
7
  6
CONTINUOUS
 10
111.1732476906
 20
43.1984360168
 11
111.639336847
 21
43.4676031862
  0
LINE
  5
4F3
100
AcDbEntity
  8
7_ALL_ROUNDS
100
AcDbLine
 62
7
  6
CONTINUOUS
 10
111.1359967843
 20
43.107287345
 11
111.5897424356
 21
43.3693261221
  0
LINE
  5
4F4
100
AcDbEntity
  8
7_ALL_ROUNDS
100
AcDbLine
 62
7
  6
CONTINUOUS
 10
111.1267361294
 20
43.1030443146
 11
111.1358272285
 21
43.1071894273
  0
LINE
  5
4F5
100
AcDbEntity
  8
7_ALL_ROUNDS
100
AcDbLine
 62
7
  6
CONTINUOUS
 10
114.7167220844
 20
62.913199705
 11
111.0836881496
 21
65.0112821145
  0
LINE
  5
4F6
100
AcDbEntity
  8
7_ALL_ROUNDS
100
AcDbLine
 62
7
  6
CONTINUOUS
 10
114.8197344367
 20
62.9234122093
 11
111.1867005019
 21
65.0214946189
  0
ARC
  5
4F7
100
AcDbEntity
  8
7_ALL_ROUNDS
100
AcDbCircle
 62
7
  6
CONTINUOUS
 10
29.1327002776
 20
29.7998042141
 40
0.2362204724
100
AcDbArc
 50
180.0
 51
270.0
  0
ARC
  5
4F8
100
AcDbEntity
  8
7_ALL_ROUNDS
100
AcDbCircle
 62
7
  6
CONTINUOUS
 10
29.1327002776
 20
51.3273632692
 40
0.2362204724
100
AcDbArc
 50
90.0
 51
180.0
  0
CIRCLE
  5
4F9
100
AcDbEntity
  8
3_ALL_AXES
100
AcDbCircle
 62
7
  6
CONTINUOUS
 10
34.8964798051
 20
36.0104341354
 40
5.1181102362
  0
CIRCLE
  5
4FA
100
AcDbEntity
  8
3_ALL_AXES
100
AcDbCircle
 62
7
  6
CONTINUOUS
 10
34.8964798051
 20
36.0104341354
 40
4.6456692913
  0
CIRCLE
  5
4FB
100
AcDbEntity
  8
3_ALL_AXES
100
AcDbCircle
 62
7
  6
CONTINUOUS
 10
34.8964798051
 20
36.0104341354
 40
4.4488188976
  0
CIRCLE
  5
4FC
100
AcDbEntity
  8
3_ALL_AXES
100
AcDbCircle
 62
7
  6
CONTINUOUS
 10
34.8964798051
 20
36.0104341354
 40
4.3976377953
  0
CIRCLE
  5
4FD
100
AcDbEntity
  8
3_ALL_AXES
100
AcDbCircle
 62
7
  6
CONTINUOUS
 10
34.8964798051
 20
36.0104341354
 40
4.2007874016
  0
CIRCLE
  5
4FE
100
AcDbEntity
  8
3_ALL_AXES
100
AcDbCircle
 62
7
  6
CONTINUOUS
 10
34.8964798051
 20
36.0104341354
 40
4.1496062992
  0
CIRCLE
  5
4FF
100
AcDbEntity
  8
3_ALL_AXES
100
AcDbCircle
 62
7
  6
CONTINUOUS
 10
34.8964798051
 20
36.0104341354
 40
3.9527559055
  0
CIRCLE
  5
500
100
AcDbEntity
  8
3_ALL_AXES
100
AcDbCircle
 62
7
  6
CONTINUOUS
 10
34.8964798051
 20
36.0104341354
 40
1.7519685039
  0
ARC
  5
501
100
AcDbEntity
  8
7_ALL_ROUNDS
100
AcDbCircle
 62
7
  6
CONTINUOUS
 10
40.6602593327
 20
29.7998042141
 40
0.2362204724
100
AcDbArc
 50
270.0
 51
360.0
  0
CIRCLE
  5
502
100
AcDbEntity
  8
3_AXES_OTHER
100
AcDbCircle
 62
7
  6
CONTINUOUS
 10
34.8964798051
 20
45.8549223243
 40
0.7
  0
ARC
  5
503
100
AcDbEntity
  8
7_ALL_ROUNDS
100
AcDbCircle
 62
7
  6
CONTINUOUS
 10
40.6602593327
 20
51.3273632692
 40
0.2362204724
100
AcDbArc
 50
0.0
 51
90.0
  0
ARC
  5
504
100
AcDbEntity
  8
7_ALL_ROUNDS
100
AcDbCircle
 62
7
  6
CONTINUOUS
 10
17.5121420582
 20
59.9991788741
 40
21.9861604118
100
AcDbArc
 50
4.4005478217
 51
5.0251399819
  0
ARC
  5
505
100
AcDbEntity
  8
7_ALL_ROUNDS
100
AcDbCircle
 62
7
  6
CONTINUOUS
 10
25.2816459864
 20
92.9435588562
 40
30.0129067258
100
AcDbArc
 50
276.9176494603
 51
277.3721336664
  0
ARC
  5
506
100
AcDbEntity
  8
7_ALL_ROUNDS
100
AcDbCircle
 62
7
  6
CONTINUOUS
 10
30.8383119825
 20
63.627977507
 40
2.0
100
AcDbArc
 50
193.8523123491
 51
256.147687651
  0
ARC
  5
507
100
AcDbEntity
  8
0
100
AcDbCircle
 62
7
  6
CONTINUOUS
 10
30.8383119825
 20
63.627977507
 40
2.0
100
AcDbArc
 50
240.9251324363
 51
244.6093210987
  0
ARC
  5
508
100
AcDbEntity
  8
7_ALL_ROUNDS
100
AcDbCircle
 62
9
  6
CONTINUOUS
 10
30.8383119825
 20
63.627977507
 40
1.7637795276
100
AcDbArc
 50
194.7556287705
 51
254.9109197793
  0
CIRCLE
  5
509
100
AcDbEntity
  8
0
100
AcDbCircle
 62
7
  6
CONTINUOUS
 10
31.0179726844
 20
65.2871949323
 40
0.4330708661
  0
CIRCLE
  5
50A
100
AcDbEntity
  8
0
100
AcDbCircle
 62
7
  6
CONTINUOUS
 10
31.0179726844
 20
65.2871949323
 40
0.2165354331
  0
ARC
  5
50B
100
AcDbEntity
  8
7_ALL_ROUNDS
100
AcDbCircle
 62
7
  6
CONTINUOUS
 10
31.9504443331
 20
71.6861453297
 40
0.5
100
AcDbArc
 50
90.0
 51
162.0
  0
ARC
  5
50C
100
AcDbEntity
  8
7_ALL_ROUNDS
100
AcDbCircle
 62
9
  6
CONTINUOUS
 10
31.9504443331
 20
71.6861453297
 40
0.2637795276
100
AcDbArc
 50
90.0
 51
162.0
  0
ARC
  5
50D
100
AcDbEntity
  8
3_ALL_AXES
100
AcDbCircle
 62
7
  6
CONTINUOUS
 10
33.4688269871
 20
62.7294395045
 40
0.2747220657
100
AcDbArc
 50
91.0436241907
 51
162.0
  0
ARC
  5
50E
100
AcDbEntity
  8
3_ALL_AXES
100
AcDbCircle
 62
7
  6
CONTINUOUS
 10
33.4688269871
 20
62.7294395045
 40
0.235351987
100
AcDbArc
 50
91.0436241907
 51
162.0
  0
ARC
  5
50F
100
AcDbEntity
  8
3_AXES_OTHER
100
AcDbCircle
 62
7
  6
CONTINUOUS
 10
34.5666727185
 20
62.3274314795
 40
0.0265866142
100
AcDbArc
 50
90.0
 51
180.0
  0
ARC
  5
510
100
AcDbEntity
  8
3_AXES_OTHER
100
AcDbCircle
 62
7
  6
CONTINUOUS
 10
34.5666727185
 20
62.3008566763
 40
0.0265866142
100
AcDbArc
 50
180.0
 51
270.0
  0
ARC
  5
511
100
AcDbEntity
  8
3_AXES_OTHER
100
AcDbCircle
 62
7
  6
CONTINUOUS
 10
34.741908939
 20
62.5367936842
 40
0.0265866142
100
AcDbArc
 50
180.0
 51
270.0
  0
ARC
  5
512
100
AcDbEntity
  8
3_AXES_OTHER
100
AcDbCircle
 62
7
  6
CONTINUOUS
 10
34.741908939
 20
62.5633684873
 40
0.0265866142
100
AcDbArc
 50
90.0
 51
180.0
  0
ARC
  5
513
100
AcDbEntity
  8
3_AXES_OTHER
100
AcDbCircle
 62
7
  6
CONTINUOUS
 10
34.3668498839
 20
62.3806086448
 40
0.0265866142
100
AcDbArc
 50
270.0
 51
360.0
  0
ARC
  5
514
100
AcDbEntity
  8
3_AXES_OTHER
100
AcDbCircle
 62
7
  6
CONTINUOUS
 10
33.9776884666
 20
62.3806086448
 40
0.0265866142
100
AcDbArc
 50
180.0
 51
270.0
  0
ARC
  5
515
100
AcDbEntity
  8
3_AXES_OTHER
100
AcDbCircle
 62
7
  6
CONTINUOUS
 10
33.9776884666
 20
62.5633684873
 40
0.0265866142
100
AcDbArc
 50
90.0
 51
180.0
  0
ARC
  5
516
100
AcDbEntity
  8
3_AXES_OTHER
100
AcDbCircle
 62
7
  6
CONTINUOUS
 10
34.3668498839
 20
62.5633684873
 40
0.0265866142
100
AcDbArc
 50
0.0
 51
90.0
  0
ARC
  5
517
100
AcDbEntity
  8
3_AXES_OTHER
100
AcDbCircle
 62
7
  6
CONTINUOUS
 10
34.2133616949
 20
62.247703133
 40
0.0121456693
100
AcDbArc
 50
180.0
 51
270.0
  0
ARC
  5
518
100
AcDbEntity
  8
3_AXES_OTHER
100
AcDbCircle
 62
7
  6
CONTINUOUS
 10
34.3281294114
 20
62.247703133
 40
0.0121456693
100
AcDbArc
 50
270.0
 51
360.0
  0
ARC
  5
519
100
AcDbEntity
  8
3_AXES_OTHER
100
AcDbCircle
 62
7
  6
CONTINUOUS
 10
34.3281294114
 20
62.3806086448
 40
0.0121456693
100
AcDbArc
 50
0.0
 51
90.0
  0
ARC
  5
51A
100
AcDbEntity
  8
3_AXES_OTHER
100
AcDbCircle
 62
7
  6
CONTINUOUS
 10
34.2133616949
 20
62.3806086448
 40
0.0121456693
100
AcDbArc
 50
90.0
 51
180.0
  0
ARC
  5
51B
100
AcDbEntity
  8
3_ALL_AXES
100
AcDbCircle
 62
7
  6
CONTINUOUS
 10
34.8964798051
 20
-15.6411419748
 40
78.6583060228
100
AcDbArc
 50
88.9563758093
 51
91.0436241907
  0
ARC
  5
51C
100
AcDbEntity
  8
3_ALL_AXES
100
AcDbCircle
 62
7
  6
CONTINUOUS
 10
34.8964798051
 20
-15.6411419748
 40
78.6189359441
100
AcDbArc
 50
88.9563758093
 51
91.0436241907
  0
ARC
  5
51D
100
AcDbEntity
  8
7_ALL_ROUNDS
100
AcDbCircle
 62
9
  6
CONTINUOUS
 10
34.8964798051
 20
10.3243842395
 40
51.7979790026
100
AcDbArc
 50
92.1302456758
 51
95.0031361825
  0
ARC
  5
51E
100
AcDbEntity
  8
7_ALL_ROUNDS
100
AcDbCircle
 62
9
  6
CONTINUOUS
 10
34.8964798051
 20
10.3243842395
 40
51.7979790026
100
AcDbArc
 50
84.9968638175
 51
87.8697543242
  0
ARC
  5
51F
100
AcDbEntity
  8
7_ALL_ROUNDS
100
AcDbCircle
 62
9
  6
CONTINUOUS
 10
34.8964798051
 20
10.3243842395
 40
51.7979790026
100
AcDbArc
 50
87.9161296006
 51
92.0838703994
  0
ARC
  5
520
100
AcDbEntity
  8
3_ALL_AXES
100
AcDbCircle
 62
7
  6
CONTINUOUS
 10
34.8964798051
 20
10.3243842395
 40
51.6995538058
100
AcDbArc
 50
92.1237579988
 51
92.170233435
  0
ARC
  5
521
100
AcDbEntity
  8
3_ALL_AXES
100
AcDbCircle
 62
7
  6
CONTINUOUS
 10
34.8964798051
 20
10.3243842395
 40
51.6995538058
100
AcDbArc
 50
87.829766565
 51
87.8762420012
  0
ARC
  5
522
100
AcDbEntity
  8
7_ALL_ROUNDS
100
AcDbCircle
 62
7
  6
CONTINUOUS
 10
34.8964798051
 20
10.3243842395
 40
51.5617585302
100
AcDbArc
 50
92.2264901315
 51
95.0480827626
  0
ARC
  5
523
100
AcDbEntity
  8
7_ALL_ROUNDS
100
AcDbCircle
 62
7
  6
CONTINUOUS
 10
34.8964798051
 20
10.3243842395
 40
51.5617585302
100
AcDbArc
 50
84.9519172374
 51
87.7735098685
  0
ARC
  5
524
100
AcDbEntity
  8
7_ALL_ROUNDS
100
AcDbCircle
 62
7
  6
CONTINUOUS
 10
34.8964798051
 20
10.3243842395
 40
51.5617585302
100
AcDbArc
 50
87.8201263009
 51
92.1798736991
  0
CIRCLE
  5
525
100
AcDbEntity
  8
0
100
AcDbCircle
 62
7
  6
CONTINUOUS
 10
34.8964798051
 20
66.889294936
 40
0.4330708661
  0
ARC
  5
526
100
AcDbEntity
  8
3_ALL_AXES
100
AcDbCircle
 62
7
  6
CONTINUOUS
 10
36.3241326232
 20
62.7294395045
 40
0.2747220657
100
AcDbArc
 50
18.0
 51
88.9563758093
  0
ARC
  5
527
100
AcDbEntity
  8
3_ALL_AXES
100
AcDbCircle
 62
7
  6
CONTINUOUS
 10
36.3241326232
 20
62.7294395045
 40
0.235351987
100
AcDbArc
 50
18.0
 51
88.9563758093
  0
CIRCLE
  5
528
100
AcDbEntity
  8
0
100
AcDbCircle
 62
7
  6
CONTINUOUS
 10
34.8964798051
 20
66.889294936
 40
0.2165354331
  0
ARC
  5
529
100
AcDbEntity
  8
3_AXES_OTHER
100
AcDbCircle
 62
7
  6
CONTINUOUS
 10
35.8964404351
 20
62.6165417157
 40
0.0265866142
100
AcDbArc
 50
270.0
 51
360.0
  0
ARC
  5
52A
100
AcDbEntity
  8
3_AXES_OTHER
100
AcDbCircle
 62
7
  6
CONTINUOUS
 10
35.8964404351
 20
62.6431165188
 40
0.0265866142
100
AcDbArc
 50
0.0
 51
90.0
  0
ARC
  5
52B
100
AcDbEntity
  8
3_AXES_OTHER
100
AcDbCircle
 62
7
  6
CONTINUOUS
 10
35.8964404351
 20
62.3008606133
 40
0.0265866142
100
AcDbArc
 50
270.0
 51
360.0
  0
ARC
  5
52C
100
AcDbEntity
  8
3_AXES_OTHER
100
AcDbCircle
 62
7
  6
CONTINUOUS
 10
35.8964404351
 20
62.3274354165
 40
0.0265866142
100
AcDbArc
 50
0.0
 51
90.0
  0
ARC
  5
52D
100
AcDbEntity
  8
3_AXES_OTHER
100
AcDbCircle
 62
7
  6
CONTINUOUS
 10
35.442905002
 20
62.3806086448
 40
0.0265866142
100
AcDbArc
 50
180.0
 51
270.0
  0
ARC
  5
52E
100
AcDbEntity
  8
3_AXES_OTHER
100
AcDbCircle
 62
7
  6
CONTINUOUS
 10
35.442905002
 20
62.5633684873
 40
0.0265866142
100
AcDbArc
 50
90.0
 51
180.0
  0
ARC
  5
52F
100
AcDbEntity
  8
3_AXES_OTHER
100
AcDbCircle
 62
7
  6
CONTINUOUS
 10
35.0053026398
 20
62.407179511
 40
0.0265866142
100
AcDbArc
 50
0.0
 51
90.0
  0
ARC
  5
530
100
AcDbEntity
  8
3_AXES_OTHER
100
AcDbCircle
 62
7
  6
CONTINUOUS
 10
35.0053026398
 20
62.3806047078
 40
0.0265866142
100
AcDbArc
 50
270.0
 51
360.0
  0
ARC
  5
531
100
AcDbEntity
  8
3_AXES_OTHER
100
AcDbCircle
 62
7
  6
CONTINUOUS
 10
35.1805388603
 20
62.6165417157
 40
0.0265866142
100
AcDbArc
 50
270.0
 51
360.0
  0
ARC
  5
532
100
AcDbEntity
  8
3_AXES_OTHER
100
AcDbCircle
 62
7
  6
CONTINUOUS
 10
35.1805388603
 20
62.6431165188
 40
0.0265866142
100
AcDbArc
 50
0.0
 51
90.0
  0
CIRCLE
  5
533
100
AcDbEntity
  8
0
100
AcDbCircle
 62
7
  6
CONTINUOUS
 10
34.8964798051
 20
70.5955941486
 40
0.4330708661
  0
CIRCLE
  5
534
100
AcDbEntity
  8
0
100
AcDbCircle
 62
7
  6
CONTINUOUS
 10
34.8964798051
 20
70.5955941486
 40
0.2165354331
  0
ARC
  5
535
100
AcDbEntity
  8
7_ALL_ROUNDS
100
AcDbCircle
 62
7
  6
CONTINUOUS
 10
38.9546476277
 20
63.627977507
 40
2.0
100
AcDbArc
 50
283.852312349
 51
346.1476876509
  0
ARC
  5
536
100
AcDbEntity
  8
0
100
AcDbCircle
 62
7
  6
CONTINUOUS
 10
38.9546476277
 20
63.627977507
 40
2.0
100
AcDbArc
 50
295.3906789013
 51
299.0748675637
  0
ARC
  5
537
100
AcDbEntity
  8
0
100
AcDbCircle
 62
7
  6
CONTINUOUS
 10
38.9546476277
 20
63.627977507
 40
2.0
100
AcDbArc
 50
318.7406140043
 51
323.0078243797
  0
ARC
  5
538
100
AcDbEntity
  8
0
100
AcDbCircle
 62
7
  6
CONTINUOUS
 10
38.9546476277
 20
63.627977507
 40
2.0
100
AcDbArc
 50
330.9251324363
 51
334.6093210987
  0
ARC
  5
539
100
AcDbEntity
  8
7_ALL_ROUNDS
100
AcDbCircle
 62
9
  6
CONTINUOUS
 10
38.9546476277
 20
63.627977507
 40
1.7637795276
100
AcDbArc
 50
285.0890802207
 51
345.2443712295
  0
CIRCLE
  5
53A
100
AcDbEntity
  8
0
100
AcDbCircle
 62
7
  6
CONTINUOUS
 10
38.7749869259
 20
65.2871949323
 40
0.4330708661
  0
CIRCLE
  5
53B
100
AcDbEntity
  8
0
100
AcDbCircle
 62
7
  6
CONTINUOUS
 10
38.7749869259
 20
65.2871949323
 40
0.2165354331
  0
ARC
  5
53C
100
AcDbEntity
  8
7_ALL_ROUNDS
100
AcDbCircle
 62
7
  6
CONTINUOUS
 10
37.8425152771
 20
71.6861453297
 40
0.5
100
AcDbArc
 50
18.0
 51
90.0
  0
ARC
  5
53D
100
AcDbEntity
  8
7_ALL_ROUNDS
100
AcDbCircle
 62
9
  6
CONTINUOUS
 10
37.8425152771
 20
71.6861453297
 40
0.2637795276
100
AcDbArc
 50
18.0
 51
90.0
  0
ARC
  5
53E
100
AcDbEntity
  8
7_ALL_ROUNDS
100
AcDbCircle
 62
7
  6
CONTINUOUS
 10
52.2808175563
 20
59.9991788738
 40
21.9861604161
100
AcDbArc
 50
174.9748600182
 51
175.5994521782
  0
ARC
  5
53F
100
AcDbEntity
  8
7_ALL_ROUNDS
100
AcDbCircle
 62
7
  6
CONTINUOUS
 10
44.6363097109
 20
93.940716975
 40
31.0178609356
100
AcDbArc
 50
262.6352288351
 51
263.0749880382
  0
ARC
  5
540
100
AcDbEntity
  8
7_ALL_ROUNDS
100
AcDbCircle
 62
7
  6
CONTINUOUS
 10
78.7890055553
 20
29.7998042141
 40
0.2362204724
100
AcDbArc
 50
270.0
 51
360.0
  0
ARC
  5
541
100
AcDbEntity
  8
7_ALL_ROUNDS
100
AcDbCircle
 62
7
  6
CONTINUOUS
 10
78.7890055553
 20
51.3273632692
 40
0.2362204724
100
AcDbArc
 50
0.0
 51
90.0
  0
ARC
  5
542
100
AcDbEntity
  8
0
100
AcDbCircle
 62
7
  6
CONTINUOUS
 10
72.434864982
 20
31.1360066575
 40
0.1984311074
100
AcDbArc
 50
287.1395903855
 51
293.5353531967
  0
ARC
  5
543
100
AcDbEntity
  8
3_ALL_AXES
100
AcDbCircle
 62
7
  6
CONTINUOUS
 10
72.434864982
 20
49.9911608258
 40
0.1984311074
100
AcDbArc
 50
66.4646468033
 51
72.8604096145
  0
ARC
  5
544
100
AcDbEntity
  8
0
100
AcDbCircle
 62
7
  6
CONTINUOUS
 10
72.4348649834
 20
31.1722631915
 40
0.1984311036
100
AcDbArc
 50
66.4646467448
 51
72.8603759417
  0
ARC
  5
545
100
AcDbEntity
  8
3_ALL_AXES
100
AcDbCircle
 62
7
  6
CONTINUOUS
 10
72.4348649834
 20
49.9549042918
 40
0.1984311036
100
AcDbArc
 50
287.1396240583
 51
293.5353532552
  0
ARC
  5
546
100
AcDbEntity
  8
3_ALL_AXES
100
AcDbCircle
 62
7
  6
CONTINUOUS
 10
75.1988871209
 20
5.0446853201
 40
64.3661610482
100
AcDbArc
 50
59.0854224122
 51
60.9015843577
  0
ARC
  5
547
100
AcDbEntity
  8
3_ALL_AXES
100
AcDbCircle
 62
7
  6
CONTINUOUS
 10
75.1957082662
 20
5.067005395
 40
64.3241417875
100
AcDbArc
 50
59.0853673281
 51
60.8895218131
  0
ARC
  5
548
100
AcDbEntity
  8
7_ALL_ROUNDS
100
AcDbCircle
 62
7
  6
CONTINUOUS
 10
83.4987590403
 20
19.8138653564
 40
46.8757782417
100
AcDbArc
 50
61.8258630093
 51
64.1552558476
  0
ARC
  5
549
100
AcDbEntity
  8
3_ALL_AXES
100
AcDbCircle
 62
7
  6
CONTINUOUS
 10
83.4681960058
 20
4.5864902643
 40
46.8184304228
100
AcDbArc
 50
61.8589239203
 51
64.170325849
  0
ARC
  5
54A
100
AcDbEntity
  8
3_ALL_AXES
100
AcDbCircle
 62
7
  6
CONTINUOUS
 10
83.425720546
 20
19.4272290242
 40
46.7374964004
100
AcDbArc
 50
61.9053883896
 51
64.1908088134
  0
ARC
  5
54B
100
AcDbEntity
  8
3_ALL_AXES
100
AcDbCircle
 62
7
  6
CONTINUOUS
 10
83.425720546
 20
4.6064270292
 40
46.7374964005
100
AcDbArc
 50
61.9053883896
 51
64.1908088134
  0
ARC
  5
54C
100
AcDbEntity
  8
7_ALL_ROUNDS
100
AcDbCircle
 62
7
  6
CONTINUOUS
 10
83.4257453943
 20
19.6795230102
 40
46.7374415879
100
AcDbArc
 50
61.9053870493
 51
64.1908101537
  0
ARC
  5
54D
100
AcDbEntity
  8
7_ALL_ROUNDS
100
AcDbCircle
 62
7
  6
CONTINUOUS
 10
83.6734441204
 20
4.66225657
 40
46.2859949142
100
AcDbArc
 50
61.9954620918
 51
64.1908739871
  0
ARC
  5
54E
100
AcDbEntity
  8
7_ALL_ROUNDS
100
AcDbCircle
 62
7
  6
CONTINUOUS
 10
83.6968141302
 20
4.8856244288
 40
46.1410086713
100
AcDbArc
 50
61.8915792053
 51
64.0949179838
  0
ARC
  5
54F
100
AcDbEntity
  8
3_ALL_AXES
100
AcDbCircle
 62
7
  6
CONTINUOUS
 10
84.7473973809
 20
7.0059778067
 40
44.0816255444
100
AcDbArc
 50
60.3625806712
 51
61.8022997435
  0
ARC
  5
550
100
AcDbEntity
  8
3_ALL_AXES
100
AcDbCircle
 62
7
  6
CONTINUOUS
 10
84.6807349972
 20
6.9848053431
 40
44.048337464
100
AcDbArc
 50
60.4494415465
 51
61.8490032495
  0
ARC
  5
551
100
AcDbEntity
  8
7_ALL_ROUNDS
100
AcDbCircle
 62
7
  6
CONTINUOUS
 10
85.344498668
 20
23.2646420483
 40
42.9623808798
100
AcDbArc
 50
58.2046725403
 51
61.7823342296
  0
ARC
  5
552
100
AcDbEntity
  8
7_ALL_ROUNDS
100
AcDbCircle
 62
7
  6
CONTINUOUS
 10
85.2873090904
 20
23.1677225514
 40
42.7835786336
100
AcDbArc
 50
58.1230210937
 51
61.8639856762
  0
ARC
  5
553
100
AcDbEntity
  8
3_ALL_AXES
100
AcDbCircle
 62
7
  6
CONTINUOUS
 10
85.2873848875
 20
22.9156086843
 40
42.78342715
100
AcDbArc
 50
58.1230144686
 51
61.8639923014
  0
ARC
  5
554
100
AcDbEntity
  8
3_ALL_AXES
100
AcDbCircle
 62
7
  6
CONTINUOUS
 10
85.4107753477
 20
8.1833621438
 40
42.7302294481
100
AcDbArc
 50
59.9938371926
 51
60.355020533
  0
ARC
  5
555
100
AcDbEntity
  8
3_ALL_AXES
100
AcDbCircle
 62
7
  6
CONTINUOUS
 10
85.361941368
 20
8.1967459141
 40
42.6580803056
100
AcDbArc
 50
59.9707934942
 51
60.4425606038
  0
ARC
  5
556
100
AcDbEntity
  8
3_ALL_AXES
100
AcDbCircle
 62
7
  6
CONTINUOUS
 10
85.6923991056
 20
8.7675900639
 40
41.9984842758
100
AcDbArc
 50
59.6169393593
 51
59.7618326838
  0
ARC
  5
557
100
AcDbEntity
  8
7_ALL_ROUNDS
100
AcDbCircle
 62
7
  6
CONTINUOUS
 10
85.7373400359
 20
8.4499045715
 40
41.9725607695
100
AcDbArc
 50
58.2053765417
 51
61.7498358667
  0
ARC
  5
558
100
AcDbEntity
  8
7_ALL_ROUNDS
100
AcDbCircle
 62
7
  6
CONTINUOUS
 10
85.7277969547
 20
8.6022511852
 40
41.9057393886
100
AcDbArc
 50
58.0858262733
 51
61.763928132
  0
ARC
  5
559
100
AcDbEntity
  8
3_ALL_AXES
100
AcDbCircle
 62
7
  6
CONTINUOUS
 10
85.8457768378
 20
8.9318456537
 40
41.8645156985
100
AcDbArc
 50
59.3165152064
 51
59.6699598808
  0
ARC
  5
55A
100
AcDbEntity
  8
3_ALL_AXES
100
AcDbCircle
 62
7
  6
CONTINUOUS
 10
85.8661661109
 20
9.0633660859
 40
41.6554413516
100
AcDbArc
 50
59.2485230701
 51
59.5819851135
  0
ARC
  5
55B
100
AcDbEntity
  8
3_ALL_AXES
100
AcDbCircle
 62
7
  6
CONTINUOUS
 10
86.1394615131
 20
9.5217059473
 40
41.1218060803
100
AcDbArc
 50
58.895165073
 51
59.0785182098
  0
ARC
  5
55C
100
AcDbEntity
  8
3_ALL_AXES
100
AcDbCircle
 62
7
  6
CONTINUOUS
 10
86.345186377
 20
9.7664588905
 40
40.89189011
100
AcDbArc
 50
58.5268035117
 51
58.9014252445
  0
ARC
  5
55D
100
AcDbEntity
  8
3_ALL_AXES
100
AcDbCircle
 62
7
  6
CONTINUOUS
 10
86.3410218754
 20
9.8549366889
 40
40.7323583541
100
AcDbArc
 50
58.5646455078
 51
58.7810551525
  0
ARC
  5
55E
100
AcDbEntity
  8
3_ALL_AXES
100
AcDbCircle
 62
7
  6
CONTINUOUS
 10
86.6539686021
 20
10.2697202618
 40
40.301449927
100
AcDbArc
 50
58.11924882
 51
58.3549782601
  0
ARC
  5
55F
100
AcDbEntity
  8
3_ALL_AXES
100
AcDbCircle
 62
7
  6
CONTINUOUS
 10
86.6122024264
 20
10.2969707384
 40
40.2137702989
100
AcDbArc
 50
58.0689538276
 51
58.4364998701
  0
ARC
  5
560
100
AcDbEntity
  8
7_ALL_ROUNDS
100
AcDbCircle
 62
7
  6
CONTINUOUS
 10
87.4440996502
 20
26.7027153977
 40
38.9339929002
100
AcDbArc
 50
55.4862870667
 51
58.1218980196
  0
ARC
  5
561
100
AcDbEntity
  8
3_ALL_AXES
100
AcDbCircle
 62
7
  6
CONTINUOUS
 10
87.438626884
 20
11.5187168842
 40
38.8264416392
100
AcDbArc
 50
55.4678543945
 51
58.0858019373
  0
ARC
  5
562
100
AcDbEntity
  8
7_ALL_ROUNDS
100
AcDbCircle
 62
7
  6
CONTINUOUS
 10
87.4306392406
 20
26.6713042011
 40
38.6765138763
100
AcDbArc
 50
55.4427528677
 51
58.034963885
  0
ARC
  5
563
100
AcDbEntity
  8
3_ALL_AXES
100
AcDbCircle
 62
7
  6
CONTINUOUS
 10
87.4306917065
 20
26.4191390738
 40
38.6764182397
100
AcDbArc
 50
55.4427496623
 51
58.0349670905
  0
ARC
  5
564
100
AcDbEntity
  8
3_ALL_AXES
100
AcDbCircle
 62
7
  6
CONTINUOUS
 10
87.4306917065
 20
11.5983370791
 40
38.6764182396
100
AcDbArc
 50
55.4427496622
 51
58.0349670905
  0
ARC
  5
565
100
AcDbEntity
  8
7_ALL_ROUNDS
100
AcDbCircle
 62
7
  6
CONTINUOUS
 10
87.709665746
 20
11.614034078
 40
38.2440187963
100
AcDbArc
 50
55.5581689652
 51
58.074301078
  0
ARC
  5
566
100
AcDbEntity
  8
7_ALL_ROUNDS
100
AcDbCircle
 62
7
  6
CONTINUOUS
 10
87.7327269721
 20
11.805334556
 40
38.1268830119
100
AcDbArc
 50
55.4250894512
 51
57.9500193757
  0
ARC
  5
567
100
AcDbEntity
  8
0
100
AcDbCircle
 62
7
  6
CONTINUOUS
 10
87.882117129
 20
12.6080473344
 40
38.0239800819
100
AcDbArc
 50
55.4470000619
 51
57.4865729537
  0
ARC
  5
568
100
AcDbEntity
  8
3_ALL_AXES
100
AcDbCircle
 62
7
  6
CONTINUOUS
 10
105.0538795957
 20
49.152406715
 40
5.0110234967
100
AcDbArc
 50
53.8788823899
 51
54.5045066638
  0
ARC
  5
569
100
AcDbEntity
  8
3_ALL_AXES
100
AcDbCircle
 62
7
  6
CONTINUOUS
 10
109.436869431
 20
51.6681372934
 40
4.1727222513
100
AcDbArc
 50
182.8534280313
 51
185.873411541
  0
ARC
  5
56A
100
AcDbEntity
  8
3_ALL_AXES
100
AcDbCircle
 62
7
  6
CONTINUOUS
 10
109.3586006188
 20
51.578884819
 40
3.9414996104
100
AcDbArc
 50
182.9015336446
 51
185.8481559826
  0
ARC
  5
56B
100
AcDbEntity
  8
3_ALL_AXES
100
AcDbCircle
 62
7
  6
CONTINUOUS
 10
109.8527659302
 20
50.0922283696
 40
3.6891583092
100
AcDbArc
 50
239.1921765769
 51
239.9917274329
  0
ARC
  5
56C
100
AcDbEntity
  8
3_ALL_AXES
100
AcDbCircle
 62
7
  6
CONTINUOUS
 10
107.1487710569
 20
48.498645219
 40
3.5705251112
100
AcDbArc
 50
359.4247515289
 51
359.8973512315
  0
ARC
  5
56D
100
AcDbEntity
  8
3_ALL_AXES
100
AcDbCircle
 62
7
  6
CONTINUOUS
 10
109.7469849477
 20
50.0155777963
 40
3.5634785122
100
AcDbArc
 50
239.9917934629
 51
240.8675533182
  0
ARC
  5
56E
100
AcDbEntity
  8
3_ALL_AXES
100
AcDbCircle
 62
7
  6
CONTINUOUS
 10
106.2323445868
 20
50.121406441
 40
3.5497685298
100
AcDbArc
 50
60.1121472505
 51
60.8730093767
  0
ARC
  5
56F
100
AcDbEntity
  8
3_ALL_AXES
100
AcDbCircle
 62
7
  6
CONTINUOUS
 10
109.7512729536
 20
50.0930415942
 40
3.4862006183
100
AcDbArc
 50
239.1451523248
 51
239.9915139996
  0
ARC
  5
570
100
AcDbEntity
  8
3_ALL_AXES
100
AcDbCircle
 62
7
  6
CONTINUOUS
 10
106.2224046424
 20
50.034032112
 40
3.4838996305
100
AcDbArc
 50
59.1438434945
 51
59.9914686891
  0
ARC
  5
571
100
AcDbEntity
  8
3_ALL_AXES
100
AcDbCircle
 62
7
  6
CONTINUOUS
 10
107.1534113344
 20
48.587150907
 40
3.4129492424
100
AcDbArc
 50
359.4957993877
 51
0.686102085
  0
ARC
  5
572
100
AcDbEntity
  8
3_ALL_AXES
100
AcDbCircle
 62
7
  6
CONTINUOUS
 10
109.6454687216
 20
50.0163516517
 40
3.3604751017
100
AcDbArc
 50
239.9915835953
 51
240.9199622008
  0
ARC
  5
573
100
AcDbEntity
  8
3_ALL_AXES
100
AcDbCircle
 62
7
  6
CONTINUOUS
 10
106.3309777459
 20
50.1155175232
 40
3.3526366804
100
AcDbArc
 50
59.9915257112
 51
60.9254913343
  0
ARC
  5
574
100
AcDbEntity
  8
3_ALL_AXES
100
AcDbCircle
 62
7
  6
CONTINUOUS
 10
110.3833029912
 20
60.5424119295
 40
2.4043981047
100
AcDbArc
 50
284.0640114174
 51
289.1802778863
  0
ARC
  5
575
100
AcDbEntity
  8
7_ALL_ROUNDS
100
AcDbCircle
 62
7
  6
CONTINUOUS
 10
104.5837554303
 20
47.1552777697
 40
1.123758715
100
AcDbArc
 50
221.7148093362
 51
226.0894335434
  0
ARC
  5
576
100
AcDbEntity
  8
7_ALL_ROUNDS
100
AcDbCircle
 62
7
  6
CONTINUOUS
 10
110.9120698267
 20
64.5418389388
 40
0.5453907719
100
AcDbArc
 50
100.9560493358
 51
106.3575267297
  0
ARC
  5
577
100
AcDbEntity
  8
7_ALL_ROUNDS
100
AcDbCircle
 62
7
  6
CONTINUOUS
 10
105.7416967259
 20
60.8447253234
 40
0.2889889098
100
AcDbArc
 50
110.4762761041
 51
120.1260298779
  0
ARC
  5
578
100
AcDbEntity
  8
7_ALL_ROUNDS
100
AcDbCircle
 62
7
  6
CONTINUOUS
 10
114.7052557881
 20
47.3259820197
 40
0.2848206496
100
AcDbArc
 50
346.097950988
 51
359.9665901879
  0
ARC
  5
579
100
AcDbEntity
  8
7_ALL_ROUNDS
100
AcDbCircle
 62
7
  6
CONTINUOUS
 10
105.7326921043
 20
60.8681011185
 40
0.263940199
100
AcDbArc
 50
106.4210652072
 51
110.4201885274
  0
ARC
  5
57A
100
AcDbEntity
  8
7_ALL_ROUNDS
100
AcDbCircle
 62
7
  6
CONTINUOUS
 10
105.5716550396
 20
45.5845226297
 40
0.1358958814
100
AcDbArc
 50
179.9449255861
 51
188.2522013241
  0
ARC
  5
57B
100
AcDbEntity
  8
7_ALL_ROUNDS
100
AcDbCircle
 62
7
  6
CONTINUOUS
 10
105.5570058627
 20
45.5963200206
 40
0.1304716299
100
AcDbArc
 50
241.9211296288
 51
249.9434546838
  0
ARC
  5
57C
100
AcDbEntity
  8
7_ALL_ROUNDS
100
AcDbCircle
 62
7
  6
CONTINUOUS
 10
105.5793152849
 20
45.5732740847
 40
0.1206812831
100
AcDbArc
 50
235.9755336819
 51
241.8424932387
  0
ARC
  5
57D
100
AcDbEntity
  8
7_ALL_ROUNDS
100
AcDbCircle
 62
7
  6
CONTINUOUS
 10
105.5750604196
 20
45.5670104705
 40
0.1131092132
100
AcDbArc
 50
227.6214950504
 51
235.9864960972
  0
ARC
  5
57E
100
AcDbEntity
  8
7_ALL_ROUNDS
100
AcDbCircle
 62
7
  6
CONTINUOUS
 10
110.766498665
 20
65.0379765024
 40
0.0283351143
100
AcDbArc
 50
99.1938953903
 51
106.4555164503
  0
ARC
  5
57F
100
AcDbEntity
  8
3_AXES_OTHER
100
AcDbCircle
 62
7
  6
CONTINUOUS
 10
107.2186747344
 20
60.4913845086
 40
0.0220112668
100
AcDbArc
 50
348.2003187974
 51
359.9621800224
  0
ARC
  5
580
100
AcDbEntity
  8
3_AXES_OTHER
100
AcDbCircle
 62
7
  6
CONTINUOUS
 10
106.8809229291
 20
60.8004245502
 40
0.0208644148
100
AcDbArc
 50
350.4392138397
 51
359.9688899773
  0
SPLINE
  5
581
100
AcDbEntity
  8
7_ALL_ROUNDS
100
AcDbSpline
 62
7
  6
CONTINUOUS
 70
0
 71
3
 72
9
 73
5
 74
0
 42
0.0000001
 43
0.0000001
 44
0.0000000001
 40
0.0
 40
0.0
 40
0.0
 40
0.0
 40
0.2871487381
 40
1.0
 40
1.0
 40
1.0
 40
1.0
 10
36.8577238661
 20
29.7998042141
 30
0.0
 10
36.8577238661
 20
29.7813418562
 30
0.0
 10
36.8550157036
 20
29.7172995107
 30
0.0
 10
36.8448762151
 20
29.6520090818
 30
0.0
 10
36.8263021906
 20
29.6101082689
 30
0.0
  0
SPLINE
  5
582
100
AcDbEntity
  8
7_ALL_ROUNDS
100
AcDbSpline
 62
7
  6
CONTINUOUS
 70
0
 71
3
 72
9
 73
5
 74
0
 42
0.0000001
 43
0.0000001
 44
0.0000000001
 40
0.0
 40
0.0
 40
0.0
 40
0.0
 40
0.2886145308
 40
1.0
 40
1.0
 40
1.0
 40
1.0
 10
36.8263021906
 20
29.6101082689
 30
0.0
 10
36.8247032726
 20
29.6065012981
 30
0.0
 10
36.8187919943
 20
29.5942045731
 30
0.0
 10
36.8112701543
 20
29.582452591
 30
0.0
 10
36.8044116533
 20
29.5755580219
 30
0.0
  0
SPLINE
  5
583
100
AcDbEntity
  8
7_ALL_ROUNDS
100
AcDbSpline
 62
7
  6
CONTINUOUS
 70
0
 71
3
 72
9
 73
5
 74
0
 42
0.0000001
 43
0.0000001
 44
0.0000000001
 40
0.0
 40
0.0
 40
0.0
 40
0.0
 40
0.2882011453
 40
1.0
 40
1.0
 40
1.0
 40
1.0
 10
36.8044116533
 20
29.5755580219
 30
0.0
 10
36.8025425714
 20
29.5736791107
 30
0.0
 10
36.7957312186
 20
29.5675713548
 30
0.0
 10
36.786523249
 20
29.5635837417
 30
0.0
 10
36.7799776883
 20
29.5635837417
 30
0.0
  0
SPLINE
  5
584
100
AcDbEntity
  8
7_ALL_ROUNDS
100
AcDbSpline
 62
7
  6
CONTINUOUS
 70
0
 71
3
 72
9
 73
5
 74
0
 42
0.0000001
 43
0.0000001
 44
0.0000000001
 40
0.0
 40
0.0
 40
0.0
 40
0.0
 40
0.7117988547
 40
1.0
 40
1.0
 40
1.0
 40
1.0
 10
33.012981922
 20
29.5635837417
 30
0.0
 10
33.0064363613
 20
29.5635837417
 30
0.0
 10
32.9972283917
 20
29.5675713548
 30
0.0
 10
32.9904170389
 20
29.5736791107
 30
0.0
 10
32.988547957
 20
29.5755580219
 30
0.0
  0
SPLINE
  5
585
100
AcDbEntity
  8
7_ALL_ROUNDS
100
AcDbSpline
 62
7
  6
CONTINUOUS
 70
0
 71
3
 72
9
 73
5
 74
0
 42
0.0000001
 43
0.0000001
 44
0.0000000001
 40
0.0
 40
0.0
 40
0.0
 40
0.0
 40
0.2132534888
 40
1.0
 40
1.0
 40
1.0
 40
1.0
 10
32.988547957
 20
29.5755580219
 30
0.0
 10
32.9864908228
 20
29.5776259743
 30
0.0
 10
32.9775321223
 20
29.5880082806
 30
0.0
 10
32.9710184096
 20
29.6002703889
 30
0.0
 10
32.9666574197
 20
29.6101082689
 30
0.0
  0
SPLINE
  5
586
100
AcDbEntity
  8
7_ALL_ROUNDS
100
AcDbSpline
 62
7
  6
CONTINUOUS
 70
0
 71
3
 72
9
 73
5
 74
0
 42
0.0000001
 43
0.0000001
 44
0.0000000001
 40
0.0
 40
0.0
 40
0.0
 40
0.0
 40
0.2024673435
 40
1.0
 40
1.0
 40
1.0
 40
1.0
 10
32.9666574197
 20
29.6101082689
 30
0.0
 10
32.9613783731
 20
29.6220171766
 30
0.0
 10
32.9409375828
 20
29.6832570957
 30
0.0
 10
32.9352357442
 20
29.7484918354
 30
0.0
 10
32.9352357442
 20
29.7998042141
 30
0.0
  0
SPLINE
  5
587
100
AcDbEntity
  8
7_ALL_ROUNDS
100
AcDbSpline
 62
7
  6
CONTINUOUS
 70
0
 71
3
 72
9
 73
5
 74
0
 42
0.0000001
 43
0.0000001
 44
0.0000000001
 40
0.0
 40
0.0
 40
0.0
 40
0.0
 40
0.2871300921
 40
1.0
 40
1.0
 40
1.0
 40
1.0
 10
32.9352357442
 20
51.3273632692
 30
0.0
 10
32.9352357442
 20
51.3458209563
 30
0.0
 10
32.9379425522
 20
51.4098516056
 30
0.0
 10
32.9480791732
 20
51.4751280148
 30
0.0
 10
32.9666424565
 20
51.5170254708
 30
0.0
  0
SPLINE
  5
588
100
AcDbEntity
  8
7_ALL_ROUNDS
100
AcDbSpline
 62
7
  6
CONTINUOUS
 70
0
 71
3
 72
9
 73
5
 74
0
 42
0.0000001
 43
0.0000001
 44
0.0000000001
 40
0.0
 40
0.0
 40
0.0
 40
0.0
 40
0.2886444162
 40
1.0
 40
1.0
 40
1.0
 40
1.0
 10
32.9666424565
 20
51.5170254708
 30
0.0
 10
32.9682424867
 20
51.5206367499
 30
0.0
 10
32.974157612
 20
51.5329468251
 30
0.0
 10
32.9816856555
 20
51.5447120792
 30
0.0
 10
32.9885512896
 20
51.5516128144
 30
0.0
  0
SPLINE
  5
589
100
AcDbEntity
  8
7_ALL_ROUNDS
100
AcDbSpline
 62
7
  6
CONTINUOUS
 70
0
 71
3
 72
9
 73
5
 74
0
 42
0.0000001
 43
0.0000001
 44
0.0000000001
 40
0.0
 40
0.0
 40
0.0
 40
0.0
 40
0.2881941828
 40
1.0
 40
1.0
 40
1.0
 40
1.0
 10
32.9885512896
 20
51.5516128144
 30
0.0
 10
32.9904201523
 20
51.5534912319
 30
0.0
 10
32.9972308452
 20
51.5595974887
 30
0.0
 10
33.0064373853
 20
51.5635837417
 30
0.0
 10
33.012981922
 20
51.5635837417
 30
0.0
  0
SPLINE
  5
58A
100
AcDbEntity
  8
7_ALL_ROUNDS
100
AcDbSpline
 62
7
  6
CONTINUOUS
 70
0
 71
3
 72
9
 73
5
 74
0
 42
0.0000001
 43
0.0000001
 44
0.0000000001
 40
0.0
 40
0.0
 40
0.0
 40
0.0
 40
0.7118058172
 40
1.0
 40
1.0
 40
1.0
 40
1.0
 10
36.7799776883
 20
51.5635837417
 30
0.0
 10
36.786522225
 20
51.5635837417
 30
0.0
 10
36.7957287651
 20
51.5595974887
 30
0.0
 10
36.8025394579
 20
51.5534912319
 30
0.0
 10
36.8044083207
 20
51.5516128144
 30
0.0
  0
SPLINE
  5
58B
100
AcDbEntity
  8
7_ALL_ROUNDS
100
AcDbSpline
 62
7
  6
CONTINUOUS
 70
0
 71
3
 72
9
 73
5
 74
0
 42
0.0000001
 43
0.0000001
 44
0.0000000001
 40
0.0
 40
0.0
 40
0.0
 40
0.0
 40
0.213224947
 40
1.0
 40
1.0
 40
1.0
 40
1.0
 10
36.8044083207
 20
51.5516128144
 30
0.0
 10
36.8064674076
 20
51.5495432002
 30
0.0
 10
36.8154351799
 20
51.5391503369
 30
0.0
 10
36.8219534188
 20
51.5268744502
 30
0.0
 10
36.8263171538
 20
51.5170254708
 30
0.0
  0
SPLINE
  5
58C
100
AcDbEntity
  8
7_ALL_ROUNDS
100
AcDbSpline
 62
7
  6
CONTINUOUS
 70
0
 71
3
 72
9
 73
5
 74
0
 42
0.0000001
 43
0.0000001
 44
0.0000000001
 40
0.0
 40
0.0
 40
0.0
 40
0.0
 40
0.2024914407
 40
1.0
 40
1.0
 40
1.0
 40
1.0
 10
36.8263171538
 20
51.5170254708
 30
0.0
 10
36.8315936327
 20
51.5051164223
 30
0.0
 10
36.8520234302
 20
51.4438860079
 30
0.0
 10
36.8577238661
 20
51.3786644011
 30
0.0
 10
36.8577238661
 20
51.3273632692
 30
0.0
  0
SPLINE
  5
58D
100
AcDbEntity
  8
7_ALL_ROUNDS
100
AcDbSpline
 62
7
  6
CONTINUOUS
 70
0
 71
3
 72
13
 73
9
 74
0
 42
0.0000001
 43
0.0000001
 44
0.0000000001
 40
0.0
 40
0.0
 40
0.0
 40
0.0
 40
0.3810536484
 40
0.7025518015
 40
0.8254885316
 40
0.9170788939
 40
0.9748100051
 40
1.0
 40
1.0
 40
1.0
 40
1.0
 10
39.4334876792
 20
29.7998042141
 30
0.0
 10
39.4334876792
 20
29.7694686875
 30
0.0
 10
39.4326975214
 20
29.7136218843
 30
0.0
 10
39.4294983406
 20
29.6476874009
 30
0.0
 10
39.4256109941
 20
29.6055847421
 30
0.0
 10
39.4221930018
 20
29.5834261956
 30
0.0
 10
39.4194873838
 20
29.5712254537
 30
0.0
 10
39.4158009585
 20
29.5635837417
 30
0.0
 10
39.4137955932
 20
29.5635837417
 30
0.0
  0
SPLINE
  5
58E
100
AcDbEntity
  8
7_ALL_ROUNDS
100
AcDbSpline
 62
7
  6
CONTINUOUS
 70
0
 71
3
 72
13
 73
9
 74
0
 42
0.0000001
 43
0.0000001
 44
0.0000000001
 40
0.0
 40
0.0
 40
0.0
 40
0.0
 40
0.3810536484
 40
0.7025518015
 40
0.8254885316
 40
0.9170788939
 40
0.9748100051
 40
1.0
 40
1.0
 40
1.0
 40
1.0
 10
30.3594719311
 20
51.3273632692
 30
0.0
 10
30.3594719311
 20
51.3576987958
 30
0.0
 10
30.3602620889
 20
51.413545599
 30
0.0
 10
30.3634612697
 20
51.4794800824
 30
0.0
 10
30.3673486162
 20
51.5215827412
 30
0.0
 10
30.3707666085
 20
51.5437412877
 30
0.0
 10
30.3734722264
 20
51.5559420296
 30
0.0
 10
30.3771586518
 20
51.5635837417
 30
0.0
 10
30.3791640171
 20
51.5635837417
 30
0.0
  0
SPLINE
  5
58F
100
AcDbEntity
  8
7_ALL_ROUNDS
100
AcDbSpline
 62
7
  6
CONTINUOUS
 70
0
 71
3
 72
13
 73
9
 74
0
 42
0.0000001
 43
0.0000001
 44
0.0000000001
 40
0.0
 40
0.0
 40
0.0
 40
0.0
 40
0.3810536484
 40
0.7025518015
 40
0.8254885316
 40
0.9170788939
 40
0.9748100051
 40
1.0
 40
1.0
 40
1.0
 40
1.0
 10
39.4334876792
 20
51.3273632692
 30
0.0
 10
39.4334876792
 20
51.3576987958
 30
0.0
 10
39.4326975214
 20
51.413545599
 30
0.0
 10
39.4294983406
 20
51.4794800824
 30
0.0
 10
39.4256109941
 20
51.5215827412
 30
0.0
 10
39.4221930018
 20
51.5437412877
 30
0.0
 10
39.4194873838
 20
51.5559420296
 30
0.0
 10
39.4158009585
 20
51.5635837417
 30
0.0
 10
39.4137955932
 20
51.5635837417
 30
0.0
  0
SPLINE
  5
590
100
AcDbEntity
  8
7_ALL_ROUNDS
100
AcDbSpline
 62
7
  6
CONTINUOUS
 70
0
 71
3
 72
10
 73
6
 74
0
 42
0.0000001
 43
0.0000001
 44
0.0000000001
 40
0.0
 40
0.0
 40
0.0
 40
0.0
 40
0.1289816603
 40
0.3422857965
 40
1.0
 40
1.0
 40
1.0
 40
1.0
 10
32.9710849203
 20
51.5635837417
 30
0.0
 10
32.9598867845
 20
51.5635837417
 30
0.0
 10
32.9333286763
 20
51.5421738712
 30
0.0
 10
32.9018759378
 20
51.4616834452
 30
0.0
 10
32.8933155821
 20
51.3844657516
 30
0.0
 10
32.8933155821
 20
51.3273632692
 30
0.0
  0
SPLINE
  5
591
100
AcDbEntity
  8
7_ALL_ROUNDS
100
AcDbSpline
 62
7
  6
CONTINUOUS
 70
0
 71
3
 72
10
 73
6
 74
0
 42
0.0000001
 43
0.0000001
 44
0.0000000001
 40
0.0
 40
0.0
 40
0.0
 40
0.0
 40
0.6577154634
 40
0.8710184182
 40
1.0
 40
1.0
 40
1.0
 40
1.0
 10
32.8933155821
 20
29.7998042141
 30
0.0
 10
32.8933155821
 20
29.7427016209
 30
0.0
 10
32.9018759666
 20
29.66548392
 30
0.0
 10
32.9333287508
 20
29.584993493
 30
0.0
 10
32.959886791
 20
29.5635837417
 30
0.0
 10
32.9710849203
 20
29.5635837417
 30
0.0
  0
SPLINE
  5
592
100
AcDbEntity
  8
7_ALL_ROUNDS
100
AcDbSpline
 62
7
  6
CONTINUOUS
 70
0
 71
3
 72
10
 73
6
 74
0
 42
0.0000001
 43
0.0000001
 44
0.0000000001
 40
0.0
 40
0.0
 40
0.0
 40
0.0
 40
0.1289815818
 40
0.3422845366
 40
1.0
 40
1.0
 40
1.0
 40
1.0
 10
36.82187469
 20
29.5635837417
 30
0.0
 10
36.8330728193
 20
29.5635837417
 30
0.0
 10
36.8596308595
 20
29.584993493
 30
0.0
 10
36.8910836437
 20
29.66548392
 30
0.0
 10
36.8996440282
 20
29.7427016209
 30
0.0
 10
36.8996440282
 20
29.7998042141
 30
0.0
  0
SPLINE
  5
593
100
AcDbEntity
  8
7_ALL_ROUNDS
100
AcDbSpline
 62
7
  6
CONTINUOUS
 70
0
 71
3
 72
13
 73
9
 74
0
 42
0.0000001
 43
0.0000001
 44
0.0000000001
 40
0.0
 40
0.0
 40
0.0
 40
0.0
 40
0.3810536484
 40
0.7025518015
 40
0.8254885316
 40
0.9170788939
 40
0.9748100051
 40
1.0
 40
1.0
 40
1.0
 40
1.0
 10
30.3594719311
 20
29.7998042141
 30
0.0
 10
30.3594719311
 20
29.7694686875
 30
0.0
 10
30.3602620889
 20
29.7136218843
 30
0.0
 10
30.3634612697
 20
29.6476874009
 30
0.0
 10
30.3673486162
 20
29.6055847421
 30
0.0
 10
30.3707666085
 20
29.5834261956
 30
0.0
 10
30.3734722264
 20
29.5712254537
 30
0.0
 10
30.3771586518
 20
29.5635837417
 30
0.0
 10
30.3791640171
 20
29.5635837417
 30
0.0
  0
SPLINE
  5
594
100
AcDbEntity
  8
7_ALL_ROUNDS
100
AcDbSpline
 62
7
  6
CONTINUOUS
 70
0
 71
3
 72
10
 73
6
 74
0
 42
0.0000001
 43
0.0000001
 44
0.0000000001
 40
0.0
 40
0.0
 40
0.0
 40
0.0
 40
0.6577142035
 40
0.8710183397
 40
1.0
 40
1.0
 40
1.0
 40
1.0
 10
36.8996440282
 20
51.3273632692
 30
0.0
 10
36.8996440282
 20
51.3844657516
 30
0.0
 10
36.8910836725
 20
51.4616834452
 30
0.0
 10
36.859630934
 20
51.5421738712
 30
0.0
 10
36.8330728258
 20
51.5635837417
 30
0.0
 10
36.82187469
 20
51.5635837417
 30
0.0
  0
SPLINE
  5
595
100
AcDbEntity
  8
3_AXES_OTHER
100
AcDbSpline
 62
7
  6
CONTINUOUS
 70
0
 71
3
 72
13
 73
9
 74
0
 42
0.0000001
 43
0.0000001
 44
0.0000000001
 40
0.0
 40
0.0
 40
0.0
 40
0.0
 40
0.1317357684
 40
0.2713541552
 40
0.4178991716
 40
0.5930152361
 40
0.7698067128
 40
1.0
 40
1.0
 40
1.0
 40
1.0
 10
35.3646648445
 20
62.669703133
 30
0.0
 10
35.3534121656
 20
62.669703133
 30
0.0
 10
35.3303510447
 20
62.666645116
 30
0.0
 10
35.2990469339
 20
62.6477096471
 30
0.0
 10
35.2766467007
 20
62.6149094518
 30
0.0
 10
35.2620760544
 20
62.5750825551
 30
0.0
 10
35.2541021367
 20
62.5263371254
 30
0.0
 10
35.2529483091
 20
62.4919252759
 30
0.0
 10
35.2529483091
 20
62.4724511645
 30
0.0
  0
SPLINE
  5
596
100
AcDbEntity
  8
3_AXES_OTHER
100
AcDbSpline
 62
7
  6
CONTINUOUS
 70
0
 71
3
 72
13
 73
9
 74
0
 42
0.0000001
 43
0.0000001
 44
0.0000000001
 40
0.0
 40
0.0
 40
0.0
 40
0.0
 40
0.2249509062
 40
0.4029463322
 40
0.5792549365
 40
0.726797924
 40
0.8673671115
 40
1.0
 40
1.0
 40
1.0
 40
1.0
 10
35.2529483091
 20
62.4677267551
 30
0.0
 10
35.2529483091
 20
62.4489806565
 30
0.0
 10
35.2544470325
 20
62.4154317582
 30
0.0
 10
35.2624523665
 20
62.367687762
 30
0.0
 10
35.2771076385
 20
62.3282613093
 30
0.0
 10
35.2994797386
 20
62.2958371308
 30
0.0
 10
35.3306208216
 20
62.2772216347
 30
0.0
 10
35.3535010521
 20
62.2742739992
 30
0.0
 10
35.3646648445
 20
62.2742739992
 30
0.0
  0
SPLINE
  5
597
100
AcDbEntity
  8
3_AXES_OTHER
100
AcDbSpline
 62
7
  6
CONTINUOUS
 70
0
 71
3
 72
13
 73
9
 74
0
 42
0.0000001
 43
0.0000001
 44
0.0000000001
 40
0.0
 40
0.0
 40
0.0
 40
0.0
 40
0.1604571392
 40
0.3334692485
 40
0.4767982758
 40
0.6242014838
 40
0.7505998515
 40
1.0
 40
1.0
 40
1.0
 40
1.0
 10
35.1170349233
 20
62.2742700621
 30
0.0
 10
35.1262743588
 20
62.2742700621
 30
0.0
 10
35.1454087904
 20
62.2763894544
 30
0.0
 10
35.1710275043
 20
62.2876306286
 30
0.0
 10
35.1901641604
 20
62.3068437943
 30
0.0
 10
35.2007456877
 20
62.3285734864
 30
0.0
 10
35.2087896171
 20
62.3576558062
 30
0.0
 10
35.2083004633
 20
62.3793259821
 30
0.0
 10
35.2086924036
 20
62.393699196
 30
0.0
  0
SPLINE
  5
598
100
AcDbEntity
  8
3_AXES_OTHER
100
AcDbSpline
 62
7
  6
CONTINUOUS
 70
0
 71
3
 72
13
 73
9
 74
0
 42
0.0000001
 43
0.0000001
 44
0.0000000001
 40
0.0
 40
0.0
 40
0.0
 40
0.0
 40
0.2494001485
 40
0.3757985162
 40
0.5232017242
 40
0.6665307515
 40
0.8395428608
 40
1.0
 40
1.0
 40
1.0
 40
1.0
 10
35.2086924036
 20
62.393699196
 30
0.0
 10
35.2090783383
 20
62.4078521755
 30
0.0
 10
35.2081487834
 20
62.4291880131
 30
0.0
 10
35.2001469663
 20
62.4577280977
 30
0.0
 10
35.1894099718
 20
62.4790017783
 30
0.0
 10
35.1703586507
 20
62.4976776938
 30
0.0
 10
35.1449954839
 20
62.5085106688
 30
0.0
 10
35.1261327868
 20
62.51020707
 30
0.0
 10
35.1170349233
 20
62.51020707
 30
0.0
  0
SPLINE
  5
599
100
AcDbEntity
  8
3_AXES_OTHER
100
AcDbSpline
 62
7
  6
CONTINUOUS
 70
0
 71
3
 72
13
 73
9
 74
0
 42
0.0000001
 43
0.0000001
 44
0.0000000001
 40
0.0
 40
0.0
 40
0.0
 40
0.0
 40
0.1133740464
 40
0.2392044088
 40
0.3655787964
 40
0.4912154373
 40
0.7445390876
 40
1.0
 40
1.0
 40
1.0
 40
1.0
 10
34.6301766555
 20
62.669703133
 30
0.0
 10
34.6237428982
 20
62.669703133
 30
0.0
 10
34.6101867751
 20
62.6687827565
 30
0.0
 10
34.5899861565
 20
62.6631308267
 30
0.0
 10
34.5718549665
 20
62.6511107361
 30
0.0
 10
34.5532235132
 20
62.6289262936
 30
0.0
 10
34.5413751529
 20
62.5938947798
 30
0.0
 10
34.5396300888
 20
62.5651125325
 30
0.0
 10
34.5389994902
 20
62.5506480149
 30
0.0
  0
SPLINE
  5
59A
100
AcDbEntity
  8
3_AXES_OTHER
100
AcDbSpline
 62
7
  6
CONTINUOUS
 70
0
 71
3
 72
13
 73
9
 74
0
 42
0.0000001
 43
0.0000001
 44
0.0000000001
 40
0.0
 40
0.0
 40
0.0
 40
0.0
 40
0.2554609124
 40
0.5087845627
 40
0.6344212036
 40
0.7607955912
 40
0.8866259536
 40
1.0
 40
1.0
 40
1.0
 40
1.0
 10
34.5389994902
 20
62.5506480149
 30
0.0
 10
34.5383761223
 20
62.5363493541
 30
0.0
 10
34.5423775853
 20
62.5079222003
 30
0.0
 10
34.5536701402
 20
62.4733966165
 30
0.0
 10
34.5723771864
 20
62.4516286203
 30
0.0
 10
34.5903865846
 20
62.4399168805
 30
0.0
 10
34.6104098255
 20
62.4344704557
 30
0.0
 10
34.6238166706
 20
62.4337661251
 30
0.0
 10
34.6301766555
 20
62.4337661251
 30
0.0
  0
SPLINE
  5
59B
100
AcDbEntity
  8
3_AXES_OTHER
100
AcDbSpline
 62
7
  6
CONTINUOUS
 70
0
 71
3
 72
12
 73
8
 74
0
 42
0.0000001
 43
0.0000001
 44
0.0000000001
 40
0.0
 40
0.0
 40
0.0
 40
0.0
 40
0.2415790084
 40
0.4893269843
 40
0.7378634303
 40
0.8656387112
 40
1.0
 40
1.0
 40
1.0
 40
1.0
 10
34.3984758681
 20
62.2742739992
 30
0.0
 10
34.4093717878
 20
62.2742739992
 30
0.0
 10
34.4314161658
 20
62.2756991894
 30
0.0
 10
34.4636253915
 20
62.2871658615
 30
0.0
 10
34.4831059516
 20
62.3090817473
 30
0.0
 10
34.4915795643
 20
62.3308419932
 30
0.0
 10
34.4917199626
 20
62.342739367
 30
0.0
 10
34.4917199626
 20
62.3488369913
 30
0.0
  0
SPLINE
  5
59C
100
AcDbEntity
  8
3_AXES_OTHER
100
AcDbSpline
 62
7
  6
CONTINUOUS
 70
0
 71
3
 72
12
 73
8
 74
0
 42
0.0000001
 43
0.0000001
 44
0.0000000001
 40
0.0
 40
0.0
 40
0.0
 40
0.0
 40
0.1343612888
 40
0.2621365697
 40
0.5106730157
 40
0.7584209916
 40
1.0
 40
1.0
 40
1.0
 40
1.0
 10
34.4917199626
 20
62.5950259677
 30
0.0
 10
34.4917199626
 20
62.6011270787
 30
0.0
 10
34.4915953034
 20
62.6130313875
 30
0.0
 10
34.4831304369
 20
62.6348104001
 30
0.0
 10
34.4636570396
 20
62.6567550112
 30
0.0
 10
34.4314377288
 20
62.6682478571
 30
0.0
 10
34.4093819549
 20
62.669703133
 30
0.0
 10
34.3984798051
 20
62.669703133
 30
0.0
  0
SPLINE
  5
59D
100
AcDbEntity
  8
3_AXES_OTHER
100
AcDbSpline
 62
7
  6
CONTINUOUS
 70
0
 71
3
 72
12
 73
8
 74
0
 42
0.0000001
 43
0.0000001
 44
0.0000000001
 40
0.0
 40
0.0
 40
0.0
 40
0.0
 40
0.1341799809
 40
0.290831959
 40
0.5815217441
 40
0.760783857
 40
1.0
 40
1.0
 40
1.0
 40
1.0
 10
33.8969994902
 20
62.669703133
 30
0.0
 10
33.8858559667
 20
62.669703133
 30
0.0
 10
33.8623082139
 20
62.6626616745
 30
0.0
 10
33.8221603543
 20
62.6342253181
 30
0.0
 10
33.8033580953
 20
62.583117014
 30
0.0
 10
33.7923465326
 20
62.5261373988
 30
0.0
 10
33.7916532436
 20
62.4915607138
 30
0.0
 10
33.7911766555
 20
62.4718173062
 30
0.0
  0
SPLINE
  5
59E
100
AcDbEntity
  8
3_AXES_OTHER
100
AcDbSpline
 62
7
  6
CONTINUOUS
 70
0
 71
3
 72
12
 73
8
 74
0
 42
0.0000001
 43
0.0000001
 44
0.0000000001
 40
0.0
 40
0.0
 40
0.0
 40
0.0
 40
0.2392679579
 40
0.4185688994
 40
0.7093216488
 40
0.8660075581
 40
1.0
 40
1.0
 40
1.0
 40
1.0
 10
33.7911766555
 20
62.4718173062
 30
0.0
 10
33.7907003128
 20
62.452084064
 30
0.0
 10
33.7926831502
 20
62.4175271707
 30
0.0
 10
33.8032455178
 20
62.3605607898
 30
0.0
 10
33.8222226934
 20
62.3095608844
 30
0.0
 10
33.8622786146
 20
62.2809757154
 30
0.0
 10
33.8858726582
 20
62.2742779362
 30
0.0
 10
33.8969994902
 20
62.2742779362
 30
0.0
  0
LINE
  5
59F
100
AcDbEntity
  8
7_ALL_ROUNDS
100
AcDbLine
 62
7
  6
CONTINUOUS
 10
29.1327002776
 20
63.8676293201
 11
28.8964798051
 21
63.9050429674
  0
LINE
  5
5A0
100
AcDbEntity
  8
7_ALL_ROUNDS
100
AcDbLine
 62
7
  6
CONTINUOUS
 10
40.6602593327
 20
63.8676293201
 11
40.8964798051
 21
63.9050429674
  0
SPLINE
  5
5A1
100
AcDbEntity
  8
0
100
AcDbSpline
 62
7
  6
CONTINUOUS
 70
0
 71
3
 72
9
 73
5
 74
0
 42
0.0000001
 43
0.0000001
 44
0.0000000001
 40
0.0
 40
0.0
 40
0.0
 40
0.0
 40
0.4911389202
 40
1.0
 40
1.0
 40
1.0
 40
1.0
 10
72.5508694566
 20
30.9376087743
 30
0.0
 10
72.4979266879
 20
30.9376088782
 30
0.0
 10
72.3863534251
 20
30.986468813
 30
0.0
 10
72.3449324085
 20
31.0992817778
 30
0.0
 10
72.3449324125
 20
31.1541349228
 30
0.0
  0
SPLINE
  5
5A2
100
AcDbEntity
  8
0
100
AcDbSpline
 62
7
  6
CONTINUOUS
 70
0
 71
3
 72
9
 73
5
 74
0
 42
0.0000001
 43
0.0000001
 44
0.0000000001
 40
0.0
 40
0.0
 40
0.0
 40
0.0
 40
0.491139105
 40
1.0
 40
1.0
 40
1.0
 40
1.0
 10
72.5508702377
 20
49.7565064121
 30
0.0
 10
72.4979273312
 20
49.7565063082
 30
0.0
 10
72.3863535964
 20
49.805366066
 30
0.0
 10
72.3449324138
 20
49.9181793133
 30
0.0
 10
72.3449324125
 20
49.9730325606
 30
0.0
  0
SPLINE
  5
5A3
100
AcDbEntity
  8
7_ALL_ROUNDS
100
AcDbSpline
 62
7
  6
CONTINUOUS
 70
0
 71
3
 72
9
 73
5
 74
0
 42
0.0000001
 43
0.0000001
 44
0.0000000001
 40
0.0
 40
0.0
 40
0.0
 40
0.0
 40
0.5003214874
 40
1.0
 40
1.0
 40
1.0
 40
1.0
 10
68.5252260278
 20
29.7998042141
 30
0.0
 10
68.5252260278
 20
29.7391623084
 30
0.0
 10
68.5771626661
 20
29.6130124966
 30
0.0
 10
68.7035258329
 20
29.5635837417
 30
0.0
 10
68.7640898063
 20
29.5635837417
 30
0.0
  0
SPLINE
  5
5A4
100
AcDbEntity
  8
7_ALL_ROUNDS
100
AcDbSpline
 62
7
  6
CONTINUOUS
 70
0
 71
3
 72
9
 73
5
 74
0
 42
0.0000001
 43
0.0000001
 44
0.0000000001
 40
0.0
 40
0.0
 40
0.0
 40
0.0
 40
0.5003214874
 40
1.0
 40
1.0
 40
1.0
 40
1.0
 10
68.5252260278
 20
51.3273632692
 30
0.0
 10
68.5252260278
 20
51.3880051749
 30
0.0
 10
68.5771626661
 20
51.5141549867
 30
0.0
 10
68.7035258329
 20
51.5635837417
 30
0.0
 10
68.7640898063
 20
51.5635837417
 30
0.0
  0
SPLINE
  5
5A5
100
AcDbEntity
  8
0
100
AcDbSpline
 62
7
  6
CONTINUOUS
 70
0
 71
3
 72
9
 73
5
 74
0
 42
0.0000001
 43
0.0000001
 44
0.0000000001
 40
0.0
 40
0.0
 40
0.0
 40
0.0
 40
0.508860895
 40
1.0
 40
1.0
 40
1.0
 40
1.0
 10
72.3449324125
 20
31.1541349228
 30
0.0
 10
72.3449324138
 20
31.2089881701
 30
0.0
 10
72.3863535964
 20
31.3218014174
 30
0.0
 10
72.4979273312
 20
31.3706611752
 30
0.0
 10
72.5508702377
 20
31.3706610713
 30
0.0
  0
SPLINE
  5
5A6
100
AcDbEntity
  8
0
100
AcDbSpline
 62
7
  6
CONTINUOUS
 70
0
 71
3
 72
9
 73
5
 74
0
 42
0.0000001
 43
0.0000001
 44
0.0000000001
 40
0.0
 40
0.0
 40
0.0
 40
0.0
 40
0.5088610798
 40
1.0
 40
1.0
 40
1.0
 40
1.0
 10
72.3449324125
 20
49.9730325606
 30
0.0
 10
72.3449324085
 20
50.0278857056
 30
0.0
 10
72.3863534251
 20
50.1406986703
 30
0.0
 10
72.4979266879
 20
50.1895586051
 30
0.0
 10
72.5508694566
 20
50.189558709
 30
0.0
  0
SPLINE
  5
5A7
100
AcDbEntity
  8
0
100
AcDbSpline
 62
7
  6
CONTINUOUS
 70
0
 71
3
 72
9
 73
5
 74
0
 42
0.0000001
 43
0.0000001
 44
0.0000000001
 40
0.0
 40
0.0
 40
0.0
 40
0.0
 40
0.4935943955
 40
1.0
 40
1.0
 40
1.0
 40
1.0
 10
72.5141014692
 20
30.9540822681
 30
0.0
 10
72.5514009601
 20
30.9703320722
 30
0.0
 10
72.6178634966
 20
31.0280937973
 30
0.0
 10
72.6412300595
 20
31.1123934555
 30
0.0
 10
72.6412300595
 20
31.1541349228
 30
0.0
  0
SPLINE
  5
5A8
100
AcDbEntity
  8
0
100
AcDbSpline
 62
7
  6
CONTINUOUS
 70
0
 71
3
 72
9
 73
5
 74
0
 42
0.0000001
 43
0.0000001
 44
0.0000000001
 40
0.0
 40
0.0
 40
0.0
 40
0.0
 40
0.5088608949
 40
1.0
 40
1.0
 40
1.0
 40
1.0
 10
72.7568072818
 20
31.1541349228
 30
0.0
 10
72.7568072831
 20
31.0992816755
 30
0.0
 10
72.7153860967
 20
30.9864684281
 30
0.0
 10
72.6038123631
 20
30.9376086704
 30
0.0
 10
72.5508694566
 20
30.9376087743
 30
0.0
  0
SPLINE
  5
5A9
100
AcDbEntity
  8
0
100
AcDbSpline
 62
7
  6
CONTINUOUS
 70
0
 71
3
 72
9
 73
5
 74
0
 42
0.0000001
 43
0.0000001
 44
0.0000000001
 40
0.0
 40
0.0
 40
0.0
 40
0.0
 40
0.5064056045
 40
1.0
 40
1.0
 40
1.0
 40
1.0
 10
72.6412300595
 20
31.1541349228
 30
0.0
 10
72.6412300595
 20
31.19587639
 30
0.0
 10
72.6178634966
 20
31.2801760482
 30
0.0
 10
72.5514009601
 20
31.3379377733
 30
0.0
 10
72.5141014692
 20
31.3541875774
 30
0.0
  0
SPLINE
  5
5AA
100
AcDbEntity
  8
0
100
AcDbSpline
 62
7
  6
CONTINUOUS
 70
0
 71
3
 72
9
 73
5
 74
0
 42
0.0000001
 43
0.0000001
 44
0.0000000001
 40
0.0
 40
0.0
 40
0.0
 40
0.0
 40
0.4911391051
 40
1.0
 40
1.0
 40
1.0
 40
1.0
 10
72.5508694566
 20
50.189558709
 30
0.0
 10
72.6038123631
 20
50.189558813
 30
0.0
 10
72.7153860967
 20
50.1406990552
 30
0.0
 10
72.7568072831
 20
50.0278858078
 30
0.0
 10
72.7568072818
 20
49.9730325606
 30
0.0
  0
SPLINE
  5
5AB
100
AcDbEntity
  8
3_ALL_AXES
100
AcDbSpline
 62
7
  6
CONTINUOUS
 70
0
 71
3
 72
9
 73
5
 74
0
 42
0.0000001
 43
0.0000001
 44
0.0000000001
 40
0.0
 40
0.0
 40
0.0
 40
0.0
 40
0.4935943955
 40
1.0
 40
1.0
 40
1.0
 40
1.0
 10
72.5141014692
 20
50.1730852152
 30
0.0
 10
72.5514009601
 20
50.1568354111
 30
0.0
 10
72.6178634966
 20
50.099073686
 30
0.0
 10
72.6412300595
 20
50.0147740278
 30
0.0
 10
72.6412300595
 20
49.9730325606
 30
0.0
  0
SPLINE
  5
5AC
100
AcDbEntity
  8
7_ALL_ROUNDS
100
AcDbSpline
 62
7
  6
CONTINUOUS
 70
0
 71
3
 72
11
 73
7
 74
0
 42
0.0000001
 43
0.0000001
 44
0.0000000001
 40
0.0
 40
0.0
 40
0.0
 40
0.0
 40
0.0937069533
 40
0.3088608375
 40
0.6259263903
 40
1.0
 40
1.0
 40
1.0
 40
1.0
 10
70.7067100183
 20
51.5635837417
 30
0.0
 10
70.7143041911
 20
51.5635837417
 30
0.0
 10
70.7264799505
 20
51.532917762
 30
0.0
 10
70.734855705
 20
51.4889470007
 30
0.0
 10
70.7426923536
 20
51.4128953114
 30
0.0
 10
70.7441236656
 20
51.3576788386
 30
0.0
 10
70.7441236656
 20
51.3273632692
 30
0.0
  0
SPLINE
  5
5AD
100
AcDbEntity
  8
0
100
AcDbSpline
 62
7
  6
CONTINUOUS
 70
0
 71
3
 72
9
 73
5
 74
0
 42
0.0000001
 43
0.0000001
 44
0.0000000001
 40
0.0
 40
0.0
 40
0.0
 40
0.0
 40
0.50886108
 40
1.0
 40
1.0
 40
1.0
 40
1.0
 10
72.7568072818
 20
49.9730325606
 30
0.0
 10
72.7568072777
 20
49.9181794155
 30
0.0
 10
72.7153862729
 20
49.8053664509
 30
0.0
 10
72.6038130063
 20
49.756506516
 30
0.0
 10
72.5508702377
 20
49.7565064121
 30
0.0
  0
SPLINE
  5
5AE
100
AcDbEntity
  8
3_ALL_AXES
100
AcDbSpline
 62
7
  6
CONTINUOUS
 70
0
 71
3
 72
9
 73
5
 74
0
 42
0.0000001
 43
0.0000001
 44
0.0000000001
 40
0.0
 40
0.0
 40
0.0
 40
0.0
 40
0.5064056045
 40
1.0
 40
1.0
 40
1.0
 40
1.0
 10
72.6412300595
 20
49.9730325606
 30
0.0
 10
72.6412300595
 20
49.9312910933
 30
0.0
 10
72.6178634966
 20
49.8469914351
 30
0.0
 10
72.5514009601
 20
49.78922971
 30
0.0
 10
72.5141014692
 20
49.7729799059
 30
0.0
  0
SPLINE
  5
5AF
100
AcDbEntity
  8
7_ALL_ROUNDS
100
AcDbSpline
 62
9
  6
CONTINUOUS
 70
0
 71
3
 72
10
 73
6
 74
0
 42
0.0000001
 43
0.0000001
 44
0.0000000001
 40
0.0
 40
0.0
 40
0.0
 40
0.0
 40
0.1287638703
 40
0.3474159866
 40
1.0
 40
1.0
 40
1.0
 40
1.0
 10
78.6067383846
 20
29.5635837417
 30
0.0
 10
78.6178135102
 20
29.5635837417
 30
0.0
 10
78.6435240369
 20
29.5870376765
 30
0.0
 10
78.6715183746
 20
29.6670795164
 30
0.0
 10
78.679734525
 20
29.7436747273
 30
0.0
 10
78.679734525
 20
29.7998042141
 30
0.0
  0
SPLINE
  5
5B0
100
AcDbEntity
  8
7_ALL_ROUNDS
100
AcDbSpline
 62
7
  6
CONTINUOUS
 70
0
 71
3
 72
11
 73
7
 74
0
 42
0.0000001
 43
0.0000001
 44
0.0000000001
 40
0.0
 40
0.0
 40
0.0
 40
0.0
 40
0.0937069533
 40
0.3088608375
 40
0.6259263903
 40
1.0
 40
1.0
 40
1.0
 40
1.0
 10
70.7067100183
 20
29.5635837417
 30
0.0
 10
70.7143041911
 20
29.5635837417
 30
0.0
 10
70.7264799505
 20
29.5942497213
 30
0.0
 10
70.734855705
 20
29.6382204826
 30
0.0
 10
70.7426923536
 20
29.7142721719
 30
0.0
 10
70.7441236656
 20
29.7694886447
 30
0.0
 10
70.7441236656
 20
29.7998042141
 30
0.0
  0
SPLINE
  5
5B1
100
AcDbEntity
  8
7_ALL_ROUNDS
100
AcDbSpline
 62
7
  6
CONTINUOUS
 70
0
 71
3
 72
11
 73
7
 74
0
 42
0.0000001
 43
0.0000001
 44
0.0000000001
 40
0.0
 40
0.0
 40
0.0
 40
0.0
 40
0.0882101403
 40
0.3037189318
 40
0.6231179749
 40
1.0
 40
1.0
 40
1.0
 40
1.0
 10
70.0178289388
 20
29.5635837417
 30
0.0
 10
70.0107488869
 20
29.5635837417
 30
0.0
 10
70.0024303607
 20
29.5960611175
 30
0.0
 10
69.9949955708
 20
29.6379387458
 30
0.0
 10
69.9894361017
 20
29.7147225838
 30
0.0
 10
69.9882181538
 20
29.7695543553
 30
0.0
 10
69.9882181538
 20
29.7998042141
 30
0.0
  0
SPLINE
  5
5B2
100
AcDbEntity
  8
0
100
AcDbSpline
 62
7
  6
CONTINUOUS
 70
0
 71
3
 72
11
 73
7
 74
0
 42
0.0000001
 43
0.0000001
 44
0.0000000001
 40
0.0
 40
0.0
 40
0.0
 40
0.0
 40
0.2544332148
 40
0.4999999787
 40
0.7455666972
 40
1.0
 40
1.0
 40
1.0
 40
1.0
 10
73.0296578451
 20
31.1541349228
 30
0.0
 10
73.0296578371
 20
31.044425406
 30
0.0
 10
72.9457215547
 20
30.8187911316
 30
0.0
 10
72.6177830274
 20
30.6730781797
 30
0.0
 10
72.2898444765
 20
30.8187910736
 30
0.0
 10
72.2059080818
 20
31.0444253681
 30
0.0
 10
72.2059081066
 20
31.1541349228
 30
0.0
  0
SPLINE
  5
5B3
100
AcDbEntity
  8
0
100
AcDbSpline
 62
7
  6
CONTINUOUS
 70
0
 71
3
 72
11
 73
7
 74
0
 42
0.0000001
 43
0.0000001
 44
0.0000000001
 40
0.0
 40
0.0
 40
0.0
 40
0.0
 40
0.2544332148
 40
0.4999999787
 40
0.7455666972
 40
1.0
 40
1.0
 40
1.0
 40
1.0
 10
72.2059081066
 20
31.1541349228
 30
0.0
 10
72.2059081146
 20
31.2638444395
 30
0.0
 10
72.289844397
 20
31.4894787139
 30
0.0
 10
72.6177829243
 20
31.6351916658
 30
0.0
 10
72.9457214752
 20
31.489478772
 30
0.0
 10
73.0296578699
 20
31.2638444775
 30
0.0
 10
73.0296578451
 20
31.1541349228
 30
0.0
  0
SPLINE
  5
5B4
100
AcDbEntity
  8
0
100
AcDbSpline
 62
7
  6
CONTINUOUS
 70
0
 71
3
 72
11
 73
7
 74
0
 42
0.0000001
 43
0.0000001
 44
0.0000000001
 40
0.0
 40
0.0
 40
0.0
 40
0.0
 40
0.2544333028
 40
0.5000000213
 40
0.7455667852
 40
1.0
 40
1.0
 40
1.0
 40
1.0
 10
72.2059081066
 20
49.9730325606
 30
0.0
 10
72.2059080818
 20
50.0827421153
 30
0.0
 10
72.2898444765
 20
50.3083764098
 30
0.0
 10
72.6177830274
 20
50.4540893036
 30
0.0
 10
72.9457215547
 20
50.3083763517
 30
0.0
 10
73.0296578371
 20
50.0827420773
 30
0.0
 10
73.0296578451
 20
49.9730325606
 30
0.0
  0
SPLINE
  5
5B5
100
AcDbEntity
  8
0
100
AcDbSpline
 62
7
  6
CONTINUOUS
 70
0
 71
3
 72
11
 73
7
 74
0
 42
0.0000001
 43
0.0000001
 44
0.0000000001
 40
0.0
 40
0.0
 40
0.0
 40
0.0
 40
0.2544333028
 40
0.5000000213
 40
0.7455667852
 40
1.0
 40
1.0
 40
1.0
 40
1.0
 10
73.0296578451
 20
49.9730325606
 30
0.0
 10
73.0296578699
 20
49.8633230059
 30
0.0
 10
72.9457214752
 20
49.6376887114
 30
0.0
 10
72.6177829243
 20
49.4919758175
 30
0.0
 10
72.289844397
 20
49.6376887694
 30
0.0
 10
72.2059081146
 20
49.8633230438
 30
0.0
 10
72.2059081066
 20
49.9730325606
 30
0.0
  0
SPLINE
  5
5B6
100
AcDbEntity
  8
7_ALL_ROUNDS
100
AcDbSpline
 62
7
  6
CONTINUOUS
 70
0
 71
3
 72
11
 73
7
 74
0
 42
0.0000001
 43
0.0000001
 44
0.0000000001
 40
0.0
 40
0.0
 40
0.0
 40
0.0
 40
0.3768820251
 40
0.6962810682
 40
0.9117898597
 40
1.0
 40
1.0
 40
1.0
 40
1.0
 10
69.9882181538
 20
51.3273632692
 30
0.0
 10
69.9882181538
 20
51.357613128
 30
0.0
 10
69.9894361017
 20
51.4124448995
 30
0.0
 10
69.9949955708
 20
51.4892287376
 30
0.0
 10
70.0024303607
 20
51.5311063658
 30
0.0
 10
70.0107488869
 20
51.5635837417
 30
0.0
 10
70.0178289388
 20
51.5635837417
 30
0.0
  0
SPLINE
  5
5B7
100
AcDbEntity
  8
7_ALL_ROUNDS
100
AcDbSpline
 62
9
  6
CONTINUOUS
 70
0
 71
3
 72
10
 73
6
 74
0
 42
0.0000001
 43
0.0000001
 44
0.0000000001
 40
0.0
 40
0.0
 40
0.0
 40
0.0
 40
0.1287638703
 40
0.3474159866
 40
1.0
 40
1.0
 40
1.0
 40
1.0
 10
78.6067383846
 20
51.5635837417
 30
0.0
 10
78.6178135102
 20
51.5635837417
 30
0.0
 10
78.6435240369
 20
51.5401298069
 30
0.0
 10
78.6715183747
 20
51.4600879669
 30
0.0
 10
78.6797345247
 20
51.383492756
 30
0.0
 10
78.6797345247
 20
51.3273632692
 30
0.0
  0
SPLINE
  5
5B8
100
AcDbEntity
  8
0
100
AcDbSpline
 62
7
  6
CONTINUOUS
 70
0
 71
3
 72
9
 73
5
 74
0
 42
0.0000001
 43
0.0000001
 44
0.0000000001
 40
0.0
 40
0.0
 40
0.0
 40
0.0
 40
0.49113892
 40
1.0
 40
1.0
 40
1.0
 40
1.0
 10
72.5508702377
 20
31.3706610713
 30
0.0
 10
72.6038130063
 20
31.3706609673
 30
0.0
 10
72.7153862729
 20
31.3218010325
 30
0.0
 10
72.7568072777
 20
31.2089880678
 30
0.0
 10
72.7568072818
 20
31.1541349228
 30
0.0
  0
SPLINE
  5
5B9
100
AcDbEntity
  8
7_ALL_ROUNDS
100
AcDbSpline
 62
7
  6
CONTINUOUS
 70
0
 71
3
 72
8
 73
4
 74
0
 42
0.0000001
 43
0.0000001
 44
0.0000000001
 40
0.0
 40
0.0
 40
0.0
 40
0.0
 40
1.0
 40
1.0
 40
1.0
 40
1.0
 10
105.4988219481
 20
45.4834557605
 30
0.0
 10
105.4871409955
 20
45.4941339125
 30
0.0
 10
105.4776607299
 20
45.5077507255
 30
0.0
 10
105.4716527813
 20
45.5223921782
 30
0.0
  0
SPLINE
  5
5BA
100
AcDbEntity
  8
7_ALL_ROUNDS
100
AcDbSpline
 62
7
  6
CONTINUOUS
 70
0
 71
3
 72
8
 73
4
 74
0
 42
0.0000001
 43
0.0000001
 44
0.0000000001
 40
0.0
 40
0.0
 40
0.0
 40
0.0
 40
1.0
 40
1.0
 40
1.0
 40
1.0
 10
105.4716527813
 20
45.5223921782
 30
0.0
 10
105.4654832136
 20
45.5374274986
 30
0.0
 10
105.4626014837
 20
45.5540484542
 30
0.0
 10
105.4626014837
 20
45.5703003595
 30
0.0
  0
SPLINE
  5
5BB
100
AcDbEntity
  8
7_ALL_ROUNDS
100
AcDbSpline
 62
7
  6
CONTINUOUS
 70
0
 71
3
 72
8
 73
4
 74
0
 42
0.0000001
 43
0.0000001
 44
0.0000000001
 40
0.0
 40
0.0
 40
0.0
 40
0.0
 40
1.0
 40
1.0
 40
1.0
 40
1.0
 10
107.9090033949
 20
44.0885364422
 30
0.0
 10
107.9131668853
 20
44.0859457411
 30
0.0
 10
107.9181036794
 20
44.0843371452
 30
0.0
 10
107.9229952878
 20
44.0839928322
 30
0.0
  0
LINE
  5
5BC
100
AcDbEntity
  8
7_ALL_ROUNDS
100
AcDbLine
 62
7
  6
CONTINUOUS
 10
107.9090007391
 20
44.088528552
 11
107.8764180962
 21
44.1087934619
  0
LINE
  5
5BD
100
AcDbEntity
  8
7_ALL_ROUNDS
100
AcDbLine
 62
7
  6
CONTINUOUS
 10
107.8764180962
 20
44.1087934619
 11
107.8516766699
 21
44.1241526056
  0
LINE
  5
5BE
100
AcDbEntity
  8
7_ALL_ROUNDS
100
AcDbLine
 62
7
  6
CONTINUOUS
 10
105.6038844462
 20
45.4230877013
 11
105.5223611038
 21
45.4668684166
  0
LINE
  5
5BF
100
AcDbEntity
  8
7_ALL_ROUNDS
100
AcDbLine
 62
7
  6
CONTINUOUS
 10
105.4955895895
 20
45.4811982712
 11
105.4334342532
 21
45.5143780555
  0
LINE
  5
5C0
100
AcDbEntity
  8
7_ALL_ROUNDS
100
AcDbLine
 62
7
  6
CONTINUOUS
 10
105.4334342532
 20
45.5143780555
 11
105.4066392327
 21
45.5286431903
  0
SPLINE
  5
5C1
100
AcDbEntity
  8
7_ALL_ROUNDS
100
AcDbSpline
 62
7
  6
CONTINUOUS
 70
0
 71
3
 72
9
 73
5
 74
0
 42
0.0000001
 43
0.0000001
 44
0.0000000001
 40
0.0
 40
0.0
 40
0.0
 40
0.0
 40
0.4897201364
 40
1.0
 40
1.0
 40
1.0
 40
1.0
 10
103.5226618405
 20
46.9505142045
 30
0.0
 10
103.5226618405
 20
46.8530949003
 30
0.0
 10
103.5650453011
 20
46.6524428785
 30
0.0
 10
103.6774079365
 20
46.4833176118
 30
0.0
 10
103.7449075167
 20
46.4075025178
 30
0.0
  0
SPLINE
  5
5C2
100
AcDbEntity
  8
7_ALL_ROUNDS
100
AcDbSpline
 62
7
  6
CONTINUOUS
 70
0
 71
3
 72
8
 73
4
 74
0
 42
0.0000001
 43
0.0000001
 44
0.0000000001
 40
0.0
 40
0.0
 40
0.0
 40
0.0
 40
1.0
 40
1.0
 40
1.0
 40
1.0
 10
114.9817334398
 20
47.2575502251
 30
0.0
 10
114.9760432995
 20
47.2345914612
 30
0.0
 10
114.9674380026
 20
47.2121909453
 30
0.0
 10
114.9564323713
 20
47.1912539299
 30
0.0
  0
SPLINE
  5
5C3
100
AcDbEntity
  8
7_ALL_ROUNDS
100
AcDbSpline
 62
7
  6
CONTINUOUS
 70
0
 71
3
 72
8
 73
4
 74
0
 42
0.0000001
 43
0.0000001
 44
0.0000000001
 40
0.0
 40
0.0
 40
0.0
 40
0.0
 40
1.0
 40
1.0
 40
1.0
 40
1.0
 10
114.9564323713
 20
47.1912539299
 30
0.0
 10
114.9447315973
 20
47.1689944813
 30
0.0
 10
114.9301187308
 20
47.1480889685
 30
0.0
 10
114.9134813106
 20
47.1292319429
 30
0.0
  0
SPLINE
  5
5C4
100
AcDbEntity
  8
7_ALL_ROUNDS
100
AcDbSpline
 62
7
  6
CONTINUOUS
 70
0
 71
3
 72
8
 73
4
 74
0
 42
0.0000001
 43
0.0000001
 44
0.0000000001
 40
0.0
 40
0.0
 40
0.0
 40
0.0
 40
1.0
 40
1.0
 40
1.0
 40
1.0
 10
111.5899201799
 20
43.3694397724
 30
0.0
 10
111.598377383
 20
43.3743208953
 30
0.0
 10
111.6061405846
 20
43.3806574527
 30
0.0
 10
111.6126013913
 20
43.3879791754
 30
0.0
  0
SPLINE
  5
5C5
100
AcDbEntity
  8
7_ALL_ROUNDS
100
AcDbSpline
 62
7
  6
CONTINUOUS
 70
0
 71
3
 72
9
 73
5
 74
0
 42
0.0000001
 43
0.0000001
 44
0.0000000001
 40
0.0
 40
0.0
 40
0.0
 40
0.0
 40
0.5000779191
 40
1.0
 40
1.0
 40
1.0
 40
1.0
 10
109.4185369703
 20
43.1020344225
 30
0.0
 10
109.6912698479
 20
43.0084346859
 30
0.0
 10
110.2727763554
 20
42.9236653262
 30
0.0
 10
110.854212457
 20
43.0090855002
 30
0.0
 10
111.1267282851
 20
43.103039982
 30
0.0
  0
SPLINE
  5
5C6
100
AcDbEntity
  8
7_ALL_ROUNDS
100
AcDbSpline
 62
7
  6
CONTINUOUS
 70
0
 71
3
 72
9
 73
5
 74
0
 42
0.0000001
 43
0.0000001
 44
0.0000000001
 40
0.0
 40
0.0
 40
0.0
 40
0.0
 40
0.206019709
 40
1.0
 40
1.0
 40
1.0
 40
1.0
 10
107.9338349096
 20
44.073063237
 30
0.0
 10
107.9311165574
 20
44.0747574488
 30
0.0
 10
107.9191687527
 20
44.085043389
 30
0.0
 10
107.9135045639
 20
44.1007055659
 30
0.0
 10
107.91066202
 20
44.1127182397
 30
0.0
  0
SPLINE
  5
5C7
100
AcDbEntity
  8
7_ALL_ROUNDS
100
AcDbSpline
 62
7
  6
CONTINUOUS
 70
0
 71
3
 72
9
 73
5
 74
0
 42
0.0000001
 43
0.0000001
 44
0.0000000001
 40
0.0
 40
0.0
 40
0.0
 40
0.0
 40
0.2256017081
 40
1.0
 40
1.0
 40
1.0
 40
1.0
 10
107.91066202
 20
44.1127182397
 30
0.0
 10
107.9098718421
 20
44.1160575545
 30
0.0
 10
107.9069598155
 20
44.1309986983
 30
0.0
 10
107.9060497753
 20
44.1462778093
 30
0.0
 10
107.9060497753
 20
44.1580568497
 30
0.0
  0
LINE
  5
5C8
100
AcDbEntity
  8
7_ALL_ROUNDS
100
AcDbLine
 62
7
  6
CONTINUOUS
 10
109.4043299066
 20
43.1091999247
 11
109.3393071302
 21
43.153907053
  0
SPLINE
  5
5C9
100
AcDbEntity
  8
7_ALL_ROUNDS
100
AcDbSpline
 62
7
  6
CONTINUOUS
 70
0
 71
3
 72
9
 73
5
 74
0
 42
0.0000001
 43
0.0000001
 44
0.0000000001
 40
0.0
 40
0.0
 40
0.0
 40
0.0
 40
0.5133730462
 40
1.0
 40
1.0
 40
1.0
 40
1.0
 10
103.8053739939
 20
62.8815722609
 30
0.0
 10
103.7211762086
 20
62.8006087203
 30
0.0
 10
103.5784498775
 20
62.6163741257
 30
0.0
 10
103.5226618405
 20
62.3865299102
 30
0.0
 10
103.5226618405
 20
62.2758064337
 30
0.0
  0
SPLINE
  5
5CA
100
AcDbEntity
  8
7_ALL_ROUNDS
100
AcDbSpline
 62
7
  6
CONTINUOUS
 70
0
 71
3
 72
8
 73
4
 74
0
 42
0.0000001
 43
0.0000001
 44
0.0000000001
 40
0.0
 40
0.0
 40
0.0
 40
0.0
 40
1.0
 40
1.0
 40
1.0
 40
1.0
 10
110.808415066
 20
65.0772890156
 30
0.0
 10
110.90535947
 20
65.0961192739
 30
0.0
 10
111.0106091358
 20
65.0904812922
 30
0.0
 10
111.1040973928
 20
65.0586576862
 30
0.0
  0
SPLINE
  5
5CB
100
AcDbEntity
  8
7_ALL_ROUNDS
100
AcDbSpline
 62
7
  6
CONTINUOUS
 70
0
 71
3
 72
8
 73
4
 74
0
 42
0.0000001
 43
0.0000001
 44
0.0000000001
 40
0.0
 40
0.0
 40
0.0
 40
0.0
 40
1.0
 40
1.0
 40
1.0
 40
1.0
 10
111.1040973928
 20
65.0586576862
 30
0.0
 10
111.1326794695
 20
65.0489282851
 30
0.0
 10
111.1605546084
 20
65.0365939106
 30
0.0
 10
111.1867005019
 20
65.0214946189
 30
0.0
  0
SPLINE
  5
5CC
100
AcDbEntity
  8
7_ALL_ROUNDS
100
AcDbSpline
 62
7
  6
CONTINUOUS
 70
0
 71
3
 72
9
 73
5
 74
0
 42
0.0000001
 43
0.0000001
 44
0.0000000001
 40
0.0
 40
0.0
 40
0.0
 40
0.0
 40
0.5007043204
 40
1.0
 40
1.0
 40
1.0
 40
1.0
 10
114.8197344367
 20
62.9234122093
 30
0.0
 10
114.8678404702
 20
62.8956309046
 30
0.0
 10
114.9549310777
 20
62.8195946817
 30
0.0
 10
114.9900763892
 20
62.7065035819
 30
0.0
 10
114.9900763892
 20
62.6511081667
 30
0.0
  0
SPLINE
  5
5CD
100
AcDbEntity
  8
0
100
AcDbSpline
 62
7
  6
CONTINUOUS
 70
0
 71
3
 72
9
 73
5
 74
0
 42
0.0000001
 43
0.0000001
 44
0.0000000001
 40
0.0
 40
0.0
 40
0.0
 40
0.0
 40
0.208571011
 40
1.0
 40
1.0
 40
1.0
 40
1.0
 10
112.2679515104
 20
58.3962449941
 30
0.0
 10
112.2644295004
 20
58.40413917
 30
0.0
 10
112.2508985337
 20
58.4434781527
 30
0.0
 10
112.2478083736
 20
58.4856057407
 30
0.0
 10
112.2478083722
 20
58.5184065001
 30
0.0
  0
SPLINE
  5
5CE
100
AcDbEntity
  8
0
100
AcDbSpline
 62
7
  6
CONTINUOUS
 70
0
 71
3
 72
9
 73
5
 74
0
 42
0.0000001
 43
0.0000001
 44
0.0000000001
 40
0.0
 40
0.0
 40
0.0
 40
0.0
 40
0.2085705355
 40
1.0
 40
1.0
 40
1.0
 40
1.0
 10
112.2679515732
 20
44.9992263898
 30
0.0
 10
112.2644295538
 20
45.0071205529
 30
0.0
 10
112.2508985346
 20
45.0464595799
 30
0.0
 10
112.2478083679
 20
45.088587231
 30
0.0
 10
112.2478083722
 20
45.1213880555
 30
0.0
  0
SPLINE
  5
5CF
100
AcDbEntity
  8
3_AXES_OTHER
100
AcDbSpline
 62
7
  6
CONTINUOUS
 70
0
 71
3
 72
8
 73
4
 74
0
 42
0.0000001
 43
0.0000001
 44
0.0000000001
 40
0.0
 40
0.0
 40
0.0
 40
0.0
 40
1.0
 40
1.0
 40
1.0
 40
1.0
 10
107.7454476238
 20
60.2732174895
 30
0.0
 10
107.7549116396
 20
60.2677520065
 30
0.0
 10
107.7687700671
 20
60.2677520065
 30
0.0
 10
107.7782340829
 20
60.2732174895
 30
0.0
  0
SPLINE
  5
5D0
100
AcDbEntity
  8
3_AXES_OTHER
100
AcDbSpline
 62
7
  6
CONTINUOUS
 70
0
 71
3
 72
9
 73
5
 74
0
 42
0.0000001
 43
0.0000001
 44
0.0000000001
 40
0.0
 40
0.0
 40
0.0
 40
0.0
 40
0.5349783062
 40
1.0
 40
1.0
 40
1.0
 40
1.0
 10
107.7946200298
 20
60.2826803978
 30
0.0
 10
107.7959453156
 20
60.2834457523
 30
0.0
 10
107.7982816872
 20
60.2851478802
 30
0.0
 10
107.8000566305
 20
60.2874773779
 30
0.0
 10
107.8006203683
 20
60.2886823076
 30
0.0
  0
SPLINE
  5
5D1
100
AcDbEntity
  8
3_AXES_OTHER
100
AcDbSpline
 62
7
  6
CONTINUOUS
 70
0
 71
3
 72
9
 73
5
 74
0
 42
0.0000001
 43
0.0000001
 44
0.0000000001
 40
0.0
 40
0.0
 40
0.0
 40
0.0
 40
0.5084508602
 40
1.0
 40
1.0
 40
1.0
 40
1.0
 10
107.8006203683
 20
60.2886823076
 30
0.0
 10
107.8008772351
 20
60.2892313333
 30
0.0
 10
107.8012758496
 20
60.2903656651
 30
0.0
 10
107.8014133062
 20
60.2915615176
 30
0.0
 10
107.8014133062
 20
60.2921475118
 30
0.0
  0
SPLINE
  5
5D2
100
AcDbEntity
  8
3_AXES_OTHER
100
AcDbSpline
 62
7
  6
CONTINUOUS
 70
0
 71
3
 72
8
 73
4
 74
0
 42
0.0000001
 43
0.0000001
 44
0.0000000001
 40
0.0
 40
0.0
 40
0.0
 40
0.0
 40
1.0
 40
1.0
 40
1.0
 40
1.0
 10
107.5507995674
 20
60.1608079523
 30
0.0
 10
107.5602635832
 20
60.1553424693
 30
0.0
 10
107.5741220107
 20
60.1553424693
 30
0.0
 10
107.5835860265
 20
60.1608079523
 30
0.0
  0
SPLINE
  5
5D3
100
AcDbEntity
  8
3_AXES_OTHER
100
AcDbSpline
 62
7
  6
CONTINUOUS
 70
0
 71
3
 72
9
 73
5
 74
0
 42
0.0000001
 43
0.0000001
 44
0.0000000001
 40
0.0
 40
0.0
 40
0.0
 40
0.0
 40
0.5349783062
 40
1.0
 40
1.0
 40
1.0
 40
1.0
 10
107.5999719734
 20
60.1702708606
 30
0.0
 10
107.6012972592
 20
60.1710362151
 30
0.0
 10
107.6036336308
 20
60.172738343
 30
0.0
 10
107.6054085741
 20
60.1750678407
 30
0.0
 10
107.6059723119
 20
60.1762727704
 30
0.0
  0
SPLINE
  5
5D4
100
AcDbEntity
  8
3_AXES_OTHER
100
AcDbSpline
 62
7
  6
CONTINUOUS
 70
0
 71
3
 72
9
 73
5
 74
0
 42
0.0000001
 43
0.0000001
 44
0.0000000001
 40
0.0
 40
0.0
 40
0.0
 40
0.0
 40
0.5084508602
 40
1.0
 40
1.0
 40
1.0
 40
1.0
 10
107.6059723119
 20
60.1762727704
 30
0.0
 10
107.6062291787
 20
60.1768217961
 30
0.0
 10
107.6066277932
 20
60.1779561279
 30
0.0
 10
107.6067652498
 20
60.1791519805
 30
0.0
 10
107.6067652498
 20
60.1797379747
 30
0.0
  0
SPLINE
  5
5D5
100
AcDbEntity
  8
3_AXES_OTHER
100
AcDbSpline
 62
7
  6
CONTINUOUS
 70
0
 71
3
 72
8
 73
4
 74
0
 42
0.0000001
 43
0.0000001
 44
0.0000000001
 40
0.0
 40
0.0
 40
0.0
 40
0.0
 40
1.0
 40
1.0
 40
1.0
 40
1.0
 10
107.3203233346
 20
60.3696368145
 30
0.0
 10
107.316959841
 20
60.367694392
 30
0.0
 10
107.3135300582
 20
60.3640537827
 30
0.0
 10
107.3135300582
 20
60.3601697005
 30
0.0
  0
SPLINE
  5
5D6
100
AcDbEntity
  8
3_AXES_OTHER
100
AcDbSpline
 62
7
  6
CONTINUOUS
 70
0
 71
3
 72
8
 73
4
 74
0
 42
0.0000001
 43
0.0000001
 44
0.0000000001
 40
0.0
 40
0.0
 40
0.0
 40
0.0
 40
1.0
 40
1.0
 40
1.0
 40
1.0
 10
107.465798985
 20
60.4347149873
 30
0.0
 10
107.4563349692
 20
60.4401804703
 30
0.0
 10
107.4424765418
 20
60.4401804703
 30
0.0
 10
107.4330125259
 20
60.4347149873
 30
0.0
  0
SPLINE
  5
5D7
100
AcDbEntity
  8
3_AXES_OTHER
100
AcDbSpline
 62
7
  6
CONTINUOUS
 70
0
 71
3
 72
9
 73
5
 74
0
 42
0.0000001
 43
0.0000001
 44
0.0000000001
 40
0.0
 40
0.0
 40
0.0
 40
0.0
 40
0.5119438409
 40
1.0
 40
1.0
 40
1.0
 40
1.0
 10
107.0702179513
 20
60.4383417345
 30
0.0
 10
107.090269133
 20
60.4267621478
 30
0.0
 10
107.138953795
 20
60.4174276605
 30
0.0
 10
107.1810058005
 20
60.4376398363
 30
0.0
 10
107.2003733482
 20
60.4482308242
 30
0.0
  0
SPLINE
  5
5D8
100
AcDbEntity
  8
3_AXES_OTHER
100
AcDbSpline
 62
7
  6
CONTINUOUS
 70
0
 71
3
 72
9
 73
5
 74
0
 42
0.0000001
 43
0.0000001
 44
0.0000000001
 40
0.0
 40
0.0
 40
0.0
 40
0.0
 40
0.2750971546
 40
1.0
 40
1.0
 40
1.0
 40
1.0
 10
107.2003733482
 20
60.4482308242
 30
0.0
 10
107.2041454192
 20
60.4502935509
 30
0.0
 10
107.217572815
 20
60.4580952312
 30
0.0
 10
107.2305269891
 20
60.4681741539
 30
0.0
 10
107.2364536286
 20
60.4778290394
 30
0.0
  0
SPLINE
  5
5D9
100
AcDbEntity
  8
3_AXES_OTHER
100
AcDbSpline
 62
7
  6
CONTINUOUS
 70
0
 71
3
 72
8
 73
4
 74
0
 42
0.0000001
 43
0.0000001
 44
0.0000000001
 40
0.0
 40
0.0
 40
0.0
 40
0.0
 40
1.0
 40
1.0
 40
1.0
 40
1.0
 10
107.2364536286
 20
60.4778290394
 30
0.0
 10
107.2381637675
 20
60.4806149681
 30
0.0
 10
107.2395553363
 20
60.4836829367
 30
0.0
 10
107.2402208707
 20
60.4868834113
 30
0.0
  0
SPLINE
  5
5DA
100
AcDbEntity
  8
3_AXES_OTHER
100
AcDbSpline
 62
7
  6
CONTINUOUS
 70
0
 71
3
 72
8
 73
4
 74
0
 42
0.0000001
 43
0.0000001
 44
0.0000000001
 40
0.0
 40
0.0
 40
0.0
 40
0.0
 40
1.0
 40
1.0
 40
1.0
 40
1.0
 10
106.9843944302
 20
60.6748667769
 30
0.0
 10
106.9810309366
 20
60.6729243544
 30
0.0
 10
106.9776011538
 20
60.6692837451
 30
0.0
 10
106.9776011538
 20
60.6653996629
 30
0.0
  0
SPLINE
  5
5DB
100
AcDbEntity
  8
3_AXES_OTHER
100
AcDbSpline
 62
7
  6
CONTINUOUS
 70
0
 71
3
 72
8
 73
4
 74
0
 42
0.0000001
 43
0.0000001
 44
0.0000000001
 40
0.0
 40
0.0
 40
0.0
 40
0.0
 40
1.0
 40
1.0
 40
1.0
 40
1.0
 10
107.0335668362
 20
60.6843296852
 30
0.0
 10
107.0241028204
 20
60.6897951682
 30
0.0
 10
107.010244393
 20
60.6897951682
 30
0.0
 10
107.0007803771
 20
60.6843296852
 30
0.0
  0
SPLINE
  5
5DC
100
AcDbEntity
  8
3_AXES_OTHER
100
AcDbSpline
 62
7
  6
CONTINUOUS
 70
0
 71
3
 72
8
 73
4
 74
0
 42
0.0000001
 43
0.0000001
 44
0.0000000001
 40
0.0
 40
0.0
 40
0.0
 40
0.0
 40
1.0
 40
1.0
 40
1.0
 40
1.0
 10
107.3040247795
 20
60.5281398276
 30
0.0
 10
107.3134887953
 20
60.5226743446
 30
0.0
 10
107.3273472227
 20
60.5226743446
 30
0.0
 10
107.3368112385
 20
60.5281398276
 30
0.0
  0
SPLINE
  5
5DD
100
AcDbEntity
  8
3_AXES_OTHER
100
AcDbSpline
 62
7
  6
CONTINUOUS
 70
0
 71
3
 72
9
 73
5
 74
0
 42
0.0000001
 43
0.0000001
 44
0.0000000001
 40
0.0
 40
0.0
 40
0.0
 40
0.0
 40
0.5349783062
 40
1.0
 40
1.0
 40
1.0
 40
1.0
 10
107.3531971855
 20
60.5376027359
 30
0.0
 10
107.3545224713
 20
60.5383680904
 30
0.0
 10
107.3568588428
 20
60.5400702182
 30
0.0
 10
107.3586337862
 20
60.542399716
 30
0.0
 10
107.3591975239
 20
60.5436046457
 30
0.0
  0
SPLINE
  5
5DE
100
AcDbEntity
  8
3_AXES_OTHER
100
AcDbSpline
 62
7
  6
CONTINUOUS
 70
0
 71
3
 72
9
 73
5
 74
0
 42
0.0000001
 43
0.0000001
 44
0.0000000001
 40
0.0
 40
0.0
 40
0.0
 40
0.0
 40
0.5084508602
 40
1.0
 40
1.0
 40
1.0
 40
1.0
 10
107.3591975239
 20
60.5436046457
 30
0.0
 10
107.3594543908
 20
60.5441536713
 30
0.0
 10
107.3598530052
 20
60.5452880031
 30
0.0
 10
107.3599904619
 20
60.5464838557
 30
0.0
 10
107.3599904619
 20
60.5470698499
 30
0.0
  0
SPLINE
  5
5DF
100
AcDbEntity
  8
3_AXES_OTHER
100
AcDbSpline
 62
7
  6
CONTINUOUS
 70
0
 71
3
 72
8
 73
4
 74
0
 42
0.0000001
 43
0.0000001
 44
0.0000000001
 40
0.0
 40
0.0
 40
0.0
 40
0.0
 40
1.0
 40
1.0
 40
1.0
 40
1.0
 10
106.5599110137
 20
60.7054747291
 30
0.0
 10
106.5632402421
 20
60.7035520948
 30
0.0
 10
106.5706595834
 20
60.7019496712
 30
0.0
 10
106.5714420783
 20
60.7057137098
 30
0.0
  0
SPLINE
  5
5E0
100
AcDbEntity
  8
3_AXES_OTHER
100
AcDbSpline
 62
7
  6
CONTINUOUS
 70
0
 71
3
 72
9
 73
5
 74
0
 42
0.0000001
 43
0.0000001
 44
0.0000000001
 40
0.0
 40
0.0
 40
0.0
 40
0.0
 40
0.4914217401
 40
1.0
 40
1.0
 40
1.0
 40
1.0
 10
106.6271589398
 20
60.6942117653
 30
0.0
 10
106.642399924
 20
60.6854100746
 30
0.0
 10
106.6766885773
 20
60.6717289576
 30
0.0
 10
106.7148552273
 20
60.6784507159
 30
0.0
 10
106.7306283049
 20
60.6875596913
 30
0.0
  0
SPLINE
  5
5E1
100
AcDbEntity
  8
3_AXES_OTHER
100
AcDbSpline
 62
7
  6
CONTINUOUS
 70
0
 71
3
 72
8
 73
4
 74
0
 42
0.0000001
 43
0.0000001
 44
0.0000000001
 40
0.0
 40
0.0
 40
0.0
 40
0.0
 40
1.0
 40
1.0
 40
1.0
 40
1.0
 10
106.8824277171
 20
60.7752240737
 30
0.0
 10
106.8879747944
 20
60.778427519
 30
0.0
 10
106.8937941984
 20
60.7819528135
 30
0.0
 10
106.8974418702
 20
60.7872184207
 30
0.0
  0
SPLINE
  5
5E2
100
AcDbEntity
  8
3_AXES_OTHER
100
AcDbSpline
 62
7
  6
CONTINUOUS
 70
0
 71
3
 72
8
 73
4
 74
0
 42
0.0000001
 43
0.0000001
 44
0.0000000001
 40
0.0
 40
0.0
 40
0.0
 40
0.0
 40
1.0
 40
1.0
 40
1.0
 40
1.0
 10
106.8974418702
 20
60.7872184207
 30
0.0
 10
106.8994446678
 20
60.7901095651
 30
0.0
 10
106.9009158584
 20
60.7934904438
 30
0.0
 10
106.9014975361
 20
60.7969590985
 30
0.0
  0
SPLINE
  5
5E3
100
AcDbEntity
  8
3_AXES_OTHER
100
AcDbSpline
 62
7
  6
CONTINUOUS
 70
0
 71
3
 72
9
 73
5
 74
0
 42
0.0000001
 43
0.0000001
 44
0.0000000001
 40
0.0
 40
0.0
 40
0.0
 40
0.0
 40
0.5476883972
 40
1.0
 40
1.0
 40
1.0
 40
1.0
 10
106.6568381378
 20
60.7528004858
 30
0.0
 10
106.6577588583
 20
60.7533322033
 30
0.0
 10
106.65927001
 20
60.7545031097
 30
0.0
 10
106.6605209295
 20
60.7562381372
 30
0.0
 10
106.6605626704
 20
60.7571152158
 30
0.0
  0
SPLINE
  5
5E4
100
AcDbEntity
  8
3_AXES_OTHER
100
AcDbSpline
 62
7
  6
CONTINUOUS
 70
0
 71
3
 72
8
 73
4
 74
0
 42
0.0000001
 43
0.0000001
 44
0.0000000001
 40
0.0
 40
0.0
 40
0.0
 40
0.0
 40
1.0
 40
1.0
 40
1.0
 40
1.0
 10
106.4168750487
 20
60.8913795207
 30
0.0
 10
106.413511555
 20
60.8894370982
 30
0.0
 10
106.4100817723
 20
60.8857964889
 30
0.0
 10
106.4100817723
 20
60.8819124067
 30
0.0
  0
SPLINE
  5
5E5
100
AcDbEntity
  8
3_AXES_OTHER
100
AcDbSpline
 62
7
  6
CONTINUOUS
 70
0
 71
3
 72
8
 73
4
 74
0
 42
0.0000001
 43
0.0000001
 44
0.0000000001
 40
0.0
 40
0.0
 40
0.0
 40
0.0
 40
1.0
 40
1.0
 40
1.0
 40
1.0
 10
106.5623506991
 20
60.9564576934
 30
0.0
 10
106.5528866833
 20
60.9619231764
 30
0.0
 10
106.5390282558
 20
60.9619231764
 30
0.0
 10
106.52956424
 20
60.9564576934
 30
0.0
  0
SPLINE
  5
5E6
100
AcDbEntity
  8
3_ALL_AXES
100
AcDbSpline
 62
7
  6
CONTINUOUS
 70
0
 71
3
 72
8
 73
4
 74
0
 42
0.0000001
 43
0.0000001
 44
0.0000000001
 40
0.0
 40
0.0
 40
0.0
 40
0.0
 40
1.0
 40
1.0
 40
1.0
 40
1.0
 10
108.3086144938
 20
60.1077835438
 30
0.0
 10
108.3188928082
 20
60.1194330925
 30
0.0
 10
108.3273743456
 20
60.1333776425
 30
0.0
 10
108.3316022601
 20
60.1483269058
 30
0.0
  0
SPLINE
  5
5E7
100
AcDbEntity
  8
3_ALL_AXES
100
AcDbSpline
 62
7
  6
CONTINUOUS
 70
0
 71
3
 72
8
 73
4
 74
0
 42
0.0000001
 43
0.0000001
 44
0.0000000001
 40
0.0
 40
0.0
 40
0.0
 40
0.0
 40
1.0
 40
1.0
 40
1.0
 40
1.0
 10
108.3316022601
 20
60.1483269058
 30
0.0
 10
108.3336423316
 20
60.1555402887
 30
0.0
 10
108.3347233649
 20
60.1631020983
 30
0.0
 10
108.3347220171
 20
60.1705984163
 30
0.0
  0
SPLINE
  5
5E8
100
AcDbEntity
  8
3_ALL_AXES
100
AcDbSpline
 62
7
  6
CONTINUOUS
 70
0
 71
3
 72
9
 73
5
 74
0
 42
0.0000001
 43
0.0000001
 44
0.0000000001
 40
0.0
 40
0.0
 40
0.0
 40
0.0
 40
0.2331235722
 40
1.0
 40
1.0
 40
1.0
 40
1.0
 10
106.4770440235
 20
61.2726424019
 30
0.0
 10
106.4607688588
 20
61.2817050249
 30
0.0
 10
106.3858578722
 20
61.3107796477
 30
0.0
 10
106.3002095873
 20
61.3102236019
 30
0.0
 10
106.2414227823
 20
61.292925485
 30
0.0
  0
LINE
  5
5E9
100
AcDbEntity
  8
3_ALL_AXES
100
AcDbLine
 62
7
  6
CONTINUOUS
 10
106.4890923518
 20
61.2659318009
 11
106.4770440235
 21
61.2726424019
  0
SPLINE
  5
5EA
100
AcDbEntity
  8
3_ALL_AXES
100
AcDbSpline
 62
7
  6
CONTINUOUS
 70
0
 71
3
 72
9
 73
5
 74
0
 42
0.0000001
 43
0.0000001
 44
0.0000000001
 40
0.0
 40
0.0
 40
0.0
 40
0.0
 40
0.2447097419
 40
1.0
 40
1.0
 40
1.0
 40
1.0
 10
107.5950423959
 20
53.4698829808
 30
0.0
 10
107.6260201807
 20
53.4519932647
 30
0.0
 10
107.7516710009
 20
53.3772681916
 30
0.0
 10
107.8735818159
 20
53.2962948464
 30
0.0
 10
107.9634748606
 20
53.2321875766
 30
0.0
  0
SPLINE
  5
5EB
100
AcDbEntity
  8
3_ALL_AXES
100
AcDbSpline
 62
7
  6
CONTINUOUS
 70
0
 71
3
 72
16
 73
12
 74
0
 42
0.0000001
 43
0.0000001
 44
0.0000000001
 40
0.0
 40
0.0
 40
0.0
 40
0.0
 40
0.1348858281
 40
0.2794771607
 40
0.4267140796
 40
0.5691117533
 40
0.6999708561
 40
0.8147333637
 40
0.9127535743
 40
0.95716951
 40
1.0
 40
1.0
 40
1.0
 40
1.0
 10
108.0078484803
 20
53.2001745335
 30
0.0
 10
108.3128513175
 20
52.9775977672
 30
0.0
 10
108.894702411
 20
52.4460955462
 30
0.0
 10
109.6286017898
 20
51.4975967398
 30
0.0
 10
110.2143760493
 20
50.4266282613
 30
0.0
 10
110.6089199401
 20
49.3118535782
 30
0.0
 10
110.7830683754
 20
48.2324128915
 30
0.0
 10
110.724140695
 20
47.262852181
 30
0.0
 10
110.4606064927
 20
46.5734312539
 30
0.0
 10
110.1280370458
 20
46.1701886268
 30
0.0
 10
109.9307992594
 20
46.0214882372
 30
0.0
 10
109.8269749011
 20
45.9615298537
 30
0.0
  0
SPLINE
  5
5EC
100
AcDbEntity
  8
0
100
AcDbSpline
 62
7
  6
CONTINUOUS
 70
0
 71
3
 72
10
 73
6
 74
0
 42
0.0000001
 43
0.0000001
 44
0.0000000001
 40
0.0
 40
0.0
 40
0.0
 40
0.0
 40
0.5484058311
 40
0.808531885
 40
1.0
 40
1.0
 40
1.0
 40
1.0
 10
112.2478083722
 20
45.1213880555
 30
0.0
 10
112.2478083768
 20
45.2304866857
 30
0.0
 10
112.2864339853
 20
45.3922885358
 30
0.0
 10
112.3734068076
 20
45.5703046668
 30
0.0
 10
112.4315116969
 20
45.6427792656
 30
0.0
 10
112.4633875721
 20
45.6636310011
 30
0.0
  0
SPLINE
  5
5ED
100
AcDbEntity
  8
0
100
AcDbSpline
 62
7
  6
CONTINUOUS
 70
0
 71
3
 72
10
 73
6
 74
0
 42
0.0000001
 43
0.0000001
 44
0.0000000001
 40
0.0
 40
0.0
 40
0.0
 40
0.0
 40
0.5484058339
 40
0.80853179
 40
1.0
 40
1.0
 40
1.0
 40
1.0
 10
112.2478083722
 20
58.5184065001
 30
0.0
 10
112.2478083578
 20
58.627505097
 30
0.0
 10
112.2864339553
 20
58.789306879
 30
0.0
 10
112.3734067309
 20
58.9673229657
 30
0.0
 10
112.4315115556
 20
59.0397975635
 30
0.0
 10
112.463387411
 20
59.0606493422
 30
0.0
  0
SPLINE
  5
5EE
100
AcDbEntity
  8
0
100
AcDbSpline
 62
7
  6
CONTINUOUS
 70
0
 71
3
 72
9
 73
5
 74
0
 42
0.0000001
 43
0.0000001
 44
0.0000000001
 40
0.0
 40
0.0
 40
0.0
 40
0.0
 40
0.5000024984
 40
1.0
 40
1.0
 40
1.0
 40
1.0
 10
112.3320511753
 20
63.3257104881
 30
0.0
 10
112.2528149021
 20
63.2799888231
 30
0.0
 10
112.0651288224
 20
63.2438090227
 30
0.0
 10
111.8774437512
 20
63.2799921327
 30
0.0
 10
111.7982088336
 20
63.3257143178
 30
0.0
  0
SPLINE
  5
5EF
100
AcDbEntity
  8
0
100
AcDbSpline
 62
7
  6
CONTINUOUS
 70
0
 71
3
 72
8
 73
4
 74
0
 42
0.0000001
 43
0.0000001
 44
0.0000000001
 40
0.0
 40
0.0
 40
0.0
 40
0.0
 40
1.0
 40
1.0
 40
1.0
 40
1.0
 10
111.887367599
 20
63.2890702704
 30
0.0
 10
111.880619374
 20
63.2999417461
 30
0.0
 10
111.8763262665
 20
63.3130363708
 30
0.0
 10
111.8763165828
 20
63.3258319728
 30
0.0
  0
SPLINE
  5
5F0
100
AcDbEntity
  8
0
100
AcDbSpline
 62
7
  6
CONTINUOUS
 70
0
 71
3
 72
9
 73
5
 74
0
 42
0.0000001
 43
0.0000001
 44
0.0000000001
 40
0.0
 40
0.0
 40
0.0
 40
0.0
 40
0.5000023685
 40
1.0
 40
1.0
 40
1.0
 40
1.0
 10
106.6674313522
 20
62.8165463709
 30
0.0
 10
106.5881950582
 20
62.7708246861
 30
0.0
 10
106.4005088886
 20
62.7346448024
 30
0.0
 10
106.212823694
 20
62.7708279805
 30
0.0
 10
106.1335887331
 20
62.8165502413
 30
0.0
  0
SPLINE
  5
5F1
100
AcDbEntity
  8
0
100
AcDbSpline
 62
7
  6
CONTINUOUS
 70
0
 71
3
 72
8
 73
4
 74
0
 42
0.0000001
 43
0.0000001
 44
0.0000000001
 40
0.0
 40
0.0
 40
0.0
 40
0.0
 40
1.0
 40
1.0
 40
1.0
 40
1.0
 10
106.2227470199
 20
62.7799071291
 30
0.0
 10
106.215999163
 20
62.7907783675
 30
0.0
 10
106.2117063536
 20
62.8038725826
 30
0.0
 10
106.2116966592
 20
62.8166677888
 30
0.0
  0
SPLINE
  5
5F2
100
AcDbEntity
  8
0
100
AcDbSpline
 62
7
  6
CONTINUOUS
 70
0
 71
3
 72
9
 73
5
 74
0
 42
0.0000001
 43
0.0000001
 44
0.0000000001
 40
0.0
 40
0.0
 40
0.0
 40
0.0
 40
0.5000024984
 40
1.0
 40
1.0
 40
1.0
 40
1.0
 10
110.0467577801
 20
62.0059502109
 30
0.0
 10
109.9675215069
 20
61.9602285459
 30
0.0
 10
109.7798354273
 20
61.9240487455
 30
0.0
 10
109.5921503561
 20
61.9602318555
 30
0.0
 10
109.5129154385
 20
62.0059540406
 30
0.0
  0
SPLINE
  5
5F3
100
AcDbEntity
  8
0
100
AcDbSpline
 62
7
  6
CONTINUOUS
 70
0
 71
3
 72
8
 73
4
 74
0
 42
0.0000001
 43
0.0000001
 44
0.0000000001
 40
0.0
 40
0.0
 40
0.0
 40
0.0
 40
1.0
 40
1.0
 40
1.0
 40
1.0
 10
109.6020742039
 20
61.9693099932
 30
0.0
 10
109.5953259789
 20
61.9801814689
 30
0.0
 10
109.5910328714
 20
61.9932760936
 30
0.0
 10
109.5910231877
 20
62.0060716956
 30
0.0
  0
SPLINE
  5
5F4
100
AcDbEntity
  8
0
100
AcDbSpline
 62
7
  6
CONTINUOUS
 70
0
 71
3
 72
9
 73
5
 74
0
 42
0.0000001
 43
0.0000001
 44
0.0000000001
 40
0.0
 40
0.0
 40
0.0
 40
0.0
 40
0.5000024984
 40
1.0
 40
1.0
 40
1.0
 40
1.0
 10
111.450383837
 20
60.0543841978
 30
0.0
 10
111.3711475638
 20
60.0086625328
 30
0.0
 10
111.1834614842
 20
59.9724827324
 30
0.0
 10
110.995776413
 20
60.0086658424
 30
0.0
 10
110.9165414954
 20
60.0543880275
 30
0.0
  0
SPLINE
  5
5F5
100
AcDbEntity
  8
0
100
AcDbSpline
 62
7
  6
CONTINUOUS
 70
0
 71
3
 72
8
 73
4
 74
0
 42
0.0000001
 43
0.0000001
 44
0.0000000001
 40
0.0
 40
0.0
 40
0.0
 40
0.0
 40
1.0
 40
1.0
 40
1.0
 40
1.0
 10
111.0057002608
 20
60.0177439801
 30
0.0
 10
110.9989520358
 20
60.0286154558
 30
0.0
 10
110.9946589283
 20
60.0417100805
 30
0.0
 10
110.9946492446
 20
60.0545056825
 30
0.0
  0
SPLINE
  5
5F6
100
AcDbEntity
  8
0
100
AcDbSpline
 62
7
  6
CONTINUOUS
 70
0
 71
3
 72
8
 73
4
 74
0
 42
0.0000001
 43
0.0000001
 44
0.0000000001
 40
0.0
 40
0.0
 40
0.0
 40
0.0
 40
1.0
 40
1.0
 40
1.0
 40
1.0
 10
106.5893209111
 20
62.8166703985
 30
0.0
 10
106.5893312586
 20
62.8030131481
 30
0.0
 10
106.5843770111
 20
62.7890307048
 30
0.0
 10
106.5768271742
 20
62.7776499948
 30
0.0
  0
SPLINE
  5
5F7
100
AcDbEntity
  8
0
100
AcDbSpline
 62
7
  6
CONTINUOUS
 70
0
 71
3
 72
8
 73
4
 74
0
 42
0.0000001
 43
0.0000001
 44
0.0000000001
 40
0.0
 40
0.0
 40
0.0
 40
0.0
 40
1.0
 40
1.0
 40
1.0
 40
1.0
 10
112.2539408407
 20
63.3258345689
 30
0.0
 10
112.2539511773
 20
63.3121762601
 30
0.0
 10
112.2489961111
 20
63.2981927322
 30
0.0
 10
112.2414452694
 20
63.2868114188
 30
0.0
  0
SPLINE
  5
5F8
100
AcDbEntity
  8
0
100
AcDbSpline
 62
7
  6
CONTINUOUS
 70
0
 71
3
 72
8
 73
4
 74
0
 42
0.0000001
 43
0.0000001
 44
0.0000000001
 40
0.0
 40
0.0
 40
0.0
 40
0.0
 40
1.0
 40
1.0
 40
1.0
 40
1.0
 10
109.9686474456
 20
62.0060742917
 30
0.0
 10
109.9686577822
 20
61.9924159829
 30
0.0
 10
109.963702716
 20
61.978432455
 30
0.0
 10
109.9561518743
 20
61.9670511416
 30
0.0
  0
SPLINE
  5
5F9
100
AcDbEntity
  8
0
100
AcDbSpline
 62
7
  6
CONTINUOUS
 70
0
 71
3
 72
8
 73
4
 74
0
 42
0.0000001
 43
0.0000001
 44
0.0000000001
 40
0.0
 40
0.0
 40
0.0
 40
0.0
 40
1.0
 40
1.0
 40
1.0
 40
1.0
 10
111.3722735025
 20
60.0545082786
 30
0.0
 10
111.3722838391
 20
60.0408499698
 30
0.0
 10
111.3673287729
 20
60.0268664419
 30
0.0
 10
111.3597779312
 20
60.0154851285
 30
0.0
  0
SPLINE
  5
5FA
100
AcDbEntity
  8
3_ALL_AXES
100
AcDbSpline
 62
7
  6
CONTINUOUS
 70
0
 71
3
 72
9
 73
5
 74
0
 42
0.0000001
 43
0.0000001
 44
0.0000000001
 40
0.0
 40
0.0
 40
0.0
 40
0.0
 40
0.4946913293
 40
1.0
 40
1.0
 40
1.0
 40
1.0
 10
109.3690942475
 20
58.2714831288
 30
0.0
 10
109.6206013049
 20
58.183700362
 30
0.0
 10
110.1600676594
 20
58.0928996747
 30
0.0
 10
110.7037049381
 20
58.1436982837
 30
0.0
 10
110.9675856004
 20
58.2100860349
 30
0.0
  0
SPLINE
  5
5FB
100
AcDbEntity
  8
3_ALL_AXES
100
AcDbSpline
 62
7
  6
CONTINUOUS
 70
0
 71
3
 72
11
 73
7
 74
0
 42
0.0000001
 43
0.0000001
 44
0.0000000001
 40
0.0
 40
0.0
 40
0.0
 40
0.0
 40
0.217751611
 40
0.4509247102
 40
0.7101684765
 40
1.0
 40
1.0
 40
1.0
 40
1.0
 10
105.3631098906
 20
53.6911549455
 30
0.0
 10
105.5103296245
 20
53.7761740817
 30
0.0
 10
105.8486526303
 20
53.8990600031
 30
0.0
 10
106.4105287294
 20
53.9130775922
 30
0.0
 10
107.0094974362
 20
53.7685857356
 30
0.0
 10
107.3990904123
 20
53.5830455378
 30
0.0
 10
107.5950423959
 20
53.4698829808
 30
0.0
  0
SPLINE
  5
5FC
100
AcDbEntity
  8
0
100
AcDbSpline
 62
7
  6
CONTINUOUS
 70
0
 71
3
 72
9
 73
5
 74
0
 42
0.0000001
 43
0.0000001
 44
0.0000000001
 40
0.0
 40
0.0
 40
0.0
 40
0.0
 40
0.2642819867
 40
1.0
 40
1.0
 40
1.0
 40
1.0
 10
103.6372344275
 20
47.5617695306
 30
0.0
 10
103.6187821404
 20
47.5338543185
 30
0.0
 10
103.5553360554
 20
47.4242833237
 30
0.0
 10
103.5226808384
 20
47.2959137661
 30
0.0
 10
103.5226808384
 20
47.2027593217
 30
0.0
  0
SPLINE
  5
5FD
100
AcDbEntity
  8
3_ALL_AXES
100
AcDbSpline
 62
7
  6
CONTINUOUS
 70
0
 71
3
 72
16
 73
12
 74
0
 42
0.0000001
 43
0.0000001
 44
0.0000000001
 40
0.0
 40
0.0
 40
0.0
 40
0.0
 40
0.1284013436
 40
0.2692226825
 40
0.4154066083
 40
0.55881012
 40
0.6918395828
 40
0.8091783718
 40
0.9098651402
 40
0.9557017313
 40
1.0
 40
1.0
 40
1.0
 40
1.0
 10
107.9648036897
 20
46.753198529
 30
0.0
 10
107.6654439206
 20
46.9260792334
 30
0.0
 10
107.0852149867
 20
47.3724459204
 30
0.0
 10
106.3435987556
 20
48.2166706986
 30
0.0
 10
105.7345707273
 20
49.2090790622
 30
0.0
 10
105.3073490186
 20
50.2696981889
 30
0.0
 10
105.0968049167
 20
51.3161993701
 30
0.0
 10
105.1207805481
 20
52.2704730686
 30
0.0
 10
105.3611030976
 20
52.9591222802
 30
0.0
 10
105.6838721024
 20
53.3644864582
 30
0.0
 10
105.8792160987
 20
53.5135650197
 30
0.0
 10
105.9825375995
 20
53.5731343664
 30
0.0
  0
LINE
  5
5FE
100
AcDbEntity
  8
3_ALL_AXES
100
AcDbLine
 62
7
  6
CONTINUOUS
 10
106.0683630672
 20
53.4244904817
 11
106.0724014763
 21
53.4268091495
  0
SPLINE
  5
5FF
100
AcDbEntity
  8
3_ALL_AXES
100
AcDbSpline
 62
7
  6
CONTINUOUS
 70
0
 71
3
 72
10
 73
6
 74
0
 42
0.0000001
 43
0.0000001
 44
0.0000000001
 40
0.0
 40
0.0
 40
0.0
 40
0.0
 40
0.2232122629
 40
0.459184906
 40
1.0
 40
1.0
 40
1.0
 40
1.0
 10
106.0724014763
 20
53.4268091495
 30
0.0
 10
106.1720710805
 20
53.4837853029
 30
0.0
 10
106.3949523388
 20
53.5721872568
 30
0.0
 10
106.9108011924
 20
53.6291502754
 30
0.0
 10
107.311867781
 20
53.527895481
 30
0.0
 10
107.569355627
 20
53.4226690068
 30
0.0
  0
SPLINE
  5
600
100
AcDbEntity
  8
3_ALL_AXES
100
AcDbSpline
 62
7
  6
CONTINUOUS
 70
0
 71
3
 72
9
 73
5
 74
0
 42
0.0000001
 43
0.0000001
 44
0.0000000001
 40
0.0
 40
0.0
 40
0.0
 40
0.0
 40
0.2428690591
 40
1.0
 40
1.0
 40
1.0
 40
1.0
 10
107.569355627
 20
53.4226690068
 30
0.0
 10
107.6002059892
 20
53.4100615191
 30
0.0
 10
107.7263239268
 20
53.3559451731
 30
0.0
 10
107.848768045
 20
53.2933805446
 30
0.0
 10
107.9391599285
 20
53.2421600163
 30
0.0
  0
SPLINE
  5
601
100
AcDbEntity
  8
3_AXES_OTHER
100
AcDbSpline
 62
7
  6
CONTINUOUS
 70
0
 71
3
 72
9
 73
5
 74
0
 42
0.0000001
 43
0.0000001
 44
0.0000000001
 40
0.0
 40
0.0
 40
0.0
 40
0.0
 40
0.5285876385
 40
1.0
 40
1.0
 40
1.0
 40
1.0
 10
103.8668609743
 20
61.1278364341
 30
0.0
 10
103.7994362301
 20
61.1940594544
 30
0.0
 10
103.6873136568
 20
61.3386663615
 30
0.0
 10
103.6428223573
 20
61.5189769202
 30
0.0
 10
103.6428257733
 20
61.6032615183
 30
0.0
  0
SPLINE
  5
602
100
AcDbEntity
  8
3_ALL_AXES
100
AcDbSpline
 62
7
  6
CONTINUOUS
 70
0
 71
3
 72
9
 73
5
 74
0
 42
0.0000001
 43
0.0000001
 44
0.0000000001
 40
0.0
 40
0.0
 40
0.0
 40
0.0
 40
0.241823883
 40
1.0
 40
1.0
 40
1.0
 40
1.0
 10
109.4481144316
 20
57.9046544017
 30
0.0
 10
109.0200223425
 20
58.1995160102
 30
0.0
 10
107.2241764416
 20
59.3815344176
 30
0.0
 10
105.3336978202
 20
60.4175934393
 30
0.0
 10
103.8668609743
 20
61.1278364341
 30
0.0
  0
SPLINE
  5
603
100
AcDbEntity
  8
3_AXES_OTHER
100
AcDbSpline
 62
7
  6
CONTINUOUS
 70
0
 71
3
 72
9
 73
5
 74
0
 42
0.0000001
 43
0.0000001
 44
0.0000000001
 40
0.0
 40
0.0
 40
0.0
 40
0.0
 40
0.5041104889
 40
1.0
 40
1.0
 40
1.0
 40
1.0
 10
110.946169969
 20
57.860128118
 30
0.0
 10
110.7002399326
 20
57.7952174651
 30
0.0
 10
110.1911266704
 20
57.7430767544
 30
0.0
 10
109.6850326312
 20
57.8242064626
 30
0.0
 10
109.4481144316
 20
57.9046544017
 30
0.0
  0
SPLINE
  5
604
100
AcDbEntity
  8
3_ALL_AXES
100
AcDbSpline
 62
7
  6
CONTINUOUS
 70
0
 71
3
 72
16
 73
12
 74
0
 42
0.0000001
 43
0.0000001
 44
0.0000000001
 40
0.0
 40
0.0
 40
0.0
 40
0.0
 40
0.1283818636
 40
0.2691561003
 40
0.4152817806
 40
0.5586290871
 40
0.6916199787
 40
0.8089610856
 40
0.9097202201
 40
0.9556230235
 40
1.0
 40
1.0
 40
1.0
 40
1.0
 10
107.9648036897
 20
46.929770111
 30
0.0
 10
107.681453325
 20
47.093405361
 30
0.0
 10
107.1323006945
 20
47.515853782
 30
0.0
 10
106.4304619853
 20
48.3148249789
 30
0.0
 10
105.8541734409
 20
49.2539769904
 30
0.0
 10
105.4499597526
 20
50.2576974719
 30
0.0
 10
105.2508095032
 20
51.2481764392
 30
0.0
 10
105.2736765154
 20
52.1516517547
 30
0.0
 10
105.5014822367
 20
52.803854943
 30
0.0
 10
105.8074466069
 20
53.1879819132
 30
0.0
 10
105.9926755346
 20
53.3293243223
 30
0.0
 10
106.0906601464
 20
53.38581673
 30
0.0
  0
LINE
  5
605
100
AcDbEntity
  8
3_ALL_AXES
100
AcDbLine
 62
7
  6
CONTINUOUS
 10
105.5498356788
 20
45.8704655648
 11
105.5766438953
 21
45.8561026492
  0
LINE
  5
606
100
AcDbEntity
  8
3_ALL_AXES
100
AcDbLine
 62
7
  6
CONTINUOUS
 10
107.9393038472
 20
44.4916630723
 11
107.9641746338
 21
44.4761812881
  0
LINE
  5
607
100
AcDbEntity
  8
3_ALL_AXES
100
AcDbLine
 62
7
  6
CONTINUOUS
 10
106.1764855266
 20
53.2371728847
 11
106.1805207537
 21
53.2394891365
  0
SPLINE
  5
608
100
AcDbEntity
  8
3_ALL_AXES
100
AcDbSpline
 62
7
  6
CONTINUOUS
 70
0
 71
3
 72
11
 73
7
 74
0
 42
0.0000001
 43
0.0000001
 44
0.0000000001
 40
0.0
 40
0.0
 40
0.0
 40
0.0
 40
0.213578973
 40
0.4450631281
 40
0.7058336862
 40
1.0
 40
1.0
 40
1.0
 40
1.0
 10
106.1805207537
 20
53.2394891365
 30
0.0
 10
106.2962675404
 20
53.30562127
 30
0.0
 10
106.5637156638
 20
53.4011522309
 30
0.0
 10
107.0101484812
 20
53.4102683099
 30
0.0
 10
107.4911790996
 20
53.2929082166
 30
0.0
 10
107.8058063495
 20
53.1427394838
 30
0.0
 10
107.9648036897
 20
53.0509182874
 30
0.0
  0
SPLINE
  5
609
100
AcDbEntity
  8
3_ALL_AXES
100
AcDbSpline
 62
7
  6
CONTINUOUS
 70
0
 71
3
 72
16
 73
12
 74
0
 42
0.0000001
 43
0.0000001
 44
0.0000000001
 40
0.0
 40
0.0
 40
0.0
 40
0.0
 40
0.1283601201
 40
0.2690817254
 40
0.4151423062
 40
0.5584267868
 40
0.6913745709
 40
0.8087183005
 40
0.9095583394
 40
0.9555351151
 40
1.0
 40
1.0
 40
1.0
 40
1.0
 10
107.9648036897
 20
47.106341693
 30
0.0
 10
107.6974626022
 20
47.2607315619
 30
0.0
 10
107.1793859968
 20
47.6592619782
 30
0.0
 10
106.5173245134
 20
48.4129801558
 30
0.0
 10
105.9737753199
 20
49.2988765369
 30
0.0
 10
105.5925697972
 20
50.2456990991
 30
0.0
 10
105.4048138921
 20
51.1801564075
 30
0.0
 10
105.4265731781
 20
52.0328332773
 30
0.0
 10
105.6418626704
 20
52.6485895613
 30
0.0
 10
105.9310220623
 20
53.0114781567
 30
0.0
 10
106.1061353
 20
53.145083806
 30
0.0
 10
106.1987826011
 20
53.1984990516
 30
0.0
  0
SPLINE
  5
60A
100
AcDbEntity
  8
3_ALL_AXES
100
AcDbSpline
 62
7
  6
CONTINUOUS
 70
0
 71
3
 72
11
 73
7
 74
0
 42
0.0000001
 43
0.0000001
 44
0.0000000001
 40
0.0
 40
0.0
 40
0.0
 40
0.0
 40
0.2133084291
 40
0.4446040631
 40
0.7054536586
 40
1.0
 40
1.0
 40
1.0
 40
1.0
 10
106.2846078774
 20
53.0498552533
 30
0.0
 10
106.393237212
 20
53.1124994248
 30
0.0
 10
106.6446106157
 20
53.2032617014
 30
0.0
 10
107.0648984155
 20
53.2126518224
 30
0.0
 10
107.5182405154
 20
53.1024512007
 30
0.0
 10
107.8148566297
 20
52.9609413518
 30
0.0
 10
107.9648036897
 20
52.8743467054
 30
0.0
  0
SPLINE
  5
60B
100
AcDbEntity
  8
3_ALL_AXES
100
AcDbSpline
 62
7
  6
CONTINUOUS
 70
0
 71
3
 72
9
 73
5
 74
0
 42
0.0000001
 43
0.0000001
 44
0.0000000001
 40
0.0
 40
0.0
 40
0.0
 40
0.0
 40
0.5000294518
 40
1.0
 40
1.0
 40
1.0
 40
1.0
 10
108.7681772059
 20
49.2805940309
 30
0.0
 10
108.455161131
 20
49.4682417815
 30
0.0
 10
107.9128649969
 20
50.00991694
 30
0.0
 10
107.7147672865
 20
50.7503475436
 30
0.0
 10
107.7086855707
 20
51.115206936
 30
0.0
  0
SPLINE
  5
60C
100
AcDbEntity
  8
3_ALL_AXES
100
AcDbSpline
 62
7
  6
CONTINUOUS
 70
0
 71
3
 72
11
 73
7
 74
0
 42
0.0000001
 43
0.0000001
 44
0.0000000001
 40
0.0
 40
0.0
 40
0.0
 40
0.0
 40
0.2212362331
 40
0.4559126021
 40
0.7139069829
 40
1.0
 40
1.0
 40
1.0
 40
1.0
 10
110.0329134068
 20
46.5562006285
 30
0.0
 10
109.8942933627
 20
46.4762801337
 30
0.0
 10
109.5775389013
 20
46.3609891709
 30
0.0
 10
109.0543233395
 20
46.347052282
 30
0.0
 10
108.5017257824
 20
46.4795889354
 30
0.0
 10
108.1439867499
 20
46.6497200497
 30
0.0
 10
107.9648036897
 20
46.753198529
 30
0.0
  0
SPLINE
  5
60D
100
AcDbEntity
  8
3_ALL_AXES
100
AcDbSpline
 62
7
  6
CONTINUOUS
 70
0
 71
3
 72
11
 73
7
 74
0
 42
0.0000001
 43
0.0000001
 44
0.0000000001
 40
0.0
 40
0.0
 40
0.0
 40
0.0
 40
0.2955704368
 40
0.5568935605
 40
0.7877856797
 40
1.0
 40
1.0
 40
1.0
 40
1.0
 10
110.7246546191
 20
48.5338864804
 30
0.0
 10
110.7295029903
 20
48.3293196366
 30
0.0
 10
110.7080271965
 20
47.9418092962
 30
0.0
 10
110.5644490317
 20
47.4105668584
 30
0.0
 10
110.314658531
 20
46.9835821182
 30
0.0
 10
110.075924977
 20
46.7794083482
 30
0.0
 10
109.9487691028
 20
46.705815739
 30
0.0
  0
LINE
  5
60E
100
AcDbEntity
  8
3_ALL_AXES
100
AcDbLine
 62
7
  6
CONTINUOUS
 10
109.9487691028
 20
46.705815739
 11
109.947087939
 21
46.7048445132
  0
SPLINE
  5
60F
100
AcDbEntity
  8
3_ALL_AXES
100
AcDbSpline
 62
7
  6
CONTINUOUS
 70
0
 71
3
 72
11
 73
7
 74
0
 42
0.0000001
 43
0.0000001
 44
0.0000000001
 40
0.0
 40
0.0
 40
0.0
 40
0.0
 40
0.2223185558
 40
0.457471954
 40
0.7150575168
 40
1.0
 40
1.0
 40
1.0
 40
1.0
 10
109.9247908599
 20
46.743518265
 30
0.0
 10
109.7962529451
 20
46.669410544
 30
0.0
 10
109.5036834553
 20
46.561552073
 30
0.0
 10
109.0204767089
 20
46.5435875338
 30
0.0
 10
108.5097258742
 20
46.6587216754
 30
0.0
 10
108.178287509
 20
46.8103181482
 30
0.0
 10
108.0121762729
 20
46.9028911804
 30
0.0
  0
SPLINE
  5
610
100
AcDbEntity
  8
3_ALL_AXES
100
AcDbSpline
 62
7
  6
CONTINUOUS
 70
0
 71
3
 72
16
 73
12
 74
0
 42
0.0000001
 43
0.0000001
 44
0.0000000001
 40
0.0
 40
0.0
 40
0.0
 40
0.0
 40
0.130024125
 40
0.2730696255
 40
0.421492326
 40
0.5667721637
 40
0.7008888572
 40
0.817805588
 40
0.9155355492
 40
0.9587755938
 40
1.0
 40
1.0
 40
1.0
 40
1.0
 10
108.0092427592
 20
53.0248123078
 30
0.0
 10
108.2784196414
 20
52.8640057925
 30
0.0
 10
108.8004867114
 20
52.4524590523
 30
0.0
 10
109.468487679
 20
51.6802008719
 30
0.0
 10
110.0174681067
 20
50.7755806338
 30
0.0
 10
110.4020438051
 20
49.812901628
 30
0.0
 10
110.5910782498
 20
48.8694431471
 30
0.0
 10
110.5713896768
 20
48.0205690525
 30
0.0
 10
110.3647980983
 20
47.4165118121
 30
0.0
 10
110.0903441354
 20
47.0685298338
 30
0.0
 10
109.9266958279
 20
46.942948611
 30
0.0
 10
109.840660582
 20
46.8931415266
 30
0.0
  0
LINE
  5
611
100
AcDbEntity
  8
3_ALL_AXES
100
AcDbLine
 62
7
  6
CONTINUOUS
 10
109.840660582
 20
46.8931415266
 11
109.8389654797
 21
46.8921621103
  0
SPLINE
  5
612
100
AcDbEntity
  8
3_ALL_AXES
100
AcDbSpline
 62
7
  6
CONTINUOUS
 70
0
 71
3
 72
11
 73
7
 74
0
 42
0.0000001
 43
0.0000001
 44
0.0000000001
 40
0.0
 40
0.0
 40
0.0
 40
0.0
 40
0.2225780026
 40
0.4578453019
 40
0.715337794
 40
1.0
 40
1.0
 40
1.0
 40
1.0
 10
109.8166684052
 20
46.9308359433
 30
0.0
 10
109.695272104
 20
46.8608456343
 30
0.0
 10
109.4191036108
 20
46.7589358166
 30
0.0
 10
108.9631219024
 20
46.7416423479
 30
0.0
 10
108.4813757321
 20
46.84977825
 30
0.0
 10
108.1687990183
 20
46.99239459
 30
0.0
 10
108.0121739052
 20
47.0794926235
 30
0.0
  0
SPLINE
  5
613
100
AcDbEntity
  8
3_ALL_AXES
100
AcDbSpline
 62
7
  6
CONTINUOUS
 70
0
 71
3
 72
16
 73
12
 74
0
 42
0.0000001
 43
0.0000001
 44
0.0000000001
 40
0.0
 40
0.0
 40
0.0
 40
0.0
 40
0.1291945418
 40
0.2718977371
 40
0.4203980262
 40
0.5660318588
 40
0.7005951895
 40
0.8178590649
 40
0.9156815991
 40
0.9588663463
 40
1.0
 40
1.0
 40
1.0
 40
1.0
 10
107.9648036897
 20
52.8743467054
 30
0.0
 10
108.2205139523
 20
52.7266736549
 30
0.0
 10
108.7177664158
 20
52.3437144873
 30
0.0
 10
109.3552853486
 20
51.6188064991
 30
0.0
 10
109.8813083506
 20
50.7645564021
 30
0.0
 10
110.2516117003
 20
49.8522526226
 30
0.0
 10
110.4357583699
 20
48.956324242
 30
0.0
 10
110.4207717778
 20
48.1496355229
 30
0.0
 10
110.2268166056
 20
47.5753574422
 30
0.0
 10
109.9672270781
 20
47.2451989785
 30
0.0
 10
109.8122865596
 20
47.1264463945
 30
0.0
 10
109.7308431289
 20
47.0794797416
 30
0.0
  0
SPLINE
  5
614
100
AcDbEntity
  8
3_AXES_OTHER
100
AcDbSpline
 62
7
  6
CONTINUOUS
 70
0
 71
3
 72
9
 73
5
 74
0
 42
0.0000001
 43
0.0000001
 44
0.0000000001
 40
0.0
 40
0.0
 40
0.0
 40
0.0
 40
0.4915491398
 40
1.0
 40
1.0
 40
1.0
 40
1.0
 10
106.809099782
 20
60.8084157503
 30
0.0
 10
106.809099782
 20
60.8090017445
 30
0.0
 10
106.8089623253
 20
60.8101975971
 30
0.0
 10
106.8085637109
 20
60.8113319289
 30
0.0
 10
106.808306844
 20
60.8118809545
 30
0.0
  0
SPLINE
  5
615
100
AcDbEntity
  8
3_AXES_OTHER
100
AcDbSpline
 62
7
  6
CONTINUOUS
 70
0
 71
3
 72
9
 73
5
 74
0
 42
0.0000001
 43
0.0000001
 44
0.0000000001
 40
0.0
 40
0.0
 40
0.0
 40
0.0
 40
0.4650216938
 40
1.0
 40
1.0
 40
1.0
 40
1.0
 10
106.808306844
 20
60.8118809545
 30
0.0
 10
106.8077431063
 20
60.8130858842
 30
0.0
 10
106.805968163
 20
60.815415382
 30
0.0
 10
106.8036317914
 20
60.8171175098
 30
0.0
 10
106.8023065056
 20
60.8178828643
 30
0.0
  0
SPLINE
  5
616
100
AcDbEntity
  8
3_AXES_OTHER
100
AcDbSpline
 62
7
  6
CONTINUOUS
 70
0
 71
3
 72
8
 73
4
 74
0
 42
0.0000001
 43
0.0000001
 44
0.0000000001
 40
0.0
 40
0.0
 40
0.0
 40
0.0
 40
1.0
 40
1.0
 40
1.0
 40
1.0
 10
106.2975520162
 20
60.9042079179
 30
0.0
 10
106.2975522073
 20
60.897162541
 30
0.0
 10
106.3005552448
 20
60.8899868187
 30
0.0
 10
106.3047733023
 20
60.8843436524
 30
0.0
  0
SPLINE
  5
617
100
AcDbEntity
  8
3_AXES_OTHER
100
AcDbSpline
 62
7
  6
CONTINUOUS
 70
0
 71
3
 72
8
 73
4
 74
0
 42
0.0000001
 43
0.0000001
 44
0.0000000001
 40
0.0
 40
0.0
 40
0.0
 40
0.0
 40
1.0
 40
1.0
 40
1.0
 40
1.0
 10
106.3047733023
 20
60.8843436524
 30
0.0
 10
106.3082720816
 20
60.8796627791
 30
0.0
 10
106.3128917818
 20
60.8757043124
 30
0.0
 10
106.3179524803
 20
60.8727817516
 30
0.0
  0
SPLINE
  5
618
100
AcDbEntity
  8
3_AXES_OTHER
100
AcDbSpline
 62
7
  6
CONTINUOUS
 70
0
 71
3
 72
9
 73
5
 74
0
 42
0.0000001
 43
0.0000001
 44
0.0000000001
 40
0.0
 40
0.0
 40
0.0
 40
0.0
 40
0.3436275064
 40
1.0
 40
1.0
 40
1.0
 40
1.0
 10
106.4854210384
 20
60.7506769448
 30
0.0
 10
106.4853931359
 20
60.7500906448
 30
0.0
 10
106.4865979575
 20
60.7484433399
 30
0.0
 10
106.4884408988
 20
60.7484100153
 30
0.0
 10
106.4895593893
 20
60.7483324681
 30
0.0
  0
SPLINE
  5
619
100
AcDbEntity
  8
3_AXES_OTHER
100
AcDbSpline
 62
7
  6
CONTINUOUS
 70
0
 71
3
 72
8
 73
4
 74
0
 42
0.0000001
 43
0.0000001
 44
0.0000000001
 40
0.0
 40
0.0
 40
0.0
 40
0.0
 40
1.0
 40
1.0
 40
1.0
 40
1.0
 10
106.8444790079
 20
60.6980078078
 30
0.0
 10
106.8444790298
 20
60.6916121956
 30
0.0
 10
106.847823878
 20
60.6850914721
 30
0.0
 10
106.8522310075
 20
60.680456705
 30
0.0
  0
LINE
  5
61A
100
AcDbEntity
  8
3_AXES_OTHER
100
AcDbLine
 62
7
  6
CONTINUOUS
 10
106.8522310075
 20
60.680456705
 11
106.8556022314
 21
60.6772621684
  0
SPLINE
  5
61B
100
AcDbEntity
  8
3_AXES_OTHER
100
AcDbSpline
 62
7
  6
CONTINUOUS
 70
0
 71
3
 72
8
 73
4
 74
0
 42
0.0000001
 43
0.0000001
 44
0.0000000001
 40
0.0
 40
0.0
 40
0.0
 40
0.0
 40
1.0
 40
1.0
 40
1.0
 40
1.0
 10
106.8556022314
 20
60.6772621684
 30
0.0
 10
106.8595132039
 20
60.673894426
 30
0.0
 10
106.8638979728
 20
60.6710803692
 30
0.0
 10
106.8683673609
 20
60.6684992911
 30
0.0
  0
SPLINE
  5
61C
100
AcDbEntity
  8
3_AXES_OTHER
100
AcDbSpline
 62
7
  6
CONTINUOUS
 70
0
 71
3
 72
9
 73
5
 74
0
 42
0.0000001
 43
0.0000001
 44
0.0000000001
 40
0.0
 40
0.0
 40
0.0
 40
0.0
 40
0.4915491398
 40
1.0
 40
1.0
 40
1.0
 40
1.0
 10
106.7240729282
 20
60.6437849784
 30
0.0
 10
106.7240729282
 20
60.6431989842
 30
0.0
 10
106.7242103849
 20
60.6420031317
 30
0.0
 10
106.7246089993
 20
60.6408687999
 30
0.0
 10
106.7248658662
 20
60.6403197742
 30
0.0
  0
SPLINE
  5
61D
100
AcDbEntity
  8
3_AXES_OTHER
100
AcDbSpline
 62
7
  6
CONTINUOUS
 70
0
 71
3
 72
9
 73
5
 74
0
 42
0.0000001
 43
0.0000001
 44
0.0000000001
 40
0.0
 40
0.0
 40
0.0
 40
0.0
 40
0.4650216938
 40
1.0
 40
1.0
 40
1.0
 40
1.0
 10
106.7248658662
 20
60.6403197742
 30
0.0
 10
106.7254296039
 20
60.6391148445
 30
0.0
 10
106.7272045472
 20
60.6367853468
 30
0.0
 10
106.7295409188
 20
60.6350832189
 30
0.0
 10
106.7308662046
 20
60.6343178644
 30
0.0
  0
SPLINE
  5
61E
100
AcDbEntity
  8
3_AXES_OTHER
100
AcDbSpline
 62
7
  6
CONTINUOUS
 70
0
 71
3
 72
9
 73
5
 74
0
 42
0.0000001
 43
0.0000001
 44
0.0000000001
 40
0.0
 40
0.0
 40
0.0
 40
0.0
 40
0.4915491398
 40
1.0
 40
1.0
 40
1.0
 40
1.0
 10
107.1064622362
 20
60.5254551654
 30
0.0
 10
107.1064622362
 20
60.5260411596
 30
0.0
 10
107.1063247796
 20
60.5272370122
 30
0.0
 10
107.1059261652
 20
60.528371344
 30
0.0
 10
107.1056692983
 20
60.5289203697
 30
0.0
  0
SPLINE
  5
61F
100
AcDbEntity
  8
3_AXES_OTHER
100
AcDbSpline
 62
7
  6
CONTINUOUS
 70
0
 71
3
 72
9
 73
5
 74
0
 42
0.0000001
 43
0.0000001
 44
0.0000000001
 40
0.0
 40
0.0
 40
0.0
 40
0.0
 40
0.4650216938
 40
1.0
 40
1.0
 40
1.0
 40
1.0
 10
107.1056692983
 20
60.5289203697
 30
0.0
 10
107.1051055605
 20
60.5301252994
 30
0.0
 10
107.1033306172
 20
60.5324547971
 30
0.0
 10
107.1009942457
 20
60.534156925
 30
0.0
 10
107.0996689598
 20
60.5349222795
 30
0.0
  0
SPLINE
  5
620
100
AcDbEntity
  8
3_AXES_OTHER
100
AcDbSpline
 62
7
  6
CONTINUOUS
 70
0
 71
3
 72
8
 73
4
 74
0
 42
0.0000001
 43
0.0000001
 44
0.0000000001
 40
0.0
 40
0.0
 40
0.0
 40
0.0
 40
1.0
 40
1.0
 40
1.0
 40
1.0
 10
107.1982555349
 20
60.3824516076
 30
0.0
 10
107.1982555251
 20
60.3757794986
 30
0.0
 10
107.201338035
 20
60.3689571894
 30
0.0
 10
107.2056175665
 20
60.3638383371
 30
0.0
  0
SPLINE
  5
621
100
AcDbEntity
  8
3_AXES_OTHER
100
AcDbSpline
 62
7
  6
CONTINUOUS
 70
0
 71
3
 72
8
 73
4
 74
0
 42
0.0000001
 43
0.0000001
 44
0.0000000001
 40
0.0
 40
0.0
 40
0.0
 40
0.0
 40
1.0
 40
1.0
 40
1.0
 40
1.0
 10
107.2056175665
 20
60.3638383371
 30
0.0
 10
107.2103304871
 20
60.3582010976
 30
0.0
 10
107.216545313
 20
60.353840273
 30
0.0
 10
107.2229082734
 20
60.350165654
 30
0.0
  0
SPLINE
  5
622
100
AcDbEntity
  8
3_ALL_AXES
100
AcDbSpline
 62
7
  6
CONTINUOUS
 70
0
 71
3
 72
9
 73
5
 74
0
 42
0.0000001
 43
0.0000001
 44
0.0000000001
 40
0.0
 40
0.0
 40
0.0
 40
0.0
 40
0.7289335724
 40
1.0
 40
1.0
 40
1.0
 40
1.0
 10
108.3003916949
 20
60.170597326
 30
0.0
 10
108.3003892004
 20
60.1844716315
 30
0.0
 10
108.2940034043
 20
60.2037869511
 30
0.0
 10
108.2826302383
 20
60.2190248415
 30
0.0
 10
108.2792813172
 20
60.2229496493
 30
0.0
  0
SPLINE
  5
623
100
AcDbEntity
  8
3_ALL_AXES
100
AcDbSpline
 62
7
  6
CONTINUOUS
 70
0
 71
3
 72
8
 73
4
 74
0
 42
0.0000001
 43
0.0000001
 44
0.0000000001
 40
0.0
 40
0.0
 40
0.0
 40
0.0
 40
1.0
 40
1.0
 40
1.0
 40
1.0
 10
108.2792813172
 20
60.2229496493
 30
0.0
 10
108.269092129
 20
60.234890989
 30
0.0
 10
108.2563704104
 20
60.2447902056
 30
0.0
 10
108.2429034756
 20
60.2528559864
 30
0.0
  0
SPLINE
  5
624
100
AcDbEntity
  8
3_AXES_OTHER
100
AcDbSpline
 62
7
  6
CONTINUOUS
 70
0
 71
3
 72
9
 73
5
 74
0
 42
0.0000001
 43
0.0000001
 44
0.0000000001
 40
0.0
 40
0.0
 40
0.0
 40
0.0
 40
0.480074904
 40
1.0
 40
1.0
 40
1.0
 40
1.0
 10
103.6428257733
 20
47.6232765807
 30
0.0
 10
103.6428285137
 20
47.6908913087
 30
0.0
 10
103.6704261498
 20
47.832708866
 30
0.0
 10
103.7443162457
 20
47.9555598528
 30
0.0
 10
103.7897593797
 20
48.0129807597
 30
0.0
  0
SPLINE
  5
625
100
AcDbEntity
  8
3_ALL_AXES
100
AcDbSpline
 62
7
  6
CONTINUOUS
 70
0
 71
3
 72
9
 73
5
 74
0
 42
0.0000001
 43
0.0000001
 44
0.0000000001
 40
0.0
 40
0.0
 40
0.0
 40
0.0
 40
0.4817724861
 40
1.0
 40
1.0
 40
1.0
 40
1.0
 10
103.5226808384
 20
62.0235613165
 30
0.0
 10
103.5226808384
 20
61.9548159869
 30
0.0
 10
103.548968387
 20
61.8111919622
 30
0.0
 10
103.6204063628
 20
61.6849311938
 30
0.0
 10
103.6645822483
 20
61.6256296091
 30
0.0
  0
SPLINE
  5
626
100
AcDbEntity
  8
3_ALL_AXES
100
AcDbSpline
 62
7
  6
CONTINUOUS
 70
0
 71
3
 72
9
 73
5
 74
0
 42
0.0000001
 43
0.0000001
 44
0.0000000001
 40
0.0
 40
0.0
 40
0.0
 40
0.0
 40
0.2430370733
 40
1.0
 40
1.0
 40
1.0
 40
1.0
 10
103.6645822483
 20
61.6256296091
 30
0.0
 10
103.6725582036
 20
61.614922709
 30
0.0
 10
103.7063793592
 20
61.5716195244
 30
0.0
 10
103.7440175449
 20
61.5313386797
 30
0.0
 10
103.7740823322
 20
61.5026106908
 30
0.0
  0
SPLINE
  5
627
100
AcDbEntity
  8
7_ALL_ROUNDS
100
AcDbSpline
 62
7
  6
CONTINUOUS
 70
0
 71
3
 72
9
 73
5
 74
0
 42
0.0000001
 43
0.0000001
 44
0.0000000001
 40
0.0
 40
0.0
 40
0.0
 40
0.0
 40
0.2302117738
 40
1.0
 40
1.0
 40
1.0
 40
1.0
 10
105.4626014837
 20
60.8955925886
 30
0.0
 10
105.4626014837
 20
60.9144893803
 30
0.0
 10
105.4787337753
 20
60.9964417839
 30
0.0
 10
105.5419653126
 20
61.0630238328
 30
0.0
 10
105.5966521142
 20
61.0946786203
 30
0.0
  0
SPLINE
  5
628
100
AcDbEntity
  8
7_ALL_ROUNDS
100
AcDbSpline
 62
7
  6
CONTINUOUS
 70
0
 71
3
 72
9
 73
5
 74
0
 42
0.0000001
 43
0.0000001
 44
0.0000000001
 40
0.0
 40
0.0
 40
0.0
 40
0.0
 40
0.5237467615
 40
1.0
 40
1.0
 40
1.0
 40
1.0
 10
107.9060497753
 20
59.4833490789
 30
0.0
 10
107.9060497753
 20
59.536043651
 30
0.0
 10
107.9294770295
 20
59.6355888311
 30
0.0
 10
107.9739783925
 20
59.728503494
 30
0.0
 10
108.0056795822
 20
59.7644339533
 30
0.0
  0
SPLINE
  5
629
100
AcDbEntity
  8
7_ALL_ROUNDS
100
AcDbSpline
 62
7
  6
CONTINUOUS
 70
0
 71
3
 72
9
 73
5
 74
0
 42
0.0000001
 43
0.0000001
 44
0.0000000001
 40
0.0
 40
0.0
 40
0.0
 40
0.0
 40
0.2332401258
 40
1.0
 40
1.0
 40
1.0
 40
1.0
 10
111.6126013913
 20
43.3879791754
 30
0.0
 10
111.616978898
 20
43.3929399941
 30
0.0
 10
111.6334854854
 20
43.4162551731
 30
0.0
 10
111.639336847
 20
43.4458533631
 30
0.0
 10
111.639336847
 20
43.4676031862
 30
0.0
  0
SPLINE
  5
62A
100
AcDbEntity
  8
3_ALL_AXES
100
AcDbSpline
 62
7
  6
CONTINUOUS
 70
0
 71
3
 72
11
 73
7
 74
0
 42
0.0000001
 43
0.0000001
 44
0.0000000001
 40
0.0
 40
0.0
 40
0.0
 40
0.0
 40
0.2185592176
 40
0.4544903546
 40
0.7141538573
 40
1.0
 40
1.0
 40
1.0
 40
1.0
 10
109.997086126
 20
46.0873786057
 30
0.0
 10
109.8547144634
 20
46.0361092283
 30
0.0
 10
109.5413531044
 20
45.9738856772
 30
0.0
 10
109.0435867485
 20
46.0060334144
 30
0.0
 10
108.5201825819
 20
46.1556743493
 30
0.0
 10
108.1791079944
 20
46.322153277
 30
0.0
 10
108.0077255031
 20
46.4211269163
 30
0.0
  0
SPLINE
  5
62B
100
AcDbEntity
  8
3_ALL_AXES
100
AcDbSpline
 62
7
  6
CONTINUOUS
 70
0
 71
3
 72
11
 73
7
 74
0
 42
0.0000001
 43
0.0000001
 44
0.0000000001
 40
0.0
 40
0.0
 40
0.0
 40
0.0
 40
0.217751611
 40
0.4509247102
 40
0.7101684765
 40
1.0
 40
1.0
 40
1.0
 40
1.0
 10
109.8269749011
 20
45.9615298537
 30
0.0
 10
109.6797551672
 20
45.8765107175
 30
0.0
 10
109.3414321615
 20
45.7536247961
 30
0.0
 10
108.7795560623
 20
45.739607207
 30
0.0
 10
108.1805873556
 20
45.8840990636
 30
0.0
 10
107.7909943794
 20
46.0696392614
 30
0.0
 10
107.5950423959
 20
46.1828018184
 30
0.0
  0
SPLINE
  5
62C
100
AcDbEntity
  8
0
100
AcDbSpline
 62
7
  6
CONTINUOUS
 70
0
 71
3
 72
11
 73
7
 74
0
 42
0.0000001
 43
0.0000001
 44
0.0000000001
 40
0.0
 40
0.0
 40
0.0
 40
0.0
 40
0.2108750178
 40
0.3943583602
 40
0.6480193787
 40
1.0
 40
1.0
 40
1.0
 40
1.0
 10
112.463387411
 20
59.0606493422
 30
0.0
 10
112.4783185905
 20
59.0704166613
 30
0.0
 10
112.5126861642
 20
59.0860126923
 30
0.0
 10
112.5649855579
 20
59.0537695116
 30
0.0
 10
112.5863557222
 20
58.9877251083
 30
0.0
 10
112.5906963137
 20
58.9368202998
 30
0.0
 10
112.590696315
 20
58.9070392731
 30
0.0
  0
LINE
  5
62D
100
AcDbEntity
  8
3_ALL_AXES
100
AcDbLine
 62
7
  6
CONTINUOUS
 10
109.9470512705
 20
46.7048387506
 11
109.9442061486
 21
46.7032029841
  0
SPLINE
  5
62E
100
AcDbEntity
  8
3_ALL_AXES
100
AcDbSpline
 62
7
  6
CONTINUOUS
 70
0
 71
3
 72
11
 73
7
 74
0
 42
0.0000001
 43
0.0000001
 44
0.0000000001
 40
0.0
 40
0.0
 40
0.0
 40
0.0
 40
0.2177456056
 40
0.4509692163
 40
0.7102297903
 40
1.0
 40
1.0
 40
1.0
 40
1.0
 10
109.9442061486
 20
46.7032029841
 30
0.0
 10
109.816263828
 20
46.6298598155
 30
0.0
 10
109.5224880072
 20
46.5240774645
 30
0.0
 10
109.0350546498
 20
46.5127198047
 30
0.0
 10
108.5155758945
 20
46.6384498956
 30
0.0
 10
108.1776753455
 20
46.7994436329
 30
0.0
 10
108.0077255031
 20
46.8975899154
 30
0.0
  0
LINE
  5
62F
100
AcDbEntity
  8
3_ALL_AXES
100
AcDbLine
 62
7
  6
CONTINUOUS
 10
109.8389288324
 20
46.8921562121
 11
109.8360834759
 21
46.8905205969
  0
SPLINE
  5
630
100
AcDbEntity
  8
3_ALL_AXES
100
AcDbSpline
 62
7
  6
CONTINUOUS
 70
0
 71
3
 72
11
 73
7
 74
0
 42
0.0000001
 43
0.0000001
 44
0.0000000001
 40
0.0
 40
0.0
 40
0.0
 40
0.0
 40
0.2177453777
 40
0.4509713358
 40
0.7102326777
 40
1.0
 40
1.0
 40
1.0
 40
1.0
 10
109.8360834759
 20
46.8905205969
 30
0.0
 10
109.71527538
 20
46.8212912883
 30
0.0
 10
109.437891715
 20
46.7214528394
 30
0.0
 10
108.9776769618
 20
46.7107652156
 30
0.0
 10
108.4872121219
 20
46.8294915052
 30
0.0
 10
108.1681834569
 20
46.9814967945
 30
0.0
 10
108.0077255031
 20
47.0741614974
 30
0.0
  0
SPLINE
  5
631
100
AcDbEntity
  8
3_ALL_AXES
100
AcDbSpline
 62
7
  6
CONTINUOUS
 70
0
 71
3
 72
11
 73
7
 74
0
 42
0.0000001
 43
0.0000001
 44
0.0000000001
 40
0.0
 40
0.0
 40
0.0
 40
0.0
 40
0.2177496934
 40
0.4509337757
 40
0.710181307
 40
1.0
 40
1.0
 40
1.0
 40
1.0
 10
109.7308064899
 20
47.0794737287
 30
0.0
 10
109.61711251
 20
47.0139151364
 30
0.0
 10
109.3558810316
 20
46.9191933561
 30
0.0
 10
108.9221158274
 20
46.9085174799
 30
0.0
 10
108.4597402274
 20
47.0201335883
 30
0.0
 10
108.1589914604
 20
47.1633767679
 30
0.0
 10
108.0077255031
 20
47.2507330794
 30
0.0
  0
SPLINE
  5
632
100
AcDbEntity
  8
0
100
AcDbSpline
 62
7
  6
CONTINUOUS
 70
0
 71
3
 72
14
 73
10
 74
0
 42
0.0000001
 43
0.0000001
 44
0.0000000001
 40
0.0
 40
0.0
 40
0.0
 40
0.0
 40
0.3211856737
 40
0.4905819873
 40
0.6446331216
 40
0.77025273
 40
0.8608385225
 40
0.9257888923
 40
1.0
 40
1.0
 40
1.0
 40
1.0
 10
112.590696315
 20
45.5100208284
 30
0.0
 10
112.5906963117
 20
45.4321031899
 30
0.0
 10
112.568839893
 20
45.3129459492
 30
0.0
 10
112.5165064355
 20
45.1656575341
 30
0.0
 10
112.4669615082
 20
45.0678039128
 30
0.0
 10
112.4129287075
 20
44.9962303195
 30
0.0
 10
112.3587670593
 20
44.9506680697
 30
0.0
 10
112.2962107471
 20
44.9506490443
 30
0.0
 10
112.2752868208
 20
44.9827853558
 30
0.0
 10
112.2679515732
 20
44.9992263898
 30
0.0
  0
SPLINE
  5
633
100
AcDbEntity
  8
3_AXES_OTHER
100
AcDbSpline
 62
7
  6
CONTINUOUS
 70
0
 71
3
 72
9
 73
5
 74
0
 42
0.0000001
 43
0.0000001
 44
0.0000000001
 40
0.0
 40
0.0
 40
0.0
 40
0.0
 40
0.2545100833
 40
1.0
 40
1.0
 40
1.0
 40
1.0
 10
107.4667287358
 20
60.4909723276
 30
0.0
 10
107.4520873474
 20
60.4994277508
 30
0.0
 10
107.3849063071
 20
60.5164885604
 30
0.0
 10
107.319105994
 20
60.4852813075
 30
0.0
 10
107.2762196482
 20
60.4605143801
 30
0.0
  0
SPLINE
  5
634
100
AcDbEntity
  8
0
100
AcDbSpline
 62
7
  6
CONTINUOUS
 70
0
 71
3
 72
14
 73
10
 74
0
 42
0.0000001
 43
0.0000001
 44
0.0000000001
 40
0.0
 40
0.0
 40
0.0
 40
0.0
 40
0.3211858053
 40
0.4905820776
 40
0.644633128
 40
0.7702526856
 40
0.8608384317
 40
0.9257888005
 40
1.0
 40
1.0
 40
1.0
 40
1.0
 10
112.590696315
 20
58.9070392731
 30
0.0
 10
112.5906963253
 20
58.8291215847
 30
0.0
 10
112.568839863
 20
58.7099642959
 30
0.0
 10
112.5165063866
 20
58.5626758493
 30
0.0
 10
112.4669614419
 20
58.4648222544
 30
0.0
 10
112.4129286422
 20
58.393248694
 30
0.0
 10
112.3587669711
 20
58.3476864659
 30
0.0
 10
112.2962106224
 20
58.347667537
 30
0.0
 10
112.2752867425
 20
58.3798039243
 30
0.0
 10
112.2679515104
 20
58.3962449941
 30
0.0
  0
SPLINE
  5
635
100
AcDbEntity
  8
3_AXES_OTHER
100
AcDbSpline
 62
7
  6
CONTINUOUS
 70
0
 71
3
 72
9
 73
5
 74
0
 42
0.0000001
 43
0.0000001
 44
0.0000000001
 40
0.0
 40
0.0
 40
0.0
 40
0.0
 40
0.5517822836
 40
1.0
 40
1.0
 40
1.0
 40
1.0
 10
107.273306591
 20
60.4588320853
 30
0.0
 10
107.2558767066
 20
60.4487663016
 30
0.0
 10
107.2263391352
 20
60.4302025158
 30
0.0
 10
107.1982555588
 20
60.3988014502
 30
0.0
 10
107.1982555349
 20
60.3824516076
 30
0.0
  0
SPLINE
  5
636
100
AcDbEntity
  8
3_AXES_OTHER
100
AcDbSpline
 62
7
  6
CONTINUOUS
 70
0
 71
3
 72
9
 73
5
 74
0
 42
0.0000001
 43
0.0000001
 44
0.0000000001
 40
0.0
 40
0.0
 40
0.0
 40
0.0
 40
0.508351725
 40
1.0
 40
1.0
 40
1.0
 40
1.0
 10
107.0138454388
 20
60.7525130938
 30
0.0
 10
106.9940731096
 20
60.7639316428
 30
0.0
 10
106.9456371296
 20
60.771989608
 30
0.0
 10
106.9037342549
 20
60.7529157786
 30
0.0
 10
106.8842168197
 20
60.7425861525
 30
0.0
  0
SPLINE
  5
637
100
AcDbEntity
  8
3_AXES_OTHER
100
AcDbSpline
 62
7
  6
CONTINUOUS
 70
0
 71
3
 72
9
 73
5
 74
0
 42
0.0000001
 43
0.0000001
 44
0.0000000001
 40
0.0
 40
0.0
 40
0.0
 40
0.0
 40
0.5519394793
 40
1.0
 40
1.0
 40
1.0
 40
1.0
 10
106.8842168197
 20
60.7425861525
 30
0.0
 10
106.8742662008
 20
60.7373197755
 30
0.0
 10
106.858159686
 20
60.7255021057
 30
0.0
 10
106.8444789765
 20
60.7071472234
 30
0.0
 10
106.8444790079
 20
60.6980078078
 30
0.0
  0
SPLINE
  5
638
100
AcDbEntity
  8
3_AXES_OTHER
100
AcDbSpline
 62
7
  6
CONTINUOUS
 70
0
 71
3
 72
9
 73
5
 74
0
 42
0.0000001
 43
0.0000001
 44
0.0000000001
 40
0.0
 40
0.0
 40
0.0
 40
0.0
 40
0.5476883972
 40
1.0
 40
1.0
 40
1.0
 40
1.0
 10
106.489145571
 20
60.7549916748
 30
0.0
 10
106.4882248505
 20
60.7544599574
 30
0.0
 10
106.4867136987
 20
60.7532890509
 30
0.0
 10
106.4854627793
 20
60.7515540235
 30
0.0
 10
106.4854210384
 20
60.7506769448
 30
0.0
  0
SPLINE
  5
639
100
AcDbEntity
  8
3_ALL_AXES
100
AcDbSpline
 62
7
  6
CONTINUOUS
 70
0
 71
3
 72
8
 73
4
 74
0
 42
0.0000001
 43
0.0000001
 44
0.0000000001
 40
0.0
 40
0.0
 40
0.0
 40
0.0
 40
1.0
 40
1.0
 40
1.0
 40
1.0
 10
106.809099782
 20
60.7803885151
 30
0.0
 10
106.809099782
 20
60.7765044328
 30
0.0
 10
106.8056699992
 20
60.7728638235
 30
0.0
 10
106.8023065056
 20
60.770921401
 30
0.0
  0
SPLINE
  5
63A
100
AcDbEntity
  8
0
100
AcDbSpline
 62
7
  6
CONTINUOUS
 70
0
 71
3
 72
11
 73
7
 74
0
 42
0.0000001
 43
0.0000001
 44
0.0000000001
 40
0.0
 40
0.0
 40
0.0
 40
0.0
 40
0.2754043016
 40
0.500049533
 40
0.724637212
 40
1.0
 40
1.0
 40
1.0
 40
1.0
 10
111.7982088336
 20
63.3257143178
 30
0.0
 10
111.7669557728
 20
63.3437487687
 30
0.0
 10
111.7132518786
 20
63.3848657128
 30
0.0
 10
111.6759424332
 20
63.4799285899
 30
0.0
 10
111.7131783184
 20
63.5750146378
 30
0.0
 10
111.7668562803
 20
63.6161510115
 30
0.0
 10
111.7980984659
 20
63.6341934221
 30
0.0
  0
SPLINE
  5
63B
100
AcDbEntity
  8
3_AXES_OTHER
100
AcDbSpline
 62
7
  6
CONTINUOUS
 70
0
 71
3
 72
8
 73
4
 74
0
 42
0.0000001
 43
0.0000001
 44
0.0000000001
 40
0.0
 40
0.0
 40
0.0
 40
0.0
 40
1.0
 40
1.0
 40
1.0
 40
1.0
 10
106.4100817723
 20
60.8819124067
 30
0.0
 10
106.4100817723
 20
60.8780283244
 30
0.0
 10
106.413511555
 20
60.8743877151
 30
0.0
 10
106.4168750487
 20
60.8724452926
 30
0.0
  0
SPLINE
  5
63C
100
AcDbEntity
  8
3_AXES_OTHER
100
AcDbSpline
 62
7
  6
CONTINUOUS
 70
0
 71
3
 72
9
 73
5
 74
0
 42
0.0000001
 43
0.0000001
 44
0.0000000001
 40
0.0
 40
0.0
 40
0.0
 40
0.0
 40
0.3436275064
 40
1.0
 40
1.0
 40
1.0
 40
1.0
 10
106.6605626704
 20
60.7571152158
 30
0.0
 10
106.6605905728
 20
60.7577015159
 30
0.0
 10
106.6593857513
 20
60.7593488208
 30
0.0
 10
106.65754281
 20
60.7593821454
 30
0.0
 10
106.6564243194
 20
60.7594596925
 30
0.0
  0
SPLINE
  5
63D
100
AcDbEntity
  8
3_AXES_OTHER
100
AcDbSpline
 62
7
  6
CONTINUOUS
 70
0
 71
3
 72
9
 73
5
 74
0
 42
0.0000001
 43
0.0000001
 44
0.0000000001
 40
0.0
 40
0.0
 40
0.0
 40
0.0
 40
0.212920448
 40
1.0
 40
1.0
 40
1.0
 40
1.0
 10
106.9017873409
 20
60.8004132214
 30
0.0
 10
106.9017871975
 20
60.8038036749
 30
0.0
 10
106.8970423349
 20
60.8197335862
 30
0.0
 10
106.8818351158
 20
60.8287492484
 30
0.0
 10
106.8709818297
 20
60.835017037
 30
0.0
  0
SPLINE
  5
63E
100
AcDbEntity
  8
3_ALL_AXES
100
AcDbSpline
 62
7
  6
CONTINUOUS
 70
0
 71
3
 72
9
 73
5
 74
0
 42
0.0000001
 43
0.0000001
 44
0.0000000001
 40
0.0
 40
0.0
 40
0.0
 40
0.0
 40
0.4907398796
 40
1.0
 40
1.0
 40
1.0
 40
1.0
 10
106.8969543222
 20
60.7860334812
 30
0.0
 10
106.8962932981
 20
60.7869558393
 30
0.0
 10
106.8948570825
 20
60.7887722799
 30
0.0
 10
106.8932858406
 20
60.7904715444
 30
0.0
 10
106.8924593003
 20
60.7913103271
 30
0.0
  0
SPLINE
  5
63F
100
AcDbEntity
  8
3_ALL_AXES
100
AcDbSpline
 62
7
  6
CONTINUOUS
 70
0
 71
3
 72
8
 73
4
 74
0
 42
0.0000001
 43
0.0000001
 44
0.0000000001
 40
0.0
 40
0.0
 40
0.0
 40
0.0
 40
1.0
 40
1.0
 40
1.0
 40
1.0
 10
106.8924593003
 20
60.7913103271
 30
0.0
 10
106.8862377802
 20
60.797623997
 30
0.0
 10
106.8786577394
 20
60.8025569526
 30
0.0
 10
106.8709818297
 20
60.8069898017
 30
0.0
  0
SPLINE
  5
640
100
AcDbEntity
  8
3_AXES_OTHER
100
AcDbSpline
 62
7
  6
CONTINUOUS
 70
0
 71
3
 72
8
 73
4
 74
0
 42
0.0000001
 43
0.0000001
 44
0.0000000001
 40
0.0
 40
0.0
 40
0.0
 40
0.0
 40
1.0
 40
1.0
 40
1.0
 40
1.0
 10
107.3599904619
 20
60.5470698499
 30
0.0
 10
107.3599904619
 20
60.5509539321
 30
0.0
 10
107.3565606791
 20
60.5545945414
 30
0.0
 10
107.3531971855
 20
60.5565369639
 30
0.0
  0
SPLINE
  5
641
100
AcDbEntity
  8
3_AXES_OTHER
100
AcDbSpline
 62
7
  6
CONTINUOUS
 70
0
 71
3
 72
8
 73
4
 74
0
 42
0.0000001
 43
0.0000001
 44
0.0000000001
 40
0.0
 40
0.0
 40
0.0
 40
0.0
 40
1.0
 40
1.0
 40
1.0
 40
1.0
 10
106.9776011538
 20
60.6653996629
 30
0.0
 10
106.9776011538
 20
60.6615155807
 30
0.0
 10
106.9810309366
 20
60.6578749714
 30
0.0
 10
106.9843944302
 20
60.6559325489
 30
0.0
  0
SPLINE
  5
642
100
AcDbEntity
  8
3_AXES_OTHER
100
AcDbSpline
 62
7
  6
CONTINUOUS
 70
0
 71
3
 72
9
 73
5
 74
0
 42
0.0000001
 43
0.0000001
 44
0.0000000001
 40
0.0
 40
0.0
 40
0.0
 40
0.0
 40
0.7051001404
 40
1.0
 40
1.0
 40
1.0
 40
1.0
 10
107.2406859964
 20
60.4913699793
 30
0.0
 10
107.2406859972
 20
60.5009145001
 30
0.0
 10
107.2303833229
 20
60.5133812033
 30
0.0
 10
107.2191528756
 20
60.5203592034
 30
0.0
 10
107.2156960292
 20
60.5223555373
 30
0.0
  0
SPLINE
  5
643
100
AcDbEntity
  8
3_ALL_AXES
100
AcDbSpline
 62
7
  6
CONTINUOUS
 70
0
 71
3
 72
9
 73
5
 74
0
 42
0.0000001
 43
0.0000001
 44
0.0000000001
 40
0.0
 40
0.0
 40
0.0
 40
0.0
 40
0.4921864625
 40
1.0
 40
1.0
 40
1.0
 40
1.0
 10
107.2363033657
 20
60.4768117783
 30
0.0
 10
107.2358014274
 20
60.4775675568
 30
0.0
 10
107.2347185241
 20
60.4790618679
 30
0.0
 10
107.2335300157
 20
60.4804730102
 30
0.0
 10
107.2329039837
 20
60.4811689463
 30
0.0
  0
LINE
  5
644
100
AcDbEntity
  8
3_ALL_AXES
100
AcDbLine
 62
7
  6
CONTINUOUS
 10
107.2329039837
 20
60.4811689463
 11
107.2292414724
 21
60.4848079549
  0
SPLINE
  5
645
100
AcDbEntity
  8
3_ALL_AXES
100
AcDbSpline
 62
7
  6
CONTINUOUS
 70
0
 71
3
 72
8
 73
4
 74
0
 42
0.0000001
 43
0.0000001
 44
0.0000000001
 40
0.0
 40
0.0
 40
0.0
 40
0.0
 40
1.0
 40
1.0
 40
1.0
 40
1.0
 10
107.2292414724
 20
60.4848079549
 30
0.0
 10
107.2251294635
 20
60.4884888135
 30
0.0
 10
107.2204751518
 20
60.4915683517
 30
0.0
 10
107.2156960292
 20
60.494328302
 30
0.0
  0
SPLINE
  5
646
100
AcDbEntity
  8
3_AXES_OTHER
100
AcDbSpline
 62
7
  6
CONTINUOUS
 70
0
 71
3
 72
9
 73
5
 74
0
 42
0.0000001
 43
0.0000001
 44
0.0000000001
 40
0.0
 40
0.0
 40
0.0
 40
0.0
 40
0.258909272
 40
1.0
 40
1.0
 40
1.0
 40
1.0
 10
106.5617705152
 20
61.0135870232
 30
0.0
 10
106.5471544349
 20
61.022027831
 30
0.0
 10
106.4795629761
 20
61.0333686403
 30
0.0
 10
106.4168311613
 20
61.0040960584
 30
0.0
 10
106.3745046313
 20
60.9808047051
 30
0.0
  0
SPLINE
  5
647
100
AcDbEntity
  8
3_ALL_AXES
100
AcDbSpline
 62
7
  6
CONTINUOUS
 70
0
 71
3
 72
8
 73
4
 74
0
 42
0.0000001
 43
0.0000001
 44
0.0000000001
 40
0.0
 40
0.0
 40
0.0
 40
0.0
 40
1.0
 40
1.0
 40
1.0
 40
1.0
 10
107.1064622362
 20
60.4974279302
 30
0.0
 10
107.1064622362
 20
60.493543848
 30
0.0
 10
107.1030324535
 20
60.4899032387
 30
0.0
 10
107.0996689598
 20
60.4879608162
 30
0.0
  0
SPLINE
  5
648
100
AcDbEntity
  8
3_AXES_OTHER
100
AcDbSpline
 62
7
  6
CONTINUOUS
 70
0
 71
3
 72
9
 73
5
 74
0
 42
0.0000001
 43
0.0000001
 44
0.0000000001
 40
0.0
 40
0.0
 40
0.0
 40
0.0
 40
0.5473594793
 40
1.0
 40
1.0
 40
1.0
 40
1.0
 10
106.3745046313
 20
60.9808047051
 30
0.0
 10
106.356821896
 20
60.9710742869
 30
0.0
 10
106.3280593843
 20
60.9512303005
 30
0.0
 10
106.2975515633
 20
60.9208984455
 30
0.0
 10
106.2975520162
 20
60.9042079179
 30
0.0
  0
SPLINE
  5
649
100
AcDbEntity
  8
3_AXES_OTHER
100
AcDbSpline
 62
7
  6
CONTINUOUS
 70
0
 71
3
 72
8
 73
4
 74
0
 42
0.0000001
 43
0.0000001
 44
0.0000000001
 40
0.0
 40
0.0
 40
0.0
 40
0.0
 40
1.0
 40
1.0
 40
1.0
 40
1.0
 10
107.3135300582
 20
60.3601697005
 30
0.0
 10
107.3135300582
 20
60.3562856183
 30
0.0
 10
107.316959841
 20
60.352645009
 30
0.0
 10
107.3203233346
 20
60.3507025865
 30
0.0
  0
SPLINE
  5
64A
100
AcDbEntity
  8
0
100
AcDbSpline
 62
7
  6
CONTINUOUS
 70
0
 71
3
 72
11
 73
7
 74
0
 42
0.0000001
 43
0.0000001
 44
0.0000000001
 40
0.0
 40
0.0
 40
0.0
 40
0.0
 40
0.2754041964
 40
0.5000493287
 40
0.7246368636
 40
1.0
 40
1.0
 40
1.0
 40
1.0
 10
106.1335887331
 20
62.8165502413
 30
0.0
 10
106.1023357082
 20
62.8345846914
 30
0.0
 10
106.0486318802
 20
62.8757016353
 30
0.0
 10
106.0113225527
 20
62.9707644307
 30
0.0
 10
106.0485583475
 20
63.0658504537
 30
0.0
 10
106.1022363246
 20
63.106986829
 30
0.0
 10
106.1334785393
 20
63.1250292451
 30
0.0
  0
SPLINE
  5
64B
100
AcDbEntity
  8
3_AXES_OTHER
100
AcDbSpline
 62
7
  6
CONTINUOUS
 70
0
 71
3
 72
8
 73
4
 74
0
 42
0.0000001
 43
0.0000001
 44
0.0000000001
 40
0.0
 40
0.0
 40
0.0
 40
0.0
 40
1.0
 40
1.0
 40
1.0
 40
1.0
 10
107.6067652498
 20
60.1797379747
 30
0.0
 10
107.6067652498
 20
60.1836220569
 30
0.0
 10
107.6033354671
 20
60.1872626662
 30
0.0
 10
107.5999719734
 20
60.1892050887
 30
0.0
  0
SPLINE
  5
64C
100
AcDbEntity
  8
3_AXES_OTHER
100
AcDbSpline
 62
7
  6
CONTINUOUS
 70
0
 71
3
 72
8
 73
4
 74
0
 42
0.0000001
 43
0.0000001
 44
0.0000000001
 40
0.0
 40
0.0
 40
0.0
 40
0.0
 40
1.0
 40
1.0
 40
1.0
 40
1.0
 10
106.6568308552
 20
60.7338704635
 30
0.0
 10
106.666294871
 20
60.7284049805
 30
0.0
 10
106.6801532984
 20
60.7284049805
 30
0.0
 10
106.6896173143
 20
60.7338704635
 30
0.0
  0
SPLINE
  5
64D
100
AcDbEntity
  8
3_AXES_OTHER
100
AcDbSpline
 62
7
  6
CONTINUOUS
 70
0
 71
3
 72
8
 73
4
 74
0
 42
0.0000001
 43
0.0000001
 44
0.0000000001
 40
0.0
 40
0.0
 40
0.0
 40
0.0
 40
1.0
 40
1.0
 40
1.0
 40
1.0
 10
107.8014133062
 20
60.2921475118
 30
0.0
 10
107.8014133062
 20
60.2960315941
 30
0.0
 10
107.7979835235
 20
60.2996722034
 30
0.0
 10
107.7946200298
 20
60.3016146259
 30
0.0
  0
SPLINE
  5
64E
100
AcDbEntity
  8
7_ALL_ROUNDS
100
AcDbSpline
 62
7
  6
CONTINUOUS
 70
0
 71
3
 72
9
 73
5
 74
0
 42
0.0000001
 43
0.0000001
 44
0.0000000001
 40
0.0
 40
0.0
 40
0.0
 40
0.0
 40
0.7351264997
 40
1.0
 40
1.0
 40
1.0
 40
1.0
 10
114.9134819971
 20
47.1292313372
 30
0.0
 10
114.9278002612
 20
47.1454609212
 30
0.0
 10
114.9404148735
 20
47.1743437414
 30
0.0
 10
114.9425552338
 20
47.2037072501
 30
0.0
 10
114.9425552338
 20
47.2115053802
 30
0.0
  0
SPLINE
  5
64F
100
AcDbEntity
  8
0
100
AcDbSpline
 62
7
  6
CONTINUOUS
 70
0
 71
3
 72
11
 73
7
 74
0
 42
0.0000001
 43
0.0000001
 44
0.0000000001
 40
0.0
 40
0.0
 40
0.0
 40
0.0
 40
0.2754043016
 40
0.500049533
 40
0.724637212
 40
1.0
 40
1.0
 40
1.0
 40
1.0
 10
109.5129154385
 20
62.0059540406
 30
0.0
 10
109.4816623777
 20
62.0239884915
 30
0.0
 10
109.4279584834
 20
62.0651054356
 30
0.0
 10
109.3906490381
 20
62.1601683127
 30
0.0
 10
109.4278849232
 20
62.2552543606
 30
0.0
 10
109.4815628852
 20
62.2963907342
 30
0.0
 10
109.5128050708
 20
62.3144331449
 30
0.0
  0
SPLINE
  5
650
100
AcDbEntity
  8
3_ALL_AXES
100
AcDbSpline
 62
7
  6
CONTINUOUS
 70
0
 71
3
 72
9
 73
5
 74
0
 42
0.0000001
 43
0.0000001
 44
0.0000000001
 40
0.0
 40
0.0
 40
0.0
 40
0.0
 40
0.2218590415
 40
1.0
 40
1.0
 40
1.0
 40
1.0
 10
108.3347220171
 20
60.1705984163
 30
0.0
 10
108.3347204155
 20
60.1795063982
 30
0.0
 10
108.3277561216
 20
60.2199246068
 30
0.0
 10
108.2944208194
 20
60.2505638168
 30
0.0
 10
108.2676170712
 20
60.2666174445
 30
0.0
  0
SPLINE
  5
651
100
AcDbEntity
  8
3_AXES_OTHER
100
AcDbSpline
 62
7
  6
CONTINUOUS
 70
0
 71
3
 72
8
 73
4
 74
0
 42
0.0000001
 43
0.0000001
 44
0.0000000001
 40
0.0
 40
0.0
 40
0.0
 40
0.0
 40
1.0
 40
1.0
 40
1.0
 40
1.0
 10
106.5860726951
 20
60.8023174316
 30
0.0
 10
106.5827434667
 20
60.8042400659
 30
0.0
 10
106.5753241253
 20
60.8058424895
 30
0.0
 10
106.5745416305
 20
60.8020784509
 30
0.0
  0
SPLINE
  5
652
100
AcDbEntity
  8
0
100
AcDbSpline
 62
7
  6
CONTINUOUS
 70
0
 71
3
 72
11
 73
7
 74
0
 42
0.0000001
 43
0.0000001
 44
0.0000000001
 40
0.0
 40
0.0
 40
0.0
 40
0.0
 40
0.2754043016
 40
0.500049533
 40
0.724637212
 40
1.0
 40
1.0
 40
1.0
 40
1.0
 10
110.9165414954
 20
60.0543880275
 30
0.0
 10
110.8852884346
 20
60.0724224784
 30
0.0
 10
110.8315845403
 20
60.1135394225
 30
0.0
 10
110.794275095
 20
60.2086022996
 30
0.0
 10
110.8315109801
 20
60.3036883475
 30
0.0
 10
110.8851889421
 20
60.3448247211
 30
0.0
 10
110.9164311277
 20
60.3628671318
 30
0.0
  0
SPLINE
  5
653
100
AcDbEntity
  8
3_AXES_OTHER
100
AcDbSpline
 62
7
  6
CONTINUOUS
 70
0
 71
3
 72
8
 73
4
 74
0
 42
0.0000001
 43
0.0000001
 44
0.0000000001
 40
0.0
 40
0.0
 40
0.0
 40
0.0
 40
1.0
 40
1.0
 40
1.0
 40
1.0
 10
107.0996689598
 20
60.5159880514
 30
0.0
 10
107.1030324535
 20
60.5179304739
 30
0.0
 10
107.1064622362
 20
60.5215710832
 30
0.0
 10
107.1064622362
 20
60.5254551654
 30
0.0
  0
SPLINE
  5
654
100
AcDbEntity
  8
3_AXES_OTHER
100
AcDbSpline
 62
7
  6
CONTINUOUS
 70
0
 71
3
 72
8
 73
4
 74
0
 42
0.0000001
 43
0.0000001
 44
0.0000000001
 40
0.0
 40
0.0
 40
0.0
 40
0.0
 40
1.0
 40
1.0
 40
1.0
 40
1.0
 10
107.0504965538
 20
60.5065251431
 30
0.0
 10
107.0599605697
 20
60.5010596601
 30
0.0
 10
107.0738189971
 20
60.5010596601
 30
0.0
 10
107.0832830129
 20
60.5065251431
 30
0.0
  0
SPLINE
  5
655
100
AcDbEntity
  8
3_AXES_OTHER
100
AcDbSpline
 62
7
  6
CONTINUOUS
 70
0
 71
3
 72
8
 73
4
 74
0
 42
0.0000001
 43
0.0000001
 44
0.0000000001
 40
0.0
 40
0.0
 40
0.0
 40
0.0
 40
1.0
 40
1.0
 40
1.0
 40
1.0
 10
106.8023065056
 20
60.7989486363
 30
0.0
 10
106.8056699992
 20
60.8008910588
 30
0.0
 10
106.809099782
 20
60.8045316681
 30
0.0
 10
106.809099782
 20
60.8084157503
 30
0.0
  0
SPLINE
  5
656
100
AcDbEntity
  8
0
100
AcDbSpline
 62
7
  6
CONTINUOUS
 70
0
 71
3
 72
8
 73
4
 74
0
 42
0.0000001
 43
0.0000001
 44
0.0000000001
 40
0.0
 40
0.0
 40
0.0
 40
0.0
 40
1.0
 40
1.0
 40
1.0
 40
1.0
 10
112.3356112545
 20
45.485894557
 30
0.0
 10
112.3364018803
 20
45.4780830681
 30
0.0
 10
112.3367354576
 20
45.470218605
 30
0.0
 10
112.3367354596
 20
45.4623672073
 30
0.0
  0
SPLINE
  5
657
100
AcDbEntity
  8
0
100
AcDbSpline
 62
7
  6
CONTINUOUS
 70
0
 71
3
 72
14
 73
10
 74
0
 42
0.0000001
 43
0.0000001
 44
0.0000000001
 40
0.0
 40
0.0
 40
0.0
 40
0.0
 40
0.2907627501
 40
0.4448118929
 40
0.583877032
 40
0.6984626815
 40
0.7919395999
 40
0.8854057156
 40
1.0
 40
1.0
 40
1.0
 40
1.0
 10
110.9164311277
 20
60.3628671318
 30
0.0
 10
110.9956851659
 20
60.4086364764
 30
0.0
 10
111.1413233988
 20
60.4365310683
 30
0.0
 10
111.3244289212
 20
60.416731184
 30
0.0
 10
111.4464840912
 20
60.3722816217
 30
0.0
 10
111.5352642675
 20
60.3037116373
 30
0.0
 10
111.5726714393
 20
60.2086579476
 30
0.0
 10
111.5353816434
 20
60.1136114128
 30
0.0
 10
111.4817269153
 20
60.0724848487
 30
0.0
 10
111.4504916194
 20
60.0544464169
 30
0.0
  0
SPLINE
  5
658
100
AcDbEntity
  8
0
100
AcDbSpline
 62
7
  6
CONTINUOUS
 70
0
 71
3
 72
14
 73
10
 74
0
 42
0.0000001
 43
0.0000001
 44
0.0000000001
 40
0.0
 40
0.0
 40
0.0
 40
0.0
 40
0.2907627501
 40
0.4448118929
 40
0.583877032
 40
0.6984626815
 40
0.7919395999
 40
0.8854057156
 40
1.0
 40
1.0
 40
1.0
 40
1.0
 10
109.5128050708
 20
62.3144331449
 30
0.0
 10
109.592059109
 20
62.3602024895
 30
0.0
 10
109.7376973419
 20
62.3880970815
 30
0.0
 10
109.9208028643
 20
62.3682971971
 30
0.0
 10
110.0428580343
 20
62.3238476349
 30
0.0
 10
110.1316382106
 20
62.2552776504
 30
0.0
 10
110.1690453824
 20
62.1602239607
 30
0.0
 10
110.1317555865
 20
62.0651774259
 30
0.0
 10
110.0781008584
 20
62.0240508618
 30
0.0
 10
110.0468655625
 20
62.00601243
 30
0.0
  0
SPLINE
  5
659
100
AcDbEntity
  8
0
100
AcDbSpline
 62
7
  6
CONTINUOUS
 70
0
 71
3
 72
9
 73
5
 74
0
 42
0.0000001
 43
0.0000001
 44
0.0000000001
 40
0.0
 40
0.0
 40
0.0
 40
0.0
 40
0.2209090498
 40
1.0
 40
1.0
 40
1.0
 40
1.0
 10
106.2116966592
 20
62.8166677888
 30
0.0
 10
106.2116912109
 20
62.8238588166
 30
0.0
 10
106.2174945192
 20
62.8566385294
 30
0.0
 10
106.2450318646
 20
62.8810912962
 30
0.0
 10
106.2669936623
 20
62.8937742725
 30
0.0
  0
SPLINE
  5
65A
100
AcDbEntity
  8
0
100
AcDbSpline
 62
7
  6
CONTINUOUS
 70
0
 71
3
 72
14
 73
10
 74
0
 42
0.0000001
 43
0.0000001
 44
0.0000000001
 40
0.0
 40
0.0
 40
0.0
 40
0.0
 40
0.2907626318
 40
0.444811823
 40
0.5838769785
 40
0.6984626327
 40
0.7919395284
 40
0.8854055754
 40
1.0
 40
1.0
 40
1.0
 40
1.0
 10
106.1334785393
 20
63.1250292451
 30
0.0
 10
106.2127325583
 20
63.1707985499
 30
0.0
 10
106.3583707434
 20
63.19869319
 30
0.0
 10
106.5414762579
 20
63.1788933131
 30
0.0
 10
106.6635314516
 20
63.1344437619
 30
0.0
 10
106.7523116475
 20
63.0658737932
 30
0.0
 10
106.7897188184
 20
62.97082015
 30
0.0
 10
106.7524291393
 20
62.8757735628
 30
0.0
 10
106.6987743703
 20
62.8346469757
 30
0.0
 10
106.6675390311
 20
62.8166085302
 30
0.0
  0
SPLINE
  5
65B
100
AcDbEntity
  8
0
100
AcDbSpline
 62
7
  6
CONTINUOUS
 70
0
 71
3
 72
9
 73
5
 74
0
 42
0.0000001
 43
0.0000001
 44
0.0000000001
 40
0.0
 40
0.0
 40
0.0
 40
0.0
 40
0.2209091381
 40
1.0
 40
1.0
 40
1.0
 40
1.0
 10
111.8763165828
 20
63.3258319728
 30
0.0
 10
111.8763111406
 20
63.3330230028
 30
0.0
 10
111.8821144633
 20
63.3658027069
 30
0.0
 10
111.9096517921
 20
63.3902554817
 30
0.0
 10
111.9316135888
 20
63.4029384495
 30
0.0
  0
SPLINE
  5
65C
100
AcDbEntity
  8
0
100
AcDbSpline
 62
7
  6
CONTINUOUS
 70
0
 71
3
 72
14
 73
10
 74
0
 42
0.0000001
 43
0.0000001
 44
0.0000000001
 40
0.0
 40
0.0
 40
0.0
 40
0.0
 40
0.2907627501
 40
0.4448118929
 40
0.583877032
 40
0.6984626815
 40
0.7919395999
 40
0.8854057156
 40
1.0
 40
1.0
 40
1.0
 40
1.0
 10
111.7980984659
 20
63.6341934221
 30
0.0
 10
111.8773525041
 20
63.6799627668
 30
0.0
 10
112.022990737
 20
63.7078573587
 30
0.0
 10
112.2060962594
 20
63.6880574743
 30
0.0
 10
112.3281514294
 20
63.6436079121
 30
0.0
 10
112.4169316057
 20
63.5750379276
 30
0.0
 10
112.4543387776
 20
63.4799842379
 30
0.0
 10
112.4170489816
 20
63.3849377031
 30
0.0
 10
112.3633942535
 20
63.343811139
 30
0.0
 10
112.3321589576
 20
63.3257727072
 30
0.0
  0
SPLINE
  5
65D
100
AcDbEntity
  8
0
100
AcDbSpline
 62
7
  6
CONTINUOUS
 70
0
 71
3
 72
9
 73
5
 74
0
 42
0.0000001
 43
0.0000001
 44
0.0000000001
 40
0.0
 40
0.0
 40
0.0
 40
0.0
 40
0.2209091381
 40
1.0
 40
1.0
 40
1.0
 40
1.0
 10
109.5910231877
 20
62.0060716956
 30
0.0
 10
109.5910177455
 20
62.0132627256
 30
0.0
 10
109.5968210681
 20
62.0460424297
 30
0.0
 10
109.624358397
 20
62.0704952045
 30
0.0
 10
109.6463201937
 20
62.0831781723
 30
0.0
  0
SPLINE
  5
65E
100
AcDbEntity
  8
0
100
AcDbSpline
 62
7
  6
CONTINUOUS
 70
0
 71
3
 72
9
 73
5
 74
0
 42
0.0000001
 43
0.0000001
 44
0.0000000001
 40
0.0
 40
0.0
 40
0.0
 40
0.0
 40
0.2209091381
 40
1.0
 40
1.0
 40
1.0
 40
1.0
 10
110.9946492446
 20
60.0545056825
 30
0.0
 10
110.9946438024
 20
60.0616967125
 30
0.0
 10
111.000447125
 20
60.0944764166
 30
0.0
 10
111.0279844539
 20
60.1189291914
 30
0.0
 10
111.0499462506
 20
60.1316121592
 30
0.0
  0
SPLINE
  5
65F
100
AcDbEntity
  8
7_ALL_ROUNDS
100
AcDbSpline
 62
7
  6
CONTINUOUS
 70
0
 71
3
 72
9
 73
5
 74
0
 42
0.0000001
 43
0.0000001
 44
0.0000000001
 40
0.0
 40
0.0
 40
0.0
 40
0.0
 40
0.2321296489
 40
1.0
 40
1.0
 40
1.0
 40
1.0
 10
111.0836881496
 20
65.0112821145
 30
0.0
 10
111.0654634269
 20
65.0218069185
 30
0.0
 10
110.9807924525
 20
65.055734671
 30
0.0
 10
110.8834033238
 20
65.0553621767
 30
0.0
 10
110.81661749
 20
65.0357103322
 30
0.0
  0
SPLINE
  5
660
100
AcDbEntity
  8
7_ALL_ROUNDS
100
AcDbSpline
 62
7
  6
CONTINUOUS
 70
0
 71
3
 72
10
 73
6
 74
0
 42
0.0000001
 43
0.0000001
 44
0.0000000001
 40
0.0
 40
0.0
 40
0.0
 40
0.0
 40
0.2458584817
 40
0.4711669752
 40
1.0
 40
1.0
 40
1.0
 40
1.0
 10
114.7590219214
 20
62.7589660085
 30
0.0
 10
114.7690233496
 20
62.7703017316
 30
0.0
 10
114.7849119448
 20
62.7960731491
 30
0.0
 10
114.7847665126
 20
62.860853715
 30
0.0
 10
114.7448802594
 20
62.8969383177
 30
0.0
 10
114.7167220844
 20
62.913199705
 30
0.0
  0
SPLINE
  5
661
100
AcDbEntity
  8
0
100
AcDbSpline
 62
7
  6
CONTINUOUS
 70
0
 71
3
 72
8
 73
4
 74
0
 42
0.0000001
 43
0.0000001
 44
0.0000000001
 40
0.0
 40
0.0
 40
0.0
 40
0.0
 40
1.0
 40
1.0
 40
1.0
 40
1.0
 10
112.3356112626
 20
58.8829129936
 30
0.0
 10
112.3364018863
 20
58.8751015074
 30
0.0
 10
112.3367354603
 20
58.8672370469
 30
0.0
 10
112.3367354596
 20
58.8593856519
 30
0.0
  0
SPLINE
  5
662
100
AcDbEntity
  8
0
100
AcDbSpline
 62
7
  6
CONTINUOUS
 70
0
 71
3
 72
9
 73
5
 74
0
 42
0.0000001
 43
0.0000001
 44
0.0000000001
 40
0.0
 40
0.0
 40
0.0
 40
0.0
 40
0.7438132938
 40
1.0
 40
1.0
 40
1.0
 40
1.0
 10
103.5226808384
 20
47.2027593217
 30
0.0
 10
103.5226808384
 20
47.1438934578
 30
0.0
 10
103.5350893996
 20
47.064135087
 30
0.0
 10
103.5618325567
 20
46.9896218062
 30
0.0
 10
103.5695186167
 20
46.9708603768
 30
0.0
  0
SPLINE
  5
663
100
AcDbEntity
  8
0
100
AcDbSpline
 62
7
  6
CONTINUOUS
 70
0
 71
3
 72
9
 73
5
 74
0
 42
0.0000001
 43
0.0000001
 44
0.0000000001
 40
0.0
 40
0.0
 40
0.0
 40
0.0
 40
0.2356340282
 40
1.0
 40
1.0
 40
1.0
 40
1.0
 10
103.5695186167
 20
46.9708603768
 30
0.0
 10
103.5801080867
 20
46.9450118153
 30
0.0
 10
103.6318440716
 20
46.8380893139
 30
0.0
 10
103.7085694208
 20
46.7444086462
 30
0.0
 10
103.7740823322
 20
46.681808696
 30
0.0
  0
SPLINE
  5
664
100
AcDbEntity
  8
7_ALL_ROUNDS
100
AcDbSpline
 62
7
  6
CONTINUOUS
 70
0
 71
3
 72
9
 73
5
 74
0
 42
0.0000001
 43
0.0000001
 44
0.0000000001
 40
0.0
 40
0.0
 40
0.0
 40
0.0
 40
0.4703658644
 40
1.0
 40
1.0
 40
1.0
 40
1.0
 10
103.5226618405
 20
46.9505142035
 30
0.0
 10
103.5226618205
 20
46.8578908517
 30
0.0
 10
103.5730058101
 20
46.6593014077
 30
0.0
 10
103.6986777746
 20
46.5016153537
 30
0.0
 10
103.7740823322
 20
46.4295635788
 30
0.0
  0
SPLINE
  5
665
100
AcDbEntity
  8
3_ALL_AXES
100
AcDbSpline
 62
7
  6
CONTINUOUS
 70
0
 71
3
 72
15
 73
11
 74
0
 42
0.0000001
 43
0.0000001
 44
0.0000000001
 40
0.0
 40
0.0
 40
0.0
 40
0.0
 40
0.0884279626
 40
0.1909533506
 40
0.3106467797
 40
0.4450940798
 40
0.5885932222
 40
0.7338170979
 40
0.8731538191
 40
1.0
 40
1.0
 40
1.0
 40
1.0
 10
105.5779634705
 20
53.7928863155
 30
0.0
 10
105.3804692824
 20
53.6318071963
 30
0.0
 10
105.0438076231
 20
53.1696508597
 30
0.0
 10
104.8283878978
 20
52.2858038112
 30
0.0
 10
104.8583739129
 20
51.2491132908
 30
0.0
 10
105.1271148058
 20
50.1282235619
 30
0.0
 10
105.6125806369
 20
49.0034925417
 30
0.0
 10
106.2789337228
 20
47.9586974175
 30
0.0
 10
107.0750945715
 20
47.0729576914
 30
0.0
 10
107.6911472979
 20
46.6039512927
 30
0.0
 10
108.0077255031
 20
46.4211269163
 30
0.0
  0
SPLINE
  5
666
100
AcDbEntity
  8
3_AXES_OTHER
100
AcDbSpline
 62
7
  6
CONTINUOUS
 70
0
 71
3
 72
8
 73
4
 74
0
 42
0.0000001
 43
0.0000001
 44
0.0000000001
 40
0.0
 40
0.0
 40
0.0
 40
0.0
 40
1.0
 40
1.0
 40
1.0
 40
1.0
 10
106.7800386106
 20
60.6627150008
 30
0.0
 10
106.7705745948
 20
60.6681804838
 30
0.0
 10
106.7567161674
 20
60.6681804838
 30
0.0
 10
106.7472521515
 20
60.6627150008
 30
0.0
  0
LINE
  5
667
100
AcDbEntity
  8
3_ALL_AXES
100
AcDbLine
 62
7
  6
CONTINUOUS
 10
106.7798703032
 20
45.1865280822
 11
106.7965835216
 21
45.1768711103
  0
LINE
  5
668
100
AcDbEntity
  8
3_ALL_AXES
100
AcDbLine
 62
7
  6
CONTINUOUS
 10
106.7965835216
 20
45.1768711103
 11
106.8083301953
 21
45.170077764
  0
LINE
  5
669
100
AcDbEntity
  8
3_ALL_AXES
100
AcDbLine
 62
7
  6
CONTINUOUS
 10
106.8083301953
 20
45.170077764
 11
106.8724899899
 21
45.1328841942
  0
LINE
  5
66A
100
AcDbEntity
  8
3_ALL_AXES
100
AcDbLine
 62
7
  6
CONTINUOUS
 10
106.8724899899
 20
45.1328841942
 11
106.9053768132
 21
45.1137613568
  0
LINE
  5
66B
100
AcDbEntity
  8
3_ALL_AXES
100
AcDbLine
 62
7
  6
CONTINUOUS
 10
106.9053768132
 20
45.1137613568
 11
106.9541097332
 21
45.0853514626
  0
LINE
  5
66C
100
AcDbEntity
  8
3_ALL_AXES
100
AcDbLine
 62
7
  6
CONTINUOUS
 10
106.9541097332
 20
45.0853514626
 11
106.9620980715
 21
45.0806861555
  0
LINE
  5
66D
100
AcDbEntity
  8
3_ALL_AXES
100
AcDbLine
 62
7
  6
CONTINUOUS
 10
106.9620980715
 20
45.0806861555
 11
106.9778887971
 21
45.0714572164
  0
LINE
  5
66E
100
AcDbEntity
  8
3_ALL_AXES
100
AcDbLine
 62
7
  6
CONTINUOUS
 10
106.9778887971
 20
45.0714572164
 11
106.9865296821
 21
45.0664031277
  0
LINE
  5
66F
100
AcDbEntity
  8
3_ALL_AXES
100
AcDbLine
 62
7
  6
CONTINUOUS
 10
107.2090319201
 20
44.9353039176
 11
107.2296022403
 21
44.9230900289
  0
LINE
  5
670
100
AcDbEntity
  8
3_ALL_AXES
100
AcDbLine
 62
7
  6
CONTINUOUS
 10
107.2296022403
 20
44.9230900289
 11
107.233272554
 21
44.9209090515
  0
LINE
  5
671
100
AcDbEntity
  8
3_ALL_AXES
100
AcDbLine
 62
7
  6
CONTINUOUS
 10
107.233272554
 20
44.9209090515
 11
107.2411903169
 21
44.9162024145
  0
LINE
  5
672
100
AcDbEntity
  8
3_ALL_AXES
100
AcDbLine
 62
7
  6
CONTINUOUS
 10
107.2411903169
 20
44.9162024145
 11
107.3249698401
 21
44.8662546513
  0
LINE
  5
673
100
AcDbEntity
  8
3_ALL_AXES
100
AcDbLine
 62
7
  6
CONTINUOUS
 10
107.3249698401
 20
44.8662546513
 11
107.3554799213
 21
44.8479986557
  0
LINE
  5
674
100
AcDbEntity
  8
3_ALL_AXES
100
AcDbLine
 62
7
  6
CONTINUOUS
 10
107.3554799213
 20
44.8479986557
 11
107.3873975267
 21
44.8288622922
  0
LINE
  5
675
100
AcDbEntity
  8
3_ALL_AXES
100
AcDbLine
 62
7
  6
CONTINUOUS
 10
107.3873975267
 20
44.8288622922
 11
107.4663395027
 21
44.7813638227
  0
LINE
  5
676
100
AcDbEntity
  8
3_ALL_AXES
100
AcDbLine
 62
7
  6
CONTINUOUS
 10
107.6948272519
 20
44.642518176
 11
107.7062349705
 21
44.6355321777
  0
LINE
  5
677
100
AcDbEntity
  8
3_ALL_AXES
100
AcDbLine
 62
7
  6
CONTINUOUS
 10
107.7062349705
 20
44.6355321777
 11
107.77000987
 21
44.5963815986
  0
LINE
  5
678
100
AcDbEntity
  8
3_ALL_AXES
100
AcDbLine
 62
7
  6
CONTINUOUS
 10
107.77000987
 20
44.5963815986
 11
107.7983263003
 21
44.5789464809
  0
LINE
  5
679
100
AcDbEntity
  8
3_ALL_AXES
100
AcDbLine
 62
7
  6
CONTINUOUS
 10
106.7098104221
 20
45.1288498646
 11
106.7649477027
 21
45.0969227188
  0
LINE
  5
67A
100
AcDbEntity
  8
3_ALL_AXES
100
AcDbLine
 62
7
  6
CONTINUOUS
 10
106.7649477027
 20
45.0969227188
 11
106.8426496331
 21
45.0517406547
  0
LINE
  5
67B
100
AcDbEntity
  8
3_ALL_AXES
100
AcDbLine
 62
7
  6
CONTINUOUS
 10
106.9343396451
 20
44.9981385497
 11
106.9565214228
 21
44.985124214
  0
LINE
  5
67C
100
AcDbEntity
  8
3_ALL_AXES
100
AcDbLine
 62
7
  6
CONTINUOUS
 10
107.1652280644
 20
44.8617704372
 11
107.189435158
 21
44.8473565795
  0
LINE
  5
67D
100
AcDbEntity
  8
3_ALL_AXES
100
AcDbLine
 62
7
  6
CONTINUOUS
 10
107.189435158
 20
44.8473565795
 11
107.2261345794
 21
44.8254616944
  0
LINE
  5
67E
100
AcDbEntity
  8
3_ALL_AXES
100
AcDbLine
 62
7
  6
CONTINUOUS
 10
107.2261345794
 20
44.8254616944
 11
107.2704332102
 21
44.7989644922
  0
LINE
  5
67F
100
AcDbEntity
  8
3_ALL_AXES
100
AcDbLine
 62
7
  6
CONTINUOUS
 10
107.3832161363
 20
44.7311624159
 11
107.4489606695
 21
44.6914109339
  0
LINE
  5
680
100
AcDbEntity
  8
3_ALL_AXES
100
AcDbLine
 62
7
  6
CONTINUOUS
 10
107.4489606695
 20
44.6914109339
 11
107.4530026813
 21
44.6889614856
  0
LINE
  5
681
100
AcDbEntity
  8
3_ALL_AXES
100
AcDbLine
 62
7
  6
CONTINUOUS
 10
107.5844220056
 20
44.6089719653
 11
107.608288548
 21
44.5943721729
  0
LINE
  5
682
100
AcDbEntity
  8
3_ALL_AXES
100
AcDbLine
 62
7
  6
CONTINUOUS
 10
107.608288548
 20
44.5943721729
 11
107.6618275617
 21
44.5615384917
  0
SPLINE
  5
683
100
AcDbEntity
  8
3_ALL_AXES
100
AcDbSpline
 62
7
  6
CONTINUOUS
 70
0
 71
3
 72
9
 73
5
 74
0
 42
0.0000001
 43
0.0000001
 44
0.0000000001
 40
0.0
 40
0.0
 40
0.0
 40
0.0
 40
0.2331235722
 40
1.0
 40
1.0
 40
1.0
 40
1.0
 10
106.500873328
 20
61.2869145395
 30
0.0
 10
106.4818756262
 20
61.2974931734
 30
0.0
 10
106.3944334029
 20
61.3314314483
 30
0.0
 10
106.294457728
 20
61.3307823862
 30
0.0
 10
106.2258369667
 20
61.3105906111
 30
0.0
  0
SPLINE
  5
684
100
AcDbEntity
  8
3_AXES_OTHER
100
AcDbSpline
 62
7
  6
CONTINUOUS
 70
0
 71
3
 72
9
 73
5
 74
0
 42
0.0000001
 43
0.0000001
 44
0.0000000001
 40
0.0
 40
0.0
 40
0.0
 40
0.0
 40
0.504111595
 40
1.0
 40
1.0
 40
1.0
 40
1.0
 10
110.946169969
 20
43.4597346518
 30
0.0
 10
110.7002391085
 20
43.3948237814
 30
0.0
 10
110.1911256703
 20
43.342670906
 30
0.0
 10
109.6850323768
 20
43.4238130828
 30
0.0
 10
109.4481144316
 20
43.5042609354
 30
0.0
  0
SPLINE
  5
685
100
AcDbEntity
  8
7_ALL_ROUNDS
100
AcDbSpline
 62
7
  6
CONTINUOUS
 70
0
 71
3
 72
9
 73
5
 74
0
 42
0.0000001
 43
0.0000001
 44
0.0000000001
 40
0.0
 40
0.0
 40
0.0
 40
0.0
 40
0.2809959712
 40
1.0
 40
1.0
 40
1.0
 40
1.0
 10
103.7740823322
 20
46.4295635788
 30
0.0
 10
103.7740823322
 20
46.4210919531
 30
0.0
 10
103.7760685688
 20
46.3911427632
 30
0.0
 10
103.7887792649
 20
46.3607360907
 30
0.0
 10
103.804389583
 20
46.345695887
 30
0.0
  0
SPLINE
  5
686
100
AcDbEntity
  8
7_ALL_ROUNDS
100
AcDbSpline
 62
7
  6
CONTINUOUS
 70
0
 71
3
 72
9
 73
5
 74
0
 42
0.0000001
 43
0.0000001
 44
0.0000000001
 40
0.0
 40
0.0
 40
0.0
 40
0.0
 40
0.5000000271
 40
1.0
 40
1.0
 40
1.0
 40
1.0
 10
109.3690942475
 20
43.1984360168
 30
0.0
 10
109.6566451389
 20
43.0980729769
 30
0.0
 10
110.2711709872
 20
43.0084076481
 30
0.0
 10
110.8856968305
 20
43.0980729878
 30
0.0
 10
111.1732476906
 20
43.1984360168
 30
0.0
  0
SPLINE
  5
687
100
AcDbEntity
  8
7_ALL_ROUNDS
100
AcDbSpline
 62
7
  6
CONTINUOUS
 70
0
 71
3
 72
9
 73
5
 74
0
 42
0.0000001
 43
0.0000001
 44
0.0000000001
 40
0.0
 40
0.0
 40
0.0
 40
0.0
 40
0.3005467448
 40
1.0
 40
1.0
 40
1.0
 40
1.0
 10
109.3690942475
 20
43.1984360168
 30
0.0
 10
109.3690942475
 20
43.1886413996
 30
0.0
 10
109.3710644608
 20
43.1565554674
 30
0.0
 10
109.3855570068
 20
43.1221311525
 30
0.0
 10
109.4043336544
 20
43.1092068938
 30
0.0
  0
SPLINE
  5
688
100
AcDbEntity
  8
7_ALL_ROUNDS
100
AcDbSpline
 62
7
  6
CONTINUOUS
 70
0
 71
3
 72
9
 73
5
 74
0
 42
0.0000001
 43
0.0000001
 44
0.0000000001
 40
0.0
 40
0.0
 40
0.0
 40
0.0
 40
0.2861405734
 40
1.0
 40
1.0
 40
1.0
 40
1.0
 10
103.9379931182
 20
62.8913497085
 30
0.0
 10
103.9276851953
 20
62.895937686
 30
0.0
 10
103.8908964304
 20
62.9092950215
 30
0.0
 10
103.8463436125
 20
62.9081073213
 30
0.0
 10
103.8219655222
 20
62.8940348016
 30
0.0
  0
SPLINE
  5
689
100
AcDbEntity
  8
0
100
AcDbSpline
 62
7
  6
CONTINUOUS
 70
0
 71
3
 72
9
 73
5
 74
0
 42
0.0000001
 43
0.0000001
 44
0.0000000001
 40
0.0
 40
0.0
 40
0.0
 40
0.0
 40
0.5
 40
1.0
 40
1.0
 40
1.0
 40
1.0
 10
109.3690942475
 20
43.450681134
 30
0.0
 10
109.6566445746
 20
43.350318291
 30
0.0
 10
110.271170969
 20
43.2606745163
 30
0.0
 10
110.8856973635
 20
43.350318291
 30
0.0
 10
111.1732476906
 20
43.450681134
 30
0.0
  0
SPLINE
  5
68A
100
AcDbEntity
  8
7_ALL_ROUNDS
100
AcDbSpline
 62
7
  6
CONTINUOUS
 70
0
 71
3
 72
9
 73
5
 74
0
 42
0.0000001
 43
0.0000001
 44
0.0000000001
 40
0.0
 40
0.0
 40
0.0
 40
0.0
 40
0.2670246645
 40
1.0
 40
1.0
 40
1.0
 40
1.0
 10
103.7740823322
 20
61.754855808
 30
0.0
 10
103.7509685839
 20
61.7769418283
 30
0.0
 10
103.6680798962
 20
61.8632359972
 30
0.0
 10
103.6009503422
 20
61.9659553025
 30
0.0
 10
103.5681251565
 20
62.0473397706
 30
0.0
  0
SPLINE
  5
68B
100
AcDbEntity
  8
7_ALL_ROUNDS
100
AcDbSpline
 62
7
  6
CONTINUOUS
 70
0
 71
3
 72
9
 73
5
 74
0
 42
0.0000001
 43
0.0000001
 44
0.0000000001
 40
0.0
 40
0.0
 40
0.0
 40
0.0
 40
0.2559947963
 40
1.0
 40
1.0
 40
1.0
 40
1.0
 10
103.5681251565
 20
62.0473397706
 30
0.0
 10
103.5606641768
 20
62.0658380015
 30
0.0
 10
103.5347070244
 20
62.1393304083
 30
0.0
 10
103.5226618403
 20
62.2178362156
 30
0.0
 10
103.5226618405
 20
62.2758064337
 30
0.0
  0
SPLINE
  5
68C
100
AcDbEntity
  8
7_ALL_ROUNDS
100
AcDbSpline
 62
7
  6
CONTINUOUS
 70
0
 71
3
 72
9
 73
5
 74
0
 42
0.0000001
 43
0.0000001
 44
0.0000000001
 40
0.0
 40
0.0
 40
0.0
 40
0.0
 40
0.2389400533
 40
1.0
 40
1.0
 40
1.0
 40
1.0
 10
103.7740823322
 20
61.754855808
 30
0.0
 10
103.7740823322
 20
61.778816381
 30
0.0
 10
103.7934940055
 20
61.8780218213
 30
0.0
 10
103.8648080216
 20
61.967823505
 30
0.0
 10
103.9335071319
 20
62.0010631325
 30
0.0
  0
SPLINE
  5
68D
100
AcDbEntity
  8
7_ALL_ROUNDS
100
AcDbSpline
 62
7
  6
CONTINUOUS
 70
0
 71
3
 72
11
 73
7
 74
0
 42
0.0000001
 43
0.0000001
 44
0.0000000001
 40
0.0
 40
0.0
 40
0.0
 40
0.0
 40
0.2644289793
 40
0.5005923287
 40
0.7364115054
 40
1.0
 40
1.0
 40
1.0
 40
1.0
 10
103.9379931182
 20
62.8913497085
 30
0.0
 10
103.87526174
 20
62.8292154265
 30
0.0
 10
103.770960905
 20
62.6935217069
 30
0.0
 10
103.7093225246
 20
62.4467777164
 30
0.0
 10
103.7683493109
 20
62.1996435504
 30
0.0
 10
103.8713921243
 20
62.0634180928
 30
0.0
 10
103.9335071319
 20
62.0010631325
 30
0.0
  0
SPLINE
  5
68E
100
AcDbEntity
  8
7_ALL_ROUNDS
100
AcDbSpline
 62
7
  6
CONTINUOUS
 70
0
 71
3
 72
9
 73
5
 74
0
 42
0.0000001
 43
0.0000001
 44
0.0000000001
 40
0.0
 40
0.0
 40
0.0
 40
0.0
 40
0.3030888411
 40
1.0
 40
1.0
 40
1.0
 40
1.0
 10
104.3627552031
 20
63.1366504336
 30
0.0
 10
104.3563164472
 20
63.1417683597
 30
0.0
 10
104.3344724439
 20
63.1571814216
 30
0.0
 10
104.3046826106
 20
63.1661260615
 30
0.0
 10
104.2865432638
 20
63.1607745928
 30
0.0
  0
SPLINE
  5
68F
100
AcDbEntity
  8
7_ALL_ROUNDS
100
AcDbSpline
 62
7
  6
CONTINUOUS
 70
0
 71
3
 72
9
 73
5
 74
0
 42
0.0000001
 43
0.0000001
 44
0.0000000001
 40
0.0
 40
0.0
 40
0.0
 40
0.0
 40
0.3215046352
 40
1.0
 40
1.0
 40
1.0
 40
1.0
 10
110.81661749
 20
65.0357103322
 30
0.0
 10
110.8121088121
 20
65.0408205148
 30
0.0
 10
110.7976955918
 20
65.0556174433
 30
0.0
 10
110.7761680583
 20
65.0682483175
 30
0.0
 10
110.7619713934
 20
65.0659476038
 30
0.0
  0
SPLINE
  5
690
100
AcDbEntity
  8
7_ALL_ROUNDS
100
AcDbSpline
 62
7
  6
CONTINUOUS
 70
0
 71
3
 72
9
 73
5
 74
0
 42
0.0000001
 43
0.0000001
 44
0.0000000001
 40
0.0
 40
0.0
 40
0.0
 40
0.0
 40
0.2953793198
 40
1.0
 40
1.0
 40
1.0
 40
1.0
 10
111.0836881496
 20
65.0112821145
 30
0.0
 10
111.0927233656
 20
65.0164999649
 30
0.0
 10
111.1240614318
 20
65.0319337723
 30
0.0
 10
111.1651423866
 20
65.0339333515
 30
0.0
 10
111.1866957154
 20
65.0214863322
 30
0.0
  0
SPLINE
  5
691
100
AcDbEntity
  8
7_ALL_ROUNDS
100
AcDbSpline
 62
7
  6
CONTINUOUS
 70
0
 71
3
 72
9
 73
5
 74
0
 42
0.0000001
 43
0.0000001
 44
0.0000000001
 40
0.0
 40
0.0
 40
0.0
 40
0.0
 40
0.2953793212
 40
1.0
 40
1.0
 40
1.0
 40
1.0
 10
114.7167220844
 20
62.913199705
 30
0.0
 10
114.7257573005
 20
62.9184175554
 30
0.0
 10
114.757095367
 20
62.9338513628
 30
0.0
 10
114.7981763221
 20
62.935850942
 30
0.0
 10
114.8197296509
 20
62.9234039224
 30
0.0
  0
SPLINE
  5
692
100
AcDbEntity
  8
7_ALL_ROUNDS
100
AcDbSpline
 62
7
  6
CONTINUOUS
 70
0
 71
3
 72
9
 73
5
 74
0
 42
0.0000001
 43
0.0000001
 44
0.0000000001
 40
0.0
 40
0.0
 40
0.0
 40
0.0
 40
0.5189527509
 40
1.0
 40
1.0
 40
1.0
 40
1.0
 10
114.7590219214
 20
62.7589660085
 30
0.0
 10
114.8090619435
 20
62.7442416474
 30
0.0
 10
114.8967484521
 20
62.6844055618
 30
0.0
 10
114.9425552337
 20
62.5851490115
 30
0.0
 10
114.9425552337
 20
62.5367976092
 30
0.0
  0
SPLINE
  5
693
100
AcDbEntity
  8
7_ALL_ROUNDS
100
AcDbSpline
 62
7
  6
CONTINUOUS
 70
0
 71
3
 72
9
 73
5
 74
0
 42
0.0000001
 43
0.0000001
 44
0.0000000001
 40
0.0
 40
0.0
 40
0.0
 40
0.0
 40
0.7629506512
 40
1.0
 40
1.0
 40
1.0
 40
1.0
 10
111.4706148387
 20
59.0318511011
 30
0.0
 10
111.5412058802
 20
59.0022325562
 30
0.0
 10
111.6186657173
 20
58.9160709328
 30
0.0
 10
111.639336847
 20
58.8166804736
 30
0.0
 10
111.639336847
 20
58.7928954153
 30
0.0
  0
SPLINE
  5
694
100
AcDbEntity
  8
3_AXES_OTHER
100
AcDbSpline
 62
7
  6
CONTINUOUS
 70
0
 71
3
 72
8
 73
4
 74
0
 42
0.0000001
 43
0.0000001
 44
0.0000000001
 40
0.0
 40
0.0
 40
0.0
 40
0.0
 40
1.0
 40
1.0
 40
1.0
 40
1.0
 10
106.7308662046
 20
60.6532520925
 30
0.0
 10
106.727502711
 20
60.65130967
 30
0.0
 10
106.7240729282
 20
60.6476690607
 30
0.0
 10
106.7240729282
 20
60.6437849784
 30
0.0
  0
SPLINE
  5
695
100
AcDbEntity
  8
7_ALL_ROUNDS
100
AcDbSpline
 62
7
  6
CONTINUOUS
 70
0
 71
3
 72
9
 73
5
 74
0
 42
0.0000001
 43
0.0000001
 44
0.0000000001
 40
0.0
 40
0.0
 40
0.0
 40
0.0
 40
0.4999999992
 40
1.0
 40
1.0
 40
1.0
 40
1.0
 10
111.1732476906
 20
58.523728246
 30
0.0
 10
110.8856968153
 20
58.4233652117
 30
0.0
 10
110.2711709696
 20
58.3336998772
 30
0.0
 10
109.6566451237
 20
58.4233652114
 30
0.0
 10
109.3690942475
 20
58.523728246
 30
0.0
  0
SPLINE
  5
696
100
AcDbEntity
  8
7_ALL_ROUNDS
100
AcDbSpline
 62
7
  6
CONTINUOUS
 70
0
 71
3
 72
9
 73
5
 74
0
 42
0.0000001
 43
0.0000001
 44
0.0000000001
 40
0.0
 40
0.0
 40
0.0
 40
0.0
 40
0.5085625463
 40
1.0
 40
1.0
 40
1.0
 40
1.0
 10
111.1732476906
 20
58.523728246
 30
0.0
 10
111.1732476906
 20
58.5742908985
 30
0.0
 10
111.1436637809
 20
58.6724497757
 30
0.0
 10
111.0849539011
 20
58.7572518641
 30
0.0
 10
111.0458527537
 20
58.786550376
 30
0.0
  0
SPLINE
  5
697
100
AcDbEntity
  8
7_ALL_ROUNDS
100
AcDbSpline
 62
7
  6
CONTINUOUS
 70
0
 71
3
 72
9
 73
5
 74
0
 42
0.0000001
 43
0.0000001
 44
0.0000000001
 40
0.0
 40
0.0
 40
0.0
 40
0.0
 40
0.5002544923
 40
1.0
 40
1.0
 40
1.0
 40
1.0
 10
109.5042348804
 20
58.7839597123
 30
0.0
 10
109.7511102735
 20
58.7019416479
 30
0.0
 10
110.2754236921
 20
58.6285463334
 30
0.0
 10
110.7995613016
 20
58.7036208734
 30
0.0
 10
111.0458527537
 20
58.786550376
 30
0.0
  0
SPLINE
  5
698
100
AcDbEntity
  8
3_AXES_OTHER
100
AcDbSpline
 62
7
  6
CONTINUOUS
 70
0
 71
3
 72
9
 73
5
 74
0
 42
0.0000001
 43
0.0000001
 44
0.0000000001
 40
0.0
 40
0.0
 40
0.0
 40
0.0
 40
0.5285708026
 40
1.0
 40
1.0
 40
1.0
 40
1.0
 10
103.8668609743
 20
46.7274429678
 30
0.0
 10
103.7994576314
 20
46.7936449684
 30
0.0
 10
103.6873784348
 20
46.9382048755
 30
0.0
 10
103.642824328
 20
47.1184473768
 30
0.0
 10
103.6428218763
 20
47.2027109153
 30
0.0
  0
SPLINE
  5
699
100
AcDbEntity
  8
7_ALL_ROUNDS
100
AcDbSpline
 62
7
  6
CONTINUOUS
 70
0
 71
3
 72
9
 73
5
 74
0
 42
0.0000001
 43
0.0000001
 44
0.0000000001
 40
0.0
 40
0.0
 40
0.0
 40
0.0
 40
0.5060717468
 40
1.0
 40
1.0
 40
1.0
 40
1.0
 10
109.3690942475
 20
58.523728246
 30
0.0
 10
109.3690942475
 20
58.5743512111
 30
0.0
 10
109.4009420328
 20
58.6730685369
 30
0.0
 10
109.4635544212
 20
58.7559191327
 30
0.0
 10
109.5042348804
 20
58.7839597123
 30
0.0
  0
SPLINE
  5
69A
100
AcDbEntity
  8
7_ALL_ROUNDS
100
AcDbSpline
 62
7
  6
CONTINUOUS
 70
0
 71
3
 72
9
 73
5
 74
0
 42
0.0000001
 43
0.0000001
 44
0.0000000001
 40
0.0
 40
0.0
 40
0.0
 40
0.0
 40
0.2716811643
 40
1.0
 40
1.0
 40
1.0
 40
1.0
 10
114.9425552338
 20
62.5367976094
 30
0.0
 10
114.9500618902
 20
62.5453057321
 30
0.0
 10
114.9755493579
 20
62.578321498
 30
0.0
 10
114.9900781376
 20
62.6206912306
 30
0.0
 10
114.9900772604
 20
62.6511081667
 30
0.0
  0
SPLINE
  5
69B
100
AcDbEntity
  8
0
100
AcDbSpline
 62
7
  6
CONTINUOUS
 70
0
 71
3
 72
11
 73
7
 74
0
 42
0.0000001
 43
0.0000001
 44
0.0000000001
 40
0.0
 40
0.0
 40
0.0
 40
0.0
 40
0.2108747639
 40
0.3943581034
 40
0.6480189046
 40
1.0
 40
1.0
 40
1.0
 40
1.0
 10
112.4633875721
 20
45.6636310011
 30
0.0
 10
112.4783187351
 20
45.6733982831
 30
0.0
 10
112.5126862892
 20
45.6889942374
 30
0.0
 10
112.5649855453
 20
45.656751019
 30
0.0
 10
112.5863557328
 20
45.5907066804
 30
0.0
 10
112.5906963189
 20
45.5398018742
 30
0.0
 10
112.590696315
 20
45.5100208284
 30
0.0
  0
LINE
  5
69C
100
AcDbEntity
  8
7_ALL_ROUNDS
100
AcDbLine
 62
7
  6
CONTINUOUS
 10
103.8549706959
 20
46.3903398847
 11
103.7740823322
 21
46.4295635788
  0
LINE
  5
69D
100
AcDbEntity
  8
7_ALL_ROUNDS
100
AcDbLine
 62
7
  6
CONTINUOUS
 10
107.9650943814
 20
44.121128175
 11
107.9060497753
 21
44.1580568497
  0
SPLINE
  5
69E
100
AcDbEntity
  8
7_ALL_ROUNDS
100
AcDbSpline
 62
7
  6
CONTINUOUS
 70
0
 71
3
 72
8
 73
4
 74
0
 42
0.0000001
 43
0.0000001
 44
0.0000000001
 40
0.0
 40
0.0
 40
0.0
 40
0.0
 40
1.0
 40
1.0
 40
1.0
 40
1.0
 10
111.1358203314
 20
43.1071965321
 30
0.0
 10
111.1405634568
 20
43.1099342313
 30
0.0
 10
111.1449115875
 20
43.1134532032
 30
0.0
 10
111.148663651
 20
43.1174424706
 30
0.0
  0
SPLINE
  5
69F
100
AcDbEntity
  8
7_ALL_ROUNDS
100
AcDbSpline
 62
7
  6
CONTINUOUS
 70
0
 71
3
 72
9
 73
5
 74
0
 42
0.0000001
 43
0.0000001
 44
0.0000000001
 40
0.0
 40
0.0
 40
0.0
 40
0.0
 40
0.2109784448
 40
1.0
 40
1.0
 40
1.0
 40
1.0
 10
111.148663651
 20
43.1174424706
 30
0.0
 10
111.1527998312
 20
43.1218401384
 30
0.0
 10
111.1692831697
 20
43.1456610606
 30
0.0
 10
111.1732476906
 20
43.1758580689
 30
0.0
 10
111.1732476906
 20
43.1984360168
 30
0.0
  0
LINE
  5
6A0
100
AcDbEntity
  8
7_ALL_ROUNDS
100
AcDbLine
 62
7
  6
CONTINUOUS
 10
105.5536334082
 20
45.5214494786
 11
105.4626014837
 21
45.5703003595
  0
SPLINE
  5
6A1
100
AcDbEntity
  8
3_ALL_AXES
100
AcDbSpline
 62
7
  6
CONTINUOUS
 70
0
 71
3
 72
9
 73
5
 74
0
 42
0.0000001
 43
0.0000001
 44
0.0000000001
 40
0.0
 40
0.0
 40
0.0
 40
0.0
 40
0.2714109691
 40
1.0
 40
1.0
 40
1.0
 40
1.0
 10
108.2780256084
 20
60.116784375
 30
0.0
 10
108.2815557234
 20
60.1207854442
 30
0.0
 10
108.2935468396
 20
60.1363316126
 30
0.0
 10
108.3003942703
 20
60.1562737653
 30
0.0
 10
108.3003916949
 20
60.170597326
 30
0.0
  0
SPLINE
  5
6A2
100
AcDbEntity
  8
7_ALL_ROUNDS
100
AcDbSpline
 62
7
  6
CONTINUOUS
 70
0
 71
3
 72
9
 73
5
 74
0
 42
0.0000001
 43
0.0000001
 44
0.0000000001
 40
0.0
 40
0.0
 40
0.0
 40
0.0
 40
0.2371095922
 40
1.0
 40
1.0
 40
1.0
 40
1.0
 10
114.9900772604
 20
47.3258159376
 30
0.0
 10
114.9900775464
 20
47.3159015403
 30
0.0
 10
114.9858313905
 20
47.2740235294
 30
0.0
 10
114.9636596058
 20
47.2354252957
 30
0.0
 10
114.9425552338
 20
47.2115053802
 30
0.0
  0
LINE
  5
6A3
100
AcDbEntity
  8
3_ALL_AXES
100
AcDbLine
 62
7
  6
CONTINUOUS
 10
106.0683626071
 20
53.4244748342
 11
106.0654287635
 21
53.422777855
  0
SPLINE
  5
6A4
100
AcDbEntity
  8
3_ALL_AXES
100
AcDbSpline
 62
7
  6
CONTINUOUS
 70
0
 71
3
 72
11
 73
7
 74
0
 42
0.0000001
 43
0.0000001
 44
0.0000000001
 40
0.0
 40
0.0
 40
0.0
 40
0.0
 40
0.2222937695
 40
0.4574845502
 40
0.715077038
 40
1.0
 40
1.0
 40
1.0
 40
1.0
 10
106.0654287635
 20
53.422777855
 30
0.0
 10
105.9511596668
 20
53.3564831045
 30
0.0
 10
105.7362322674
 20
53.182069235
 30
0.0
 10
105.4947353799
 20
52.8264059074
 30
0.0
 10
105.3345804739
 20
52.388875422
 30
0.0
 10
105.285894289
 20
52.0681201209
 30
0.0
 10
105.2735502816
 20
51.8992429663
 30
0.0
  0
LINE
  5
6A5
100
AcDbEntity
  8
3_ALL_AXES
100
AcDbLine
 62
7
  6
CONTINUOUS
 10
105.2735502816
 20
51.8992429663
 11
105.2733814895
 21
51.8969222392
  0
SPLINE
  5
6A6
100
AcDbEntity
  8
3_ALL_AXES
100
AcDbSpline
 62
7
  6
CONTINUOUS
 70
0
 71
3
 72
9
 73
5
 74
0
 42
0.0000001
 43
0.0000001
 44
0.0000000001
 40
0.0
 40
0.0
 40
0.0
 40
0.0
 40
0.243453931
 40
1.0
 40
1.0
 40
1.0
 40
1.0
 10
105.2733814895
 20
51.8969222392
 30
0.0
 10
105.2708235741
 20
51.8615774854
 30
0.0
 10
105.262703474
 20
51.7162290577
 30
0.0
 10
105.2638824052
 20
51.5704030606
 30
0.0
 10
105.2693207255
 20
51.4604144636
 30
0.0
  0
SPLINE
  5
6A7
100
AcDbEntity
  8
3_ALL_AXES
100
AcDbSpline
 62
7
  6
CONTINUOUS
 70
0
 71
3
 72
9
 73
5
 74
0
 42
0.0000001
 43
0.0000001
 44
0.0000000001
 40
0.0
 40
0.0
 40
0.0
 40
0.0
 40
0.2567786112
 40
1.0
 40
1.0
 40
1.0
 40
1.0
 10
107.5261469285
 20
47.2248895682
 30
0.0
 10
107.5619339961
 20
47.1968566114
 30
0.0
 10
107.7028984927
 20
47.0897491941
 30
0.0
 10
107.8503129229
 20
46.9910328428
 30
0.0
 10
107.9633260706
 20
46.9236472916
 30
0.0
  0
SPLINE
  5
6A8
100
AcDbEntity
  8
7_ALL_ROUNDS
100
AcDbSpline
 62
7
  6
CONTINUOUS
 70
0
 71
3
 72
9
 73
5
 74
0
 42
0.0000001
 43
0.0000001
 44
0.0000000001
 40
0.0
 40
0.0
 40
0.0
 40
0.0
 40
0.4762705863
 40
1.0
 40
1.0
 40
1.0
 40
1.0
 10
107.9807964725
 20
59.7799017703
 30
0.0
 10
107.9490985632
 20
59.7439750291
 30
0.0
 10
107.9046116344
 20
59.6510673273
 30
0.0
 10
107.8811963362
 20
59.55153598
 30
0.0
 10
107.8811963362
 20
59.4988505249
 30
0.0
  0
SPLINE
  5
6A9
100
AcDbEntity
  8
3_AXES_OTHER
100
AcDbSpline
 62
7
  6
CONTINUOUS
 70
0
 71
3
 72
9
 73
5
 74
0
 42
0.0000001
 43
0.0000001
 44
0.0000000001
 40
0.0
 40
0.0
 40
0.0
 40
0.0
 40
0.5041104889
 40
1.0
 40
1.0
 40
1.0
 40
1.0
 10
110.946169969
 20
43.8801431804
 30
0.0
 10
110.7002399326
 20
43.8152325275
 30
0.0
 10
110.1911266704
 20
43.7630918168
 30
0.0
 10
109.6850326312
 20
43.844221525
 30
0.0
 10
109.4481144316
 20
43.924669464
 30
0.0
  0
SPLINE
  5
6AA
100
AcDbEntity
  8
0
100
AcDbSpline
 62
7
  6
CONTINUOUS
 70
0
 71
3
 72
9
 73
5
 74
0
 42
0.0000001
 43
0.0000001
 44
0.0000000001
 40
0.0
 40
0.0
 40
0.0
 40
0.0
 40
0.2437183925
 40
1.0
 40
1.0
 40
1.0
 40
1.0
 10
108.3199014442
 20
44.6723582353
 30
0.0
 10
107.9708175242
 20
44.8949972963
 30
0.0
 10
106.5241327815
 20
45.7858926624
 30
0.0
 10
105.0232368401
 20
46.587933834
 30
0.0
 10
103.8668609743
 20
47.1478514964
 30
0.0
  0
SPLINE
  5
6AB
100
AcDbEntity
  8
7_ALL_ROUNDS
100
AcDbSpline
 62
7
  6
CONTINUOUS
 70
0
 71
3
 72
9
 73
5
 74
0
 42
0.0000001
 43
0.0000001
 44
0.0000000001
 40
0.0
 40
0.0
 40
0.0
 40
0.0
 40
0.2602149552
 40
1.0
 40
1.0
 40
1.0
 40
1.0
 10
105.6312937267
 20
61.1356452566
 30
0.0
 10
105.6056497723
 20
61.1280994797
 30
0.0
 10
105.5129387658
 20
61.0855812483
 30
0.0
 10
105.4357592209
 20
60.9859413497
 30
0.0
 10
105.4357592209
 20
60.909945486
 30
0.0
  0
SPLINE
  5
6AC
100
AcDbEntity
  8
3_AXES_OTHER
100
AcDbSpline
 62
7
  6
CONTINUOUS
 70
0
 71
3
 72
9
 73
5
 74
0
 42
0.0000001
 43
0.0000001
 44
0.0000000001
 40
0.0
 40
0.0
 40
0.0
 40
0.0
 40
0.5285876385
 40
1.0
 40
1.0
 40
1.0
 40
1.0
 10
103.8668609743
 20
47.1478514964
 30
0.0
 10
103.7994362301
 20
47.2140745168
 30
0.0
 10
103.6873136568
 20
47.3586814238
 30
0.0
 10
103.6428223573
 20
47.5389919825
 30
0.0
 10
103.6428257733
 20
47.6232765807
 30
0.0
  0
SPLINE
  5
6AD
100
AcDbEntity
  8
0
100
AcDbSpline
 62
7
  6
CONTINUOUS
 70
0
 71
3
 72
9
 73
5
 74
0
 42
0.0000001
 43
0.0000001
 44
0.0000000001
 40
0.0
 40
0.0
 40
0.0
 40
0.0
 40
0.5151996488
 40
1.0
 40
1.0
 40
1.0
 40
1.0
 10
112.3367354596
 20
45.4623672073
 30
0.0
 10
112.3367354634
 20
45.4173060538
 30
0.0
 10
112.3184486735
 20
45.3306027711
 30
0.0
 10
112.2820693818
 20
45.2487995831
 30
0.0
 10
112.2552016532
 20
45.2159958892
 30
0.0
  0
SPLINE
  5
6AE
100
AcDbEntity
  8
7_ALL_ROUNDS
100
AcDbSpline
 62
7
  6
CONTINUOUS
 70
0
 71
3
 72
8
 73
4
 74
0
 42
0.0000001
 43
0.0000001
 44
0.0000000001
 40
0.0
 40
0.0
 40
0.0
 40
0.0
 40
1.0
 40
1.0
 40
1.0
 40
1.0
 10
107.8811963362
 20
44.1735582957
 30
0.0
 10
107.8811963362
 20
44.1671090961
 30
0.0
 10
107.8814181731
 20
44.160653859
 30
0.0
 10
107.8819205453
 20
44.1542242557
 30
0.0
  0
SPLINE
  5
6AF
100
AcDbEntity
  8
7_ALL_ROUNDS
100
AcDbSpline
 62
7
  6
CONTINUOUS
 70
0
 71
3
 72
8
 73
4
 74
0
 42
0.0000001
 43
0.0000001
 44
0.0000000001
 40
0.0
 40
0.0
 40
0.0
 40
0.0
 40
1.0
 40
1.0
 40
1.0
 40
1.0
 10
107.8819205453
 20
44.1542242557
 30
0.0
 10
107.8826034225
 20
44.1454844618
 30
0.0
 10
107.8837899972
 20
44.1367448459
 30
0.0
 10
107.8858082027
 20
44.1282138924
 30
0.0
  0
SPLINE
  5
6B0
100
AcDbEntity
  8
7_ALL_ROUNDS
100
AcDbSpline
 62
7
  6
CONTINUOUS
 70
0
 71
3
 72
9
 73
5
 74
0
 42
0.0000001
 43
0.0000001
 44
0.0000000001
 40
0.0
 40
0.0
 40
0.0
 40
0.0
 40
0.3051783303
 40
1.0
 40
1.0
 40
1.0
 40
1.0
 10
107.8858082027
 20
44.1282138924
 30
0.0
 10
107.8868976641
 20
44.1236087395
 30
0.0
 10
107.8911838661
 20
44.1088801886
 30
0.0
 10
107.8998554896
 20
44.0942286584
 30
0.0
 10
107.9090033949
 20
44.0885364422
 30
0.0
  0
SPLINE
  5
6B1
100
AcDbEntity
  8
7_ALL_ROUNDS
100
AcDbSpline
 62
7
  6
CONTINUOUS
 70
0
 71
3
 72
8
 73
4
 74
0
 42
0.0000001
 43
0.0000001
 44
0.0000000001
 40
0.0
 40
0.0
 40
0.0
 40
0.0
 40
1.0
 40
1.0
 40
1.0
 40
1.0
 10
105.4371662414
 20
45.5650174062
 30
0.0
 10
105.4385783424
 20
45.5553593119
 30
0.0
 10
105.4411052187
 20
45.5457805018
 30
0.0
 10
105.4448112609
 20
45.5367506586
 30
0.0
  0
SPLINE
  5
6B2
100
AcDbEntity
  8
7_ALL_ROUNDS
100
AcDbSpline
 62
7
  6
CONTINUOUS
 70
0
 71
3
 72
8
 73
4
 74
0
 42
0.0000001
 43
0.0000001
 44
0.0000000001
 40
0.0
 40
0.0
 40
0.0
 40
0.0
 40
1.0
 40
1.0
 40
1.0
 40
1.0
 10
105.4448112609
 20
45.5367506586
 30
0.0
 10
105.4543365306
 20
45.5135421557
 30
0.0
 10
105.4734741408
 20
45.4930390923
 30
0.0
 10
105.495594623
 20
45.4812048354
 30
0.0
  0
SPLINE
  5
6B3
100
AcDbEntity
  8
0
100
AcDbSpline
 62
7
  6
CONTINUOUS
 70
0
 71
3
 72
11
 73
7
 74
0
 42
0.0000001
 43
0.0000001
 44
0.0000000001
 40
0.0
 40
0.0
 40
0.0
 40
0.0
 40
0.2715326382
 40
0.5647282129
 40
0.8163717826
 40
1.0
 40
1.0
 40
1.0
 40
1.0
 10
106.2669936623
 20
62.8937742725
 30
0.0
 10
106.2962017784
 20
62.9106420049
 30
0.0
 10
106.3661751587
 20
62.9297568361
 30
0.0
 10
106.4685053167
 20
62.9235863124
 30
0.0
 10
106.5554217688
 20
62.8910119239
 30
0.0
 10
106.5893036293
 20
62.8394800485
 30
0.0
 10
106.5893209111
 20
62.8166703985
 30
0.0
  0
SPLINE
  5
6B4
100
AcDbEntity
  8
3_ALL_AXES
100
AcDbSpline
 62
7
  6
CONTINUOUS
 70
0
 71
3
 72
8
 73
4
 74
0
 42
0.0000001
 43
0.0000001
 44
0.0000000001
 40
0.0
 40
0.0
 40
0.0
 40
0.0
 40
1.0
 40
1.0
 40
1.0
 40
1.0
 10
107.3203233346
 20
60.3226753512
 30
0.0
 10
107.316959841
 20
60.3246177737
 30
0.0
 10
107.3135300582
 20
60.328258383
 30
0.0
 10
107.3135300582
 20
60.3321424653
 30
0.0
  0
SPLINE
  5
6B5
100
AcDbEntity
  8
3_ALL_AXES
100
AcDbSpline
 62
7
  6
CONTINUOUS
 70
0
 71
3
 72
8
 73
4
 74
0
 42
0.0000001
 43
0.0000001
 44
0.0000000001
 40
0.0
 40
0.0
 40
0.0
 40
0.0
 40
1.0
 40
1.0
 40
1.0
 40
1.0
 10
107.273306591
 20
60.43080485
 30
0.0
 10
107.2629516796
 20
60.4248248736
 30
0.0
 10
107.2527821855
 20
60.4184846783
 30
0.0
 10
107.2430264045
 20
60.4115702698
 30
0.0
  0
SPLINE
  5
6B6
100
AcDbEntity
  8
3_ALL_AXES
100
AcDbSpline
 62
7
  6
CONTINUOUS
 70
0
 71
3
 72
8
 73
4
 74
0
 42
0.0000001
 43
0.0000001
 44
0.0000000001
 40
0.0
 40
0.0
 40
0.0
 40
0.0
 40
1.0
 40
1.0
 40
1.0
 40
1.0
 10
107.2430264045
 20
60.4115702698
 30
0.0
 10
107.2346944949
 20
60.4056650299
 30
0.0
 10
107.2265855768
 20
60.3993443528
 30
0.0
 10
107.2192975287
 20
60.3921905475
 30
0.0
  0
SPLINE
  5
6B7
100
AcDbEntity
  8
3_ALL_AXES
100
AcDbSpline
 62
7
  6
CONTINUOUS
 70
0
 71
3
 72
8
 73
4
 74
0
 42
0.0000001
 43
0.0000001
 44
0.0000000001
 40
0.0
 40
0.0
 40
0.0
 40
0.0
 40
1.0
 40
1.0
 40
1.0
 40
1.0
 10
107.2192975287
 20
60.3921905475
 30
0.0
 10
107.2133500078
 20
60.3863525774
 30
0.0
 10
107.2078537613
 20
60.379856393
 30
0.0
 10
107.2037843983
 20
60.3725834854
 30
0.0
  0
SPLINE
  5
6B8
100
AcDbEntity
  8
3_ALL_AXES
100
AcDbSpline
 62
7
  6
CONTINUOUS
 70
0
 71
3
 72
9
 73
5
 74
0
 42
0.0000001
 43
0.0000001
 44
0.0000000001
 40
0.0
 40
0.0
 40
0.0
 40
0.0
 40
0.2545100833
 40
1.0
 40
1.0
 40
1.0
 40
1.0
 10
107.4667287358
 20
60.4629450924
 30
0.0
 10
107.4520873474
 20
60.4714005156
 30
0.0
 10
107.3849063071
 20
60.4884613252
 30
0.0
 10
107.319105994
 20
60.4572540723
 30
0.0
 10
107.2762196482
 20
60.4324871449
 30
0.0
  0
SPLINE
  5
6B9
100
AcDbEntity
  8
0
100
AcDbSpline
 62
7
  6
CONTINUOUS
 70
0
 71
3
 72
11
 73
7
 74
0
 42
0.0000001
 43
0.0000001
 44
0.0000000001
 40
0.0
 40
0.0
 40
0.0
 40
0.0
 40
0.2715327818
 40
0.5647283497
 40
0.816371769
 40
1.0
 40
1.0
 40
1.0
 40
1.0
 10
111.9316135888
 20
63.4029384495
 30
0.0
 10
111.9608217259
 20
63.4198061834
 30
0.0
 10
112.0307951192
 20
63.4389210273
 30
0.0
 10
112.1331252895
 20
63.4327504879
 30
0.0
 10
112.2200416955
 20
63.4001760818
 30
0.0
 10
112.2539235784
 20
63.3486442212
 30
0.0
 10
112.2539408407
 20
63.3258345689
 30
0.0
  0
SPLINE
  5
6BA
100
AcDbEntity
  8
3_ALL_AXES
100
AcDbSpline
 62
7
  6
CONTINUOUS
 70
0
 71
3
 72
9
 73
5
 74
0
 42
0.0000001
 43
0.0000001
 44
0.0000000001
 40
0.0
 40
0.0
 40
0.0
 40
0.0
 40
0.2732407711
 40
1.0
 40
1.0
 40
1.0
 40
1.0
 10
106.8842168197
 20
60.7145589173
 30
0.0
 10
106.8804101192
 20
60.7125442165
 30
0.0
 10
106.8670987697
 20
60.7041969031
 30
0.0
 10
106.8546546738
 20
60.6934967371
 30
0.0
 10
106.8486919308
 20
60.6837153322
 30
0.0
  0
SPLINE
  5
6BB
100
AcDbEntity
  8
3_ALL_AXES
100
AcDbSpline
 62
7
  6
CONTINUOUS
 70
0
 71
3
 72
9
 73
5
 74
0
 42
0.0000001
 43
0.0000001
 44
0.0000000001
 40
0.0
 40
0.0
 40
0.0
 40
0.0
 40
0.508351725
 40
1.0
 40
1.0
 40
1.0
 40
1.0
 10
107.0138454388
 20
60.7244858586
 30
0.0
 10
106.9940731096
 20
60.7359044076
 30
0.0
 10
106.9456371296
 20
60.7439623728
 30
0.0
 10
106.9037342549
 20
60.7248885433
 30
0.0
 10
106.8842168197
 20
60.7145589173
 30
0.0
  0
SPLINE
  5
6BC
100
AcDbEntity
  8
0
100
AcDbSpline
 62
7
  6
CONTINUOUS
 70
0
 71
3
 72
11
 73
7
 74
0
 42
0.0000001
 43
0.0000001
 44
0.0000000001
 40
0.0
 40
0.0
 40
0.0
 40
0.0
 40
0.2715327818
 40
0.5647283497
 40
0.816371769
 40
1.0
 40
1.0
 40
1.0
 40
1.0
 10
109.6463201937
 20
62.0831781723
 30
0.0
 10
109.6755283307
 20
62.1000459062
 30
0.0
 10
109.745501724
 20
62.1191607501
 30
0.0
 10
109.8478318944
 20
62.1129902107
 30
0.0
 10
109.9347483004
 20
62.0804158046
 30
0.0
 10
109.9686301832
 20
62.028883944
 30
0.0
 10
109.9686474456
 20
62.0060742917
 30
0.0
  0
SPLINE
  5
6BD
100
AcDbEntity
  8
3_ALL_AXES
100
AcDbSpline
 62
7
  6
CONTINUOUS
 70
0
 71
3
 72
8
 73
4
 74
0
 42
0.0000001
 43
0.0000001
 44
0.0000000001
 40
0.0
 40
0.0
 40
0.0
 40
0.0
 40
1.0
 40
1.0
 40
1.0
 40
1.0
 10
106.9843944302
 20
60.6279053136
 30
0.0
 10
106.9810309366
 20
60.6298477361
 30
0.0
 10
106.9776011538
 20
60.6334883454
 30
0.0
 10
106.9776011538
 20
60.6373724277
 30
0.0
  0
SPLINE
  5
6BE
100
AcDbEntity
  8
0
100
AcDbSpline
 62
7
  6
CONTINUOUS
 70
0
 71
3
 72
11
 73
7
 74
0
 42
0.0000001
 43
0.0000001
 44
0.0000000001
 40
0.0
 40
0.0
 40
0.0
 40
0.0
 40
0.2715327818
 40
0.5647283497
 40
0.816371769
 40
1.0
 40
1.0
 40
1.0
 40
1.0
 10
111.0499462506
 20
60.1316121592
 30
0.0
 10
111.0791543876
 20
60.148479893
 30
0.0
 10
111.1491277809
 20
60.167594737
 30
0.0
 10
111.2514579513
 20
60.1614241976
 30
0.0
 10
111.3383743573
 20
60.1288497915
 30
0.0
 10
111.3722562401
 20
60.0773179309
 30
0.0
 10
111.3722735025
 20
60.0545082786
 30
0.0
  0
SPLINE
  5
6BF
100
AcDbEntity
  8
3_ALL_AXES
100
AcDbSpline
 62
7
  6
CONTINUOUS
 70
0
 71
3
 72
8
 73
4
 74
0
 42
0.0000001
 43
0.0000001
 44
0.0000000001
 40
0.0
 40
0.0
 40
0.0
 40
0.0
 40
1.0
 40
1.0
 40
1.0
 40
1.0
 10
106.7800386106
 20
60.6346877655
 30
0.0
 10
106.7705745948
 20
60.6401532485
 30
0.0
 10
106.7567161674
 20
60.6401532485
 30
0.0
 10
106.7472521515
 20
60.6346877655
 30
0.0
  0
SPLINE
  5
6C0
100
AcDbEntity
  8
3_ALL_AXES
100
AcDbSpline
 62
7
  6
CONTINUOUS
 70
0
 71
3
 72
8
 73
4
 74
0
 42
0.0000001
 43
0.0000001
 44
0.0000000001
 40
0.0
 40
0.0
 40
0.0
 40
0.0
 40
1.0
 40
1.0
 40
1.0
 40
1.0
 10
107.0832830129
 20
60.4784979079
 30
0.0
 10
107.0738189971
 20
60.4730324249
 30
0.0
 10
107.0599605697
 20
60.4730324249
 30
0.0
 10
107.0504965538
 20
60.4784979079
 30
0.0
  0
SPLINE
  5
6C1
100
AcDbEntity
  8
0
100
AcDbSpline
 62
7
  6
CONTINUOUS
 70
0
 71
3
 72
9
 73
5
 74
0
 42
0.0000001
 43
0.0000001
 44
0.0000000001
 40
0.0
 40
0.0
 40
0.0
 40
0.0
 40
0.5152021773
 40
1.0
 40
1.0
 40
1.0
 40
1.0
 10
112.3367354596
 20
58.8593856519
 30
0.0
 10
112.3367354479
 20
58.8143237289
 30
0.0
 10
112.3184481872
 20
58.727619467
 30
0.0
 10
112.2820680721
 20
58.645815262
 30
0.0
 10
112.2551995848
 20
58.6130118083
 30
0.0
  0
SPLINE
  5
6C2
100
AcDbEntity
  8
3_ALL_AXES
100
AcDbSpline
 62
7
  6
CONTINUOUS
 70
0
 71
3
 72
9
 73
5
 74
0
 42
0.0000001
 43
0.0000001
 44
0.0000000001
 40
0.0
 40
0.0
 40
0.0
 40
0.0
 40
0.2642199952
 40
1.0
 40
1.0
 40
1.0
 40
1.0
 10
106.3745046313
 20
60.9527774698
 30
0.0
 10
106.3692553334
 20
60.9498888973
 30
0.0
 10
106.3497321688
 20
60.9383679706
 30
0.0
 10
106.3313650586
 20
60.9247012916
 30
0.0
 10
106.3193529791
 20
60.91312133
 30
0.0
  0
SPLINE
  5
6C3
100
AcDbEntity
  8
3_ALL_AXES
100
AcDbSpline
 62
7
  6
CONTINUOUS
 70
0
 71
3
 72
8
 73
4
 74
0
 42
0.0000001
 43
0.0000001
 44
0.0000000001
 40
0.0
 40
0.0
 40
0.0
 40
0.0
 40
1.0
 40
1.0
 40
1.0
 40
1.0
 10
106.3193529791
 20
60.91312133
 30
0.0
 10
106.3131230446
 20
60.9071155089
 30
0.0
 10
106.307096735
 20
60.9006501054
 30
0.0
 10
106.3027372385
 20
60.8931750294
 30
0.0
  0
SPLINE
  5
6C4
100
AcDbEntity
  8
3_ALL_AXES
100
AcDbSpline
 62
7
  6
CONTINUOUS
 70
0
 71
3
 72
9
 73
5
 74
0
 42
0.0000001
 43
0.0000001
 44
0.0000000001
 40
0.0
 40
0.0
 40
0.0
 40
0.0
 40
0.258909272
 40
1.0
 40
1.0
 40
1.0
 40
1.0
 10
106.5617705152
 20
60.985559788
 30
0.0
 10
106.5471544349
 20
60.9940005957
 30
0.0
 10
106.4795629761
 20
61.005341405
 30
0.0
 10
106.4168311613
 20
60.9760688232
 30
0.0
 10
106.3745046313
 20
60.9527774698
 30
0.0
  0
SPLINE
  5
6C5
100
AcDbEntity
  8
3_ALL_AXES
100
AcDbSpline
 62
7
  6
CONTINUOUS
 70
0
 71
3
 72
8
 73
4
 74
0
 42
0.0000001
 43
0.0000001
 44
0.0000000001
 40
0.0
 40
0.0
 40
0.0
 40
0.0
 40
1.0
 40
1.0
 40
1.0
 40
1.0
 10
106.6896173143
 20
60.7058432283
 30
0.0
 10
106.6801532984
 20
60.7003777453
 30
0.0
 10
106.666294871
 20
60.7003777453
 30
0.0
 10
106.6568308552
 20
60.7058432283
 30
0.0
  0
LINE
  5
6C6
100
AcDbEntity
  8
3_ALL_AXES
100
AcDbLine
 62
7
  6
CONTINUOUS
 10
108.0077255031
 20
53.1953096738
 11
108.0012082248
 21
53.199064324
  0
SPLINE
  5
6C7
100
AcDbEntity
  8
3_ALL_AXES
100
AcDbSpline
 62
7
  6
CONTINUOUS
 70
0
 71
3
 72
9
 73
5
 74
0
 42
0.0000001
 43
0.0000001
 44
0.0000000001
 40
0.0
 40
0.0
 40
0.0
 40
0.0
 40
0.257325336
 40
1.0
 40
1.0
 40
1.0
 40
1.0
 10
107.9601835525
 20
53.2222819825
 30
0.0
 10
107.9273724198
 20
53.240563682
 30
0.0
 10
107.7987396458
 20
53.309554318
 30
0.0
 10
107.6655266179
 20
53.3701418707
 30
0.0
 10
107.5644037353
 20
53.4092021166
 30
0.0
  0
SPLINE
  5
6C8
100
AcDbEntity
  8
3_ALL_AXES
100
AcDbSpline
 62
7
  6
CONTINUOUS
 70
0
 71
3
 72
10
 73
6
 74
0
 42
0.0000001
 43
0.0000001
 44
0.0000000001
 40
0.0
 40
0.0
 40
0.0
 40
0.0
 40
0.534453679
 40
0.772435032
 40
1.0
 40
1.0
 40
1.0
 40
1.0
 10
107.5644037353
 20
53.4092021166
 30
0.0
 10
107.3121652606
 20
53.5066330502
 30
0.0
 10
106.9181033418
 20
53.5970478621
 30
0.0
 10
106.4117950798
 20
53.5332946903
 30
0.0
 10
106.1904332991
 20
53.4433480047
 30
0.0
 10
106.0906936661
 20
53.3858336038
 30
0.0
  0
SPLINE
  5
6C9
100
AcDbEntity
  8
3_ALL_AXES
100
AcDbSpline
 62
7
  6
CONTINUOUS
 70
0
 71
3
 72
8
 73
4
 74
0
 42
0.0000001
 43
0.0000001
 44
0.0000000001
 40
0.0
 40
0.0
 40
0.0
 40
0.0
 40
1.0
 40
1.0
 40
1.0
 40
1.0
 10
106.4168750487
 20
60.8444180574
 30
0.0
 10
106.413511555
 20
60.8463604799
 30
0.0
 10
106.4100817723
 20
60.8500010892
 30
0.0
 10
106.4100817723
 20
60.8538851714
 30
0.0
  0
SPLINE
  5
6CA
100
AcDbEntity
  8
3_ALL_AXES
100
AcDbSpline
 62
7
  6
CONTINUOUS
 70
0
 71
3
 72
8
 73
4
 74
0
 42
0.0000001
 43
0.0000001
 44
0.0000000001
 40
0.0
 40
0.0
 40
0.0
 40
0.0
 40
1.0
 40
1.0
 40
1.0
 40
1.0
 10
106.5860726951
 20
60.7742901964
 30
0.0
 10
106.5827434667
 20
60.7762128307
 30
0.0
 10
106.5753241253
 20
60.7778152543
 30
0.0
 10
106.5745416305
 20
60.7740512157
 30
0.0
  0
SPLINE
  5
6CB
100
AcDbEntity
  8
3_ALL_AXES
100
AcDbSpline
 62
7
  6
CONTINUOUS
 70
0
 71
3
 72
11
 73
7
 74
0
 42
0.0000001
 43
0.0000001
 44
0.0000000001
 40
0.0
 40
0.0
 40
0.0
 40
0.0
 40
0.2887675744
 40
0.5476102324
 40
0.7812248589
 40
1.0
 40
1.0
 40
1.0
 40
1.0
 10
107.9601800892
 20
53.0456834631
 30
0.0
 10
107.8050578353
 20
53.1319259643
 30
0.0
 10
107.4969260002
 20
53.2727271071
 30
0.0
 10
107.024502083
 20
53.3795282233
 30
0.0
 10
106.5818620779
 20
53.3636732854
 30
0.0
 10
106.3153025372
 20
53.2656874388
 30
0.0
 10
106.1988167906
 20
53.1985165381
 30
0.0
  0
SPLINE
  5
6CC
100
AcDbEntity
  8
3_ALL_AXES
100
AcDbSpline
 62
7
  6
CONTINUOUS
 70
0
 71
3
 72
15
 73
11
 74
0
 42
0.0000001
 43
0.0000001
 44
0.0000000001
 40
0.0
 40
0.0
 40
0.0
 40
0.0
 40
0.1444178608
 40
0.2734531103
 40
0.3893905302
 40
0.4978113601
 40
0.60662973
 40
0.7236379824
 40
0.8540770318
 40
1.0
 40
1.0
 40
1.0
 40
1.0
 10
108.7887403994
 20
51.7629167102
 30
0.0
 10
108.7209065853
 20
51.8020908371
 30
0.0
 10
108.5860159458
 20
51.866162294
 30
0.0
 10
108.378668451
 20
51.9153918635
 30
0.0
 10
108.1842338065
 20
51.9087737689
 30
0.0
 10
108.0118297962
 20
51.8434055858
 30
0.0
 10
107.8726327976
 20
51.7216784059
 30
0.0
 10
107.7737243745
 20
51.552454485
 30
0.0
 10
107.7167388986
 20
51.344937117
 30
0.0
 10
107.7073629736
 20
51.1943447191
 30
0.0
 10
107.7086862926
 20
51.1152065353
 30
0.0
  0
SPLINE
  5
6CD
100
AcDbEntity
  8
3_ALL_AXES
100
AcDbSpline
 62
7
  6
CONTINUOUS
 70
0
 71
3
 72
9
 73
5
 74
0
 42
0.0000001
 43
0.0000001
 44
0.0000000001
 40
0.0
 40
0.0
 40
0.0
 40
0.0
 40
0.519841855
 40
1.0
 40
1.0
 40
1.0
 40
1.0
 10
107.0040416701
 20
53.7418489585
 30
0.0
 10
106.823939418
 20
53.7680575172
 30
0.0
 10
106.4676502418
 20
53.7740409973
 30
0.0
 10
106.1281363078
 20
53.6571002346
 30
0.0
 10
105.982512253
 20
53.5731170556
 30
0.0
  0
SPLINE
  5
6CE
100
AcDbEntity
  8
3_ALL_AXES
100
AcDbSpline
 62
7
  6
CONTINUOUS
 70
0
 71
3
 72
9
 73
5
 74
0
 42
0.0000001
 43
0.0000001
 44
0.0000000001
 40
0.0
 40
0.0
 40
0.0
 40
0.0
 40
0.5198401519
 40
1.0
 40
1.0
 40
1.0
 40
1.0
 10
110.6909794563
 20
47.3573396859
 30
0.0
 10
110.6235671557
 20
47.1880189316
 30
0.0
 10
110.4503387503
 20
46.8760363354
 30
0.0
 10
110.1787620024
 20
46.6403159961
 30
0.0
 10
110.0329387533
 20
46.5562179393
 30
0.0
  0
SPLINE
  5
6CF
100
AcDbEntity
  8
3_ALL_AXES
100
AcDbSpline
 62
7
  6
CONTINUOUS
 70
0
 71
3
 72
11
 73
7
 74
0
 42
0.0000001
 43
0.0000001
 44
0.0000000001
 40
0.0
 40
0.0
 40
0.0
 40
0.0
 40
0.2891462262
 40
0.5481476701
 40
0.7815871623
 40
1.0
 40
1.0
 40
1.0
 40
1.0
 10
110.719116213
 20
48.4627978212
 30
0.0
 10
110.7172020746
 20
48.2723293786
 30
0.0
 10
110.6848536662
 20
47.9102992542
 30
0.0
 10
110.533328087
 20
47.4134863565
 30
0.0
 10
110.2829283403
 20
47.0103500082
 30
0.0
 10
110.0494555895
 20
46.8154168791
 30
0.0
 10
109.9248161613
 20
46.7435353122
 30
0.0
  0
SPLINE
  5
6D0
100
AcDbEntity
  8
3_ALL_AXES
100
AcDbSpline
 62
7
  6
CONTINUOUS
 70
0
 71
3
 72
9
 73
5
 74
0
 42
0.0000001
 43
0.0000001
 44
0.0000000001
 40
0.0
 40
0.0
 40
0.0
 40
0.0
 40
0.2429143397
 40
1.0
 40
1.0
 40
1.0
 40
1.0
 10
108.0077255031
 20
53.0187380917
 30
0.0
 10
108.0423923177
 20
52.9987179556
 30
0.0
 10
108.1836407222
 20
52.9137793638
 30
0.0
 10
108.3190656731
 20
52.8192642013
 30
0.0
 10
108.4181606715
 20
52.7434534938
 30
0.0
  0
SPLINE
  5
6D1
100
AcDbEntity
  8
3_ALL_AXES
100
AcDbSpline
 62
7
  6
CONTINUOUS
 70
0
 71
3
 72
9
 73
5
 74
0
 42
0.0000001
 43
0.0000001
 44
0.0000000001
 40
0.0
 40
0.0
 40
0.0
 40
0.0
 40
0.2551606844
 40
1.0
 40
1.0
 40
1.0
 40
1.0
 10
110.5436022324
 20
48.9932967614
 30
0.0
 10
110.5469740328
 20
48.9623460647
 30
0.0
 10
110.5588083993
 20
48.8409031815
 30
0.0
 10
110.565033315
 20
48.7188953647
 30
0.0
 10
110.5661158809
 20
48.6280191114
 30
0.0
  0
SPLINE
  5
6D2
100
AcDbEntity
  8
3_ALL_AXES
100
AcDbSpline
 62
7
  6
CONTINUOUS
 70
0
 71
3
 72
11
 73
7
 74
0
 42
0.0000001
 43
0.0000001
 44
0.0000000001
 40
0.0
 40
0.0
 40
0.0
 40
0.0
 40
0.2892246901
 40
0.5482546698
 40
0.7816622771
 40
1.0
 40
1.0
 40
1.0
 40
1.0
 10
110.5662284295
 20
48.5571174752
 30
0.0
 10
110.5646316027
 20
48.3769604874
 30
0.0
 10
110.5344342331
 20
48.0345225731
 30
0.0
 10
110.3916337692
 20
47.5645367894
 30
0.0
 10
110.1551863805
 20
47.1831692379
 30
0.0
 10
109.9345113554
 20
46.9988006184
 30
0.0
 10
109.8166936359
 20
46.9308527234
 30
0.0
  0
SPLINE
  5
6D3
100
AcDbEntity
  8
3_ALL_AXES
100
AcDbSpline
 62
7
  6
CONTINUOUS
 70
0
 71
3
 72
18
 73
14
 74
0
 42
0.0000001
 43
0.0000001
 44
0.0000000001
 40
0.0
 40
0.0
 40
0.0
 40
0.0
 40
0.1383542231
 40
0.2916046254
 40
0.4448495329
 40
0.5831792637
 40
0.6436644882
 40
0.697771346
 40
0.7464364957
 40
0.7918874857
 40
0.837343282
 40
0.8860134376
 40
1.0
 40
1.0
 40
1.0
 40
1.0
 10
108.7887403994
 20
51.7629167102
 30
0.0
 10
108.9420960154
 20
51.6743536178
 30
0.0
 10
109.2323162744
 20
51.4300606546
 30
0.0
 10
109.5710783009
 20
50.9671900218
 30
0.0
 10
109.8025005211
 20
50.4422266604
 30
0.0
 10
109.8829626504
 20
49.9917956683
 30
0.0
 10
109.8573199712
 20
49.6672931345
 30
0.0
 10
109.7976474836
 20
49.4650572431
 30
0.0
 10
109.6971965659
 20
49.3009130446
 30
0.0
 10
109.5577835183
 20
49.1836847562
 30
0.0
 10
109.3864677204
 20
49.1216251055
 30
0.0
 10
109.1166133501
 20
49.1148851023
 30
0.0
 10
108.9150862319
 20
49.1955278709
 30
0.0
 10
108.7887403994
 20
49.2684927739
 30
0.0
  0
SPLINE
  5
6D4
100
AcDbEntity
  8
3_AXES_OTHER
100
AcDbSpline
 62
7
  6
CONTINUOUS
 70
0
 71
3
 72
11
 73
7
 74
0
 42
0.0000001
 43
0.0000001
 44
0.0000000001
 40
0.0
 40
0.0
 40
0.0
 40
0.0
 40
0.3101082687
 40
0.5903575599
 40
0.8167144479
 40
1.0
 40
1.0
 40
1.0
 40
1.0
 10
109.2075893018
 20
57.8244754417
 30
0.0
 10
109.2474850989
 20
57.7469990471
 30
0.0
 10
109.3418399892
 20
57.6078483473
 30
0.0
 10
109.5168237254
 20
57.4558502991
 30
0.0
 10
109.7033958772
 20
57.3805784981
 30
0.0
 10
109.8260963066
 20
57.4120592607
 30
0.0
 10
109.8665717935
 20
57.4439120891
 30
0.0
  0
SPLINE
  5
6D5
100
AcDbEntity
  8
3_AXES_OTHER
100
AcDbSpline
 62
7
  6
CONTINUOUS
 70
0
 71
3
 72
9
 73
5
 74
0
 42
0.0000001
 43
0.0000001
 44
0.0000000001
 40
0.0
 40
0.0
 40
0.0
 40
0.0
 40
0.4399925668
 40
1.0
 40
1.0
 40
1.0
 40
1.0
 10
109.8665717935
 20
57.4439120891
 30
0.0
 10
109.9099224071
 20
57.4780275442
 30
0.0
 10
109.9740578912
 20
57.5972566188
 30
0.0
 10
109.9719677732
 20
57.7256046396
 30
0.0
 10
109.9623999431
 20
57.7951613632
 30
0.0
  0
SPLINE
  5
6D6
100
AcDbEntity
  8
3_AXES_OTHER
100
AcDbSpline
 62
7
  6
CONTINUOUS
 70
0
 71
3
 72
9
 73
5
 74
0
 42
0.0000001
 43
0.0000001
 44
0.0000000001
 40
0.0
 40
0.0
 40
0.0
 40
0.0
 40
0.2370775003
 40
1.0
 40
1.0
 40
1.0
 40
1.0
 10
109.110920229
 20
58.1233221977
 30
0.0
 10
109.1140952479
 20
58.0986330848
 30
0.0
 10
109.1328805071
 20
57.9952109192
 30
0.0
 10
109.1709167103
 20
57.8956924715
 30
0.0
 10
109.2075893018
 20
57.8244754417
 30
0.0
  0
LINE
  5
6D7
100
AcDbEntity
  8
3_ALL_AXES
100
AcDbLine
 62
7
  6
CONTINUOUS
 10
106.1764857346
 20
53.2371577702
 11
106.1735514025
 21
53.2354602023
  0
SPLINE
  5
6D8
100
AcDbEntity
  8
3_ALL_AXES
100
AcDbSpline
 62
7
  6
CONTINUOUS
 70
0
 71
3
 72
11
 73
7
 74
0
 42
0.0000001
 43
0.0000001
 44
0.0000000001
 40
0.0
 40
0.0
 40
0.0
 40
0.0
 40
0.2145110612
 40
0.4464035668
 40
0.7069533796
 40
1.0
 40
1.0
 40
1.0
 40
1.0
 10
106.1735514025
 20
53.2354602023
 30
0.0
 10
106.0437584737
 20
53.1601320638
 30
0.0
 10
105.8018899193
 20
52.9501165876
 30
0.0
 10
105.5559761267
 20
52.512435938
 30
0.0
 10
105.423506029
 20
51.9738658455
 30
0.0
 10
105.4118538781
 20
51.5841191044
 30
0.0
 10
105.4221540007
 20
51.3793673979
 30
0.0
  0
SPLINE
  5
6D9
100
AcDbEntity
  8
3_ALL_AXES
100
AcDbSpline
 62
7
  6
CONTINUOUS
 70
0
 71
3
 72
9
 73
5
 74
0
 42
0.0000001
 43
0.0000001
 44
0.0000000001
 40
0.0
 40
0.0
 40
0.0
 40
0.0
 40
0.2567465583
 40
1.0
 40
1.0
 40
1.0
 40
1.0
 10
107.5520329804
 20
47.383968046
 30
0.0
 10
107.585701339
 20
47.3575795381
 30
0.0
 10
107.7183320053
 20
47.2567339183
 30
0.0
 10
107.8570113489
 20
47.1637527869
 30
0.0
 10
107.9633230611
 20
47.1002452542
 30
0.0
  0
SPLINE
  5
6DA
100
AcDbEntity
  8
3_ALL_AXES
100
AcDbSpline
 62
7
  6
CONTINUOUS
 70
0
 71
3
 72
16
 73
12
 74
0
 42
0.0000001
 43
0.0000001
 44
0.0000000001
 40
0.0
 40
0.0
 40
0.0
 40
0.0
 40
0.0428740387
 40
0.0875148358
 40
0.1869024673
 40
0.3042038589
 40
0.4379267995
 40
0.5823405857
 40
0.7295728082
 40
0.8712426617
 40
1.0
 40
1.0
 40
1.0
 40
1.0
 10
106.2846445163
 20
53.0498612662
 30
0.0
 10
106.1996499108
 20
53.0008514004
 30
0.0
 10
106.0385229903
 20
52.8776587701
 30
0.0
 10
105.7707503365
 20
52.5393705437
 30
0.0
 10
105.571187169
 20
51.9586659534
 30
0.0
 10
105.553408791
 20
51.1491240383
 30
0.0
 10
105.7349115379
 20
50.2562495932
 30
0.0
 10
106.1015516156
 20
49.3493797649
 30
0.0
 10
106.6233280189
 20
48.5005631612
 30
0.0
 10
107.2572831445
 20
47.7792974538
 30
0.0
 10
107.7525706419
 20
47.3980853848
 30
0.0
 10
108.0077255031
 20
47.2507330794
 30
0.0
  0
SPLINE
  5
6DB
100
AcDbEntity
  8
3_ALL_AXES
100
AcDbSpline
 62
7
  6
CONTINUOUS
 70
0
 71
3
 72
16
 73
12
 74
0
 42
0.0000001
 43
0.0000001
 44
0.0000000001
 40
0.0
 40
0.0
 40
0.0
 40
0.0
 40
0.1287473048
 40
0.2704094502
 40
0.4176336425
 40
0.5620437106
 40
0.695770186
 40
0.8130812398
 40
0.9124811765
 40
0.9571258241
 40
1.0
 40
1.0
 40
1.0
 40
1.0
 10
107.5950423959
 20
46.1828018184
 30
0.0
 10
107.2647239355
 20
46.3735612123
 30
0.0
 10
106.6235177013
 20
46.8670606999
 30
0.0
 10
105.8027512026
 20
47.8007698516
 30
0.0
 10
105.1271845694
 20
48.8996269213
 30
0.0
 10
104.6523969571
 20
50.0736610509
 30
0.0
 10
104.4172339095
 20
51.2296387834
 30
0.0
 10
104.4400339964
 20
52.2778095502
 30
0.0
 10
104.6981374557
 20
53.0297876861
 30
0.0
 10
105.0445980104
 20
53.4679926406
 30
0.0
 10
105.2531102942
 20
53.6276303729
 30
0.0
 10
105.3631098906
 20
53.6911549455
 30
0.0
  0
ENDSEC
  0
SECTION
  2
OBJECTS
  0
DICTIONARY
  5
C
100
AcDbDictionary
280
0
281
1
  3
ACAD_GROUP
350
D
  3
ACAD_MLINESTYLE
350
17
  3
ACAD_LAYOUT
350
1A
  3
ACAD_PLOTSETTINGS
350
19
  3
ACAD_PLOTSTYLENAME
350
E
  0
DICTIONARY
  5
D
102
{ACAD_REACTORS
330
C
102
}
100
AcDbDictionary
280
0
281
1
  0
ACDBDICTIONARYWDFLT
  5
E
102
{ACAD_REACTORS
330
C
102
}
100
AcDbDictionary
281
1
  3
Normal
350
F
100
AcDbDictionaryWithDefault
340
F
  0
DICTIONARY
  5
17
102
{ACAD_REACTORS
330
C
102
}
100
AcDbDictionary
280
0
281
1
  3
Standard
350
18
  0
DICTIONARY
  5
19
102
{ACAD_REACTORS
330
C
102
}
100
AcDbDictionary
281
1
  0
DICTIONARY
  5
1A
102
{ACAD_REACTORS
330
C
102
}
100
AcDbDictionary
281
1
  3
Model
350
6DC
  3
Layout1
350
6DD
  0
ACDBPLACEHOLDER
  5
F
102
{ACAD_REACTORS
330
E
102
}
  0
MLINESTYLE
  5
18
102
{ACAD_REACTORS
330
17
102
}
100
AcDbMlineStyle
  2
STANDARD
 70
0
  3

 62
256
 51
90.0
 52
90.0
 71
2
 49
0.5
 62
256
  6
BYLAYER
 49
-0.5
 62
256
  6
BYLAYER
  0
LAYOUT
  5
6DC
102
{ACAD_REACTORS
330
1A
102
}
100
AcDbPlotSettings
  1

  2
none_device
  4
ANSI_B_(17.00_x_11.00_Inches)
  6

 40
0.0
 41
0.0
 42
0.0
 43
0.0
 44
431.8
 45
279.4
 46
0.0
 47
0.0
 48
0.0
 49
0.0
140
0.0
141
0.0
142
1.0
143
1.0
 70
1024
 72
0
 73
0
 74
0
  7

 75
0
147
1.0
148
0.0
149
0.0
100
AcDbLayout
  1
Model
 70
0
 71
0
 10
0.0
 20
0.0
 11
17.0
 21
11.0
 12
0.0
 22
0.0
 32
0.0
 14
0.0
 24
0.0
 34
0.0
 15
0.0
 25
0.0
 35
0.0
146
0.0
 13
0.0
 23
0.0
 33
0.0
 16
1.0
 26
0.0
 36
0.0
 17
0.0
 27
1.0
 37
0.0
 76
0
330
211
345
0
346
0
  0
LAYOUT
  5
6DD
102
{ACAD_REACTORS
330
1A
102
}
100
AcDbPlotSettings
  1

  2
none_device
  4
ANSI_B_(17.00_x_11.00_Inches)
  6

 40
0.0
 41
0.0
 42
0.0
 43
0.0
 44
431.8
 45
279.4
 46
0.0
 47
0.0
 48
0.0
 49
0.0
140
0.0
141
0.0
142
1.0
143
1.0
 70
0
 72
0
 73
0
 74
0
  7

 75
0
147
1.0
148
0.0
149
0.0
100
AcDbLayout
  1
Layout1
 70
0
 71
1
 10
0.0
 20
0.0
 11
17.0
 21
11.0
 12
0.0
 22
0.0
 32
0.0
 14
0.0
 24
0.0
 34
0.0
 15
0.0
 25
0.0
 35
0.0
146
0.0
 13
0.0
 23
0.0
 33
0.0
 16
1.0
 26
0.0
 36
0.0
 17
0.0
 27
1.0
 37
0.0
 76
0
330
212
345
0
346
0
  0
ENDSEC
  0
EOF
