999
DXF file: rd-000589-2d-A.dxf
999
Pro/ENGINEER 2016130 by Parametric Technology Corporation
  0
SECTION
  2
HEADER
  9
$ACADVER
  1
AC1015
  9
$DWGCODEPAGE
  3
ANSI_1252
  9
$EXTMAX
 10
38.8127853881
 20
25.1141552511
 30
0.0
  9
$EXTMIN
 10
0.0
 20
0.0
 30
0.0
  9
$LIMMIN
 10
0.0
 20
0.0
  9
$LIMMAX
 10
38.8127853881
 20
25.1141552511
  9
$VIEWCTR
 10
19.4063926941
 20
12.5570776256
  9
$VIEWSIZE
 40
25.1141552511
  9
$CLAYER
  8
0
  9
$LTSCALE
 40
2.1347031963
  9
$CELTYPE
  6
BYLAYER
  9
$DIMSCALE
 40
1.0
  9
$DIMASZ
 40
0.4280821918
  9
$DIMEXO
 40
0.0625
  9
$DIMDLI
 40
1.4748858447
  9
$DIMEXE
 40
0.125
  9
$DIMCEN
 40
0.3493150685
  9
$DIMLFAC
 40
1.0
  9
$DIMBLK
  1
_FILLED
  9
$DIMALT
 70
0
  9
$DIMALTF
 40
25.4
  9
$DIMTXT
 40
0.3567351598
  9
$DIMTOL
 70
1
  9
$DIMLIM
 70
0
  9
$DIMTFAC
 40
1.0
  9
$DIMTP
 40
0.01
  9
$DIMTM
 40
0.01
  9
$DIMGAP
 40
0.09
  9
$DIMDSEP
 70
46
  9
$AUNITS
 70
0
  9
$PDMODE
 70
3
  9
$PDSIZE
 40
0.3125
  9
$HANDSEED
  5
53A
  9
$TILEMODE
 70
1
  9
$MEASUREMENT
 70
0
  9
$INSUNITS
 70
1
  0
ENDSEC
  0
SECTION
  2
CLASSES
  0
CLASS
  1
ACDBDICTIONARYWDFLT
  2
AcDbDictionaryWithDefault
  3
AutoCAD 2000
 90
0
280
0
281
0
  0
CLASS
  1
ACDBPLACEHOLDER
  2
AcDbPlaceHolder
  3
AutoCAD 2000
 90
0
280
0
281
0
  0
CLASS
  1
LAYOUT
  2
AcDbLayout
  3
AutoCAD 2000
 90
0
280
0
281
0
  0
ENDSEC
  0
SECTION
  2
TABLES
  0
TABLE
  2
VPORT
  5
8
100
AcDbSymbolTable
 70
2
  0
VPORT
  5
1F4
100
AcDbSymbolTableRecord
100
AcDbViewportTableRecord
  2
*ACTIVE
 70
0
 10
0.0
 20
0.0
 11
1.0
 21
1.0
 12
19.4063926941
 22
12.5570776256
 13
0.0
 23
0.0
 14
1.0
 24
1.0
 15
0.0
 25
0.0
 16
0.0
 26
0.0
 36
1.0
 17
0.0
 27
0.0
 37
0.0
 40
25.1141552511
 41
1.5454545455
 42
50.0
 43
0.0
 44
0.0
 50
0.0
 51
0.0
 71
0
 72
100
 73
1
 74
1
 75
0
 76
0
 77
0
 78
0
  0
ENDTAB
  0
TABLE
  2
LTYPE
  5
5
100
AcDbSymbolTable
 70
6
  0
LTYPE
  5
14
100
AcDbSymbolTableRecord
100
AcDbLinetypeTableRecord
  2
BYBLOCK
 70
0
  3

 72
65
 73
0
 40
0.0
  0
LTYPE
  5
15
100
AcDbSymbolTableRecord
100
AcDbLinetypeTableRecord
  2
BYLAYER
 70
0
  3

 72
65
 73
0
 40
0.0
  0
LTYPE
  5
16
100
AcDbSymbolTableRecord
100
AcDbLinetypeTableRecord
  2
CONTINUOUS
 70
64
  3
Solid line
 72
65
 73
0
 40
0.0
  0
LTYPE
  5
1F5
100
AcDbSymbolTableRecord
100
AcDbLinetypeTableRecord
  2
CENTER
 70
64
  3
____ _ ____ _ ____ _ ____ _ ____ _ ____ _ ____
 72
65
 73
4
 40
0.6
 49
0.375
 74
0
 49
-0.075
 74
0
 49
0.075
 74
0
 49
-0.075
 74
0
  0
LTYPE
  5
1F6
100
AcDbSymbolTableRecord
100
AcDbLinetypeTableRecord
  2
HIDDEN
 70
64
  3
- - - - - - - - - - - - - - - - - - - -
 72
65
 73
2
 40
0.2
 49
0.1
 74
0
 49
-0.1
 74
0
  0
LTYPE
  5
1F7
100
AcDbSymbolTableRecord
100
AcDbLinetypeTableRecord
  2
PHANTOM
 70
64
  3
_____ _ _ _____ _ _ _____ _ _ _____
 72
65
 73
6
 40
0.8
 49
0.45
 74
0
 49
-0.05
 74
0
 49
0.1
 74
0
 49
-0.05
 74
0
 49
0.1
 74
0
 49
-0.05
 74
0
  0
LTYPE
  5
1F8
100
AcDbSymbolTableRecord
100
AcDbLinetypeTableRecord
  2
DOT
 70
64
  3
. . . . . . . . . . . . . . . . . . . .
 72
65
 73
2
 40
0.2
 49
0.1
 74
0
 49
-0.1
 74
0
  0
LTYPE
  5
1F9
100
AcDbSymbolTableRecord
100
AcDbLinetypeTableRecord
  2
DASHED
 70
64
  3
- - - - - - - - - - - - - - - - - - - -
 72
65
 73
2
 40
0.2
 49
0.1
 74
0
 49
-0.1
 74
0
  0
ENDTAB
  0
TABLE
  2
LAYER
  5
2
100
AcDbSymbolTable
 70
36
  0
LAYER
  5
10
100
AcDbSymbolTableRecord
100
AcDbLayerTableRecord
  2
0
 70
0
 62
7
  6
CONTINUOUS
370
-3
390
F
  0
LAYER
  5
1FA
100
AcDbSymbolTableRecord
100
AcDbLayerTableRecord
  2
DEFAULT_1
 70
0
 62
7
  6
CENTER
370
-3
390
F
  0
LAYER
  5
1FB
100
AcDbSymbolTableRecord
100
AcDbLayerTableRecord
  2
DEFAULT_2
 70
0
 62
8
  6
HIDDEN
370
-3
390
F
  0
LAYER
  5
1FC
100
AcDbSymbolTableRecord
100
AcDbLayerTableRecord
  2
DEFAULT_3
 70
0
 62
7
  6
PHANTOM
370
-3
390
F
  0
LAYER
  5
1FD
100
AcDbSymbolTableRecord
100
AcDbLayerTableRecord
  2
0_SNAPLINES
 70
0
 62
7
  6
CONTINUOUS
370
-3
390
F
  0
LAYER
  5
1FE
100
AcDbSymbolTableRecord
100
AcDbLayerTableRecord
  2
1_ALL_PLANES
 70
0
 62
7
  6
CONTINUOUS
370
-3
390
F
  0
LAYER
  5
1FF
100
AcDbSymbolTableRecord
100
AcDbLayerTableRecord
  2
1__DEF_PLANES
 70
0
 62
7
  6
CONTINUOUS
370
-3
390
F
  0
LAYER
  5
200
100
AcDbSymbolTableRecord
100
AcDbLayerTableRecord
  2
2_ALL_CSYS
 70
0
 62
7
  6
CONTINUOUS
370
-3
390
F
  0
LAYER
  5
201
100
AcDbSymbolTableRecord
100
AcDbLayerTableRecord
  2
2__DEF_CSYS
 70
0
 62
7
  6
CONTINUOUS
370
-3
390
F
  0
LAYER
  5
202
100
AcDbSymbolTableRecord
100
AcDbLayerTableRecord
  2
3_ALL_AXES
 70
0
 62
7
  6
CONTINUOUS
370
-3
390
F
  0
LAYER
  5
203
100
AcDbSymbolTableRecord
100
AcDbLayerTableRecord
  2
3_AXES_OTHER
 70
0
 62
7
  6
CONTINUOUS
370
-3
390
F
  0
LAYER
  5
204
100
AcDbSymbolTableRecord
100
AcDbLayerTableRecord
  2
3_HOLES
 70
0
 62
7
  6
CONTINUOUS
370
-3
390
F
  0
LAYER
  5
205
100
AcDbSymbolTableRecord
100
AcDbLayerTableRecord
  2
4_ALL_POINTS
 70
0
 62
7
  6
CONTINUOUS
370
-3
390
F
  0
LAYER
  5
206
100
AcDbSymbolTableRecord
100
AcDbLayerTableRecord
  2
5_ALL_CURVES
 70
0
 62
7
  6
CONTINUOUS
370
-3
390
F
  0
LAYER
  5
207
100
AcDbSymbolTableRecord
100
AcDbLayerTableRecord
  2
6_ALL_SURFS
 70
0
 62
7
  6
CONTINUOUS
370
-3
390
F
  0
LAYER
  5
208
100
AcDbSymbolTableRecord
100
AcDbLayerTableRecord
  2
6_COPYGEOM
 70
0
 62
7
  6
CONTINUOUS
370
-3
390
F
  0
LAYER
  5
209
100
AcDbSymbolTableRecord
100
AcDbLayerTableRecord
  2
7_ALL_ROUNDS
 70
0
 62
7
  6
CONTINUOUS
370
-3
390
F
  0
LAYER
  5
20A
100
AcDbSymbolTableRecord
100
AcDbLayerTableRecord
  2
7_MERGES
 70
0
 62
7
  6
CONTINUOUS
370
-3
390
F
  0
LAYER
  5
20B
100
AcDbSymbolTableRecord
100
AcDbLayerTableRecord
  2
8_GDT
 70
0
 62
7
  6
CONTINUOUS
370
-3
390
F
  0
LAYER
  5
20C
100
AcDbSymbolTableRecord
100
AcDbLayerTableRecord
  2
8_SET_DATUMS
 70
0
 62
7
  6
CONTINUOUS
370
-3
390
F
  0
LAYER
  5
20D
100
AcDbSymbolTableRecord
100
AcDbLayerTableRecord
  2
9_COSMETICS
 70
0
 62
7
  6
CONTINUOUS
370
-3
390
F
  0
LAYER
  5
20E
100
AcDbSymbolTableRecord
100
AcDbLayerTableRecord
  2
9_THREADS
 70
0
 62
7
  6
CONTINUOUS
370
-3
390
F
  0
ENDTAB
  0
TABLE
  2
STYLE
  5
3
100
AcDbSymbolTable
 70
1
  0
STYLE
  5
11
100
AcDbSymbolTableRecord
100
AcDbTextStyleTableRecord
  2
STANDARD
 70
0
 40
0.0
 41
0.8
 50
0.0
 71
0
 42
0.2
  3
txt
  4

  0
STYLE
  5
20F
100
AcDbSymbolTableRecord
100
AcDbTextStyleTableRecord
  2
TEXTSTYLE_1
 70
0
 40
0.0
 41
0.8
 50
0.0
 71
0
 42
0.2
  3
gdt
  4

  0
ENDTAB
  0
TABLE
  2
VIEW
  5
6
100
AcDbSymbolTable
 70
0
  0
ENDTAB
  0
TABLE
  2
UCS
  5
7
100
AcDbSymbolTable
 70
0
  0
ENDTAB
  0
TABLE
  2
APPID
  5
9
100
AcDbSymbolTable
 70
1
  0
APPID
  5
210
100
AcDbSymbolTableRecord
100
AcDbRegAppTableRecord
  2
ACAD
 70
0
  0
ENDTAB
  0
TABLE
  2
BLOCK_RECORD
  5
1
100
AcDbSymbolTable
 70
0
  0
BLOCK_RECORD
  5
211
100
AcDbSymbolTableRecord
100
AcDbBlockTableRecord
  2
*Model_Space
  0
BLOCK_RECORD
  5
212
100
AcDbSymbolTableRecord
100
AcDbBlockTableRecord
  2
*Paper_Space
  0
BLOCK_RECORD
  5
213
100
AcDbSymbolTableRecord
100
AcDbBlockTableRecord
  2
_FILLED
  0
BLOCK_RECORD
  5
214
100
AcDbSymbolTableRecord
100
AcDbBlockTableRecord
  2
*D0
  0
BLOCK_RECORD
  5
215
100
AcDbSymbolTableRecord
100
AcDbBlockTableRecord
  2
*D1
  0
BLOCK_RECORD
  5
216
100
AcDbSymbolTableRecord
100
AcDbBlockTableRecord
  2
*D2
  0
BLOCK_RECORD
  5
217
100
AcDbSymbolTableRecord
100
AcDbBlockTableRecord
  2
*D3
  0
BLOCK_RECORD
  5
218
100
AcDbSymbolTableRecord
100
AcDbBlockTableRecord
  2
*D4
  0
BLOCK_RECORD
  5
219
100
AcDbSymbolTableRecord
100
AcDbBlockTableRecord
  2
*D5
  0
BLOCK_RECORD
  5
21A
100
AcDbSymbolTableRecord
100
AcDbBlockTableRecord
  2
*D6
  0
BLOCK_RECORD
  5
21B
100
AcDbSymbolTableRecord
100
AcDbBlockTableRecord
  2
*D7
  0
BLOCK_RECORD
  5
21C
100
AcDbSymbolTableRecord
100
AcDbBlockTableRecord
  2
*D8
  0
BLOCK_RECORD
  5
21D
100
AcDbSymbolTableRecord
100
AcDbBlockTableRecord
  2
*D9
  0
BLOCK_RECORD
  5
21E
100
AcDbSymbolTableRecord
100
AcDbBlockTableRecord
  2
*D10
  0
BLOCK_RECORD
  5
21F
100
AcDbSymbolTableRecord
100
AcDbBlockTableRecord
  2
*D11
  0
BLOCK_RECORD
  5
220
100
AcDbSymbolTableRecord
100
AcDbBlockTableRecord
  2
*D12
  0
BLOCK_RECORD
  5
221
100
AcDbSymbolTableRecord
100
AcDbBlockTableRecord
  2
*D13
  0
BLOCK_RECORD
  5
222
100
AcDbSymbolTableRecord
100
AcDbBlockTableRecord
  2
*D14
  0
BLOCK_RECORD
  5
223
100
AcDbSymbolTableRecord
100
AcDbBlockTableRecord
  2
RD010411_BL0
  0
ENDTAB
  0
TABLE
  2
DIMSTYLE
  5
A
100
AcDbSymbolTable
 70
1
100
AcDbDimStyleTable
 71
0
  0
DIMSTYLE
105
224
100
AcDbSymbolTableRecord
100
AcDbDimStyleTableRecord
  2
STANDARD
 70
0
  3

  4

 40
1.0
 41
0.4280821918
 42
0.0625
 43
0.38
 44
0.125
 45
0.0
 46
0.0
 47
0.01
 48
0.01
140
0.3567351598
141
0.09
142
0.0
143
25.4
144
1.0
145
0.0
146
1.0
147
0.09
 71
1.0
 72
0.0
 73
1
 74
1
 75
0
 76
0
 77
0
 78
4
170
0
171
2
172
0
173
0
174
0
175
0
176
0
177
0
178
0
270
2
271
3
272
3
273
2
274
2
275
0
280
0
281
0
282
0
283
1
284
4
285
0
286
0
287
3
288
0
340
11
278
46
341
213
342
213
343
213
344
213
  0
DIMSTYLE
105
225
100
AcDbSymbolTableRecord
100
AcDbDimStyleTableRecord
  2
DIMSTYLE_1
 70
0
  3

  4

 40
1.0
 41
0.4280821918
 42
0.0625
 43
0.38
 44
0.125
 45
0.0
 46
0.0
 47
0.01
 48
0.01
140
0.3567351598
141
0.09
142
0.0
143
25.4
144
1.0
145
0.0
146
1.0
147
0.078125
 71
0.0
 72
0.0
 73
1
 74
1
 75
0
 76
0
 77
0
 78
4
170
0
171
2
172
0
173
0
174
0
175
0
176
0
177
0
178
0
270
2
271
0
272
0
273
2
274
2
275
0
280
0
281
0
282
0
283
1
284
4
285
0
286
0
287
3
288
0
340
11
278
46
341
213
342
213
343
213
344
213
  0
DIMSTYLE
105
226
100
AcDbSymbolTableRecord
100
AcDbDimStyleTableRecord
  2
DIMSTYLE_2
 70
0
  3
<>
  4

 40
1.0
 41
0.4280821918
 42
0.0625
 43
0.38
 44
0.125
 45
0.0
 46
0.0
 47
0.01
 48
0.01
140
0.3567351598
141
0.09
142
0.0
143
25.4
144
1.0
145
0.0
146
1.0
147
0.09
 71
0.0
 72
0.0
 73
1
 74
1
 75
0
 76
0
 77
0
 78
4
170
0
171
2
172
0
173
0
174
0
175
0
176
0
177
0
178
0
270
2
271
0
272
0
273
2
274
2
275
0
280
0
281
0
282
0
283
1
284
4
285
0
286
0
287
3
288
1
340
11
278
46
289
2
341
213
342
213
343
213
344
213
  0
DIMSTYLE
105
227
100
AcDbSymbolTableRecord
100
AcDbDimStyleTableRecord
  2
DIMSTYLE_3
 70
0
  3

  4

 40
1.0
 41
0.4280821918
 42
0.0625
 43
0.38
 44
0.125
 45
0.0
 46
0.0
 47
0.5
 48
0.5
140
0.3567351598
141
0.09
142
0.0
143
25.4
144
1.0
145
0.0
146
1.0
147
0.078125
 71
0.0
 72
0.0
 73
1
 74
1
 75
0
 76
0
 77
0
 78
4
170
0
171
2
172
0
173
0
174
0
175
0
176
0
177
0
178
0
270
2
271
1
272
1
273
2
274
2
275
0
280
0
281
0
282
0
283
1
284
4
285
0
286
0
287
3
288
0
340
11
278
46
341
213
342
213
343
213
344
213
  0
ENDTAB
  0
ENDSEC
  0
SECTION
  2
BLOCKS
  0
BLOCK
  5
20
100
AcDbEntity
  8
0
100
AcDbBlockBegin
  2
*Model_Space
 70
0
 10
0.0
 20
0.0
 30
0.0
  3
*Model_Space
  1

  0
ENDBLK
  5
21
100
AcDbEntity
  8
0
100
AcDbBlockEnd
  0
BLOCK
  5
1C
100
AcDbEntity
  8
0
100
AcDbBlockBegin
  2
*Paper_Space
 70
0
 10
0.0
 20
0.0
 30
0.0
  3
*Paper_Space
  1

  0
ENDBLK
  5
1D
100
AcDbEntity
  8
0
100
AcDbBlockEnd
  0
BLOCK
  5
228
100
AcDbEntity
  8
0
100
AcDbBlockBegin
 62
7
  6
CONTINUOUS
  2
RD010411_BL0
 70
64
 10
27.1434253397
 20
6.1669193269
  3
RD010411_BL0
  1

  0
ARC
  5
229
100
AcDbEntity
  8
0
100
AcDbCircle
 62
7
  6
CONTINUOUS
 10
28.6323786951
 20
6.3960904628
 40
0.0282454641
100
AcDbArc
 50
270.0
 51
360.0
  0
LINE
  5
22A
100
AcDbEntity
  8
0
100
AcDbLine
 62
7
  6
CONTINUOUS
 10
28.6606241592
 20
6.3960904628
 11
28.6606241592
 21
6.4526008034
  0
ARC
  5
22B
100
AcDbEntity
  8
0
100
AcDbCircle
 62
7
  6
CONTINUOUS
 10
28.6323786951
 20
6.4526008034
 40
0.0282454641
100
AcDbArc
 50
0.0
 51
90.0
  0
LINE
  5
22C
100
AcDbEntity
  8
0
100
AcDbLine
 62
7
  6
CONTINUOUS
 10
28.6323786951
 20
6.4808462675
 11
27.8730331877
 21
6.4808462675
  0
SPLINE
  5
22D
100
AcDbEntity
  8
0
100
AcDbSpline
 62
7
  6
CONTINUOUS
 70
0
 71
3
 72
13
 73
9
 74
0
 42
0.0000001
 43
0.0000001
 44
0.0000000001
 40
0.0
 40
0.0
 40
0.0
 40
0.0
 40
0.1310616762
 40
0.2699656353
 40
0.4157607805
 40
0.5899807757
 40
0.76586761
 40
0.9948829976
 40
0.9948829976
 40
0.9948829976
 40
0.9948829976
 10
27.8730331877
 20
6.4808462675
 30
0.0
 10
27.8570710541
 20
6.4796573973
 30
0.0
 10
27.8241916679
 20
6.477208519
 30
0.0
 10
27.7796335518
 20
6.4495977705
 30
0.0
 10
27.7476461417
 20
6.4032442967
 30
0.0
 10
27.7268462749
 20
6.3465642017
 30
0.0
 10
27.7151305201
 20
6.2772775629
 30
0.0
 10
27.7140518158
 20
6.2283184072
 30
0.0
 10
27.7134927486
 20
6.2006231461
 30
0.0
  0
LINE
  5
22E
100
AcDbEntity
  8
0
100
AcDbLine
 62
7
  6
CONTINUOUS
 10
27.7134927486
 20
6.2006231461
 11
27.7135423224
 21
6.1963253632
  0
SPLINE
  5
22F
100
AcDbEntity
  8
0
100
AcDbSpline
 62
7
  6
CONTINUOUS
 70
0
 71
3
 72
13
 73
9
 74
0
 42
0.0000001
 43
0.0000001
 44
0.0000000001
 40
0.0
 40
0.0
 40
0.0
 40
0.0
 40
0.2222860645
 40
0.3981728988
 40
0.572392894
 40
0.7181880393
 40
0.8570919984
 40
0.9881536746
 40
0.9881536746
 40
0.9881536746
 40
0.9881536746
 10
27.7135423224
 20
6.1963253632
 30
0.0
 10
27.7140903713
 20
6.1694442476
 30
0.0
 10
27.7152664147
 20
6.121307718
 30
0.0
 10
27.7268462654
 20
6.0528242368
 30
0.0
 10
27.7476463811
 20
5.996150481
 30
0.0
 10
27.7796327936
 20
5.9497773349
 30
0.0
 10
27.8241943104
 20
5.9222325877
 30
0.0
 10
27.8570656806
 20
5.9196282973
 30
0.0
 10
27.8730331877
 20
5.9184390272
 30
0.0
  0
LINE
  5
230
100
AcDbEntity
  8
0
100
AcDbLine
 62
7
  6
CONTINUOUS
 10
27.8730331877
 20
5.9184390272
 11
28.6324403436
 21
5.9200965106
  0
ARC
  5
231
100
AcDbEntity
  8
0
100
AcDbCircle
 62
7
  6
CONTINUOUS
 10
28.6323786951
 20
5.9483419073
 40
0.028245464
100
AcDbArc
 50
270.125053868
 51
360.0
  0
LINE
  5
232
100
AcDbEntity
  8
0
100
AcDbLine
 62
7
  6
CONTINUOUS
 10
28.6606241592
 20
5.9483419073
 11
28.6606241592
 21
6.0026459696
  0
ARC
  5
233
100
AcDbEntity
  8
0
100
AcDbCircle
 62
7
  6
CONTINUOUS
 10
28.6323786951
 20
6.0026459696
 40
0.0282454641
100
AcDbArc
 50
0.0
 51
90.0
  0
LINE
  5
234
100
AcDbEntity
  8
0
100
AcDbLine
 62
7
  6
CONTINUOUS
 10
28.6323786951
 20
6.0308914336
 11
27.9815158111
 21
6.0308914336
  0
LINE
  5
235
100
AcDbEntity
  8
0
100
AcDbLine
 62
7
  6
CONTINUOUS
 10
27.953270347
 20
6.0591368977
 11
27.953270347
 21
6.3395995346
  0
ARC
  5
236
100
AcDbEntity
  8
0
100
AcDbCircle
 62
7
  6
CONTINUOUS
 10
27.9815158113
 20
6.3395995346
 40
0.0282454641
100
AcDbArc
 50
90.0
 51
180.0
  0
LINE
  5
237
100
AcDbEntity
  8
0
100
AcDbLine
 62
7
  6
CONTINUOUS
 10
27.9815158111
 20
6.3678449987
 11
28.6323786951
 21
6.3678449987
  0
LINE
  5
238
100
AcDbEntity
  8
0
100
AcDbLine
 62
7
  6
CONTINUOUS
 10
26.8209694818
 20
6.1426098187
 11
27.3634624823
 21
6.1426098187
  0
ARC
  5
239
100
AcDbEntity
  8
0
100
AcDbCircle
 62
7
  6
CONTINUOUS
 10
27.3634624822
 20
6.1143643547
 40
0.0282454641
100
AcDbArc
 50
0.0
 51
90.0
  0
LINE
  5
23A
100
AcDbEntity
  8
0
100
AcDbLine
 62
7
  6
CONTINUOUS
 10
27.3917079463
 20
6.1143643546
 11
27.3917079463
 21
6.0566900345
  0
LINE
  5
23B
100
AcDbEntity
  8
0
100
AcDbLine
 62
7
  6
CONTINUOUS
 10
27.3634624823
 20
6.0284445704
 11
26.7310877337
 21
6.0284445704
  0
ARC
  5
23C
100
AcDbEntity
  8
0
100
AcDbCircle
 62
7
  6
CONTINUOUS
 10
26.7310877337
 20
6.0001991063
 40
0.0282454641
100
AcDbArc
 50
90.0
 51
180.0
  0
LINE
  5
23D
100
AcDbEntity
  8
0
100
AcDbLine
 62
7
  6
CONTINUOUS
 10
26.7028422696
 20
6.0001991063
 11
26.7028422696
 21
5.9466842063
  0
ARC
  5
23E
100
AcDbEntity
  8
0
100
AcDbCircle
 62
7
  6
CONTINUOUS
 10
26.7310877337
 20
5.9466842063
 40
0.0282454641
100
AcDbArc
 50
180.0
 51
270.0
  0
LINE
  5
23F
100
AcDbEntity
  8
0
100
AcDbLine
 62
7
  6
CONTINUOUS
 10
26.7310877337
 20
5.9184387422
 11
27.5161487315
 21
5.9184387422
  0
SPLINE
  5
240
100
AcDbEntity
  8
0
100
AcDbSpline
 62
7
  6
CONTINUOUS
 70
0
 71
3
 72
13
 73
9
 74
0
 42
0.0000001
 43
0.0000001
 44
0.0000000001
 40
0.0
 40
0.0
 40
0.0
 40
0.0
 40
0.1604571392
 40
0.3334692485
 40
0.4767982758
 40
0.6242014838
 40
0.7505998515
 40
1.0
 40
1.0
 40
1.0
 40
1.0
 10
27.5161487315
 20
5.9184387422
 30
0.0
 10
27.5293849579
 20
5.9190760428
 30
0.0
 10
27.556893079
 20
5.9204005091
 30
0.0
 10
27.5938837098
 20
5.9364601448
 30
0.0
 10
27.6217573689
 20
5.9634550518
 30
0.0
 10
27.637465272
 20
5.9944036698
 30
0.0
 10
27.6495082871
 20
6.035921558
 30
0.0
 10
27.6499969931
 20
6.0669915759
 30
0.0
 10
27.6503213245
 20
6.0876113139
 30
0.0
  0
SPLINE
  5
241
100
AcDbEntity
  8
0
100
AcDbSpline
 62
7
  6
CONTINUOUS
 70
0
 71
3
 72
13
 73
9
 74
0
 42
0.0000001
 43
0.0000001
 44
0.0000000001
 40
0.0
 40
0.0
 40
0.0
 40
0.0
 40
0.2494001485
 40
0.3757985162
 40
0.5232017242
 40
0.6665307515
 40
0.8395428608
 40
1.0
 40
1.0
 40
1.0
 40
1.0
 10
27.6503213245
 20
6.0876113139
 30
0.0
 10
27.6499969931
 20
6.1082310524
 30
0.0
 10
27.6495082871
 20
6.1393010698
 30
0.0
 10
27.637465272
 20
6.1808189584
 30
0.0
 10
27.6217573689
 20
6.2117675764
 30
0.0
 10
27.5938837098
 20
6.238762483
 30
0.0
 10
27.556893079
 20
6.2548221187
 30
0.0
 10
27.5293849579
 20
6.2561465854
 30
0.0
 10
27.5161487315
 20
6.2567838856
 30
0.0
  0
LINE
  5
242
100
AcDbEntity
  8
0
100
AcDbLine
 62
7
  6
CONTINUOUS
 10
27.5161487315
 20
6.2567838856
 11
26.9808868036
 21
6.2567838856
  0
LINE
  5
243
100
AcDbEntity
  8
0
100
AcDbLine
 62
7
  6
CONTINUOUS
 10
26.9526413395
 20
6.2850293497
 11
26.9526413395
 21
6.3384726015
  0
ARC
  5
244
100
AcDbEntity
  8
0
100
AcDbCircle
 62
7
  6
CONTINUOUS
 10
26.9808868034
 20
6.3384726015
 40
0.0282454641
100
AcDbArc
 50
90.0
 51
180.0
  0
LINE
  5
245
100
AcDbEntity
  8
0
100
AcDbLine
 62
7
  6
CONTINUOUS
 10
26.9808868036
 20
6.3667180655
 11
27.6141199079
 21
6.3667180655
  0
ARC
  5
246
100
AcDbEntity
  8
0
100
AcDbCircle
 62
7
  6
CONTINUOUS
 10
27.6141199079
 20
6.3949635296
 40
0.0282454641
100
AcDbArc
 50
270.0
 51
360.0
  0
LINE
  5
247
100
AcDbEntity
  8
0
100
AcDbLine
 62
7
  6
CONTINUOUS
 10
27.642365372
 20
6.3949635296
 11
27.642365372
 21
6.4526008034
  0
ARC
  5
248
100
AcDbEntity
  8
0
100
AcDbCircle
 62
7
  6
CONTINUOUS
 10
27.6141199079
 20
6.4526008034
 40
0.0282454641
100
AcDbArc
 50
0.0
 51
90.0
  0
LINE
  5
249
100
AcDbEntity
  8
0
100
AcDbLine
 62
7
  6
CONTINUOUS
 10
27.6141199079
 20
6.4808462675
 11
26.8209694818
 21
6.4808462675
  0
SPLINE
  5
24A
100
AcDbEntity
  8
0
100
AcDbSpline
 62
7
  6
CONTINUOUS
 70
0
 71
3
 72
13
 73
9
 74
0
 42
0.0000001
 43
0.0000001
 44
0.0000000001
 40
0.0
 40
0.0
 40
0.0
 40
0.0
 40
0.1133740464
 40
0.2392044088
 40
0.3655787964
 40
0.4912154373
 40
0.7445390876
 40
1.0
 40
1.0
 40
1.0
 40
1.0
 10
26.8209694818
 20
6.4808462675
 30
0.0
 10
26.8119086915
 20
6.4803999814
 30
0.0
 10
26.7927916095
 20
6.4794583754
 30
0.0
 10
26.7643950752
 20
6.4709743392
 30
0.0
 10
26.738991608
 20
6.453842428
 30
0.0
 10
26.7130417397
 20
6.4222847939
 30
0.0
 10
26.6967124364
 20
6.372743507
 30
0.0
 10
26.6949415209
 20
6.3321234092
 30
0.0
 10
26.6940523442
 20
6.3117280431
 30
0.0
  0
SPLINE
  5
24B
100
AcDbEntity
  8
0
100
AcDbSpline
 62
7
  6
CONTINUOUS
 70
0
 71
3
 72
13
 73
9
 74
0
 42
0.0000001
 43
0.0000001
 44
0.0000000001
 40
0.0
 40
0.0
 40
0.0
 40
0.0
 40
0.2554609124
 40
0.5087845627
 40
0.6344212036
 40
0.7607955912
 40
0.8866259536
 40
1.0
 40
1.0
 40
1.0
 40
1.0
 10
26.6940523442
 20
6.3117280431
 30
0.0
 10
26.6949415209
 20
6.291332677
 30
0.0
 10
26.6967124364
 20
6.2507125788
 30
0.0
 10
26.7130417397
 20
6.2011712923
 30
0.0
 10
26.738991608
 20
6.1696136582
 30
0.0
 10
26.7643950752
 20
6.152481747
 30
0.0
 10
26.7927916095
 20
6.1439977108
 30
0.0
 10
26.8119086915
 20
6.1430561048
 30
0.0
 10
26.8209694818
 20
6.1426098187
 30
0.0
  0
LINE
  5
24C
100
AcDbEntity
  8
0
100
AcDbLine
 62
7
  6
CONTINUOUS
 10
25.7773306069
 20
5.9184387422
 11
26.2162061705
 21
5.9184387422
  0
LINE
  5
24D
100
AcDbEntity
  8
0
100
AcDbLine
 62
7
  6
CONTINUOUS
 10
26.2162061705
 20
5.9184387422
 11
26.2162061705
 21
5.8638560263
  0
ARC
  5
24E
100
AcDbEntity
  8
0
100
AcDbCircle
 62
7
  6
CONTINUOUS
 10
26.2270698105
 20
5.8638560263
 40
0.01086364
100
AcDbArc
 50
180.0
 51
270.0
  0
LINE
  5
24F
100
AcDbEntity
  8
0
100
AcDbLine
 62
7
  6
CONTINUOUS
 10
26.2270698105
 20
5.8529923862
 11
26.396227735
 21
5.8529923862
  0
ARC
  5
250
100
AcDbEntity
  8
0
100
AcDbCircle
 62
7
  6
CONTINUOUS
 10
26.396227735
 20
5.8638560263
 40
0.01086364
100
AcDbArc
 50
270.0
 51
360.0
  0
LINE
  5
251
100
AcDbEntity
  8
0
100
AcDbLine
 62
7
  6
CONTINUOUS
 10
26.407091375
 20
5.8638560263
 11
26.407091375
 21
5.9184387422
  0
LINE
  5
252
100
AcDbEntity
  8
0
100
AcDbLine
 62
7
  6
CONTINUOUS
 10
26.407091375
 20
5.9184387422
 11
26.4933907366
 21
5.9184387422
  0
SPLINE
  5
253
100
AcDbEntity
  8
0
100
AcDbSpline
 62
7
  6
CONTINUOUS
 70
0
 71
3
 72
12
 73
8
 74
0
 42
0.0000001
 43
0.0000001
 44
0.0000000001
 40
0.0
 40
0.0
 40
0.0
 40
0.0
 40
0.2415790084
 40
0.4893269843
 40
0.7378634303
 40
0.8656387112
 40
1.0
 40
1.0
 40
1.0
 40
1.0
 10
26.4933907366
 20
5.9184387422
 30
0.0
 10
26.5088650623
 20
5.9189198215
 30
0.0
 10
26.540208867
 20
5.9198942653
 30
0.0
 10
26.5860772545
 20
5.9362521521
 30
0.0
 10
26.6139340292
 20
5.9671315136
 30
0.0
 10
26.6262067994
 20
5.9979857079
 30
0.0
 10
26.6264279727
 20
6.0148875702
 30
0.0
 10
26.6265413378
 20
6.0235508251
 30
0.0
  0
LINE
  5
254
100
AcDbEntity
  8
0
100
AcDbLine
 62
7
  6
CONTINUOUS
 10
26.6265413378
 20
6.0235508251
 11
26.6265413378
 21
6.3750745478
  0
SPLINE
  5
255
100
AcDbEntity
  8
0
100
AcDbSpline
 62
7
  6
CONTINUOUS
 70
0
 71
3
 72
12
 73
8
 74
0
 42
0.0000001
 43
0.0000001
 44
0.0000000001
 40
0.0
 40
0.0
 40
0.0
 40
0.0
 40
0.1343612888
 40
0.2621365697
 40
0.5106730157
 40
0.7584209916
 40
1.0
 40
1.0
 40
1.0
 40
1.0
 10
26.6265413378
 20
6.3750745478
 30
0.0
 10
26.6264279727
 20
6.3837378032
 30
0.0
 10
26.6262067994
 20
6.4006396655
 30
0.0
 10
26.6139340292
 20
6.4314938598
 30
0.0
 10
26.5860772545
 20
6.4623732212
 30
0.0
 10
26.540208867
 20
6.4787311077
 30
0.0
 10
26.5088650623
 20
6.4797055514
 30
0.0
 10
26.4933907366
 20
6.4801866308
 30
0.0
  0
LINE
  5
256
100
AcDbEntity
  8
0
100
AcDbLine
 62
7
  6
CONTINUOUS
 10
26.4933907366
 20
6.4801866308
 11
25.7773306069
 21
6.4801866308
  0
SPLINE
  5
257
100
AcDbEntity
  8
0
100
AcDbSpline
 62
7
  6
CONTINUOUS
 70
0
 71
3
 72
12
 73
8
 74
0
 42
0.0000001
 43
0.0000001
 44
0.0000000001
 40
0.0
 40
0.0
 40
0.0
 40
0.0
 40
0.1341799809
 40
0.290831959
 40
0.5815217441
 40
0.760783857
 40
1.0
 40
1.0
 40
1.0
 40
1.0
 10
25.7773306069
 20
6.4801866308
 30
0.0
 10
25.7617120641
 20
6.4775172736
 30
0.0
 10
25.7278592397
 20
6.4717315041
 30
0.0
 10
25.6708734427
 20
6.4291575475
 30
0.0
 10
25.6438820772
 20
6.357531141
 30
0.0
 10
25.6280896706
 20
6.2763360077
 30
0.0
 10
25.6269041842
 20
6.2272254903
 30
0.0
 10
25.6262265203
 20
6.1991522787
 30
0.0
  0
SPLINE
  5
258
100
AcDbEntity
  8
0
100
AcDbSpline
 62
7
  6
CONTINUOUS
 70
0
 71
3
 72
12
 73
8
 74
0
 42
0.0000001
 43
0.0000001
 44
0.0000000001
 40
0.0
 40
0.0
 40
0.0
 40
0.0
 40
0.2392679579
 40
0.4185688994
 40
0.7093216488
 40
0.8660075581
 40
1.0
 40
1.0
 40
1.0
 40
1.0
 10
25.6262265203
 20
6.1991522787
 30
0.0
 10
25.6269044549
 20
6.1710801614
 30
0.0
 10
25.6280904146
 20
6.1219715581
 30
0.0
 10
25.6438794135
 20
6.0407626463
 30
0.0
 10
25.67088727
 20
5.9692029229
 30
0.0
 10
25.7278137367
 20
5.9264907201
 30
0.0
 10
25.7617070073
 20
5.9209793082
 30
0.0
 10
25.7773306069
 20
5.9184387422
 30
0.0
  0
LINE
  5
259
100
AcDbEntity
  8
0
100
AcDbLine
 62
7
  6
CONTINUOUS
 10
26.4818976064
 20
6.0630649736
 11
26.4818976064
 21
6.3447156547
  0
ARC
  5
25A
100
AcDbEntity
  8
0
100
AcDbCircle
 62
7
  6
CONTINUOUS
 10
25.8893178418
 20
6.0630649736
 40
0.0282454641
100
AcDbArc
 50
180.0
 51
270.0
  0
LINE
  5
25B
100
AcDbEntity
  8
0
100
AcDbLine
 62
7
  6
CONTINUOUS
 10
25.8893178418
 20
6.0348195095
 11
26.2137354059
 21
6.0348195095
  0
LINE
  5
25C
100
AcDbEntity
  8
0
100
AcDbLine
 62
7
  6
CONTINUOUS
 10
26.2137354059
 20
6.0348195095
 11
26.2137354059
 21
6.0892331041
  0
ARC
  5
25D
100
AcDbEntity
  8
0
100
AcDbCircle
 62
7
  6
CONTINUOUS
 10
26.2245990461
 20
6.0892331041
 40
0.01086364
100
AcDbArc
 50
90.0
 51
180.0
  0
LINE
  5
25E
100
AcDbEntity
  8
0
100
AcDbLine
 62
7
  6
CONTINUOUS
 10
26.2245990459
 20
6.1000967442
 11
26.3928949037
 21
6.1000967442
  0
ARC
  5
25F
100
AcDbEntity
  8
0
100
AcDbCircle
 62
7
  6
CONTINUOUS
 10
26.3928949033
 20
6.0892331045
 40
0.01086364
100
AcDbArc
 50
0.0
 51
90.0
  0
LINE
  5
260
100
AcDbEntity
  8
0
100
AcDbLine
 62
7
  6
CONTINUOUS
 10
26.4037585437
 20
6.0348195095
 11
26.4536521423
 21
6.0348195095
  0
ARC
  5
261
100
AcDbEntity
  8
0
100
AcDbCircle
 62
7
  6
CONTINUOUS
 10
26.4536521423
 20
6.0630649736
 40
0.0282454641
100
AcDbArc
 50
270.0
 51
360.0
  0
LINE
  5
262
100
AcDbEntity
  8
0
100
AcDbLine
 62
7
  6
CONTINUOUS
 10
26.4037585437
 20
6.0348195095
 11
26.4037585437
 21
6.0892331041
  0
LINE
  5
263
100
AcDbEntity
  8
0
100
AcDbLine
 62
7
  6
CONTINUOUS
 10
25.8610723777
 20
6.0630649736
 11
25.8610723777
 21
6.3447156547
  0
ARC
  5
264
100
AcDbEntity
  8
0
100
AcDbCircle
 62
7
  6
CONTINUOUS
 10
25.8893178422
 20
6.3447156547
 40
0.0282454641
100
AcDbArc
 50
90.0
 51
180.0
  0
LINE
  5
265
100
AcDbEntity
  8
0
100
AcDbLine
 62
7
  6
CONTINUOUS
 10
25.8893178418
 20
6.3729611187
 11
26.4536521423
 21
6.3729611187
  0
ARC
  5
266
100
AcDbEntity
  8
0
100
AcDbCircle
 62
7
  6
CONTINUOUS
 10
26.4536521426
 20
6.3447156544
 40
0.0282454641
100
AcDbArc
 50
0.0000000277
 51
90.0000000277
  0
ARC
  5
267
100
AcDbEntity
  8
0
100
AcDbCircle
 62
7
  6
CONTINUOUS
 10
26.9808868036
 20
6.2850293497
 40
0.0282454641
100
AcDbArc
 50
180.0
 51
270.0
  0
ARC
  5
268
100
AcDbEntity
  8
0
100
AcDbCircle
 62
7
  6
CONTINUOUS
 10
27.3634624823
 20
6.0566900345
 40
0.0282454641
100
AcDbArc
 50
270.0
 51
360.0
  0
ARC
  5
269
100
AcDbEntity
  8
0
100
AcDbCircle
 62
7
  6
CONTINUOUS
 10
27.9815158111
 20
6.0591368977
 40
0.0282454641
100
AcDbArc
 50
180.0
 51
270.0
  0
ENDBLK
  5
26A
100
AcDbEntity
  8
0
  6
BYBLOCK
 62
0
100
AcDbBlockEnd
  0
BLOCK
  5
26B
100
AcDbEntity
  8
0
100
AcDbBlockBegin
  2
_FILLED
 70
64
 10
0.0
 20
0.0
  3
_FILLED
  1

  0
SOLID
  5
26C
100
AcDbEntity
  8
0
  6
BYBLOCK
 62
0
100
AcDbTrace
 10
0.0
 20
0.0
 11
-1.0
 21
0.1666666667
 12
-1.0
 22
-0.1666666667
 13
-1.0
 23
-0.1666666667
  0
ENDBLK
  5
26D
100
AcDbEntity
  8
0
  6
BYBLOCK
 62
0
100
AcDbBlockEnd
  0
BLOCK
  5
26E
100
AcDbEntity
  8
0
100
AcDbBlockBegin
 62
2
  6
CONTINUOUS
  2
*D0
 70
65
 10
0.0
 20
0.0
  3
*D0
  1

  0
MTEXT
  5
26F
100
AcDbEntity
  8
0
100
AcDbMText
 62
2
  6
CONTINUOUS
  7
STANDARD
 71
1
 72
1
 10
8.561192323
 20
20.0549752328
 30
0.0
 11
1.0
 21
0.0
 31
0.0
 44
0.9
  1
20\P[.8]
 40
0.3567351598
 41
1.1848703523
  0
LINE
  5
270
100
AcDbEntity
  8
0
100
AcDbLine
 62
2
  6
CONTINUOUS
 10
7.5421546119
 20
21.4831640756
 11
8.2758041951
 21
21.4831640756
  0
LINE
  5
271
100
AcDbEntity
  8
0
100
AcDbLine
 62
2
  6
CONTINUOUS
 10
6.4541837215
 20
20.6957625008
 11
8.2758041951
 21
20.6957625008
  0
LINE
  5
272
100
AcDbEntity
  8
0
100
AcDbLine
 62
2
  6
CONTINUOUS
 10
7.9904160672
 20
21.4831640756
 11
7.9904160672
 21
22.624716587
  0
LINE
  5
273
100
AcDbEntity
  8
0
100
AcDbLine
 62
2
  6
CONTINUOUS
 10
7.9904160672
 20
20.6957625008
 11
7.9904160672
 21
19.8766076529
  0
LINE
  5
274
100
AcDbEntity
  8
0
100
AcDbLine
 62
2
  6
CONTINUOUS
 10
7.9904160672
 20
19.8766076529
 11
8.382824743
 21
19.8766076529
  0
INSERT
  5
275
100
AcDbEntity
  8
0
100
AcDbBlockReference
 62
2
  6
CONTINUOUS
  2
_FILLED
 10
7.9904160672
 20
21.4831640756
 41
0.4280821918
 42
0.4280821918
 43
0.4280821918
 50
270.0
  0
INSERT
  5
276
100
AcDbEntity
  8
0
100
AcDbBlockReference
 62
2
  6
CONTINUOUS
  2
_FILLED
 10
7.9904160672
 20
20.6957625008
 41
0.4280821918
 42
0.4280821918
 43
0.4280821918
 50
90.0
  0
ENDBLK
  5
277
100
AcDbEntity
  8
0
  6
BYBLOCK
 62
0
100
AcDbBlockEnd
  0
BLOCK
  5
278
100
AcDbEntity
  8
0
100
AcDbBlockBegin
 62
2
  6
CONTINUOUS
  2
*D1
 70
65
 10
0.0
 20
0.0
  3
*D1
  1

  0
MTEXT
  5
279
100
AcDbEntity
  8
0
100
AcDbMText
 62
2
  6
CONTINUOUS
  7
STANDARD
 71
2
 72
1
 10
2.7748618185
 20
10.59193052
 30
0.0
 11
1.0
 21
0.0
 31
0.0
 44
0.9
  1
61\P[2.4]
 40
0.3567351598
 41
1.6053082192
  0
LINE
  5
27A
100
AcDbEntity
  8
0
100
AcDbLine
 62
2
  6
CONTINUOUS
 10
4.292199555
 20
11.4840381233
 11
2.7825061433
 21
11.4840381233
  0
LINE
  5
27B
100
AcDbEntity
  8
0
100
AcDbLine
 62
2
  6
CONTINUOUS
 10
4.292199555
 20
9.0824633201
 11
2.7825061433
 21
9.0824633201
  0
LINE
  5
27C
100
AcDbEntity
  8
0
100
AcDbLine
 62
2
  6
CONTINUOUS
 10
3.0678942712
 20
11.4840381233
 11
3.0678942712
 21
10.7702980999
  0
LINE
  5
27D
100
AcDbEntity
  8
0
100
AcDbLine
 62
2
  6
CONTINUOUS
 10
3.0678942712
 20
9.0824633201
 11
3.0678942712
 21
9.5217250405
  0
INSERT
  5
27E
100
AcDbEntity
  8
0
100
AcDbBlockReference
 62
2
  6
CONTINUOUS
  2
_FILLED
 10
3.0678942712
 20
11.4840381233
 41
0.4280821918
 42
0.4280821918
 43
0.4280821918
 50
90.0
  0
INSERT
  5
27F
100
AcDbEntity
  8
0
100
AcDbBlockReference
 62
2
  6
CONTINUOUS
  2
_FILLED
 10
3.0678942712
 20
9.0824633201
 41
0.4280821918
 42
0.4280821918
 43
0.4280821918
 50
270.0
  0
ENDBLK
  5
280
100
AcDbEntity
  8
0
  6
BYBLOCK
 62
0
100
AcDbBlockEnd
  0
BLOCK
  5
281
100
AcDbEntity
  8
0
100
AcDbBlockBegin
 62
2
  6
CONTINUOUS
  2
*D2
 70
65
 10
0.0
 20
0.0
  3
*D2
  1

  0
MTEXT
  5
282
100
AcDbEntity
  8
0
100
AcDbMText
 62
2
  6
CONTINUOUS
  7
STANDARD
 71
2
 72
1
 10
5.3426485678
 20
13.853170813
 30
0.0
 11
1.0
 21
0.0
 31
0.0
 44
0.9
  1
61\P[2.4]
 40
0.3567351598
 41
1.6053082192
  0
LINE
  5
283
100
AcDbEntity
  8
0
100
AcDbLine
 62
2
  6
CONTINUOUS
 10
4.4348936189
 20
11.6267321872
 11
4.4348936189
 21
13.960191361
  0
LINE
  5
284
100
AcDbEntity
  8
0
100
AcDbLine
 62
2
  6
CONTINUOUS
 10
6.836468422
 20
11.6267321872
 11
6.836468422
 21
13.960191361
  0
LINE
  5
285
100
AcDbEntity
  8
0
100
AcDbLine
 62
2
  6
CONTINUOUS
 10
4.4348936189
 20
13.6748032331
 11
4.9222107008
 21
13.6748032331
  0
LINE
  5
286
100
AcDbEntity
  8
0
100
AcDbLine
 62
2
  6
CONTINUOUS
 10
6.836468422
 20
13.6748032331
 11
6.3491513401
 21
13.6748032331
  0
INSERT
  5
287
100
AcDbEntity
  8
0
100
AcDbBlockReference
 62
2
  6
CONTINUOUS
  2
_FILLED
 10
4.4348936189
 20
13.6748032331
 41
0.4280821918
 42
0.4280821918
 43
0.4280821918
 50
180.0
  0
INSERT
  5
288
100
AcDbEntity
  8
0
100
AcDbBlockReference
 62
2
  6
CONTINUOUS
  2
_FILLED
 10
6.836468422
 20
13.6748032331
 41
0.4280821918
 42
0.4280821918
 43
0.4280821918
  0
ENDBLK
  5
289
100
AcDbEntity
  8
0
  6
BYBLOCK
 62
0
100
AcDbBlockEnd
  0
BLOCK
  5
28A
100
AcDbEntity
  8
0
100
AcDbBlockBegin
 62
2
  6
CONTINUOUS
  2
*D3
 70
65
 10
0.0
 20
0.0
  3
*D3
  1

  0
MTEXT
  5
28B
100
AcDbEntity
  8
0
100
AcDbMText
 62
2
  6
CONTINUOUS
  7
STANDARD
 71
2
 72
1
 10
29.6046088984
 20
15.4383069002
 30
0.0
 11
1.0
 21
0.0
 31
0.0
 44
0.9
  1
90\P[3.5]
 40
0.3567351598
 41
1.5288649706
  0
LINE
  5
28C
100
AcDbEntity
  8
0
100
AcDbLine
 62
2
  6
CONTINUOUS
 10
28.0701591165
 20
12.6759447856
 11
28.0701591165
 21
15.5453274482
  0
LINE
  5
28D
100
AcDbEntity
  8
0
100
AcDbLine
 62
2
  6
CONTINUOUS
 10
31.5977181716
 20
12.6759447856
 11
31.5977181716
 21
15.5453274482
  0
LINE
  5
28E
100
AcDbEntity
  8
0
100
AcDbLine
 62
2
  6
CONTINUOUS
 10
28.0701591165
 20
15.2599393203
 11
29.1459494072
 21
15.2599393203
  0
LINE
  5
28F
100
AcDbEntity
  8
0
100
AcDbLine
 62
2
  6
CONTINUOUS
 10
31.5977181716
 20
15.2599393203
 11
30.5219278808
 21
15.2599393203
  0
INSERT
  5
290
100
AcDbEntity
  8
0
100
AcDbBlockReference
 62
2
  6
CONTINUOUS
  2
_FILLED
 10
28.0701591165
 20
15.2599393203
 41
0.4280821918
 42
0.4280821918
 43
0.4280821918
 50
180.0
  0
INSERT
  5
291
100
AcDbEntity
  8
0
100
AcDbBlockReference
 62
2
  6
CONTINUOUS
  2
_FILLED
 10
31.5977181716
 20
15.2599393203
 41
0.4280821918
 42
0.4280821918
 43
0.4280821918
  0
ENDBLK
  5
292
100
AcDbEntity
  8
0
  6
BYBLOCK
 62
0
100
AcDbBlockEnd
  0
BLOCK
  5
293
100
AcDbEntity
  8
0
100
AcDbBlockBegin
 62
2
  6
CONTINUOUS
  2
*D4
 70
65
 10
0.0
 20
0.0
  3
*D4
  1

  0
MTEXT
  5
294
100
AcDbEntity
  8
0
100
AcDbMText
 62
2
  6
CONTINUOUS
  7
STANDARD
 71
2
 72
1
 10
29.5791278156
 20
14.0659172974
 30
0.0
 11
1.0
 21
0.0
 31
0.0
 44
0.9
  1
70\P[2.8]
 40
0.3567351598
 41
1.6053082192
  0
LINE
  5
295
100
AcDbEntity
  8
0
100
AcDbLine
 62
2
  6
CONTINUOUS
 10
28.4559858881
 20
10.7920505635
 11
28.4559858881
 21
14.1729378454
  0
LINE
  5
296
100
AcDbEntity
  8
0
100
AcDbLine
 62
2
  6
CONTINUOUS
 10
31.2118913999
 20
10.7631308587
 11
31.2118913999
 21
14.1729378454
  0
LINE
  5
297
100
AcDbEntity
  8
0
100
AcDbLine
 62
2
  6
CONTINUOUS
 10
28.4559858881
 20
13.8875497175
 11
29.1204683244
 21
13.8875497175
  0
LINE
  5
298
100
AcDbEntity
  8
0
100
AcDbLine
 62
2
  6
CONTINUOUS
 10
31.2118913999
 20
13.8875497175
 11
30.5474089637
 21
13.8875497175
  0
INSERT
  5
299
100
AcDbEntity
  8
0
100
AcDbBlockReference
 62
2
  6
CONTINUOUS
  2
_FILLED
 10
28.4559858881
 20
13.8875497175
 41
0.4280821918
 42
0.4280821918
 43
0.4280821918
 50
180.0
  0
INSERT
  5
29A
100
AcDbEntity
  8
0
100
AcDbBlockReference
 62
2
  6
CONTINUOUS
  2
_FILLED
 10
31.2118913999
 20
13.8875497175
 41
0.4280821918
 42
0.4280821918
 43
0.4280821918
  0
ENDBLK
  5
29B
100
AcDbEntity
  8
0
  6
BYBLOCK
 62
0
100
AcDbBlockEnd
  0
BLOCK
  5
29C
100
AcDbEntity
  8
0
100
AcDbBlockBegin
 62
2
  6
CONTINUOUS
  2
*D5
 70
65
 10
0.0
 20
0.0
  3
*D5
  1

  0
MTEXT
  5
29D
100
AcDbEntity
  8
0
100
AcDbMText
 62
2
  6
CONTINUOUS
  7
STANDARD
 71
2
 72
1
 10
26.7790922636
 20
10.4616183016
 30
0.0
 11
1.0
 21
0.0
 31
0.0
 44
0.9
  1
95\P[3.7]
 40
0.3567351598
 41
1.5670865949
  0
LINE
  5
29E
100
AcDbEntity
  8
0
100
AcDbLine
 62
2
  6
CONTINUOUS
 10
29.3576972057
 20
12.1533294619
 11
26.7485149642
 21
12.1533294619
  0
LINE
  5
29F
100
AcDbEntity
  8
0
100
AcDbLine
 62
2
  6
CONTINUOUS
 10
29.3576972057
 20
8.4131719816
 11
26.7485149642
 21
8.4131719816
  0
LINE
  5
2A0
100
AcDbEntity
  8
0
100
AcDbLine
 62
2
  6
CONTINUOUS
 10
27.033903092
 20
12.1533294619
 11
27.033903092
 21
10.6399858815
  0
LINE
  5
2A1
100
AcDbEntity
  8
0
100
AcDbLine
 62
2
  6
CONTINUOUS
 10
27.033903092
 20
8.4131719816
 11
27.033903092
 21
9.3914128222
  0
INSERT
  5
2A2
100
AcDbEntity
  8
0
100
AcDbBlockReference
 62
2
  6
CONTINUOUS
  2
_FILLED
 10
27.033903092
 20
12.1533294619
 41
0.4280821918
 42
0.4280821918
 43
0.4280821918
 50
90.0
  0
INSERT
  5
2A3
100
AcDbEntity
  8
0
100
AcDbBlockReference
 62
2
  6
CONTINUOUS
  2
_FILLED
 10
27.033903092
 20
8.4131719816
 41
0.4280821918
 42
0.4280821918
 43
0.4280821918
 50
270.0
  0
ENDBLK
  5
2A4
100
AcDbEntity
  8
0
  6
BYBLOCK
 62
0
100
AcDbBlockEnd
  0
BLOCK
  5
2A5
100
AcDbEntity
  8
0
100
AcDbBlockBegin
 62
2
  6
CONTINUOUS
  2
*D6
 70
65
 10
0.0
 20
0.0
  3
*D6
  1

  0
MTEXT
  5
2A6
100
AcDbEntity
  8
0
100
AcDbMText
 62
2
  6
CONTINUOUS
  7
STANDARD
 71
2
 72
1
 10
32.9713803241
 20
10.4616183016
 30
0.0
 11
1.0
 21
0.0
 31
0.0
 44
0.9
  1
114\P[4.5]
 40
0.3567351598
 41
1.5670865949
  0
LINE
  5
2A7
100
AcDbEntity
  8
0
100
AcDbLine
 62
2
  6
CONTINUOUS
 10
31.7404122355
 20
12.5332507217
 11
33.4351360319
 21
12.5332507217
  0
LINE
  5
2A8
100
AcDbEntity
  8
0
100
AcDbLine
 62
2
  6
CONTINUOUS
 10
31.7404122355
 20
8.0332507217
 11
33.4351360319
 21
8.0332507217
  0
LINE
  5
2A9
100
AcDbEntity
  8
0
100
AcDbLine
 62
2
  6
CONTINUOUS
 10
33.149747904
 20
12.5332507217
 11
33.149747904
 21
10.6399858815
  0
LINE
  5
2AA
100
AcDbEntity
  8
0
100
AcDbLine
 62
2
  6
CONTINUOUS
 10
33.149747904
 20
8.0332507217
 11
33.149747904
 21
9.3914128222
  0
INSERT
  5
2AB
100
AcDbEntity
  8
0
100
AcDbBlockReference
 62
2
  6
CONTINUOUS
  2
_FILLED
 10
33.149747904
 20
12.5332507217
 41
0.4280821918
 42
0.4280821918
 43
0.4280821918
 50
90.0
  0
INSERT
  5
2AC
100
AcDbEntity
  8
0
100
AcDbBlockReference
 62
2
  6
CONTINUOUS
  2
_FILLED
 10
33.149747904
 20
8.0332507217
 41
0.4280821918
 42
0.4280821918
 43
0.4280821918
 50
270.0
  0
ENDBLK
  5
2AD
100
AcDbEntity
  8
0
  6
BYBLOCK
 62
0
100
AcDbBlockEnd
  0
BLOCK
  5
2AE
100
AcDbEntity
  8
0
100
AcDbBlockBegin
 62
2
  6
CONTINUOUS
  2
*D7
 70
65
 10
0.0
 20
0.0
  3
*D7
  1

  0
MTEXT
  5
2AF
100
AcDbEntity
  8
0
100
AcDbMText
 62
2
  6
CONTINUOUS
  7
STANDARD
 71
3
 72
1
 10
26.3177792404
 20
14.1556251558
 30
0.0
 11
1.0
 21
0.0
 31
0.0
 44
0.9
  1
4X \Fgdt;{\Fgdt;n}\Ftxt;7\P[.3]
 40
0.3567351598
 41
2.4334434116
  0
LINE
  5
2B0
100
AcDbEntity
  8
0
100
AcDbLine
 62
2
  6
CONTINUOUS
 10
28.417209571
 20
10.4154775541
 11
27.3726960701
 21
13.9772575759
  0
LINE
  5
2B1
100
AcDbEntity
  8
0
100
AcDbLine
 62
2
  6
CONTINUOUS
 10
27.3726960701
 20
13.9772575759
 11
26.9802873943
 21
13.9772575759
  0
INSERT
  5
2B2
100
AcDbEntity
  8
0
100
AcDbBlockReference
 62
2
  6
CONTINUOUS
  2
_FILLED
 10
28.417209571
 20
10.4154775541
 41
0.4280821918
 42
0.4280821918
 43
0.4280821918
 50
286.3440936911
  0
ENDBLK
  5
2B3
100
AcDbEntity
  8
0
  6
BYBLOCK
 62
0
100
AcDbBlockEnd
  0
BLOCK
  5
2B4
100
AcDbEntity
  8
0
100
AcDbBlockBegin
 62
2
  6
CONTINUOUS
  2
*D8
 70
65
 10
0.0
 20
0.0
  3
*D8
  1

  0
MTEXT
  5
2B5
100
AcDbEntity
  8
0
100
AcDbMText
 62
2
  6
CONTINUOUS
  7
STANDARD
 71
2
 72
1
 10
10.3963069599
 20
19.4965710255
 30
0.0
 11
1.0
 21
0.0
 31
0.0
 44
0.9
  1
110\P[4.3]
 40
0.3567351598
 41
1.5670865949
  0
LINE
  5
2B6
100
AcDbEntity
  8
0
100
AcDbLine
 62
2
  6
CONTINUOUS
 10
7.5421546119
 20
21.4831640756
 11
10.8600626676
 21
21.4831640756
  0
LINE
  5
2B7
100
AcDbEntity
  8
0
100
AcDbLine
 62
2
  6
CONTINUOUS
 10
6.979162486
 20
17.1532428157
 11
10.8600626676
 21
17.1532428157
  0
LINE
  5
2B8
100
AcDbEntity
  8
0
100
AcDbLine
 62
2
  6
CONTINUOUS
 10
10.5746745398
 20
21.4831640756
 11
10.5746745398
 21
19.6749386055
  0
LINE
  5
2B9
100
AcDbEntity
  8
0
100
AcDbLine
 62
2
  6
CONTINUOUS
 10
10.5746745398
 20
17.1532428157
 11
10.5746745398
 21
18.4263655461
  0
INSERT
  5
2BA
100
AcDbEntity
  8
0
100
AcDbBlockReference
 62
2
  6
CONTINUOUS
  2
_FILLED
 10
10.5746745398
 20
21.4831640756
 41
0.4280821918
 42
0.4280821918
 43
0.4280821918
 50
90.0
  0
INSERT
  5
2BB
100
AcDbEntity
  8
0
100
AcDbBlockReference
 62
2
  6
CONTINUOUS
  2
_FILLED
 10
10.5746745398
 20
17.1532428157
 41
0.4280821918
 42
0.4280821918
 43
0.4280821918
 50
270.0
  0
ENDBLK
  5
2BC
100
AcDbEntity
  8
0
  6
BYBLOCK
 62
0
100
AcDbBlockEnd
  0
BLOCK
  5
2BD
100
AcDbEntity
  8
0
100
AcDbBlockBegin
 62
2
  6
CONTINUOUS
  2
*D9
 70
65
 10
0.0
 20
0.0
  3
*D9
  1

  0
MTEXT
  5
2BE
100
AcDbEntity
  8
0
100
AcDbMText
 62
2
  6
CONTINUOUS
  7
STANDARD
 71
2
 72
1
 10
11.8797861018
 20
19.4083820492
 30
0.0
 11
1.0
 21
0.0
 31
0.0
 44
0.9
  1
114\P[4.5]
 40
0.3567351598
 41
1.5670865949
  0
LINE
  5
2BF
100
AcDbEntity
  8
0
100
AcDbLine
 62
2
  6
CONTINUOUS
 10
7.5421546119
 20
21.4831640756
 11
12.3435418095
 21
21.4831640756
  0
LINE
  5
2C0
100
AcDbEntity
  8
0
100
AcDbLine
 62
2
  6
CONTINUOUS
 10
6.632526127
 20
16.976864863
 11
12.3435418095
 21
16.976864863
  0
LINE
  5
2C1
100
AcDbEntity
  8
0
100
AcDbLine
 62
2
  6
CONTINUOUS
 10
12.0581536817
 20
21.4831640756
 11
12.0581536817
 21
19.5867496291
  0
LINE
  5
2C2
100
AcDbEntity
  8
0
100
AcDbLine
 62
2
  6
CONTINUOUS
 10
12.0581536817
 20
16.976864863
 11
12.0581536817
 21
18.3381765697
  0
INSERT
  5
2C3
100
AcDbEntity
  8
0
100
AcDbBlockReference
 62
2
  6
CONTINUOUS
  2
_FILLED
 10
12.0581536817
 20
21.4831640756
 41
0.4280821918
 42
0.4280821918
 43
0.4280821918
 50
90.0
  0
INSERT
  5
2C4
100
AcDbEntity
  8
0
100
AcDbBlockReference
 62
2
  6
CONTINUOUS
  2
_FILLED
 10
12.0581536817
 20
16.976864863
 41
0.4280821918
 42
0.4280821918
 43
0.4280821918
 50
270.0
  0
ENDBLK
  5
2C5
100
AcDbEntity
  8
0
  6
BYBLOCK
 62
0
100
AcDbBlockEnd
  0
BLOCK
  5
2C6
100
AcDbEntity
  8
0
100
AcDbBlockBegin
 62
2
  6
CONTINUOUS
  2
*D10
 70
65
 10
0.0
 20
0.0
  3
*D10
  1

  0
MTEXT
  5
2C7
100
AcDbEntity
  8
0
100
AcDbMText
 62
2
  6
CONTINUOUS
  7
STANDARD
 71
2
 72
1
 10
5.6356810205
 20
15.316142201
 30
0.0
 11
1.0
 21
0.0
 31
0.0
 44
0.9
  1
B
 40
0.3567351598
 41
0.4204378669
  0
LINE
  5
2C8
100
AcDbEntity
  8
0
100
AcDbLine
 62
2
  6
CONTINUOUS
 10
5.591117107
 20
18.3960779958
 11
4.4021912857
 21
17.9633443861
  0
LINE
  5
2C9
100
AcDbEntity
  8
0
100
AcDbLine
 62
2
  6
CONTINUOUS
 10
4.4021912857
 20
17.9633443861
 11
2.2904585091
 21
17.1947365127
  0
LINE
  5
2CA
100
AcDbEntity
  8
0
100
AcDbLine
 62
2
  6
CONTINUOUS
 10
5.6779654284
 20
18.3969076679
 11
6.6216667691
 21
18.0534284699
  0
LINE
  5
2CB
100
AcDbEntity
  8
0
100
AcDbLine
 62
2
  6
CONTINUOUS
 10
6.6216667691
 20
18.0534284699
 11
8.9809035318
 21
17.1947365127
  0
ARC
  5
2CC
100
AcDbEntity
  8
0
100
AcDbCircle
 62
2
  6
CONTINUOUS
 10
5.6356810205
 20
18.4122979338
 40
3.2745233127
100
AcDbArc
 50
200.0
 51
264.4180020521
  0
ARC
  5
2CD
100
AcDbEntity
  8
0
100
AcDbCircle
 62
2
  6
CONTINUOUS
 10
5.6356810205
 20
18.4122979338
 40
3.2745233127
100
AcDbArc
 50
275.5819979479
 51
340.0
  0
SOLID
  5
2CE
100
AcDbEntity
  8
0
100
AcDbTrace
 62
2
  6
CONTINUOUS
 10
2.7963184701
 20
16.9292312064
 11
2.5586356269
 21
17.2923450011
 12
2.6657041128
 22
16.8717726515
 13
2.6657041128
 23
16.8717726515
  0
SOLID
  5
2CF
100
AcDbEntity
  8
0
100
AcDbTrace
 62
2
  6
CONTINUOUS
 10
8.6056579282
 20
16.8717726515
 11
8.712726414
 21
17.2923450011
 12
8.4750435708
 22
16.9292312064
 13
8.4750435708
 23
16.9292312064
  0
ENDBLK
  5
2D0
100
AcDbEntity
  8
0
  6
BYBLOCK
 62
0
100
AcDbBlockEnd
  0
BLOCK
  5
2D1
100
AcDbEntity
  8
0
100
AcDbBlockBegin
 62
2
  6
CONTINUOUS
  2
*D11
 70
65
 10
0.0
 20
0.0
  3
*D11
  1

  0
MTEXT
  5
2D2
100
AcDbEntity
  8
0
100
AcDbMText
 62
2
  6
CONTINUOUS
  7
STANDARD
 71
2
 72
1
 10
2.8164987808
 20
20.3564866745
 30
0.0
 11
1.0
 21
0.0
 31
0.0
 44
0.9
  1
78\P[3.1]
 40
0.3567351598
 41
1.4524217221
  0
LINE
  5
2D3
100
AcDbEntity
  8
0
100
AcDbLine
 62
2
  6
CONTINUOUS
 10
3.729207429
 20
21.4831640756
 11
2.7349593157
 21
21.4831640756
  0
LINE
  5
2D4
100
AcDbEntity
  8
0
100
AcDbLine
 62
2
  6
CONTINUOUS
 10
4.3197945645
 20
18.4122979338
 11
2.7349593157
 21
18.4122979338
  0
LINE
  5
2D5
100
AcDbEntity
  8
0
100
AcDbLine
 62
2
  6
CONTINUOUS
 10
3.0203474435
 20
21.4831640756
 11
3.0203474435
 21
20.5348542545
  0
LINE
  5
2D6
100
AcDbEntity
  8
0
100
AcDbLine
 62
2
  6
CONTINUOUS
 10
3.0203474435
 20
18.4122979338
 11
3.0203474435
 21
19.2862811951
  0
INSERT
  5
2D7
100
AcDbEntity
  8
0
100
AcDbBlockReference
 62
2
  6
CONTINUOUS
  2
_FILLED
 10
3.0203474435
 20
21.4831640756
 41
0.4280821918
 42
0.4280821918
 43
0.4280821918
 50
90.0
  0
INSERT
  5
2D8
100
AcDbEntity
  8
0
100
AcDbBlockReference
 62
2
  6
CONTINUOUS
  2
_FILLED
 10
3.0203474435
 20
18.4122979338
 41
0.4280821918
 42
0.4280821918
 43
0.4280821918
 50
270.0
  0
ENDBLK
  5
2D9
100
AcDbEntity
  8
0
  6
BYBLOCK
 62
0
100
AcDbBlockEnd
  0
BLOCK
  5
2DA
100
AcDbEntity
  8
0
100
AcDbBlockBegin
 62
2
  6
CONTINUOUS
  2
*D12
 70
65
 10
0.0
 20
0.0
  3
*D12
  1

  0
MTEXT
  5
2DB
100
AcDbEntity
  8
0
100
AcDbMText
 62
2
  6
CONTINUOUS
  7
STANDARD
 71
2
 72
1
 10
13.746213721
 20
12.7525820748
 30
0.0
 11
1.0
 21
0.0
 31
0.0
 44
0.9
  1
15.0\Fgdt;{\Fgdt;~}
 40
0.3567351598
 41
1.7709352577
  0
LINE
  5
2DC
100
AcDbEntity
  8
0
100
AcDbLine
 62
2
  6
CONTINUOUS
 10
16.9157462068
 20
10.3298521545
 11
12.8990595042
 21
11.4061201127
  0
LINE
  5
2DD
100
AcDbEntity
  8
0
100
AcDbLine
 62
2
  6
CONTINUOUS
 10
15.1213066466
 20
10.2832507217
 11
12.7512309444
 21
10.2832507217
  0
ARC
  5
2DE
100
AcDbEntity
  8
0
100
AcDbCircle
 62
2
  6
CONTINUOUS
 10
17.0896651217
 20
10.2832507217
 40
4.0530460495
100
AcDbArc
 50
145.580697855
 51
165.0
  0
ARC
  5
2DF
100
AcDbEntity
  8
0
100
AcDbCircle
 62
2
  6
CONTINUOUS
 10
17.0896651217
 20
10.2832507217
 40
4.0530460495
100
AcDbArc
 50
180.0
 51
196.1375272322
  0
SOLID
  5
2E0
100
AcDbEntity
  8
0
100
AcDbTrace
 62
2
  6
CONTINUOUS
 10
13.2393460278
 20
11.7614049929
 11
13.1747232674
 21
11.33225623
 12
13.3750362882
 22
11.7172490294
 13
13.3750362882
 23
11.7172490294
  0
SOLID
  5
2E1
100
AcDbEntity
  8
0
100
AcDbTrace
 62
2
  6
CONTINUOUS
 10
13.1304631237
 20
9.8595314091
 11
13.0366190722
 21
10.2832507217
 12
12.9879679925
 22
9.8519992471
 13
12.9879679925
 23
9.8519992471
  0
ENDBLK
  5
2E2
100
AcDbEntity
  8
0
  6
BYBLOCK
 62
0
100
AcDbBlockEnd
  0
BLOCK
  5
2E3
100
AcDbEntity
  8
0
100
AcDbBlockBegin
 62
2
  6
CONTINUOUS
  2
*D13
 70
65
 10
0.0
 20
0.0
  3
*D13
  1

  0
MTEXT
  5
2E4
100
AcDbEntity
  8
0
100
AcDbMText
 62
2
  6
CONTINUOUS
  7
STANDARD
 71
2
 72
1
 10
12.1763424735
 20
9.1450974659
 30
0.0
 11
1.0
 21
0.0
 31
0.0
 44
0.9
  1
A
 40
0.3567351598
 41
0.4586594912
  0
LINE
  5
2E5
100
AcDbEntity
  8
0
100
AcDbLine
 62
2
  6
CONTINUOUS
 10
15.1213066466
 20
10.2832507217
 11
12.0234559765
 21
10.2832507217
  0
LINE
  5
2E6
100
AcDbEntity
  8
0
100
AcDbLine
 62
2
  6
CONTINUOUS
 10
12.0234559765
 20
10.2832507217
 11
11.7176310895
 21
10.2832507217
  0
LINE
  5
2E7
100
AcDbEntity
  8
0
100
AcDbLine
 62
2
  6
CONTINUOUS
 10
16.946403398
 20
10.200538527
 11
12.6427025909
 21
7.7157957075
  0
LINE
  5
2E8
100
AcDbEntity
  8
0
100
AcDbLine
 62
2
  6
CONTINUOUS
 10
12.6427025909
 20
7.7157957075
 11
12.4373471798
 21
7.5972337056
  0
ARC
  5
2E9
100
AcDbEntity
  8
0
100
AcDbCircle
 62
2
  6
CONTINUOUS
 10
17.0896651217
 20
10.2832507217
 40
5.0866459043
100
AcDbArc
 50
180.0
 51
190.8761886642
  0
ARC
  5
2EA
100
AcDbEntity
  8
0
100
AcDbCircle
 62
2
  6
CONTINUOUS
 10
17.0896651217
 20
10.2832507217
 40
5.0866459043
100
AcDbArc
 50
199.2051027887
 51
210.0
  0
SOLID
  5
2EB
100
AcDbEntity
  8
0
100
AcDbTrace
 62
2
  6
CONTINUOUS
 10
12.0923110591
 20
9.8585487922
 11
12.0030192174
 21
10.2832507217
 12
11.9497433067
 22
9.8525461371
 13
11.9497433067
 23
9.8525461371
  0
SOLID
  5
2EC
100
AcDbEntity
  8
0
100
AcDbTrace
 62
2
  6
CONTINUOUS
 10
12.4230099641
 20
8.086290926
 11
12.6845005485
 21
7.7399277695
 12
12.549478587
 22
8.1523763503
 13
12.549478587
 23
8.1523763503
  0
ENDBLK
  5
2ED
100
AcDbEntity
  8
0
  6
BYBLOCK
 62
0
100
AcDbBlockEnd
  0
BLOCK
  5
2EE
100
AcDbEntity
  8
0
100
AcDbBlockBegin
 62
2
  6
CONTINUOUS
  2
*D14
 70
65
 10
0.0
 20
0.0
  3
*D14
  1

  0
MTEXT
  5
2EF
100
AcDbEntity
  8
0
100
AcDbMText
 62
2
  6
CONTINUOUS
  7
STANDARD
 71
2
 72
1
 10
18.6250981926
 20
14.800472557
 30
0.0
 11
1.0
 21
0.0
 31
0.0
 44
0.9
  1
(78{\Ftxt.shx;\W1.142857;\H0.356735; }) \P[3.1]\PPOINT OF ARTICULATION
 40
0.3567351598
 41
8.7017897913
  0
LINE
  5
2F0
100
AcDbEntity
  8
0
100
AcDbLine
 62
2
  6
CONTINUOUS
 10
17.0896651217
 20
13.1635364144
 11
17.0896651217
 21
13.1951643378
  0
LINE
  5
2F1
100
AcDbEntity
  8
0
100
AcDbLine
 62
2
  6
CONTINUOUS
 10
17.0896651217
 20
13.9086346575
 11
17.0896651217
 21
14.907493105
  0
LINE
  5
2F2
100
AcDbEntity
  8
0
100
AcDbLine
 62
2
  6
CONTINUOUS
 10
20.1605312634
 20
13.0955366806
 11
20.1605312634
 21
13.1951643378
  0
LINE
  5
2F3
100
AcDbEntity
  8
0
100
AcDbLine
 62
2
  6
CONTINUOUS
 10
20.1605312634
 20
13.9086346575
 11
20.1605312634
 21
14.907493105
  0
LINE
  5
2F4
100
AcDbEntity
  8
0
100
AcDbLine
 62
2
  6
CONTINUOUS
 10
17.0896651217
 20
14.6221049771
 11
17.6695575859
 21
14.6221049771
  0
LINE
  5
2F5
100
AcDbEntity
  8
0
100
AcDbLine
 62
2
  6
CONTINUOUS
 10
20.1605312634
 20
14.6221049771
 11
19.5806387992
 21
14.6221049771
  0
INSERT
  5
2F6
100
AcDbEntity
  8
0
100
AcDbBlockReference
 62
2
  6
CONTINUOUS
  2
_FILLED
 10
17.0896651217
 20
14.6221049771
 41
0.4280821918
 42
0.4280821918
 43
0.4280821918
 50
180.0
  0
INSERT
  5
2F7
100
AcDbEntity
  8
0
100
AcDbBlockReference
 62
2
  6
CONTINUOUS
  2
_FILLED
 10
20.1605312634
 20
14.6221049771
 41
0.4280821918
 42
0.4280821918
 43
0.4280821918
  0
ENDBLK
  5
2F8
100
AcDbEntity
  8
0
  6
BYBLOCK
 62
0
100
AcDbBlockEnd
  0
ENDSEC
  0
SECTION
  2
ENTITIES
  0
MTEXT
  5
2F9
100
AcDbEntity
  8
0
100
AcDbMText
 62
2
  6
CONTINUOUS
  7
STANDARD
 71
1
 72
1
 10
5.6416509381
 20
0.9203740329
 30
0.0
 11
1.0
 21
0.0
 31
0.0
 44
0.9
  1
4
 40
0.3567351598
 41
0.4204378669
  0
MTEXT
  5
2FA
100
AcDbEntity
  8
0
100
AcDbMText
 62
2
  6
CONTINUOUS
  7
STANDARD
 71
1
 72
1
 10
14.4843716459
 20
0.918705116
 30
0.0
 11
1.0
 21
0.0
 31
0.0
 44
0.9
  1
3
 40
0.3567351598
 41
0.3822162427
  0
MTEXT
  5
2FB
100
AcDbEntity
  8
0
100
AcDbMText
 62
2
  6
CONTINUOUS
  7
STANDARD
 71
1
 72
1
 10
23.3066138437
 20
0.9194643858
 30
0.0
 11
1.0
 21
0.0
 31
0.0
 44
0.9
  1
2
 40
0.3567351598
 41
0.4204378669
  0
MTEXT
  5
2FC
100
AcDbEntity
  8
0
100
AcDbMText
 62
2
  6
CONTINUOUS
  7
STANDARD
 71
1
 72
1
 10
32.1454298915
 20
0.9195026628
 30
0.0
 11
1.0
 21
0.0
 31
0.0
 44
0.9
  1
1
 40
0.3567351598
 41
0.3057729941
  0
MTEXT
  5
2FD
100
AcDbEntity
  8
0
100
AcDbMText
 62
2
  6
CONTINUOUS
  7
STANDARD
 71
1
 72
1
 10
5.6429152314
 20
24.8163435969
 30
0.0
 11
1.0
 21
0.0
 31
0.0
 44
0.9
  1
4
 40
0.3567351598
 41
0.4204378669
  0
MTEXT
  5
2FE
100
AcDbEntity
  8
0
100
AcDbMText
 62
2
  6
CONTINUOUS
  7
STANDARD
 71
1
 72
1
 10
14.4808802131
 20
24.8136918531
 30
0.0
 11
1.0
 21
0.0
 31
0.0
 44
0.9
  1
3
 40
0.3567351598
 41
0.3822162427
  0
MTEXT
  5
2FF
100
AcDbEntity
  8
0
100
AcDbMText
 62
2
  6
CONTINUOUS
  7
STANDARD
 71
1
 72
1
 10
23.3108033535
 20
24.8132434812
 30
0.0
 11
1.0
 21
0.0
 31
0.0
 44
0.9
  1
2
 40
0.3567351598
 41
0.4204378669
  0
MTEXT
  5
300
100
AcDbEntity
  8
0
100
AcDbMText
 62
2
  6
CONTINUOUS
  7
STANDARD
 71
1
 72
1
 10
32.145826541
 20
24.813565008
 30
0.0
 11
1.0
 21
0.0
 31
0.0
 44
0.9
  1
1
 40
0.3567351598
 41
0.3057729941
  0
MTEXT
  5
301
100
AcDbEntity
  8
0
100
AcDbMText
 62
2
  6
CONTINUOUS
  7
STANDARD
 71
1
 72
1
 10
0.5805209282
 20
4.2449687425
 30
0.0
 11
1.0
 21
0.0
 31
0.0
 44
0.9
  1
A
 40
0.3567351598
 41
0.4586594912
  0
MTEXT
  5
302
100
AcDbEntity
  8
0
100
AcDbMText
 62
2
  6
CONTINUOUS
  7
STANDARD
 71
1
 72
1
 10
0.5930302071
 20
9.9549557358
 30
0.0
 11
1.0
 21
0.0
 31
0.0
 44
0.9
  1
B
 40
0.3567351598
 41
0.4204378669
  0
MTEXT
  5
303
100
AcDbEntity
  8
0
100
AcDbMText
 62
2
  6
CONTINUOUS
  7
STANDARD
 71
1
 72
1
 10
0.5897238735
 20
15.6573060809
 30
0.0
 11
1.0
 21
0.0
 31
0.0
 44
0.9
  1
C
 40
0.3567351598
 41
0.4459189498
  0
MTEXT
  5
304
100
AcDbEntity
  8
0
100
AcDbMText
 62
2
  6
CONTINUOUS
  7
STANDARD
 71
1
 72
1
 10
0.5945017455
 20
21.3746751132
 30
0.0
 11
1.0
 21
0.0
 31
0.0
 44
0.9
  1
D
 40
0.3567351598
 41
0.484140574
  0
MTEXT
  5
305
100
AcDbEntity
  8
0
100
AcDbMText
 62
2
  6
CONTINUOUS
  7
STANDARD
 71
1
 72
1
 10
37.1013671699
 20
4.2442812548
 30
0.0
 11
1.0
 21
0.0
 31
0.0
 44
0.9
  1
A
 40
0.3567351598
 41
0.4586594912
  0
MTEXT
  5
306
100
AcDbEntity
  8
0
100
AcDbMText
 62
2
  6
CONTINUOUS
  7
STANDARD
 71
1
 72
1
 10
37.0992394087
 20
9.9541852553
 30
0.0
 11
1.0
 21
0.0
 31
0.0
 44
0.9
  1
B
 40
0.3567351598
 41
0.4204378669
  0
MTEXT
  5
307
100
AcDbEntity
  8
0
100
AcDbMText
 62
2
  6
CONTINUOUS
  7
STANDARD
 71
1
 72
1
 10
37.0982945394
 20
15.656054247
 30
0.0
 11
1.0
 21
0.0
 31
0.0
 44
0.9
  1
C
 40
0.3567351598
 41
0.4459189498
  0
MTEXT
  5
308
100
AcDbEntity
  8
0
100
AcDbMText
 62
2
  6
CONTINUOUS
  7
STANDARD
 71
1
 72
1
 10
37.099166173
 20
21.3740155497
 30
0.0
 11
1.0
 21
0.0
 31
0.0
 44
0.9
  1
D
 40
0.3567351598
 41
0.484140574
  0
MTEXT
  5
309
100
AcDbEntity
  8
0
100
AcDbMText
 62
5
  6
CONTINUOUS
  7
STANDARD
 71
1
 72
1
 10
1.2425693062
 20
23.886922877
 30
0.0
 11
1.0
 21
0.0
 31
0.0
 44
0.9
  1
THIS DOCUMENT CONTAINS PROPRIETARY INFORMATION\PWHICH IS THE PROPERTY OF QSC, LLC, THAT MAY NOT BE\PDISCLOSED, REPRODUCED OR USED WITHOUT EXPRESS\PWRITTEN CONSENT FROM QSC, LLC.
 40
0.1712328767
 41
10.1455479452
  0
MTEXT
  5
30A
100
AcDbEntity
  8
0
100
AcDbMText
 62
2
  6
CONTINUOUS
  7
STANDARD
 71
2
 72
1
 10
16.518144473
 20
5.917775111
 30
0.0
 11
1.0
 21
0.0
 31
0.0
 44
0.9
  1
TOLERANCES ARE:
 40
0.2054794521
 41
3.5298434442
  0
MTEXT
  5
30B
100
AcDbEntity
  8
0
100
AcDbMText
 62
2
  6
CONTINUOUS
  7
STANDARD
 71
2
 72
1
 10
18.5600388
 20
5.3938372023
 30
0.0
 11
1.0
 21
0.0
 31
0.0
 44
0.9
  1
ANGLES\P\Fgdt;{\Fgdt;`}\Ftxt; 1/2
 40
0.2054794521
 41
1.4677103718
  0
MTEXT
  5
30C
100
AcDbEntity
  8
0
100
AcDbMText
 62
2
  6
CONTINUOUS
  7
STANDARD
 71
2
 72
1
 10
14.7464029242
 20
3.8498171634
 30
0.0
 11
1.0
 21
0.0
 31
0.0
 44
0.9
  1
MATERIAL
 40
0.2054794521
 41
1.9740704501
  0
MTEXT
  5
30D
100
AcDbEntity
  8
0
100
AcDbMText
 62
2
  6
CONTINUOUS
  7
STANDARD
 71
2
 72
1
 10
14.5277162466
 20
2.4592388743
 30
0.0
 11
1.0
 21
0.0
 31
0.0
 44
0.9
  1
FINISH
 40
0.2054794521
 41
1.4016634051
  0
MTEXT
  5
30E
100
AcDbEntity
  8
0
100
AcDbMText
 62
2
  6
CONTINUOUS
  7
STANDARD
 71
2
 72
1
 10
30.2963294858
 20
1.5545720588
 30
0.0
 11
1.0
 21
0.0
 31
0.0
 44
0.9
  1
DO NOT SCALE DRAWING
 40
0.2853881279
 41
7.1143183301
  0
MTEXT
  5
30F
100
AcDbEntity
  8
0
100
AcDbMText
 62
2
  6
CONTINUOUS
  7
STANDARD
 71
2
 72
1
 10
19.8834553791
 20
6.8710565606
 30
0.0
 11
1.0
 21
0.0
 31
0.0
 44
0.9
  1
DESIGNER
 40
0.2054794521
 41
1.9447162427
  0
MTEXT
  5
310
100
AcDbEntity
  8
0
100
AcDbMText
 62
2
  6
CONTINUOUS
  7
STANDARD
 71
2
 72
1
 10
19.8407305657
 20
5.7094746548
 30
0.0
 11
1.0
 21
0.0
 31
0.0
 44
0.9
  1
ENGINEER
 40
0.2054794521
 41
1.8860078278
  0
MTEXT
  5
311
100
AcDbEntity
  8
0
100
AcDbMText
 62
2
  6
CONTINUOUS
  7
STANDARD
 71
2
 72
1
 10
20.6569621123
 20
4.5309301073
 30
0.0
 11
1.0
 21
0.0
 31
0.0
 44
0.9
  1
TECHNICAL DIRECTOR
 40
0.2054794521
 41
4.3884540117
  0
MTEXT
  5
312
100
AcDbEntity
  8
0
100
AcDbMText
 62
2
  6
CONTINUOUS
  7
STANDARD
 71
2
 72
1
 10
21.0021809935
 20
3.3384839897
 30
0.0
 11
1.0
 21
0.0
 31
0.0
 44
0.9
  1
MANUFACTURING ENGINEER
 40
0.2054794521
 41
5.313111546
  0
MTEXT
  5
313
100
AcDbEntity
  8
0
100
AcDbMText
 62
2
  6
CONTINUOUS
  7
STANDARD
 71
2
 72
1
 10
20.4486837908
 20
1.5433846321
 30
0.0
 11
1.0
 21
0.0
 31
0.0
 44
0.9
  1
MODEL INFO:
 40
0.2054794521
 41
2.5171232877
  0
MTEXT
  5
314
100
AcDbEntity
  8
0
100
AcDbMText
 62
2
  6
CONTINUOUS
  7
STANDARD
 71
2
 72
1
 10
20.2371024961
 20
2.0967147066
 30
0.0
 11
1.0
 21
0.0
 31
0.0
 44
0.9
  1
DRAWING INFO:
 40
0.2054794521
 41
3.1996086106
  0
MTEXT
  5
315
100
AcDbEntity
  8
0
100
AcDbMText
 62
2
  6
CONTINUOUS
  7
STANDARD
 71
2
 72
1
 10
25.6606497292
 20
1.5228774663
 30
0.0
 11
1.0
 21
0.0
 31
0.0
 44
0.9
  1
SCALE:
 40
0.2054794521
 41
1.3502935421
  0
MTEXT
  5
316
100
AcDbEntity
  8
0
100
AcDbMText
 62
2
  6
CONTINUOUS
  7
STANDARD
 71
2
 72
1
 10
33.3704172016
 20
1.5266686907
 30
0.0
 11
1.0
 21
0.0
 31
0.0
 44
0.9
  1
SHEET
 40
0.2054794521
 41
1.247553816
  0
MTEXT
  5
317
100
AcDbEntity
  8
0
100
AcDbMText
 62
2
  6
CONTINUOUS
  7
STANDARD
 71
2
 72
1
 10
25.6666197506
 20
2.7633097427
 30
0.0
 11
1.0
 21
0.0
 31
0.0
 44
0.9
  1
SIZE
 40
0.2054794521
 41
0.9613502935
  0
MTEXT
  5
318
100
AcDbEntity
  8
0
100
AcDbMText
 62
2
  6
CONTINUOUS
  7
STANDARD
 71
2
 72
1
 10
27.3600402024
 20
2.765790966
 30
0.0
 11
1.0
 21
0.0
 31
0.0
 44
0.9
  1
CAGE CODE
 40
0.2054794521
 41
2.2822896282
  0
MTEXT
  5
319
100
AcDbEntity
  8
0
100
AcDbMText
 62
2
  6
CONTINUOUS
  7
STANDARD
 71
2
 72
1
 10
29.5455473699
 20
2.7610341683
 30
0.0
 11
1.0
 21
0.0
 31
0.0
 44
0.9
  1
DRAWING NO.
 40
0.2054794521
 41
2.8473581213
  0
MTEXT
  5
31A
100
AcDbEntity
  8
0
100
AcDbMText
 62
2
  6
CONTINUOUS
  7
STANDARD
 71
2
 72
1
 10
35.9866042453
 20
2.7640956774
 30
0.0
 11
1.0
 21
0.0
 31
0.0
 44
0.9
  1
REV
 40
0.2054794521
 41
0.7778864971
  0
MTEXT
  5
31B
100
AcDbEntity
  8
0
100
AcDbMText
 62
2
  6
CONTINUOUS
  7
STANDARD
 71
2
 72
1
 10
30.6080335529
 20
6.8047297908
 30
0.0
 11
1.0
 21
0.0
 31
0.0
 44
0.9
  1
QSC, LLC
 40
0.3567351598
 41
3.2870596869
  0
MTEXT
  5
31C
100
AcDbEntity
  8
0
100
AcDbMText
 62
2
  6
CONTINUOUS
  7
STANDARD
 71
1
 72
1
 10
29.4797543694
 20
6.2883337075
 30
0.0
 11
1.0
 21
0.0
 31
0.0
 44
0.9
  1
1675  MACARTHUR BOULEVARD\PCOSTA MESA, CA  92626
 40
0.2853881279
 41
8.5208741031
  0
MTEXT
  5
31D
100
AcDbEntity
  8
0
100
AcDbMText
 62
2
  6
CONTINUOUS
  7
STANDARD
 71
1
 72
1
 10
26.5527591071
 20
2.2746038625
 30
0.0
 11
1.0
 21
0.0
 31
0.0
 44
0.9
  1
00PW4
 40
0.3567351598
 41
2.5098866601
  0
MTEXT
  5
31E
100
AcDbEntity
  8
0
100
AcDbMText
 62
2
  6
CONTINUOUS
  7
STANDARD
 71
2
 72
1
 10
16.5640841944
 20
6.7848914038
 30
0.0
 11
1.0
 21
0.0
 31
0.0
 44
0.9
  1
UNLESS OTHERWISE SPECIFIED\PDIMENSIONS IN MILLIMETERS [IN]
 40
0.2283105023
 41
7.5016307893
  0
MTEXT
  5
31F
100
AcDbEntity
  8
0
100
AcDbMText
 62
2
  6
CONTINUOUS
  7
STANDARD
 71
2
 72
1
 10
14.9050862206
 20
5.3970666993
 30
0.0
 11
1.0
 21
0.0
 31
0.0
 44
0.9
  1
DECIMALS\P.X\Fgdt;{\Fgdt;`}\Ftxt;.5[.02]
 40
0.2054794521
 41
2.1208414873
  0
MTEXT
  5
320
100
AcDbEntity
  8
0
100
AcDbMText
 62
2
  6
CONTINUOUS
  7
STANDARD
 71
2
 72
1
 10
16.8968237164
 20
5.3981605332
 30
0.0
 11
1.0
 21
0.0
 31
0.0
 44
0.9
  1
DECIMALS\P.XX\Fgdt;{\Fgdt;`}\Ftxt;.25[.010]
 40
0.2054794521
 41
2.8033268102
  0
MTEXT
  5
321
100
AcDbEntity
  8
0
100
AcDbMText
 62
2
  6
CONTINUOUS
  7
STANDARD
 71
2
 72
1
 10
16.5309845868
 20
4.5012872525
 30
0.0
 11
1.0
 21
0.0
 31
0.0
 44
0.9
  1
DEBURR EDGES .25 [.010] R MAX
 40
0.2054794521
 41
6.7147749511
  0
INSERT
  5
322
100
AcDbEntity
  8
0
100
AcDbBlockReference
 62
7
  6
CONTINUOUS
  2
RD010411_BL0
 10
27.1434253397
 20
6.1669193269
  0
DIMENSION
  5
323
100
AcDbEntity
  8
0
100
AcDbDimension
 62
2
  6
CONTINUOUS
  2
*D0
 10
7.9904160672
 20
20.6957625008
 11
8.956149107
 21
19.609056283
 70
160
 71
1
 42
20.0
  3
DIMSTYLE_1
100
AcDbAlignedDimension
 13
7.4796546119
 23
21.4831640756
 14
6.3916837215
 24
20.6957625008
 50
270.0
100
AcDbRotatedDimension
  0
DIMENSION
  5
324
100
AcDbEntity
  8
0
100
AcDbDimension
 62
2
  6
CONTINUOUS
  2
*D1
 10
3.0678942712
 20
9.0824633201
 11
3.0678942712
 21
10.1460115702
 70
160
 71
2
 42
61.0
  3
DIMSTYLE_1
100
AcDbAlignedDimension
 13
4.354699555
 23
11.4840381233
 14
4.354699555
 24
9.0824633201
 50
270.0
100
AcDbRotatedDimension
  0
DIMENSION
  5
325
100
AcDbEntity
  8
0
100
AcDbDimension
 62
2
  6
CONTINUOUS
  2
*D2
 10
6.836468422
 20
13.6748032331
 11
5.6356810205
 21
13.4072518633
 70
160
 71
2
 42
61.0
  3
DIMSTYLE_1
100
AcDbAlignedDimension
 13
4.4348936189
 23
11.5642321872
 14
6.836468422
 24
11.5642321872
100
AcDbRotatedDimension
  0
DIMENSION
  5
326
100
AcDbEntity
  8
0
100
AcDbDimension
 62
2
  6
CONTINUOUS
  2
*D3
 10
31.5977181716
 20
15.2599393203
 11
29.833938644
 21
14.9923879505
 70
160
 71
2
 42
89.6
  3
DIMSTYLE_1
100
AcDbAlignedDimension
 13
28.0701591165
 23
12.6134447856
 14
31.5977181716
 24
12.6134447856
100
AcDbRotatedDimension
  0
DIMENSION
  5
327
100
AcDbEntity
  8
0
100
AcDbDimension
 62
2
  6
CONTINUOUS
  2
*D4
 10
31.2118913999
 20
13.8875497175
 11
29.833938644
 21
13.6199983477
 70
160
 71
2
 42
70.0
  3
DIMSTYLE_1
100
AcDbAlignedDimension
 13
28.4559858881
 23
10.7295505635
 14
31.2118913999
 24
10.7006308587
100
AcDbRotatedDimension
  0
DIMENSION
  5
328
100
AcDbEntity
  8
0
100
AcDbDimension
 62
2
  6
CONTINUOUS
  2
*D5
 10
27.033903092
 20
8.4131719816
 11
27.033903092
 21
10.0156993519
 70
160
 71
2
 42
95.0
  3
DIMSTYLE_1
100
AcDbAlignedDimension
 13
29.4201972057
 23
12.1533294619
 14
29.4201972057
 24
8.4131719816
 50
270.0
100
AcDbRotatedDimension
  0
DIMENSION
  5
329
100
AcDbEntity
  8
0
100
AcDbDimension
 62
2
  6
CONTINUOUS
  2
*D6
 10
33.149747904
 20
8.0332507217
 11
33.149747904
 21
10.0156993519
 70
160
 71
2
 42
114.3
  3
DIMSTYLE_1
100
AcDbAlignedDimension
 13
31.6779122355
 23
12.5332507217
 14
31.6779122355
 24
8.0332507217
 50
270.0
100
AcDbRotatedDimension
  0
DIMENSION
  5
32A
100
AcDbEntity
  8
0
100
AcDbDimension
 62
2
  6
CONTINUOUS
  2
*D7
 10
28.417209571
 20
10.4154775541
 11
25.7487017235
 21
13.7097062061
 70
163
 71
3
 42
7.0
  1
4X %%c<>
  3
DIMSTYLE_2
100
AcDbDiametricDimension
 15
28.4947622052
 25
10.1510238893
  0
DIMENSION
  5
32B
100
AcDbEntity
  8
0
100
AcDbDimension
 62
2
  6
CONTINUOUS
  2
*D8
 10
10.5746745398
 20
17.1532428157
 11
10.5746745398
 21
19.0506520758
 70
160
 71
2
 42
109.98
  3
DIMSTYLE_1
100
AcDbAlignedDimension
 13
7.4796546119
 23
21.4831640756
 14
6.916662486
 24
17.1532428157
 50
270.0
100
AcDbRotatedDimension
  0
DIMENSION
  5
32C
100
AcDbEntity
  8
0
100
AcDbDimension
 62
2
  6
CONTINUOUS
  2
*D9
 10
12.0581536817
 20
16.976864863
 11
12.0581536817
 21
18.9624630994
 70
160
 71
2
 42
114.46
  3
DIMSTYLE_1
100
AcDbAlignedDimension
 13
7.4796546119
 23
21.4831640756
 14
6.570026127
 24
16.976864863
 50
270.0
100
AcDbRotatedDimension
  0
DIMENSION
  5
32D
100
AcDbEntity
  8
0
100
AcDbDimension
 62
2
  6
CONTINUOUS
  2
*D10
 10
5.6192346396
 20
18.4182839269
 11
5.5847189568
 21
15.1377748812
 70
162
 71
2
 42
2.4434609528
  1
B
  3
DIMSTYLE_3
100
AcDb2LineAngularDimension
 13
5.6806183497
 23
18.4286537841
 14
5.6498478958
 24
18.4174542548
 15
5.5884641857
 25
18.4294834562
 16
5.6356810205
 26
15.1377746211
  0
DIMENSION
  5
32E
100
AcDbEntity
  8
0
100
AcDbDimension
 62
2
  6
CONTINUOUS
  2
*D11
 10
3.0203474435
 20
18.4122979338
 11
3.0203474435
 21
19.9105677248
 70
160
 71
2
 42
78.0
  3
DIMSTYLE_1
100
AcDbAlignedDimension
 13
3.791707429
 23
21.4831640756
 14
4.3822945645
 24
18.4122979338
 50
270.0
100
AcDbRotatedDimension
  0
DIMENSION
  5
32F
100
AcDbEntity
  8
0
100
AcDbDimension
 62
2
  6
CONTINUOUS
  2
*D12
 10
15.1838066466
 20
10.2832507217
 11
13.746213721
 21
12.5742144949
 70
162
 71
2
 42
0.2617993878
  3
DIMSTYLE_3
100
AcDb2LineAngularDimension
 13
17.0152659895
 23
10.3031859091
 14
16.976116571
 24
10.3136759642
 15
15.2243371071
 25
10.2832507217
 16
13.0712934431
 26
10.8122793894
  0
DIMENSION
  5
330
100
AcDbEntity
  8
0
100
AcDbDimension
 62
2
  6
CONTINUOUS
  2
*D13
 10
17.0005299857
 20
10.231788527
 11
12.1253798324
 21
8.9667297433
 70
162
 71
2
 42
0.5235987756
  1
A
  3
DIMSTYLE_3
100
AcDb2LineAngularDimension
 13
15.2346731057
 23
10.2832507217
 14
15.1838066466
 24
10.2832507217
 15
17.0445816315
 25
10.2572217565
 16
12.1763424735
 26
8.966729886
  0
DIMENSION
  5
331
100
AcDbEntity
  8
0
100
AcDbDimension
 62
2
  6
CONTINUOUS
  2
*D14
 10
20.1605312634
 20
14.6221049771
 11
18.6250981926
 21
14.0870022374
 70
160
 71
2
 42
78.0
  1
(<>) \PPOINT OF ARTICULATION
  3
DIMSTYLE_1
100
AcDbAlignedDimension
 13
17.0896651217
 23
13.1010364144
 14
20.1605312634
 24
13.0330366806
100
AcDbRotatedDimension
  0
LWPOLYLINE
  5
332
100
AcDbEntity
  8
0
100
AcDbPolyline
 62
2
  6
CONTINUOUS
 90
2
 70
0
 43
0.0456621005
 10
36.5485685198
 20
23.9704486855
 10
13.5291621271
 20
23.9704486855
  0
LWPOLYLINE
  5
333
100
AcDbEntity
  8
0
100
AcDbPolyline
 62
2
  6
CONTINUOUS
 90
2
 70
0
 43
0.0456621005
 10
36.5257374695
 20
23.9704486855
 10
36.5257374695
 20
21.8300377266
  0
LWPOLYLINE
  5
334
100
AcDbEntity
  8
0
100
AcDbPolyline
 62
2
  6
CONTINUOUS
 90
2
 70
0
 43
0.0456621005
 10
36.5257374695
 20
23.2569783659
 10
13.5519931773
 20
23.2569783659
  0
LWPOLYLINE
  5
335
100
AcDbEntity
  8
0
100
AcDbPolyline
 62
2
  6
CONTINUOUS
 90
2
 70
0
 43
0.0456621005
 10
36.5257374695
 20
22.5435080463
 10
13.5519931773
 20
22.5435080463
  0
LWPOLYLINE
  5
336
100
AcDbEntity
  8
0
100
AcDbPolyline
 62
2
  6
CONTINUOUS
 90
2
 70
0
 43
0.0456621005
 10
36.5485685198
 20
21.8300377266
 10
13.5291621271
 20
21.8300377266
  0
LWPOLYLINE
  5
337
100
AcDbEntity
  8
0
100
AcDbPolyline
 62
2
  6
CONTINUOUS
 90
2
 70
0
 43
0.0456621005
 10
34.8134087024
 20
23.2569783659
 10
34.8134087024
 20
21.8300377266
  0
LWPOLYLINE
  5
338
100
AcDbEntity
  8
0
100
AcDbPolyline
 62
2
  6
CONTINUOUS
 90
2
 70
0
 43
0.0456621005
 10
32.2449155517
 20
23.2569783659
 10
32.2449155517
 20
21.8300377266
  0
LWPOLYLINE
  5
339
100
AcDbEntity
  8
0
100
AcDbPolyline
 62
2
  6
CONTINUOUS
 90
2
 70
0
 43
0.0456621005
 10
31.1033630403
 20
23.2569783659
 10
31.1033630403
 20
21.8300377266
  0
LWPOLYLINE
  5
33A
100
AcDbEntity
  8
0
100
AcDbPolyline
 62
2
  6
CONTINUOUS
 90
2
 70
0
 43
0.0456621005
 10
16.5485685198
 20
23.2569783659
 10
16.5485685198
 20
21.8300377266
  0
LWPOLYLINE
  5
33B
100
AcDbEntity
  8
0
100
AcDbPolyline
 62
2
  6
CONTINUOUS
 90
2
 70
0
 43
0.0456621005
 10
14.6935456887
 20
23.2569783659
 10
14.6935456887
 20
21.8300377266
  0
LWPOLYLINE
  5
33C
100
AcDbEntity
  8
0
100
AcDbPolyline
 62
2
  6
CONTINUOUS
 90
2
 70
0
 43
0.0456621005
 10
13.5519931773
 20
23.9704486855
 10
13.5519931773
 20
21.8300377266
  0
MTEXT
  5
33D
100
AcDbEntity
  8
0
100
AcDbMText
 62
2
  6
CONTINUOUS
  7
STANDARD
 71
2
 72
1
 10
25.0388653234
 20
23.7920811056
 30
0.0
 11
1.0
 21
0.0
 31
0.0
 44
0.9
  1
REVISIONS
 40
0.3567351598
 41
3.6183137639
  0
MTEXT
  5
33E
100
AcDbEntity
  8
0
100
AcDbMText
 62
2
  6
CONTINUOUS
  7
STANDARD
 71
2
 72
1
 10
35.669573086
 20
23.0783253979
 30
0.0
 11
1.0
 21
0.0
 31
0.0
 44
0.9
  1
ISSUED
 40
0.3561643836
 41
2.4677103718
  0
MTEXT
  5
33F
100
AcDbEntity
  8
0
100
AcDbMText
 62
2
  6
CONTINUOUS
  7
STANDARD
 71
2
 72
1
 10
33.5291621271
 20
23.0783253979
 30
0.0
 11
1.0
 21
0.0
 31
0.0
 44
0.9
  1
EFF DATE
 40
0.3561643836
 41
3.3454011742
  0
MTEXT
  5
340
100
AcDbEntity
  8
0
100
AcDbMText
 62
2
  6
CONTINUOUS
  7
STANDARD
 71
2
 72
1
 10
31.674139296
 20
23.078610786
 30
0.0
 11
1.0
 21
0.0
 31
0.0
 44
0.9
  1
BY
 40
0.3567351598
 41
0.8790973581
  0
MTEXT
  5
341
100
AcDbEntity
  8
0
100
AcDbMText
 62
2
  6
CONTINUOUS
  7
STANDARD
 71
2
 72
1
 10
23.82596578
 20
23.0783253979
 30
0.0
 11
1.0
 21
0.0
 31
0.0
 44
0.9
  1
DESCRIPTION
 40
0.3561643836
 41
4.553816047
  0
MTEXT
  5
342
100
AcDbEntity
  8
0
100
AcDbMText
 62
2
  6
CONTINUOUS
  7
STANDARD
 71
2
 72
1
 10
15.6210571042
 20
23.078610786
 30
0.0
 11
1.0
 21
0.0
 31
0.0
 44
0.9
  1
ECO
 40
0.3567351598
 41
1.2485730594
  0
MTEXT
  5
343
100
AcDbEntity
  8
0
100
AcDbMText
 62
2
  6
CONTINUOUS
  7
STANDARD
 71
2
 72
1
 10
14.122769433
 20
23.0783253979
 30
0.0
 11
1.0
 21
0.0
 31
0.0
 44
0.9
  1
REV
 40
0.3561643836
 41
1.2465753425
  0
MTEXT
  5
344
100
AcDbEntity
  8
0
100
AcDbMText
 62
2
  6
CONTINUOUS
  7
STANDARD
 71
2
 72
1
 10
35.669573086
 20
22.3651404663
 30
0.0
 11
1.0
 21
0.0
 31
0.0
 44
0.9
  1
-
 40
0.3567351598
 41
0.484140574
  0
MTEXT
  5
345
100
AcDbEntity
  8
0
100
AcDbMText
 62
2
  6
CONTINUOUS
  7
STANDARD
 71
2
 72
1
 10
33.5291621271
 20
22.3651404663
 30
0.0
 11
1.0
 21
0.0
 31
0.0
 44
0.9
  1
19-MAY-14
 40
0.3567351598
 41
3.6947570124
  0
MTEXT
  5
346
100
AcDbEntity
  8
0
100
AcDbMText
 62
2
  6
CONTINUOUS
  7
STANDARD
 71
2
 72
1
 10
31.674139296
 20
22.3651404663
 30
0.0
 11
1.0
 21
0.0
 31
0.0
 44
0.9
  1
 AA 
 40
0.3567351598
 41
1.8601190476
  0
MTEXT
  5
347
100
AcDbEntity
  8
0
100
AcDbMText
 62
2
  6
CONTINUOUS
  7
STANDARD
 71
1
 72
1
 10
16.6912625837
 20
22.3651404663
 30
0.0
 11
1.0
 21
0.0
 31
0.0
 44
0.9
  1
RELEASE
 40
0.3567351598
 41
2.8921029028
  0
MTEXT
  5
348
100
AcDbEntity
  8
0
100
AcDbMText
 62
2
  6
CONTINUOUS
  7
STANDARD
 71
2
 72
1
 10
15.6210571042
 20
22.3651404663
 30
0.0
 11
1.0
 21
0.0
 31
0.0
 44
0.9
  1
-
 40
0.3567351598
 41
0.484140574
  0
MTEXT
  5
349
100
AcDbEntity
  8
0
100
AcDbMText
 62
2
  6
CONTINUOUS
  7
STANDARD
 71
2
 72
1
 10
14.122769433
 20
22.3651404663
 30
0.0
 11
1.0
 21
0.0
 31
0.0
 44
0.9
  1
A
 40
0.3567351598
 41
0.5605838226
  0
LINE
  5
34A
100
AcDbEntity
  8
0
100
AcDbLine
 62
2
  6
CONTINUOUS
 10
13.9840182648
 20
3.99543379
 11
19.1210045662
 21
3.99543379
  0
LINE
  5
34B
100
AcDbEntity
  8
0
100
AcDbLine
 62
2
  6
CONTINUOUS
 10
13.9840182648
 20
3.99543379
 11
13.9840182648
 21
2.5684931507
  0
LINE
  5
34C
100
AcDbEntity
  8
0
100
AcDbLine
 62
2
  6
CONTINUOUS
 10
13.9840182648
 20
2.5684931507
 11
19.1210045662
 21
2.5684931507
  0
LINE
  5
34D
100
AcDbEntity
  8
0
100
AcDbLine
 62
2
  6
CONTINUOUS
 10
19.1210045662
 20
3.99543379
 11
19.1210045662
 21
2.5684931507
  0
LINE
  5
34E
100
AcDbEntity
  8
0
100
AcDbLine
 62
2
  6
CONTINUOUS
 10
13.9840182648
 20
2.5684931507
 11
19.1210045662
 21
2.5684931507
  0
LINE
  5
34F
100
AcDbEntity
  8
0
100
AcDbLine
 62
2
  6
CONTINUOUS
 10
13.9840182648
 20
2.5684931507
 11
13.9840182648
 21
1.1415525114
  0
LINE
  5
350
100
AcDbEntity
  8
0
100
AcDbLine
 62
2
  6
CONTINUOUS
 10
13.9840182648
 20
1.1415525114
 11
19.1210045662
 21
1.1415525114
  0
LINE
  5
351
100
AcDbEntity
  8
0
100
AcDbLine
 62
2
  6
CONTINUOUS
 10
19.1210045662
 20
2.5684931507
 11
19.1210045662
 21
1.1415525114
  0
LINE
  5
352
100
AcDbEntity
  8
0
100
AcDbLine
 62
2
  6
CONTINUOUS
 10
19.1210045662
 20
6.2785388128
 11
23.1164383562
 21
6.2785388128
  0
LINE
  5
353
100
AcDbEntity
  8
0
100
AcDbLine
 62
2
  6
CONTINUOUS
 10
19.1210045662
 20
6.2785388128
 11
19.1210045662
 21
5.2975171233
  0
LINE
  5
354
100
AcDbEntity
  8
0
100
AcDbLine
 62
2
  6
CONTINUOUS
 10
19.1210045662
 20
5.2975171233
 11
23.1164383562
 21
5.2975171233
  0
LINE
  5
355
100
AcDbEntity
  8
0
100
AcDbLine
 62
2
  6
CONTINUOUS
 10
23.1164383562
 20
6.2785388128
 11
23.1164383562
 21
5.2975171233
  0
MTEXT
  5
356
100
AcDbEntity
  8
0
100
AcDbMText
 62
2
  6
CONTINUOUS
  7
STANDARD
 71
1
 72
1
 10
19.2636986301
 20
5.832619863
 30
0.0
 11
1.0
 21
0.0
 31
0.0
 44
0.9
  1
A. ARANDA 
 40
0.3567351598
 41
4.3063030007
  0
LINE
  5
357
100
AcDbEntity
  8
0
100
AcDbLine
 62
2
  6
CONTINUOUS
 10
19.1210045662
 20
5.2796803653
 11
23.1164383562
 21
5.2796803653
  0
LINE
  5
358
100
AcDbEntity
  8
0
100
AcDbLine
 62
2
  6
CONTINUOUS
 10
19.1210045662
 20
5.2796803653
 11
19.1210045662
 21
4.2751141553
  0
LINE
  5
359
100
AcDbEntity
  8
0
100
AcDbLine
 62
2
  6
CONTINUOUS
 10
19.1210045662
 20
4.2751141553
 11
23.1164383562
 21
4.2751141553
  0
LINE
  5
35A
100
AcDbEntity
  8
0
100
AcDbLine
 62
2
  6
CONTINUOUS
 10
23.1164383562
 20
5.2796803653
 11
23.1164383562
 21
4.2751141553
  0
MTEXT
  5
35B
100
AcDbEntity
  8
0
100
AcDbMText
 62
2
  6
CONTINUOUS
  7
STANDARD
 71
1
 72
1
 10
19.2636986301
 20
4.810216895
 30
0.0
 11
1.0
 21
0.0
 31
0.0
 44
0.9
  1
J. DELARM 
 40
0.3567351598
 41
4.0387516308
  0
LINE
  5
35C
100
AcDbEntity
  8
0
100
AcDbLine
 62
2
  6
CONTINUOUS
 10
19.1210045662
 20
4.2808219178
 11
23.1164383562
 21
4.2808219178
  0
LINE
  5
35D
100
AcDbEntity
  8
0
100
AcDbLine
 62
2
  6
CONTINUOUS
 10
19.1210045662
 20
4.2808219178
 11
19.1210045662
 21
3.2998002283
  0
LINE
  5
35E
100
AcDbEntity
  8
0
100
AcDbLine
 62
2
  6
CONTINUOUS
 10
19.1210045662
 20
3.2998002283
 11
23.1164383562
 21
3.2998002283
  0
LINE
  5
35F
100
AcDbEntity
  8
0
100
AcDbLine
 62
2
  6
CONTINUOUS
 10
23.1164383562
 20
4.2808219178
 11
23.1164383562
 21
3.2998002283
  0
MTEXT
  5
360
100
AcDbEntity
  8
0
100
AcDbMText
 62
2
  6
CONTINUOUS
  7
STANDARD
 71
1
 72
1
 10
19.2636986301
 20
3.834902968
 30
0.0
 11
1.0
 21
0.0
 31
0.0
 44
0.9
  1
T. NIE
 40
0.3567351598
 41
2.4334434116
  0
LINE
  5
361
100
AcDbEntity
  8
0
100
AcDbLine
 62
2
  6
CONTINUOUS
 10
19.1210045662
 20
3.2819634703
 11
23.1164383562
 21
3.2819634703
  0
LINE
  5
362
100
AcDbEntity
  8
0
100
AcDbLine
 62
2
  6
CONTINUOUS
 10
19.1210045662
 20
3.2819634703
 11
19.1210045662
 21
2.2773972603
  0
LINE
  5
363
100
AcDbEntity
  8
0
100
AcDbLine
 62
2
  6
CONTINUOUS
 10
19.1210045662
 20
2.2773972603
 11
23.1164383562
 21
2.2773972603
  0
LINE
  5
364
100
AcDbEntity
  8
0
100
AcDbLine
 62
2
  6
CONTINUOUS
 10
23.1164383562
 20
3.2819634703
 11
23.1164383562
 21
2.2773972603
  0
MTEXT
  5
365
100
AcDbEntity
  8
0
100
AcDbMText
 62
2
  6
CONTINUOUS
  7
STANDARD
 71
1
 72
1
 10
19.2636986301
 20
2.8125
 30
0.0
 11
1.0
 21
0.0
 31
0.0
 44
0.9
  1
N/A
 40
0.3567351598
 41
1.2867946836
  0
LINE
  5
366
100
AcDbEntity
  8
0
100
AcDbLine
 62
2
  6
CONTINUOUS
 10
23.1164383562
 20
6.2785388128
 11
25.1141552511
 21
6.2785388128
  0
LINE
  5
367
100
AcDbEntity
  8
0
100
AcDbLine
 62
2
  6
CONTINUOUS
 10
23.1164383562
 20
6.2785388128
 11
23.1164383562
 21
5.2739726027
  0
LINE
  5
368
100
AcDbEntity
  8
0
100
AcDbLine
 62
2
  6
CONTINUOUS
 10
23.1164383562
 20
5.2739726027
 11
25.1141552511
 21
5.2739726027
  0
LINE
  5
369
100
AcDbEntity
  8
0
100
AcDbLine
 62
2
  6
CONTINUOUS
 10
25.1141552511
 20
6.2785388128
 11
25.1141552511
 21
5.2739726027
  0
MTEXT
  5
36A
100
AcDbEntity
  8
0
100
AcDbMText
 62
2
  6
CONTINUOUS
  7
STANDARD
 71
2
 72
1
 10
24.1152968037
 20
5.7263127854
 30
0.0
 11
1.0
 21
0.0
 31
0.0
 44
0.9
  1
16-MAY-14
 40
0.2739726027
 41
2.759295499
  0
LINE
  5
36B
100
AcDbEntity
  8
0
100
AcDbLine
 62
2
  6
CONTINUOUS
 10
23.1164383562
 20
5.2796803653
 11
25.1141552511
 21
5.2796803653
  0
LINE
  5
36C
100
AcDbEntity
  8
0
100
AcDbLine
 62
2
  6
CONTINUOUS
 10
23.1164383562
 20
5.2796803653
 11
23.1164383562
 21
4.2751141553
  0
LINE
  5
36D
100
AcDbEntity
  8
0
100
AcDbLine
 62
2
  6
CONTINUOUS
 10
23.1164383562
 20
4.2751141553
 11
25.1141552511
 21
4.2751141553
  0
LINE
  5
36E
100
AcDbEntity
  8
0
100
AcDbLine
 62
2
  6
CONTINUOUS
 10
25.1141552511
 20
5.2796803653
 11
25.1141552511
 21
4.2751141553
  0
MTEXT
  5
36F
100
AcDbEntity
  8
0
100
AcDbMText
 62
2
  6
CONTINUOUS
  7
STANDARD
 71
2
 72
1
 10
24.1152968037
 20
4.7274543379
 30
0.0
 11
1.0
 21
0.0
 31
0.0
 44
0.9
  1
19-MAY-14
 40
0.2739726027
 41
2.759295499
  0
LINE
  5
370
100
AcDbEntity
  8
0
100
AcDbLine
 62
2
  6
CONTINUOUS
 10
23.1164383562
 20
4.2808219178
 11
25.1141552511
 21
4.2808219178
  0
LINE
  5
371
100
AcDbEntity
  8
0
100
AcDbLine
 62
2
  6
CONTINUOUS
 10
23.1164383562
 20
4.2808219178
 11
23.1164383562
 21
3.2762557078
  0
LINE
  5
372
100
AcDbEntity
  8
0
100
AcDbLine
 62
2
  6
CONTINUOUS
 10
23.1164383562
 20
3.2762557078
 11
25.1141552511
 21
3.2762557078
  0
LINE
  5
373
100
AcDbEntity
  8
0
100
AcDbLine
 62
2
  6
CONTINUOUS
 10
25.1141552511
 20
4.2808219178
 11
25.1141552511
 21
3.2762557078
  0
MTEXT
  5
374
100
AcDbEntity
  8
0
100
AcDbMText
 62
2
  6
CONTINUOUS
  7
STANDARD
 71
2
 72
1
 10
24.1152968037
 20
3.7285958904
 30
0.0
 11
1.0
 21
0.0
 31
0.0
 44
0.9
  1
19-MAY-14
 40
0.2739726027
 41
2.759295499
  0
LINE
  5
375
100
AcDbEntity
  8
0
100
AcDbLine
 62
2
  6
CONTINUOUS
 10
23.1164383562
 20
3.2819634703
 11
25.1141552511
 21
3.2819634703
  0
LINE
  5
376
100
AcDbEntity
  8
0
100
AcDbLine
 62
2
  6
CONTINUOUS
 10
23.1164383562
 20
3.2819634703
 11
23.1164383562
 21
2.3009417808
  0
LINE
  5
377
100
AcDbEntity
  8
0
100
AcDbLine
 62
2
  6
CONTINUOUS
 10
23.1164383562
 20
2.3009417808
 11
25.1141552511
 21
2.3009417808
  0
LINE
  5
378
100
AcDbEntity
  8
0
100
AcDbLine
 62
2
  6
CONTINUOUS
 10
25.1141552511
 20
3.2819634703
 11
25.1141552511
 21
2.3009417808
  0
MTEXT
  5
379
100
AcDbEntity
  8
0
100
AcDbMText
 62
2
  6
CONTINUOUS
  7
STANDARD
 71
2
 72
1
 10
24.1152968037
 20
2.7532819635
 30
0.0
 11
1.0
 21
0.0
 31
0.0
 44
0.9
  1
-
 40
0.2739726027
 41
0.2935420744
  0
LINE
  5
37A
100
AcDbEntity
  8
0
100
AcDbLine
 62
2
  6
CONTINUOUS
 10
19.1210045662
 20
2.2831050228
 11
25.1141552511
 21
2.2831050228
  0
LINE
  5
37B
100
AcDbEntity
  8
0
100
AcDbLine
 62
2
  6
CONTINUOUS
 10
19.1210045662
 20
2.2831050228
 11
19.1210045662
 21
1.7123287671
  0
LINE
  5
37C
100
AcDbEntity
  8
0
100
AcDbLine
 62
2
  6
CONTINUOUS
 10
19.1210045662
 20
1.7123287671
 11
25.1141552511
 21
1.7123287671
  0
LINE
  5
37D
100
AcDbEntity
  8
0
100
AcDbLine
 62
2
  6
CONTINUOUS
 10
25.1141552511
 20
2.2831050228
 11
25.1141552511
 21
1.7123287671
  0
MTEXT
  5
37E
100
AcDbEntity
  8
0
100
AcDbMText
 62
2
  6
CONTINUOUS
  7
STANDARD
 71
3
 72
1
 10
24.9714611872
 20
2.1418378995
 30
0.0
 11
1.0
 21
0.0
 31
0.0
 44
0.9
  1
RD-000589-2D.A.1
 40
0.2511415525
 41
4.5295172864
  0
LINE
  5
37F
100
AcDbEntity
  8
0
100
AcDbLine
 62
2
  6
CONTINUOUS
 10
19.1210045662
 20
1.7123287671
 11
25.1141552511
 21
1.7123287671
  0
LINE
  5
380
100
AcDbEntity
  8
0
100
AcDbLine
 62
2
  6
CONTINUOUS
 10
19.1210045662
 20
1.7123287671
 11
19.1210045662
 21
1.1415525114
  0
LINE
  5
381
100
AcDbEntity
  8
0
100
AcDbLine
 62
2
  6
CONTINUOUS
 10
19.1210045662
 20
1.1415525114
 11
25.1141552511
 21
1.1415525114
  0
LINE
  5
382
100
AcDbEntity
  8
0
100
AcDbLine
 62
2
  6
CONTINUOUS
 10
25.1141552511
 20
1.7123287671
 11
25.1141552511
 21
1.1415525114
  0
MTEXT
  5
383
100
AcDbEntity
  8
0
100
AcDbMText
 62
2
  6
CONTINUOUS
  7
STANDARD
 71
3
 72
1
 10
24.9714611872
 20
1.5710616438
 30
0.0
 11
1.0
 21
0.0
 31
0.0
 44
0.9
  1
RD-000589-3D.A.0
 40
0.2511415525
 41
4.5833333333
  0
LINE
  5
384
100
AcDbEntity
  8
0
100
AcDbLine
 62
2
  6
CONTINUOUS
 10
25.1141552511
 20
5.4223744292
 11
36.5296803653
 21
5.4223744292
  0
LINE
  5
385
100
AcDbEntity
  8
0
100
AcDbLine
 62
2
  6
CONTINUOUS
 10
25.1141552511
 20
5.4223744292
 11
25.1141552511
 21
2.8538812785
  0
LINE
  5
386
100
AcDbEntity
  8
0
100
AcDbLine
 62
2
  6
CONTINUOUS
 10
25.1141552511
 20
2.8538812785
 11
36.5296803653
 21
2.8538812785
  0
LINE
  5
387
100
AcDbEntity
  8
0
100
AcDbLine
 62
2
  6
CONTINUOUS
 10
36.5296803653
 20
5.4223744292
 11
36.5296803653
 21
2.8538812785
  0
MTEXT
  5
388
100
AcDbEntity
  8
0
100
AcDbMText
 62
2
  6
CONTINUOUS
  7
STANDARD
 71
2
 72
1
 10
30.8219178082
 20
4.8344748858
 30
0.0
 11
1.0
 21
0.0
 31
0.0
 44
1.02
  1
WALL MOUNT,\PAD-S6T
 40
0.4566210046
 41
6.1154598826
  0
LINE
  5
389
100
AcDbEntity
  8
0
100
AcDbLine
 62
2
  6
CONTINUOUS
 10
25.1166490935
 20
2.8491791495
 11
26.2582016049
 21
2.8491791495
  0
LINE
  5
38A
100
AcDbEntity
  8
0
100
AcDbLine
 62
2
  6
CONTINUOUS
 10
25.1166490935
 20
2.8491791495
 11
25.1166490935
 21
1.7076266381
  0
LINE
  5
38B
100
AcDbEntity
  8
0
100
AcDbLine
 62
2
  6
CONTINUOUS
 10
25.1166490935
 20
1.7076266381
 11
26.2582016049
 21
1.7076266381
  0
LINE
  5
38C
100
AcDbEntity
  8
0
100
AcDbLine
 62
2
  6
CONTINUOUS
 10
26.2582016049
 20
2.8491791495
 11
26.2582016049
 21
1.7076266381
  0
MTEXT
  5
38D
100
AcDbEntity
  8
0
100
AcDbMText
 62
2
  6
CONTINUOUS
  7
STANDARD
 71
2
 72
1
 10
25.6874253492
 20
2.3426152226
 30
0.0
 11
1.0
 21
0.0
 31
0.0
 44
0.9
  1
B
 40
0.4566210046
 41
0.5381604697
  0
LINE
  5
38E
100
AcDbEntity
  8
0
100
AcDbLine
 62
2
  6
CONTINUOUS
 10
28.5399942867
 20
2.8424077377
 11
35.3893093552
 21
2.8424077377
  0
LINE
  5
38F
100
AcDbEntity
  8
0
100
AcDbLine
 62
2
  6
CONTINUOUS
 10
28.5399942867
 20
2.8424077377
 11
28.5399942867
 21
1.7008552263
  0
LINE
  5
390
100
AcDbEntity
  8
0
100
AcDbLine
 62
2
  6
CONTINUOUS
 10
28.5399942867
 20
1.7008552263
 11
35.3893093552
 21
1.7008552263
  0
LINE
  5
391
100
AcDbEntity
  8
0
100
AcDbLine
 62
2
  6
CONTINUOUS
 10
35.3893093552
 20
2.8424077377
 11
35.3893093552
 21
1.7008552263
  0
MTEXT
  5
392
100
AcDbEntity
  8
0
100
AcDbMText
 62
2
  6
CONTINUOUS
  7
STANDARD
 71
2
 72
1
 10
31.964651821
 20
2.4043369615
 30
0.0
 11
1.0
 21
0.0
 31
0.0
 44
0.9
  1
RD-000589-2D
 40
0.5251141553
 41
7.4453685584
  0
LINE
  5
393
100
AcDbEntity
  8
0
100
AcDbLine
 62
2
  6
CONTINUOUS
 10
35.3851595805
 20
2.8499721978
 11
36.5267120919
 21
2.8499721978
  0
LINE
  5
394
100
AcDbEntity
  8
0
100
AcDbLine
 62
2
  6
CONTINUOUS
 10
35.3851595805
 20
2.8499721978
 11
35.3851595805
 21
1.7084196863
  0
LINE
  5
395
100
AcDbEntity
  8
0
100
AcDbLine
 62
2
  6
CONTINUOUS
 10
35.3851595805
 20
1.7084196863
 11
36.5267120919
 21
1.7084196863
  0
LINE
  5
396
100
AcDbEntity
  8
0
100
AcDbLine
 62
2
  6
CONTINUOUS
 10
36.5267120919
 20
2.8499721978
 11
36.5267120919
 21
1.7084196863
  0
MTEXT
  5
397
100
AcDbEntity
  8
0
100
AcDbMText
 62
2
  6
CONTINUOUS
  7
STANDARD
 71
2
 72
1
 10
35.9559358362
 20
2.2977461704
 30
0.0
 11
1.0
 21
0.0
 31
0.0
 44
0.9
  1
A
 40
0.4109589041
 41
0.5283757339
  0
LINE
  5
398
100
AcDbEntity
  8
0
100
AcDbLine
 62
2
  6
CONTINUOUS
 10
32.8210516424
 20
1.6961846658
 11
36.5310973045
 21
1.6961846658
  0
LINE
  5
399
100
AcDbEntity
  8
0
100
AcDbLine
 62
2
  6
CONTINUOUS
 10
32.8210516424
 20
1.6961846658
 11
32.8210516424
 21
1.1254084101
  0
LINE
  5
39A
100
AcDbEntity
  8
0
100
AcDbLine
 62
2
  6
CONTINUOUS
 10
32.8210516424
 20
1.1254084101
 11
36.5310973045
 21
1.1254084101
  0
LINE
  5
39B
100
AcDbEntity
  8
0
100
AcDbLine
 62
2
  6
CONTINUOUS
 10
36.5310973045
 20
1.6961846658
 11
36.5310973045
 21
1.1254084101
  0
MTEXT
  5
39C
100
AcDbEntity
  8
0
100
AcDbMText
 62
2
  6
CONTINUOUS
  7
STANDARD
 71
3
 72
1
 10
36.3884032406
 20
1.6234106932
 30
0.0
 11
1.0
 21
0.0
 31
0.0
 44
0.9
  1
1 OF 1
 40
0.3196347032
 41
2.0205479452
  0
LINE
  5
39D
100
AcDbEntity
  8
0
100
AcDbLine
 62
2
  6
CONTINUOUS
 10
25.1101822194
 20
1.7096420477
 11
27.8225109865
 21
1.7096420477
  0
LINE
  5
39E
100
AcDbEntity
  8
0
100
AcDbLine
 62
2
  6
CONTINUOUS
 10
25.1101822194
 20
1.7096420477
 11
25.1101822194
 21
1.129947413
  0
LINE
  5
39F
100
AcDbEntity
  8
0
100
AcDbLine
 62
2
  6
CONTINUOUS
 10
25.1101822194
 20
1.129947413
 11
27.8225109865
 21
1.129947413
  0
LINE
  5
3A0
100
AcDbEntity
  8
0
100
AcDbLine
 62
2
  6
CONTINUOUS
 10
27.8225109865
 20
1.7096420477
 11
27.8225109865
 21
1.129947413
  0
MTEXT
  5
3A1
100
AcDbEntity
  8
0
100
AcDbMText
 62
2
  6
CONTINUOUS
  7
STANDARD
 71
3
 72
1
 10
27.6798169226
 20
1.5822875957
 30
0.0
 11
1.0
 21
0.0
 31
0.0
 44
0.9
  1
0.438
 40
0.2739726027
 41
1.4970645793
  0
LINE
  5
3A2
100
AcDbEntity
  8
0
100
AcDbLine
 62
2
  6
CONTINUOUS
 10
18.2857782546
 20
19.997859916
 11
23.4227645559
 21
19.997859916
  0
LINE
  5
3A3
100
AcDbEntity
  8
0
100
AcDbLine
 62
2
  6
CONTINUOUS
 10
18.2857782546
 20
19.997859916
 11
18.2857782546
 21
18.5709192768
  0
LINE
  5
3A4
100
AcDbEntity
  8
0
100
AcDbLine
 62
2
  6
CONTINUOUS
 10
18.2857782546
 20
19.2843895964
 11
23.4227645559
 21
19.2843895964
  0
LINE
  5
3A5
100
AcDbEntity
  8
0
100
AcDbLine
 62
2
  6
CONTINUOUS
 10
18.2857782546
 20
18.5709192768
 11
23.4227645559
 21
18.5709192768
  0
LINE
  5
3A6
100
AcDbEntity
  8
0
100
AcDbLine
 62
2
  6
CONTINUOUS
 10
19.9981070217
 20
19.997859916
 11
19.9981070217
 21
18.5709192768
  0
LINE
  5
3A7
100
AcDbEntity
  8
0
100
AcDbLine
 62
2
  6
CONTINUOUS
 10
21.7104357888
 20
19.997859916
 11
21.7104357888
 21
18.5709192768
  0
LINE
  5
3A8
100
AcDbEntity
  8
0
100
AcDbLine
 62
2
  6
CONTINUOUS
 10
23.4227645559
 20
19.997859916
 11
23.4227645559
 21
18.5709192768
  0
MTEXT
  5
3A9
100
AcDbEntity
  8
0
100
AcDbMText
 62
2
  6
CONTINUOUS
  7
STANDARD
 71
2
 72
1
 10
19.1419426381
 20
19.8194923361
 30
0.0
 11
1.0
 21
0.0
 31
0.0
 44
0.9
  1
MODEL
 40
0.3567351598
 41
2.1913731246
  0
MTEXT
  5
3AA
100
AcDbEntity
  8
0
100
AcDbMText
 62
2
  6
CONTINUOUS
  7
STANDARD
 71
1
 72
1
 10
20.1408010856
 20
19.8194923361
 30
0.0
 11
1.0
 21
0.0
 31
0.0
 44
0.9
  1
DIM A
 40
0.3567351598
 41
2.2678163731
  0
MTEXT
  5
3AB
100
AcDbEntity
  8
0
100
AcDbMText
 62
2
  6
CONTINUOUS
  7
STANDARD
 71
2
 72
1
 10
22.5666001724
 20
19.8194923361
 30
0.0
 11
1.0
 21
0.0
 31
0.0
 44
0.9
  1
DIM B
 40
0.3567351598
 41
2.2295947489
  0
MTEXT
  5
3AC
100
AcDbEntity
  8
0
100
AcDbMText
 62
2
  6
CONTINUOUS
  7
STANDARD
 71
2
 72
1
 10
19.1419426381
 20
19.1060220165
 30
0.0
 11
1.0
 21
0.0
 31
0.0
 44
0.9
  1
S6T
 40
0.3567351598
 41
1.4014595564
  0
MTEXT
  5
3AD
100
AcDbEntity
  8
0
100
AcDbMText
 62
2
  6
CONTINUOUS
  7
STANDARD
 71
2
 72
1
 10
20.8542714052
 20
19.1060220165
 30
0.0
 11
1.0
 21
0.0
 31
0.0
 44
0.9
  1
30.0\Fgdt;{\Fgdt;~}
 40
0.3567351598
 41
1.9875244618
  0
MTEXT
  5
3AE
100
AcDbEntity
  8
0
100
AcDbMText
 62
2
  6
CONTINUOUS
  7
STANDARD
 71
2
 72
1
 10
22.5666001724
 20
19.1060220165
 30
0.0
 11
1.0
 21
0.0
 31
0.0
 44
0.9
  1
120.0\Fgdt;{\Fgdt;~}
 40
0.3567351598
 41
2.3315190802
  0
MTEXT
  5
3AF
100
AcDbEntity
  8
0
100
AcDbMText
 62
2
  6
CONTINUOUS
  7
STANDARD
 71
1
 72
1
 10
1.4199861114
 20
4.2824351714
 30
0.0
 11
1.0
 21
0.0
 31
0.0
 44
1.2
  1
3. PARTS ARE SYMMETRICAL ABOUT CENTER LINES \P   UNLESS OTHERWISE NOTED.\P2. TOLERANCES (MM): X \Fgdt;{\Fgdt;`}\Ftxt; 3, ANGLES: \Fgdt;{\Fgdt;`}\Ftxt; 1\Fgdt;{\Fgdt;~}\Ftxt;.\P1. NET WEIGHT APPROX. 0.3 KG (1 LBS)\PNOTE:  UNLESS OTHERWISE SPECIFIED
 40
0.3196347032
 41
16.5068493151
  0
MTEXT
  5
3B0
100
AcDbEntity
  8
0
100
AcDbMText
 62
2
  6
CONTINUOUS
  7
STANDARD
 71
1
 72
1
 10
22.4481922247
 20
4.1946124623
 30
0.0
 11
1.0
 21
0.0
 31
0.0
 44
0.9
  1
MKT
 40
0.2283105023
 41
0.9213959556
  0
MTEXT
  5
3B1
100
AcDbEntity
  8
0
100
AcDbMText
 62
2
  6
CONTINUOUS
  7
STANDARD
 71
3
 72
1
 10
34.5266487626
 20
17.2026745333
 30
0.0
 11
1.0
 21
0.0
 31
0.0
 44
0.9
  1
SCALE  0.250
 40
0.3567351598
 41
4.8414057404
  0
LINE
  5
3B2
100
AcDbEntity
  8
DEFAULT_3
100
AcDbLine
 62
7
  6
PHANTOM
 10
-0.0000044335
 20
-0.0
 11
-0.0000044335
 21
25.1141166498
  0
LWPOLYLINE
  5
3B3
100
AcDbEntity
  8
0
100
AcDbPolyline
 62
7
  6
CONTINUOUS
 90
2
 70
0
 43
0.0456621024
 10
0.5993343428
 20
12.1720395861
 10
0.5993343428
 20
12.942153236
  0
LWPOLYLINE
  5
3B4
100
AcDbEntity
  8
0
100
AcDbPolyline
 62
7
  6
CONTINUOUS
 90
2
 70
0
 43
0.0684931512
 10
1.1412497642
 20
23.9717675548
 10
1.1412497642
 20
1.1415525114
  0
LINE
  5
3B5
100
AcDbEntity
  8
DEFAULT_3
100
AcDbLine
 62
7
  6
PHANTOM
 10
-0.0000044335
 20
-0.0
 11
38.8127853881
 21
-0.0
  0
LWPOLYLINE
  5
3B6
100
AcDbEntity
  8
0
100
AcDbPolyline
 62
7
  6
CONTINUOUS
 90
2
 70
0
 43
0.0684931512
 10
8.1074853769
 20
23.9861499588
 10
8.1074853769
 20
22.8445974474
  0
LWPOLYLINE
  5
3B7
100
AcDbEntity
  8
0
100
AcDbPolyline
 62
7
  6
CONTINUOUS
 90
2
 70
0
 43
0.0456621024
 10
18.4506298174
 20
0.6003273321
 10
19.2207434673
 20
0.6003273321
  0
LWPOLYLINE
  5
3B8
100
AcDbEntity
  8
0
100
AcDbPolyline
 62
7
  6
CONTINUOUS
 90
2
 70
0
 43
0.0684931512
 10
1.1412497642
 20
1.1415525114
 10
36.5296803653
 20
1.1415525114
  0
LWPOLYLINE
  5
3B9
100
AcDbEntity
  8
0
100
AcDbPolyline
 62
7
  6
CONTINUOUS
 90
2
 70
0
 43
0.0456621024
 10
19.1210045662
 20
1.7123287671
 10
36.5296803653
 20
1.7123287671
  0
LWPOLYLINE
  5
3BA
100
AcDbEntity
  8
0
100
AcDbPolyline
 62
7
  6
CONTINUOUS
 90
2
 70
0
 43
0.0456621024
 10
9.98837428
 20
1.1414051435
 10
9.98837428
 20
-0.0001473679
  0
LWPOLYLINE
  5
3BB
100
AcDbEntity
  8
0
100
AcDbPolyline
 62
7
  6
CONTINUOUS
 90
2
 70
0
 43
0.0456621024
 10
9.9885154888
 20
23.9721284747
 10
9.9885154888
 20
25.1136809862
  0
LWPOLYLINE
  5
3BC
100
AcDbEntity
  8
0
100
AcDbPolyline
 62
7
  6
CONTINUOUS
 90
2
 70
0
 43
0.0456621024
 10
1.141656895
 20
12.557096411
 10
0.5993343428
 20
12.1720395861
  0
LINE
  5
3BD
100
AcDbEntity
  8
0
100
AcDbLine
 62
7
  6
CONTINUOUS
 10
19.128188646
 20
2.5682781842
 11
14.0071320919
 21
1.1687991663
  0
LWPOLYLINE
  5
3BE
100
AcDbEntity
  8
0
100
AcDbPolyline
 62
7
  6
CONTINUOUS
 90
2
 70
0
 43
0.0456621024
 10
19.1210045662
 20
2.2831050228
 10
25.1141552511
 20
2.2831050228
  0
LWPOLYLINE
  5
3BF
100
AcDbEntity
  8
0
100
AcDbPolyline
 62
7
  6
CONTINUOUS
 90
2
 70
0
 43
0.0456621024
 10
19.1210045662
 20
2.5684931507
 10
13.9840182648
 20
2.5684931507
  0
LWPOLYLINE
  5
3C0
100
AcDbEntity
  8
0
100
AcDbPolyline
 62
7
  6
CONTINUOUS
 90
2
 70
0
 43
0.0456621024
 10
25.1141552511
 20
2.8538812785
 10
36.5296803653
 20
2.8538812785
  0
LWPOLYLINE
  5
3C1
100
AcDbEntity
  8
0
100
AcDbPolyline
 62
7
  6
CONTINUOUS
 90
2
 70
0
 43
0.0456621024
 10
1.141656895
 20
12.557096411
 10
0.5993343428
 20
12.942153236
  0
LINE
  5
3C2
100
AcDbEntity
  8
0
100
AcDbLine
 62
7
  6
CONTINUOUS
 10
19.1178221348
 20
3.9936734801
 11
13.991582325
 21
2.583827951
  0
LINE
  5
3C3
100
AcDbEntity
  8
0
100
AcDbLine
 62
7
  6
CONTINUOUS
 10
20.3697532584
 20
4.2355204076
 11
19.1702235094
 21
4.0046374692
  0
LWPOLYLINE
  5
3C4
100
AcDbEntity
  8
0
100
AcDbPolyline
 62
7
  6
CONTINUOUS
 90
2
 70
0
 43
0.0456621024
 10
19.1248364936
 20
3.4668122342
 10
25.1179871785
 20
3.4668122342
  0
LWPOLYLINE
  5
3C5
100
AcDbEntity
  8
0
100
AcDbPolyline
 62
7
  6
CONTINUOUS
 90
2
 70
0
 43
0.0456621024
 10
13.9840182648
 20
3.99543379
 10
19.1210045662
 20
3.99543379
  0
LINE
  5
3C6
100
AcDbEntity
  8
0
100
AcDbLine
 62
7
  6
CONTINUOUS
 10
19.1622620288
 20
4.2381742344
 11
20.3670994315
 21
4.0019836423
  0
LWPOLYLINE
  5
3C7
100
AcDbEntity
  8
0
100
AcDbPolyline
 62
7
  6
CONTINUOUS
 90
2
 70
0
 43
0.0456621024
 10
18.8349090158
 20
23.9726921659
 10
19.2199658408
 20
24.5150147182
  0
LWPOLYLINE
  5
3C8
100
AcDbEntity
  8
0
100
AcDbPolyline
 62
7
  6
CONTINUOUS
 90
2
 70
0
 43
0.0456621024
 10
19.1154112317
 20
4.6474489859
 10
25.1085619167
 20
4.6474489859
  0
LWPOLYLINE
  5
3C9
100
AcDbEntity
  8
0
100
AcDbPolyline
 62
7
  6
CONTINUOUS
 90
2
 70
0
 43
0.0456621024
 10
25.1141552511
 20
5.4223744292
 10
36.5296803653
 20
5.4223744292
  0
LWPOLYLINE
  5
3CA
100
AcDbEntity
  8
0
100
AcDbPolyline
 62
7
  6
CONTINUOUS
 90
2
 70
0
 43
0.0456621024
 10
19.1354731117
 20
5.8132448335
 10
25.1286237966
 20
5.8132448335
  0
LINE
  5
3CB
100
AcDbEntity
  8
0
100
AcDbLine
 62
7
  6
CONTINUOUS
 10
13.9863990694
 20
6.9895952294
 11
19.1230053904
 21
4.0040399913
  0
LWPOLYLINE
  5
3CC
100
AcDbEntity
  8
0
100
AcDbPolyline
 62
7
  6
CONTINUOUS
 90
2
 70
0
 43
0.0456621024
 10
18.8356866424
 20
1.1426498843
 10
19.2207434673
 20
0.6003273321
  0
LWPOLYLINE
  5
3CD
100
AcDbEntity
  8
0
100
AcDbPolyline
 62
7
  6
CONTINUOUS
 90
2
 70
0
 43
0.0456621024
 10
13.9840182648
 20
1.1415525114
 10
13.9840182648
 20
6.9920091324
  0
LWPOLYLINE
  5
3CE
100
AcDbEntity
  8
0
100
AcDbPolyline
 62
7
  6
CONTINUOUS
 90
2
 70
0
 43
0.0456621024
 10
1.1414991974
 20
6.848942657
 10
-0.0000533141
 20
6.848942657
  0
LWPOLYLINE
  5
3CF
100
AcDbEntity
  8
0
100
AcDbPolyline
 62
7
  6
CONTINUOUS
 90
2
 70
0
 43
0.0456621024
 10
36.5515025602
 20
6.8489644558
 10
37.6930550717
 20
6.8489644558
  0
LWPOLYLINE
  5
3D0
100
AcDbEntity
  8
0
100
AcDbPolyline
 62
7
  6
CONTINUOUS
 90
2
 70
0
 43
0.0456621024
 10
13.9840182648
 20
6.9920091324
 10
36.5296803653
 20
6.9920091324
  0
LWPOLYLINE
  5
3D1
100
AcDbEntity
  8
0
100
AcDbPolyline
 62
7
  6
CONTINUOUS
 90
2
 70
0
 43
0.0456621024
 10
18.8349090158
 20
23.9726921659
 10
18.8349090158
 20
25.1142446773
  0
LWPOLYLINE
  5
3D2
100
AcDbEntity
  8
0
100
AcDbPolyline
 62
7
  6
CONTINUOUS
 90
2
 70
0
 43
0.0456621024
 10
18.8356866424
 20
1.1426498843
 10
18.8356866424
 20
0.0010973729
  0
LWPOLYLINE
  5
3D3
100
AcDbEntity
  8
0
100
AcDbPolyline
 62
7
  6
CONTINUOUS
 90
2
 70
0
 43
0.0456621024
 10
19.1210045662
 20
1.1415525114
 10
19.1210045662
 20
6.9920091324
  0
LWPOLYLINE
  5
3D4
100
AcDbEntity
  8
0
100
AcDbPolyline
 62
7
  6
CONTINUOUS
 90
2
 70
0
 43
0.0456621024
 10
36.5375292349
 20
12.5570504981
 10
37.6790817464
 20
12.5570504981
  0
LWPOLYLINE
  5
3D5
100
AcDbEntity
  8
0
100
AcDbPolyline
 62
7
  6
CONTINUOUS
 90
2
 70
0
 43
0.0456621024
 10
1.141656895
 20
12.557096411
 10
0.0001043836
 20
12.557096411
  0
LINE
  5
3D6
100
AcDbEntity
  8
0
100
AcDbLine
 62
7
  6
CONTINUOUS
 10
19.1230053904
 20
6.9895952294
 11
13.9967655806
 21
4.009223247
  0
LWPOLYLINE
  5
3D7
100
AcDbEntity
  8
0
100
AcDbPolyline
 62
7
  6
CONTINUOUS
 90
2
 70
0
 43
0.0456621024
 10
25.1141552511
 20
1.1415525114
 10
25.1141552511
 20
6.9920091324
  0
LWPOLYLINE
  5
3D8
100
AcDbEntity
  8
0
100
AcDbPolyline
 62
7
  6
CONTINUOUS
 90
2
 70
0
 43
0.0456621024
 10
26.2557077626
 20
1.7123287671
 10
26.2557077626
 20
2.8538812785
  0
LWPOLYLINE
  5
3D9
100
AcDbEntity
  8
0
100
AcDbPolyline
 62
7
  6
CONTINUOUS
 90
2
 70
0
 43
0.0456621024
 10
18.8356866424
 20
1.1426498843
 10
18.4506298174
 20
0.6003273321
  0
LWPOLYLINE
  5
3DA
100
AcDbEntity
  8
0
100
AcDbPolyline
 62
7
  6
CONTINUOUS
 90
2
 70
0
 43
0.0456621024
 10
36.5400261819
 20
18.2641246199
 10
37.6815786933
 20
18.2641246199
  0
LWPOLYLINE
  5
3DB
100
AcDbEntity
  8
0
100
AcDbPolyline
 62
7
  6
CONTINUOUS
 90
2
 70
0
 43
0.0456621024
 10
1.1412494788
 20
18.2641987546
 10
-0.0003030326
 20
18.2641987546
  0
LWPOLYLINE
  5
3DC
100
AcDbEntity
  8
0
100
AcDbPolyline
 62
7
  6
CONTINUOUS
 90
2
 70
0
 43
0.0456621024
 10
18.8349090158
 20
23.9726921659
 10
18.4498521909
 20
24.5150147182
  0
LWPOLYLINE
  5
3DD
100
AcDbEntity
  8
0
100
AcDbPolyline
 62
7
  6
CONTINUOUS
 90
2
 70
0
 43
0.0456621024
 10
27.6819929685
 20
23.9758716897
 10
27.6819929685
 20
25.1174242011
  0
LWPOLYLINE
  5
3DE
100
AcDbEntity
  8
0
100
AcDbPolyline
 62
7
  6
CONTINUOUS
 90
2
 70
0
 43
0.0456621024
 10
27.6826269297
 20
1.1408036624
 10
27.6826269297
 20
-0.000748849
  0
LWPOLYLINE
  5
3DF
100
AcDbEntity
  8
0
100
AcDbPolyline
 62
7
  6
CONTINUOUS
 90
2
 70
0
 43
0.0456621024
 10
27.8165044898
 20
1.1523976154
 10
27.8165044898
 20
1.7231738711
  0
LWPOLYLINE
  5
3E0
100
AcDbEntity
  8
0
100
AcDbPolyline
 62
7
  6
CONTINUOUS
 90
2
 70
0
 43
0.0456621024
 10
28.5388127854
 20
1.7123287671
 10
28.5388127854
 20
2.8538812785
  0
LWPOLYLINE
  5
3E1
100
AcDbEntity
  8
0
100
AcDbPolyline
 62
7
  6
CONTINUOUS
 90
2
 70
0
 43
0.0456621024
 10
36.5375292349
 20
12.5570504981
 10
37.0798517872
 20
12.9421073231
  0
LWPOLYLINE
  5
3E2
100
AcDbEntity
  8
0
100
AcDbPolyline
 62
7
  6
CONTINUOUS
 90
2
 70
0
 43
0.0684931512
 10
8.1074853769
 20
22.8445974474
 10
1.1154762445
 20
22.8445974474
  0
LWPOLYLINE
  5
3E3
100
AcDbEntity
  8
0
100
AcDbPolyline
 62
7
  6
CONTINUOUS
 90
2
 70
0
 43
0.0456621024
 10
36.5375292349
 20
12.5570504981
 10
37.0798517872
 20
12.1719936732
  0
LWPOLYLINE
  5
3E4
100
AcDbEntity
  8
0
100
AcDbPolyline
 62
7
  6
CONTINUOUS
 90
2
 70
0
 43
0.0684931512
 10
36.5296803653
 20
23.9717675548
 10
1.1412497642
 20
23.9717675548
  0
LWPOLYLINE
  5
3E5
100
AcDbEntity
  8
0
100
AcDbPolyline
 62
7
  6
CONTINUOUS
 90
2
 70
0
 43
0.0456621024
 10
18.4498521909
 20
24.5150147182
 10
19.2199658408
 20
24.5150147182
  0
LWPOLYLINE
  5
3E6
100
AcDbEntity
  8
0
100
AcDbPolyline
 62
7
  6
CONTINUOUS
 90
2
 70
0
 43
0.0456621024
 10
32.8196347032
 20
1.1415525114
 10
32.8196347032
 20
1.7123287671
  0
LINE
  5
3E7
100
AcDbEntity
  8
DEFAULT_3
100
AcDbLine
 62
7
  6
PHANTOM
 10
-0.0000044335
 20
25.1141166498
 11
38.8128081477
 21
25.1141166498
  0
LWPOLYLINE
  5
3E8
100
AcDbEntity
  8
0
100
AcDbPolyline
 62
7
  6
CONTINUOUS
 90
2
 70
0
 43
0.0456621024
 10
35.3881278539
 20
1.7123287671
 10
35.3881278539
 20
2.8538812785
  0
LWPOLYLINE
  5
3E9
100
AcDbEntity
  8
0
100
AcDbPolyline
 62
7
  6
CONTINUOUS
 90
2
 70
0
 43
0.0684931512
 10
36.5296803653
 20
23.9717675548
 10
36.5296803653
 20
1.1415525114
  0
LWPOLYLINE
  5
3EA
100
AcDbEntity
  8
0
100
AcDbPolyline
 62
7
  6
CONTINUOUS
 90
2
 70
0
 43
0.0456621024
 10
37.0798517872
 20
12.1719936732
 10
37.0798517872
 20
12.9421073231
  0
LINE
  5
3EB
100
AcDbEntity
  8
DEFAULT_3
100
AcDbLine
 62
7
  6
PHANTOM
 10
38.8127853881
 20
-0.0
 11
38.8127853881
 21
25.1133200662
  0
LINE
  5
3EC
100
AcDbEntity
  8
0
100
AcDbLine
 62
7
  6
CONTINUOUS
 10
3.8719014929
 20
8.0332507217
 11
7.399460548
 21
8.0332507217
  0
LINE
  5
3ED
100
AcDbEntity
  8
0
100
AcDbLine
 62
7
  6
CONTINUOUS
 10
3.8719014929
 20
8.0332507217
 11
3.8719014929
 21
12.5332507217
  0
LINE
  5
3EE
100
AcDbEntity
  8
3_AXES_OTHER
100
AcDbLine
 62
7
  6
CONTINUOUS
 10
4.4348936189
 20
11.4840381233
 11
4.4348936189
 21
10.9328570209
  0
LINE
  5
3EF
100
AcDbEntity
  8
3_AXES_OTHER
100
AcDbLine
 62
7
  6
CONTINUOUS
 10
4.4348936189
 20
9.6336444225
 11
4.4348936189
 21
9.0824633201
  0
LINE
  5
3F0
100
AcDbEntity
  8
3_AXES_OTHER
100
AcDbLine
 62
7
  6
CONTINUOUS
 10
4.4348936189
 20
9.0824633201
 11
4.9860747212
 21
9.0824633201
  0
LINE
  5
3F1
100
AcDbEntity
  8
3_AXES_OTHER
100
AcDbLine
 62
7
  6
CONTINUOUS
 10
6.2852873197
 20
9.0824633201
 11
6.836468422
 21
9.0824633201
  0
LINE
  5
3F2
100
AcDbEntity
  8
3_ALL_AXES
100
AcDbLine
 62
7
  6
CONTINUOUS
 10
5.3797755087
 20
9.1021483595
 11
5.8915865323
 21
9.1021483595
  0
LINE
  5
3F3
100
AcDbEntity
  8
3_ALL_AXES
100
AcDbLine
 62
7
  6
CONTINUOUS
 10
5.8915865323
 20
9.4557763297
 11
5.3797755087
 21
9.4557763297
  0
LINE
  5
3F4
100
AcDbEntity
  8
0
100
AcDbLine
 62
7
  6
CONTINUOUS
 10
4.9742636976
 20
10.2930932414
 11
4.9742636976
 21
10.273408202
  0
LINE
  5
3F5
100
AcDbEntity
  8
3_AXES_OTHER
100
AcDbLine
 62
7
  6
CONTINUOUS
 10
6.2852873197
 20
11.4840381233
 11
5.6356810205
 21
10.8344318241
  0
LINE
  5
3F6
100
AcDbEntity
  8
3_AXES_OTHER
100
AcDbLine
 62
7
  6
CONTINUOUS
 10
5.0844999181
 20
10.2832507217
 11
4.4348936189
 21
9.6336444225
  0
LINE
  5
3F7
100
AcDbEntity
  8
3_AXES_OTHER
100
AcDbLine
 62
7
  6
CONTINUOUS
 10
4.4348936189
 20
10.9328570209
 11
5.0844999181
 21
10.2832507217
  0
LINE
  5
3F8
100
AcDbEntity
  8
3_AXES_OTHER
100
AcDbLine
 62
7
  6
CONTINUOUS
 10
5.6356810205
 20
9.7320696194
 11
6.2852873197
 21
9.0824633201
  0
LINE
  5
3F9
100
AcDbEntity
  8
3_ALL_AXES
100
AcDbLine
 62
7
  6
CONTINUOUS
 10
5.3797755087
 20
9.1021483595
 11
5.3797755087
 21
9.4557763297
  0
LINE
  5
3FA
100
AcDbEntity
  8
3_ALL_AXES
100
AcDbLine
 62
7
  6
CONTINUOUS
 10
5.3797755087
 20
11.1107251137
 11
5.3797755087
 21
11.4643530839
  0
LINE
  5
3FB
100
AcDbEntity
  8
3_ALL_AXES
100
AcDbLine
 62
7
  6
CENTER
 10
5.6356810205
 20
12.7514081238
 11
5.6356810205
 21
7.8793979848
  0
LINE
  5
3FC
100
AcDbEntity
  8
0
100
AcDbLine
 62
7
  6
CONTINUOUS
 10
4.5959886136
 20
9.0824633201
 11
3.8719014929
 21
8.0839238231
  0
LINE
  5
3FD
100
AcDbEntity
  8
3_ALL_AXES
100
AcDbLine
 62
7
  6
CONTINUOUS
 10
6.5017506163
 20
10.273408202
 11
6.2655253809
 21
10.273408202
  0
LINE
  5
3FE
100
AcDbEntity
  8
3_ALL_AXES
100
AcDbLine
 62
7
  6
CONTINUOUS
 10
5.00583666
 20
10.273408202
 11
4.7696114247
 21
10.273408202
  0
LINE
  5
3FF
100
AcDbEntity
  8
3_ALL_AXES
100
AcDbLine
 62
7
  6
CENTER
 10
5.6356810205
 20
10.2832507217
 11
3.3264895944
 21
10.2832507217
  0
LINE
  5
400
100
AcDbEntity
  8
3_ALL_AXES
100
AcDbLine
 62
7
  6
CENTER
 10
5.6356810205
 20
10.2832507217
 11
7.9529501785
 21
10.2832507217
  0
LINE
  5
401
100
AcDbEntity
  8
3_ALL_AXES
100
AcDbLine
 62
7
  6
CONTINUOUS
 10
4.7696114247
 20
10.2930932414
 11
5.00583666
 21
10.2930932414
  0
LINE
  5
402
100
AcDbEntity
  8
3_ALL_AXES
100
AcDbLine
 62
7
  6
CONTINUOUS
 10
6.2655253809
 20
10.2930932414
 11
6.5017506163
 21
10.2930932414
  0
LINE
  5
403
100
AcDbEntity
  8
5_ALL_CURVES
100
AcDbLine
 62
4
  6
CONTINUOUS
 10
5.6356810205
 20
10.2832507217
 11
5.6553660598
 21
10.2718855589
  0
LINE
  5
404
100
AcDbEntity
  8
0
100
AcDbLine
 62
7
  6
CONTINUOUS
 10
3.8719014929
 20
12.4825776204
 11
4.5959886136
 21
11.4840381233
  0
LINE
  5
405
100
AcDbEntity
  8
5_ALL_CURVES
100
AcDbLine
 62
4
  6
CONTINUOUS
 10
5.6356810205
 20
10.2832507217
 11
5.6470461832
 21
10.2635656823
  0
LINE
  5
406
100
AcDbEntity
  8
0
100
AcDbLine
 62
7
  6
CONTINUOUS
 10
6.6753734273
 20
11.4840381233
 11
7.399460548
 21
12.4825776204
  0
LINE
  5
407
100
AcDbEntity
  8
0
100
AcDbLine
 62
7
  6
CONTINUOUS
 10
7.399460548
 20
8.0839238231
 11
6.6753734273
 21
9.0824633201
  0
LINE
  5
408
100
AcDbEntity
  8
3_ALL_AXES
100
AcDbLine
 62
7
  6
CONTINUOUS
 10
5.8915865323
 20
9.1021483595
 11
5.8915865323
 21
9.4557763297
  0
LINE
  5
409
100
AcDbEntity
  8
3_ALL_AXES
100
AcDbLine
 62
7
  6
CONTINUOUS
 10
5.8915865323
 20
11.1107251137
 11
5.8915865323
 21
11.4643530839
  0
LINE
  5
40A
100
AcDbEntity
  8
3_AXES_OTHER
100
AcDbLine
 62
7
  6
CONTINUOUS
 10
4.9860747212
 20
9.0824633201
 11
5.6356810205
 21
9.7320696194
  0
LINE
  5
40B
100
AcDbEntity
  8
3_AXES_OTHER
100
AcDbLine
 62
7
  6
CONTINUOUS
 10
6.1868621228
 20
10.2832507217
 11
6.836468422
 21
10.9328570209
  0
LINE
  5
40C
100
AcDbEntity
  8
3_AXES_OTHER
100
AcDbLine
 62
7
  6
CONTINUOUS
 10
6.836468422
 20
9.6336444225
 11
6.1868621228
 21
10.2832507217
  0
LINE
  5
40D
100
AcDbEntity
  8
3_AXES_OTHER
100
AcDbLine
 62
7
  6
CONTINUOUS
 10
5.6356810205
 20
10.8344318241
 11
4.9860747212
 21
11.4840381233
  0
LINE
  5
40E
100
AcDbEntity
  8
0
100
AcDbLine
 62
7
  6
CONTINUOUS
 10
6.2970983433
 20
10.273408202
 11
6.2970983433
 21
10.2930932414
  0
LINE
  5
40F
100
AcDbEntity
  8
3_ALL_AXES
100
AcDbLine
 62
7
  6
CONTINUOUS
 10
5.3797755087
 20
11.1107251137
 11
5.8915865323
 21
11.1107251137
  0
LINE
  5
410
100
AcDbEntity
  8
3_AXES_OTHER
100
AcDbLine
 62
7
  6
CONTINUOUS
 10
6.836468422
 20
9.0824633201
 11
6.836468422
 21
9.6336444225
  0
LINE
  5
411
100
AcDbEntity
  8
3_AXES_OTHER
100
AcDbLine
 62
7
  6
CONTINUOUS
 10
6.836468422
 20
10.9328570209
 11
6.836468422
 21
11.4840381233
  0
LINE
  5
412
100
AcDbEntity
  8
3_ALL_AXES
100
AcDbLine
 62
7
  6
CONTINUOUS
 10
5.3797755087
 20
11.4643530839
 11
5.8915865323
 21
11.4643530839
  0
LINE
  5
413
100
AcDbEntity
  8
3_AXES_OTHER
100
AcDbLine
 62
7
  6
CONTINUOUS
 10
6.836468422
 20
11.4840381233
 11
6.2852873197
 21
11.4840381233
  0
LINE
  5
414
100
AcDbEntity
  8
3_AXES_OTHER
100
AcDbLine
 62
7
  6
CONTINUOUS
 10
4.9860747212
 20
11.4840381233
 11
4.4348936189
 21
11.4840381233
  0
LINE
  5
415
100
AcDbEntity
  8
5_ALL_CURVES
100
AcDbLine
 62
4
  6
CONTINUOUS
 10
7.399460548
 20
10.2718855589
 11
7.399460548
 21
10.2885253121
  0
LINE
  5
416
100
AcDbEntity
  8
0
100
AcDbLine
 62
7
  6
CONTINUOUS
 10
7.399460548
 20
8.0332507217
 11
7.399460548
 21
12.5332507217
  0
LINE
  5
417
100
AcDbEntity
  8
0
100
AcDbLine
 62
7
  6
CONTINUOUS
 10
7.399460548
 20
12.5332507217
 11
3.8719014929
 21
12.5332507217
  0
LINE
  5
418
100
AcDbEntity
  8
3_ALL_AXES
100
AcDbLine
 62
7
  6
CONTINUOUS
 10
6.4898320631
 20
16.976864863
 11
6.3126667088
 21
16.976864863
  0
LINE
  5
419
100
AcDbEntity
  8
3_ALL_AXES
100
AcDbLine
 62
7
  6
CONTINUOUS
 10
5.8128463748
 20
16.976864863
 11
5.4585156661
 21
16.976864863
  0
LINE
  5
41A
100
AcDbEntity
  8
3_ALL_AXES
100
AcDbLine
 62
7
  6
CONTINUOUS
 10
4.9586953322
 20
16.976864863
 11
4.7815299778
 21
16.976864863
  0
LINE
  5
41B
100
AcDbEntity
  8
3_AXES_OTHER
100
AcDbLine
 62
7
  6
CONTINUOUS
 10
6.836468422
 20
17.1532428157
 11
4.4348936189
 21
17.1532428157
  0
LINE
  5
41C
100
AcDbEntity
  8
3_AXES_OTHER
100
AcDbLine
 62
7
  6
CONTINUOUS
 10
4.4348936189
 20
17.3296207685
 11
6.836468422
 21
17.3296207685
  0
LINE
  5
41D
100
AcDbEntity
  8
0
100
AcDbLine
 62
7
  6
CONTINUOUS
 10
3.8719014929
 20
21.1682034456
 11
3.8719014929
 21
21.4831640756
  0
LINE
  5
41E
100
AcDbEntity
  8
3_ALL_AXES
100
AcDbLine
 62
7
  6
CONTINUOUS
 10
6.2655253809
 20
17.8178227814
 11
5.00583666
 21
17.8178227814
  0
LINE
  5
41F
100
AcDbEntity
  8
3_AXES_OTHER
100
AcDbLine
 62
7
  6
CONTINUOUS
 10
4.4348936189
 20
17.3296207685
 11
4.4348936189
 21
17.1532428157
  0
LINE
  5
420
100
AcDbEntity
  8
0
100
AcDbLine
 62
7
  6
CONTINUOUS
 10
6.2970983433
 20
20.6957625008
 11
7.399460548
 21
21.1682034456
  0
LINE
  5
421
100
AcDbEntity
  8
3_ALL_AXES
100
AcDbLine
 62
7
  6
CONTINUOUS
 10
4.7815299778
 20
17.1532428157
 11
4.7815299778
 21
16.976864863
  0
LINE
  5
422
100
AcDbEntity
  8
3_ALL_AXES
100
AcDbLine
 62
7
  6
CENTER
 10
5.6356810205
 20
18.4122979338
 11
4.4624886284
 21
18.4122979338
  0
LINE
  5
423
100
AcDbEntity
  8
3_ALL_AXES
100
AcDbLine
 62
7
  6
CENTER
 10
5.6356810205
 20
18.4122979338
 11
6.8088734125
 21
18.4122979338
  0
LINE
  5
424
100
AcDbEntity
  8
3_ALL_AXES
100
AcDbLine
 62
7
  6
CONTINUOUS
 10
4.9586953322
 20
17.1532428157
 11
4.9586953322
 21
16.976864863
  0
LINE
  5
425
100
AcDbEntity
  8
3_AXES_OTHER
100
AcDbLine
 62
7
  6
CONTINUOUS
 10
4.9860747212
 20
17.3296207685
 11
4.9860747212
 21
17.1532428157
  0
LINE
  5
426
100
AcDbEntity
  8
3_ALL_AXES
100
AcDbLine
 62
7
  6
CONTINUOUS
 10
5.0057597606
 20
17.3296207685
 11
5.00583666
 21
17.8178227814
  0
LINE
  5
427
100
AcDbEntity
  8
3_ALL_AXES
100
AcDbLine
 62
7
  6
CONTINUOUS
 10
5.00583666
 20
19.0067730862
 11
5.0057597606
 21
20.6957625008
  0
LINE
  5
428
100
AcDbEntity
  8
3_ALL_AXES
100
AcDbLine
 62
7
  6
CONTINUOUS
 10
5.4585156661
 20
17.1532428157
 11
5.4585156661
 21
16.976864863
  0
LINE
  5
429
100
AcDbEntity
  8
3_ALL_AXES
100
AcDbLine
 62
7
  6
CONTINUOUS
 10
5.00583666
 20
19.0067730862
 11
6.2655253809
 21
19.0067730862
  0
LINE
  5
42A
100
AcDbEntity
  8
3_ALL_AXES
100
AcDbLine
 62
7
  6
CENTER
 10
5.6356810205
 20
22.5010469241
 11
5.6356810205
 21
16.3715560996
  0
LINE
  5
42B
100
AcDbEntity
  8
3_AXES_OTHER
100
AcDbLine
 62
7
  6
CONTINUOUS
 10
5.6356810205
 20
17.3296207685
 11
5.6356810205
 21
17.1532428157
  0
LINE
  5
42C
100
AcDbEntity
  8
3_ALL_AXES
100
AcDbLine
 62
7
  6
CONTINUOUS
 10
5.8128463748
 20
17.1532428157
 11
5.8128463748
 21
16.976864863
  0
LINE
  5
42D
100
AcDbEntity
  8
3_ALL_AXES
100
AcDbLine
 62
7
  6
CONTINUOUS
 10
6.2656022803
 20
20.6957625008
 11
6.2655253809
 21
19.0067730862
  0
LINE
  5
42E
100
AcDbEntity
  8
3_ALL_AXES
100
AcDbLine
 62
7
  6
CONTINUOUS
 10
6.2655253809
 20
17.8178227814
 11
6.2656022803
 21
17.3296207685
  0
LINE
  5
42F
100
AcDbEntity
  8
3_AXES_OTHER
100
AcDbLine
 62
7
  6
CONTINUOUS
 10
6.2852873197
 20
17.3296207685
 11
6.2852873197
 21
17.1532428157
  0
LINE
  5
430
100
AcDbEntity
  8
3_ALL_AXES
100
AcDbLine
 62
7
  6
CONTINUOUS
 10
6.3126667088
 20
17.1532428157
 11
6.3126667088
 21
16.976864863
  0
LINE
  5
431
100
AcDbEntity
  8
3_ALL_AXES
100
AcDbLine
 62
7
  6
CONTINUOUS
 10
6.4898320631
 20
17.1532428157
 11
6.4898320631
 21
16.976864863
  0
LINE
  5
432
100
AcDbEntity
  8
0
100
AcDbLine
 62
7
  6
CONTINUOUS
 10
3.8719014929
 20
21.1682034456
 11
4.9742636976
 21
20.6957625008
  0
LINE
  5
433
100
AcDbEntity
  8
3_AXES_OTHER
100
AcDbLine
 62
7
  6
CONTINUOUS
 10
6.836468422
 20
17.3296207685
 11
6.836468422
 21
17.1532428157
  0
LINE
  5
434
100
AcDbEntity
  8
0
100
AcDbLine
 62
7
  6
CONTINUOUS
 10
6.2970983433
 20
20.6957625008
 11
4.9742636976
 21
20.6957625008
  0
LINE
  5
435
100
AcDbEntity
  8
0
100
AcDbLine
 62
7
  6
CONTINUOUS
 10
7.399460548
 20
21.4831640756
 11
7.399460548
 21
21.1682034456
  0
LINE
  5
436
100
AcDbEntity
  8
5_ALL_CURVES
100
AcDbLine
 62
4
  6
CONTINUOUS
 10
7.399460548
 20
18.4122979338
 11
7.399460548
 21
18.3926128945
  0
LINE
  5
437
100
AcDbEntity
  8
0
100
AcDbLine
 62
7
  6
CONTINUOUS
 10
7.399460548
 20
21.1839514771
 11
3.8719014929
 21
21.1839514771
  0
LINE
  5
438
100
AcDbEntity
  8
3_AXES_OTHER
100
AcDbLine
 62
7
  6
CONTINUOUS
 10
3.8719014929
 20
21.4831640756
 11
7.399460548
 21
21.4831640756
  0
LINE
  5
439
100
AcDbEntity
  8
3_ALL_AXES
100
AcDbLine
 62
7
  6
CONTINUOUS
 10
15.6542320508
 20
9.4291301917
 11
15.6542320508
 21
9.6062345208
  0
LINE
  5
43A
100
AcDbEntity
  8
3_ALL_AXES
100
AcDbLine
 62
7
  6
CONTINUOUS
 10
15.6542320508
 20
10.1061128063
 11
15.6542320508
 21
10.4603886372
  0
LINE
  5
43B
100
AcDbEntity
  8
3_ALL_AXES
100
AcDbLine
 62
7
  6
CONTINUOUS
 10
15.6542320508
 20
10.9602669226
 11
15.6542320508
 21
11.1373712517
  0
LINE
  5
43C
100
AcDbEntity
  8
0
100
AcDbLine
 62
7
  6
CONTINUOUS
 10
20.1605312634
 20
8.0332507217
 11
19.861318665
 21
8.0332507217
  0
LINE
  5
43D
100
AcDbEntity
  8
3_AXES_OTHER
100
AcDbLine
 62
7
  6
CONTINUOUS
 10
15.8306100036
 20
9.0824633201
 11
15.8306100036
 21
11.4840381233
  0
LINE
  5
43E
100
AcDbEntity
  8
3_AXES_OTHER
100
AcDbLine
 62
7
  6
CONTINUOUS
 10
16.0069879564
 20
9.0824633201
 11
16.0069879564
 21
11.4840381233
  0
LINE
  5
43F
100
AcDbEntity
  8
3_ALL_AXES
100
AcDbLine
 62
7
  6
CONTINUOUS
 10
16.1546257516
 20
9.6533405805
 11
16.1546257516
 21
9.6836462051
  0
LINE
  5
440
100
AcDbEntity
  8
3_ALL_AXES
100
AcDbLine
 62
7
  6
CONTINUOUS
 10
16.4951899693
 20
9.6533294619
 11
16.4951899693
 21
10.273408202
  0
LINE
  5
441
100
AcDbEntity
  8
3_ALL_AXES
100
AcDbLine
 62
7
  6
CONTINUOUS
 10
16.4951899693
 20
10.2930932414
 11
16.4951899693
 21
10.9131719816
  0
LINE
  5
442
100
AcDbEntity
  8
3_ALL_AXES
100
AcDbLine
 62
7
  6
CONTINUOUS
 10
16.8337596099
 20
11.4643530839
 11
16.8337596099
 21
11.1107251137
  0
LINE
  5
443
100
AcDbEntity
  8
3_ALL_AXES
100
AcDbLine
 62
7
  6
CONTINUOUS
 10
16.8337596099
 20
9.4557763297
 11
16.8337596099
 21
9.1021483595
  0
LINE
  5
444
100
AcDbEntity
  8
3_ALL_AXES
100
AcDbLine
 62
7
  6
CONTINUOUS
 10
16.8337596099
 20
10.273408202
 11
16.8337596099
 21
10.2930932414
  0
LINE
  5
445
100
AcDbEntity
  8
3_AXES_OTHER
100
AcDbLine
 62
7
  6
CONTINUOUS
 10
16.0069879564
 20
9.0824633201
 11
15.8306100036
 21
9.0824633201
  0
LINE
  5
446
100
AcDbEntity
  8
3_ALL_AXES
100
AcDbLine
 62
7
  6
CONTINUOUS
 10
17.3455706335
 20
9.1021483595
 11
16.8337596099
 21
9.1021483595
  0
LINE
  5
447
100
AcDbEntity
  8
3_ALL_AXES
100
AcDbLine
 62
7
  6
CONTINUOUS
 10
15.8306100036
 20
9.4290996791
 11
15.6542320508
 21
9.4290996791
  0
LINE
  5
448
100
AcDbEntity
  8
3_ALL_AXES
100
AcDbLine
 62
7
  6
CONTINUOUS
 10
17.3455706335
 20
9.4557763297
 11
16.8337596099
 21
9.4557763297
  0
LINE
  5
449
100
AcDbEntity
  8
3_ALL_AXES
100
AcDbLine
 62
7
  6
CENTER
 10
17.0896651217
 20
13.0208423505
 11
17.0896651217
 21
8.6636680936
  0
LINE
  5
44A
100
AcDbEntity
  8
3_ALL_AXES
100
AcDbLine
 62
7
  6
CONTINUOUS
 10
15.8306100036
 20
9.6062650334
 11
15.6542320508
 21
9.6062650334
  0
LINE
  5
44B
100
AcDbEntity
  8
3_AXES_OTHER
100
AcDbLine
 62
7
  6
CONTINUOUS
 10
16.0069879564
 20
9.6336444225
 11
15.8306100036
 21
9.6336444225
  0
LINE
  5
44C
100
AcDbEntity
  8
3_ALL_AXES
100
AcDbLine
 62
7
  6
CONTINUOUS
 10
16.0069879564
 20
9.6533294619
 11
16.1349573938
 21
9.6533294619
  0
LINE
  5
44D
100
AcDbEntity
  8
3_ALL_AXES
100
AcDbLine
 62
7
  6
CONTINUOUS
 10
16.1546331955
 20
9.6533294619
 11
16.4951899693
 21
9.6533294619
  0
LINE
  5
44E
100
AcDbEntity
  8
3_ALL_AXES
100
AcDbLine
 62
7
  6
CONTINUOUS
 10
17.6841402741
 20
9.6533294619
 11
19.3731296886
 21
9.6533294619
  0
LINE
  5
44F
100
AcDbEntity
  8
3_ALL_AXES
100
AcDbLine
 62
7
  6
CONTINUOUS
 10
17.3455706335
 20
11.4643530839
 11
17.3455706335
 21
11.1107251137
  0
LINE
  5
450
100
AcDbEntity
  8
3_ALL_AXES
100
AcDbLine
 62
7
  6
CONTINUOUS
 10
17.3455706335
 20
10.2930932414
 11
17.3455706335
 21
10.273408202
  0
LINE
  5
451
100
AcDbEntity
  8
3_ALL_AXES
100
AcDbLine
 62
7
  6
CONTINUOUS
 10
17.3455706335
 20
9.4557763297
 11
17.3455706335
 21
9.1021483595
  0
LINE
  5
452
100
AcDbEntity
  8
5_ALL_CURVES
100
AcDbLine
 62
4
  6
CONTINUOUS
 10
17.0896651217
 20
10.2832507217
 11
17.0699800823
 21
10.2718855589
  0
LINE
  5
453
100
AcDbEntity
  8
3_ALL_AXES
100
AcDbLine
 62
7
  6
CONTINUOUS
 10
17.6841402741
 20
10.9131719816
 11
17.6841402741
 21
10.2930932414
  0
LINE
  5
454
100
AcDbEntity
  8
3_ALL_AXES
100
AcDbLine
 62
7
  6
CONTINUOUS
 10
17.6841402741
 20
10.273408202
 11
17.6841402741
 21
9.6533294619
  0
LINE
  5
455
100
AcDbEntity
  8
5_ALL_CURVES
100
AcDbLine
 62
4
  6
CONTINUOUS
 10
17.0896651217
 20
10.2832507217
 11
17.0699800823
 21
10.2885253121
  0
LINE
  5
456
100
AcDbEntity
  8
3_ALL_AXES
100
AcDbLine
 62
7
  6
CONTINUOUS
 10
15.8306100036
 20
10.1060853674
 11
15.6542320508
 21
10.1060853674
  0
LINE
  5
457
100
AcDbEntity
  8
3_ALL_AXES
100
AcDbLine
 62
7
  6
CONTINUOUS
 10
16.3715711667
 20
10.273408202
 11
17.8071571284
 21
10.273408202
  0
LINE
  5
458
100
AcDbEntity
  8
3_AXES_OTHER
100
AcDbLine
 62
7
  6
CONTINUOUS
 10
16.0069879564
 20
10.2832507217
 11
15.8306100036
 21
10.2832507217
  0
LINE
  5
459
100
AcDbEntity
  8
3_ALL_AXES
100
AcDbLine
 62
7
  6
CENTER
 10
21.0708667741
 20
10.2832507217
 11
15.2640007106
 21
10.2832507217
  0
LINE
  5
45A
100
AcDbEntity
  8
3_ALL_AXES
100
AcDbLine
 62
7
  6
CONTINUOUS
 10
16.3721731151
 20
10.2930932414
 11
17.8077480023
 21
10.2930932414
  0
LINE
  5
45B
100
AcDbEntity
  8
3_ALL_AXES
100
AcDbLine
 62
7
  6
CONTINUOUS
 10
18.0247044918
 20
10.8828567337
 11
18.0247044918
 21
10.9131601869
  0
LINE
  5
45C
100
AcDbEntity
  8
3_ALL_AXES
100
AcDbLine
 62
7
  6
CONTINUOUS
 10
15.8306100036
 20
10.460416076
 11
15.6542320508
 21
10.460416076
  0
LINE
  5
45D
100
AcDbEntity
  8
3_ALL_AXES
100
AcDbLine
 62
7
  6
CONTINUOUS
 10
16.0069879564
 20
10.9131719816
 11
16.4951899693
 21
10.9131719816
  0
LINE
  5
45E
100
AcDbEntity
  8
3_ALL_AXES
100
AcDbLine
 62
7
  6
CONTINUOUS
 10
17.6841402741
 20
10.9131719816
 11
18.0246965955
 21
10.9131719816
  0
LINE
  5
45F
100
AcDbEntity
  8
3_ALL_AXES
100
AcDbLine
 62
7
  6
CONTINUOUS
 10
18.0443782546
 20
10.9131719816
 11
19.3731296886
 21
10.9131719816
  0
LINE
  5
460
100
AcDbEntity
  8
3_AXES_OTHER
100
AcDbLine
 62
7
  6
CONTINUOUS
 10
16.0069879564
 20
10.9328570209
 11
15.8306100036
 21
10.9328570209
  0
LINE
  5
461
100
AcDbEntity
  8
3_ALL_AXES
100
AcDbLine
 62
7
  6
CONTINUOUS
 10
15.8306100036
 20
10.96023641
 11
15.6542320508
 21
10.96023641
  0
LINE
  5
462
100
AcDbEntity
  8
3_ALL_AXES
100
AcDbLine
 62
7
  6
CONTINUOUS
 10
16.8337596099
 20
11.1107251137
 11
17.3455706335
 21
11.1107251137
  0
LINE
  5
463
100
AcDbEntity
  8
3_ALL_AXES
100
AcDbLine
 62
7
  6
CONTINUOUS
 10
15.8306100036
 20
11.1374017643
 11
15.6542320508
 21
11.1374017643
  0
LINE
  5
464
100
AcDbEntity
  8
0
100
AcDbLine
 62
7
  6
CONTINUOUS
 10
19.3731296886
 20
10.96238458
 11
19.861318665
 21
12.5332507217
  0
LINE
  5
465
100
AcDbEntity
  8
3_ALL_AXES
100
AcDbLine
 62
7
  6
CONTINUOUS
 10
17.3455706335
 20
11.4643530839
 11
16.8337596099
 21
11.4643530839
  0
LINE
  5
466
100
AcDbEntity
  8
3_AXES_OTHER
100
AcDbLine
 62
7
  6
CONTINUOUS
 10
16.0069879564
 20
11.4840381233
 11
15.8306100036
 21
11.4840381233
  0
LINE
  5
467
100
AcDbEntity
  8
0
100
AcDbLine
 62
7
  6
CONTINUOUS
 10
19.861318665
 20
8.0332507217
 11
19.3731296886
 21
9.6041168634
  0
LINE
  5
468
100
AcDbEntity
  8
0
100
AcDbLine
 62
7
  6
CONTINUOUS
 10
19.3731296886
 20
9.6041168634
 11
19.3731296886
 21
10.96238458
  0
LINE
  5
469
100
AcDbEntity
  8
0
100
AcDbLine
 62
7
  6
CONTINUOUS
 10
19.8455706335
 20
8.0839238231
 11
19.8455706335
 21
12.4825776204
  0
LINE
  5
46A
100
AcDbEntity
  8
3_AXES_OTHER
100
AcDbLine
 62
7
  6
CONTINUOUS
 10
20.1605312634
 20
12.5332507217
 11
20.1605312634
 21
8.0332507217
  0
LINE
  5
46B
100
AcDbEntity
  8
0
100
AcDbLine
 62
7
  6
CONTINUOUS
 10
20.1605312634
 20
12.5332507217
 11
19.861318665
 21
12.5332507217
  0
LINE
  5
46C
100
AcDbEntity
  8
3_AXES_OTHER
100
AcDbLine
 62
7
  6
CONTINUOUS
 10
31.8114380589
 20
18.1642533719
 11
32.0338946201
 21
18.0357843826
  0
LINE
  5
46D
100
AcDbEntity
  8
3_AXES_OTHER
100
AcDbLine
 62
7
  6
CONTINUOUS
 10
32.5582565142
 20
17.732964622
 11
32.7807130754
 21
17.6044956326
  0
LINE
  5
46E
100
AcDbEntity
  8
3_AXES_OTHER
100
AcDbLine
 62
7
  6
CONTINUOUS
 10
31.8114380589
 20
19.2833291789
 11
31.8114380589
 21
19.0264921084
  0
LINE
  5
46F
100
AcDbEntity
  8
3_AXES_OTHER
100
AcDbLine
 62
7
  6
CONTINUOUS
 10
31.8114380589
 20
18.4210904423
 11
31.8114380589
 21
18.1642533719
  0
LINE
  5
470
100
AcDbEntity
  8
0
100
AcDbLine
 62
7
  6
CONTINUOUS
 10
33.3317697569
 20
20.912674459
 11
33.2110076237
 21
20.8429341505
  0
LINE
  5
471
100
AcDbEntity
  8
5_ALL_CURVES
100
AcDbLine
 62
4
  6
CONTINUOUS
 10
32.2248894676
 20
18.4028023292
 11
32.2328343447
 21
18.3929182598
  0
LINE
  5
472
100
AcDbEntity
  8
3_AXES_OTHER
100
AcDbLine
 62
7
  6
CONTINUOUS
 10
31.8114380589
 20
19.0264921084
 11
32.073619006
 21
18.5723813951
  0
LINE
  5
473
100
AcDbEntity
  8
3_AXES_OTHER
100
AcDbLine
 62
7
  6
CONTINUOUS
 10
32.2960755671
 20
18.1870753353
 11
32.5582565142
 21
17.732964622
  0
LINE
  5
474
100
AcDbEntity
  8
5_ALL_CURVES
100
AcDbLine
 62
4
  6
CONTINUOUS
 10
32.2248894676
 20
18.4028023292
 11
32.2294764445
 21
18.3909805907
  0
LINE
  5
475
100
AcDbEntity
  8
3_AXES_OTHER
100
AcDbLine
 62
7
  6
CONTINUOUS
 10
32.7807130754
 20
17.8613327031
 11
32.5185321283
 21
18.3154434164
  0
LINE
  5
476
100
AcDbEntity
  8
3_AXES_OTHER
100
AcDbLine
 62
7
  6
CONTINUOUS
 10
32.2960755671
 20
18.7007494762
 11
32.0338946201
 21
19.1548601895
  0
LINE
  5
477
100
AcDbEntity
  8
3_AXES_OTHER
100
AcDbLine
 62
7
  6
CONTINUOUS
 10
32.8518991749
 20
17.9024427797
 11
32.5897182279
 21
18.356553493
  0
LINE
  5
478
100
AcDbEntity
  8
3_AXES_OTHER
100
AcDbLine
 62
7
  6
CONTINUOUS
 10
32.3672616667
 20
18.7418595528
 11
32.1050807196
 21
19.1959702661
  0
LINE
  5
479
100
AcDbEntity
  8
5_ALL_CURVES
100
AcDbLine
 62
4
  6
CONTINUOUS
 10
33.5160909075
 20
18.3262715169
 11
33.5081460303
 21
18.3241411704
  0
LINE
  5
47A
100
AcDbEntity
  8
3_AXES_OTHER
100
AcDbLine
 62
7
  6
CONTINUOUS
 10
31.8826241585
 20
19.3244392554
 11
31.8114380589
 21
19.2833291789
  0
LINE
  5
47B
100
AcDbEntity
  8
3_ALL_AXES
100
AcDbLine
 62
7
  6
CONTINUOUS
 10
32.658165122
 20
19.1229553476
 11
32.658165122
 21
19.2877374338
  0
LINE
  5
47C
100
AcDbEntity
  8
3_AXES_OTHER
100
AcDbLine
 62
7
  6
CONTINUOUS
 10
32.7807130754
 20
18.7235714396
 11
32.5582565142
 21
18.8520404289
  0
LINE
  5
47D
100
AcDbEntity
  8
3_AXES_OTHER
100
AcDbLine
 62
7
  6
CONTINUOUS
 10
32.0338946201
 20
19.1548601895
 11
31.8114380589
 21
19.2833291789
  0
LINE
  5
47E
100
AcDbEntity
  8
3_AXES_OTHER
100
AcDbLine
 62
7
  6
CONTINUOUS
 10
32.8518991749
 20
18.7646815162
 11
32.6294426138
 21
18.8931505055
  0
LINE
  5
47F
100
AcDbEntity
  8
3_AXES_OTHER
100
AcDbLine
 62
7
  6
CONTINUOUS
 10
32.1050807196
 20
19.1959702661
 11
31.8826241585
 21
19.3244392554
  0
LINE
  5
480
100
AcDbEntity
  8
3_AXES_OTHER
100
AcDbLine
 62
7
  6
CONTINUOUS
 10
32.7807130754
 20
17.6044956326
 11
32.7807130754
 21
17.8613327031
  0
LINE
  5
481
100
AcDbEntity
  8
3_AXES_OTHER
100
AcDbLine
 62
7
  6
CONTINUOUS
 10
32.7807130754
 20
18.4667343691
 11
32.7807130754
 21
18.7235714396
  0
LINE
  5
482
100
AcDbEntity
  8
3_AXES_OTHER
100
AcDbLine
 62
7
  6
CONTINUOUS
 10
32.8518991749
 20
17.6456057092
 11
32.8518991749
 21
17.9024427797
  0
LINE
  5
483
100
AcDbEntity
  8
3_AXES_OTHER
100
AcDbLine
 62
7
  6
CONTINUOUS
 10
32.8518991749
 20
18.5078444457
 11
32.8518991749
 21
18.7646815162
  0
LINE
  5
484
100
AcDbEntity
  8
0
100
AcDbLine
 62
7
  6
CONTINUOUS
 10
33.2046517219
 20
20.8156511676
 11
33.2110076237
 21
20.8429341505
  0
LINE
  5
485
100
AcDbEntity
  8
3_AXES_OTHER
100
AcDbLine
 62
7
  6
CONTINUOUS
 10
32.1050807196
 20
19.1959702661
 11
32.0338946201
 21
19.1548601895
  0
LINE
  5
486
100
AcDbEntity
  8
3_ALL_AXES
100
AcDbLine
 62
7
  6
CONTINUOUS
 10
31.9618069487
 20
19.0228711611
 11
31.8906208491
 21
18.9817610845
  0
LINE
  5
487
100
AcDbEntity
  8
0
100
AcDbLine
 62
7
  6
CONTINUOUS
 10
33.374599301
 20
18.6515684925
 11
34.634729615
 21
17.9238413936
  0
LINE
  5
488
100
AcDbEntity
  8
3_ALL_AXES
100
AcDbLine
 62
7
  6
CONTINUOUS
 10
32.9502947017
 20
18.1870071319
 11
32.9502947017
 21
18.2654986266
  0
LINE
  5
489
100
AcDbEntity
  8
3_ALL_AXES
100
AcDbLine
 62
7
  6
CONTINUOUS
 10
32.9502947017
 20
19.1229553476
 11
32.9502947017
 21
19.2877374338
  0
LINE
  5
48A
100
AcDbEntity
  8
3_ALL_AXES
100
AcDbLine
 62
7
  6
CONTINUOUS
 10
32.012377767
 20
18.9353028664
 11
31.9411916674
 21
18.8941927898
  0
LINE
  5
48B
100
AcDbEntity
  8
3_ALL_AXES
100
AcDbLine
 62
7
  6
CONTINUOUS
 10
32.2986960489
 20
18.8606186844
 11
32.3844925286
 21
18.9101662769
  0
LINE
  5
48C
100
AcDbEntity
  8
3_ALL_AXES
100
AcDbLine
 62
7
  6
CONTINUOUS
 10
32.9502947017
 20
19.2369178591
 11
32.9560964349
 21
19.2402683685
  0
LINE
  5
48D
100
AcDbEntity
  8
3_ALL_AXES
100
AcDbLine
 62
7
  6
CONTINUOUS
 10
32.9651231188
 20
19.2454812917
 11
33.5460283114
 21
19.5809548898
  0
LINE
  5
48E
100
AcDbEntity
  8
0
100
AcDbLine
 62
7
  6
CONTINUOUS
 10
33.2046517219
 20
20.8156511676
 11
33.2046517219
 21
19.3838094102
  0
LINE
  5
48F
100
AcDbEntity
  8
0
100
AcDbLine
 62
7
  6
CONTINUOUS
 10
34.7554917482
 20
20.0904729273
 11
34.634729615
 21
20.0207326188
  0
LINE
  5
490
100
AcDbEntity
  8
3_AXES_OTHER
100
AcDbLine
 62
7
  6
CONTINUOUS
 10
32.6294426138
 20
18.8931505055
 11
32.2960755671
 21
18.7007494762
  0
LINE
  5
491
100
AcDbEntity
  8
3_AXES_OTHER
100
AcDbLine
 62
7
  6
CONTINUOUS
 10
32.073619006
 20
18.5723813951
 11
31.8114380589
 21
18.4210904423
  0
LINE
  5
492
100
AcDbEntity
  8
0
100
AcDbLine
 62
7
  6
CONTINUOUS
 10
33.8113185524
 20
18.9037744987
 11
33.9927835386
 21
18.7989782039
  0
LINE
  5
493
100
AcDbEntity
  8
3_ALL_AXES
100
AcDbLine
 62
7
  6
CONTINUOUS
 10
32.2455047489
 20
18.5314807005
 11
32.1743186493
 21
18.4903706239
  0
LINE
  5
494
100
AcDbEntity
  8
3_ALL_AXES
100
AcDbLine
 62
7
  6
CONTINUOUS
 10
31.9618069487
 20
18.3093984554
 11
31.8906208491
 21
18.2682883788
  0
LINE
  5
495
100
AcDbEntity
  8
3_ALL_AXES
100
AcDbLine
 62
7
  6
CONTINUOUS
 10
32.5797733673
 20
18.6659946508
 11
32.5085872677
 21
18.6248845742
  0
LINE
  5
496
100
AcDbEntity
  8
0
100
AcDbLine
 62
7
  6
CONTINUOUS
 10
33.4588877918
 20
19.7402237019
 11
33.4588877918
 21
19.5306311123
  0
LINE
  5
497
100
AcDbEntity
  8
3_AXES_OTHER
100
AcDbLine
 62
7
  6
CONTINUOUS
 10
32.8518991749
 20
18.7646815162
 11
32.7807130754
 21
18.7235714396
  0
LINE
  5
498
100
AcDbEntity
  8
3_ALL_AXES
100
AcDbLine
 62
7
  6
CONTINUOUS
 10
32.012377767
 20
18.2218301607
 11
31.9411916674
 21
18.1807200841
  0
LINE
  5
499
100
AcDbEntity
  8
3_ALL_AXES
100
AcDbLine
 62
7
  6
CONTINUOUS
 10
32.6303441856
 20
18.5784263561
 11
32.559158086
 21
18.5373162795
  0
LINE
  5
49A
100
AcDbEntity
  8
3_ALL_AXES
100
AcDbLine
 62
7
  6
CONTINUOUS
 10
32.3466463854
 20
18.356344111
 11
32.2754602858
 21
18.3152340344
  0
LINE
  5
49B
100
AcDbEntity
  8
0
100
AcDbLine
 62
7
  6
CONTINUOUS
 10
34.6283737133
 20
17.9437832914
 11
33.9927835386
 21
18.7989782039
  0
LINE
  5
49C
100
AcDbEntity
  8
0
100
AcDbLine
 62
7
  6
CONTINUOUS
 10
33.2046517219
 20
20.8156511676
 11
33.4588877918
 21
19.7402237019
  0
LINE
  5
49D
100
AcDbEntity
  8
0
100
AcDbLine
 62
7
  6
CONTINUOUS
 10
33.9927835386
 20
19.4318981275
 11
34.6283737133
 21
19.9934496359
  0
LINE
  5
49E
100
AcDbEntity
  8
3_ALL_AXES
100
AcDbLine
 62
7
  6
CONTINUOUS
 10
32.7688553428
 20
18.4279222369
 11
32.8185049158
 21
18.4565949378
  0
LINE
  5
49F
100
AcDbEntity
  8
3_ALL_AXES
100
AcDbLine
 62
7
  6
CONTINUOUS
 10
33.2983649745
 20
18.7337148234
 11
33.3373555845
 21
18.7562319577
  0
LINE
  5
4A0
100
AcDbEntity
  8
3_AXES_OTHER
100
AcDbLine
 62
7
  6
CONTINUOUS
 10
32.0338946201
 20
18.0357843826
 11
32.2960755671
 21
18.1870753353
  0
LINE
  5
4A1
100
AcDbEntity
  8
3_AXES_OTHER
100
AcDbLine
 62
7
  6
CONTINUOUS
 10
32.5185321283
 20
18.3154434164
 11
32.8518991749
 21
18.5078444457
  0
LINE
  5
4A2
100
AcDbEntity
  8
3_ALL_AXES
100
AcDbLine
 62
7
  6
CONTINUOUS
 10
32.7795143058
 20
18.4249050511
 11
32.8185049158
 21
18.4474221853
  0
LINE
  5
4A3
100
AcDbEntity
  8
3_ALL_AXES
100
AcDbLine
 62
7
  6
CONTINUOUS
 10
33.2983649745
 20
18.7245420709
 11
33.3480145475
 21
18.7532147719
  0
LINE
  5
4A4
100
AcDbEntity
  8
3_ALL_AXES
100
AcDbLine
 62
7
  6
CONTINUOUS
 10
32.6582401539
 20
18.2378700376
 11
32.7441072362
 21
18.2874584032
  0
LINE
  5
4A5
100
AcDbEntity
  8
3_ALL_AXES
100
AcDbLine
 62
7
  6
CONTINUOUS
 10
33.2754857175
 20
18.5943302531
 11
33.905643019
 21
18.9582470161
  0
LINE
  5
4A6
100
AcDbEntity
  8
0
100
AcDbLine
 62
7
  6
CONTINUOUS
 10
33.9927835386
 20
19.4318981275
 11
33.4588877918
 21
19.7402237019
  0
LINE
  5
4A7
100
AcDbEntity
  8
0
100
AcDbLine
 62
7
  6
CONTINUOUS
 10
33.9927835386
 20
18.7989782039
 11
33.9927835386
 21
19.4318981275
  0
LINE
  5
4A8
100
AcDbEntity
  8
5_ALL_CURVES
100
AcDbLine
 62
4
  6
CONTINUOUS
 10
33.5160909075
 20
18.3262715169
 11
33.5081460303
 21
18.3163874476
  0
LINE
  5
4A9
100
AcDbEntity
  8
3_ALL_AXES
100
AcDbLine
 62
7
  6
CONTINUOUS
 10
32.5797733673
 20
17.9525219451
 11
32.5085872677
 21
17.9114118685
  0
LINE
  5
4AA
100
AcDbEntity
  8
3_ALL_AXES
100
AcDbLine
 62
7
  6
CONTINUOUS
 10
32.6303441856
 20
17.8649536504
 11
32.559158086
 21
17.8238435738
  0
LINE
  5
4AB
100
AcDbEntity
  8
0
100
AcDbLine
 62
7
  6
CONTINUOUS
 10
34.6283737133
 20
17.9437832914
 11
34.634729615
 21
17.9238413936
  0
LINE
  5
4AC
100
AcDbEntity
  8
3_AXES_OTHER
100
AcDbLine
 62
7
  6
CONTINUOUS
 10
32.8518991749
 20
17.9024427797
 11
32.7807130754
 21
17.8613327031
  0
LINE
  5
4AD
100
AcDbEntity
  8
0
100
AcDbLine
 62
7
  6
CONTINUOUS
 10
34.634729615
 20
20.0207326188
 11
34.6283737133
 21
19.9934496359
  0
LINE
  5
4AE
100
AcDbEntity
  8
3_AXES_OTHER
100
AcDbLine
 62
7
  6
CONTINUOUS
 10
32.8518991749
 20
17.6456057092
 11
32.7807130754
 21
17.6044956326
  0
LINE
  5
4AF
100
AcDbEntity
  8
0
100
AcDbLine
 62
7
  6
CONTINUOUS
 10
34.6283737133
 20
17.9437832914
 11
34.6283737133
 21
19.9934496359
  0
LINE
  5
4B0
100
AcDbEntity
  8
0
100
AcDbLine
 62
7
  6
CONTINUOUS
 10
34.634729615
 20
20.0207326188
 11
33.2110076237
 21
20.8429341505
  0
LINE
  5
4B1
100
AcDbEntity
  8
3_AXES_OTHER
100
AcDbLine
 62
7
  6
CONTINUOUS
 10
34.7554917482
 20
20.0904729273
 11
34.7554917482
 21
17.9935817021
  0
LINE
  5
4B2
100
AcDbEntity
  8
3_AXES_OTHER
100
AcDbLine
 62
7
  6
CONTINUOUS
 10
33.3317697569
 20
20.912674459
 11
34.7554917482
 21
20.0904729273
  0
LINE
  5
4B3
100
AcDbEntity
  8
0
100
AcDbLine
 62
7
  6
CONTINUOUS
 10
34.7554917482
 20
17.9935817021
 11
34.634729615
 21
17.9238413936
  0
LINE
  5
4B4
100
AcDbEntity
  8
3_AXES_OTHER
100
AcDbLine
 62
7
  6
CONTINUOUS
 10
28.0701591165
 20
8.0332507217
 11
31.5977181716
 21
8.0332507217
  0
LINE
  5
4B5
100
AcDbEntity
  8
3_AXES_OTHER
100
AcDbLine
 62
7
  6
CONTINUOUS
 10
28.0701591165
 20
12.5332507217
 11
28.0701591165
 21
8.0332507217
  0
LINE
  5
4B6
100
AcDbEntity
  8
3_ALL_AXES
100
AcDbLine
 62
7
  6
CENTER
 10
29.833938644
 20
8.4131719816
 11
29.4678328662
 21
8.4131719816
  0
LINE
  5
4B7
100
AcDbEntity
  8
3_ALL_AXES
100
AcDbLine
 62
7
  6
CENTER
 10
29.833938644
 20
8.4131719816
 11
30.2000444219
 21
8.4131719816
  0
LINE
  5
4B8
100
AcDbEntity
  8
3_ALL_AXES
100
AcDbLine
 62
7
  6
CENTER
 10
28.4559858881
 20
10.2832507217
 11
28.4559858881
 21
9.9171449438
  0
LINE
  5
4B9
100
AcDbEntity
  8
3_ALL_AXES
100
AcDbLine
 62
7
  6
CENTER
 10
28.4559858881
 20
10.2832507217
 11
28.4559858881
 21
10.6493564996
  0
LINE
  5
4BA
100
AcDbEntity
  8
3_ALL_AXES
100
AcDbLine
 62
7
  6
CENTER
 10
29.833938644
 20
12.1533294619
 11
29.833938644
 21
7.0293787519
  0
LINE
  5
4BB
100
AcDbEntity
  8
3_ALL_AXES
100
AcDbLine
 62
7
  6
CENTER
 10
29.833938644
 20
12.1533294619
 11
29.833938644
 21
12.7716042914
  0
LINE
  5
4BC
100
AcDbEntity
  8
3_ALL_AXES
100
AcDbLine
 62
7
  6
CENTER
 10
28.4559858881
 20
10.2832507217
 11
28.0898801103
 21
10.2832507217
  0
LINE
  5
4BD
100
AcDbEntity
  8
3_ALL_AXES
100
AcDbLine
 62
7
  6
CENTER
 10
31.2118913999
 20
10.2832507217
 11
28.4559858881
 21
10.2832507217
  0
LINE
  5
4BE
100
AcDbEntity
  8
3_ALL_AXES
100
AcDbLine
 62
7
  6
CENTER
 10
28.0898801103
 20
10.2832507217
 11
26.80881494
 21
10.2832507217
  0
LINE
  5
4BF
100
AcDbEntity
  8
3_ALL_AXES
100
AcDbLine
 62
7
  6
CENTER
 10
31.2118913999
 20
10.2832507217
 11
32.059302348
 21
10.2832507217
  0
LINE
  5
4C0
100
AcDbEntity
  8
3_ALL_AXES
100
AcDbLine
 62
7
  6
CENTER
 10
31.2118913999
 20
10.2832507217
 11
31.2118913999
 21
9.9171449438
  0
LINE
  5
4C1
100
AcDbEntity
  8
3_ALL_AXES
100
AcDbLine
 62
7
  6
CENTER
 10
31.2118913999
 20
10.2832507217
 11
31.2118913999
 21
10.6493564996
  0
LINE
  5
4C2
100
AcDbEntity
  8
3_AXES_OTHER
100
AcDbLine
 62
7
  6
CONTINUOUS
 10
31.5977181716
 20
8.0332507217
 11
31.5977181716
 21
12.5332507217
  0
LINE
  5
4C3
100
AcDbEntity
  8
3_ALL_AXES
100
AcDbLine
 62
7
  6
CENTER
 10
29.833938644
 20
12.1533294619
 11
29.4678328662
 21
12.1533294619
  0
LINE
  5
4C4
100
AcDbEntity
  8
3_ALL_AXES
100
AcDbLine
 62
7
  6
CENTER
 10
29.833938644
 20
12.1533294619
 11
30.2000444219
 21
12.1533294619
  0
LINE
  5
4C5
100
AcDbEntity
  8
3_AXES_OTHER
100
AcDbLine
 62
7
  6
CONTINUOUS
 10
31.5977181716
 20
12.5332507217
 11
28.0701591165
 21
12.5332507217
  0
ARC
  5
4C6
100
AcDbEntity
  8
3_ALL_AXES
100
AcDbCircle
 62
7
  6
CONTINUOUS
 10
5.6356810205
 20
10.2832507217
 40
0.8661417323
100
AcDbArc
 50
107.1847312293
 51
108.2183486772
  0
ARC
  5
4C7
100
AcDbEntity
  8
3_ALL_AXES
100
AcDbCircle
 62
7
  6
CONTINUOUS
 10
5.6356810205
 20
10.2832507217
 40
0.8661417323
100
AcDbArc
 50
161.8426164822
 51
179.3465905404
  0
ARC
  5
4C8
100
AcDbEntity
  8
3_ALL_AXES
100
AcDbCircle
 62
7
  6
CONTINUOUS
 10
5.6356810205
 20
10.2832507217
 40
0.8661417323
100
AcDbArc
 50
0.6534094596
 51
18.1708295418
  0
ARC
  5
4C9
100
AcDbEntity
  8
3_ALL_AXES
100
AcDbCircle
 62
7
  6
CONTINUOUS
 10
5.6356810205
 20
10.2832507217
 40
0.8661417323
100
AcDbArc
 50
71.7648806909
 51
72.8154588839
  0
ARC
  5
4CA
100
AcDbEntity
  8
3_ALL_AXES
100
AcDbCircle
 62
7
  6
CONTINUOUS
 10
5.6356810205
 20
10.2832507217
 40
0.8661417323
100
AcDbArc
 50
287.1845422614
 51
288.2351193337
  0
ARC
  5
4CB
100
AcDbEntity
  8
3_ALL_AXES
100
AcDbCircle
 62
7
  6
CONTINUOUS
 10
5.6356810205
 20
10.2832507217
 40
0.8661417323
100
AcDbArc
 50
341.8291704582
 51
359.3465905404
  0
ARC
  5
4CC
100
AcDbEntity
  8
3_ALL_AXES
100
AcDbCircle
 62
7
  6
CONTINUOUS
 10
5.6356810205
 20
10.2832507217
 40
0.8661417323
100
AcDbArc
 50
180.6534094596
 51
198.1573835178
  0
ARC
  5
4CD
100
AcDbEntity
  8
3_ALL_AXES
100
AcDbCircle
 62
7
  6
CONTINUOUS
 10
5.6356810205
 20
10.2832507217
 40
0.8661417323
100
AcDbArc
 50
251.7816514289
 51
252.8152716049
  0
ARC
  5
4CE
100
AcDbEntity
  8
3_AXES_OTHER
100
AcDbCircle
 62
7
  6
CONTINUOUS
 10
5.6356810205
 20
10.2832507217
 40
0.6299212598
100
AcDbArc
 50
173.2226079814
 51
186.7773920186
  0
ARC
  5
4CF
100
AcDbEntity
  8
3_AXES_OTHER
100
AcDbCircle
 62
7
  6
CONTINUOUS
 10
5.6356810205
 20
10.2832507217
 40
0.6299212598
100
AcDbArc
 50
83.2226079814
 51
96.7773920186
  0
ARC
  5
4D0
100
AcDbEntity
  8
3_AXES_OTHER
100
AcDbCircle
 62
7
  6
CONTINUOUS
 10
5.6356810205
 20
10.2832507217
 40
0.6299212598
100
AcDbArc
 50
263.2226079814
 51
276.7773920186
  0
ARC
  5
4D1
100
AcDbEntity
  8
3_AXES_OTHER
100
AcDbCircle
 62
7
  6
CONTINUOUS
 10
5.6356810205
 20
10.2832507217
 40
0.6299212598
100
AcDbArc
 50
353.2226079814
 51
6.7773920186
  0
CIRCLE
  5
4D2
100
AcDbEntity
  8
3_ALL_AXES
100
AcDbCircle
 62
7
  6
CONTINUOUS
 10
5.6356810205
 20
10.2832507217
 40
0.1771653543
  0
CIRCLE
  5
4D3
100
AcDbEntity
  8
0
100
AcDbCircle
 62
7
  6
CONTINUOUS
 10
7.0136337764
 20
10.2832507217
 40
0.1377952756
  0
CIRCLE
  5
4D4
100
AcDbEntity
  8
0
100
AcDbCircle
 62
7
  6
CONTINUOUS
 10
5.6356810205
 20
8.4131719816
 40
0.1377952756
  0
CIRCLE
  5
4D5
100
AcDbEntity
  8
0
100
AcDbCircle
 62
7
  6
CONTINUOUS
 10
4.2577282646
 20
10.2832507217
 40
0.1377952756
  0
CIRCLE
  5
4D6
100
AcDbEntity
  8
0
100
AcDbCircle
 62
7
  6
CONTINUOUS
 10
5.6356810205
 20
12.1533294619
 40
0.1377952756
  0
CIRCLE
  5
4D7
100
AcDbEntity
  8
3_ALL_AXES
100
AcDbCircle
 62
7
  6
CONTINUOUS
 10
6.4012493859
 20
9.5176823563
 40
0.0885826772
  0
CIRCLE
  5
4D8
100
AcDbEntity
  8
3_ALL_AXES
100
AcDbCircle
 62
7
  6
CONTINUOUS
 10
4.870112655
 20
9.5176823563
 40
0.0885826772
  0
CIRCLE
  5
4D9
100
AcDbEntity
  8
3_ALL_AXES
100
AcDbCircle
 62
7
  6
CONTINUOUS
 10
6.4012493859
 20
11.0488190872
 40
0.0885826772
  0
CIRCLE
  5
4DA
100
AcDbEntity
  8
3_ALL_AXES
100
AcDbCircle
 62
7
  6
CONTINUOUS
 10
4.870112655
 20
11.0488190872
 40
0.0885826772
  0
ARC
  5
4DB
100
AcDbEntity
  8
3_ALL_AXES
100
AcDbCircle
 62
7
  6
CONTINUOUS
 10
5.6356810205
 20
18.4122979338
 40
0.9547244094
100
AcDbArc
 50
48.7155690571
 51
131.2844208085
  0
ARC
  5
4DC
100
AcDbEntity
  8
3_ALL_AXES
100
AcDbCircle
 62
7
  6
CONTINUOUS
 10
5.6356810205
 20
18.4122979338
 40
0.9350393701
100
AcDbArc
 50
47.6543210784
 51
132.3456789216
  0
ARC
  5
4DD
100
AcDbEntity
  8
3_ALL_AXES
100
AcDbCircle
 62
7
  6
CONTINUOUS
 10
5.6356810205
 20
18.4122979338
 40
0.8660858071
100
AcDbArc
 50
136.6547501342
 51
223.3452498658
  0
ARC
  5
4DE
100
AcDbEntity
  8
3_ALL_AXES
100
AcDbCircle
 62
7
  6
CONTINUOUS
 10
5.6356810205
 20
18.4122979338
 40
0.8660858071
100
AcDbArc
 50
316.6547501342
 51
43.3452498658
  0
CIRCLE
  5
4DF
100
AcDbEntity
  8
3_ALL_AXES
100
AcDbCircle
 62
7
  6
CONTINUOUS
 10
5.6356810205
 20
18.4122979338
 40
0.2559055118
  0
ARC
  5
4E0
100
AcDbEntity
  8
3_ALL_AXES
100
AcDbCircle
 62
7
  6
CONTINUOUS
 10
17.0896651217
 20
10.2832507217
 40
0.8661417323
100
AcDbArc
 50
226.6582417728
 51
252.8152040989
  0
ARC
  5
4E1
100
AcDbEntity
  8
3_ALL_AXES
100
AcDbCircle
 62
7
  6
CONTINUOUS
 10
17.0896651217
 20
10.2832507217
 40
0.8661417323
100
AcDbArc
 50
287.1847959011
 51
313.3417582272
  0
ARC
  5
4E2
100
AcDbEntity
  8
3_ALL_AXES
100
AcDbCircle
 62
7
  6
CONTINUOUS
 10
17.0896651217
 20
10.2832507217
 40
0.8661417323
100
AcDbArc
 50
107.1847959011
 51
133.3417582272
  0
ARC
  5
4E3
100
AcDbEntity
  8
3_ALL_AXES
100
AcDbCircle
 62
7
  6
CONTINUOUS
 10
17.0896651217
 20
10.2832507217
 40
0.8661417323
100
AcDbArc
 50
46.6582417728
 51
72.8152040989
  0
ARC
  5
4E4
100
AcDbEntity
  8
3_ALL_AXES
100
AcDbCircle
 62
7
  6
CONTINUOUS
 10
15.6546726733
 20
10.2832502008
 40
0.7175679546
100
AcDbArc
 50
0.0000415963
 51
0.7859637126
  0
ARC
  5
4E5
100
AcDbEntity
  8
3_ALL_AXES
100
AcDbCircle
 62
7
  6
CONTINUOUS
 10
18.5246575701
 20
10.2832512427
 40
0.7175679546
100
AcDbArc
 50
180.0000415963
 51
180.7859637126
  0
ARC
  5
4E6
100
AcDbEntity
  8
3_ALL_AXES
100
AcDbCircle
 62
7
  6
CONTINUOUS
 10
32.804069074
 20
19.3420263063
 40
0.9174499079
100
AcDbArc
 50
267.7857745572
 51
268.4663439477
  0
ARC
  5
4E7
100
AcDbEntity
  8
3_ALL_AXES
100
AcDbCircle
 62
7
  6
CONTINUOUS
 10
32.803841364
 20
18.7364246991
 40
0.4953935566
100
AcDbArc
 50
62.8186922324
 51
72.7870185626
  0
ARC
  5
4E8
100
AcDbEntity
  8
3_ALL_AXES
100
AcDbCircle
 62
7
  6
CONTINUOUS
 10
32.8042319586
 20
18.7373700758
 40
0.4943755407
100
AcDbArc
 50
107.1996507096
 51
163.1150069292
  0
ARC
  5
4E9
100
AcDbEntity
  8
3_ALL_AXES
100
AcDbCircle
 62
7
  6
CONTINUOUS
 10
32.8042290681
 20
18.7373730339
 40
0.4943736521
100
AcDbArc
 50
256.8448136498
 51
357.2043278157
  0
ARC
  5
4EA
100
AcDbEntity
  8
3_ALL_AXES
100
AcDbCircle
 62
7
  6
CONTINUOUS
 10
33.0977097473
 20
18.9953505767
 40
0.2829129312
100
AcDbArc
 50
117.9045106338
 51
120.0126467389
  0
ARC
  5
4EB
100
AcDbEntity
  8
3_ALL_AXES
100
AcDbCircle
 62
7
  6
CONTINUOUS
 10
33.105148225
 20
19.0032497278
 40
0.2797924952
100
AcDbArc
 50
120.0123725374
 51
121.0195655259
  0
ARC
  5
4EC
100
AcDbEntity
  8
3_ALL_AXES
100
AcDbCircle
 62
7
  6
CONTINUOUS
 10
33.1651761934
 20
18.7326139443
 40
0.1839952657
100
AcDbArc
 50
6.4285382223
 51
8.1666147681
  0
ARC
  5
4ED
100
AcDbEntity
  8
3_ALL_AXES
100
AcDbCircle
 62
7
  6
CONTINUOUS
 10
32.5881424153
 20
18.4233321387
 40
0.1807712122
100
AcDbArc
 50
0.0004862171
 51
1.4549967078
  0
ARC
  5
4EE
100
AcDbEntity
  8
3_ALL_AXES
100
AcDbCircle
 62
7
  6
CONTINUOUS
 10
32.6048658196
 20
18.4294282367
 40
0.1747070489
100
AcDbArc
 50
357.4833948755
 51
358.5164398939
  0
ARC
  5
4EF
100
AcDbEntity
  8
3_ALL_AXES
100
AcDbCircle
 62
7
  6
CONTINUOUS
 10
33.130352161
 20
18.742289465
 40
0.1682360234
100
AcDbArc
 50
350.2702570643
 51
354.0486959345
  0
ARC
  5
4F0
100
AcDbEntity
  8
3_ALL_AXES
100
AcDbCircle
 62
7
  6
CONTINUOUS
 10
33.1330809909
 20
18.7419929133
 40
0.1654911539
100
AcDbArc
 50
354.0528573335
 51
357.1327915858
  0
CIRCLE
  5
4F1
100
AcDbEntity
  8
3_ALL_AXES
100
AcDbCircle
 62
7
  6
CONTINUOUS
 10
29.833938644
 20
12.1533294619
 40
0.1377952756
  0
CIRCLE
  5
4F2
100
AcDbEntity
  8
3_ALL_AXES
100
AcDbCircle
 62
7
  6
CONTINUOUS
 10
31.2118913999
 20
10.2832507217
 40
0.1377952756
  0
CIRCLE
  5
4F3
100
AcDbEntity
  8
3_ALL_AXES
100
AcDbCircle
 62
7
  6
CONTINUOUS
 10
29.833938644
 20
8.4131719816
 40
0.1377952756
  0
CIRCLE
  5
4F4
100
AcDbEntity
  8
3_ALL_AXES
100
AcDbCircle
 62
7
  6
CONTINUOUS
 10
28.4559858881
 20
10.2832507217
 40
0.1377952756
  0
LINE
  5
4F5
100
AcDbEntity
  8
3_ALL_AXES
100
AcDbLine
 62
7
  6
CONTINUOUS
 10
16.1349407136
 20
9.6533294632
 11
16.1408004819
 21
9.6622465354
  0
SPLINE
  5
4F6
100
AcDbEntity
  8
3_ALL_AXES
100
AcDbSpline
 62
7
  6
CONTINUOUS
 70
0
 71
3
 72
12
 73
8
 74
0
 42
0.0000001
 43
0.0000001
 44
0.0000000001
 40
0.0
 40
0.0
 40
0.0
 40
0.0
 40
0.1330914462
 40
0.3676179632
 40
0.6658294868
 40
0.830340281
 40
1.0
 40
1.0
 40
1.0
 40
1.0
 10
16.1408004819
 20
9.6622465354
 30
0.0
 10
16.1571200157
 20
9.6871824254
 30
0.0
 10
16.2011163229
 20
9.7567793728
 30
0.0
 10
16.2739567263
 20
9.8869688066
 30
0.0
 10
16.3341813551
 20
10.0319856641
 30
0.0
 10
16.3661958916
 20
10.1703088067
 30
0.0
 10
16.3722406278
 20
10.2452610237
 30
0.0
 10
16.3722406278
 20
10.2832507217
 30
0.0
  0
LINE
  5
4F7
100
AcDbEntity
  8
3_ALL_AXES
100
AcDbLine
 62
7
  6
CONTINUOUS
 10
18.0443895309
 20
10.9131719813
 11
18.0385298575
 21
10.9042550547
  0
SPLINE
  5
4F8
100
AcDbEntity
  8
3_ALL_AXES
100
AcDbSpline
 62
7
  6
CONTINUOUS
 70
0
 71
3
 72
12
 73
8
 74
0
 42
0.0000001
 43
0.0000001
 44
0.0000000001
 40
0.0
 40
0.0
 40
0.0
 40
0.0
 40
0.133089117
 40
0.3676121351
 40
0.6658222891
 40
0.8303483007
 40
1.0
 40
1.0
 40
1.0
 40
1.0
 10
18.0385298575
 20
10.9042550547
 30
0.0
 10
18.0222105594
 20
10.8793196255
 30
0.0
 10
17.9782149087
 20
10.8097237642
 30
0.0
 10
17.9053756259
 20
10.6795356424
 30
0.0
 10
17.8451476532
 20
10.5345174112
 30
0.0
 10
17.8131355189
 20
10.3961922946
 30
0.0
 10
17.8070896156
 20
10.3212386327
 30
0.0
 10
17.8070896156
 20
10.2832507217
 30
0.0
  0
SPLINE
  5
4F9
100
AcDbEntity
  8
3_ALL_AXES
100
AcDbSpline
 62
7
  6
CONTINUOUS
 70
0
 71
3
 72
23
 73
19
 74
0
 42
0.0000001
 43
0.0000001
 44
0.0000000001
 40
0.0
 40
0.0
 40
0.0
 40
0.0
 40
0.1862275005
 40
0.3652517888
 40
0.5321380413
 40
0.6097206488
 40
0.6826212111
 40
0.7501560529
 40
0.8115595162
 40
0.8659414286
 40
0.9123584899
 40
0.9498204014
 40
0.9648972776
 40
0.9773997223
 40
0.9872261099
 40
0.9942964245
 40
0.9985675646
 40
1.0
 40
1.0
 40
1.0
 40
1.0
 10
17.7807473926
 20
10.2930932414
 30
0.0
 10
17.7813445284
 20
10.335020509
 30
0.0
 10
17.7901675171
 20
10.4173081156
 30
0.0
 10
17.8220434945
 20
10.5331839607
 30
0.0
 10
17.8580857889
 20
10.6216424009
 30
0.0
 10
17.8891641534
 20
10.6860003796
 30
0.0
 10
17.9119781201
 20
10.7294763194
 30
0.0
 10
17.9342090003
 20
10.7691201323
 30
0.0
 10
17.9551885298
 20
10.8046689637
 30
0.0
 10
17.9743262942
 20
10.8357839486
 30
0.0
 10
17.9909952594
 20
10.8620570557
 30
0.0
 10
18.0031690652
 20
10.8807682475
 30
0.0
 10
18.0111864164
 20
10.8929458086
 30
0.0
 10
18.0159379556
 20
10.9000690696
 30
0.0
 10
18.0193754199
 20
10.9052918966
 30
0.0
 10
18.0225767245
 20
10.9098946945
 30
0.0
 10
18.0232132283
 20
10.9111437372
 30
0.0
 10
18.0249394537
 20
10.9133929323
 30
0.0
 10
18.0247044917
 20
10.9131719815
 30
0.0
  0
SPLINE
  5
4FA
100
AcDbEntity
  8
3_ALL_AXES
100
AcDbSpline
 62
7
  6
CONTINUOUS
 70
0
 71
3
 72
23
 73
19
 74
0
 42
0.0000001
 43
0.0000001
 44
0.0000000001
 40
0.0
 40
0.0
 40
0.0
 40
0.0
 40
0.1862380158
 40
0.3652467519
 40
0.5321319673
 40
0.6097163123
 40
0.6826182277
 40
0.750153911
 40
0.8115575951
 40
0.8659396505
 40
0.9123571772
 40
0.9498194675
 40
0.9648966877
 40
0.9773994297
 40
0.9872258765
 40
0.9942962319
 40
0.9985674657
 40
1.0
 40
1.0
 40
1.0
 40
1.0
 10
16.3985828508
 20
10.273408202
 30
0.0
 10
16.3979856812
 20
10.2314785598
 30
0.0
 10
16.3891649734
 20
10.1491916171
 30
0.0
 10
16.3572846933
 20
10.0333184048
 30
0.0
 10
16.321246522
 20
9.9448620022
 30
0.0
 10
16.2901673362
 20
9.8805038571
 30
0.0
 10
16.267353248
 20
9.8370269802
 30
0.0
 10
16.2451220289
 20
9.7973827281
 30
0.0
 10
16.2241424184
 20
9.7618335965
 30
0.0
 10
16.2050044765
 20
9.730718573
 30
0.0
 10
16.1883357741
 20
9.7044448046
 30
0.0
 10
16.1761608347
 20
9.6857345491
 30
0.0
 10
16.1681449983
 20
9.6735549042
 30
0.0
 10
16.1633897848
 20
9.6664356118
 30
0.0
 10
16.1599616055
 20
9.6612019998
 30
0.0
 10
16.1567389935
 20
9.6566236104
 30
0.0
 10
16.1561401215
 20
9.6553313135
 30
0.0
 10
16.1543746224
 20
9.6531270389
 30
0.0
 10
16.1546257515
 20
9.6533294618
 30
0.0
  0
SPLINE
  5
4FB
100
AcDbEntity
  8
3_ALL_AXES
100
AcDbSpline
 62
7
  6
CONTINUOUS
 70
0
 71
3
 72
14
 73
10
 74
0
 42
0.0000001
 43
0.0000001
 44
0.0000000001
 40
0.0
 40
0.0
 40
0.0
 40
0.0
 40
0.0868944852
 40
0.1841871043
 40
0.2972147647
 40
0.4259725486
 40
0.5668311055
 40
0.7140573357
 40
1.0
 40
1.0
 40
1.0
 40
1.0
 10
32.9502947017
 20
18.1870071319
 30
0.0
 10
32.9502952025
 20
18.1794834165
 30
0.0
 10
32.9463405792
 20
18.1633903923
 30
0.0
 10
32.9303639212
 20
18.142571227
 30
0.0
 10
32.906241184
 20
18.1253001587
 30
0.0
 10
32.8755433924
 20
18.112299708
 30
0.0
 10
32.8401711875
 20
18.1042630963
 30
0.0
 10
32.7904943652
 20
18.1009039073
 30
0.0
 10
32.7525398866
 20
18.1065512166
 30
0.0
 10
32.7291449213
 20
18.1146533249
 30
0.0
  0
SPLINE
  5
4FC
100
AcDbEntity
  8
3_ALL_AXES
100
AcDbSpline
 62
7
  6
CONTINUOUS
 70
0
 71
3
 72
16
 73
12
 74
0
 42
0.0000001
 43
0.0000001
 44
0.0000000001
 40
0.0
 40
0.0
 40
0.0
 40
0.0
 40
0.1286820758
 40
0.2683615774
 40
0.4065308535
 40
0.5375767538
 40
0.6589765993
 40
0.7167591941
 40
0.773314295
 40
0.8853783321
 40
1.0
 40
1.0
 40
1.0
 40
1.0
 10
33.3373555845
 20
18.7562319577
 30
0.0
 10
33.3373168772
 20
18.7889872836
 30
0.0
 10
33.3366111146
 20
18.8573011514
 30
0.0
 10
33.3301099697
 20
18.9606836793
 30
0.0
 10
33.3114378862
 20
19.0634776822
 30
0.0
 10
33.2752344301
 20
19.1569910269
 30
0.0
 10
33.2252478936
 20
19.2205633126
 30
0.0
 10
33.1750546338
 20
19.25426999
 30
0.0
 10
33.1209714861
 20
19.2754277489
 30
0.0
 10
33.0467407866
 20
19.2784624093
 30
0.0
 10
32.991091142
 20
19.2590224529
 30
0.0
 10
32.9653066688
 20
19.2453688789
 30
0.0
  0
SPLINE
  5
4FD
100
AcDbEntity
  8
3_ALL_AXES
100
AcDbSpline
 62
7
  6
CONTINUOUS
 70
0
 71
3
 72
10
 73
6
 74
0
 42
0.0000001
 43
0.0000001
 44
0.0000000001
 40
0.0
 40
0.0
 40
0.0
 40
0.0
 40
0.2184382452
 40
0.4522648614
 40
1.0
 40
1.0
 40
1.0
 40
1.0
 10
32.1743378374
 20
18.4903800616
 30
0.0
 10
32.1710021282
 20
18.4884546224
 30
0.0
 10
32.1647535192
 20
18.4832138094
 30
0.0
 10
32.1554411157
 20
18.4679767483
 30
0.0
 10
32.1533855729
 20
18.4537536625
 30
0.0
 10
32.1533855729
 20
18.4440959329
 30
0.0
  0
SPLINE
  5
4FE
100
AcDbEntity
  8
3_ALL_AXES
100
AcDbSpline
 62
7
  6
CONTINUOUS
 70
0
 71
3
 72
9
 73
5
 74
0
 42
0.0000001
 43
0.0000001
 44
0.0000000001
 40
0.0
 40
0.0
 40
0.0
 40
0.0
 40
0.4491946626
 40
1.0
 40
1.0
 40
1.0
 40
1.0
 10
32.5085712369
 20
17.9114005207
 30
0.0
 10
32.5051656477
 20
17.9094318837
 30
0.0
 10
32.4992898449
 20
17.9020590893
 30
0.0
 10
32.4981207295
 20
17.8930979843
 30
0.0
 10
32.4981207295
 20
17.888274523
 30
0.0
  0
SPLINE
  5
4FF
100
AcDbEntity
  8
3_ALL_AXES
100
AcDbSpline
 62
7
  6
CONTINUOUS
 70
0
 71
3
 72
13
 73
9
 74
0
 42
0.0000001
 43
0.0000001
 44
0.0000000001
 40
0.0
 40
0.0
 40
0.0
 40
0.0
 40
0.2699071928
 40
0.5613631221
 40
0.6955043876
 40
0.8131743034
 40
0.9128670174
 40
1.0
 40
1.0
 40
1.0
 40
1.0
 10
31.8801543109
 20
18.958623739
 30
0.0
 10
31.8801543109
 20
18.9495893137
 30
0.0
 10
31.8851236899
 20
18.9308603506
 30
0.0
 10
31.8979895765
 20
18.9109818796
 30
0.0
 10
31.9116846656
 20
18.898838663
 30
0.0
 10
31.922123933
 20
18.8931433981
 30
0.0
 10
31.9323407116
 20
18.8911013019
 30
0.0
 10
31.9386826734
 20
18.8927445202
 30
0.0
 10
31.9412076983
 20
18.8942041376
 30
0.0
  0
SPLINE
  5
500
100
AcDbEntity
  8
3_ALL_AXES
100
AcDbSpline
 62
7
  6
CONTINUOUS
 70
0
 71
3
 72
13
 73
9
 74
0
 42
0.0000001
 43
0.0000001
 44
0.0000000001
 40
0.0
 40
0.0
 40
0.0
 40
0.0
 40
0.2699071928
 40
0.5613631221
 40
0.6955043876
 40
0.8131743034
 40
0.9128670174
 40
1.0
 40
1.0
 40
1.0
 40
1.0
 10
32.4981207295
 20
18.6017472287
 30
0.0
 10
32.4981207295
 20
18.5927128034
 30
0.0
 10
32.5030901085
 20
18.5739838403
 30
0.0
 10
32.515955995
 20
18.5541053693
 30
0.0
 10
32.5296510842
 20
18.5419621526
 30
0.0
 10
32.5400903516
 20
18.5362668878
 30
0.0
 10
32.5503071302
 20
18.5342247915
 30
0.0
 10
32.556649092
 20
18.5358680099
 30
0.0
 10
32.5591741168
 20
18.5373276273
 30
0.0
  0
SPLINE
  5
501
100
AcDbEntity
  8
3_ALL_AXES
100
AcDbSpline
 62
7
  6
CONTINUOUS
 70
0
 71
3
 72
13
 73
9
 74
0
 42
0.0000001
 43
0.0000001
 44
0.0000000001
 40
0.0
 40
0.0
 40
0.0
 40
0.0
 40
0.2699071928
 40
0.5613631221
 40
0.6955043876
 40
0.8131743034
 40
0.9128670174
 40
1.0
 40
1.0
 40
1.0
 40
1.0
 10
31.8801543109
 20
18.2451510333
 30
0.0
 10
31.8801543109
 20
18.236116608
 30
0.0
 10
31.8851236899
 20
18.2173876449
 30
0.0
 10
31.8979895765
 20
18.1975091739
 30
0.0
 10
31.9116846656
 20
18.1853659573
 30
0.0
 10
31.922123933
 20
18.1796706924
 30
0.0
 10
31.9323407116
 20
18.1776285962
 30
0.0
 10
31.9386826734
 20
18.1792718145
 30
0.0
 10
31.9412076983
 20
18.1807314319
 30
0.0
  0
SPLINE
  5
502
100
AcDbEntity
  8
3_ALL_AXES
100
AcDbSpline
 62
7
  6
CONTINUOUS
 70
0
 71
3
 72
13
 73
9
 74
0
 42
0.0000001
 43
0.0000001
 44
0.0000000001
 40
0.0
 40
0.0
 40
0.0
 40
0.0
 40
0.2699071928
 40
0.5613631221
 40
0.6955043876
 40
0.8131743034
 40
0.9128670174
 40
1.0
 40
1.0
 40
1.0
 40
1.0
 10
32.4981207295
 20
17.888274523
 30
0.0
 10
32.4981207295
 20
17.8792400977
 30
0.0
 10
32.5030901085
 20
17.8605111346
 30
0.0
 10
32.515955995
 20
17.8406326636
 30
0.0
 10
32.5296510842
 20
17.828489447
 30
0.0
 10
32.5400903516
 20
17.8227941821
 30
0.0
 10
32.5503071302
 20
17.8207520859
 30
0.0
 10
32.556649092
 20
17.8223953042
 30
0.0
 10
32.5591741168
 20
17.8238549216
 30
0.0
  0
SPLINE
  5
503
100
AcDbEntity
  8
3_ALL_AXES
100
AcDbSpline
 62
7
  6
CONTINUOUS
 70
0
 71
3
 72
14
 73
10
 74
0
 42
0.0000001
 43
0.0000001
 44
0.0000000001
 40
0.0
 40
0.0
 40
0.0
 40
0.0
 40
0.2695450388
 40
0.4170594596
 40
0.5617623361
 40
0.6957701664
 40
0.8133346083
 40
0.9129506324
 40
1.0
 40
1.0
 40
1.0
 40
1.0
 10
32.1533855729
 20
18.4440959329
 30
0.0
 10
32.1533855729
 20
18.4260370282
 30
0.0
 10
32.1608087645
 20
18.3980483284
 30
0.0
 10
32.178719946
 20
18.3649185362
 30
0.0
 10
32.1964007989
 20
18.342276084
 30
0.0
 10
32.21640495
 20
18.3245605107
 30
0.0
 10
32.2372726065
 20
18.3131548152
 30
0.0
 10
32.2576965198
 20
18.309057294
 30
0.0
 10
32.2703900585
 20
18.3123090341
 30
0.0
 10
32.2754410978
 20
18.3152245967
 30
0.0
  0
SPLINE
  5
504
100
AcDbEntity
  8
3_ALL_AXES
100
AcDbSpline
 62
7
  6
CONTINUOUS
 70
0
 71
3
 72
9
 73
5
 74
0
 42
0.0000001
 43
0.0000001
 44
0.0000000001
 40
0.0
 40
0.0
 40
0.0
 40
0.0
 40
0.4491946626
 40
1.0
 40
1.0
 40
1.0
 40
1.0
 10
31.8906048183
 20
18.268277031
 30
0.0
 10
31.8871992292
 20
18.266308394
 30
0.0
 10
31.8813234263
 20
18.2589355996
 30
0.0
 10
31.8801543109
 20
18.2499744946
 30
0.0
 10
31.8801543109
 20
18.2451510333
 30
0.0
  0
SPLINE
  5
505
100
AcDbEntity
  8
3_ALL_AXES
100
AcDbSpline
 62
7
  6
CONTINUOUS
 70
0
 71
3
 72
9
 73
5
 74
0
 42
0.0000001
 43
0.0000001
 44
0.0000000001
 40
0.0
 40
0.0
 40
0.0
 40
0.0
 40
0.4491946626
 40
1.0
 40
1.0
 40
1.0
 40
1.0
 10
32.5085712369
 20
18.6248732264
 30
0.0
 10
32.5051656477
 20
18.6229045894
 30
0.0
 10
32.4992898449
 20
18.615531795
 30
0.0
 10
32.4981207295
 20
18.60657069
 30
0.0
 10
32.4981207295
 20
18.6017472287
 30
0.0
  0
SPLINE
  5
506
100
AcDbEntity
  8
3_ALL_AXES
100
AcDbSpline
 62
7
  6
CONTINUOUS
 70
0
 71
3
 72
13
 73
9
 74
0
 42
0.0000001
 43
0.0000001
 44
0.0000000001
 40
0.0
 40
0.0
 40
0.0
 40
0.0
 40
0.3016006295
 40
0.5763273273
 40
0.6982726556
 40
0.8085746372
 40
0.9081803342
 40
1.0
 40
1.0
 40
1.0
 40
1.0
 10
32.8185049158
 20
18.4565949378
 30
0.0
 10
32.876774013
 20
18.4575670625
 30
0.0
 10
32.9882310456
 20
18.4706279824
 30
0.0
 10
33.1171113534
 20
18.5158461443
 30
0.0
 10
33.2002147714
 20
18.5684914741
 30
0.0
 10
33.2476465737
 20
18.6122871387
 30
0.0
 10
33.281038205
 20
18.6607590284
 30
0.0
 10
33.2931716778
 20
18.696370305
 30
0.0
 10
33.2961682558
 20
18.7138574008
 30
0.0
  0
SPLINE
  5
507
100
AcDbEntity
  8
3_ALL_AXES
100
AcDbSpline
 62
7
  6
CONTINUOUS
 70
0
 71
3
 72
9
 73
5
 74
0
 42
0.0000001
 43
0.0000001
 44
0.0000000001
 40
0.0
 40
0.0
 40
0.0
 40
0.0
 40
0.4491946626
 40
1.0
 40
1.0
 40
1.0
 40
1.0
 10
31.8906048183
 20
18.9817497367
 30
0.0
 10
31.8871992292
 20
18.9797810997
 30
0.0
 10
31.8813234263
 20
18.9724083053
 30
0.0
 10
31.8801543109
 20
18.9634472003
 30
0.0
 10
31.8801543109
 20
18.958623739
 30
0.0
  0
SPLINE
  5
508
100
AcDbEntity
  8
3_ALL_AXES
100
AcDbSpline
 62
7
  6
CONTINUOUS
 70
0
 71
3
 72
15
 73
11
 74
0
 42
0.0000001
 43
0.0000001
 44
0.0000000001
 40
0.0
 40
0.0
 40
0.0
 40
0.0
 40
0.1288258764
 40
0.2705553428
 40
0.4178658783
 40
0.5623599349
 40
0.6961717851
 40
0.8135667556
 40
0.9130490619
 40
1.0
 40
1.0
 40
1.0
 40
1.0
 10
32.9075133152
 20
19.3473837503
 30
0.0
 10
32.8967013322
 20
19.3536276863
 30
0.0
 10
32.8722215401
 20
19.3637313635
 30
0.0
 10
32.8323232824
 20
19.3717153811
 30
0.0
 10
32.7901202646
 20
19.372883607
 30
0.0
 10
32.7490713154
 20
19.3671163407
 30
0.0
 10
32.7124532298
 20
19.3548790229
 30
0.0
 10
32.6831212858
 20
19.3370022347
 30
0.0
 10
32.6632511609
 20
19.3143984545
 30
0.0
 10
32.658164561
 20
19.2961644596
 30
0.0
 10
32.658165122
 20
19.2877374338
 30
0.0
  0
SPLINE
  5
509
100
AcDbEntity
  8
3_ALL_AXES
100
AcDbSpline
 62
7
  6
CONTINUOUS
 70
0
 71
3
 72
11
 73
7
 74
0
 42
0.0000001
 43
0.0000001
 44
0.0000000001
 40
0.0
 40
0.0
 40
0.0
 40
0.0
 40
0.2896781923
 40
0.5490564536
 40
0.7821955523
 40
1.0
 40
1.0
 40
1.0
 40
1.0
 10
32.9075133152
 20
19.3473837503
 30
0.0
 10
32.9139226079
 20
19.3436823744
 30
0.0
 10
32.9255508158
 20
19.3356711311
 30
0.0
 10
32.9394479963
 20
19.32106224
 30
0.0
 10
32.9482386825
 20
19.3049010149
 30
0.0
 10
32.9502943312
 20
19.2933023528
 30
0.0
 10
32.9502947017
 20
19.2877374338
 30
0.0
  0
SPLINE
  5
50A
100
AcDbEntity
  8
3_ALL_AXES
100
AcDbSpline
 62
7
  6
CONTINUOUS
 70
0
 71
3
 72
11
 73
7
 74
0
 42
0.0000001
 43
0.0000001
 44
0.0000000001
 40
0.0
 40
0.0
 40
0.0
 40
0.0
 40
0.252094464
 40
0.503873892
 40
0.7530602309
 40
1.0
 40
1.0
 40
1.0
 40
1.0
 10
32.6579804729
 20
18.2383377724
 30
0.0
 10
32.6736662057
 20
18.248736695
 30
0.0
 10
32.7030431538
 20
18.2726961608
 30
0.0
 10
32.7387074727
 20
18.3167065908
 30
0.0
 10
32.7630244011
 20
18.3676432141
 30
0.0
 10
32.7689136275
 20
18.404898822
 30
0.0
 10
32.7689136275
 20
18.4233336728
 30
0.0
  0
SPLINE
  5
50B
100
AcDbEntity
  8
3_ALL_AXES
100
AcDbSpline
 62
7
  6
CONTINUOUS
 70
0
 71
3
 72
10
 73
6
 74
0
 42
0.0000001
 43
0.0000001
 44
0.0000000001
 40
0.0
 40
0.0
 40
0.0
 40
0.0
 40
0.2184382452
 40
0.4522648614
 40
1.0
 40
1.0
 40
1.0
 40
1.0
 10
32.2754410978
 20
18.3152245967
 30
0.0
 10
32.278776807
 20
18.3171500359
 30
0.0
 10
32.2850254159
 20
18.3223908489
 30
0.0
 10
32.2943378195
 20
18.3376279101
 30
0.0
 10
32.2963933622
 20
18.3518509958
 30
0.0
 10
32.2963933622
 20
18.3615087254
 30
0.0
  0
SPLINE
  5
50C
100
AcDbEntity
  8
3_ALL_AXES
100
AcDbSpline
 62
7
  6
CONTINUOUS
 70
0
 71
3
 72
13
 73
9
 74
0
 42
0.0000001
 43
0.0000001
 44
0.0000000001
 40
0.0
 40
0.0
 40
0.0
 40
0.0
 40
0.269862886
 40
0.561321616
 40
0.6954689673
 40
0.8131493462
 40
0.9128602239
 40
1.0
 40
1.0
 40
1.0
 40
1.0
 10
32.0228443052
 20
18.2449675062
 30
0.0
 10
32.0228443052
 20
18.2539987017
 30
0.0
 10
32.0178778565
 20
18.2727226333
 30
0.0
 10
32.0050183731
 20
18.2925983594
 30
0.0
 10
31.9913281589
 20
18.3047423274
 30
0.0
 10
31.9808912766
 20
18.3104403783
 30
0.0
 10
31.9706782422
 20
18.3124871788
 30
0.0
 10
31.9643330974
 20
18.3108553586
 30
0.0
 10
31.9618078235
 20
18.3093968451
 30
0.0
  0
SPLINE
  5
50D
100
AcDbEntity
  8
3_ALL_AXES
100
AcDbSpline
 62
7
  6
CONTINUOUS
 70
0
 71
3
 72
10
 73
6
 74
0
 42
0.0000001
 43
0.0000001
 44
0.0000000001
 40
0.0
 40
0.0
 40
0.0
 40
0.0
 40
0.2184485153
 40
0.4522871408
 40
1.0
 40
1.0
 40
1.0
 40
1.0
 10
32.3466462722
 20
18.3563440465
 30
0.0
 10
32.3499802977
 20
18.3582697393
 30
0.0
 10
32.3562203968
 20
18.363516505
 30
0.0
 10
32.365526775
 20
18.3787472399
 30
0.0
 10
32.3675794618
 20
18.3929652572
 30
0.0
 10
32.3675794618
 20
18.402618802
 30
0.0
  0
SPLINE
  5
50E
100
AcDbEntity
  8
3_ALL_AXES
100
AcDbSpline
 62
7
  6
CONTINUOUS
 70
0
 71
3
 72
13
 73
9
 74
0
 42
0.0000001
 43
0.0000001
 44
0.0000000001
 40
0.0
 40
0.0
 40
0.0
 40
0.0
 40
0.269862886
 40
0.561321616
 40
0.6954689673
 40
0.8131493462
 40
0.9128602239
 40
1.0
 40
1.0
 40
1.0
 40
1.0
 10
32.6408107238
 20
17.8880909959
 30
0.0
 10
32.6408107238
 20
17.8971221914
 30
0.0
 10
32.6358442751
 20
17.915846123
 30
0.0
 10
32.6229847917
 20
17.9357218491
 30
0.0
 10
32.6092945775
 20
17.947865817
 30
0.0
 10
32.5988576952
 20
17.953563868
 30
0.0
 10
32.5886446608
 20
17.9556106685
 30
0.0
 10
32.582299516
 20
17.9539788483
 30
0.0
 10
32.5797742421
 20
17.9525203348
 30
0.0
  0
SPLINE
  5
50F
100
AcDbEntity
  8
3_ALL_AXES
100
AcDbSpline
 62
7
  6
CONTINUOUS
 70
0
 71
3
 72
14
 73
10
 74
0
 42
0.0000001
 43
0.0000001
 44
0.0000000001
 40
0.0
 40
0.0
 40
0.0
 40
0.0
 40
0.2695599565
 40
0.4170835517
 40
0.5617887581
 40
0.6957933246
 40
0.8133491903
 40
0.9129546199
 40
1.0
 40
1.0
 40
1.0
 40
1.0
 10
32.3675794618
 20
18.402618802
 30
0.0
 10
32.3675794618
 20
18.4206805745
 30
0.0
 10
32.3601533814
 20
18.4486736132
 30
0.0
 10
32.3422376036
 20
18.4818073521
 30
0.0
 10
32.3245523195
 20
18.5044508797
 30
0.0
 10
32.3045441433
 20
18.5221653608
 30
0.0
 10
32.2836735265
 20
18.5335673493
 30
0.0
 10
32.2632465103
 20
18.5376588291
 30
0.0
 10
32.2505553886
 20
18.5343978879
 30
0.0
 10
32.245504862
 20
18.5314807649
 30
0.0
  0
LINE
  5
510
100
AcDbEntity
  8
3_ALL_AXES
100
AcDbLine
 62
7
  6
CONTINUOUS
 10
33.3480183359
 20
18.7577674887
 11
33.3480145475
 21
18.7532147719
  0
SPLINE
  5
511
100
AcDbEntity
  8
3_ALL_AXES
100
AcDbSpline
 62
7
  6
CONTINUOUS
 70
0
 71
3
 72
9
 73
5
 74
0
 42
0.0000001
 43
0.0000001
 44
0.0000000001
 40
0.0
 40
0.0
 40
0.0
 40
0.0
 40
0.4491946626
 40
1.0
 40
1.0
 40
1.0
 40
1.0
 10
32.5591741168
 20
17.8238549216
 30
0.0
 10
32.562579706
 20
17.8258235586
 30
0.0
 10
32.5684555088
 20
17.833196353
 30
0.0
 10
32.5696246242
 20
17.842157458
 30
0.0
 10
32.5696246242
 20
17.8469809193
 30
0.0
  0
SPLINE
  5
512
100
AcDbEntity
  8
3_ALL_AXES
100
AcDbSpline
 62
7
  6
CONTINUOUS
 70
0
 71
3
 72
9
 73
5
 74
0
 42
0.0000001
 43
0.0000001
 44
0.0000000001
 40
0.0
 40
0.0
 40
0.0
 40
0.0
 40
0.4491735343
 40
1.0
 40
1.0
 40
1.0
 40
1.0
 10
32.6303433107
 20
17.8649552607
 30
0.0
 10
32.6337518655
 20
17.8669239277
 30
0.0
 10
32.6396408541
 20
17.8742942787
 30
0.0
 10
32.6408107238
 20
17.8832639553
 30
0.0
 10
32.6408107238
 20
17.8880909959
 30
0.0
  0
SPLINE
  5
513
100
AcDbEntity
  8
3_ALL_AXES
100
AcDbSpline
 62
7
  6
CONTINUOUS
 70
0
 71
3
 72
15
 73
11
 74
0
 42
0.0000001
 43
0.0000001
 44
0.0000000001
 40
0.0
 40
0.0
 40
0.0
 40
0.0
 40
0.0869509381
 40
0.1864332444
 40
0.3038282149
 40
0.4376400651
 40
0.5821341217
 40
0.7294446572
 40
0.8711741236
 40
1.0
 40
1.0
 40
1.0
 40
1.0
 10
32.9502947017
 20
19.2877374338
 30
0.0
 10
32.9502952626
 20
19.279310408
 30
0.0
 10
32.9452086627
 20
19.261076413
 30
0.0
 10
32.9253385379
 20
19.2384726329
 30
0.0
 10
32.8960065939
 20
19.2205958446
 30
0.0
 10
32.8593885082
 20
19.2083585269
 30
0.0
 10
32.8183395591
 20
19.2025912606
 30
0.0
 10
32.7761365412
 20
19.2037594865
 30
0.0
 10
32.7362382836
 20
19.2117435041
 30
0.0
 10
32.7117584915
 20
19.2218471813
 30
0.0
 10
32.7009465084
 20
19.2280911173
 30
0.0
  0
SPLINE
  5
514
100
AcDbEntity
  8
3_ALL_AXES
100
AcDbSpline
 62
7
  6
CONTINUOUS
 70
0
 71
3
 72
11
 73
7
 74
0
 42
0.0000001
 43
0.0000001
 44
0.0000000001
 40
0.0
 40
0.0
 40
0.0
 40
0.0
 40
0.2898024362
 40
0.5490431
 40
0.7822279014
 40
1.0
 40
1.0
 40
1.0
 40
1.0
 10
33.9800717351
 20
19.1227792508
 30
0.0
 10
33.9800717351
 20
19.1045646535
 30
0.0
 10
33.9773221696
 20
19.0699370869
 30
0.0
 10
33.9632856369
 20
19.0223636708
 30
0.0
 10
33.9396935106
 20
18.9837527559
 30
0.0
 10
33.9175127353
 20
18.9651038677
 30
0.0
 10
33.9056604712
 20
18.9582578661
 30
0.0
  0
SPLINE
  5
515
100
AcDbEntity
  8
3_ALL_AXES
100
AcDbSpline
 62
7
  6
CONTINUOUS
 70
0
 71
3
 72
9
 73
5
 74
0
 42
0.0000001
 43
0.0000001
 44
0.0000000001
 40
0.0
 40
0.0
 40
0.0
 40
0.0
 40
0.4491946626
 40
1.0
 40
1.0
 40
1.0
 40
1.0
 10
31.9412076983
 20
18.1807314319
 30
0.0
 10
31.9446132874
 20
18.1827000689
 30
0.0
 10
31.9504890902
 20
18.1900728633
 30
0.0
 10
31.9516582056
 20
18.1990339683
 30
0.0
 10
31.9516582056
 20
18.2038574296
 30
0.0
  0
SPLINE
  5
516
100
AcDbEntity
  8
3_ALL_AXES
100
AcDbSpline
 62
7
  6
CONTINUOUS
 70
0
 71
3
 72
9
 73
5
 74
0
 42
0.0000001
 43
0.0000001
 44
0.0000000001
 40
0.0
 40
0.0
 40
0.0
 40
0.0
 40
0.4491735343
 40
1.0
 40
1.0
 40
1.0
 40
1.0
 10
32.0123768922
 20
18.221831771
 30
0.0
 10
32.0157854469
 20
18.223800438
 30
0.0
 10
32.0216744355
 20
18.231170789
 30
0.0
 10
32.0228443052
 20
18.2401404656
 30
0.0
 10
32.0228443052
 20
18.2449675062
 30
0.0
  0
SPLINE
  5
517
100
AcDbEntity
  8
3_ALL_AXES
100
AcDbSpline
 62
7
  6
CONTINUOUS
 70
0
 71
3
 72
13
 73
9
 74
0
 42
0.0000001
 43
0.0000001
 44
0.0000000001
 40
0.0
 40
0.0
 40
0.0
 40
0.0
 40
0.2699071928
 40
0.5613631221
 40
0.6955043876
 40
0.8131743034
 40
0.9128670174
 40
1.0
 40
1.0
 40
1.0
 40
1.0
 10
31.9516582056
 20
18.9173301353
 30
0.0
 10
31.9516582056
 20
18.9263645606
 30
0.0
 10
31.9466888266
 20
18.9450935237
 30
0.0
 10
31.9338229401
 20
18.9649719947
 30
0.0
 10
31.920127851
 20
18.9771152114
 30
0.0
 10
31.9096885835
 20
18.9828104762
 30
0.0
 10
31.8994718049
 20
18.9848525724
 30
0.0
 10
31.8931298432
 20
18.9832093541
 30
0.0
 10
31.8906048183
 20
18.9817497367
 30
0.0
  0
SPLINE
  5
518
100
AcDbEntity
  8
3_AXES_OTHER
100
AcDbSpline
 62
7
  6
CONTINUOUS
 70
0
 71
3
 72
9
 73
5
 74
0
 42
0.0000001
 43
0.0000001
 44
0.0000000001
 40
0.0
 40
0.0
 40
0.0
 40
0.0
 40
0.2389423625
 40
1.0
 40
1.0
 40
1.0
 40
1.0
 10
32.3372587212
 20
18.7938261779
 30
0.0
 10
32.3423149669
 20
18.7915999543
 30
0.0
 10
32.3631998582
 20
18.7816591918
 30
0.0
 10
32.3829485528
 20
18.7694045348
 30
0.0
 10
32.3972646122
 20
18.7591726881
 30
0.0
  0
SPLINE
  5
519
100
AcDbEntity
  8
3_ALL_AXES
100
AcDbSpline
 62
7
  6
CONTINUOUS
 70
0
 71
3
 72
13
 73
9
 74
0
 42
0.0000001
 43
0.0000001
 44
0.0000000001
 40
0.0
 40
0.0
 40
0.0
 40
0.0
 40
0.2699071928
 40
0.5613631221
 40
0.6955043876
 40
0.8131743034
 40
0.9128670174
 40
1.0
 40
1.0
 40
1.0
 40
1.0
 10
32.5696246242
 20
18.560453625
 30
0.0
 10
32.5696246242
 20
18.5694880503
 30
0.0
 10
32.5646552452
 20
18.5882170134
 30
0.0
 10
32.5517893587
 20
18.6080954844
 30
0.0
 10
32.5380942695
 20
18.620238701
 30
0.0
 10
32.5276550021
 20
18.6259339659
 30
0.0
 10
32.5174382235
 20
18.6279760621
 30
0.0
 10
32.5110962617
 20
18.6263328438
 30
0.0
 10
32.5085712369
 20
18.6248732264
 30
0.0
  0
SPLINE
  5
51A
100
AcDbEntity
  8
3_ALL_AXES
100
AcDbSpline
 62
7
  6
CONTINUOUS
 70
0
 71
3
 72
13
 73
9
 74
0
 42
0.0000001
 43
0.0000001
 44
0.0000000001
 40
0.0
 40
0.0
 40
0.0
 40
0.0
 40
0.2699071928
 40
0.5613631221
 40
0.6955043876
 40
0.8131743034
 40
0.9128670174
 40
1.0
 40
1.0
 40
1.0
 40
1.0
 10
31.9516582056
 20
18.2038574296
 30
0.0
 10
31.9516582056
 20
18.2128918549
 30
0.0
 10
31.9466888266
 20
18.231620818
 30
0.0
 10
31.9338229401
 20
18.251499289
 30
0.0
 10
31.920127851
 20
18.2636425057
 30
0.0
 10
31.9096885835
 20
18.2693377705
 30
0.0
 10
31.8994718049
 20
18.2713798668
 30
0.0
 10
31.8931298432
 20
18.2697366484
 30
0.0
 10
31.8906048183
 20
18.268277031
 30
0.0
  0
SPLINE
  5
51B
100
AcDbEntity
  8
3_ALL_AXES
100
AcDbSpline
 62
7
  6
CONTINUOUS
 70
0
 71
3
 72
13
 73
9
 74
0
 42
0.0000001
 43
0.0000001
 44
0.0000000001
 40
0.0
 40
0.0
 40
0.0
 40
0.0
 40
0.2699071928
 40
0.5613631221
 40
0.6955043876
 40
0.8131743034
 40
0.9128670174
 40
1.0
 40
1.0
 40
1.0
 40
1.0
 10
32.5696246242
 20
17.8469809193
 30
0.0
 10
32.5696246242
 20
17.8560153446
 30
0.0
 10
32.5646552452
 20
17.8747443077
 30
0.0
 10
32.5517893587
 20
17.8946227787
 30
0.0
 10
32.5380942695
 20
17.9067659954
 30
0.0
 10
32.5276550021
 20
17.9124612602
 30
0.0
 10
32.5174382235
 20
17.9145033564
 30
0.0
 10
32.5110962617
 20
17.9128601381
 30
0.0
 10
32.5085712369
 20
17.9114005207
 30
0.0
  0
SPLINE
  5
51C
100
AcDbEntity
  8
3_ALL_AXES
100
AcDbSpline
 62
7
  6
CONTINUOUS
 70
0
 71
3
 72
14
 73
10
 74
0
 42
0.0000001
 43
0.0000001
 44
0.0000000001
 40
0.0
 40
0.0
 40
0.0
 40
0.0
 40
0.2695450388
 40
0.4170594596
 40
0.5617623361
 40
0.6957701664
 40
0.8133346083
 40
0.9129506324
 40
1.0
 40
1.0
 40
1.0
 40
1.0
 10
32.2963933622
 20
18.3615087254
 30
0.0
 10
32.2963933622
 20
18.3795676301
 30
0.0
 10
32.2889701706
 20
18.4075563299
 30
0.0
 10
32.2710589891
 20
18.4406861221
 30
0.0
 10
32.2533781363
 20
18.4633285743
 30
0.0
 10
32.2333739852
 20
18.4810441476
 30
0.0
 10
32.2125063286
 20
18.4924498431
 30
0.0
 10
32.1920824154
 20
18.4965473643
 30
0.0
 10
32.1793888766
 20
18.4932956242
 30
0.0
 10
32.1743378374
 20
18.4903800616
 30
0.0
  0
SPLINE
  5
51D
100
AcDbEntity
  8
3_ALL_AXES
100
AcDbSpline
 62
7
  6
CONTINUOUS
 70
0
 71
3
 72
11
 73
7
 74
0
 42
0.0000001
 43
0.0000001
 44
0.0000000001
 40
0.0
 40
0.0
 40
0.0
 40
0.0
 40
0.2178044477
 40
0.4509435464
 40
0.7103218077
 40
1.0
 40
1.0
 40
1.0
 40
1.0
 10
32.658165122
 20
19.2877374338
 30
0.0
 10
32.6581654924
 20
19.2821725148
 30
0.0
 10
32.6602211412
 20
19.2705738527
 30
0.0
 10
32.6690118273
 20
19.2544126275
 30
0.0
 10
32.6829090078
 20
19.2398037365
 30
0.0
 10
32.6945372157
 20
19.2317924932
 30
0.0
 10
32.7009465084
 20
19.2280911173
 30
0.0
  0
SPLINE
  5
51E
100
AcDbEntity
  8
3_ALL_AXES
100
AcDbSpline
 62
7
  6
CONTINUOUS
 70
0
 71
3
 72
11
 73
7
 74
0
 42
0.0000001
 43
0.0000001
 44
0.0000000001
 40
0.0
 40
0.0
 40
0.0
 40
0.0
 40
0.2177867453
 40
0.4509673915
 40
0.7102615987
 40
1.0
 40
1.0
 40
1.0
 40
1.0
 10
32.6581658591
 20
19.1229071969
 30
0.0
 10
32.6581715083
 20
19.1173461549
 30
0.0
 10
32.6602338752
 20
19.1057557243
 30
0.0
 10
32.6690286789
 20
19.0896119897
 30
0.0
 10
32.6829170079
 20
19.0750119619
 30
0.0
 10
32.6945398257
 20
19.0670088998
 30
0.0
 10
32.7009465084
 20
19.0633090312
 30
0.0
  0
SPLINE
  5
51F
100
AcDbEntity
  8
3_ALL_AXES
100
AcDbSpline
 62
7
  6
CONTINUOUS
 70
0
 71
3
 72
9
 73
5
 74
0
 42
0.0000001
 43
0.0000001
 44
0.0000000001
 40
0.0
 40
0.0
 40
0.0
 40
0.0
 40
0.2455042819
 40
1.0
 40
1.0
 40
1.0
 40
1.0
 10
32.8185049158
 20
18.4565949378
 30
0.0
 10
32.8184721046
 20
18.4590380438
 30
0.0
 10
32.8182326226
 20
18.4689878254
 30
0.0
 10
32.8175797822
 20
18.4789267909
 30
0.0
 10
32.8168771547
 20
18.4864027949
 30
0.0
  0
SPLINE
  5
520
100
AcDbEntity
  8
3_ALL_AXES
100
AcDbSpline
 62
7
  6
CONTINUOUS
 70
0
 71
3
 72
11
 73
7
 74
0
 42
0.0000001
 43
0.0000001
 44
0.0000000001
 40
0.0
 40
0.0
 40
0.0
 40
0.0
 40
0.2959041186
 40
0.5576844536
 40
0.7884367123
 40
1.0
 40
1.0
 40
1.0
 40
1.0
 10
32.5934726394
 20
18.873553259
 30
0.0
 10
32.5755301998
 20
18.8863073102
 30
0.0
 10
32.5396289672
 20
18.9076747258
 30
0.0
 10
32.4834526607
 20
18.926422733
 30
0.0
 10
32.430258546
 20
18.9287171723
 30
0.0
 10
32.3981218771
 20
18.9180377325
 30
0.0
 10
32.3844925361
 20
18.9101662623
 30
0.0
  0
SPLINE
  5
521
100
AcDbEntity
  8
3_AXES_OTHER
100
AcDbSpline
 62
7
  6
CONTINUOUS
 70
0
 71
3
 72
9
 73
5
 74
0
 42
0.0000001
 43
0.0000001
 44
0.0000000001
 40
0.0
 40
0.0
 40
0.0
 40
0.0
 40
0.2551849316
 40
1.0
 40
1.0
 40
1.0
 40
1.0
 10
32.6197211733
 20
18.3738666283
 30
0.0
 10
32.6200149787
 20
18.3708426531
 30
0.0
 10
32.6210312761
 20
18.3589800146
 30
0.0
 10
32.6214977366
 20
18.3470684981
 30
0.0
 10
32.6214977366
 20
18.3382007802
 30
0.0
  0
SPLINE
  5
522
100
AcDbEntity
  8
3_ALL_AXES
100
AcDbSpline
 62
7
  6
CONTINUOUS
 70
0
 71
3
 72
9
 73
5
 74
0
 42
0.0000001
 43
0.0000001
 44
0.0000000001
 40
0.0
 40
0.0
 40
0.0
 40
0.0
 40
0.4491946626
 40
1.0
 40
1.0
 40
1.0
 40
1.0
 10
32.5591741168
 20
18.5373276273
 30
0.0
 10
32.562579706
 20
18.5392962643
 30
0.0
 10
32.5684555088
 20
18.5466690587
 30
0.0
 10
32.5696246242
 20
18.5556301637
 30
0.0
 10
32.5696246242
 20
18.560453625
 30
0.0
  0
SPLINE
  5
523
100
AcDbEntity
  8
3_ALL_AXES
100
AcDbSpline
 62
7
  6
CONTINUOUS
 70
0
 71
3
 72
9
 73
5
 74
0
 42
0.0000001
 43
0.0000001
 44
0.0000000001
 40
0.0
 40
0.0
 40
0.0
 40
0.0
 40
0.4491735343
 40
1.0
 40
1.0
 40
1.0
 40
1.0
 10
32.6303433107
 20
18.5784279664
 30
0.0
 10
32.6337518655
 20
18.5803966333
 30
0.0
 10
32.6396408541
 20
18.5877669844
 30
0.0
 10
32.6408107238
 20
18.596736661
 30
0.0
 10
32.6408107238
 20
18.6015637016
 30
0.0
  0
SPLINE
  5
524
100
AcDbEntity
  8
3_ALL_AXES
100
AcDbSpline
 62
7
  6
CONTINUOUS
 70
0
 71
3
 72
15
 73
11
 74
0
 42
0.0000001
 43
0.0000001
 44
0.0000000001
 40
0.0
 40
0.0
 40
0.0
 40
0.0
 40
0.1288307889
 40
0.2705639168
 40
0.4178697862
 40
0.5623802975
 40
0.6961985614
 40
0.8135820667
 40
0.9130550646
 40
1.0
 40
1.0
 40
1.0
 40
1.0
 10
32.7009465084
 20
19.0633090312
 30
0.0
 10
32.7117606722
 20
19.0570638358
 30
0.0
 10
32.7362457759
 20
19.0469593116
 30
0.0
 10
32.7761511056
 20
19.038974876
 30
0.0
 10
32.8183627035
 20
19.037809141
 30
0.0
 10
32.8594196688
 20
19.0435820699
 30
0.0
 10
32.8960426111
 20
19.0558290788
 30
0.0
 10
32.9253732278
 20
19.0737166287
 30
0.0
 10
32.9452336225
 20
19.0963343197
 30
0.0
 10
32.9503025123
 20
19.1145755839
 30
0.0
 10
32.9502939658
 20
19.1230034018
 30
0.0
  0
SPLINE
  5
525
100
AcDbEntity
  8
3_AXES_OTHER
100
AcDbSpline
 62
7
  6
CONTINUOUS
 70
0
 71
3
 72
9
 73
5
 74
0
 42
0.0000001
 43
0.0000001
 44
0.0000000001
 40
0.0
 40
0.0
 40
0.0
 40
0.0
 40
0.255865159
 40
1.0
 40
1.0
 40
1.0
 40
1.0
 10
32.6214977366
 20
18.3382007802
 30
0.0
 10
32.6214977366
 20
18.3353291168
 30
0.0
 10
32.6213550534
 20
18.3241065258
 30
0.0
 10
32.6206297551
 20
18.3128889818
 30
0.0
 10
32.6197211733
 20
18.3045868679
 30
0.0
  0
SPLINE
  5
526
100
AcDbEntity
  8
3_ALL_AXES
100
AcDbSpline
 62
7
  6
CONTINUOUS
 70
0
 71
3
 72
14
 73
10
 74
0
 42
0.0000001
 43
0.0000001
 44
0.0000000001
 40
0.0
 40
0.0
 40
0.0
 40
0.0
 40
0.0912538853
 40
0.1892683682
 40
0.2979558082
 40
0.4189159577
 40
0.5518270955
 40
0.6949617522
 40
1.0
 40
1.0
 40
1.0
 40
1.0
 10
33.2983649745
 20
18.7245420709
 30
0.0
 10
33.2974543436
 20
18.7063381508
 30
0.0
 10
33.2890908802
 20
18.6686846976
 30
0.0
 10
33.2589693089
 20
18.6165251781
 30
0.0
 10
33.2129644069
 20
18.5692192334
 30
0.0
 10
33.1529263947
 20
18.5280617804
 30
0.0
 10
33.0809018891
 20
18.494179518
 30
0.0
 10
32.9699014745
 20
18.4594533932
 30
0.0
 10
32.8800225521
 20
18.448491652
 30
0.0
 10
32.8191046527
 20
18.4474324023
 30
0.0
  0
LINE
  5
527
100
AcDbEntity
  8
3_ALL_AXES
100
AcDbLine
 62
7
  6
CONTINUOUS
 10
32.8191046527
 20
18.4474324023
 11
32.8185049158
 21
18.4474221853
  0
SPLINE
  5
528
100
AcDbEntity
  8
3_ALL_AXES
100
AcDbSpline
 62
7
  6
CONTINUOUS
 70
0
 71
3
 72
9
 73
5
 74
0
 42
0.0000001
 43
0.0000001
 44
0.0000000001
 40
0.0
 40
0.0
 40
0.0
 40
0.0
 40
0.2473905325
 40
1.0
 40
1.0
 40
1.0
 40
1.0
 10
33.3473055945
 20
18.7587508738
 30
0.0
 10
33.3468828225
 20
18.7616974002
 30
0.0
 10
33.3448871026
 20
18.7735654279
 30
0.0
 10
33.3417505683
 20
18.7852374255
 30
0.0
 10
33.3388193905
 20
18.7938056149
 30
0.0
  0
SPLINE
  5
529
100
AcDbEntity
  8
3_ALL_AXES
100
AcDbSpline
 62
7
  6
CONTINUOUS
 70
0
 71
3
 72
9
 73
5
 74
0
 42
0.0000001
 43
0.0000001
 44
0.0000000001
 40
0.0
 40
0.0
 40
0.0
 40
0.0
 40
0.4491946626
 40
1.0
 40
1.0
 40
1.0
 40
1.0
 10
31.9412076983
 20
18.8942041376
 30
0.0
 10
31.9446132874
 20
18.8961727746
 30
0.0
 10
31.9504890902
 20
18.903545569
 30
0.0
 10
31.9516582056
 20
18.912506674
 30
0.0
 10
31.9516582056
 20
18.9173301353
 30
0.0
  0
SPLINE
  5
52A
100
AcDbEntity
  8
3_ALL_AXES
100
AcDbSpline
 62
7
  6
CONTINUOUS
 70
0
 71
3
 72
9
 73
5
 74
0
 42
0.0000001
 43
0.0000001
 44
0.0000000001
 40
0.0
 40
0.0
 40
0.0
 40
0.0
 40
0.4491735343
 40
1.0
 40
1.0
 40
1.0
 40
1.0
 10
32.0123768922
 20
18.9353044767
 30
0.0
 10
32.0157854469
 20
18.9372731437
 30
0.0
 10
32.0216744355
 20
18.9446434947
 30
0.0
 10
32.0228443052
 20
18.9536131713
 30
0.0
 10
32.0228443052
 20
18.9584402119
 30
0.0
  0
SPLINE
  5
52B
100
AcDbEntity
  8
3_ALL_AXES
100
AcDbSpline
 62
7
  6
CONTINUOUS
 70
0
 71
3
 72
11
 73
7
 74
0
 42
0.0000001
 43
0.0000001
 44
0.0000000001
 40
0.0
 40
0.0
 40
0.0
 40
0.0
 40
0.2186404326
 40
0.4521856786
 40
0.7111057904
 40
1.0
 40
1.0
 40
1.0
 40
1.0
 10
32.7441072288
 20
18.2874584178
 30
0.0
 10
32.7557217759
 20
18.2941662668
 30
0.0
 10
32.7774821879
 20
18.3123174845
 30
0.0
 10
32.8008867889
 20
18.3498162731
 30
0.0
 10
32.8151340057
 20
18.3960210367
 30
0.0
 10
32.8182631785
 20
18.4297017242
 30
0.0
 10
32.8185049158
 20
18.4474221853
 30
0.0
  0
SPLINE
  5
52C
100
AcDbEntity
  8
3_ALL_AXES
100
AcDbSpline
 62
7
  6
CONTINUOUS
 70
0
 71
3
 72
11
 73
7
 74
0
 42
0.0000001
 43
0.0000001
 44
0.0000000001
 40
0.0
 40
0.0
 40
0.0
 40
0.0
 40
0.2332815995
 40
0.4954499587
 40
0.7601076782
 40
1.0
 40
1.0
 40
1.0
 40
1.0
 10
33.0301410091
 20
19.177108945
 30
0.0
 10
33.067371966
 20
19.1579842225
 30
0.0
 10
33.1385723191
 20
19.1020284438
 30
0.0
 10
33.2221894194
 20
18.9929598719
 30
0.0
 10
33.280331901
 20
18.8671144842
 30
0.0
 10
33.2977869712
 20
18.7767527414
 30
0.0
 10
33.2983649745
 20
18.7337148234
 30
0.0
  0
SPLINE
  5
52D
100
AcDbEntity
  8
3_ALL_AXES
100
AcDbSpline
 62
7
  6
CONTINUOUS
 70
0
 71
3
 72
16
 73
12
 74
0
 42
0.0000001
 43
0.0000001
 44
0.0000000001
 40
0.0
 40
0.0
 40
0.0
 40
0.0
 40
0.1145755943
 40
0.2266664022
 40
0.2831980531
 40
0.3409386579
 40
0.4623273579
 40
0.5936399946
 40
0.7322388759
 40
0.8720974065
 40
1.0
 40
1.0
 40
1.0
 40
1.0
 10
32.9651996564
 20
19.2455269214
 30
0.0
 10
32.9908810766
 20
19.2603612771
 30
0.0
 10
33.0468006417
 20
19.282014256
 30
0.0
 10
33.1223556246
 20
19.2813546533
 30
0.0
 10
33.1779648595
 20
19.2614660097
 30
0.0
 10
33.2298784077
 20
19.2285269785
 30
0.0
 10
33.2820188169
 20
19.1647360672
 30
0.0
 10
33.3199986766
 20
19.0698609283
 30
0.0
 10
33.3398444872
 20
18.9652432505
 30
0.0
 10
33.347055322
 20
18.8601908889
 30
0.0
 10
33.3480183359
 20
18.7908751288
 30
0.0
 10
33.3480183359
 20
18.7577674887
 30
0.0
  0
SPLINE
  5
52E
100
AcDbEntity
  8
3_ALL_AXES
100
AcDbSpline
 62
7
  6
CONTINUOUS
 70
0
 71
3
 72
16
 73
12
 74
0
 42
0.0000001
 43
0.0000001
 44
0.0000000001
 40
0.0
 40
0.0
 40
0.0
 40
0.0
 40
0.0428744852
 40
0.087519245
 40
0.1869208352
 40
0.3042368105
 40
0.4379719404
 40
0.5823887388
 40
0.729614571
 40
0.8712661962
 40
1.0
 40
1.0
 40
1.0
 40
1.0
 10
33.5460108591
 20
19.5809440398
 30
0.0
 10
33.554873853
 20
19.5860634052
 30
0.0
 10
33.5744102687
 20
19.594191556
 30
0.0
 10
33.6189463341
 20
19.6007258519
 30
0.0
 10
33.6818231595
 20
19.5884541187
 30
0.0
 10
33.7558956004
 20
19.5478284322
 30
0.0
 10
33.8270986166
 20
19.4848519503
 30
0.0
 10
33.8899086455
 20
19.4044259048
 30
0.0
 10
33.9393790418
 20
19.3130178367
 30
0.0
 10
33.9714701418
 20
19.2181328555
 30
0.0
 10
33.9800717351
 20
19.1535113761
 30
0.0
 10
33.9800717351
 20
19.1227792508
 30
0.0
  0
SPLINE
  5
52F
100
AcDbEntity
  8
3_ALL_AXES
100
AcDbSpline
 62
7
  6
CONTINUOUS
 70
0
 71
3
 72
13
 73
9
 74
0
 42
0.0000001
 43
0.0000001
 44
0.0000000001
 40
0.0
 40
0.0
 40
0.0
 40
0.0
 40
0.269862886
 40
0.561321616
 40
0.6954689673
 40
0.8131493462
 40
0.9128602239
 40
1.0
 40
1.0
 40
1.0
 40
1.0
 10
32.0228443052
 20
18.9584402119
 30
0.0
 10
32.0228443052
 20
18.9674714074
 30
0.0
 10
32.0178778565
 20
18.986195339
 30
0.0
 10
32.0050183731
 20
19.0060710651
 30
0.0
 10
31.9913281589
 20
19.018215033
 30
0.0
 10
31.9808912766
 20
19.023913084
 30
0.0
 10
31.9706782422
 20
19.0259598845
 30
0.0
 10
31.9643330974
 20
19.0243280643
 30
0.0
 10
31.9618078235
 20
19.0228695508
 30
0.0
  0
SPLINE
  5
530
100
AcDbEntity
  8
3_ALL_AXES
100
AcDbSpline
 62
7
  6
CONTINUOUS
 70
0
 71
3
 72
11
 73
7
 74
0
 42
0.0000001
 43
0.0000001
 44
0.0000000001
 40
0.0
 40
0.0
 40
0.0
 40
0.0
 40
0.2462239167
 40
0.4957523989
 40
0.7479334194
 40
1.0
 40
1.0
 40
1.0
 40
1.0
 10
32.7794043702
 20
18.4217570382
 30
0.0
 10
32.7785815207
 20
18.4030310505
 30
0.0
 10
32.7707313385
 20
18.3653933236
 30
0.0
 10
32.7435801725
 20
18.3146760507
 30
0.0
 10
32.7054271043
 20
18.2712591765
 30
0.0
 10
32.6745687976
 20
18.2479322907
 30
0.0
 10
32.6581893008
 20
18.2379361147
 30
0.0
  0
SPLINE
  5
531
100
AcDbEntity
  8
3_ALL_AXES
100
AcDbSpline
 62
7
  6
CONTINUOUS
 70
0
 71
3
 72
13
 73
9
 74
0
 42
0.0000001
 43
0.0000001
 44
0.0000000001
 40
0.0
 40
0.0
 40
0.0
 40
0.0
 40
0.269862886
 40
0.561321616
 40
0.6954689673
 40
0.8131493462
 40
0.9128602239
 40
1.0
 40
1.0
 40
1.0
 40
1.0
 10
32.6408107238
 20
18.6015637016
 30
0.0
 10
32.6408107238
 20
18.6105948971
 30
0.0
 10
32.6358442751
 20
18.6293188287
 30
0.0
 10
32.6229847917
 20
18.6491945548
 30
0.0
 10
32.6092945775
 20
18.6613385227
 30
0.0
 10
32.5988576952
 20
18.6670365736
 30
0.0
 10
32.5886446608
 20
18.6690833742
 30
0.0
 10
32.582299516
 20
18.667451554
 30
0.0
 10
32.5797742421
 20
18.6659930405
 30
0.0
  0
ELLIPSE
  5
532
100
AcDbEntity
  8
0
100
AcDbEllipse
 62
7
  6
CONTINUOUS
 10
5.6356810205
 20
21.0658807097
 30
0.0
 11
0.1377952756
 21
-0.0
 31
0.0
 40
0.3107769424
 41
0.0
 42
6.2831853072
  0
ELLIPSE
  5
533
100
AcDbEntity
  8
0
100
AcDbEllipse
 62
7
  6
CONTINUOUS
 10
19.6802163028
 20
10.2832507217
 30
0.0
 11
0.0
 21
0.1377952756
 31
0.0
 40
0.4285714286
 41
0.0
 42
6.2831853072
  0
ELLIPSE
  5
534
100
AcDbEntity
  8
0
100
AcDbEllipse
 62
7
  6
CONTINUOUS
 10
33.8752152858
 20
18.4844564132
 30
0.0
 11
-0.053573743
 21
0.0595871528
 31
0.0
 40
0.3832466479
 41
0.0
 42
6.2831853072
  0
ELLIPSE
  5
535
100
AcDbEntity
  8
0
100
AcDbEllipse
 62
7
  6
CONTINUOUS
 10
34.4059171521
 20
19.0200040594
 30
0.0
 11
0.0739168257
 21
-0.0406152104
 31
0.0
 40
0.7171569991
 41
0.0
 42
6.2831853072
  0
ELLIPSE
  5
536
100
AcDbEntity
  8
0
100
AcDbEllipse
 62
7
  6
CONTINUOUS
 10
33.2936343464
 20
19.6623490061
 30
0.0
 11
-0.0204899269
 21
0.0786634032
 31
0.0
 40
0.3088091088
 41
0.0
 42
6.2831853072
  0
ELLIPSE
  5
537
100
AcDbEntity
  8
0
100
AcDbEllipse
 62
7
  6
CONTINUOUS
 10
33.8752152858
 20
20.2272793913
 30
0.0
 11
-0.0125631764
 21
0.0803536404
 31
0.0
 40
0.7077053569
 41
0.0
 42
6.2831853072
  0
ENDSEC
  0
SECTION
  2
OBJECTS
  0
DICTIONARY
  5
C
100
AcDbDictionary
280
0
281
1
  3
ACAD_GROUP
350
D
  3
ACAD_MLINESTYLE
350
17
  3
ACAD_LAYOUT
350
1A
  3
ACAD_PLOTSETTINGS
350
19
  3
ACAD_PLOTSTYLENAME
350
E
  0
DICTIONARY
  5
D
102
{ACAD_REACTORS
330
C
102
}
100
AcDbDictionary
280
0
281
1
  0
ACDBDICTIONARYWDFLT
  5
E
102
{ACAD_REACTORS
330
C
102
}
100
AcDbDictionary
281
1
  3
Normal
350
F
100
AcDbDictionaryWithDefault
340
F
  0
DICTIONARY
  5
17
102
{ACAD_REACTORS
330
C
102
}
100
AcDbDictionary
280
0
281
1
  3
Standard
350
18
  0
DICTIONARY
  5
19
102
{ACAD_REACTORS
330
C
102
}
100
AcDbDictionary
281
1
  0
DICTIONARY
  5
1A
102
{ACAD_REACTORS
330
C
102
}
100
AcDbDictionary
281
1
  3
Model
350
538
  3
Layout1
350
539
  0
ACDBPLACEHOLDER
  5
F
102
{ACAD_REACTORS
330
E
102
}
  0
MLINESTYLE
  5
18
102
{ACAD_REACTORS
330
17
102
}
100
AcDbMlineStyle
  2
STANDARD
 70
0
  3

 62
256
 51
90.0
 52
90.0
 71
2
 49
0.5
 62
256
  6
BYLAYER
 49
-0.5
 62
256
  6
BYLAYER
  0
LAYOUT
  5
538
102
{ACAD_REACTORS
330
1A
102
}
100
AcDbPlotSettings
  1

  2
none_device
  4
ANSI_B_(17.00_x_11.00_Inches)
  6

 40
0.0
 41
0.0
 42
0.0
 43
0.0
 44
431.8
 45
279.4
 46
0.0
 47
0.0
 48
0.0
 49
0.0
140
0.0
141
0.0
142
1.0
143
1.0
 70
1024
 72
0
 73
0
 74
0
  7

 75
0
147
1.0
148
0.0
149
0.0
100
AcDbLayout
  1
Model
 70
0
 71
0
 10
0.0
 20
0.0
 11
17.0
 21
11.0
 12
0.0
 22
0.0
 32
0.0
 14
0.0
 24
0.0
 34
0.0
 15
0.0
 25
0.0
 35
0.0
146
0.0
 13
0.0
 23
0.0
 33
0.0
 16
1.0
 26
0.0
 36
0.0
 17
0.0
 27
1.0
 37
0.0
 76
0
330
211
345
0
346
0
  0
LAYOUT
  5
539
102
{ACAD_REACTORS
330
1A
102
}
100
AcDbPlotSettings
  1

  2
none_device
  4
ANSI_B_(17.00_x_11.00_Inches)
  6

 40
0.0
 41
0.0
 42
0.0
 43
0.0
 44
431.8
 45
279.4
 46
0.0
 47
0.0
 48
0.0
 49
0.0
140
0.0
141
0.0
142
1.0
143
1.0
 70
0
 72
0
 73
0
 74
0
  7

 75
0
147
1.0
148
0.0
149
0.0
100
AcDbLayout
  1
Layout1
 70
0
 71
1
 10
0.0
 20
0.0
 11
17.0
 21
11.0
 12
0.0
 22
0.0
 32
0.0
 14
0.0
 24
0.0
 34
0.0
 15
0.0
 25
0.0
 35
0.0
146
0.0
 13
0.0
 23
0.0
 33
0.0
 16
1.0
 26
0.0
 36
0.0
 17
0.0
 27
1.0
 37
0.0
 76
0
330
212
345
0
346
0
  0
ENDSEC
  0
EOF
