999
DXF file: fg-020012-2d.dxf
999
Pro/ENGINEER 2010370 by Parametric Technology Corporation
  0
SECTION
  2
HEADER
  9
$ACADVER
  1
AC1015
  9
$DWGCODEPAGE
  3
ANSI_1252
  9
$EXTMAX
 10
212.5
 20
137.5
 30
0.0
  9
$EXTMIN
 10
0.0
 20
0.0
 30
0.0
  9
$LIMMIN
 10
0.0
 20
0.0
  9
$LIMMAX
 10
212.5
 20
137.5
  9
$VIEWCTR
 10
106.25
 20
68.75
  9
$VIEWSIZE
 40
137.5
  9
$CLAYER
  8
0
  9
$LTSCALE
 40
11.6875
  9
$CELTYPE
  6
BYLAYER
  9
$DIMSCALE
 40
1.0
  9
$DIMASZ
 40
2.34375
  9
$DIMEXO
 40
1.328125
  9
$DIMDLI
 40
8.075
  9
$DIMEXE
 40
3.825
  9
$DIMCEN
 40
1.9125
  9
$DIMLFAC
 40
1.0
  9
$DIMBLK
  1
_FILLED
  9
$DIMTXT
 40
1.953125
  9
$DIMTOL
 70
1
  9
$DIMLIM
 70
0
  9
$DIMTFAC
 40
1.0
  9
$DIMTP
 40
0.01
  9
$DIMTM
 40
0.01
  9
$PDMODE
 70
3
  9
$PDSIZE
 40
0.3125
  9
$HANDSEED
  5
55D
  9
$TILEMODE
 70
1
  9
$MEASUREMENT
 70
0
  9
$INSUNITS
 70
1
  0
ENDSEC
  0
SECTION
  2
CLASSES
  0
CLASS
  1
ACDBDICTIONARYWDFLT
  2
AcDbDictionaryWithDefault
  3
AutoCAD 2000
 90
0
280
0
281
0
  0
CLASS
  1
ACDBPLACEHOLDER
  2
AcDbPlaceHolder
  3
AutoCAD 2000
 90
0
280
0
281
0
  0
CLASS
  1
LAYOUT
  2
AcDbLayout
  3
AutoCAD 2000
 90
0
280
0
281
0
  0
ENDSEC
  0
SECTION
  2
TABLES
  0
TABLE
  2
VPORT
  5
8
100
AcDbSymbolTable
 70
2
  0
VPORT
  5
1F4
100
AcDbSymbolTableRecord
100
AcDbViewportTableRecord
  2
*ACTIVE
 70
0
 10
0.0
 20
0.0
 11
1.0
 21
1.0
 12
106.25
 22
68.75
 13
0.0
 23
0.0
 14
1.0
 24
1.0
 15
0.0
 25
0.0
 16
0.0
 26
0.0
 36
1.0
 17
0.0
 27
0.0
 37
0.0
 40
137.5
 41
1.5454545455
 42
50.0
 43
0.0
 44
0.0
 50
0.0
 51
0.0
 71
0
 72
100
 73
1
 74
1
 75
0
 76
0
 77
0
 78
0
  0
ENDTAB
  0
TABLE
  2
LTYPE
  5
5
100
AcDbSymbolTable
 70
6
  0
LTYPE
  5
14
100
AcDbSymbolTableRecord
100
AcDbLinetypeTableRecord
  2
BYBLOCK
 70
0
  3

 72
65
 73
0
 40
0.0
  0
LTYPE
  5
15
100
AcDbSymbolTableRecord
100
AcDbLinetypeTableRecord
  2
BYLAYER
 70
0
  3

 72
65
 73
0
 40
0.0
  0
LTYPE
  5
16
100
AcDbSymbolTableRecord
100
AcDbLinetypeTableRecord
  2
CONTINUOUS
 70
64
  3
Solid line
 72
65
 73
0
 40
0.0
  0
LTYPE
  5
1F5
100
AcDbSymbolTableRecord
100
AcDbLinetypeTableRecord
  2
CENTER
 70
64
  3
____ _ ____ _ ____ _ ____ _ ____ _ ____ _ ____
 72
65
 73
4
 40
0.6
 49
0.375
 74
0
 49
-0.075
 74
0
 49
0.075
 74
0
 49
-0.075
 74
0
  0
LTYPE
  5
1F6
100
AcDbSymbolTableRecord
100
AcDbLinetypeTableRecord
  2
HIDDEN
 70
64
  3
- - - - - - - - - - - - - - - - - - - -
 72
65
 73
2
 40
0.2
 49
0.1
 74
0
 49
-0.1
 74
0
  0
LTYPE
  5
1F7
100
AcDbSymbolTableRecord
100
AcDbLinetypeTableRecord
  2
PHANTOM
 70
64
  3
_____ _ _ _____ _ _ _____ _ _ _____
 72
65
 73
6
 40
0.8
 49
0.45
 74
0
 49
-0.05
 74
0
 49
0.1
 74
0
 49
-0.05
 74
0
 49
0.1
 74
0
 49
-0.05
 74
0
  0
LTYPE
  5
1F8
100
AcDbSymbolTableRecord
100
AcDbLinetypeTableRecord
  2
DOT
 70
64
  3
. . . . . . . . . . . . . . . . . . . .
 72
65
 73
2
 40
0.2
 49
0.1
 74
0
 49
-0.1
 74
0
  0
LTYPE
  5
1F9
100
AcDbSymbolTableRecord
100
AcDbLinetypeTableRecord
  2
DASHED
 70
64
  3
- - - - - - - - - - - - - - - - - - - -
 72
65
 73
2
 40
0.2
 49
0.1
 74
0
 49
-0.1
 74
0
  0
ENDTAB
  0
TABLE
  2
LAYER
  5
2
100
AcDbSymbolTable
 70
36
  0
LAYER
  5
10
100
AcDbSymbolTableRecord
100
AcDbLayerTableRecord
  2
0
 70
0
 62
7
  6
CONTINUOUS
370
-3
390
F
  0
LAYER
  5
1FA
100
AcDbSymbolTableRecord
100
AcDbLayerTableRecord
  2
DEFAULT_1
 70
0
 62
7
  6
CENTER
370
-3
390
F
  0
LAYER
  5
1FB
100
AcDbSymbolTableRecord
100
AcDbLayerTableRecord
  2
DEFAULT_2
 70
0
 62
8
  6
HIDDEN
370
-3
390
F
  0
LAYER
  5
1FC
100
AcDbSymbolTableRecord
100
AcDbLayerTableRecord
  2
DEFAULT_3
 70
0
 62
7
  6
PHANTOM
370
-3
390
F
  0
LAYER
  5
1FD
100
AcDbSymbolTableRecord
100
AcDbLayerTableRecord
  2
0_SNAPLINES
 70
0
 62
7
  6
CONTINUOUS
370
-3
390
F
  0
LAYER
  5
1FE
100
AcDbSymbolTableRecord
100
AcDbLayerTableRecord
  2
1_ALL_PLANES
 70
0
 62
7
  6
CONTINUOUS
370
-3
390
F
  0
LAYER
  5
1FF
100
AcDbSymbolTableRecord
100
AcDbLayerTableRecord
  2
1__DEF_PLANES
 70
0
 62
7
  6
CONTINUOUS
370
-3
390
F
  0
LAYER
  5
200
100
AcDbSymbolTableRecord
100
AcDbLayerTableRecord
  2
2_ALL_CSYS
 70
0
 62
7
  6
CONTINUOUS
370
-3
390
F
  0
LAYER
  5
201
100
AcDbSymbolTableRecord
100
AcDbLayerTableRecord
  2
2__DEF_CSYS
 70
0
 62
7
  6
CONTINUOUS
370
-3
390
F
  0
LAYER
  5
202
100
AcDbSymbolTableRecord
100
AcDbLayerTableRecord
  2
3_ALL_AXES
 70
0
 62
7
  6
CONTINUOUS
370
-3
390
F
  0
LAYER
  5
203
100
AcDbSymbolTableRecord
100
AcDbLayerTableRecord
  2
3_AXES_OTHER
 70
0
 62
7
  6
CONTINUOUS
370
-3
390
F
  0
LAYER
  5
204
100
AcDbSymbolTableRecord
100
AcDbLayerTableRecord
  2
3_HOLES
 70
0
 62
7
  6
CONTINUOUS
370
-3
390
F
  0
LAYER
  5
205
100
AcDbSymbolTableRecord
100
AcDbLayerTableRecord
  2
4_ALL_POINTS
 70
0
 62
7
  6
CONTINUOUS
370
-3
390
F
  0
LAYER
  5
206
100
AcDbSymbolTableRecord
100
AcDbLayerTableRecord
  2
5_ALL_CURVES
 70
0
 62
7
  6
CONTINUOUS
370
-3
390
F
  0
LAYER
  5
207
100
AcDbSymbolTableRecord
100
AcDbLayerTableRecord
  2
6_ALL_SURFS
 70
0
 62
7
  6
CONTINUOUS
370
-3
390
F
  0
LAYER
  5
208
100
AcDbSymbolTableRecord
100
AcDbLayerTableRecord
  2
6_COPYGEOM
 70
0
 62
7
  6
CONTINUOUS
370
-3
390
F
  0
LAYER
  5
209
100
AcDbSymbolTableRecord
100
AcDbLayerTableRecord
  2
7_ALL_ROUNDS
 70
0
 62
7
  6
CONTINUOUS
370
-3
390
F
  0
LAYER
  5
20A
100
AcDbSymbolTableRecord
100
AcDbLayerTableRecord
  2
7_MERGES
 70
0
 62
7
  6
CONTINUOUS
370
-3
390
F
  0
LAYER
  5
20B
100
AcDbSymbolTableRecord
100
AcDbLayerTableRecord
  2
8_GDT
 70
0
 62
7
  6
CONTINUOUS
370
-3
390
F
  0
LAYER
  5
20C
100
AcDbSymbolTableRecord
100
AcDbLayerTableRecord
  2
8_SET_DATUMS
 70
0
 62
7
  6
CONTINUOUS
370
-3
390
F
  0
LAYER
  5
20D
100
AcDbSymbolTableRecord
100
AcDbLayerTableRecord
  2
9_COSMETICS
 70
0
 62
7
  6
CONTINUOUS
370
-3
390
F
  0
LAYER
  5
20E
100
AcDbSymbolTableRecord
100
AcDbLayerTableRecord
  2
9_THREADS
 70
0
 62
7
  6
CONTINUOUS
370
-3
390
F
  0
ENDTAB
  0
TABLE
  2
STYLE
  5
3
100
AcDbSymbolTable
 70
1
  0
STYLE
  5
11
100
AcDbSymbolTableRecord
100
AcDbTextStyleTableRecord
  2
STANDARD
 70
0
 40
0.0
 41
0.8
 50
0.0
 71
0
 42
0.2
  3
txt
  4

  0
STYLE
  5
20F
100
AcDbSymbolTableRecord
100
AcDbTextStyleTableRecord
  2
TEXTSTYLE_1
 70
0
 40
0.0
 41
0.8
 50
0.0
 71
0
 42
0.2
  3
gdt
  4

  0
ENDTAB
  0
TABLE
  2
VIEW
  5
6
100
AcDbSymbolTable
 70
0
  0
ENDTAB
  0
TABLE
  2
UCS
  5
7
100
AcDbSymbolTable
 70
0
  0
ENDTAB
  0
TABLE
  2
APPID
  5
9
100
AcDbSymbolTable
 70
1
  0
APPID
  5
210
100
AcDbSymbolTableRecord
100
AcDbRegAppTableRecord
  2
ACAD
 70
0
  0
ENDTAB
  0
TABLE
  2
BLOCK_RECORD
  5
1
100
AcDbSymbolTable
 70
0
  0
BLOCK_RECORD
  5
211
100
AcDbSymbolTableRecord
100
AcDbBlockTableRecord
  2
*Model_Space
  0
BLOCK_RECORD
  5
212
100
AcDbSymbolTableRecord
100
AcDbBlockTableRecord
  2
*Paper_Space
  0
BLOCK_RECORD
  5
213
100
AcDbSymbolTableRecord
100
AcDbBlockTableRecord
  2
_FILLED
  0
BLOCK_RECORD
  5
214
100
AcDbSymbolTableRecord
100
AcDbBlockTableRecord
  2
*D0
  0
BLOCK_RECORD
  5
215
100
AcDbSymbolTableRecord
100
AcDbBlockTableRecord
  2
*D1
  0
BLOCK_RECORD
  5
216
100
AcDbSymbolTableRecord
100
AcDbBlockTableRecord
  2
*D2
  0
BLOCK_RECORD
  5
217
100
AcDbSymbolTableRecord
100
AcDbBlockTableRecord
  2
*D3
  0
BLOCK_RECORD
  5
218
100
AcDbSymbolTableRecord
100
AcDbBlockTableRecord
  2
*D4
  0
BLOCK_RECORD
  5
219
100
AcDbSymbolTableRecord
100
AcDbBlockTableRecord
  2
*D5
  0
BLOCK_RECORD
  5
21A
100
AcDbSymbolTableRecord
100
AcDbBlockTableRecord
  2
*D6
  0
BLOCK_RECORD
  5
21B
100
AcDbSymbolTableRecord
100
AcDbBlockTableRecord
  2
*D7
  0
BLOCK_RECORD
  5
21C
100
AcDbSymbolTableRecord
100
AcDbBlockTableRecord
  2
*D8
  0
BLOCK_RECORD
  5
21D
100
AcDbSymbolTableRecord
100
AcDbBlockTableRecord
  2
*D9
  0
BLOCK_RECORD
  5
21E
100
AcDbSymbolTableRecord
100
AcDbBlockTableRecord
  2
*D10
  0
BLOCK_RECORD
  5
21F
100
AcDbSymbolTableRecord
100
AcDbBlockTableRecord
  2
*D11
  0
BLOCK_RECORD
  5
220
100
AcDbSymbolTableRecord
100
AcDbBlockTableRecord
  2
*D12
  0
BLOCK_RECORD
  5
221
100
AcDbSymbolTableRecord
100
AcDbBlockTableRecord
  2
*D13
  0
BLOCK_RECORD
  5
222
100
AcDbSymbolTableRecord
100
AcDbBlockTableRecord
  2
*D14
  0
BLOCK_RECORD
  5
223
100
AcDbSymbolTableRecord
100
AcDbBlockTableRecord
  2
*D15
  0
BLOCK_RECORD
  5
224
100
AcDbSymbolTableRecord
100
AcDbBlockTableRecord
  2
*D16
  0
BLOCK_RECORD
  5
225
100
AcDbSymbolTableRecord
100
AcDbBlockTableRecord
  2
*D17
  0
BLOCK_RECORD
  5
226
100
AcDbSymbolTableRecord
100
AcDbBlockTableRecord
  2
*D18
  0
BLOCK_RECORD
  5
227
100
AcDbSymbolTableRecord
100
AcDbBlockTableRecord
  2
*D19
  0
BLOCK_RECORD
  5
228
100
AcDbSymbolTableRecord
100
AcDbBlockTableRecord
  2
SYMBOL_9_BL4
  0
BLOCK_RECORD
  5
229
100
AcDbSymbolTableRecord
100
AcDbBlockTableRecord
  2
SYMBOL_7_BL3
  0
BLOCK_RECORD
  5
22A
100
AcDbSymbolTableRecord
100
AcDbBlockTableRecord
  2
SYMBOL_8_BL2
  0
BLOCK_RECORD
  5
22B
100
AcDbSymbolTableRecord
100
AcDbBlockTableRecord
  2
SYMBOL_6_BL1
  0
BLOCK_RECORD
  5
22C
100
AcDbSymbolTableRecord
100
AcDbBlockTableRecord
  2
SYMBOL_0_BL0
  0
ENDTAB
  0
TABLE
  2
DIMSTYLE
  5
A
100
AcDbSymbolTable
 70
1
100
AcDbDimStyleTable
 71
0
  0
DIMSTYLE
105
22D
100
AcDbSymbolTableRecord
100
AcDbDimStyleTableRecord
  2
STANDARD
 70
0
  3

  4

 40
1.0
 41
2.34375
 42
0.0625
 43
0.38
 44
0.18
 45
0.0
 46
0.0
 47
0.01
 48
0.01
140
1.953125
141
0.09
142
0.0
143
25.4
144
1.0
145
0.0
146
1.0
147
0.09
 71
1.0
 72
0.0
 73
1
 74
1
 75
0
 76
0
 77
0
 78
4
170
0
171
2
172
0
173
0
174
0
175
0
176
0
177
0
178
0
270
2
271
3
272
3
273
2
274
2
275
0
280
0
281
0
282
0
283
1
284
4
285
0
286
0
287
3
288
0
340
11
341
213
342
213
343
213
344
213
  0
DIMSTYLE
105
22E
100
AcDbSymbolTableRecord
100
AcDbDimStyleTableRecord
  2
DIMSTYLE_1
 70
0
  3

  4

 40
1.0
 41
2.34375
 42
0.0625
 43
0.38
 44
0.18
 45
0.0
 46
0.0
 47
0.01
 48
0.01
140
1.953125
141
0.09
142
0.0
143
25.4
144
1.0
145
0.0
146
1.0
147
0.09
 71
0.0
 72
0.0
 73
1
 74
1
 75
0
 76
0
 77
0
 78
4
170
0
171
2
172
0
173
0
174
0
175
0
176
0
177
0
178
0
270
2
271
0
272
0
273
2
274
2
275
0
280
0
281
0
282
0
283
1
284
4
285
0
286
0
287
3
288
0
340
11
341
213
342
213
343
213
344
213
  0
ENDTAB
  0
ENDSEC
  0
SECTION
  2
BLOCKS
  0
BLOCK
  5
20
100
AcDbEntity
  8
0
100
AcDbBlockBegin
  2
*Model_Space
 70
0
 10
0.0
 20
0.0
 30
0.0
  3
*Model_Space
  1

  0
ENDBLK
  5
21
100
AcDbEntity
  8
0
100
AcDbBlockEnd
  0
BLOCK
  5
1C
100
AcDbEntity
  8
0
100
AcDbBlockBegin
  2
*Paper_Space
 70
0
 10
0.0
 20
0.0
 30
0.0
  3
*Paper_Space
  1

  0
ENDBLK
  5
1D
100
AcDbEntity
  8
0
100
AcDbBlockEnd
  0
BLOCK
  5
22F
100
AcDbEntity
  8
0
100
AcDbBlockBegin
 62
2
  6
CONTINUOUS
  2
SYMBOL_9_BL4
 70
64
 10
140.3858090466
 20
82.8192091174
  3
SYMBOL_9_BL4
  1

  0
ARC
  5
230
100
AcDbEntity
  8
0
100
AcDbCircle
 62
7
  6
CONTINUOUS
 10
140.3858090466
 20
82.8192091174
 40
1.175
100
AcDbArc
 50
90.0
 51
180.0
  0
ARC
  5
231
100
AcDbEntity
  8
0
100
AcDbCircle
 62
7
  6
CONTINUOUS
 10
140.3858090466
 20
82.8192091174
 40
1.175
100
AcDbArc
 50
180.0
 51
270.0
  0
ARC
  5
232
100
AcDbEntity
  8
0
100
AcDbCircle
 62
7
  6
CONTINUOUS
 10
140.3858090466
 20
82.8192091174
 40
1.175
100
AcDbArc
 50
270.0
 51
360.0
  0
ARC
  5
233
100
AcDbEntity
  8
0
100
AcDbCircle
 62
7
  6
CONTINUOUS
 10
140.3858090466
 20
82.8192091174
 40
1.175
100
AcDbArc
 50
0.0
 51
90.0
  0
LINE
  5
234
100
AcDbEntity
  8
0
100
AcDbLine
 62
7
  6
CONTINUOUS
 10
140.3858090466
 20
82.8192091174
 11
141.5608090466
 21
82.8192091174
  0
LINE
  5
235
100
AcDbEntity
  8
0
100
AcDbLine
 62
7
  6
CONTINUOUS
 10
140.3858090466
 20
82.8192091174
 11
140.3858090466
 21
81.6442091174
  0
LINE
  5
236
100
AcDbEntity
  8
0
100
AcDbLine
 62
7
  6
CONTINUOUS
 10
139.2108090466
 20
82.8192091174
 11
140.3858090466
 21
82.8192091174
  0
LINE
  5
237
100
AcDbEntity
  8
0
100
AcDbLine
 62
7
  6
CONTINUOUS
 10
140.3858090466
 20
83.9942091174
 11
140.3858090466
 21
82.8192091174
  0
LINE
  5
238
100
AcDbEntity
  8
0
100
AcDbLine
 62
2
  6
CONTINUOUS
 10
140.3858090466
 20
82.8114650926
 11
140.3935530714
 21
82.8192091174
  0
LWPOLYLINE
  5
239
100
AcDbEntity
  8
0
100
AcDbPolyline
 62
7
  6
CONTINUOUS
 90
8
 70
0
 10
140.3858090466
 20
82.8192091174
 10
140.3858090466
 20
81.6442091174
 10
140.748904015
 20
81.7017177107
 10
141.0764567181
 20
81.868614149
 10
141.336404015
 20
82.1285614459
 10
141.5033004533
 20
82.456114149
 10
141.5608090466
 20
82.8192091174
 10
140.3858090466
 20
82.8192091174
  0
HATCH
  5
23A
100
AcDbEntity
  8
0
100
AcDbHatch
 62
7
  6
CONTINUOUS
 10
0.0
 20
0.0
 30
0.0
210
0.0
220
0.0
230
1.0
  2
SOLID
 70
1
 71
1
 91
1
 92
1
 93
7
 72
1
 10
140.3858090466
 20
82.8192091174
 11
140.3858090466
 21
81.6442091174
 72
1
 10
140.3858090466
 20
81.6442091174
 11
140.748904015
 21
81.7017177107
 72
1
 10
140.748904015
 20
81.7017177107
 11
141.0764567181
 21
81.868614149
 72
1
 10
141.0764567181
 20
81.868614149
 11
141.336404015
 21
82.1285614459
 72
1
 10
141.336404015
 20
82.1285614459
 11
141.5033004533
 21
82.456114149
 72
1
 10
141.5033004533
 20
82.456114149
 11
141.5608090466
 21
82.8192091174
 72
1
 10
141.5608090466
 20
82.8192091174
 11
140.3858090466
 21
82.8192091174
 97
1
330
239
 75
0
 76
1
 98
1
 10
0.0
 20
0.0
  0
LWPOLYLINE
  5
23B
100
AcDbEntity
  8
0
100
AcDbPolyline
 62
7
  6
CONTINUOUS
 90
8
 70
0
 10
140.3858090466
 20
82.8192091174
 10
139.2108090466
 20
82.8192091174
 10
139.26831764
 20
83.1823040858
 10
139.4352140782
 20
83.5098567888
 10
139.6951613752
 20
83.7698040858
 10
140.0227140782
 20
83.936700524
 10
140.3858090466
 20
83.9942091174
 10
140.3858090466
 20
82.8192091174
  0
HATCH
  5
23C
100
AcDbEntity
  8
0
100
AcDbHatch
 62
7
  6
CONTINUOUS
 10
0.0
 20
0.0
 30
0.0
210
0.0
220
0.0
230
1.0
  2
SOLID
 70
1
 71
1
 91
1
 92
1
 93
7
 72
1
 10
140.3858090466
 20
82.8192091174
 11
139.2108090466
 21
82.8192091174
 72
1
 10
139.2108090466
 20
82.8192091174
 11
139.26831764
 21
83.1823040858
 72
1
 10
139.26831764
 20
83.1823040858
 11
139.4352140782
 21
83.5098567888
 72
1
 10
139.4352140782
 20
83.5098567888
 11
139.6951613752
 21
83.7698040858
 72
1
 10
139.6951613752
 20
83.7698040858
 11
140.0227140782
 21
83.936700524
 72
1
 10
140.0227140782
 20
83.936700524
 11
140.3858090466
 21
83.9942091174
 72
1
 10
140.3858090466
 20
83.9942091174
 11
140.3858090466
 21
82.8192091174
 97
1
330
23B
 75
0
 76
1
 98
1
 10
0.0
 20
0.0
  0
ENDBLK
  5
23D
100
AcDbEntity
  8
0
  6
BYBLOCK
 62
0
100
AcDbBlockEnd
  0
BLOCK
  5
23E
100
AcDbEntity
  8
0
100
AcDbBlockBegin
 62
2
  6
CONTINUOUS
  2
SYMBOL_7_BL3
 70
64
 10
84.2988506858
 20
82.8328966464
  3
SYMBOL_7_BL3
  1

  0
ARC
  5
23F
100
AcDbEntity
  8
0
100
AcDbCircle
 62
7
  6
CONTINUOUS
 10
84.2988506858
 20
82.8328966464
 40
1.175
100
AcDbArc
 50
90.0
 51
180.0
  0
ARC
  5
240
100
AcDbEntity
  8
0
100
AcDbCircle
 62
7
  6
CONTINUOUS
 10
84.2988506858
 20
82.8328966464
 40
1.175
100
AcDbArc
 50
180.0
 51
270.0
  0
ARC
  5
241
100
AcDbEntity
  8
0
100
AcDbCircle
 62
7
  6
CONTINUOUS
 10
84.2988506858
 20
82.8328966464
 40
1.175
100
AcDbArc
 50
270.0
 51
360.0
  0
ARC
  5
242
100
AcDbEntity
  8
0
100
AcDbCircle
 62
7
  6
CONTINUOUS
 10
84.2988506858
 20
82.8328966464
 40
1.175
100
AcDbArc
 50
0.0
 51
90.0
  0
LINE
  5
243
100
AcDbEntity
  8
0
100
AcDbLine
 62
7
  6
CONTINUOUS
 10
84.2988506858
 20
82.8328966464
 11
85.4738506858
 21
82.8328966464
  0
LINE
  5
244
100
AcDbEntity
  8
0
100
AcDbLine
 62
7
  6
CONTINUOUS
 10
84.2988506858
 20
82.8328966464
 11
84.2988506858
 21
81.6578966464
  0
LINE
  5
245
100
AcDbEntity
  8
0
100
AcDbLine
 62
7
  6
CONTINUOUS
 10
83.1238506858
 20
82.8328966464
 11
84.2988506858
 21
82.8328966464
  0
LINE
  5
246
100
AcDbEntity
  8
0
100
AcDbLine
 62
7
  6
CONTINUOUS
 10
84.2988506858
 20
84.0078966464
 11
84.2988506858
 21
82.8328966464
  0
LINE
  5
247
100
AcDbEntity
  8
0
100
AcDbLine
 62
2
  6
CONTINUOUS
 10
84.2988506858
 20
82.8251526217
 11
84.3065947106
 21
82.8328966464
  0
LWPOLYLINE
  5
248
100
AcDbEntity
  8
0
100
AcDbPolyline
 62
7
  6
CONTINUOUS
 90
8
 70
0
 10
84.2988506858
 20
82.8328966464
 10
84.2988506858
 20
81.6578966464
 10
84.6619456542
 20
81.7154052398
 10
84.9894983573
 20
81.882301678
 10
85.2494456542
 20
82.142248975
 10
85.4163420925
 20
82.469801678
 10
85.4738506858
 20
82.8328966464
 10
84.2988506858
 20
82.8328966464
  0
HATCH
  5
249
100
AcDbEntity
  8
0
100
AcDbHatch
 62
7
  6
CONTINUOUS
 10
0.0
 20
0.0
 30
0.0
210
0.0
220
0.0
230
1.0
  2
SOLID
 70
1
 71
1
 91
1
 92
1
 93
7
 72
1
 10
84.2988506858
 20
82.8328966464
 11
84.2988506858
 21
81.6578966464
 72
1
 10
84.2988506858
 20
81.6578966464
 11
84.6619456542
 21
81.7154052398
 72
1
 10
84.6619456542
 20
81.7154052398
 11
84.9894983573
 21
81.882301678
 72
1
 10
84.9894983573
 20
81.882301678
 11
85.2494456542
 21
82.142248975
 72
1
 10
85.2494456542
 20
82.142248975
 11
85.4163420925
 21
82.469801678
 72
1
 10
85.4163420925
 20
82.469801678
 11
85.4738506858
 21
82.8328966464
 72
1
 10
85.4738506858
 20
82.8328966464
 11
84.2988506858
 21
82.8328966464
 97
1
330
248
 75
0
 76
1
 98
1
 10
0.0
 20
0.0
  0
LWPOLYLINE
  5
24A
100
AcDbEntity
  8
0
100
AcDbPolyline
 62
7
  6
CONTINUOUS
 90
8
 70
0
 10
84.2988506858
 20
82.8328966464
 10
83.1238506858
 20
82.8328966464
 10
83.1813592792
 20
83.1959916148
 10
83.3482557174
 20
83.5235443179
 10
83.6082030144
 20
83.7834916148
 10
83.9357557174
 20
83.9503880531
 10
84.2988506858
 20
84.0078966464
 10
84.2988506858
 20
82.8328966464
  0
HATCH
  5
24B
100
AcDbEntity
  8
0
100
AcDbHatch
 62
7
  6
CONTINUOUS
 10
0.0
 20
0.0
 30
0.0
210
0.0
220
0.0
230
1.0
  2
SOLID
 70
1
 71
1
 91
1
 92
1
 93
7
 72
1
 10
84.2988506858
 20
82.8328966464
 11
83.1238506858
 21
82.8328966464
 72
1
 10
83.1238506858
 20
82.8328966464
 11
83.1813592792
 21
83.1959916148
 72
1
 10
83.1813592792
 20
83.1959916148
 11
83.3482557174
 21
83.5235443179
 72
1
 10
83.3482557174
 20
83.5235443179
 11
83.6082030144
 21
83.7834916148
 72
1
 10
83.6082030144
 20
83.7834916148
 11
83.9357557174
 21
83.9503880531
 72
1
 10
83.9357557174
 20
83.9503880531
 11
84.2988506858
 21
84.0078966464
 72
1
 10
84.2988506858
 20
84.0078966464
 11
84.2988506858
 21
82.8328966464
 97
1
330
24A
 75
0
 76
1
 98
1
 10
0.0
 20
0.0
  0
ENDBLK
  5
24C
100
AcDbEntity
  8
0
  6
BYBLOCK
 62
0
100
AcDbBlockEnd
  0
BLOCK
  5
24D
100
AcDbEntity
  8
0
100
AcDbBlockBegin
 62
2
  6
CONTINUOUS
  2
SYMBOL_8_BL2
 70
64
 10
42.15704078
 20
82.8241518241
  3
SYMBOL_8_BL2
  1

  0
ARC
  5
24E
100
AcDbEntity
  8
0
100
AcDbCircle
 62
7
  6
CONTINUOUS
 10
42.15704078
 20
82.8241518241
 40
1.175
100
AcDbArc
 50
90.0
 51
180.0
  0
ARC
  5
24F
100
AcDbEntity
  8
0
100
AcDbCircle
 62
7
  6
CONTINUOUS
 10
42.15704078
 20
82.8241518241
 40
1.175
100
AcDbArc
 50
180.0
 51
270.0
  0
ARC
  5
250
100
AcDbEntity
  8
0
100
AcDbCircle
 62
7
  6
CONTINUOUS
 10
42.15704078
 20
82.8241518241
 40
1.175
100
AcDbArc
 50
270.0
 51
360.0
  0
ARC
  5
251
100
AcDbEntity
  8
0
100
AcDbCircle
 62
7
  6
CONTINUOUS
 10
42.15704078
 20
82.8241518241
 40
1.175
100
AcDbArc
 50
0.0
 51
90.0
  0
LINE
  5
252
100
AcDbEntity
  8
0
100
AcDbLine
 62
7
  6
CONTINUOUS
 10
42.15704078
 20
82.8241518241
 11
43.33204078
 21
82.8241518241
  0
LINE
  5
253
100
AcDbEntity
  8
0
100
AcDbLine
 62
7
  6
CONTINUOUS
 10
42.15704078
 20
82.8241518241
 11
42.15704078
 21
81.6491518241
  0
LINE
  5
254
100
AcDbEntity
  8
0
100
AcDbLine
 62
7
  6
CONTINUOUS
 10
40.98204078
 20
82.8241518241
 11
42.15704078
 21
82.8241518241
  0
LINE
  5
255
100
AcDbEntity
  8
0
100
AcDbLine
 62
7
  6
CONTINUOUS
 10
42.15704078
 20
83.9991518241
 11
42.15704078
 21
82.8241518241
  0
LINE
  5
256
100
AcDbEntity
  8
0
100
AcDbLine
 62
2
  6
CONTINUOUS
 10
42.15704078
 20
82.8164077993
 11
42.1647848047
 21
82.8241518241
  0
LWPOLYLINE
  5
257
100
AcDbEntity
  8
0
100
AcDbPolyline
 62
7
  6
CONTINUOUS
 90
8
 70
0
 10
42.15704078
 20
82.8241518241
 10
42.15704078
 20
81.6491518241
 10
42.5201357484
 20
81.7066604174
 10
42.8476884514
 20
81.8735568557
 10
43.1076357484
 20
82.1335041526
 10
43.2745321866
 20
82.4610568557
 10
43.33204078
 20
82.8241518241
 10
42.15704078
 20
82.8241518241
  0
HATCH
  5
258
100
AcDbEntity
  8
0
100
AcDbHatch
 62
7
  6
CONTINUOUS
 10
0.0
 20
0.0
 30
0.0
210
0.0
220
0.0
230
1.0
  2
SOLID
 70
1
 71
1
 91
1
 92
1
 93
7
 72
1
 10
42.15704078
 20
82.8241518241
 11
42.15704078
 21
81.6491518241
 72
1
 10
42.15704078
 20
81.6491518241
 11
42.5201357484
 21
81.7066604174
 72
1
 10
42.5201357484
 20
81.7066604174
 11
42.8476884514
 21
81.8735568557
 72
1
 10
42.8476884514
 20
81.8735568557
 11
43.1076357484
 21
82.1335041526
 72
1
 10
43.1076357484
 20
82.1335041526
 11
43.2745321866
 21
82.4610568557
 72
1
 10
43.2745321866
 20
82.4610568557
 11
43.33204078
 21
82.8241518241
 72
1
 10
43.33204078
 20
82.8241518241
 11
42.15704078
 21
82.8241518241
 97
1
330
257
 75
0
 76
1
 98
1
 10
0.0
 20
0.0
  0
LWPOLYLINE
  5
259
100
AcDbEntity
  8
0
100
AcDbPolyline
 62
7
  6
CONTINUOUS
 90
8
 70
0
 10
42.15704078
 20
82.8241518241
 10
40.98204078
 20
82.8241518241
 10
41.0395493733
 20
83.1872467925
 10
41.2064458116
 20
83.5147994955
 10
41.4663931085
 20
83.7747467925
 10
41.7939458116
 20
83.9416432307
 10
42.15704078
 20
83.9991518241
 10
42.15704078
 20
82.8241518241
  0
HATCH
  5
25A
100
AcDbEntity
  8
0
100
AcDbHatch
 62
7
  6
CONTINUOUS
 10
0.0
 20
0.0
 30
0.0
210
0.0
220
0.0
230
1.0
  2
SOLID
 70
1
 71
1
 91
1
 92
1
 93
7
 72
1
 10
42.15704078
 20
82.8241518241
 11
40.98204078
 21
82.8241518241
 72
1
 10
40.98204078
 20
82.8241518241
 11
41.0395493733
 21
83.1872467925
 72
1
 10
41.0395493733
 20
83.1872467925
 11
41.2064458116
 21
83.5147994955
 72
1
 10
41.2064458116
 20
83.5147994955
 11
41.4663931085
 21
83.7747467925
 72
1
 10
41.4663931085
 20
83.7747467925
 11
41.7939458116
 21
83.9416432307
 72
1
 10
41.7939458116
 20
83.9416432307
 11
42.15704078
 21
83.9991518241
 72
1
 10
42.15704078
 20
83.9991518241
 11
42.15704078
 21
82.8241518241
 97
1
330
259
 75
0
 76
1
 98
1
 10
0.0
 20
0.0
  0
ENDBLK
  5
25B
100
AcDbEntity
  8
0
  6
BYBLOCK
 62
0
100
AcDbBlockEnd
  0
BLOCK
  5
25C
100
AcDbEntity
  8
0
100
AcDbBlockBegin
 62
2
  6
CONTINUOUS
  2
SYMBOL_6_BL1
 70
64
 10
25.3276197121
 20
28.2699383809
  3
SYMBOL_6_BL1
  1

  0
ARC
  5
25D
100
AcDbEntity
  8
0
100
AcDbCircle
 62
7
  6
CONTINUOUS
 10
25.3276197121
 20
28.2699383809
 40
1.175
100
AcDbArc
 50
90.0
 51
180.0
  0
ARC
  5
25E
100
AcDbEntity
  8
0
100
AcDbCircle
 62
7
  6
CONTINUOUS
 10
25.3276197121
 20
28.2699383809
 40
1.175
100
AcDbArc
 50
180.0
 51
270.0
  0
ARC
  5
25F
100
AcDbEntity
  8
0
100
AcDbCircle
 62
7
  6
CONTINUOUS
 10
25.3276197121
 20
28.2699383809
 40
1.175
100
AcDbArc
 50
270.0
 51
360.0
  0
ARC
  5
260
100
AcDbEntity
  8
0
100
AcDbCircle
 62
7
  6
CONTINUOUS
 10
25.3276197121
 20
28.2699383809
 40
1.175
100
AcDbArc
 50
0.0
 51
90.0
  0
LINE
  5
261
100
AcDbEntity
  8
0
100
AcDbLine
 62
7
  6
CONTINUOUS
 10
25.3276197121
 20
28.2699383809
 11
26.5026197121
 21
28.2699383809
  0
LINE
  5
262
100
AcDbEntity
  8
0
100
AcDbLine
 62
7
  6
CONTINUOUS
 10
25.3276197121
 20
28.2699383809
 11
25.3276197121
 21
27.0949383809
  0
LINE
  5
263
100
AcDbEntity
  8
0
100
AcDbLine
 62
7
  6
CONTINUOUS
 10
24.1526197121
 20
28.2699383809
 11
25.3276197121
 21
28.2699383809
  0
LINE
  5
264
100
AcDbEntity
  8
0
100
AcDbLine
 62
7
  6
CONTINUOUS
 10
25.3276197121
 20
29.4449383809
 11
25.3276197121
 21
28.2699383809
  0
LINE
  5
265
100
AcDbEntity
  8
0
100
AcDbLine
 62
2
  6
CONTINUOUS
 10
25.3276197121
 20
28.2621943562
 11
25.3353637368
 21
28.2699383809
  0
LWPOLYLINE
  5
266
100
AcDbEntity
  8
0
100
AcDbPolyline
 62
7
  6
CONTINUOUS
 90
8
 70
0
 10
25.3276197121
 20
28.2699383809
 10
25.3276197121
 20
27.0949383809
 10
25.6907146805
 20
27.1524469743
 10
26.0182673835
 20
27.3193434125
 10
26.2782146805
 20
27.5792907095
 10
26.4451111187
 20
27.9068434125
 10
26.5026197121
 20
28.2699383809
 10
25.3276197121
 20
28.2699383809
  0
HATCH
  5
267
100
AcDbEntity
  8
0
100
AcDbHatch
 62
7
  6
CONTINUOUS
 10
0.0
 20
0.0
 30
0.0
210
0.0
220
0.0
230
1.0
  2
SOLID
 70
1
 71
1
 91
1
 92
1
 93
7
 72
1
 10
25.3276197121
 20
28.2699383809
 11
25.3276197121
 21
27.0949383809
 72
1
 10
25.3276197121
 20
27.0949383809
 11
25.6907146805
 21
27.1524469743
 72
1
 10
25.6907146805
 20
27.1524469743
 11
26.0182673835
 21
27.3193434125
 72
1
 10
26.0182673835
 20
27.3193434125
 11
26.2782146805
 21
27.5792907095
 72
1
 10
26.2782146805
 20
27.5792907095
 11
26.4451111187
 21
27.9068434125
 72
1
 10
26.4451111187
 20
27.9068434125
 11
26.5026197121
 21
28.2699383809
 72
1
 10
26.5026197121
 20
28.2699383809
 11
25.3276197121
 21
28.2699383809
 97
1
330
266
 75
0
 76
1
 98
1
 10
0.0
 20
0.0
  0
LWPOLYLINE
  5
268
100
AcDbEntity
  8
0
100
AcDbPolyline
 62
7
  6
CONTINUOUS
 90
8
 70
0
 10
25.3276197121
 20
28.2699383809
 10
24.1526197121
 20
28.2699383809
 10
24.2101283054
 20
28.6330333493
 10
24.3770247437
 20
28.9605860523
 10
24.6369720406
 20
29.2205333493
 10
24.9645247437
 20
29.3874297876
 10
25.3276197121
 20
29.4449383809
 10
25.3276197121
 20
28.2699383809
  0
HATCH
  5
269
100
AcDbEntity
  8
0
100
AcDbHatch
 62
7
  6
CONTINUOUS
 10
0.0
 20
0.0
 30
0.0
210
0.0
220
0.0
230
1.0
  2
SOLID
 70
1
 71
1
 91
1
 92
1
 93
7
 72
1
 10
25.3276197121
 20
28.2699383809
 11
24.1526197121
 21
28.2699383809
 72
1
 10
24.1526197121
 20
28.2699383809
 11
24.2101283054
 21
28.6330333493
 72
1
 10
24.2101283054
 20
28.6330333493
 11
24.3770247437
 21
28.9605860523
 72
1
 10
24.3770247437
 20
28.9605860523
 11
24.6369720406
 21
29.2205333493
 72
1
 10
24.6369720406
 20
29.2205333493
 11
24.9645247437
 21
29.3874297876
 72
1
 10
24.9645247437
 20
29.3874297876
 11
25.3276197121
 21
29.4449383809
 72
1
 10
25.3276197121
 20
29.4449383809
 11
25.3276197121
 21
28.2699383809
 97
1
330
268
 75
0
 76
1
 98
1
 10
0.0
 20
0.0
  0
ENDBLK
  5
26A
100
AcDbEntity
  8
0
  6
BYBLOCK
 62
0
100
AcDbBlockEnd
  0
BLOCK
  5
26B
100
AcDbEntity
  8
0
100
AcDbBlockBegin
 62
7
  6
CONTINUOUS
  2
SYMBOL_0_BL0
 70
64
 10
148.6102537351
 20
33.7638833147
  3
SYMBOL_0_BL0
  1

  0
ARC
  5
26C
100
AcDbEntity
  8
0
100
AcDbCircle
 62
7
  6
CONTINUOUS
 10
156.7622733556
 20
35.0185952839
 40
0.1546439159
100
AcDbArc
 50
270.0
 51
360.0
  0
LINE
  5
26D
100
AcDbEntity
  8
0
100
AcDbLine
 62
7
  6
CONTINUOUS
 10
156.9169172715
 20
35.0185952839
 11
156.9169172715
 21
35.3279893988
  0
ARC
  5
26E
100
AcDbEntity
  8
0
100
AcDbCircle
 62
7
  6
CONTINUOUS
 10
156.7622733556
 20
35.3279893988
 40
0.1546439159
100
AcDbArc
 50
0.0
 51
90.0
  0
LINE
  5
26F
100
AcDbEntity
  8
0
100
AcDbLine
 62
7
  6
CONTINUOUS
 10
156.7622733556
 20
35.4826333147
 11
152.6048567029
 21
35.4826333147
  0
SPLINE
  5
270
100
AcDbEntity
  8
0
100
AcDbSpline
 62
7
  6
CONTINUOUS
 70
0
 71
3
 72
13
 73
9
 74
0
 42
0.0000001
 43
0.0000001
 44
0.0000000001
 40
0.0
 40
0.0
 40
0.0
 40
0.0
 40
0.1310616762
 40
0.2699656353
 40
0.4157607805
 40
0.5899807757
 40
0.76586761
 40
0.9948829976
 40
0.9948829976
 40
0.9948829976
 40
0.9948829976
 10
152.6048567029
 20
35.4826333147
 30
0.0
 10
152.5174640214
 20
35.4761242499
 30
0.0
 10
152.3374493818
 20
35.4627166415
 30
0.0
 10
152.0934936963
 20
35.3115477933
 30
0.0
 10
151.9183626258
 20
35.0577625242
 30
0.0
 10
151.8044833553
 20
34.7474390041
 30
0.0
 10
151.7403395976
 20
34.3680946568
 30
0.0
 10
151.7344336917
 20
34.1000432795
 30
0.0
 10
151.7313727985
 20
33.9484117248
 30
0.0
  0
LINE
  5
271
100
AcDbEntity
  8
0
100
AcDbLine
 62
7
  6
CONTINUOUS
 10
151.7313727985
 20
33.9484117248
 11
151.7316442152
 21
33.9248813635
  0
SPLINE
  5
272
100
AcDbEntity
  8
0
100
AcDbSpline
 62
7
  6
CONTINUOUS
 70
0
 71
3
 72
13
 73
9
 74
0
 42
0.0000001
 43
0.0000001
 44
0.0000000001
 40
0.0
 40
0.0
 40
0.0
 40
0.0
 40
0.2222860645
 40
0.3981728988
 40
0.572392894
 40
0.7181880393
 40
0.8570919984
 40
0.9881536746
 40
0.9881536746
 40
0.9881536746
 40
0.9881536746
 10
151.7316442152
 20
33.9248813635
 30
0.0
 10
151.734644783
 20
33.7777072555
 30
0.0
 10
151.7410836204
 20
33.5141597561
 30
0.0
 10
151.804483303
 20
33.1392126967
 30
0.0
 10
151.9183639367
 20
32.8289238834
 30
0.0
 10
152.0934895447
 20
32.5750309084
 30
0.0
 10
152.3374638493
 20
32.4242234178
 30
0.0
 10
152.517434601
 20
32.4099649276
 30
0.0
 10
152.6048567029
 20
32.4034536741
 30
0.0
  0
LINE
  5
273
100
AcDbEntity
  8
0
100
AcDbLine
 62
7
  6
CONTINUOUS
 10
152.6048567029
 20
32.4034536741
 11
156.7626108814
 21
32.4125283956
  0
ARC
  5
274
100
AcDbEntity
  8
0
100
AcDbCircle
 62
7
  6
CONTINUOUS
 10
156.7622733556
 20
32.5671719427
 40
0.1546439154
100
AcDbArc
 50
270.125053868
 51
360.0
  0
LINE
  5
275
100
AcDbEntity
  8
0
100
AcDbLine
 62
7
  6
CONTINUOUS
 10
156.9169172715
 20
32.5671719427
 11
156.9169172715
 21
32.8644866834
  0
ARC
  5
276
100
AcDbEntity
  8
0
100
AcDbCircle
 62
7
  6
CONTINUOUS
 10
156.7622733556
 20
32.8644866834
 40
0.1546439159
100
AcDbArc
 50
0.0
 51
90.0
  0
LINE
  5
277
100
AcDbEntity
  8
0
100
AcDbLine
 62
7
  6
CONTINUOUS
 10
156.7622733556
 20
33.0191305992
 11
153.1987990656
 21
33.0191305992
  0
LINE
  5
278
100
AcDbEntity
  8
0
100
AcDbLine
 62
7
  6
CONTINUOUS
 10
153.0441551497
 20
33.1737745151
 11
153.0441551497
 21
34.7093074521
  0
ARC
  5
279
100
AcDbEntity
  8
0
100
AcDbCircle
 62
7
  6
CONTINUOUS
 10
153.198799067
 20
34.7093074521
 40
0.1546439159
100
AcDbArc
 50
90.0
 51
180.0
  0
LINE
  5
27A
100
AcDbEntity
  8
0
100
AcDbLine
 62
7
  6
CONTINUOUS
 10
153.1987990656
 20
34.863951368
 11
156.7622733556
 21
34.863951368
  0
LINE
  5
27B
100
AcDbEntity
  8
0
100
AcDbLine
 62
7
  6
CONTINUOUS
 10
146.8448079127
 20
33.6307887572
 11
149.8149570904
 21
33.6307887572
  0
ARC
  5
27C
100
AcDbEntity
  8
0
100
AcDbCircle
 62
7
  6
CONTINUOUS
 10
149.81495709
 20
33.4761448417
 40
0.1546439159
100
AcDbArc
 50
0.0
 51
90.0
  0
LINE
  5
27D
100
AcDbEntity
  8
0
100
AcDbLine
 62
7
  6
CONTINUOUS
 10
149.9696010062
 20
33.4761448414
 11
149.9696010062
 21
33.1603779387
  0
LINE
  5
27E
100
AcDbEntity
  8
0
100
AcDbLine
 62
7
  6
CONTINUOUS
 10
149.8149570904
 20
33.0057340228
 11
146.3527053419
 21
33.0057340228
  0
ARC
  5
27F
100
AcDbEntity
  8
0
100
AcDbCircle
 62
7
  6
CONTINUOUS
 10
146.3527053419
 20
32.8510901069
 40
0.1546439159
100
AcDbArc
 50
90.0
 51
180.0
  0
LINE
  5
280
100
AcDbEntity
  8
0
100
AcDbLine
 62
7
  6
CONTINUOUS
 10
146.198061426
 20
32.8510901069
 11
146.198061426
 21
32.5580960292
  0
ARC
  5
281
100
AcDbEntity
  8
0
100
AcDbCircle
 62
7
  6
CONTINUOUS
 10
146.3527053419
 20
32.5580960292
 40
0.1546439159
100
AcDbArc
 50
180.0
 51
270.0
  0
LINE
  5
282
100
AcDbEntity
  8
0
100
AcDbLine
 62
7
  6
CONTINUOUS
 10
146.3527053419
 20
32.4034521134
 11
150.6509143051
 21
32.4034521134
  0
SPLINE
  5
283
100
AcDbEntity
  8
0
100
AcDbSpline
 62
7
  6
CONTINUOUS
 70
0
 71
3
 72
13
 73
9
 74
0
 42
0.0000001
 43
0.0000001
 44
0.0000000001
 40
0.0
 40
0.0
 40
0.0
 40
0.0
 40
0.1604571392
 40
0.3334692485
 40
0.4767982758
 40
0.6242014838
 40
0.7505998515
 40
1.0
 40
1.0
 40
1.0
 40
1.0
 10
150.6509143051
 20
32.4034521134
 30
0.0
 10
150.7233826448
 20
32.4069413345
 30
0.0
 10
150.8739896074
 20
32.4141927876
 30
0.0
 10
151.0765133114
 20
32.5021192927
 30
0.0
 10
151.2291215947
 20
32.6499164086
 30
0.0
 10
151.3151223643
 20
32.8193600922
 30
0.0
 10
151.3810578716
 20
33.0466705299
 30
0.0
 10
151.3837335373
 20
33.2167788778
 30
0.0
 10
151.3855092515
 20
33.3296719436
 30
0.0
  0
SPLINE
  5
284
100
AcDbEntity
  8
0
100
AcDbSpline
 62
7
  6
CONTINUOUS
 70
0
 71
3
 72
13
 73
9
 74
0
 42
0.0000001
 43
0.0000001
 44
0.0000000001
 40
0.0
 40
0.0
 40
0.0
 40
0.0
 40
0.2494001485
 40
0.3757985162
 40
0.5232017242
 40
0.6665307515
 40
0.8395428608
 40
1.0
 40
1.0
 40
1.0
 40
1.0
 10
151.3855092515
 20
33.3296719436
 30
0.0
 10
151.3837335373
 20
33.4425650118
 30
0.0
 10
151.3810578716
 20
33.6126733574
 30
0.0
 10
151.3151223643
 20
33.8399837974
 30
0.0
 10
151.2291215947
 20
34.009427481
 30
0.0
 10
151.0765133114
 20
34.1572245946
 30
0.0
 10
150.8739896074
 20
34.2451510997
 30
0.0
 10
150.7233826448
 20
34.2524025551
 30
0.0
 10
150.6509143051
 20
34.2558917739
 30
0.0
  0
LINE
  5
285
100
AcDbEntity
  8
0
100
AcDbLine
 62
7
  6
CONTINUOUS
 10
150.6509143051
 20
34.2558917739
 11
147.7203552498
 21
34.2558917739
  0
LINE
  5
286
100
AcDbEntity
  8
0
100
AcDbLine
 62
7
  6
CONTINUOUS
 10
147.5657113339
 20
34.4105356898
 11
147.5657113339
 21
34.7031374929
  0
ARC
  5
287
100
AcDbEntity
  8
0
100
AcDbCircle
 62
7
  6
CONTINUOUS
 10
147.7203552485
 20
34.7031374929
 40
0.1546439159
100
AcDbArc
 50
90.0
 51
180.0
  0
LINE
  5
288
100
AcDbEntity
  8
0
100
AcDbLine
 62
7
  6
CONTINUOUS
 10
147.7203552498
 20
34.8577814088
 11
151.187306496
 21
34.8577814088
  0
ARC
  5
289
100
AcDbEntity
  8
0
100
AcDbCircle
 62
7
  6
CONTINUOUS
 10
151.187306496
 20
35.0124253247
 40
0.1546439159
100
AcDbArc
 50
270.0
 51
360.0
  0
LINE
  5
28A
100
AcDbEntity
  8
0
100
AcDbLine
 62
7
  6
CONTINUOUS
 10
151.3419504119
 20
35.0124253247
 11
151.3419504119
 21
35.3279893988
  0
ARC
  5
28B
100
AcDbEntity
  8
0
100
AcDbCircle
 62
7
  6
CONTINUOUS
 10
151.187306496
 20
35.3279893988
 40
0.1546439159
100
AcDbArc
 50
0.0
 51
90.0
  0
LINE
  5
28C
100
AcDbEntity
  8
0
100
AcDbLine
 62
7
  6
CONTINUOUS
 10
151.187306496
 20
35.4826333147
 11
146.8448079127
 21
35.4826333147
  0
SPLINE
  5
28D
100
AcDbEntity
  8
0
100
AcDbSpline
 62
7
  6
CONTINUOUS
 70
0
 71
3
 72
13
 73
9
 74
0
 42
0.0000001
 43
0.0000001
 44
0.0000000001
 40
0.0
 40
0.0
 40
0.0
 40
0.0
 40
0.1133740464
 40
0.2392044088
 40
0.3655787964
 40
0.4912154373
 40
0.7445390876
 40
1.0
 40
1.0
 40
1.0
 40
1.0
 10
146.8448079127
 20
35.4826333147
 30
0.0
 10
146.7952000858
 20
35.480189898
 30
0.0
 10
146.690534062
 20
35.4750346051
 30
0.0
 10
146.5350630368
 20
35.4285845071
 30
0.0
 10
146.3959790539
 20
35.3347872931
 30
0.0
 10
146.2539035249
 20
35.1620092464
 30
0.0
 10
146.1645005891
 20
34.8907707008
 30
0.0
 10
146.1548048272
 20
34.6683756652
 30
0.0
 10
146.1499365844
 20
34.556711036
 30
0.0
  0
SPLINE
  5
28E
100
AcDbEntity
  8
0
100
AcDbSpline
 62
7
  6
CONTINUOUS
 70
0
 71
3
 72
13
 73
9
 74
0
 42
0.0000001
 43
0.0000001
 44
0.0000000001
 40
0.0
 40
0.0
 40
0.0
 40
0.0
 40
0.2554609124
 40
0.5087845627
 40
0.6344212036
 40
0.7607955912
 40
0.8866259536
 40
1.0
 40
1.0
 40
1.0
 40
1.0
 10
146.1499365844
 20
34.556711036
 30
0.0
 10
146.1548048272
 20
34.4450464067
 30
0.0
 10
146.1645005891
 20
34.2226513687
 30
0.0
 10
146.2539035249
 20
33.9514128255
 30
0.0
 10
146.3959790539
 20
33.7786347788
 30
0.0
 10
146.5350630368
 20
33.6848375648
 30
0.0
 10
146.690534062
 20
33.6383874668
 30
0.0
 10
146.7952000858
 20
33.6332321739
 30
0.0
 10
146.8448079127
 20
33.6307887572
 30
0.0
  0
LINE
  5
28F
100
AcDbEntity
  8
0
100
AcDbLine
 62
7
  6
CONTINUOUS
 10
141.1308850725
 20
32.4034521134
 11
143.5337287833
 21
32.4034521134
  0
LINE
  5
290
100
AcDbEntity
  8
0
100
AcDbLine
 62
7
  6
CONTINUOUS
 10
143.5337287833
 20
32.4034521134
 11
143.5337287833
 21
32.1046117438
  0
ARC
  5
291
100
AcDbEntity
  8
0
100
AcDbCircle
 62
7
  6
CONTINUOUS
 10
143.5932072125
 20
32.1046117438
 40
0.0594784292
100
AcDbArc
 50
180.0
 51
270.0
  0
LINE
  5
292
100
AcDbEntity
  8
0
100
AcDbLine
 62
7
  6
CONTINUOUS
 10
143.5932072125
 20
32.0451333147
 11
144.5193468492
 21
32.0451333147
  0
ARC
  5
293
100
AcDbEntity
  8
0
100
AcDbCircle
 62
7
  6
CONTINUOUS
 10
144.5193468492
 20
32.1046117438
 40
0.0594784292
100
AcDbArc
 50
270.0
 51
360.0
  0
LINE
  5
294
100
AcDbEntity
  8
0
100
AcDbLine
 62
7
  6
CONTINUOUS
 10
144.5788252784
 20
32.1046117438
 11
144.5788252784
 21
32.4034521134
  0
LINE
  5
295
100
AcDbEntity
  8
0
100
AcDbLine
 62
7
  6
CONTINUOUS
 10
144.5788252784
 20
32.4034521134
 11
145.0513142828
 21
32.4034521134
  0
SPLINE
  5
296
100
AcDbEntity
  8
0
100
AcDbSpline
 62
7
  6
CONTINUOUS
 70
0
 71
3
 72
12
 73
8
 74
0
 42
0.0000001
 43
0.0000001
 44
0.0000000001
 40
0.0
 40
0.0
 40
0.0
 40
0.0
 40
0.2415790084
 40
0.4893269843
 40
0.7378634303
 40
0.8656387112
 40
1.0
 40
1.0
 40
1.0
 40
1.0
 10
145.0513142828
 20
32.4034521134
 30
0.0
 10
145.1360362162
 20
32.4060860228
 30
0.0
 10
145.3076435466
 20
32.4114211023
 30
0.0
 10
145.5587729682
 20
32.5009805329
 30
0.0
 10
145.7112888101
 20
32.6700450368
 30
0.0
 10
145.7784822268
 20
32.8389717505
 30
0.0
 10
145.7796931505
 20
32.9315094469
 30
0.0
 10
145.7803138246
 20
32.9789407677
 30
0.0
  0
LINE
  5
297
100
AcDbEntity
  8
0
100
AcDbLine
 62
7
  6
CONTINUOUS
 10
145.7803138246
 20
32.9789407677
 11
145.7803138246
 21
34.9035331492
  0
SPLINE
  5
298
100
AcDbEntity
  8
0
100
AcDbSpline
 62
7
  6
CONTINUOUS
 70
0
 71
3
 72
12
 73
8
 74
0
 42
0.0000001
 43
0.0000001
 44
0.0000000001
 40
0.0
 40
0.0
 40
0.0
 40
0.0
 40
0.1343612888
 40
0.2621365697
 40
0.5106730157
 40
0.7584209916
 40
1.0
 40
1.0
 40
1.0
 40
1.0
 10
145.7803138246
 20
34.9035331492
 30
0.0
 10
145.7796931505
 20
34.9509644723
 30
0.0
 10
145.7784822268
 20
35.0435021687
 30
0.0
 10
145.7112888101
 20
35.2124288825
 30
0.0
 10
145.5587729682
 20
35.3814933863
 30
0.0
 10
145.3076435466
 20
35.4710528145
 30
0.0
 10
145.1360362162
 20
35.476387894
 30
0.0
 10
145.0513142828
 20
35.4790218035
 30
0.0
  0
LINE
  5
299
100
AcDbEntity
  8
0
100
AcDbLine
 62
7
  6
CONTINUOUS
 10
145.0513142828
 20
35.4790218035
 11
141.1308850725
 21
35.4790218035
  0
SPLINE
  5
29A
100
AcDbEntity
  8
0
100
AcDbSpline
 62
7
  6
CONTINUOUS
 70
0
 71
3
 72
12
 73
8
 74
0
 42
0.0000001
 43
0.0000001
 44
0.0000000001
 40
0.0
 40
0.0
 40
0.0
 40
0.0
 40
0.1341799809
 40
0.290831959
 40
0.5815217441
 40
0.760783857
 40
1.0
 40
1.0
 40
1.0
 40
1.0
 10
141.1308850725
 20
35.4790218035
 30
0.0
 10
141.0453735511
 20
35.4644070731
 30
0.0
 10
140.8600293372
 20
35.4327299847
 30
0.0
 10
140.5480320989
 20
35.1996375728
 30
0.0
 10
140.4002543729
 20
34.807482997
 30
0.0
 10
140.3137909468
 20
34.3629396423
 30
0.0
 10
140.3073004084
 20
34.0940595591
 30
0.0
 10
140.3035901987
 20
33.9403587261
 30
0.0
  0
SPLINE
  5
29B
100
AcDbEntity
  8
0
100
AcDbSpline
 62
7
  6
CONTINUOUS
 70
0
 71
3
 72
12
 73
8
 74
0
 42
0.0000001
 43
0.0000001
 44
0.0000000001
 40
0.0
 40
0.0
 40
0.0
 40
0.0
 40
0.2392679579
 40
0.4185688994
 40
0.7093216488
 40
0.8660075581
 40
1.0
 40
1.0
 40
1.0
 40
1.0
 10
140.3035901987
 20
33.9403587261
 30
0.0
 10
140.3073018906
 20
33.7866638837
 30
0.0
 10
140.3137950198
 20
33.5177942807
 30
0.0
 10
140.4002397888
 20
33.0731754883
 30
0.0
 10
140.548107803
 20
32.681386003
 30
0.0
 10
140.8597802083
 20
32.4475366924
 30
0.0
 10
141.0453458651
 20
32.4173617127
 30
0.0
 10
141.1308850725
 20
32.4034521134
 30
0.0
  0
LINE
  5
29C
100
AcDbEntity
  8
0
100
AcDbLine
 62
7
  6
CONTINUOUS
 10
144.988389395
 20
33.1952807303
 11
144.988389395
 21
34.7373182093
  0
ARC
  5
29D
100
AcDbEntity
  8
0
100
AcDbCircle
 62
7
  6
CONTINUOUS
 10
141.7440151837
 20
33.1952807303
 40
0.1546439159
100
AcDbArc
 50
180.0
 51
270.0
  0
LINE
  5
29E
100
AcDbEntity
  8
0
100
AcDbLine
 62
7
  6
CONTINUOUS
 10
141.7440151837
 20
33.0406368144
 11
143.5202013472
 21
33.0406368144
  0
LINE
  5
29F
100
AcDbEntity
  8
0
100
AcDbLine
 62
7
  6
CONTINUOUS
 10
143.5202013472
 20
33.0406368144
 11
143.5202013472
 21
33.3385512452
  0
ARC
  5
2A0
100
AcDbEntity
  8
0
100
AcDbCircle
 62
7
  6
CONTINUOUS
 10
143.5796797775
 20
33.3385512452
 40
0.0594784292
100
AcDbArc
 50
90.0
 51
180.0
  0
LINE
  5
2A1
100
AcDbEntity
  8
0
100
AcDbLine
 62
7
  6
CONTINUOUS
 10
143.5796797764
 20
33.3980296744
 11
144.5010995975
 21
33.3980296744
  0
ARC
  5
2A2
100
AcDbEntity
  8
0
100
AcDbCircle
 62
7
  6
CONTINUOUS
 10
144.5010995953
 20
33.3385512474
 40
0.0594784292
100
AcDbArc
 50
0.0
 51
90.0
  0
LINE
  5
2A3
100
AcDbEntity
  8
0
100
AcDbLine
 62
7
  6
CONTINUOUS
 10
144.5605780267
 20
33.0406368144
 11
144.8337454792
 21
33.0406368144
  0
ARC
  5
2A4
100
AcDbEntity
  8
0
100
AcDbCircle
 62
7
  6
CONTINUOUS
 10
144.8337454792
 20
33.1952807303
 40
0.1546439159
100
AcDbArc
 50
270.0
 51
360.0
  0
LINE
  5
2A5
100
AcDbEntity
  8
0
100
AcDbLine
 62
7
  6
CONTINUOUS
 10
144.5605780267
 20
33.0406368144
 11
144.5605780267
 21
33.3385512452
  0
LINE
  5
2A6
100
AcDbEntity
  8
0
100
AcDbLine
 62
7
  6
CONTINUOUS
 10
141.5893712678
 20
33.1952807303
 11
141.5893712678
 21
34.7373182093
  0
ARC
  5
2A7
100
AcDbEntity
  8
0
100
AcDbCircle
 62
7
  6
CONTINUOUS
 10
141.7440151858
 20
34.7373182093
 40
0.1546439159
100
AcDbArc
 50
90.0
 51
180.0
  0
LINE
  5
2A8
100
AcDbEntity
  8
0
100
AcDbLine
 62
7
  6
CONTINUOUS
 10
141.7440151837
 20
34.8919621251
 11
144.8337454792
 21
34.8919621251
  0
ARC
  5
2A9
100
AcDbEntity
  8
0
100
AcDbCircle
 62
7
  6
CONTINUOUS
 10
144.8337454805
 20
34.7373182079
 40
0.1546439159
100
AcDbArc
 50
0.0000000277
 51
90.0000000277
  0
ARC
  5
2AA
100
AcDbEntity
  8
0
100
AcDbCircle
 62
7
  6
CONTINUOUS
 10
147.7203552498
 20
34.4105356898
 40
0.1546439159
100
AcDbArc
 50
180.0
 51
270.0
  0
ARC
  5
2AB
100
AcDbEntity
  8
0
100
AcDbCircle
 62
7
  6
CONTINUOUS
 10
149.8149570904
 20
33.1603779387
 40
0.1546439159
100
AcDbArc
 50
270.0
 51
360.0
  0
ARC
  5
2AC
100
AcDbEntity
  8
0
100
AcDbCircle
 62
7
  6
CONTINUOUS
 10
153.1987990656
 20
33.1737745151
 40
0.1546439159
100
AcDbArc
 50
180.0
 51
270.0
  0
ENDBLK
  5
2AD
100
AcDbEntity
  8
0
  6
BYBLOCK
 62
0
100
AcDbBlockEnd
  0
BLOCK
  5
2AE
100
AcDbEntity
  8
0
100
AcDbBlockBegin
  2
_FILLED
 70
64
 10
0.0
 20
0.0
  3
_FILLED
  1

  0
SOLID
  5
2AF
100
AcDbEntity
  8
0
  6
BYBLOCK
 62
0
100
AcDbTrace
 10
0.0
 20
0.0
 11
-1.0
 21
0.1666666667
 12
-1.0
 22
-0.1666666667
 13
-1.0
 23
-0.1666666667
  0
ENDBLK
  5
2B0
100
AcDbEntity
  8
0
  6
BYBLOCK
 62
0
100
AcDbBlockEnd
  0
BLOCK
  5
2B1
100
AcDbEntity
  8
0
100
AcDbBlockBegin
 62
2
  6
CONTINUOUS
  2
*D0
 70
65
 10
0.0
 20
0.0
  3
*D0
  1

  0
MTEXT
  5
2B2
100
AcDbEntity
  8
0
100
AcDbMText
 62
2
  6
CONTINUOUS
  7
STANDARD
 71
2
 72
1
 10
55.5756367151
 20
87.1621570849
 30
0.0
 11
1.0
 21
0.0
 31
0.0
 44
0.9
  1
596\P[23.5]
 40
1.953125
 41
7.1149553571
  0
LINE
  5
2B3
100
AcDbEntity
  8
0
100
AcDbLine
 62
2
  6
CONTINUOUS
 10
49.2610737419
 20
72.1758302043
 11
58.4634715366
 21
72.1758302043
  0
LINE
  5
2B4
100
AcDbEntity
  8
0
100
AcDbLine
 62
2
  6
CONTINUOUS
 10
49.2968436049
 20
95.6403971335
 11
58.4634715366
 21
95.6403971335
  0
LINE
  5
2B5
100
AcDbEntity
  8
0
100
AcDbLine
 62
2
  6
CONTINUOUS
 10
56.9009715366
 20
72.1758302043
 11
56.9009715366
 21
81.3027820849
  0
LINE
  5
2B6
100
AcDbEntity
  8
0
100
AcDbLine
 62
2
  6
CONTINUOUS
 10
56.9009715366
 20
95.6403971335
 11
56.9009715366
 21
88.1387195849
  0
INSERT
  5
2B7
100
AcDbEntity
  8
0
100
AcDbBlockReference
 62
2
  6
CONTINUOUS
  2
_FILLED
 10
56.9009715366
 20
72.1758302043
 41
2.34375
 42
2.34375
 43
2.34375
 50
270.0
  0
INSERT
  5
2B8
100
AcDbEntity
  8
0
100
AcDbBlockReference
 62
2
  6
CONTINUOUS
  2
_FILLED
 10
56.9009715366
 20
95.6403971335
 41
2.34375
 42
2.34375
 43
2.34375
 50
90.0
  0
ENDBLK
  5
2B9
100
AcDbEntity
  8
0
  6
BYBLOCK
 62
0
100
AcDbBlockEnd
  0
BLOCK
  5
2BA
100
AcDbEntity
  8
0
100
AcDbBlockBegin
 62
2
  6
CONTINUOUS
  2
*D1
 70
65
 10
0.0
 20
0.0
  3
*D1
  1

  0
MTEXT
  5
2BB
100
AcDbEntity
  8
0
100
AcDbMText
 62
2
  6
CONTINUOUS
  7
STANDARD
 71
2
 72
1
 10
41.9106662698
 20
103.7444526451
 30
0.0
 11
1.0
 21
0.0
 31
0.0
 44
0.9
  1
354\P[13.9]
 40
1.953125
 41
6.8359375
  0
LINE
  5
2BC
100
AcDbEntity
  8
0
100
AcDbLine
 62
2
  6
CONTINUOUS
 10
35.1976849882
 20
109.1939662531
 11
35.1976849882
 21
101.2053901451
  0
LINE
  5
2BD
100
AcDbEntity
  8
0
100
AcDbLine
 62
2
  6
CONTINUOUS
 10
49.1255795633
 20
108.9083038671
 11
49.1255795633
 21
101.2053901451
  0
LINE
  5
2BE
100
AcDbEntity
  8
0
100
AcDbLine
 62
2
  6
CONTINUOUS
 10
35.1976849882
 20
102.7678901451
 11
28.9476849882
 21
102.7678901451
  0
LINE
  5
2BF
100
AcDbEntity
  8
0
100
AcDbLine
 62
2
  6
CONTINUOUS
 10
49.1255795633
 20
102.7678901451
 11
55.3755795633
 21
102.7678901451
  0
INSERT
  5
2C0
100
AcDbEntity
  8
0
100
AcDbBlockReference
 62
2
  6
CONTINUOUS
  2
_FILLED
 10
35.1976849882
 20
102.7678901451
 41
2.34375
 42
2.34375
 43
2.34375
  0
INSERT
  5
2C1
100
AcDbEntity
  8
0
100
AcDbBlockReference
 62
2
  6
CONTINUOUS
  2
_FILLED
 10
49.1255795633
 20
102.7678901451
 41
2.34375
 42
2.34375
 43
2.34375
 50
180.0
  0
ENDBLK
  5
2C2
100
AcDbEntity
  8
0
  6
BYBLOCK
 62
0
100
AcDbBlockEnd
  0
BLOCK
  5
2C3
100
AcDbEntity
  8
0
100
AcDbBlockBegin
 62
2
  6
CONTINUOUS
  2
*D2
 70
65
 10
0.0
 20
0.0
  3
*D2
  1

  0
MTEXT
  5
2C4
100
AcDbEntity
  8
0
100
AcDbMText
 62
2
  6
CONTINUOUS
  7
STANDARD
 71
1
 72
1
 10
101.9145804476
 20
70.8130002958
 30
0.0
 11
1.0
 21
0.0
 31
0.0
 44
0.9
  1
105\P[4.1]
 40
1.953125
 41
5.4408482143
  0
LINE
  5
2C5
100
AcDbEntity
  8
0
100
AcDbLine
 62
2
  6
CONTINUOUS
 10
90.6592172892
 20
72.5363124878
 11
90.6592172892
 21
68.2739377958
  0
LINE
  5
2C6
100
AcDbEntity
  8
0
100
AcDbLine
 62
2
  6
CONTINUOUS
 10
94.7733905175
 20
79.4052101256
 11
94.7733905175
 21
68.2739377958
  0
LINE
  5
2C7
100
AcDbEntity
  8
0
100
AcDbLine
 62
2
  6
CONTINUOUS
 10
90.6592172892
 20
69.8364377958
 11
84.4092172892
 21
69.8364377958
  0
LINE
  5
2C8
100
AcDbEntity
  8
0
100
AcDbLine
 62
2
  6
CONTINUOUS
 10
94.7733905175
 20
69.8364377958
 11
100.9380179476
 21
69.8364377958
  0
INSERT
  5
2C9
100
AcDbEntity
  8
0
100
AcDbBlockReference
 62
2
  6
CONTINUOUS
  2
_FILLED
 10
90.6592172892
 20
69.8364377958
 41
2.34375
 42
2.34375
 43
2.34375
  0
INSERT
  5
2CA
100
AcDbEntity
  8
0
100
AcDbBlockReference
 62
2
  6
CONTINUOUS
  2
_FILLED
 10
94.7733905175
 20
69.8364377958
 41
2.34375
 42
2.34375
 43
2.34375
 50
180.0
  0
ENDBLK
  5
2CB
100
AcDbEntity
  8
0
  6
BYBLOCK
 62
0
100
AcDbBlockEnd
  0
BLOCK
  5
2CC
100
AcDbEntity
  8
0
100
AcDbBlockBegin
 62
2
  6
CONTINUOUS
  2
*D3
 70
65
 10
0.0
 20
0.0
  3
*D3
  1

  0
MTEXT
  5
2CD
100
AcDbEntity
  8
0
100
AcDbMText
 62
2
  6
CONTINUOUS
  7
STANDARD
 71
2
 72
1
 10
85.172210294
 20
57.9686921354
 30
0.0
 11
1.0
 21
0.0
 31
0.0
 44
0.9
  1
428\P[16.8]
 40
1.953125
 41
6.9754464286
  0
LINE
  5
2CE
100
AcDbEntity
  8
0
100
AcDbLine
 62
2
  6
CONTINUOUS
 10
94.7733905175
 20
79.4052101256
 11
94.7733905175
 21
55.4296296354
  0
LINE
  5
2CF
100
AcDbEntity
  8
0
100
AcDbLine
 62
2
  6
CONTINUOUS
 10
77.9426818561
 20
71.3945802043
 11
77.9426818561
 21
55.4296296354
  0
LINE
  5
2D0
100
AcDbEntity
  8
0
100
AcDbLine
 62
2
  6
CONTINUOUS
 10
94.7733905175
 20
56.9921296354
 11
90.8223219011
 21
56.9921296354
  0
LINE
  5
2D1
100
AcDbEntity
  8
0
100
AcDbLine
 62
2
  6
CONTINUOUS
 10
77.9426818561
 20
56.9921296354
 11
81.8937504725
 21
56.9921296354
  0
INSERT
  5
2D2
100
AcDbEntity
  8
0
100
AcDbBlockReference
 62
2
  6
CONTINUOUS
  2
_FILLED
 10
94.7733905175
 20
56.9921296354
 41
2.34375
 42
2.34375
 43
2.34375
  0
INSERT
  5
2D3
100
AcDbEntity
  8
0
100
AcDbBlockReference
 62
2
  6
CONTINUOUS
  2
_FILLED
 10
77.9426818561
 20
56.9921296354
 41
2.34375
 42
2.34375
 43
2.34375
 50
180.0
  0
ENDBLK
  5
2D4
100
AcDbEntity
  8
0
  6
BYBLOCK
 62
0
100
AcDbBlockEnd
  0
BLOCK
  5
2D5
100
AcDbEntity
  8
0
100
AcDbBlockBegin
 62
2
  6
CONTINUOUS
  2
*D4
 70
65
 10
0.0
 20
0.0
  3
*D4
  1

  0
MTEXT
  5
2D6
100
AcDbEntity
  8
0
100
AcDbMText
 62
2
  6
CONTINUOUS
  7
STANDARD
 71
1
 72
1
 10
102.4583080958
 20
63.0369435875
 30
0.0
 11
1.0
 21
0.0
 31
0.0
 44
0.9
  1
266\P[10.5]
 40
1.953125
 41
6.8359375
  0
LINE
  5
2D7
100
AcDbEntity
  8
0
100
AcDbLine
 62
2
  6
CONTINUOUS
 10
94.7733905175
 20
79.4052101256
 11
94.7733905175
 21
60.4978810875
  0
LINE
  5
2D8
100
AcDbEntity
  8
0
100
AcDbLine
 62
2
  6
CONTINUOUS
 10
84.2970125648
 20
82.1426117004
 11
84.2970125648
 21
60.4978810875
  0
LINE
  5
2D9
100
AcDbEntity
  8
0
100
AcDbLine
 62
2
  6
CONTINUOUS
 10
94.7733905175
 20
62.0603810875
 11
89.5352015411
 21
62.0603810875
  0
LINE
  5
2DA
100
AcDbEntity
  8
0
100
AcDbLine
 62
2
  6
CONTINUOUS
 10
89.5352015411
 20
62.0603810875
 11
101.4817455958
 21
62.0603810875
  0
LINE
  5
2DB
100
AcDbEntity
  8
0
100
AcDbLine
 62
2
  6
CONTINUOUS
 10
84.2970125648
 20
62.0603810875
 11
89.5352015411
 21
62.0603810875
  0
INSERT
  5
2DC
100
AcDbEntity
  8
0
100
AcDbBlockReference
 62
2
  6
CONTINUOUS
  2
_FILLED
 10
94.7733905175
 20
62.0603810875
 41
2.34375
 42
2.34375
 43
2.34375
  0
INSERT
  5
2DD
100
AcDbEntity
  8
0
100
AcDbBlockReference
 62
2
  6
CONTINUOUS
  2
_FILLED
 10
84.2970125648
 20
62.0603810875
 41
2.34375
 42
2.34375
 43
2.34375
 50
180.0
  0
ENDBLK
  5
2DE
100
AcDbEntity
  8
0
  6
BYBLOCK
 62
0
100
AcDbBlockEnd
  0
BLOCK
  5
2DF
100
AcDbEntity
  8
0
100
AcDbBlockBegin
 62
2
  6
CONTINUOUS
  2
*D5
 70
65
 10
0.0
 20
0.0
  3
*D5
  1

  0
MTEXT
  5
2E0
100
AcDbEntity
  8
0
100
AcDbMText
 62
2
  6
CONTINUOUS
  7
STANDARD
 71
2
 72
1
 10
71.2815755665
 20
80.4602117428
 30
0.0
 11
1.0
 21
0.0
 31
0.0
 44
0.9
  1
273\P[10.7]
 40
1.953125
 41
6.9754464286
  0
LINE
  5
2E1
100
AcDbEntity
  8
0
100
AcDbLine
 62
2
  6
CONTINUOUS
 10
77.1614318561
 20
72.1758302043
 11
70.9746559237
 21
72.1758302043
  0
LINE
  5
2E2
100
AcDbEntity
  8
0
100
AcDbLine
 62
2
  6
CONTINUOUS
 10
83.5157625648
 20
82.9238617004
 11
70.9746559237
 21
82.9238617004
  0
LINE
  5
2E3
100
AcDbEntity
  8
0
100
AcDbLine
 62
2
  6
CONTINUOUS
 10
72.5371559237
 20
72.1758302043
 11
72.5371559237
 21
65.9258302043
  0
LINE
  5
2E4
100
AcDbEntity
  8
0
100
AcDbLine
 62
2
  6
CONTINUOUS
 10
72.5371559237
 20
82.9238617004
 11
72.5371559237
 21
89.1738617004
  0
INSERT
  5
2E5
100
AcDbEntity
  8
0
100
AcDbBlockReference
 62
2
  6
CONTINUOUS
  2
_FILLED
 10
72.5371559237
 20
72.1758302043
 41
2.34375
 42
2.34375
 43
2.34375
 50
90.0
  0
INSERT
  5
2E6
100
AcDbEntity
  8
0
100
AcDbBlockReference
 62
2
  6
CONTINUOUS
  2
_FILLED
 10
72.5371559237
 20
82.9238617004
 41
2.34375
 42
2.34375
 43
2.34375
 50
270.0
  0
ENDBLK
  5
2E7
100
AcDbEntity
  8
0
  6
BYBLOCK
 62
0
100
AcDbBlockEnd
  0
BLOCK
  5
2E8
100
AcDbEntity
  8
0
100
AcDbBlockBegin
 62
2
  6
CONTINUOUS
  2
*D6
 70
65
 10
0.0
 20
0.0
  3
*D6
  1

  0
MTEXT
  5
2E9
100
AcDbEntity
  8
0
100
AcDbMText
 62
2
  6
CONTINUOUS
  7
STANDARD
 71
1
 72
1
 10
94.8099574323
 20
102.8272151258
 30
0.0
 11
1.0
 21
0.0
 31
0.0
 44
0.9
  1
162\P[6.4]
 40
1.953125
 41
5.859375
  0
LINE
  5
2EA
100
AcDbEntity
  8
0
100
AcDbLine
 62
2
  6
CONTINUOUS
 10
90.6592172892
 20
95.27991485
 11
90.6592172892
 21
103.4131526258
  0
LINE
  5
2EB
100
AcDbEntity
  8
0
100
AcDbLine
 62
2
  6
CONTINUOUS
 10
84.2970125648
 20
83.7051117004
 11
84.2970125648
 21
103.4131526258
  0
LINE
  5
2EC
100
AcDbEntity
  8
0
100
AcDbLine
 62
2
  6
CONTINUOUS
 10
90.6592172892
 20
101.8506526258
 11
87.478114927
 21
101.8506526258
  0
LINE
  5
2ED
100
AcDbEntity
  8
0
100
AcDbLine
 62
2
  6
CONTINUOUS
 10
87.478114927
 20
101.8506526258
 11
93.8333949323
 21
101.8506526258
  0
LINE
  5
2EE
100
AcDbEntity
  8
0
100
AcDbLine
 62
2
  6
CONTINUOUS
 10
84.2970125648
 20
101.8506526258
 11
87.478114927
 21
101.8506526258
  0
INSERT
  5
2EF
100
AcDbEntity
  8
0
100
AcDbBlockReference
 62
2
  6
CONTINUOUS
  2
_FILLED
 10
90.6592172892
 20
101.8506526258
 41
2.34375
 42
2.34375
 43
2.34375
  0
INSERT
  5
2F0
100
AcDbEntity
  8
0
100
AcDbBlockReference
 62
2
  6
CONTINUOUS
  2
_FILLED
 10
84.2970125648
 20
101.8506526258
 41
2.34375
 42
2.34375
 43
2.34375
 50
180.0
  0
ENDBLK
  5
2F1
100
AcDbEntity
  8
0
  6
BYBLOCK
 62
0
100
AcDbBlockEnd
  0
BLOCK
  5
2F2
100
AcDbEntity
  8
0
100
AcDbBlockBegin
 62
2
  6
CONTINUOUS
  2
*D7
 70
65
 10
0.0
 20
0.0
  3
*D7
  1

  0
MTEXT
  5
2F3
100
AcDbEntity
  8
0
100
AcDbMText
 62
2
  6
CONTINUOUS
  7
STANDARD
 71
3
 72
1
 10
30.9119110181
 20
66.3239853102
 30
0.0
 11
1.0
 21
0.0
 31
0.0
 44
0.9
  1
249\P[9.8]
 40
1.953125
 41
5.859375
  0
LINE
  5
2F4
100
AcDbEntity
  8
0
100
AcDbLine
 62
2
  6
CONTINUOUS
 10
37.2600574726
 20
58.6649386298
 11
37.2600574726
 21
66.9099228102
  0
LINE
  5
2F5
100
AcDbEntity
  8
0
100
AcDbLine
 62
2
  6
CONTINUOUS
 10
47.0632070789
 20
58.6649386298
 11
47.0632070789
 21
66.9099228102
  0
LINE
  5
2F6
100
AcDbEntity
  8
0
100
AcDbLine
 62
2
  6
CONTINUOUS
 10
37.2600574726
 20
65.3474228102
 11
42.1616322758
 21
65.3474228102
  0
LINE
  5
2F7
100
AcDbEntity
  8
0
100
AcDbLine
 62
2
  6
CONTINUOUS
 10
42.1616322758
 20
65.3474228102
 11
33.1440538753
 21
65.3474228102
  0
LINE
  5
2F8
100
AcDbEntity
  8
0
100
AcDbLine
 62
2
  6
CONTINUOUS
 10
47.0632070789
 20
65.3474228102
 11
42.1616322758
 21
65.3474228102
  0
INSERT
  5
2F9
100
AcDbEntity
  8
0
100
AcDbBlockReference
 62
2
  6
CONTINUOUS
  2
_FILLED
 10
37.2600574726
 20
65.3474228102
 41
2.34375
 42
2.34375
 43
2.34375
 50
180.0
  0
INSERT
  5
2FA
100
AcDbEntity
  8
0
100
AcDbBlockReference
 62
2
  6
CONTINUOUS
  2
_FILLED
 10
47.0632070789
 20
65.3474228102
 41
2.34375
 42
2.34375
 43
2.34375
  0
ENDBLK
  5
2FB
100
AcDbEntity
  8
0
  6
BYBLOCK
 62
0
100
AcDbBlockEnd
  0
BLOCK
  5
2FC
100
AcDbEntity
  8
0
100
AcDbBlockBegin
 62
2
  6
CONTINUOUS
  2
*D8
 70
65
 10
0.0
 20
0.0
  3
*D8
  1

  0
MTEXT
  5
2FD
100
AcDbEntity
  8
0
100
AcDbMText
 62
2
  6
CONTINUOUS
  7
STANDARD
 71
2
 72
1
 10
20.5266653667
 20
56.3683455218
 30
0.0
 11
1.0
 21
0.0
 31
0.0
 44
0.9
  1
220\P[8.7]
 40
1.953125
 41
5.859375
  0
LINE
  5
2FE
100
AcDbEntity
  8
0
100
AcDbLine
 62
2
  6
CONTINUOUS
 10
37.1561696773
 20
49.222271307
 11
19.5919555453
 21
49.222271307
  0
LINE
  5
2FF
100
AcDbEntity
  8
0
100
AcDbLine
 62
2
  6
CONTINUOUS
 10
36.4788074726
 20
57.8836886298
 11
19.5919555453
 21
57.8836886298
  0
LINE
  5
300
100
AcDbEntity
  8
0
100
AcDbLine
 62
2
  6
CONTINUOUS
 10
21.1544555453
 20
49.222271307
 11
21.1544555453
 21
42.972271307
  0
LINE
  5
301
100
AcDbEntity
  8
0
100
AcDbLine
 62
2
  6
CONTINUOUS
 10
21.1544555453
 20
57.8836886298
 11
21.1544555453
 21
64.1336886298
  0
INSERT
  5
302
100
AcDbEntity
  8
0
100
AcDbBlockReference
 62
2
  6
CONTINUOUS
  2
_FILLED
 10
21.1544555453
 20
49.222271307
 41
2.34375
 42
2.34375
 43
2.34375
 50
90.0
  0
INSERT
  5
303
100
AcDbEntity
  8
0
100
AcDbBlockReference
 62
2
  6
CONTINUOUS
  2
_FILLED
 10
21.1544555453
 20
57.8836886298
 41
2.34375
 42
2.34375
 43
2.34375
 50
270.0
  0
ENDBLK
  5
304
100
AcDbEntity
  8
0
  6
BYBLOCK
 62
0
100
AcDbBlockEnd
  0
BLOCK
  5
305
100
AcDbEntity
  8
0
100
AcDbBlockBegin
 62
2
  6
CONTINUOUS
  2
*D9
 70
65
 10
0.0
 20
0.0
  3
*D9
  1

  0
MTEXT
  5
306
100
AcDbEntity
  8
0
100
AcDbMText
 62
2
  6
CONTINUOUS
  7
STANDARD
 71
1
 72
1
 10
30.332629817
 20
46.3254085409
 30
0.0
 11
1.0
 21
0.0
 31
0.0
 44
0.9
  1
162\P[6.4]
 40
1.953125
 41
5.859375
  0
LINE
  5
307
100
AcDbEntity
  8
0
100
AcDbLine
 62
2
  6
CONTINUOUS
 10
37.1561696773
 20
49.222271307
 11
25.645129817
 21
49.222271307
  0
LINE
  5
308
100
AcDbEntity
  8
0
100
AcDbLine
 62
2
  6
CONTINUOUS
 10
41.3803822758
 20
55.5844760314
 11
25.645129817
 21
55.5844760314
  0
LINE
  5
309
100
AcDbEntity
  8
0
100
AcDbLine
 62
2
  6
CONTINUOUS
 10
27.207629817
 20
49.222271307
 11
27.207629817
 21
52.4033736692
  0
LINE
  5
30A
100
AcDbEntity
  8
0
100
AcDbLine
 62
2
  6
CONTINUOUS
 10
27.207629817
 20
52.4033736692
 11
27.207629817
 21
45.3488460409
  0
LINE
  5
30B
100
AcDbEntity
  8
0
100
AcDbLine
 62
2
  6
CONTINUOUS
 10
27.207629817
 20
45.3488460409
 11
29.356067317
 21
45.3488460409
  0
LINE
  5
30C
100
AcDbEntity
  8
0
100
AcDbLine
 62
2
  6
CONTINUOUS
 10
27.207629817
 20
55.5844760314
 11
27.207629817
 21
52.4033736692
  0
INSERT
  5
30D
100
AcDbEntity
  8
0
100
AcDbBlockReference
 62
2
  6
CONTINUOUS
  2
_FILLED
 10
27.207629817
 20
49.222271307
 41
2.34375
 42
2.34375
 43
2.34375
 50
270.0
  0
INSERT
  5
30E
100
AcDbEntity
  8
0
100
AcDbBlockReference
 62
2
  6
CONTINUOUS
  2
_FILLED
 10
27.207629817
 20
55.5844760314
 41
2.34375
 42
2.34375
 43
2.34375
 50
90.0
  0
ENDBLK
  5
30F
100
AcDbEntity
  8
0
  6
BYBLOCK
 62
0
100
AcDbBlockEnd
  0
BLOCK
  5
310
100
AcDbEntity
  8
0
100
AcDbBlockBegin
 62
2
  6
CONTINUOUS
  2
*D10
 70
65
 10
0.0
 20
0.0
  3
*D10
  1

  0
MTEXT
  5
311
100
AcDbEntity
  8
0
100
AcDbMText
 62
2
  6
CONTINUOUS
  7
STANDARD
 71
1
 72
1
 10
150.7655508274
 20
100.7412796906
 30
0.0
 11
1.0
 21
0.0
 31
0.0
 44
0.9
  1
90\P[3.5]
 40
1.953125
 41
5.5803571429
  0
LINE
  5
312
100
AcDbEntity
  8
0
100
AcDbLine
 62
2
  6
CONTINUOUS
 10
138.6122501626
 20
83.6055054012
 11
138.6122501626
 21
101.3272171906
  0
LINE
  5
313
100
AcDbEntity
  8
0
100
AcDbLine
 62
2
  6
CONTINUOUS
 10
142.1555572492
 20
83.6055054012
 11
142.1555572492
 21
101.3272171906
  0
LINE
  5
314
100
AcDbEntity
  8
0
100
AcDbLine
 62
2
  6
CONTINUOUS
 10
138.6122501626
 20
99.7647171906
 11
132.3622501626
 21
99.7647171906
  0
LINE
  5
315
100
AcDbEntity
  8
0
100
AcDbLine
 62
2
  6
CONTINUOUS
 10
142.1555572492
 20
99.7647171906
 11
149.7889883274
 21
99.7647171906
  0
INSERT
  5
316
100
AcDbEntity
  8
0
100
AcDbBlockReference
 62
2
  6
CONTINUOUS
  2
_FILLED
 10
138.6122501626
 20
99.7647171906
 41
2.34375
 42
2.34375
 43
2.34375
  0
INSERT
  5
317
100
AcDbEntity
  8
0
100
AcDbBlockReference
 62
2
  6
CONTINUOUS
  2
_FILLED
 10
142.1555572492
 20
99.7647171906
 41
2.34375
 42
2.34375
 43
2.34375
 50
180.0
  0
ENDBLK
  5
318
100
AcDbEntity
  8
0
  6
BYBLOCK
 62
0
100
AcDbBlockEnd
  0
BLOCK
  5
319
100
AcDbEntity
  8
0
100
AcDbBlockBegin
 62
2
  6
CONTINUOUS
  2
*D11
 70
65
 10
0.0
 20
0.0
  3
*D11
  1

  0
MTEXT
  5
31A
100
AcDbEntity
  8
0
100
AcDbMText
 62
2
  6
CONTINUOUS
  7
STANDARD
 71
3
 72
1
 10
127.2207788467
 20
78.1727697992
 30
0.0
 11
1.0
 21
0.0
 31
0.0
 44
0.9
  1
115\P[4.5]
 40
1.953125
 41
5.7198660714
  0
LINE
  5
31B
100
AcDbEntity
  8
0
100
AcDbLine
 62
2
  6
CONTINUOUS
 10
139.6026537059
 20
80.5604758736
 11
130.3473400009
 21
80.5604758736
  0
LINE
  5
31C
100
AcDbEntity
  8
0
100
AcDbLine
 62
2
  6
CONTINUOUS
 10
139.6026537059
 20
85.0880349287
 11
130.3473400009
 21
85.0880349287
  0
LINE
  5
31D
100
AcDbEntity
  8
0
100
AcDbLine
 62
2
  6
CONTINUOUS
 10
131.9098400009
 20
80.5604758736
 11
131.9098400009
 21
77.1962072992
  0
LINE
  5
31E
100
AcDbEntity
  8
0
100
AcDbLine
 62
2
  6
CONTINUOUS
 10
131.9098400009
 20
77.1962072992
 11
130.2899752752
 21
77.1962072992
  0
LINE
  5
31F
100
AcDbEntity
  8
0
100
AcDbLine
 62
2
  6
CONTINUOUS
 10
131.9098400009
 20
85.0880349287
 11
131.9098400009
 21
91.3380349287
  0
INSERT
  5
320
100
AcDbEntity
  8
0
100
AcDbBlockReference
 62
2
  6
CONTINUOUS
  2
_FILLED
 10
131.9098400009
 20
80.5604758736
 41
2.34375
 42
2.34375
 43
2.34375
 50
90.0
  0
INSERT
  5
321
100
AcDbEntity
  8
0
100
AcDbBlockReference
 62
2
  6
CONTINUOUS
  2
_FILLED
 10
131.9098400009
 20
85.0880349287
 41
2.34375
 42
2.34375
 43
2.34375
 50
270.0
  0
ENDBLK
  5
322
100
AcDbEntity
  8
0
  6
BYBLOCK
 62
0
100
AcDbBlockEnd
  0
BLOCK
  5
323
100
AcDbEntity
  8
0
100
AcDbBlockBegin
 62
2
  6
CONTINUOUS
  2
*D12
 70
65
 10
0.0
 20
0.0
  3
*D12
  1

  0
MTEXT
  5
324
100
AcDbEntity
  8
0
100
AcDbMText
 62
2
  6
CONTINUOUS
  7
STANDARD
 71
1
 72
1
 10
148.0302229725
 20
68.9910210629
 30
0.0
 11
1.0
 21
0.0
 31
0.0
 44
0.9
  1
110\P[4.3]
 40
1.953125
 41
5.7198660714
  0
LINE
  5
325
100
AcDbEntity
  8
0
100
AcDbLine
 62
2
  6
CONTINUOUS
 10
138.2185493752
 20
79.4052101256
 11
138.2185493752
 21
66.4519585629
  0
LINE
  5
326
100
AcDbEntity
  8
0
100
AcDbLine
 62
2
  6
CONTINUOUS
 10
142.5492580366
 20
79.4052101256
 11
142.5492580366
 21
66.4519585629
  0
LINE
  5
327
100
AcDbEntity
  8
0
100
AcDbLine
 62
2
  6
CONTINUOUS
 10
138.2185493752
 20
68.0144585629
 11
131.9685493752
 21
68.0144585629
  0
LINE
  5
328
100
AcDbEntity
  8
0
100
AcDbLine
 62
2
  6
CONTINUOUS
 10
142.5492580366
 20
68.0144585629
 11
147.0536604725
 21
68.0144585629
  0
INSERT
  5
329
100
AcDbEntity
  8
0
100
AcDbBlockReference
 62
2
  6
CONTINUOUS
  2
_FILLED
 10
138.2185493752
 20
68.0144585629
 41
2.34375
 42
2.34375
 43
2.34375
  0
INSERT
  5
32A
100
AcDbEntity
  8
0
100
AcDbBlockReference
 62
2
  6
CONTINUOUS
  2
_FILLED
 10
142.5492580366
 20
68.0144585629
 41
2.34375
 42
2.34375
 43
2.34375
 50
180.0
  0
ENDBLK
  5
32B
100
AcDbEntity
  8
0
  6
BYBLOCK
 62
0
100
AcDbBlockEnd
  0
BLOCK
  5
32C
100
AcDbEntity
  8
0
100
AcDbBlockBegin
 62
2
  6
CONTINUOUS
  2
*D13
 70
65
 10
0.0
 20
0.0
  3
*D13
  1

  0
MTEXT
  5
32D
100
AcDbEntity
  8
0
100
AcDbMText
 62
2
  6
CONTINUOUS
  7
STANDARD
 71
1
 72
1
 10
153.5891327752
 20
77.8099662649
 30
0.0
 11
1.0
 21
0.0
 31
0.0
 44
0.9
  1
134\P[5.3]
 40
1.953125
 41
5.5803571429
  0
LINE
  5
32E
100
AcDbEntity
  8
0
100
AcDbLine
 62
2
  6
CONTINUOUS
 10
143.3305080366
 20
80.1864601256
 11
152.0266327752
 21
80.1864601256
  0
LINE
  5
32F
100
AcDbEntity
  8
0
100
AcDbLine
 62
2
  6
CONTINUOUS
 10
143.3305080366
 20
85.4620506768
 11
152.0266327752
 21
85.4620506768
  0
LINE
  5
330
100
AcDbEntity
  8
0
100
AcDbLine
 62
2
  6
CONTINUOUS
 10
150.4641327752
 20
80.1864601256
 11
150.4641327752
 21
76.8334037649
  0
LINE
  5
331
100
AcDbEntity
  8
0
100
AcDbLine
 62
2
  6
CONTINUOUS
 10
150.4641327752
 20
76.8334037649
 11
152.6125702752
 21
76.8334037649
  0
LINE
  5
332
100
AcDbEntity
  8
0
100
AcDbLine
 62
2
  6
CONTINUOUS
 10
150.4641327752
 20
85.4620506768
 11
150.4641327752
 21
91.7120506768
  0
INSERT
  5
333
100
AcDbEntity
  8
0
100
AcDbBlockReference
 62
2
  6
CONTINUOUS
  2
_FILLED
 10
150.4641327752
 20
80.1864601256
 41
2.34375
 42
2.34375
 43
2.34375
 50
90.0
  0
INSERT
  5
334
100
AcDbEntity
  8
0
100
AcDbBlockReference
 62
2
  6
CONTINUOUS
  2
_FILLED
 10
150.4641327752
 20
85.4620506768
 41
2.34375
 42
2.34375
 43
2.34375
 50
270.0
  0
ENDBLK
  5
335
100
AcDbEntity
  8
0
  6
BYBLOCK
 62
0
100
AcDbBlockEnd
  0
BLOCK
  5
336
100
AcDbEntity
  8
0
100
AcDbBlockBegin
 62
2
  6
CONTINUOUS
  2
*D14
 70
65
 10
0.0
 20
0.0
  3
*D14
  1

  0
MTEXT
  5
337
100
AcDbEntity
  8
0
100
AcDbMText
 62
2
  6
CONTINUOUS
  7
STANDARD
 71
2
 72
1
 10
108.3063103126
 20
84.6678124152
 30
0.0
 11
1.0
 21
0.0
 31
0.0
 44
0.9
  1
438\P[17.2]
 40
1.953125
 41
6.9754464286
  0
LINE
  5
338
100
AcDbEntity
  8
0
100
AcDbLine
 62
2
  6
CONTINUOUS
 10
133.7407934646
 20
72.1758302043
 11
107.9993906697
 21
72.1758302043
  0
LINE
  5
339
100
AcDbEntity
  8
0
100
AcDbLine
 62
2
  6
CONTINUOUS
 10
139.1498978004
 20
89.4081136689
 11
107.9993906697
 21
89.4081136689
  0
LINE
  5
33A
100
AcDbEntity
  8
0
100
AcDbLine
 62
2
  6
CONTINUOUS
 10
109.5618906697
 20
72.1758302043
 11
109.5618906697
 21
78.8084374152
  0
LINE
  5
33B
100
AcDbEntity
  8
0
100
AcDbLine
 62
2
  6
CONTINUOUS
 10
109.5618906697
 20
89.4081136689
 11
109.5618906697
 21
85.6443749152
  0
INSERT
  5
33C
100
AcDbEntity
  8
0
100
AcDbBlockReference
 62
2
  6
CONTINUOUS
  2
_FILLED
 10
109.5618906697
 20
72.1758302043
 41
2.34375
 42
2.34375
 43
2.34375
 50
270.0
  0
INSERT
  5
33D
100
AcDbEntity
  8
0
100
AcDbBlockReference
 62
2
  6
CONTINUOUS
  2
_FILLED
 10
109.5618906697
 20
89.4081136689
 41
2.34375
 42
2.34375
 43
2.34375
 50
90.0
  0
ENDBLK
  5
33E
100
AcDbEntity
  8
0
  6
BYBLOCK
 62
0
100
AcDbBlockEnd
  0
BLOCK
  5
33F
100
AcDbEntity
  8
0
100
AcDbBlockBegin
 62
2
  6
CONTINUOUS
  2
*D15
 70
65
 10
0.0
 20
0.0
  3
*D15
  1

  0
MTEXT
  5
340
100
AcDbEntity
  8
0
100
AcDbMText
 62
2
  6
CONTINUOUS
  7
STANDARD
 71
3
 72
1
 10
25.6324714697
 20
111.208256912
 30
0.0
 11
1.0
 21
0.0
 31
0.0
 44
0.9
  1
162\P[6.4]
 40
1.953125
 41
5.859375
  0
LINE
  5
341
100
AcDbEntity
  8
0
100
AcDbLine
 62
2
  6
CONTINUOUS
 10
37.1561696773
 20
119.5037747841
 11
29.2338801393
 21
119.5037747841
  0
LINE
  5
342
100
AcDbEntity
  8
0
100
AcDbLine
 62
2
  6
CONTINUOUS
 10
41.3803822758
 20
113.1415700597
 11
29.2338801393
 21
113.1415700597
  0
LINE
  5
343
100
AcDbEntity
  8
0
100
AcDbLine
 62
2
  6
CONTINUOUS
 10
30.7963801393
 20
119.5037747841
 11
30.7963801393
 21
116.3226724219
  0
LINE
  5
344
100
AcDbEntity
  8
0
100
AcDbLine
 62
2
  6
CONTINUOUS
 10
30.7963801393
 20
113.1415700597
 11
30.7963801393
 21
116.3226724219
  0
LINE
  5
345
100
AcDbEntity
  8
0
100
AcDbLine
 62
2
  6
CONTINUOUS
 10
30.7963801393
 20
116.3226724219
 11
30.7963801393
 21
110.231694412
  0
LINE
  5
346
100
AcDbEntity
  8
0
100
AcDbLine
 62
2
  6
CONTINUOUS
 10
30.7963801393
 20
110.231694412
 11
28.2831411126
 21
110.231694412
  0
INSERT
  5
347
100
AcDbEntity
  8
0
100
AcDbBlockReference
 62
2
  6
CONTINUOUS
  2
_FILLED
 10
30.7963801393
 20
119.5037747841
 41
2.34375
 42
2.34375
 43
2.34375
 50
90.0
  0
INSERT
  5
348
100
AcDbEntity
  8
0
100
AcDbBlockReference
 62
2
  6
CONTINUOUS
  2
_FILLED
 10
30.7963801393
 20
113.1415700597
 41
2.34375
 42
2.34375
 43
2.34375
 50
270.0
  0
ENDBLK
  5
349
100
AcDbEntity
  8
0
  6
BYBLOCK
 62
0
100
AcDbBlockEnd
  0
BLOCK
  5
34A
100
AcDbEntity
  8
0
100
AcDbBlockBegin
 62
2
  6
CONTINUOUS
  2
*D16
 70
65
 10
0.0
 20
0.0
  3
*D16
  1

  0
MTEXT
  5
34B
100
AcDbEntity
  8
0
100
AcDbMText
 62
2
  6
CONTINUOUS
  7
STANDARD
 71
2
 72
1
 10
55.8987096145
 20
115.6370866052
 30
0.0
 11
1.0
 21
0.0
 31
0.0
 44
0.9
  1
323\P[12.7]
 40
1.953125
 41
6.9754464286
  0
LINE
  5
34C
100
AcDbEntity
  8
0
100
AcDbLine
 62
2
  6
CONTINUOUS
 10
47.3326460553
 20
106.7872393511
 11
58.7865444359
 21
106.7872393511
  0
LINE
  5
34D
100
AcDbEntity
  8
0
100
AcDbLine
 62
2
  6
CONTINUOUS
 10
47.1670948742
 20
119.5037747841
 11
58.7865444359
 21
119.5037747841
  0
LINE
  5
34E
100
AcDbEntity
  8
0
100
AcDbLine
 62
2
  6
CONTINUOUS
 10
57.2240444359
 20
106.7872393511
 11
57.2240444359
 21
109.7777116052
  0
LINE
  5
34F
100
AcDbEntity
  8
0
100
AcDbLine
 62
2
  6
CONTINUOUS
 10
57.2240444359
 20
119.5037747841
 11
57.2240444359
 21
116.6136491052
  0
INSERT
  5
350
100
AcDbEntity
  8
0
100
AcDbBlockReference
 62
2
  6
CONTINUOUS
  2
_FILLED
 10
57.2240444359
 20
106.7872393511
 41
2.34375
 42
2.34375
 43
2.34375
 50
270.0
  0
INSERT
  5
351
100
AcDbEntity
  8
0
100
AcDbBlockReference
 62
2
  6
CONTINUOUS
  2
_FILLED
 10
57.2240444359
 20
119.5037747841
 41
2.34375
 42
2.34375
 43
2.34375
 50
90.0
  0
ENDBLK
  5
352
100
AcDbEntity
  8
0
  6
BYBLOCK
 62
0
100
AcDbBlockEnd
  0
BLOCK
  5
353
100
AcDbEntity
  8
0
100
AcDbBlockBegin
 62
2
  6
CONTINUOUS
  2
*D17
 70
65
 10
0.0
 20
0.0
  3
*D17
  1

  0
MTEXT
  5
354
100
AcDbEntity
  8
0
100
AcDbMText
 62
2
  6
CONTINUOUS
  7
STANDARD
 71
2
 72
1
 10
117.5524817915
 20
83.5685125006
 30
0.0
 11
1.0
 21
0.0
 31
0.0
 44
0.9
  1
396\P[15.6]
 40
1.953125
 41
6.8359375
  0
LINE
  5
355
100
AcDbEntity
  8
0
100
AcDbLine
 62
2
  6
CONTINUOUS
 10
133.7407934646
 20
72.1758302043
 11
117.1758076843
 21
72.1758302043
  0
LINE
  5
356
100
AcDbEntity
  8
0
100
AcDbLine
 62
2
  6
CONTINUOUS
 10
138.5396615799
 20
87.7663813854
 11
117.1758076843
 21
87.7663813854
  0
LINE
  5
357
100
AcDbEntity
  8
0
100
AcDbLine
 62
2
  6
CONTINUOUS
 10
118.7383076843
 20
72.1758302043
 11
118.7383076843
 21
77.7091375006
  0
LINE
  5
358
100
AcDbEntity
  8
0
100
AcDbLine
 62
2
  6
CONTINUOUS
 10
118.7383076843
 20
87.7663813854
 11
118.7383076843
 21
84.5450750006
  0
INSERT
  5
359
100
AcDbEntity
  8
0
100
AcDbBlockReference
 62
2
  6
CONTINUOUS
  2
_FILLED
 10
118.7383076843
 20
72.1758302043
 41
2.34375
 42
2.34375
 43
2.34375
 50
270.0
  0
INSERT
  5
35A
100
AcDbEntity
  8
0
100
AcDbBlockReference
 62
2
  6
CONTINUOUS
  2
_FILLED
 10
118.7383076843
 20
87.7663813854
 41
2.34375
 42
2.34375
 43
2.34375
 50
90.0
  0
ENDBLK
  5
35B
100
AcDbEntity
  8
0
  6
BYBLOCK
 62
0
100
AcDbBlockEnd
  0
BLOCK
  5
35C
100
AcDbEntity
  8
0
100
AcDbBlockBegin
 62
2
  6
CONTINUOUS
  2
*D18
 70
65
 10
0.0
 20
0.0
  3
*D18
  1

  0
MTEXT
  5
35D
100
AcDbEntity
  8
0
100
AcDbMText
 62
2
  6
CONTINUOUS
  7
STANDARD
 71
1
 72
1
 10
161.5245148678
 20
95.3086853333
 30
0.0
 11
1.0
 21
0.0
 31
0.0
 44
0.9
  1
54\P[2.1]
 40
1.953125
 41
5.4408482143
  0
LINE
  5
35E
100
AcDbEntity
  8
0
100
AcDbLine
 62
2
  6
CONTINUOUS
 10
142.2281458319
 20
87.7663813854
 11
159.9620148678
 21
87.7663813854
  0
LINE
  5
35F
100
AcDbEntity
  8
0
100
AcDbLine
 62
2
  6
CONTINUOUS
 10
142.2281458319
 20
89.8923656374
 11
159.9620148678
 21
89.8923656374
  0
LINE
  5
360
100
AcDbEntity
  8
0
100
AcDbLine
 62
2
  6
CONTINUOUS
 10
158.3995148678
 20
87.7663813854
 11
158.3995148678
 21
81.5163813854
  0
LINE
  5
361
100
AcDbEntity
  8
0
100
AcDbLine
 62
2
  6
CONTINUOUS
 10
158.3995148678
 20
89.8923656374
 11
158.3995148678
 21
94.3321228333
  0
LINE
  5
362
100
AcDbEntity
  8
0
100
AcDbLine
 62
2
  6
CONTINUOUS
 10
158.3995148678
 20
94.3321228333
 11
160.5479523678
 21
94.3321228333
  0
INSERT
  5
363
100
AcDbEntity
  8
0
100
AcDbBlockReference
 62
2
  6
CONTINUOUS
  2
_FILLED
 10
158.3995148678
 20
87.7663813854
 41
2.34375
 42
2.34375
 43
2.34375
 50
90.0
  0
INSERT
  5
364
100
AcDbEntity
  8
0
100
AcDbBlockReference
 62
2
  6
CONTINUOUS
  2
_FILLED
 10
158.3995148678
 20
89.8923656374
 41
2.34375
 42
2.34375
 43
2.34375
 50
270.0
  0
ENDBLK
  5
365
100
AcDbEntity
  8
0
  6
BYBLOCK
 62
0
100
AcDbBlockEnd
  0
BLOCK
  5
366
100
AcDbEntity
  8
0
100
AcDbBlockBegin
 62
2
  6
CONTINUOUS
  2
*D19
 70
65
 10
0.0
 20
0.0
  3
*D19
  1

  0
MTEXT
  5
367
100
AcDbEntity
  8
0
100
AcDbMText
 62
2
  6
CONTINUOUS
  7
STANDARD
 71
1
 72
1
 10
147.9904603474
 20
110.4694494808
 30
0.0
 11
1.0
 21
0.0
 31
0.0
 44
0.9
  1
54\P[2.1]
 40
1.953125
 41
5.4408482143
  0
LINE
  5
368
100
AcDbEntity
  8
0
100
AcDbLine
 62
2
  6
CONTINUOUS
 10
141.4468958319
 20
90.6736156374
 11
141.4468958319
 21
111.0553869808
  0
LINE
  5
369
100
AcDbEntity
  8
0
100
AcDbLine
 62
2
  6
CONTINUOUS
 10
139.3209115799
 20
90.6736156374
 11
139.3209115799
 21
111.0553869808
  0
LINE
  5
36A
100
AcDbEntity
  8
0
100
AcDbLine
 62
2
  6
CONTINUOUS
 10
141.4468958319
 20
109.4928869808
 11
147.0138978474
 21
109.4928869808
  0
LINE
  5
36B
100
AcDbEntity
  8
0
100
AcDbLine
 62
2
  6
CONTINUOUS
 10
139.3209115799
 20
109.4928869808
 11
133.0709115799
 21
109.4928869808
  0
INSERT
  5
36C
100
AcDbEntity
  8
0
100
AcDbBlockReference
 62
2
  6
CONTINUOUS
  2
_FILLED
 10
141.4468958319
 20
109.4928869808
 41
2.34375
 42
2.34375
 43
2.34375
 50
180.0
  0
INSERT
  5
36D
100
AcDbEntity
  8
0
100
AcDbBlockReference
 62
2
  6
CONTINUOUS
  2
_FILLED
 10
139.3209115799
 20
109.4928869808
 41
2.34375
 42
2.34375
 43
2.34375
  0
ENDBLK
  5
36E
100
AcDbEntity
  8
0
  6
BYBLOCK
 62
0
100
AcDbBlockEnd
  0
ENDSEC
  0
SECTION
  2
ENTITIES
  0
MTEXT
  5
36F
100
AcDbEntity
  8
0
100
AcDbMText
 62
2
  6
CONTINUOUS
  7
STANDARD
 71
1
 72
1
 10
30.888038886
 20
5.0390478303
 30
0.0
 11
1.0
 21
0.0
 31
0.0
 44
0.9
  1
4
 40
1.953125
 41
1.5345982143
  0
MTEXT
  5
370
100
AcDbEntity
  8
0
100
AcDbMText
 62
2
  6
CONTINUOUS
  7
STANDARD
 71
1
 72
1
 10
79.3019347615
 20
5.02991051
 30
0.0
 11
1.0
 21
0.0
 31
0.0
 44
0.9
  1
3
 40
1.953125
 41
1.3950892857
  0
MTEXT
  5
371
100
AcDbEntity
  8
0
100
AcDbMText
 62
2
  6
CONTINUOUS
  7
STANDARD
 71
1
 72
1
 10
127.6037107944
 20
5.0340675122
 30
0.0
 11
1.0
 21
0.0
 31
0.0
 44
0.9
  1
2
 40
1.953125
 41
1.5345982143
  0
MTEXT
  5
372
100
AcDbEntity
  8
0
100
AcDbMText
 62
2
  6
CONTINUOUS
  7
STANDARD
 71
1
 72
1
 10
175.996228656
 20
5.0342770788
 30
0.0
 11
1.0
 21
0.0
 31
0.0
 44
0.9
  1
1
 40
1.953125
 41
1.1160714286
  0
MTEXT
  5
373
100
AcDbEntity
  8
0
100
AcDbMText
 62
2
  6
CONTINUOUS
  7
STANDARD
 71
1
 72
1
 10
30.8949608921
 20
135.8694811929
 30
0.0
 11
1.0
 21
0.0
 31
0.0
 44
0.9
  1
4
 40
1.953125
 41
1.5345982143
  0
MTEXT
  5
374
100
AcDbEntity
  8
0
100
AcDbMText
 62
2
  6
CONTINUOUS
  7
STANDARD
 71
1
 72
1
 10
79.2828191668
 20
135.8549628959
 30
0.0
 11
1.0
 21
0.0
 31
0.0
 44
0.9
  1
3
 40
1.953125
 41
1.3950892857
  0
MTEXT
  5
375
100
AcDbEntity
  8
0
100
AcDbMText
 62
2
  6
CONTINUOUS
  7
STANDARD
 71
1
 72
1
 10
127.6266483605
 20
135.8525080597
 30
0.0
 11
1.0
 21
0.0
 31
0.0
 44
0.9
  1
2
 40
1.953125
 41
1.5345982143
  0
MTEXT
  5
376
100
AcDbEntity
  8
0
100
AcDbMText
 62
2
  6
CONTINUOUS
  7
STANDARD
 71
1
 72
1
 10
175.998400312
 20
135.854268419
 30
0.0
 11
1.0
 21
0.0
 31
0.0
 44
0.9
  1
1
 40
1.953125
 41
1.1160714286
  0
MTEXT
  5
377
100
AcDbEntity
  8
0
100
AcDbMText
 62
2
  6
CONTINUOUS
  7
STANDARD
 71
1
 72
1
 10
3.178352082
 20
23.2412038652
 30
0.0
 11
1.0
 21
0.0
 31
0.0
 44
0.9
  1
A
 40
1.953125
 41
1.6741071429
  0
MTEXT
  5
378
100
AcDbEntity
  8
0
100
AcDbMText
 62
2
  6
CONTINUOUS
  7
STANDARD
 71
1
 72
1
 10
3.2468403836
 20
54.5033826534
 30
0.0
 11
1.0
 21
0.0
 31
0.0
 44
0.9
  1
B
 40
1.953125
 41
1.5345982143
  0
MTEXT
  5
379
100
AcDbEntity
  8
0
100
AcDbMText
 62
2
  6
CONTINUOUS
  7
STANDARD
 71
1
 72
1
 10
3.2287382073
 20
85.7237507931
 30
0.0
 11
1.0
 21
0.0
 31
0.0
 44
0.9
  1
C
 40
1.953125
 41
1.6276041667
  0
MTEXT
  5
37A
100
AcDbEntity
  8
0
100
AcDbMText
 62
2
  6
CONTINUOUS
  7
STANDARD
 71
1
 72
1
 10
3.2548970568
 20
117.0263462447
 30
0.0
 11
1.0
 21
0.0
 31
0.0
 44
0.9
  1
D
 40
1.953125
 41
1.7671130952
  0
MTEXT
  5
37B
100
AcDbEntity
  8
0
100
AcDbMText
 62
2
  6
CONTINUOUS
  7
STANDARD
 71
1
 72
1
 10
203.1299852552
 20
23.2374398703
 30
0.0
 11
1.0
 21
0.0
 31
0.0
 44
0.9
  1
A
 40
1.953125
 41
1.6741071429
  0
MTEXT
  5
37C
100
AcDbEntity
  8
0
100
AcDbMText
 62
2
  6
CONTINUOUS
  7
STANDARD
 71
1
 72
1
 10
203.1183357624
 20
54.4991642729
 30
0.0
 11
1.0
 21
0.0
 31
0.0
 44
0.9
  1
B
 40
1.953125
 41
1.5345982143
  0
MTEXT
  5
37D
100
AcDbEntity
  8
0
100
AcDbMText
 62
2
  6
CONTINUOUS
  7
STANDARD
 71
1
 72
1
 10
203.1131626032
 20
85.7168970021
 30
0.0
 11
1.0
 21
0.0
 31
0.0
 44
0.9
  1
C
 40
1.953125
 41
1.6276041667
  0
MTEXT
  5
37E
100
AcDbEntity
  8
0
100
AcDbMText
 62
2
  6
CONTINUOUS
  7
STANDARD
 71
1
 72
1
 10
203.1179347973
 20
117.0227351345
 30
0.0
 11
1.0
 21
0.0
 31
0.0
 44
0.9
  1
D
 40
1.953125
 41
1.7671130952
  0
MTEXT
  5
37F
100
AcDbEntity
  8
0
100
AcDbMText
 62
5
  6
CONTINUOUS
  7
STANDARD
 71
1
 72
1
 10
6.8030669516
 20
130.7809027514
 30
0.0
 11
1.0
 21
0.0
 31
0.0
 44
0.9
  1
THIS DOCUMENT CONTAINS PROPRIETARY INFORMATION\PWHICH IS THE PROPERTY OF QSC AUDIO PRODUCTS, THAT\PMAY NOT BE DISCLOSED, REPRODUCED OR USED WITHOUT\PEXPRESS WRITTEN CONSENT FROM QSC AUDIO PRODUCTS.
 40
0.9375
 41
36.7857142857
  0
MTEXT
  5
380
100
AcDbEntity
  8
0
100
AcDbMText
 62
2
  6
CONTINUOUS
  7
STANDARD
 71
2
 72
1
 10
90.4368409897
 20
32.3998187327
 30
0.0
 11
1.0
 21
0.0
 31
0.0
 44
0.9
  1
TOLERANCES ARE:
 40
1.125
 41
12.8839285714
  0
MTEXT
  5
381
100
AcDbEntity
  8
0
100
AcDbMText
 62
2
  6
CONTINUOUS
  7
STANDARD
 71
2
 72
1
 10
101.6162124298
 20
29.5312586829
 30
0.0
 11
1.0
 21
0.0
 31
0.0
 44
0.9
  1
ANGLES\P\Fgdt;{\Fgdt;`}\Ftxt; 1/2
 40
1.125
 41
5.3571428571
  0
MTEXT
  5
382
100
AcDbEntity
  8
0
100
AcDbMText
 62
2
  6
CONTINUOUS
  7
STANDARD
 71
2
 72
1
 10
80.7365560101
 20
21.0777489696
 30
0.0
 11
1.0
 21
0.0
 31
0.0
 44
0.9
  1
MATERIAL
 40
1.125
 41
7.2053571429
  0
MTEXT
  5
383
100
AcDbEntity
  8
0
100
AcDbMText
 62
2
  6
CONTINUOUS
  7
STANDARD
 71
2
 72
1
 10
79.5392464504
 20
13.4643328368
 30
0.0
 11
1.0
 21
0.0
 31
0.0
 44
0.9
  1
FINISH
 40
1.125
 41
5.1160714286
  0
MTEXT
  5
384
100
AcDbEntity
  8
0
100
AcDbMText
 62
2
  6
CONTINUOUS
  7
STANDARD
 71
2
 72
1
 10
165.8724039349
 20
8.5112820217
 30
0.0
 11
1.0
 21
0.0
 31
0.0
 44
0.9
  1
DO NOT SCALE DRAWING
 40
1.5625
 41
25.9672619048
  0
MTEXT
  5
385
100
AcDbEntity
  8
0
100
AcDbMText
 62
2
  6
CONTINUOUS
  7
STANDARD
 71
2
 72
1
 10
107.7993349302
 20
33.9708321072
 30
0.0
 11
1.0
 21
0.0
 31
0.0
 44
0.9
  1
DRAWN
 40
1.125
 41
5.4910714286
  0
MTEXT
  5
386
100
AcDbEntity
  8
0
100
AcDbMText
 62
2
  6
CONTINUOUS
  7
STANDARD
 71
2
 72
1
 10
108.2383859815
 20
28.4300686801
 30
0.0
 11
1.0
 21
0.0
 31
0.0
 44
0.9
  1
CHECKED
 40
1.125
 41
6.4821428571
  0
MTEXT
  5
387
100
AcDbEntity
  8
0
100
AcDbMText
 62
2
  6
CONTINUOUS
  7
STANDARD
 71
2
 72
1
 10
108.160814079
 20
22.9763655565
 30
0.0
 11
1.0
 21
0.0
 31
0.0
 44
0.9
  1
MFG ENG
 40
1.125
 41
6.3214285714
  0
MTEXT
  5
388
100
AcDbEntity
  8
0
100
AcDbMText
 62
2
  6
CONTINUOUS
  7
STANDARD
 71
2
 72
1
 10
108.7247835317
 20
17.4848043349
 30
0.0
 11
1.0
 21
0.0
 31
0.0
 44
0.9
  1
QA CHECK
 40
1.125
 41
7.4732142857
  0
MTEXT
  5
389
100
AcDbEntity
  8
0
100
AcDbMText
 62
2
  6
CONTINUOUS
  7
STANDARD
 71
2
 72
1
 10
111.9565437546
 20
8.4500308607
 30
0.0
 11
1.0
 21
0.0
 31
0.0
 44
0.9
  1
MODEL INFO:
 40
1.125
 41
9.1875
  0
MTEXT
  5
38A
100
AcDbEntity
  8
0
100
AcDbMText
 62
2
  6
CONTINUOUS
  7
STANDARD
 71
2
 72
1
 10
110.7981361661
 20
11.4795130188
 30
0.0
 11
1.0
 21
0.0
 31
0.0
 44
0.9
  1
DRAWING INFO:
 40
1.125
 41
11.6785714286
  0
MTEXT
  5
38B
100
AcDbEntity
  8
0
100
AcDbMText
 62
2
  6
CONTINUOUS
  7
STANDARD
 71
2
 72
1
 10
115.5165405697
 20
36.953165809
 30
0.0
 11
1.0
 21
0.0
 31
0.0
 44
0.9
  1
APPROVALS
 40
1.125
 41
8.2232142857
  0
MTEXT
  5
38C
100
AcDbEntity
  8
0
100
AcDbMText
 62
2
  6
CONTINUOUS
  7
STANDARD
 71
2
 72
1
 10
131.8007830567
 20
37.9394688141
 30
0.0
 11
1.0
 21
0.0
 31
0.0
 44
0.9
  1
DATE\P(DD-MMM-YY)
 40
1.125
 41
9.4285714286
  0
MTEXT
  5
38D
100
AcDbEntity
  8
0
100
AcDbMText
 62
2
  6
CONTINUOUS
  7
STANDARD
 71
2
 72
1
 10
140.4920572673
 20
8.3377541278
 30
0.0
 11
1.0
 21
0.0
 31
0.0
 44
0.9
  1
SCALE:
 40
1.125
 41
4.9285714286
  0
MTEXT
  5
38E
100
AcDbEntity
  8
0
100
AcDbMText
 62
2
  6
CONTINUOUS
  7
STANDARD
 71
2
 72
1
 10
182.7030341786
 20
8.3585110814
 30
0.0
 11
1.0
 21
0.0
 31
0.0
 44
0.9
  1
SHEET
 40
1.125
 41
4.5535714286
  0
MTEXT
  5
38F
100
AcDbEntity
  8
0
100
AcDbMText
 62
2
  6
CONTINUOUS
  7
STANDARD
 71
2
 72
1
 10
140.5247431347
 20
15.1291208415
 30
0.0
 11
1.0
 21
0.0
 31
0.0
 44
0.9
  1
SIZE
 40
1.125
 41
3.5089285714
  0
MTEXT
  5
390
100
AcDbEntity
  8
0
100
AcDbMText
 62
2
  6
CONTINUOUS
  7
STANDARD
 71
2
 72
1
 10
149.7962201084
 20
15.1427055389
 30
0.0
 11
1.0
 21
0.0
 31
0.0
 44
0.9
  1
CAGE CODE
 40
1.125
 41
8.3303571429
  0
MTEXT
  5
391
100
AcDbEntity
  8
0
100
AcDbMText
 62
2
  6
CONTINUOUS
  7
STANDARD
 71
2
 72
1
 10
161.7618718504
 20
15.1166620715
 30
0.0
 11
1.0
 21
0.0
 31
0.0
 44
0.9
  1
DRAWING NO.
 40
1.125
 41
10.3928571429
  0
MTEXT
  5
392
100
AcDbEntity
  8
0
100
AcDbMText
 62
2
  6
CONTINUOUS
  7
STANDARD
 71
2
 72
1
 10
197.026658243
 20
15.1334238335
 30
0.0
 11
1.0
 21
0.0
 31
0.0
 44
0.9
  1
REV
 40
1.125
 41
2.8392857143
  0
MTEXT
  5
393
100
AcDbEntity
  8
0
100
AcDbMText
 62
2
  6
CONTINUOUS
  7
STANDARD
 71
2
 72
1
 10
179.1762020397
 20
37.3412304273
 30
0.0
 11
1.0
 21
0.0
 31
0.0
 44
0.9
  1
QSC AUDIO PRODUCTS, LLC
 40
1.953125
 41
35.5747767857
  0
MTEXT
  5
394
100
AcDbEntity
  8
0
100
AcDbMText
 62
2
  6
CONTINUOUS
  7
STANDARD
 71
1
 72
1
 10
161.4016551726
 20
34.4286270486
 30
0.0
 11
1.0
 21
0.0
 31
0.0
 44
0.9
  1
1675  MACARTHUR BOULEVARD\PCOSTA MESA, CA  92626
 40
1.5625
 41
31.1011904762
  0
MTEXT
  5
395
100
AcDbEntity
  8
0
100
AcDbMText
 62
2
  6
CONTINUOUS
  7
STANDARD
 71
1
 72
1
 10
145.3763561114
 20
12.4534561472
 30
0.0
 11
1.0
 21
0.0
 31
0.0
 44
0.9
  1
00PW4
 40
1.953125
 41
9.1610863095
  0
MTEXT
  5
396
100
AcDbEntity
  8
0
100
AcDbMText
 62
2
  6
CONTINUOUS
  7
STANDARD
 71
2
 72
1
 10
90.6883609643
 20
37.1472804356
 30
0.0
 11
1.0
 21
0.0
 31
0.0
 44
0.9
  1
UNLESS OTHERWISE SPECIFIED\PDIMENSIONS IN MILLIMETERS [IN]
 40
1.25
 41
27.380952381
  0
MTEXT
  5
397
100
AcDbEntity
  8
0
100
AcDbMText
 62
2
  6
CONTINUOUS
  7
STANDARD
 71
2
 72
1
 10
81.605347058
 20
29.5489401787
 30
0.0
 11
1.0
 21
0.0
 31
0.0
 44
0.9
  1
DECIMALS\P.X\Fgdt;{\Fgdt;`}\Ftxt;.5[.02]
 40
1.125
 41
7.7410714286
  0
MTEXT
  5
398
100
AcDbEntity
  8
0
100
AcDbMText
 62
2
  6
CONTINUOUS
  7
STANDARD
 71
2
 72
1
 10
92.5101098472
 20
29.5549289194
 30
0.0
 11
1.0
 21
0.0
 31
0.0
 44
0.9
  1
DECIMALS\P.XX\Fgdt;{\Fgdt;`}\Ftxt;.25[.010]
 40
1.125
 41
10.2321428571
  0
MTEXT
  5
399
100
AcDbEntity
  8
0
100
AcDbMText
 62
2
  6
CONTINUOUS
  7
STANDARD
 71
2
 72
1
 10
90.5071406127
 20
24.6445477075
 30
0.0
 11
1.0
 21
0.0
 31
0.0
 44
0.9
  1
DEBURR EDGES .25 [.010] R MAX
 40
1.125
 41
24.5089285714
  0
INSERT
  5
39A
100
AcDbEntity
  8
0
100
AcDbBlockReference
 62
7
  6
CONTINUOUS
  2
SYMBOL_0_BL0
 10
148.6102537351
 20
33.7638833147
  0
DIMENSION
  5
39B
100
AcDbEntity
  8
0
100
AcDbDimension
 62
2
  6
CONTINUOUS
  2
*D0
 10
56.9009715366
 20
95.6403971335
 11
55.5756367151
 21
84.7207508349
 70
160
 71
2
 42
596.0
  3
DIMSTYLE_1
100
AcDbAlignedDimension
 13
49.2610737419
 23
72.1758302043
 14
49.2968436049
 24
95.6403971335
 50
90.0
100
AcDbRotatedDimension
  0
DIMENSION
  5
39C
100
AcDbEntity
  8
0
100
AcDbDimension
 62
2
  6
CONTINUOUS
  2
*D1
 10
49.1255795633
 20
102.7678901451
 11
41.8757890376
 21
101.3030463951
 70
160
 71
2
 42
353.7685222066
  3
DIMSTYLE_1
100
AcDbAlignedDimension
 13
35.1976849882
 23
109.1939662531
 14
49.1255795633
 24
108.9083038671
100
AcDbRotatedDimension
  0
DIMENSION
  5
39D
100
AcDbEntity
  8
0
100
AcDbDimension
 62
2
  6
CONTINUOUS
  2
*D2
 10
94.7733905175
 20
69.8364377958
 11
104.6350045547
 21
68.3715940458
 70
160
 71
1
 42
104.5
  3
DIMSTYLE_1
100
AcDbAlignedDimension
 13
90.6592172892
 23
72.5363124878
 14
94.7733905175
 24
79.4052101256
100
AcDbRotatedDimension
  0
DIMENSION
  5
39E
100
AcDbEntity
  8
0
100
AcDbDimension
 62
2
  6
CONTINUOUS
  2
*D3
 10
77.9426818561
 20
56.9921296354
 11
84.9978241332
 21
55.5272858854
 70
160
 71
2
 42
427.5
  3
DIMSTYLE_1
100
AcDbAlignedDimension
 13
94.7733905175
 23
79.4052101256
 14
77.9426818561
 24
71.3945802043
 50
180.0
100
AcDbRotatedDimension
  0
DIMENSION
  5
39F
100
AcDbEntity
  8
0
100
AcDbDimension
 62
2
  6
CONTINUOUS
  2
*D4
 10
84.2970125648
 20
62.0603810875
 11
105.8762768458
 21
60.5955373375
 70
160
 71
1
 42
266.1
  3
DIMSTYLE_1
100
AcDbAlignedDimension
 13
94.7733905175
 23
79.4052101256
 14
84.2970125648
 24
82.1426117004
 50
180.0
100
AcDbRotatedDimension
  0
DIMENSION
  5
3A0
100
AcDbEntity
  8
0
100
AcDbDimension
 62
2
  6
CONTINUOUS
  2
*D5
 10
72.5371559237
 20
82.9238617004
 11
71.2118211023
 21
78.0188054928
 70
160
 71
2
 42
273.0
  3
DIMSTYLE_1
100
AcDbAlignedDimension
 13
77.1614318561
 23
72.1758302043
 14
83.5157625648
 24
82.9238617004
 50
90.0
100
AcDbRotatedDimension
  0
DIMENSION
  5
3A1
100
AcDbEntity
  8
0
100
AcDbDimension
 62
2
  6
CONTINUOUS
  2
*D6
 10
84.2970125648
 20
101.8506526258
 11
97.7396449323
 21
100.3858088758
 70
160
 71
1
 42
161.6
  3
DIMSTYLE_1
100
AcDbAlignedDimension
 13
90.6592172892
 23
95.27991485
 14
84.2970125648
 24
83.7051117004
 50
180.0
100
AcDbRotatedDimension
  0
DIMENSION
  5
3A2
100
AcDbEntity
  8
0
100
AcDbDimension
 62
2
  6
CONTINUOUS
  2
*D7
 10
47.0632070789
 20
65.3474228102
 11
26.5173797681
 21
63.8825790602
 70
160
 71
3
 42
249.0
  3
DIMSTYLE_1
100
AcDbAlignedDimension
 13
37.2600574726
 23
58.6649386298
 14
47.0632070789
 24
58.6649386298
100
AcDbRotatedDimension
  0
DIMENSION
  5
3A3
100
AcDbEntity
  8
0
100
AcDbDimension
 62
2
  6
CONTINUOUS
  2
*D8
 10
21.1544555453
 20
57.8836886298
 11
19.7942434917
 21
53.9269392718
 70
160
 71
2
 42
220.0
  3
DIMSTYLE_1
100
AcDbAlignedDimension
 13
37.1561696773
 23
49.222271307
 14
36.4788074726
 24
57.8836886298
 50
90.0
100
AcDbRotatedDimension
  0
DIMENSION
  5
3A4
100
AcDbEntity
  8
0
100
AcDbDimension
 62
2
  6
CONTINUOUS
  2
*D9
 10
27.207629817
 20
55.5844760314
 11
33.262317317
 21
43.8840022909
 70
160
 71
1
 42
161.6
  3
DIMSTYLE_1
100
AcDbAlignedDimension
 13
37.1561696773
 23
49.222271307
 14
41.3803822758
 24
55.5844760314
 50
90.0
100
AcDbRotatedDimension
  0
DIMENSION
  5
3A5
100
AcDbEntity
  8
0
100
AcDbDimension
 62
2
  6
CONTINUOUS
  2
*D10
 10
142.1555572492
 20
99.7647171906
 11
153.5557293989
 21
98.2998734406
 70
160
 71
1
 42
90.0
  3
DIMSTYLE_1
100
AcDbAlignedDimension
 13
138.6122501626
 23
83.6055054012
 14
142.1555572492
 24
83.6055054012
100
AcDbRotatedDimension
  0
DIMENSION
  5
3A6
100
AcDbEntity
  8
0
100
AcDbDimension
 62
2
  6
CONTINUOUS
  2
*D11
 10
131.9098400009
 20
85.0880349287
 11
124.2213368824
 21
75.7313635492
 70
160
 71
3
 42
115.0
  3
DIMSTYLE_1
100
AcDbAlignedDimension
 13
139.6026537059
 23
80.5604758736
 14
139.6026537059
 24
85.0880349287
 50
90.0
100
AcDbRotatedDimension
  0
DIMENSION
  5
3A7
100
AcDbEntity
  8
0
100
AcDbDimension
 62
2
  6
CONTINUOUS
  2
*D12
 10
142.5492580366
 20
68.0144585629
 11
150.8901560082
 21
66.5496148129
 70
160
 71
1
 42
110.0
  3
DIMSTYLE_1
100
AcDbAlignedDimension
 13
138.2185493752
 23
79.4052101256
 14
142.5492580366
 24
79.4052101256
100
AcDbRotatedDimension
  0
DIMENSION
  5
3A8
100
AcDbEntity
  8
0
100
AcDbDimension
 62
2
  6
CONTINUOUS
  2
*D13
 10
150.4641327752
 20
85.4620506768
 11
156.3793113467
 21
75.3685600149
 70
160
 71
1
 42
134.0
  3
DIMSTYLE_1
100
AcDbAlignedDimension
 13
143.3305080366
 23
80.1864601256
 14
143.3305080366
 24
85.4620506768
 50
90.0
100
AcDbRotatedDimension
  0
DIMENSION
  5
3A9
100
AcDbEntity
  8
0
100
AcDbDimension
 62
2
  6
CONTINUOUS
  2
*D14
 10
109.5618906697
 20
89.4081136689
 11
108.2365558483
 21
82.2264061652
 70
160
 71
2
 42
437.7
  3
DIMSTYLE_1
100
AcDbAlignedDimension
 13
133.7407934646
 23
72.1758302043
 14
139.1498978004
 24
89.4081136689
 50
90.0
100
AcDbRotatedDimension
  0
DIMENSION
  5
3AA
100
AcDbEntity
  8
0
100
AcDbDimension
 62
2
  6
CONTINUOUS
  2
*D15
 10
30.7963801393
 20
113.1415700597
 11
21.8657303983
 21
108.766850662
 70
160
 71
3
 42
161.6
  3
DIMSTYLE_1
100
AcDbAlignedDimension
 13
37.1561696773
 23
119.5037747841
 14
41.3803822758
 24
113.1415700597
 50
270.0
100
AcDbRotatedDimension
  0
DIMENSION
  5
3AB
100
AcDbEntity
  8
0
100
AcDbDimension
 62
2
  6
CONTINUOUS
  2
*D16
 10
57.2240444359
 20
119.5037747841
 11
55.9335868466
 21
113.1956803552
 70
160
 71
2
 42
323.0
  3
DIMSTYLE_1
100
AcDbAlignedDimension
 13
47.3326460553
 23
106.7872393511
 14
47.1670948742
 24
119.5037747841
 50
90.0
100
AcDbRotatedDimension
  0
DIMENSION
  5
3AC
100
AcDbEntity
  8
0
100
AcDbDimension
 62
2
  6
CONTINUOUS
  2
*D17
 10
118.7383076843
 20
87.7663813854
 11
117.4129728629
 21
81.1271062506
 70
160
 71
2
 42
396.0
  3
DIMSTYLE_1
100
AcDbAlignedDimension
 13
133.7407934646
 23
72.1758302043
 14
138.5396615799
 24
87.7663813854
 50
90.0
100
AcDbRotatedDimension
  0
DIMENSION
  5
3AD
100
AcDbEntity
  8
0
100
AcDbDimension
 62
2
  6
CONTINUOUS
  2
*D18
 10
158.3995148678
 20
89.8923656374
 11
164.2449389749
 21
92.8672790833
 70
160
 71
1
 42
54.0
  3
DIMSTYLE_1
100
AcDbAlignedDimension
 13
142.2281458319
 23
87.7663813854
 14
142.2281458319
 24
89.8923656374
 50
90.0
100
AcDbRotatedDimension
  0
DIMENSION
  5
3AE
100
AcDbEntity
  8
0
100
AcDbDimension
 62
2
  6
CONTINUOUS
  2
*D19
 10
139.3209115799
 20
109.4928869808
 11
150.7108844545
 21
108.0280432308
 70
160
 71
1
 42
54.0
  3
DIMSTYLE_1
100
AcDbAlignedDimension
 13
141.4468958319
 23
90.6736156374
 14
139.3209115799
 24
90.6736156374
 50
180.0
100
AcDbRotatedDimension
  0
LINE
  5
3AF
100
AcDbEntity
  8
0
100
AcDbLine
 62
2
  6
CONTINUOUS
 10
76.5625
 20
21.875
 11
104.6875
 21
21.875
  0
LINE
  5
3B0
100
AcDbEntity
  8
0
100
AcDbLine
 62
2
  6
CONTINUOUS
 10
76.5625
 20
21.875
 11
76.5625
 21
14.0625
  0
LINE
  5
3B1
100
AcDbEntity
  8
0
100
AcDbLine
 62
2
  6
CONTINUOUS
 10
76.5625
 20
14.0625
 11
104.6875
 21
14.0625
  0
LINE
  5
3B2
100
AcDbEntity
  8
0
100
AcDbLine
 62
2
  6
CONTINUOUS
 10
104.6875
 20
21.875
 11
104.6875
 21
14.0625
  0
LINE
  5
3B3
100
AcDbEntity
  8
0
100
AcDbLine
 62
2
  6
CONTINUOUS
 10
76.5625
 20
14.0625
 11
104.6875
 21
14.0625
  0
LINE
  5
3B4
100
AcDbEntity
  8
0
100
AcDbLine
 62
2
  6
CONTINUOUS
 10
76.5625
 20
14.0625
 11
76.5625
 21
6.25
  0
LINE
  5
3B5
100
AcDbEntity
  8
0
100
AcDbLine
 62
2
  6
CONTINUOUS
 10
76.5625
 20
6.25
 11
104.6875
 21
6.25
  0
LINE
  5
3B6
100
AcDbEntity
  8
0
100
AcDbLine
 62
2
  6
CONTINUOUS
 10
104.6875
 20
14.0625
 11
104.6875
 21
6.25
  0
LINE
  5
3B7
100
AcDbEntity
  8
0
100
AcDbLine
 62
2
  6
CONTINUOUS
 10
104.6875
 20
34.375
 11
126.5625
 21
34.375
  0
LINE
  5
3B8
100
AcDbEntity
  8
0
100
AcDbLine
 62
2
  6
CONTINUOUS
 10
104.6875
 20
34.375
 11
104.6875
 21
29.00390625
  0
LINE
  5
3B9
100
AcDbEntity
  8
0
100
AcDbLine
 62
2
  6
CONTINUOUS
 10
104.6875
 20
29.00390625
 11
126.5625
 21
29.00390625
  0
LINE
  5
3BA
100
AcDbEntity
  8
0
100
AcDbLine
 62
2
  6
CONTINUOUS
 10
126.5625
 20
34.375
 11
126.5625
 21
29.00390625
  0
MTEXT
  5
3BB
100
AcDbEntity
  8
0
100
AcDbMText
 62
2
  6
CONTINUOUS
  7
STANDARD
 71
1
 72
1
 10
105.46875
 20
31.93359375
 30
0.0
 11
1.0
 21
0.0
 31
0.0
 44
0.9
  1
D. SIMPSON 
 40
1.953125
 41
16.5550595238
  0
LINE
  5
3BC
100
AcDbEntity
  8
0
100
AcDbLine
 62
2
  6
CONTINUOUS
 10
104.6875
 20
28.90625
 11
126.5625
 21
28.90625
  0
LINE
  5
3BD
100
AcDbEntity
  8
0
100
AcDbLine
 62
2
  6
CONTINUOUS
 10
104.6875
 20
28.90625
 11
104.6875
 21
23.40625
  0
LINE
  5
3BE
100
AcDbEntity
  8
0
100
AcDbLine
 62
2
  6
CONTINUOUS
 10
104.6875
 20
23.40625
 11
126.5625
 21
23.40625
  0
LINE
  5
3BF
100
AcDbEntity
  8
0
100
AcDbLine
 62
2
  6
CONTINUOUS
 10
126.5625
 20
28.90625
 11
126.5625
 21
23.40625
  0
MTEXT
  5
3C0
100
AcDbEntity
  8
0
100
AcDbMText
 62
2
  6
CONTINUOUS
  7
STANDARD
 71
1
 72
1
 10
105.46875
 20
26.3359375
 30
0.0
 11
1.0
 21
0.0
 31
0.0
 44
0.9
  1
- 
 40
1.953125
 41
2.9296875
  0
LINE
  5
3C1
100
AcDbEntity
  8
0
100
AcDbLine
 62
2
  6
CONTINUOUS
 10
104.6875
 20
23.4375
 11
126.5625
 21
23.4375
  0
LINE
  5
3C2
100
AcDbEntity
  8
0
100
AcDbLine
 62
2
  6
CONTINUOUS
 10
104.6875
 20
23.4375
 11
104.6875
 21
18.06640625
  0
LINE
  5
3C3
100
AcDbEntity
  8
0
100
AcDbLine
 62
2
  6
CONTINUOUS
 10
104.6875
 20
18.06640625
 11
126.5625
 21
18.06640625
  0
LINE
  5
3C4
100
AcDbEntity
  8
0
100
AcDbLine
 62
2
  6
CONTINUOUS
 10
126.5625
 20
23.4375
 11
126.5625
 21
18.06640625
  0
MTEXT
  5
3C5
100
AcDbEntity
  8
0
100
AcDbMText
 62
2
  6
CONTINUOUS
  7
STANDARD
 71
1
 72
1
 10
105.46875
 20
20.99609375
 30
0.0
 11
1.0
 21
0.0
 31
0.0
 44
0.9
  1
N/A
 40
1.953125
 41
4.6968005952
  0
LINE
  5
3C6
100
AcDbEntity
  8
0
100
AcDbLine
 62
2
  6
CONTINUOUS
 10
104.6875
 20
17.96875
 11
126.5625
 21
17.96875
  0
LINE
  5
3C7
100
AcDbEntity
  8
0
100
AcDbLine
 62
2
  6
CONTINUOUS
 10
104.6875
 20
17.96875
 11
104.6875
 21
12.46875
  0
LINE
  5
3C8
100
AcDbEntity
  8
0
100
AcDbLine
 62
2
  6
CONTINUOUS
 10
104.6875
 20
12.46875
 11
126.5625
 21
12.46875
  0
LINE
  5
3C9
100
AcDbEntity
  8
0
100
AcDbLine
 62
2
  6
CONTINUOUS
 10
126.5625
 20
17.96875
 11
126.5625
 21
12.46875
  0
MTEXT
  5
3CA
100
AcDbEntity
  8
0
100
AcDbMText
 62
2
  6
CONTINUOUS
  7
STANDARD
 71
1
 72
1
 10
105.46875
 20
15.3984375
 30
0.0
 11
1.0
 21
0.0
 31
0.0
 44
0.9
  1
N/A
 40
1.953125
 41
4.6968005952
  0
LINE
  5
3CB
100
AcDbEntity
  8
0
100
AcDbLine
 62
2
  6
CONTINUOUS
 10
126.5625
 20
34.375
 11
137.5
 21
34.375
  0
LINE
  5
3CC
100
AcDbEntity
  8
0
100
AcDbLine
 62
2
  6
CONTINUOUS
 10
126.5625
 20
34.375
 11
126.5625
 21
28.875
  0
LINE
  5
3CD
100
AcDbEntity
  8
0
100
AcDbLine
 62
2
  6
CONTINUOUS
 10
126.5625
 20
28.875
 11
137.5
 21
28.875
  0
LINE
  5
3CE
100
AcDbEntity
  8
0
100
AcDbLine
 62
2
  6
CONTINUOUS
 10
137.5
 20
34.375
 11
137.5
 21
28.875
  0
MTEXT
  5
3CF
100
AcDbEntity
  8
0
100
AcDbMText
 62
2
  6
CONTINUOUS
  7
STANDARD
 71
2
 72
1
 10
132.03125
 20
31.3515625
 30
0.0
 11
1.0
 21
0.0
 31
0.0
 44
0.9
  1
06-FEB-13
 40
1.5
 41
9.75
  0
LINE
  5
3D0
100
AcDbEntity
  8
0
100
AcDbLine
 62
2
  6
CONTINUOUS
 10
126.5625
 20
28.90625
 11
137.5
 21
28.90625
  0
LINE
  5
3D1
100
AcDbEntity
  8
0
100
AcDbLine
 62
2
  6
CONTINUOUS
 10
126.5625
 20
28.90625
 11
126.5625
 21
23.40625
  0
LINE
  5
3D2
100
AcDbEntity
  8
0
100
AcDbLine
 62
2
  6
CONTINUOUS
 10
126.5625
 20
23.40625
 11
137.5
 21
23.40625
  0
LINE
  5
3D3
100
AcDbEntity
  8
0
100
AcDbLine
 62
2
  6
CONTINUOUS
 10
137.5
 20
28.90625
 11
137.5
 21
23.40625
  0
MTEXT
  5
3D4
100
AcDbEntity
  8
0
100
AcDbMText
 62
2
  6
CONTINUOUS
  7
STANDARD
 71
2
 72
1
 10
132.03125
 20
25.8828125
 30
0.0
 11
1.0
 21
0.0
 31
0.0
 44
0.9
  1
-
 40
1.5
 41
1.0714285714
  0
LINE
  5
3D5
100
AcDbEntity
  8
0
100
AcDbLine
 62
2
  6
CONTINUOUS
 10
126.5625
 20
23.4375
 11
137.5
 21
23.4375
  0
LINE
  5
3D6
100
AcDbEntity
  8
0
100
AcDbLine
 62
2
  6
CONTINUOUS
 10
126.5625
 20
23.4375
 11
126.5625
 21
17.9375
  0
LINE
  5
3D7
100
AcDbEntity
  8
0
100
AcDbLine
 62
2
  6
CONTINUOUS
 10
126.5625
 20
17.9375
 11
137.5
 21
17.9375
  0
LINE
  5
3D8
100
AcDbEntity
  8
0
100
AcDbLine
 62
2
  6
CONTINUOUS
 10
137.5
 20
23.4375
 11
137.5
 21
17.9375
  0
MTEXT
  5
3D9
100
AcDbEntity
  8
0
100
AcDbMText
 62
2
  6
CONTINUOUS
  7
STANDARD
 71
2
 72
1
 10
132.03125
 20
20.4140625
 30
0.0
 11
1.0
 21
0.0
 31
0.0
 44
0.9
  1
-
 40
1.5
 41
1.0714285714
  0
LINE
  5
3DA
100
AcDbEntity
  8
0
100
AcDbLine
 62
2
  6
CONTINUOUS
 10
126.5625
 20
17.96875
 11
137.5
 21
17.96875
  0
LINE
  5
3DB
100
AcDbEntity
  8
0
100
AcDbLine
 62
2
  6
CONTINUOUS
 10
126.5625
 20
17.96875
 11
126.5625
 21
12.59765625
  0
LINE
  5
3DC
100
AcDbEntity
  8
0
100
AcDbLine
 62
2
  6
CONTINUOUS
 10
126.5625
 20
12.59765625
 11
137.5
 21
12.59765625
  0
LINE
  5
3DD
100
AcDbEntity
  8
0
100
AcDbLine
 62
2
  6
CONTINUOUS
 10
137.5
 20
17.96875
 11
137.5
 21
12.59765625
  0
MTEXT
  5
3DE
100
AcDbEntity
  8
0
100
AcDbMText
 62
2
  6
CONTINUOUS
  7
STANDARD
 71
2
 72
1
 10
132.03125
 20
15.07421875
 30
0.0
 11
1.0
 21
0.0
 31
0.0
 44
0.9
  1
-
 40
1.5
 41
1.0714285714
  0
LINE
  5
3DF
100
AcDbEntity
  8
0
100
AcDbLine
 62
2
  6
CONTINUOUS
 10
104.6875
 20
12.5
 11
137.5
 21
12.5
  0
LINE
  5
3E0
100
AcDbEntity
  8
0
100
AcDbLine
 62
2
  6
CONTINUOUS
 10
104.6875
 20
12.5
 11
104.6875
 21
9.375
  0
LINE
  5
3E1
100
AcDbEntity
  8
0
100
AcDbLine
 62
2
  6
CONTINUOUS
 10
104.6875
 20
9.375
 11
137.5
 21
9.375
  0
LINE
  5
3E2
100
AcDbEntity
  8
0
100
AcDbLine
 62
2
  6
CONTINUOUS
 10
137.5
 20
12.5
 11
137.5
 21
9.375
  0
MTEXT
  5
3E3
100
AcDbEntity
  8
0
100
AcDbMText
 62
2
  6
CONTINUOUS
  7
STANDARD
 71
3
 72
1
 10
136.71875
 20
11.7265625
 30
0.0
 11
1.0
 21
0.0
 31
0.0
 44
0.9
  1
FG-020012-2D.A.1
 40
1.375
 41
16.0744047619
  0
LINE
  5
3E4
100
AcDbEntity
  8
0
100
AcDbLine
 62
2
  6
CONTINUOUS
 10
104.6875
 20
9.375
 11
137.5
 21
9.375
  0
LINE
  5
3E5
100
AcDbEntity
  8
0
100
AcDbLine
 62
2
  6
CONTINUOUS
 10
104.6875
 20
9.375
 11
104.6875
 21
6.25
  0
LINE
  5
3E6
100
AcDbEntity
  8
0
100
AcDbLine
 62
2
  6
CONTINUOUS
 10
104.6875
 20
6.25
 11
137.5
 21
6.25
  0
LINE
  5
3E7
100
AcDbEntity
  8
0
100
AcDbLine
 62
2
  6
CONTINUOUS
 10
137.5
 20
9.375
 11
137.5
 21
6.25
  0
MTEXT
  5
3E8
100
AcDbEntity
  8
0
100
AcDbMText
 62
2
  6
CONTINUOUS
  7
STANDARD
 71
3
 72
1
 10
136.71875
 20
8.6015625
 30
0.0
 11
1.0
 21
0.0
 31
0.0
 44
0.9
  1
FG-020012-3D.A.1
 40
1.375
 41
15.9761904762
  0
LINE
  5
3E9
100
AcDbEntity
  8
0
100
AcDbLine
 62
2
  6
CONTINUOUS
 10
137.5
 20
29.6875
 11
200.0
 21
29.6875
  0
LINE
  5
3EA
100
AcDbEntity
  8
0
100
AcDbLine
 62
2
  6
CONTINUOUS
 10
137.5
 20
29.6875
 11
137.5
 21
15.625
  0
LINE
  5
3EB
100
AcDbEntity
  8
0
100
AcDbLine
 62
2
  6
CONTINUOUS
 10
137.5
 20
15.625
 11
200.0
 21
15.625
  0
LINE
  5
3EC
100
AcDbEntity
  8
0
100
AcDbLine
 62
2
  6
CONTINUOUS
 10
200.0
 20
29.6875
 11
200.0
 21
15.625
  0
MTEXT
  5
3ED
100
AcDbEntity
  8
0
100
AcDbMText
 62
2
  6
CONTINUOUS
  7
STANDARD
 71
2
 72
1
 10
168.75
 20
24.34375
 30
0.0
 11
1.0
 21
0.0
 31
0.0
 44
1.02
  1
SPEAKER FINISHED, S12
 40
2.5
 41
39.2261904762
  0
LINE
  5
3EE
100
AcDbEntity
  8
0
100
AcDbLine
 62
2
  6
CONTINUOUS
 10
137.5136537868
 20
15.5992558437
 11
143.7636537868
 21
15.5992558437
  0
LINE
  5
3EF
100
AcDbEntity
  8
0
100
AcDbLine
 62
2
  6
CONTINUOUS
 10
137.5136537868
 20
15.5992558437
 11
137.5136537868
 21
9.3492558437
  0
LINE
  5
3F0
100
AcDbEntity
  8
0
100
AcDbLine
 62
2
  6
CONTINUOUS
 10
137.5136537868
 20
9.3492558437
 11
143.7636537868
 21
9.3492558437
  0
LINE
  5
3F1
100
AcDbEntity
  8
0
100
AcDbLine
 62
2
  6
CONTINUOUS
 10
143.7636537868
 20
15.5992558437
 11
143.7636537868
 21
9.3492558437
  0
MTEXT
  5
3F2
100
AcDbEntity
  8
0
100
AcDbMText
 62
2
  6
CONTINUOUS
  7
STANDARD
 71
2
 72
1
 10
140.6386537868
 20
12.8258183437
 30
0.0
 11
1.0
 21
0.0
 31
0.0
 44
0.9
  1
B
 40
2.5
 41
1.9642857143
  0
LINE
  5
3F3
100
AcDbEntity
  8
0
100
AcDbLine
 62
2
  6
CONTINUOUS
 10
156.2564687199
 20
15.562182364
 11
193.7564687199
 21
15.562182364
  0
LINE
  5
3F4
100
AcDbEntity
  8
0
100
AcDbLine
 62
2
  6
CONTINUOUS
 10
156.2564687199
 20
15.562182364
 11
156.2564687199
 21
9.312182364
  0
LINE
  5
3F5
100
AcDbEntity
  8
0
100
AcDbLine
 62
2
  6
CONTINUOUS
 10
156.2564687199
 20
9.312182364
 11
193.7564687199
 21
9.312182364
  0
LINE
  5
3F6
100
AcDbEntity
  8
0
100
AcDbLine
 62
2
  6
CONTINUOUS
 10
193.7564687199
 20
15.562182364
 11
193.7564687199
 21
9.312182364
  0
MTEXT
  5
3F7
100
AcDbEntity
  8
0
100
AcDbMText
 62
2
  6
CONTINUOUS
  7
STANDARD
 71
2
 72
1
 10
175.0064687199
 20
13.163744864
 30
0.0
 11
1.0
 21
0.0
 31
0.0
 44
0.9
  1
FG-020012-2D
 40
2.875
 41
26.2172619048
  0
LINE
  5
3F8
100
AcDbEntity
  8
0
100
AcDbLine
 62
2
  6
CONTINUOUS
 10
193.7337487033
 20
15.6035977827
 11
199.9837487033
 21
15.6035977827
  0
LINE
  5
3F9
100
AcDbEntity
  8
0
100
AcDbLine
 62
2
  6
CONTINUOUS
 10
193.7337487033
 20
15.6035977827
 11
193.7337487033
 21
9.3535977827
  0
LINE
  5
3FA
100
AcDbEntity
  8
0
100
AcDbLine
 62
2
  6
CONTINUOUS
 10
193.7337487033
 20
9.3535977827
 11
199.9837487033
 21
9.3535977827
  0
LINE
  5
3FB
100
AcDbEntity
  8
0
100
AcDbLine
 62
2
  6
CONTINUOUS
 10
199.9837487033
 20
15.6035977827
 11
199.9837487033
 21
9.3535977827
  0
MTEXT
  5
3FC
100
AcDbEntity
  8
0
100
AcDbMText
 62
2
  6
CONTINUOUS
  7
STANDARD
 71
2
 72
1
 10
196.8587487033
 20
12.5801602827
 30
0.0
 11
1.0
 21
0.0
 31
0.0
 44
0.9
  1
A
 40
2.25
 41
1.9285714286
  0
LINE
  5
3FD
100
AcDbEntity
  8
0
100
AcDbLine
 62
2
  6
CONTINUOUS
 10
179.6952577421
 20
9.2866110454
 11
200.0077577421
 21
9.2866110454
  0
LINE
  5
3FE
100
AcDbEntity
  8
0
100
AcDbLine
 62
2
  6
CONTINUOUS
 10
179.6952577421
 20
9.2866110454
 11
179.6952577421
 21
6.1616110454
  0
LINE
  5
3FF
100
AcDbEntity
  8
0
100
AcDbLine
 62
2
  6
CONTINUOUS
 10
179.6952577421
 20
6.1616110454
 11
200.0077577421
 21
6.1616110454
  0
LINE
  5
400
100
AcDbEntity
  8
0
100
AcDbLine
 62
2
  6
CONTINUOUS
 10
200.0077577421
 20
9.2866110454
 11
200.0077577421
 21
6.1616110454
  0
MTEXT
  5
401
100
AcDbEntity
  8
0
100
AcDbMText
 62
2
  6
CONTINUOUS
  7
STANDARD
 71
3
 72
1
 10
199.2265077421
 20
8.8881735454
 30
0.0
 11
1.0
 21
0.0
 31
0.0
 44
0.9
  1
1 OF 1
 40
1.75
 41
7.375
  0
LINE
  5
402
100
AcDbEntity
  8
0
100
AcDbLine
 62
2
  6
CONTINUOUS
 10
137.4782476513
 20
9.3602902114
 11
152.3282476513
 21
9.3602902114
  0
LINE
  5
403
100
AcDbEntity
  8
0
100
AcDbLine
 62
2
  6
CONTINUOUS
 10
137.4782476513
 20
9.3602902114
 11
137.4782476513
 21
6.1864620864
  0
LINE
  5
404
100
AcDbEntity
  8
0
100
AcDbLine
 62
2
  6
CONTINUOUS
 10
137.4782476513
 20
6.1864620864
 11
152.3282476513
 21
6.1864620864
  0
LINE
  5
405
100
AcDbEntity
  8
0
100
AcDbLine
 62
2
  6
CONTINUOUS
 10
152.3282476513
 20
9.3602902114
 11
152.3282476513
 21
6.1864620864
  0
MTEXT
  5
406
100
AcDbEntity
  8
0
100
AcDbMText
 62
2
  6
CONTINUOUS
  7
STANDARD
 71
3
 72
1
 10
151.5469976513
 20
8.6630245864
 30
0.0
 11
1.0
 21
0.0
 31
0.0
 44
0.9
  1
0.080
 40
1.5
 41
5.5714285714
  0
LWPOLYLINE
  5
407
100
AcDbEntity
  8
0
100
AcDbPolyline
 62
2
  6
CONTINUOUS
 90
2
 70
0
 43
0.25
 10
200.0463502762
 20
131.2584014409
 10
74.0151002762
 20
131.2584014409
  0
LWPOLYLINE
  5
408
100
AcDbEntity
  8
0
100
AcDbPolyline
 62
2
  6
CONTINUOUS
 90
2
 70
0
 43
0.25
 10
199.9213502762
 20
131.2584014409
 10
199.9213502762
 20
119.5396514409
  0
LWPOLYLINE
  5
409
100
AcDbEntity
  8
0
100
AcDbPolyline
 62
2
  6
CONTINUOUS
 90
2
 70
0
 43
0.25
 10
199.9213502762
 20
127.3521514409
 10
74.1401002762
 20
127.3521514409
  0
LWPOLYLINE
  5
40A
100
AcDbEntity
  8
0
100
AcDbPolyline
 62
2
  6
CONTINUOUS
 90
2
 70
0
 43
0.25
 10
199.9213502762
 20
123.4459014409
 10
74.1401002762
 20
123.4459014409
  0
LWPOLYLINE
  5
40B
100
AcDbEntity
  8
0
100
AcDbPolyline
 62
2
  6
CONTINUOUS
 90
2
 70
0
 43
0.25
 10
200.0463502762
 20
119.5396514409
 10
74.0151002762
 20
119.5396514409
  0
LWPOLYLINE
  5
40C
100
AcDbEntity
  8
0
100
AcDbPolyline
 62
2
  6
CONTINUOUS
 90
2
 70
0
 43
0.25
 10
190.5463502762
 20
127.3521514409
 10
190.5463502762
 20
119.5396514409
  0
LWPOLYLINE
  5
40D
100
AcDbEntity
  8
0
100
AcDbPolyline
 62
2
  6
CONTINUOUS
 90
2
 70
0
 43
0.25
 10
176.4838502762
 20
127.3521514409
 10
176.4838502762
 20
119.5396514409
  0
LWPOLYLINE
  5
40E
100
AcDbEntity
  8
0
100
AcDbPolyline
 62
2
  6
CONTINUOUS
 90
2
 70
0
 43
0.25
 10
170.2338502762
 20
127.3521514409
 10
170.2338502762
 20
119.5396514409
  0
LWPOLYLINE
  5
40F
100
AcDbEntity
  8
0
100
AcDbPolyline
 62
2
  6
CONTINUOUS
 90
2
 70
0
 43
0.25
 10
90.5463502762
 20
127.3521514409
 10
90.5463502762
 20
119.5396514409
  0
LWPOLYLINE
  5
410
100
AcDbEntity
  8
0
100
AcDbPolyline
 62
2
  6
CONTINUOUS
 90
2
 70
0
 43
0.25
 10
80.3901002762
 20
127.3521514409
 10
80.3901002762
 20
119.5396514409
  0
LWPOLYLINE
  5
411
100
AcDbEntity
  8
0
100
AcDbPolyline
 62
2
  6
CONTINUOUS
 90
2
 70
0
 43
0.25
 10
74.1401002762
 20
131.2584014409
 10
74.1401002762
 20
119.5396514409
  0
MTEXT
  5
412
100
AcDbEntity
  8
0
100
AcDbMText
 62
2
  6
CONTINUOUS
  7
STANDARD
 71
2
 72
1
 10
137.0307252762
 20
130.2818389409
 30
0.0
 11
1.0
 21
0.0
 31
0.0
 44
0.9
  1
REVISIONS
 40
1.953125
 41
13.2068452381
  0
MTEXT
  5
413
100
AcDbEntity
  8
0
100
AcDbMText
 62
2
  6
CONTINUOUS
  7
STANDARD
 71
2
 72
1
 10
195.2338502762
 20
126.3740264409
 30
0.0
 11
1.0
 21
0.0
 31
0.0
 44
0.9
  1
ISSUED
 40
1.95
 41
9.0071428571
  0
MTEXT
  5
414
100
AcDbEntity
  8
0
100
AcDbMText
 62
2
  6
CONTINUOUS
  7
STANDARD
 71
2
 72
1
 10
183.5151002762
 20
126.3740264409
 30
0.0
 11
1.0
 21
0.0
 31
0.0
 44
0.9
  1
EFF DATE
 40
1.95
 41
12.2107142857
  0
MTEXT
  5
415
100
AcDbEntity
  8
0
100
AcDbMText
 62
2
  6
CONTINUOUS
  7
STANDARD
 71
2
 72
1
 10
173.3588502762
 20
126.3755889409
 30
0.0
 11
1.0
 21
0.0
 31
0.0
 44
0.9
  1
BY
 40
1.953125
 41
3.2087053571
  0
MTEXT
  5
416
100
AcDbEntity
  8
0
100
AcDbMText
 62
2
  6
CONTINUOUS
  7
STANDARD
 71
2
 72
1
 10
130.3901002762
 20
126.3740264409
 30
0.0
 11
1.0
 21
0.0
 31
0.0
 44
0.9
  1
DESCRIPTION
 40
1.95
 41
16.6214285714
  0
MTEXT
  5
417
100
AcDbEntity
  8
0
100
AcDbMText
 62
2
  6
CONTINUOUS
  7
STANDARD
 71
2
 72
1
 10
85.4682252762
 20
126.3755889409
 30
0.0
 11
1.0
 21
0.0
 31
0.0
 44
0.9
  1
ECO
 40
1.953125
 41
4.5572916667
  0
MTEXT
  5
418
100
AcDbEntity
  8
0
100
AcDbMText
 62
2
  6
CONTINUOUS
  7
STANDARD
 71
2
 72
1
 10
77.2651002762
 20
126.3740264409
 30
0.0
 11
1.0
 21
0.0
 31
0.0
 44
0.9
  1
REV
 40
1.95
 41
4.55
  0
MTEXT
  5
419
100
AcDbEntity
  8
0
100
AcDbMText
 62
2
  6
CONTINUOUS
  7
STANDARD
 71
2
 72
1
 10
195.2338502762
 20
122.4693389409
 30
0.0
 11
1.0
 21
0.0
 31
0.0
 44
0.9
  1
-
 40
1.953125
 41
1.3950892857
  0
MTEXT
  5
41A
100
AcDbEntity
  8
0
100
AcDbMText
 62
2
  6
CONTINUOUS
  7
STANDARD
 71
2
 72
1
 10
183.5151002762
 20
122.4693389409
 30
0.0
 11
1.0
 21
0.0
 31
0.0
 44
0.9
  1
-
 40
1.953125
 41
1.3950892857
  0
MTEXT
  5
41B
100
AcDbEntity
  8
0
100
AcDbMText
 62
2
  6
CONTINUOUS
  7
STANDARD
 71
2
 72
1
 10
173.3588502762
 20
122.4693389409
 30
0.0
 11
1.0
 21
0.0
 31
0.0
 44
0.9
  1
DNS
 40
1.953125
 41
5.2083333333
  0
MTEXT
  5
41C
100
AcDbEntity
  8
0
100
AcDbMText
 62
2
  6
CONTINUOUS
  7
STANDARD
 71
1
 72
1
 10
91.3276002762
 20
122.4693389409
 30
0.0
 11
1.0
 21
0.0
 31
0.0
 44
0.9
  1
RELEASE
 40
1.953125
 41
10.5561755952
  0
MTEXT
  5
41D
100
AcDbEntity
  8
0
100
AcDbMText
 62
2
  6
CONTINUOUS
  7
STANDARD
 71
2
 72
1
 10
85.4682252762
 20
122.4693389409
 30
0.0
 11
1.0
 21
0.0
 31
0.0
 44
0.9
  1
-
 40
1.953125
 41
1.3950892857
  0
MTEXT
  5
41E
100
AcDbEntity
  8
0
100
AcDbMText
 62
2
  6
CONTINUOUS
  7
STANDARD
 71
2
 72
1
 10
77.2651002762
 20
122.4693389409
 30
0.0
 11
1.0
 21
0.0
 31
0.0
 44
0.9
  1
A
 40
1.953125
 41
2.0461309524
  0
MTEXT
  5
41F
100
AcDbEntity
  8
0
100
AcDbMText
 62
2
  6
CONTINUOUS
  7
STANDARD
 71
1
 72
1
 10
8.5947936546
 20
37.0151479008
 30
0.0
 11
1.0
 21
0.0
 31
0.0
 44
1.2
  3
5. PARTS ARE SYMMETRICAL ABOUT CENTER LINES \P   UNLESS OTHERWISE NOTED.\P4. SYMBOL    INDICATES CENTER OF BALANCE.\P3. SYMBOL \Fgdt;{\Fgdt;r}\Ftxt; INDICATES SUSPENSION POINT, \P   4 TOTAL:  M10-1.5 THD. \P2. TOLERANCES (MM): X \Fgdt;{\Fgdt;`}\Ftxt;
  1
 5, ANGLES: \Fgdt;{\Fgdt;`}\Ftxt; 1\Fgdt;{\Fgdt;~}\Ftxt;.\P1. NET WEIGHT APPROX. 16.0 KG (35 LBS)\PNOTE:  UNLESS OTHERWISE SPECIFIED
 40
1.953125
 41
67.2433035714
  0
MTEXT
  5
420
100
AcDbEntity
  8
0
100
AcDbMText
 62
2
  6
CONTINUOUS
  7
TEXTSTYLE_1
 71
1
 72
1
 10
40.3780363446
 20
114.1545689246
 30
0.0
 11
1.0
 21
0.0
 31
0.0
 44
0.9
  1
{\Fgdt;r}
 40
1.953125
 41
3.90625
  0
MTEXT
  5
421
100
AcDbEntity
  8
0
100
AcDbMText
 62
2
  6
CONTINUOUS
  7
STANDARD
 71
3
 72
1
 10
191.6219546073
 20
77.7928500226
 30
0.0
 11
1.0
 21
0.0
 31
0.0
 44
0.9
  1
SCALE  0.080
 40
1.953125
 41
17.810639881
  0
MTEXT
  5
422
100
AcDbEntity
  8
0
100
AcDbMText
 62
2
  6
CONTINUOUS
  7
TEXTSTYLE_1
 71
1
 72
1
 10
45.2488247873
 20
58.8914024266
 30
0.0
 11
1.0
 21
0.0
 31
0.0
 44
0.9
  1
{\Fgdt;r}
 40
1.953125
 41
3.90625
  0
MTEXT
  5
423
100
AcDbEntity
  8
0
100
AcDbMText
 62
2
  6
CONTINUOUS
  7
TEXTSTYLE_1
 71
1
 72
1
 10
35.4681486221
 20
58.8615451855
 30
0.0
 11
1.0
 21
0.0
 31
0.0
 44
0.9
  1
{\Fgdt;r}
 40
1.953125
 41
3.90625
  0
MTEXT
  5
424
100
AcDbEntity
  8
0
100
AcDbMText
 62
2
  6
CONTINUOUS
  7
TEXTSTYLE_1
 71
1
 72
1
 10
40.3937979884
 20
56.5608705229
 30
0.0
 11
1.0
 21
0.0
 31
0.0
 44
0.9
  1
{\Fgdt;r}
 40
1.953125
 41
3.90625
  0
INSERT
  5
425
100
AcDbEntity
  8
0
100
AcDbBlockReference
 62
2
  6
CONTINUOUS
  2
SYMBOL_6_BL1
 10
25.3276197121
 20
28.2699383809
  0
INSERT
  5
426
100
AcDbEntity
  8
0
100
AcDbBlockReference
 62
2
  6
CONTINUOUS
  2
SYMBOL_8_BL2
 10
42.15704078
 20
82.8241518241
  0
INSERT
  5
427
100
AcDbEntity
  8
0
100
AcDbBlockReference
 62
2
  6
CONTINUOUS
  2
SYMBOL_7_BL3
 10
84.2988506858
 20
82.8328966464
  0
INSERT
  5
428
100
AcDbEntity
  8
0
100
AcDbBlockReference
 62
2
  6
CONTINUOUS
  2
SYMBOL_9_BL4
 10
140.3858090466
 20
82.8192091174
  0
LINE
  5
429
100
AcDbEntity
  8
DEFAULT_3
100
AcDbLine
 62
7
  6
PHANTOM
 10
-0.0000242735
 20
-0.0
 11
-0.0000242735
 21
137.4997886578
  0
LWPOLYLINE
  5
42A
100
AcDbEntity
  8
0
100
AcDbPolyline
 62
7
  6
CONTINUOUS
 90
2
 70
0
 43
0.2500000104
 10
3.2813555267
 20
66.6419167337
 10
3.2813555267
 20
70.8582889671
  0
LWPOLYLINE
  5
42B
100
AcDbEntity
  8
0
100
AcDbPolyline
 62
7
  6
CONTINUOUS
 90
2
 70
0
 43
0.375000003
 10
6.2483424588
 20
131.2454273624
 10
6.2483424588
 20
6.25
  0
LINE
  5
42C
100
AcDbEntity
  8
DEFAULT_3
100
AcDbLine
 62
7
  6
PHANTOM
 10
-0.0000242735
 20
-0.0
 11
212.5
 21
-0.0
  0
LINE
  5
42D
100
AcDbEntity
  8
DEFAULT_1
100
AcDbLine
 62
8
  6
CENTER
 10
42.156260265
 20
124.2261945749
 11
42.1617649018
 21
105.9073440459
  0
LWPOLYLINE
  5
42E
100
AcDbEntity
  8
0
100
AcDbPolyline
 62
7
  6
CONTINUOUS
 90
2
 70
0
 43
0.375000003
 10
44.3884824385
 20
131.3241710245
 10
44.3884824385
 20
125.0741710245
  0
LINE
  5
42F
100
AcDbEntity
  8
DEFAULT_1
100
AcDbLine
 62
8
  6
CENTER
 10
42.1013662495
 20
68.9708499089
 11
42.1516193915
 21
96.6748341409
  0
LINE
  5
430
100
AcDbEntity
  8
DEFAULT_1
100
AcDbLine
 62
8
  6
CENTER
 10
42.1898499376
 20
64.1209483109
 11
42.1268560759
 21
43.9698336658
  0
LWPOLYLINE
  5
431
100
AcDbEntity
  8
0
100
AcDbPolyline
 62
7
  6
CONTINUOUS
 90
2
 70
0
 43
0.2500000104
 10
101.0171982503
 20
3.2867921432
 10
105.2335704837
 20
3.2867921432
  0
LWPOLYLINE
  5
432
100
AcDbEntity
  8
0
100
AcDbPolyline
 62
7
  6
CONTINUOUS
 90
2
 70
0
 43
0.375000003
 10
6.2483424588
 20
6.25
 10
200.0
 20
6.25
  0
LWPOLYLINE
  5
433
100
AcDbEntity
  8
0
100
AcDbPolyline
 62
7
  6
CONTINUOUS
 90
2
 70
0
 43
0.2500000104
 10
104.6875
 20
9.375
 10
200.0
 20
9.375
  0
LWPOLYLINE
  5
434
100
AcDbEntity
  8
0
100
AcDbPolyline
 62
7
  6
CONTINUOUS
 90
2
 70
0
 43
0.2500000104
 10
54.6863491829
 20
6.2491931605
 10
54.6863491829
 20
-0.0008068395
  0
LWPOLYLINE
  5
435
100
AcDbEntity
  8
0
100
AcDbPolyline
 62
7
  6
CONTINUOUS
 90
2
 70
0
 43
0.2500000104
 10
54.6871223014
 20
131.2474033992
 10
54.6871223014
 20
137.4974033992
  0
LWPOLYLINE
  5
436
100
AcDbEntity
  8
0
100
AcDbPolyline
 62
7
  6
CONTINUOUS
 90
2
 70
0
 43
0.2500000104
 10
6.2505715002
 20
68.7501028504
 10
3.2813555267
 20
66.6419167337
  0
LINE
  5
437
100
AcDbEntity
  8
0
100
AcDbLine
 62
7
  6
CONTINUOUS
 10
104.67467302
 20
14.011075104
 11
76.5992898139
 21
6.3419209055
  0
LWPOLYLINE
  5
438
100
AcDbEntity
  8
0
100
AcDbPolyline
 62
7
  6
CONTINUOUS
 90
2
 70
0
 43
0.2500000104
 10
104.6875
 20
12.5
 10
137.5
 20
12.5
  0
LWPOLYLINE
  5
439
100
AcDbEntity
  8
0
100
AcDbPolyline
 62
7
  6
CONTINUOUS
 90
2
 70
0
 43
0.2500000104
 10
104.6875
 20
14.0625
 10
76.5625
 20
14.0625
  0
LWPOLYLINE
  5
43A
100
AcDbEntity
  8
0
100
AcDbPolyline
 62
7
  6
CONTINUOUS
 90
2
 70
0
 43
0.2500000104
 10
137.5
 20
15.625
 10
200.0
 20
15.625
  0
LWPOLYLINE
  5
43B
100
AcDbEntity
  8
0
100
AcDbPolyline
 62
7
  6
CONTINUOUS
 90
2
 70
0
 43
0.2500000104
 10
6.2505715002
 20
68.7501028504
 10
3.2813555267
 20
70.8582889671
  0
LINE
  5
43C
100
AcDbEntity
  8
0
100
AcDbLine
 62
7
  6
CONTINUOUS
 10
104.6389340887
 20
21.8131220658
 11
76.5635508826
 21
14.1439678674
  0
LWPOLYLINE
  5
43D
100
AcDbEntity
  8
0
100
AcDbPolyline
 62
7
  6
CONTINUOUS
 90
2
 70
0
 43
0.2500000104
 10
104.6875
 20
17.96875
 10
137.5
 20
17.96875
  0
LWPOLYLINE
  5
43E
100
AcDbEntity
  8
0
100
AcDbPolyline
 62
7
  6
CONTINUOUS
 90
2
 70
0
 43
0.2500000104
 10
76.5625
 20
21.875
 10
104.6875
 20
21.875
  0
LWPOLYLINE
  5
43F
100
AcDbEntity
  8
0
100
AcDbPolyline
 62
7
  6
CONTINUOUS
 90
2
 70
0
 43
0.2500000104
 10
104.6875
 20
23.4375
 10
137.5
 20
23.4375
  0
LWPOLYLINE
  5
440
100
AcDbEntity
  8
0
100
AcDbPolyline
 62
7
  6
CONTINUOUS
 90
2
 70
0
 43
0.2500000104
 10
103.1211268617
 20
131.2504896084
 10
105.2293129783
 20
134.2197055819
  0
LWPOLYLINE
  5
441
100
AcDbEntity
  8
0
100
AcDbPolyline
 62
7
  6
CONTINUOUS
 90
2
 70
0
 43
0.2500000104
 10
104.6875
 20
28.90625
 10
137.5
 20
28.90625
  0
LWPOLYLINE
  5
442
100
AcDbEntity
  8
0
100
AcDbPolyline
 62
7
  6
CONTINUOUS
 90
2
 70
0
 43
0.2500000104
 10
137.5
 20
29.6875
 10
200.0
 20
29.6875
  0
LINE
  5
443
100
AcDbEntity
  8
0
100
AcDbLine
 62
7
  6
CONTINUOUS
 10
76.5635508826
 20
38.3175006918
 11
104.6389340887
 21
21.8131220658
  0
LWPOLYLINE
  5
444
100
AcDbEntity
  8
0
100
AcDbPolyline
 62
7
  6
CONTINUOUS
 90
2
 70
0
 43
0.2500000104
 10
103.125384367
 20
6.2560081167
 10
105.2335704837
 20
3.2867921432
  0
LWPOLYLINE
  5
445
100
AcDbEntity
  8
0
100
AcDbPolyline
 62
7
  6
CONTINUOUS
 90
2
 70
0
 43
0.2500000104
 10
76.5625
 20
6.25
 10
76.5625
 20
38.28125
  0
LWPOLYLINE
  5
446
100
AcDbEntity
  8
0
100
AcDbPolyline
 62
7
  6
CONTINUOUS
 90
2
 70
0
 43
0.2500000104
 10
104.6875
 20
34.375
 10
137.5
 20
34.375
  0
LWPOLYLINE
  5
447
100
AcDbEntity
  8
0
100
AcDbPolyline
 62
7
  6
CONTINUOUS
 90
2
 70
0
 43
0.2500000104
 10
6.2497081055
 20
37.497961047
 10
-0.0002918945
 20
37.497961047
  0
LWPOLYLINE
  5
448
100
AcDbEntity
  8
0
100
AcDbPolyline
 62
7
  6
CONTINUOUS
 90
2
 70
0
 43
0.2500000104
 10
200.1194765173
 20
37.4980803954
 10
206.3694765173
 20
37.4980803954
  0
LWPOLYLINE
  5
449
100
AcDbEntity
  8
0
100
AcDbPolyline
 62
7
  6
CONTINUOUS
 90
2
 70
0
 43
0.2500000104
 10
76.5625
 20
38.28125
 10
200.0
 20
38.28125
  0
LWPOLYLINE
  5
44A
100
AcDbEntity
  8
0
100
AcDbPolyline
 62
7
  6
CONTINUOUS
 90
2
 70
0
 43
0.2500000104
 10
103.1211268617
 20
131.2504896084
 10
103.1211268617
 20
137.5004896084
  0
LWPOLYLINE
  5
44B
100
AcDbEntity
  8
0
100
AcDbPolyline
 62
7
  6
CONTINUOUS
 90
2
 70
0
 43
0.2500000104
 10
103.125384367
 20
6.2560081167
 10
103.125384367
 20
0.0060081167
  0
LWPOLYLINE
  5
44C
100
AcDbEntity
  8
0
100
AcDbPolyline
 62
7
  6
CONTINUOUS
 90
2
 70
0
 43
0.2500000104
 10
104.6875
 20
6.25
 10
104.6875
 20
38.28125
  0
LWPOLYLINE
  5
44D
100
AcDbEntity
  8
0
100
AcDbPolyline
 62
7
  6
CONTINUOUS
 90
2
 70
0
 43
0.2500000104
 10
200.0429725613
 20
68.7498514772
 10
206.2929725613
 20
68.7498514772
  0
LWPOLYLINE
  5
44E
100
AcDbEntity
  8
0
100
AcDbPolyline
 62
7
  6
CONTINUOUS
 90
2
 70
0
 43
0.2500000104
 10
6.2505715002
 20
68.7501028504
 10
0.0005715002
 20
68.7501028504
  0
LINE
  5
44F
100
AcDbEntity
  8
DEFAULT_1
100
AcDbLine
 62
8
  6
CENTER
 10
78.4795819549
 20
83.902774469
 11
96.4816421355
 21
83.9141933175
  0
LINE
  5
450
100
AcDbEntity
  8
DEFAULT_1
100
AcDbLine
 62
8
  6
CENTER
 10
126.9529541336
 20
83.9088831665
 11
143.1858709231
 21
83.906298925
  0
LWPOLYLINE
  5
451
100
AcDbEntity
  8
0
100
AcDbPolyline
 62
7
  6
CONTINUOUS
 90
2
 70
0
 43
0.2500000104
 10
126.5625
 20
12.5
 10
126.5625
 20
38.28125
  0
LINE
  5
452
100
AcDbEntity
  8
0
100
AcDbLine
 62
7
  6
CONTINUOUS
 10
104.6389340887
 20
38.2278029819
 11
76.6083997376
 21
21.9476686307
  0
LWPOLYLINE
  5
453
100
AcDbEntity
  8
0
100
AcDbPolyline
 62
7
  6
CONTINUOUS
 90
2
 70
0
 43
0.2500000104
 10
137.5
 20
6.25
 10
137.5
 20
38.28125
  0
LINE
  5
454
100
AcDbEntity
  8
DEFAULT_1
100
AcDbLine
 62
8
  6
CENTER
 10
140.3825691971
 20
96.2737635835
 11
140.3850173317
 21
70.980458876
  0
LWPOLYLINE
  5
455
100
AcDbEntity
  8
0
100
AcDbPolyline
 62
7
  6
CONTINUOUS
 90
2
 70
0
 43
0.2500000104
 10
143.75
 20
9.375
 10
143.75
 20
15.625
  0
LWPOLYLINE
  5
456
100
AcDbEntity
  8
0
100
AcDbPolyline
 62
7
  6
CONTINUOUS
 90
2
 70
0
 43
0.2500000104
 10
103.125384367
 20
6.2560081167
 10
101.0171982503
 20
3.2867921432
  0
LWPOLYLINE
  5
457
100
AcDbEntity
  8
0
100
AcDbPolyline
 62
7
  6
CONTINUOUS
 90
2
 70
0
 43
0.2500000104
 10
200.0566433459
 20
99.9960822939
 10
206.3066433459
 20
99.9960822939
  0
LWPOLYLINE
  5
458
100
AcDbEntity
  8
0
100
AcDbPolyline
 62
7
  6
CONTINUOUS
 90
2
 70
0
 43
0.2500000104
 10
6.2483408967
 20
99.9964881815
 10
-0.0016591033
 20
99.9964881815
  0
LWPOLYLINE
  5
459
100
AcDbEntity
  8
0
100
AcDbPolyline
 62
7
  6
CONTINUOUS
 90
2
 70
0
 43
0.2500000104
 10
103.1211268617
 20
131.2504896084
 10
101.012940745
 20
134.2197055819
  0
LWPOLYLINE
  5
45A
100
AcDbEntity
  8
0
100
AcDbPolyline
 62
7
  6
CONTINUOUS
 90
2
 70
0
 43
0.2500000104
 10
151.5589115025
 20
131.2678975009
 10
151.5589115025
 20
137.5178975009
  0
LWPOLYLINE
  5
45B
100
AcDbEntity
  8
0
100
AcDbPolyline
 62
7
  6
CONTINUOUS
 90
2
 70
0
 43
0.2500000104
 10
151.5623824403
 20
6.2459000518
 10
151.5623824403
 20
-0.0040999482
  0
LWPOLYLINE
  5
45C
100
AcDbEntity
  8
0
100
AcDbPolyline
 62
7
  6
CONTINUOUS
 90
2
 70
0
 43
0.2500000104
 10
152.2953620818
 20
6.3093769444
 10
152.2953620818
 20
9.4343769444
  0
LWPOLYLINE
  5
45D
100
AcDbEntity
  8
0
100
AcDbPolyline
 62
7
  6
CONTINUOUS
 90
2
 70
0
 43
0.2500000104
 10
156.25
 20
9.375
 10
156.25
 20
15.625
  0
LWPOLYLINE
  5
45E
100
AcDbEntity
  8
0
100
AcDbPolyline
 62
7
  6
CONTINUOUS
 90
2
 70
0
 43
0.2500000104
 10
200.0429725613
 20
68.7498514772
 10
203.0121885348
 20
70.8580375939
  0
LWPOLYLINE
  5
45F
100
AcDbEntity
  8
0
100
AcDbPolyline
 62
7
  6
CONTINUOUS
 90
2
 70
0
 43
0.375000003
 10
44.3884824385
 20
125.0741710245
 10
6.1072324385
 20
125.0741710245
  0
LWPOLYLINE
  5
460
100
AcDbEntity
  8
0
100
AcDbPolyline
 62
7
  6
CONTINUOUS
 90
2
 70
0
 43
0.2500000104
 10
200.0429725613
 20
68.7498514772
 10
203.0121885348
 20
66.6416653605
  0
LWPOLYLINE
  5
461
100
AcDbEntity
  8
0
100
AcDbPolyline
 62
7
  6
CONTINUOUS
 90
2
 70
0
 43
0.375000003
 10
200.0
 20
131.2454273624
 10
6.2483424588
 20
131.2454273624
  0
LWPOLYLINE
  5
462
100
AcDbEntity
  8
0
100
AcDbPolyline
 62
7
  6
CONTINUOUS
 90
2
 70
0
 43
0.2500000104
 10
101.012940745
 20
134.2197055819
 10
105.2293129783
 20
134.2197055819
  0
LWPOLYLINE
  5
463
100
AcDbEntity
  8
0
100
AcDbPolyline
 62
7
  6
CONTINUOUS
 90
2
 70
0
 43
0.2500000104
 10
179.6875
 20
6.25
 10
179.6875
 20
9.375
  0
LINE
  5
464
100
AcDbEntity
  8
DEFAULT_3
100
AcDbLine
 62
7
  6
PHANTOM
 10
-0.0000242735
 20
137.4997886578
 11
212.5001246084
 21
137.4997886578
  0
LWPOLYLINE
  5
465
100
AcDbEntity
  8
0
100
AcDbPolyline
 62
7
  6
CONTINUOUS
 90
2
 70
0
 43
0.2500000104
 10
193.75
 20
9.375
 10
193.75
 20
15.625
  0
LWPOLYLINE
  5
466
100
AcDbEntity
  8
0
100
AcDbPolyline
 62
7
  6
CONTINUOUS
 90
2
 70
0
 43
0.375000003
 10
200.0
 20
131.2454273624
 10
200.0
 20
6.25
  0
LWPOLYLINE
  5
467
100
AcDbEntity
  8
0
100
AcDbPolyline
 62
7
  6
CONTINUOUS
 90
2
 70
0
 43
0.2500000104
 10
203.0121885348
 20
66.6416653605
 10
203.0121885348
 20
70.8580375939
  0
LINE
  5
468
100
AcDbEntity
  8
DEFAULT_3
100
AcDbLine
 62
7
  6
PHANTOM
 10
212.5
 20
-0.0
 11
212.5
 21
137.4954273624
  0
LINE
  5
469
100
AcDbEntity
  8
3_AXES_OTHER
100
AcDbLine
 62
7
  6
CONTINUOUS
 10
36.2997720345
 20
72.1758302043
 11
37.7718684962
 21
72.1758302043
  0
LINE
  5
46A
100
AcDbEntity
  8
3_ALL_AXES
100
AcDbLine
 62
7
  6
CONTINUOUS
 10
37.7718684962
 20
72.1758302043
 11
46.5513960553
 21
72.1758302043
  0
LINE
  5
46B
100
AcDbEntity
  8
3_AXES_OTHER
100
AcDbLine
 62
7
  6
CONTINUOUS
 10
46.5513960553
 20
72.1758302043
 11
48.023492517
 21
72.1758302043
  0
LINE
  5
46C
100
AcDbEntity
  8
3_AXES_OTHER
100
AcDbLine
 62
7
  6
CONTINUOUS
 10
35.6923267391
 20
72.4514207555
 11
48.6309378124
 21
72.4514207555
  0
LINE
  5
46D
100
AcDbEntity
  8
3_ALL_AXES
100
AcDbLine
 62
7
  6
CONTINUOUS
 10
35.1924914871
 20
72.3726536148
 11
35.1924914871
 21
95.4435737229
  0
LINE
  5
46E
100
AcDbEntity
  8
3_AXES_OTHER
100
AcDbLine
 62
9
  6
CONTINUOUS
 10
35.2655271062
 20
72.3311419278
 11
35.2655271062
 21
95.48508541
  0
LINE
  5
46F
100
AcDbEntity
  8
3_AXES_OTHER
100
AcDbLine
 62
9
  6
CONTINUOUS
 10
35.5744356535
 20
72.2665598631
 11
35.5744356535
 21
95.5496674747
  0
LINE
  5
470
100
AcDbEntity
  8
3_AXES_OTHER
100
AcDbLine
 62
7
  6
CONTINUOUS
 10
35.6923267391
 20
72.4514207555
 11
35.6923267391
 21
95.3648065823
  0
LINE
  5
471
100
AcDbEntity
  8
3_AXES_OTHER
100
AcDbLine
 62
7
  6
CONTINUOUS
 10
36.4726558978
 20
86.1718931965
 11
36.4726558978
 21
94.872680598
  0
LINE
  5
472
100
AcDbEntity
  8
3_AXES_OTHER
100
AcDbLine
 62
7
  6
CONTINUOUS
 10
42.5046069035
 20
90.865261525
 11
47.8506086537
 21
94.872680598
  0
LINE
  5
473
100
AcDbEntity
  8
3_AXES_OTHER
100
AcDbLine
 62
7
  6
CONTINUOUS
 10
41.818657648
 20
90.1793122695
 11
36.4726558978
 21
86.1718931965
  0
LINE
  5
474
100
AcDbEntity
  8
3_AXES_OTHER
100
AcDbLine
 62
7
  6
CONTINUOUS
 10
37.7718684962
 20
72.1758302043
 11
37.7718684962
 21
72.4514207555
  0
LINE
  5
475
100
AcDbEntity
  8
3_AXES_OTHER
100
AcDbLine
 62
7
  6
CONTINUOUS
 10
37.7718684962
 20
95.3648065823
 11
37.7718684962
 21
95.6403971335
  0
LINE
  5
476
100
AcDbEntity
  8
3_AXES_OTHER
100
AcDbLine
 62
7
  6
CONTINUOUS
 10
47.8506086537
 20
86.1718931965
 11
36.4726558978
 21
86.1718931965
  0
LINE
  5
477
100
AcDbEntity
  8
3_AXES_OTHER
100
AcDbLine
 62
7
  6
CONTINUOUS
 10
46.5513960553
 20
72.1758302043
 11
46.5513960553
 21
72.4514207555
  0
LINE
  5
478
100
AcDbEntity
  8
3_AXES_OTHER
100
AcDbLine
 62
7
  6
CONTINUOUS
 10
46.5513960553
 20
95.3648065823
 11
46.5513960553
 21
95.6403971335
  0
LINE
  5
479
100
AcDbEntity
  8
3_AXES_OTHER
100
AcDbLine
 62
7
  6
CONTINUOUS
 10
42.5046069035
 20
90.1793122695
 11
47.8506086537
 21
86.1718931965
  0
LINE
  5
47A
100
AcDbEntity
  8
3_AXES_OTHER
100
AcDbLine
 62
7
  6
CONTINUOUS
 10
41.818657648
 20
90.865261525
 11
36.4726558978
 21
94.872680598
  0
LINE
  5
47B
100
AcDbEntity
  8
3_AXES_OTHER
100
AcDbLine
 62
7
  6
CONTINUOUS
 10
47.8506086537
 20
94.872680598
 11
47.8506086537
 21
86.1718931965
  0
LINE
  5
47C
100
AcDbEntity
  8
3_AXES_OTHER
100
AcDbLine
 62
7
  6
CONTINUOUS
 10
48.6309378124
 20
72.4514207555
 11
48.6309378124
 21
95.3648065823
  0
LINE
  5
47D
100
AcDbEntity
  8
3_AXES_OTHER
100
AcDbLine
 62
9
  6
CONTINUOUS
 10
48.748828898
 20
72.2665598631
 11
48.748828898
 21
95.5496674747
  0
LINE
  5
47E
100
AcDbEntity
  8
3_AXES_OTHER
100
AcDbLine
 62
9
  6
CONTINUOUS
 10
49.0577374453
 20
72.3311419278
 11
49.0577374453
 21
95.48508541
  0
LINE
  5
47F
100
AcDbEntity
  8
3_ALL_AXES
100
AcDbLine
 62
7
  6
CONTINUOUS
 10
49.1307730644
 20
72.3726536148
 11
49.1307730644
 21
95.4435737229
  0
LINE
  5
480
100
AcDbEntity
  8
3_AXES_OTHER
100
AcDbLine
 62
7
  6
CONTINUOUS
 10
36.4726558978
 20
94.872680598
 11
47.8506086537
 21
94.872680598
  0
LINE
  5
481
100
AcDbEntity
  8
3_AXES_OTHER
100
AcDbLine
 62
7
  6
CONTINUOUS
 10
35.6923267391
 20
95.3648065823
 11
48.6309378124
 21
95.3648065823
  0
LINE
  5
482
100
AcDbEntity
  8
3_AXES_OTHER
100
AcDbLine
 62
7
  6
CONTINUOUS
 10
36.2997720345
 20
95.6403971335
 11
37.7718684962
 21
95.6403971335
  0
LINE
  5
483
100
AcDbEntity
  8
3_ALL_AXES
100
AcDbLine
 62
7
  6
CONTINUOUS
 10
37.7718684962
 20
95.6403971335
 11
46.5513960553
 21
95.6403971335
  0
LINE
  5
484
100
AcDbEntity
  8
3_AXES_OTHER
100
AcDbLine
 62
7
  6
CONTINUOUS
 10
46.5513960553
 20
95.6403971335
 11
48.023492517
 21
95.6403971335
  0
LINE
  5
485
100
AcDbEntity
  8
3_ALL_AXES
100
AcDbLine
 62
7
  6
CONTINUOUS
 10
37.7718684962
 20
106.7872393511
 11
46.5513960553
 21
106.7872393511
  0
LINE
  5
486
100
AcDbEntity
  8
3_AXES_OTHER
100
AcDbLine
 62
7
  6
CONTINUOUS
 10
36.2997720345
 20
107.6927511621
 11
48.023492517
 21
107.6927511621
  0
LINE
  5
487
100
AcDbEntity
  8
3_AXES_OTHER
100
AcDbLine
 62
7
  6
CONTINUOUS
 10
39.9962779451
 20
123.6179480125
 11
39.9962779451
 21
122.633696044
  0
LINE
  5
488
100
AcDbEntity
  8
3_ALL_AXES
100
AcDbLine
 62
7
  6
CONTINUOUS
 10
40.7836795199
 20
122.633696044
 11
40.7836795199
 21
119.5037747841
  0
LINE
  5
489
100
AcDbEntity
  8
3_ALL_AXES
100
AcDbLine
 62
7
  6
CONTINUOUS
 10
43.5395850317
 20
122.633696044
 11
43.5395850317
 21
119.5037747841
  0
LINE
  5
48A
100
AcDbEntity
  8
3_AXES_OTHER
100
AcDbLine
 62
7
  6
CONTINUOUS
 10
44.3269866065
 20
123.6179480125
 11
44.3269866065
 21
122.633696044
  0
LINE
  5
48B
100
AcDbEntity
  8
3_AXES_OTHER
100
AcDbLine
 62
7
  6
CONTINUOUS
 10
46.3858448742
 20
119.5037747841
 11
37.9374196773
 21
119.5037747841
  0
LINE
  5
48C
100
AcDbEntity
  8
3_AXES_OTHER
100
AcDbLine
 62
7
  6
CONTINUOUS
 10
39.9962779451
 20
122.633696044
 11
44.3269866065
 21
122.633696044
  0
LINE
  5
48D
100
AcDbEntity
  8
3_AXES_OTHER
100
AcDbLine
 62
7
  6
CONTINUOUS
 10
39.9962779451
 20
123.6179480125
 11
44.3269866065
 21
123.6179480125
  0
LINE
  5
48E
100
AcDbEntity
  8
3_AXES_OTHER
100
AcDbLine
 62
7
  6
CONTINUOUS
 10
77.9426818561
 20
72.1758302043
 11
78.8481936671
 21
72.1758302043
  0
LINE
  5
48F
100
AcDbEntity
  8
3_AXES_OTHER
100
AcDbLine
 62
7
  6
CONTINUOUS
 10
77.9426818561
 20
72.4514207555
 11
79.5962251632
 21
72.4514207555
  0
LINE
  5
490
100
AcDbEntity
  8
3_AXES_OTHER
100
AcDbLine
 62
7
  6
CONTINUOUS
 10
78.8481936671
 20
72.1758302043
 11
90.6592172892
 21
73.3175624878
  0
LINE
  5
491
100
AcDbEntity
  8
3_AXES_OTHER
100
AcDbLine
 62
7
  6
CONTINUOUS
 10
77.9426818561
 20
72.1758302043
 11
77.9426818561
 21
72.4514207555
  0
LINE
  5
492
100
AcDbEntity
  8
3_AXES_OTHER
100
AcDbLine
 62
7
  6
CONTINUOUS
 10
77.9426818561
 20
95.3648065823
 11
77.9426818561
 21
95.6403971335
  0
LINE
  5
493
100
AcDbEntity
  8
3_AXES_OTHER
100
AcDbLine
 62
7
  6
CONTINUOUS
 10
79.5962251632
 20
72.4514207555
 11
79.5962251632
 21
95.3648065823
  0
LINE
  5
494
100
AcDbEntity
  8
3_AXES_OTHER
100
AcDbLine
 62
9
  6
CONTINUOUS
 10
79.7867763443
 20
72.2665598631
 11
79.7867763443
 21
95.5496674747
  0
LINE
  5
495
100
AcDbEntity
  8
3_AXES_OTHER
100
AcDbLine
 62
9
  6
CONTINUOUS
 10
80.4548666681
 20
72.3311419278
 11
80.4548666681
 21
95.48508541
  0
LINE
  5
496
100
AcDbEntity
  8
3_AXES_OTHER
100
AcDbLine
 62
9
  6
CONTINUOUS
 10
81.0003869038
 20
72.3838755505
 11
81.0003869038
 21
95.4323517872
  0
LINE
  5
497
100
AcDbEntity
  8
3_AXES_OTHER
100
AcDbLine
 62
7
  6
CONTINUOUS
 10
94.7733905175
 20
80.1864601256
 11
93.789138549
 21
80.1864601256
  0
LINE
  5
498
100
AcDbEntity
  8
3_ALL_AXES
100
AcDbLine
 62
7
  6
CONTINUOUS
 10
90.6592172892
 20
81.4463026453
 11
93.789138549
 21
81.4463026453
  0
LINE
  5
499
100
AcDbEntity
  8
3_ALL_AXES
100
AcDbLine
 62
7
  6
CONTINUOUS
 10
90.6592172892
 20
84.2022081571
 11
93.789138549
 21
84.2022081571
  0
LINE
  5
49A
100
AcDbEntity
  8
3_AXES_OTHER
100
AcDbLine
 62
7
  6
CONTINUOUS
 10
94.7733905175
 20
85.4620506768
 11
93.789138549
 21
85.4620506768
  0
LINE
  5
49B
100
AcDbEntity
  8
3_AXES_OTHER
100
AcDbLine
 62
7
  6
CONTINUOUS
 10
89.5842960293
 20
73.2136534327
 11
89.5842960293
 21
94.6025739051
  0
LINE
  5
49C
100
AcDbEntity
  8
3_AXES_OTHER
100
AcDbLine
 62
7
  6
CONTINUOUS
 10
90.6592172892
 20
73.3175624878
 11
90.6592172892
 21
94.49866485
  0
LINE
  5
49D
100
AcDbEntity
  8
3_AXES_OTHER
100
AcDbLine
 62
7
  6
CONTINUOUS
 10
93.789138549
 20
85.4620506768
 11
93.789138549
 21
80.1864601256
  0
LINE
  5
49E
100
AcDbEntity
  8
3_AXES_OTHER
100
AcDbLine
 62
7
  6
CONTINUOUS
 10
94.7733905175
 20
85.4620506768
 11
94.7733905175
 21
80.1864601256
  0
LINE
  5
49F
100
AcDbEntity
  8
3_AXES_OTHER
100
AcDbLine
 62
7
  6
CONTINUOUS
 10
77.9426818561
 20
95.3648065823
 11
79.5962251632
 21
95.3648065823
  0
LINE
  5
4A0
100
AcDbEntity
  8
3_AXES_OTHER
100
AcDbLine
 62
7
  6
CONTINUOUS
 10
78.8481936671
 20
95.6403971335
 11
90.6592172892
 21
94.49866485
  0
LINE
  5
4A1
100
AcDbEntity
  8
3_AXES_OTHER
100
AcDbLine
 62
7
  6
CONTINUOUS
 10
77.9426818561
 20
95.6403971335
 11
78.8481936671
 21
95.6403971335
  0
LINE
  5
4A2
100
AcDbEntity
  8
3_ALL_AXES
100
AcDbLine
 62
7
  6
CONTINUOUS
 10
174.6228706541
 20
85.493027994
 11
180.8309341267
 21
81.9078622612
  0
LINE
  5
4A3
100
AcDbEntity
  8
3_AXES_OTHER
100
AcDbLine
 62
7
  6
CONTINUOUS
 10
174.6228706541
 20
85.7180172677
 11
180.8309341267
 21
82.1328515349
  0
LINE
  5
4A4
100
AcDbEntity
  8
3_AXES_OTHER
100
AcDbLine
 62
7
  6
CONTINUOUS
 10
174.3216442613
 20
87.2424419659
 11
183.4706238904
 21
81.9588928526
  0
LINE
  5
4A5
100
AcDbEntity
  8
3_AXES_OTHER
100
AcDbLine
 62
7
  6
CONTINUOUS
 10
174.2222246915
 20
86.4657874066
 11
174.2222348055
 21
86.4639366959
  0
LINE
  5
4A6
100
AcDbEntity
  8
3_ALL_AXES
100
AcDbLine
 62
7
  6
CONTINUOUS
 10
174.2222338543
 20
105.6216913595
 11
174.2222338543
 21
105.3968651558
  0
LINE
  5
4A7
100
AcDbEntity
  8
3_ALL_AXES
100
AcDbLine
 62
7
  6
CONTINUOUS
 10
174.2222338543
 20
86.6906141127
 11
174.2222338543
 21
86.465787909
  0
LINE
  5
4A8
100
AcDbEntity
  8
3_AXES_OTHER
100
AcDbLine
 62
7
  6
CONTINUOUS
 10
174.2222348055
 20
105.6201662864
 11
174.2222246915
 21
105.6216918782
  0
LINE
  5
4A9
100
AcDbEntity
  8
3_AXES_OTHER
100
AcDbLine
 62
7
  6
CONTINUOUS
 10
174.3216442613
 20
87.2424419659
 11
174.3216442613
 21
104.8855593456
  0
LINE
  5
4AA
100
AcDbEntity
  8
3_AXES_OTHER
100
AcDbLine
 62
7
  6
CONTINUOUS
 10
174.6228706541
 20
85.493027994
 11
174.6228706541
 21
85.7180172677
  0
LINE
  5
4AB
100
AcDbEntity
  8
3_AXES_OTHER
100
AcDbLine
 62
7
  6
CONTINUOUS
 10
174.6228706541
 20
104.4242683108
 11
174.6228706541
 21
104.6492575845
  0
LINE
  5
4AC
100
AcDbEntity
  8
3_AXES_OTHER
100
AcDbLine
 62
7
  6
CONTINUOUS
 10
174.873420301
 20
98.1250421947
 11
174.873420301
 21
104.2795755234
  0
LINE
  5
4AD
100
AcDbEntity
  8
3_AXES_OTHER
100
AcDbLine
 62
7
  6
CONTINUOUS
 10
181.1670497129
 20
100.744635624
 11
174.873420301
 21
98.1250421947
  0
LINE
  5
4AE
100
AcDbEntity
  8
3_AXES_OTHER
100
AcDbLine
 62
7
  6
CONTINUOUS
 10
180.8309341267
 20
81.9078622612
 11
180.8309341267
 21
82.1328515349
  0
LINE
  5
4AF
100
AcDbEntity
  8
3_AXES_OTHER
100
AcDbLine
 62
7
  6
CONTINUOUS
 10
180.8309341267
 20
100.839102578
 11
180.8309341267
 21
101.0640918518
  0
LINE
  5
4B0
100
AcDbEntity
  8
3_AXES_OTHER
100
AcDbLine
 62
7
  6
CONTINUOUS
 10
182.9188478507
 20
93.4787960208
 11
174.873420301
 21
98.1250421947
  0
LINE
  5
4B1
100
AcDbEntity
  8
3_AXES_OTHER
100
AcDbLine
 62
7
  6
CONTINUOUS
 10
182.1505791984
 20
100.6202504546
 11
182.9188478507
 21
93.4787960208
  0
LINE
  5
4B2
100
AcDbEntity
  8
3_AXES_OTHER
100
AcDbLine
 62
7
  6
CONTINUOUS
 10
191.159147348
 20
100.535851715
 11
190.4631761067
 21
100.1339273055
  0
LINE
  5
4B3
100
AcDbEntity
  8
3_AXES_OTHER
100
AcDbLine
 62
7
  6
CONTINUOUS
 10
182.9188478507
 20
100.5820288053
 11
182.9188478507
 21
93.4787960208
  0
LINE
  5
4B4
100
AcDbEntity
  8
3_AXES_OTHER
100
AcDbLine
 62
7
  6
CONTINUOUS
 10
183.4706238904
 20
81.9588928526
 11
183.4706238904
 21
100.6651438958
  0
LINE
  5
4B5
100
AcDbEntity
  8
3_AXES_OTHER
100
AcDbLine
 62
9
  6
CONTINUOUS
 10
183.6887255088
 20
81.8376454612
 11
183.6887255088
 21
100.8457335429
  0
LINE
  5
4B6
100
AcDbEntity
  8
3_AXES_OTHER
100
AcDbLine
 62
9
  6
CONTINUOUS
 10
184.3795680357
 20
82.0370433365
 11
184.3795680357
 21
100.9396831599
  0
LINE
  5
4B7
100
AcDbEntity
  8
3_AXES_OTHER
100
AcDbLine
 62
9
  6
CONTINUOUS
 10
184.8132807154
 20
82.2751568637
 11
184.8132807154
 21
101.0916943194
  0
LINE
  5
4B8
100
AcDbEntity
  8
3_AXES_OTHER
100
AcDbLine
 62
7
  6
CONTINUOUS
 10
191.159147348
 20
96.2289141896
 11
190.4631761067
 21
95.8269897801
  0
LINE
  5
4B9
100
AcDbEntity
  8
3_AXES_OTHER
100
AcDbLine
 62
7
  6
CONTINUOUS
 10
174.6228706541
 20
104.4242683108
 11
180.8309341267
 21
100.839102578
  0
LINE
  5
4BA
100
AcDbEntity
  8
3_ALL_AXES
100
AcDbLine
 62
7
  6
CONTINUOUS
 10
174.6228706541
 20
104.6492575845
 11
180.8309341267
 21
101.0640918518
  0
LINE
  5
4BB
100
AcDbEntity
  8
3_AXES_OTHER
100
AcDbLine
 62
7
  6
CONTINUOUS
 10
190.4631761067
 20
95.8269897801
 11
190.0277506769
 21
96.0784486024
  0
LINE
  5
4BC
100
AcDbEntity
  8
3_AXES_OTHER
100
AcDbLine
 62
7
  6
CONTINUOUS
 10
182.8592984723
 20
100.6164186583
 11
182.9188478507
 21
100.5820288053
  0
LINE
  5
4BD
100
AcDbEntity
  8
3_AXES_OTHER
100
AcDbLine
 62
7
  6
CONTINUOUS
 10
174.2222348055
 20
105.6201662864
 11
182.5121570594
 21
100.8327240634
  0
LINE
  5
4BE
100
AcDbEntity
  8
3_AXES_OTHER
100
AcDbLine
 62
7
  6
CONTINUOUS
 10
189.824781409
 20
87.0689978169
 11
189.824781409
 21
104.5306911225
  0
LINE
  5
4BF
100
AcDbEntity
  8
3_ALL_AXES
100
AcDbLine
 62
7
  6
CONTINUOUS
 10
190.0277506769
 20
87.5508263119
 11
190.0277506769
 21
104.9069509775
  0
LINE
  5
4C0
100
AcDbEntity
  8
3_AXES_OTHER
100
AcDbLine
 62
7
  6
CONTINUOUS
 10
190.4631761067
 20
100.1339273055
 11
190.4631761067
 21
95.8269897801
  0
LINE
  5
4C1
100
AcDbEntity
  8
3_AXES_OTHER
100
AcDbLine
 62
7
  6
CONTINUOUS
 10
191.159147348
 20
100.535851715
 11
191.159147348
 21
96.2289141896
  0
LINE
  5
4C2
100
AcDbEntity
  8
3_AXES_OTHER
100
AcDbLine
 62
7
  6
CONTINUOUS
 10
190.0277506769
 20
100.3853861278
 11
190.4631761067
 21
100.1339273055
  0
LINE
  5
4C3
100
AcDbEntity
  8
3_AXES_OTHER
100
AcDbLine
 62
7
  6
CONTINUOUS
 10
190.0277506769
 20
101.1892349468
 11
191.159147348
 21
100.535851715
  0
LINE
  5
4C4
100
AcDbEntity
  8
3_AXES_OTHER
100
AcDbLine
 62
7
  6
CONTINUOUS
 10
189.7058202019
 20
105.3924604886
 11
183.7318814548
 21
108.84241885
  0
LINE
  5
4C5
100
AcDbEntity
  8
3_AXES_OTHER
100
AcDbLine
 62
7
  6
CONTINUOUS
 10
44.3269866065
 20
45.1080980786
 11
39.9962779451
 21
45.1080980786
  0
LINE
  5
4C6
100
AcDbEntity
  8
3_AXES_OTHER
100
AcDbLine
 62
7
  6
CONTINUOUS
 10
44.3269866065
 20
46.0923500471
 11
39.9962779451
 21
46.0923500471
  0
LINE
  5
4C7
100
AcDbEntity
  8
3_AXES_OTHER
100
AcDbLine
 62
7
  6
CONTINUOUS
 10
46.3858448742
 20
49.222271307
 11
37.9374196773
 21
49.222271307
  0
LINE
  5
4C8
100
AcDbEntity
  8
3_AXES_OTHER
100
AcDbLine
 62
7
  6
CONTINUOUS
 10
39.9962779451
 20
45.1080980786
 11
39.9962779451
 21
46.0923500471
  0
LINE
  5
4C9
100
AcDbEntity
  8
3_ALL_AXES
100
AcDbLine
 62
7
  6
CONTINUOUS
 10
40.7836795199
 20
49.222271307
 11
40.7836795199
 21
46.0923500471
  0
LINE
  5
4CA
100
AcDbEntity
  8
3_ALL_AXES
100
AcDbLine
 62
7
  6
CONTINUOUS
 10
43.5395850317
 20
49.222271307
 11
43.5395850317
 21
46.0923500471
  0
LINE
  5
4CB
100
AcDbEntity
  8
3_AXES_OTHER
100
AcDbLine
 62
7
  6
CONTINUOUS
 10
44.3269866065
 20
45.1080980786
 11
44.3269866065
 21
46.0923500471
  0
LINE
  5
4CC
100
AcDbEntity
  8
3_AXES_OTHER
100
AcDbLine
 62
7
  6
CONTINUOUS
 10
36.2997720345
 20
61.033294929
 11
48.023492517
 21
61.033294929
  0
LINE
  5
4CD
100
AcDbEntity
  8
3_ALL_AXES
100
AcDbLine
 62
7
  6
CONTINUOUS
 10
37.7718684962
 20
61.9388067401
 11
46.5513960553
 21
61.9388067401
  0
LINE
  5
4CE
100
AcDbEntity
  8
3_AXES_OTHER
100
AcDbLine
 62
7
  6
CONTINUOUS
 10
146.2457639471
 20
72.1758302043
 11
134.5220434646
 21
72.1758302043
  0
LINE
  5
4CF
100
AcDbEntity
  8
3_AXES_OTHER
100
AcDbLine
 62
7
  6
CONTINUOUS
 10
136.1596911075
 20
73.3175624878
 11
144.6081163043
 21
73.3175624878
  0
LINE
  5
4D0
100
AcDbEntity
  8
3_ALL_AXES
100
AcDbLine
 62
7
  6
CONTINUOUS
 10
133.4147629172
 20
72.3838755505
 11
133.4147629172
 21
95.4323517872
  0
LINE
  5
4D1
100
AcDbEntity
  8
3_AXES_OTHER
100
AcDbLine
 62
9
  6
CONTINUOUS
 10
133.4199564183
 20
72.3838755505
 11
133.4199564183
 21
95.4323517872
  0
LINE
  5
4D2
100
AcDbEntity
  8
3_AXES_OTHER
100
AcDbLine
 62
7
  6
CONTINUOUS
 10
134.9165332951
 20
73.2136534327
 11
134.9165332951
 21
94.6025739051
  0
LINE
  5
4D3
100
AcDbEntity
  8
3_AXES_OTHER
100
AcDbLine
 62
9
  6
CONTINUOUS
 10
136.1596911075
 20
73.3175624878
 11
136.1596911075
 21
94.49866485
  0
LINE
  5
4D4
100
AcDbEntity
  8
3_AXES_OTHER
100
AcDbLine
 62
7
  6
CONTINUOUS
 10
138.2185493752
 20
80.1864601256
 11
142.5492580366
 21
80.1864601256
  0
LINE
  5
4D5
100
AcDbEntity
  8
3_AXES_OTHER
100
AcDbLine
 62
7
  6
CONTINUOUS
 10
138.2185493752
 20
85.4620506768
 11
138.2185493752
 21
80.1864601256
  0
LINE
  5
4D6
100
AcDbEntity
  8
3_AXES_OTHER
100
AcDbLine
 62
7
  6
CONTINUOUS
 10
139.3209115799
 20
89.8923656374
 11
139.3209115799
 21
87.7663813854
  0
LINE
  5
4D7
100
AcDbEntity
  8
3_AXES_OTHER
100
AcDbLine
 62
7
  6
CONTINUOUS
 10
133.4147711179
 20
72.3726378801
 11
133.4199564183
 21
72.3838755505
  0
LINE
  5
4D8
100
AcDbEntity
  8
3_AXES_OTHER
100
AcDbLine
 62
7
  6
CONTINUOUS
 10
133.4147711179
 20
95.4435894577
 11
133.4199564183
 21
95.4323517872
  0
LINE
  5
4D9
100
AcDbEntity
  8
3_AXES_OTHER
100
AcDbLine
 62
7
  6
CONTINUOUS
 10
139.9311478004
 20
89.4081136689
 11
139.9311478004
 21
89.0537829602
  0
LINE
  5
4DA
100
AcDbEntity
  8
3_AXES_OTHER
100
AcDbLine
 62
7
  6
CONTINUOUS
 10
140.8366596114
 20
89.0537829602
 11
140.8366596114
 21
89.4081136689
  0
LINE
  5
4DB
100
AcDbEntity
  8
3_AXES_OTHER
100
AcDbLine
 62
7
  6
CONTINUOUS
 10
141.4468958319
 20
87.7663813854
 11
141.4468958319
 21
89.8923656374
  0
LINE
  5
4DC
100
AcDbEntity
  8
3_AXES_OTHER
100
AcDbLine
 62
7
  6
CONTINUOUS
 10
147.3478509934
 20
95.4323517872
 11
147.3530362948
 21
95.4435894573
  0
LINE
  5
4DD
100
AcDbEntity
  8
3_AXES_OTHER
100
AcDbLine
 62
7
  6
CONTINUOUS
 10
142.5492580366
 20
85.4620506768
 11
138.2185493752
 21
85.4620506768
  0
LINE
  5
4DE
100
AcDbEntity
  8
3_AXES_OTHER
100
AcDbLine
 62
7
  6
CONTINUOUS
 10
147.3478509934
 20
72.3838755505
 11
147.3530362948
 21
72.3726378805
  0
LINE
  5
4DF
100
AcDbEntity
  8
3_AXES_OTHER
100
AcDbLine
 62
7
  6
CONTINUOUS
 10
142.5492580366
 20
80.1864601256
 11
142.5492580366
 21
85.4620506768
  0
LINE
  5
4E0
100
AcDbEntity
  8
3_AXES_OTHER
100
AcDbLine
 62
9
  6
CONTINUOUS
 10
144.6081163043
 20
73.3175624878
 11
144.6081163043
 21
94.49866485
  0
LINE
  5
4E1
100
AcDbEntity
  8
3_AXES_OTHER
100
AcDbLine
 62
7
  6
CONTINUOUS
 10
139.3209115799
 20
87.7663813854
 11
141.4468958319
 21
87.7663813854
  0
LINE
  5
4E2
100
AcDbEntity
  8
3_AXES_OTHER
100
AcDbLine
 62
7
  6
CONTINUOUS
 10
145.8512741166
 20
73.2136534327
 11
145.8512741166
 21
94.6025739051
  0
LINE
  5
4E3
100
AcDbEntity
  8
3_AXES_OTHER
100
AcDbLine
 62
7
  6
CONTINUOUS
 10
139.9311478004
 20
89.0537829602
 11
140.8366596114
 21
89.0537829602
  0
LINE
  5
4E4
100
AcDbEntity
  8
3_AXES_OTHER
100
AcDbLine
 62
7
  6
CONTINUOUS
 10
140.8366596114
 20
89.4081136689
 11
139.9311478004
 21
89.4081136689
  0
LINE
  5
4E5
100
AcDbEntity
  8
3_AXES_OTHER
100
AcDbLine
 62
7
  6
CONTINUOUS
 10
141.4468958319
 20
89.8923656374
 11
139.3209115799
 21
89.8923656374
  0
LINE
  5
4E6
100
AcDbEntity
  8
3_AXES_OTHER
100
AcDbLine
 62
9
  6
CONTINUOUS
 10
147.3478509934
 20
72.3838755505
 11
147.3478509934
 21
95.4323517872
  0
LINE
  5
4E7
100
AcDbEntity
  8
3_ALL_AXES
100
AcDbLine
 62
7
  6
CONTINUOUS
 10
147.3530444945
 20
72.3838755505
 11
147.3530444945
 21
95.4323517872
  0
LINE
  5
4E8
100
AcDbEntity
  8
3_AXES_OTHER
100
AcDbLine
 62
7
  6
CONTINUOUS
 10
136.1596911075
 20
94.49866485
 11
144.6081163043
 21
94.49866485
  0
LINE
  5
4E9
100
AcDbEntity
  8
3_AXES_OTHER
100
AcDbLine
 62
7
  6
CONTINUOUS
 10
146.2457639471
 20
95.6403971335
 11
134.5220434646
 21
95.6403971335
  0
CIRCLE
  5
4EA
100
AcDbEntity
  8
3_AXES_OTHER
100
AcDbCircle
 62
7
  6
CONTINUOUS
 10
42.1616322758
 20
79.6167750862
 40
4.8031496063
  0
CIRCLE
  5
4EB
100
AcDbEntity
  8
3_AXES_OTHER
100
AcDbCircle
 62
7
  6
CONTINUOUS
 10
42.1616322758
 20
79.6167750862
 40
2.5590551181
  0
CIRCLE
  5
4EC
100
AcDbEntity
  8
3_AXES_OTHER
100
AcDbCircle
 62
7
  6
CONTINUOUS
 10
42.1616322758
 20
90.5222868972
 40
0.4850393701
  0
ARC
  5
4ED
100
AcDbEntity
  8
3_AXES_OTHER
100
AcDbCircle
 62
7
  6
CONTINUOUS
 10
-3.109461935
 20
105.1603495873
 40
52.4446850394
100
AcDbArc
 50
5.124746771
 51
14.655106461
  0
ARC
  5
4EE
100
AcDbEntity
  8
3_AXES_OTHER
100
AcDbCircle
 62
7
  6
CONTINUOUS
 10
87.4327264865
 20
105.1603495873
 40
52.4446850394
100
AcDbArc
 50
165.344893539
 51
174.875253229
  0
ARC
  5
4EF
100
AcDbEntity
  8
3_AXES_OTHER
100
AcDbCircle
 62
7
  6
CONTINUOUS
 10
44.7224273346
 20
110.9933496368
 40
4.6680898656
100
AcDbArc
 50
315.004050552
 51
329.6027521441
  0
ARC
  5
4F0
100
AcDbEntity
  8
3_AXES_OTHER
100
AcDbCircle
 62
7
  6
CONTINUOUS
 10
39.6008372754
 20
110.9933495474
 40
4.6680898656
100
AcDbArc
 50
210.3972465459
 51
224.9959481644
  0
ARC
  5
4F1
100
AcDbEntity
  8
3_AXES_OTHER
100
AcDbCircle
 62
7
  6
CONTINUOUS
 10
45.4415929057
 20
110.5659795085
 40
3.8315354331
100
AcDbArc
 50
329.6734938057
 51
340.6971838547
  0
ARC
  5
4F2
100
AcDbEntity
  8
3_AXES_OTHER
100
AcDbCircle
 62
7
  6
CONTINUOUS
 10
38.8816716458
 20
110.5659795085
 40
3.8315354331
100
AcDbArc
 50
199.3028161453
 51
210.3265061943
  0
ARC
  5
4F3
100
AcDbEntity
  8
3_AXES_OTHER
100
AcDbCircle
 62
7
  6
CONTINUOUS
 10
47.831560466
 20
109.7288928944
 40
1.2992125984
100
AcDbArc
 50
340.6971838547
 51
5.124746771
  0
ARC
  5
4F4
100
AcDbEntity
  8
3_AXES_OTHER
100
AcDbCircle
 62
7
  6
CONTINUOUS
 10
36.4917040856
 20
109.7288928944
 40
1.2992125984
100
AcDbArc
 50
174.875253229
 51
199.3028161453
  0
CIRCLE
  5
4F5
100
AcDbEntity
  8
3_ALL_AXES
100
AcDbCircle
 62
7
  6
CONTINUOUS
 10
42.1616322758
 20
113.1415700597
 40
0.1968503937
  0
ARC
  5
4F6
100
AcDbEntity
  8
3_AXES_OTHER
100
AcDbCircle
 62
7
  6
CONTINUOUS
 10
183.0054752307
 20
109.4278938679
 40
8.6093151172
100
AcDbArc
 50
266.7151232097
 51
274.551879819
  0
ARC
  5
4F7
100
AcDbEntity
  8
3_AXES_OTHER
100
AcDbCircle
 62
7
  6
CONTINUOUS
 10
182.1109577361
 20
88.9813205646
 40
7.315835231
100
AcDbArc
 50
273.1436691459
 51
282.4545296107
  0
ARC
  5
4F8
100
AcDbEntity
  8
3_AXES_OTHER
100
AcDbCircle
 62
7
  6
CONTINUOUS
 10
178.1997125826
 20
90.2416445588
 40
3.5174039639
100
AcDbArc
 50
43.9702039127
 51
49.4921628075
  0
ARC
  5
4F9
100
AcDbEntity
  8
3_AXES_OTHER
100
AcDbCircle
 62
7
  6
CONTINUOUS
 10
175.685806215
 20
86.6898380005
 40
1.4635725666
100
AcDbArc
 50
179.9696123312
 51
188.7535762759
  0
ARC
  5
4FA
100
AcDbEntity
  8
3_AXES_OTHER
100
AcDbCircle
 62
7
  6
CONTINUOUS
 10
175.685490085
 20
105.6210486606
 40
1.4632555456
100
AcDbArc
 50
180.0345505742
 51
188.7574724655
  0
ARC
  5
4FB
100
AcDbEntity
  8
3_AXES_OTHER
100
AcDbCircle
 62
7
  6
CONTINUOUS
 10
175.6358031678
 20
105.6144559969
 40
1.4131445366
100
AcDbArc
 50
188.8000098325
 51
189.2920615871
  0
ARC
  5
4FC
100
AcDbEntity
  8
3_AXES_OTHER
100
AcDbCircle
 62
7
  6
CONTINUOUS
 10
-3.109461935
 20
63.5656965038
 40
52.4446850394
100
AcDbArc
 50
345.344893539
 51
354.875253229
  0
ARC
  5
4FD
100
AcDbEntity
  8
3_AXES_OTHER
100
AcDbCircle
 62
7
  6
CONTINUOUS
 10
87.4327264865
 20
63.5656965038
 40
52.4446850394
100
AcDbArc
 50
185.124746771
 51
194.655106461
  0
ARC
  5
4FE
100
AcDbEntity
  8
3_AXES_OTHER
100
AcDbCircle
 62
7
  6
CONTINUOUS
 10
44.7224274649
 20
57.7326962992
 40
4.6680898656
100
AcDbArc
 50
30.3972503072
 51
44.9959519251
  0
ARC
  5
4FF
100
AcDbEntity
  8
3_AXES_OTHER
100
AcDbCircle
 62
7
  6
CONTINUOUS
 10
39.6008371364
 20
57.7326963471
 40
4.6680898656
100
AcDbArc
 50
135.0040489219
 51
149.6027505084
  0
ARC
  5
500
100
AcDbEntity
  8
3_AXES_OTHER
100
AcDbCircle
 62
7
  6
CONTINUOUS
 10
45.4415929057
 20
58.1600665826
 40
3.8315354331
100
AcDbArc
 50
19.3028161453
 51
30.3265061943
  0
ARC
  5
501
100
AcDbEntity
  8
3_AXES_OTHER
100
AcDbCircle
 62
7
  6
CONTINUOUS
 10
38.8816716458
 20
58.1600665826
 40
3.8315354331
100
AcDbArc
 50
149.6734938057
 51
160.6971838547
  0
ARC
  5
502
100
AcDbEntity
  8
3_AXES_OTHER
100
AcDbCircle
 62
7
  6
CONTINUOUS
 10
47.831560466
 20
58.9971531968
 40
1.2992125984
100
AcDbArc
 50
354.875253229
 51
19.3028161453
  0
ARC
  5
503
100
AcDbEntity
  8
3_AXES_OTHER
100
AcDbCircle
 62
7
  6
CONTINUOUS
 10
36.4917040856
 20
58.9971531968
 40
1.2992125984
100
AcDbArc
 50
160.6971838547
 51
185.124746771
  0
CIRCLE
  5
504
100
AcDbEntity
  8
3_ALL_AXES
100
AcDbCircle
 62
7
  6
CONTINUOUS
 10
37.2600574726
 20
57.8836886298
 40
0.1968503937
  0
CIRCLE
  5
505
100
AcDbEntity
  8
3_ALL_AXES
100
AcDbCircle
 62
7
  6
CONTINUOUS
 10
47.0632070789
 20
57.8836886298
 40
0.1968503937
  0
CIRCLE
  5
506
100
AcDbEntity
  8
3_ALL_AXES
100
AcDbCircle
 62
7
  6
CONTINUOUS
 10
42.1616322758
 20
55.5844760314
 40
0.1968503937
  0
CIRCLE
  5
507
100
AcDbEntity
  8
3_ALL_AXES
100
AcDbCircle
 62
7
  6
CONTINUOUS
 10
138.6122501626
 20
82.8242554012
 40
0.1377952756
  0
CIRCLE
  5
508
100
AcDbEntity
  8
3_ALL_AXES
100
AcDbCircle
 62
7
  6
CONTINUOUS
 10
142.1555572492
 20
82.8242554012
 40
0.1377952756
  0
CIRCLE
  5
509
100
AcDbEntity
  8
3_ALL_AXES
100
AcDbCircle
 62
7
  6
CONTINUOUS
 10
140.3839037059
 20
80.5604758736
 40
0.1377952756
  0
CIRCLE
  5
50A
100
AcDbEntity
  8
3_ALL_AXES
100
AcDbCircle
 62
7
  6
CONTINUOUS
 10
140.3839037059
 20
85.0880349287
 40
0.1377952756
  0
SPLINE
  5
50B
100
AcDbEntity
  8
3_AXES_OTHER
100
AcDbSpline
 62
7
  6
CONTINUOUS
 70
0
 71
3
 72
9
 73
5
 74
0
 42
0.0000001
 43
0.0000001
 44
0.0000000001
 40
0.0
 40
0.0
 40
0.0
 40
0.0
 40
0.2191834778
 40
1.0
 40
1.0
 40
1.0
 40
1.0
 10
48.748828898
 20
95.5496674747
 30
0.0
 10
48.6961308721
 20
95.5583758039
 30
0.0
 10
48.4551901619
 20
95.5950011094
 30
0.0
 10
48.2128887221
 20
95.6221126497
 30
0.0
 10
48.023492517
 20
95.6403971335
 30
0.0
  0
SPLINE
  5
50C
100
AcDbEntity
  8
3_AXES_OTHER
100
AcDbSpline
 62
7
  6
CONTINUOUS
 70
0
 71
3
 72
9
 73
5
 74
0
 42
0.0000001
 43
0.0000001
 44
0.0000000001
 40
0.0
 40
0.0
 40
0.0
 40
0.0
 40
0.2798280395
 40
1.0
 40
1.0
 40
1.0
 40
1.0
 10
48.023492517
 20
72.1758302043
 30
0.0
 10
48.0913669543
 20
72.1823828649
 30
0.0
 10
48.3337560199
 20
72.2073516859
 30
0.0
 10
48.575681697
 20
72.2379473524
 30
0.0
 10
48.748828898
 20
72.2665598631
 30
0.0
  0
SPLINE
  5
50D
100
AcDbEntity
  8
3_AXES_OTHER
100
AcDbSpline
 62
7
  6
CONTINUOUS
 70
0
 71
3
 72
9
 73
5
 74
0
 42
0.0000001
 43
0.0000001
 44
0.0000000001
 40
0.0
 40
0.0
 40
0.0
 40
0.0
 40
0.2191838114
 40
1.0
 40
1.0
 40
1.0
 40
1.0
 10
35.5744356535
 20
72.2665598631
 30
0.0
 10
35.6271337596
 20
72.2578515206
 30
0.0
 10
35.8680744759
 20
72.2212262562
 30
0.0
 10
36.1103759105
 20
72.1941146803
 30
0.0
 10
36.2997720345
 20
72.1758302043
 30
0.0
  0
SPLINE
  5
50E
100
AcDbEntity
  8
3_AXES_OTHER
100
AcDbSpline
 62
7
  6
CONTINUOUS
 70
0
 71
3
 72
9
 73
5
 74
0
 42
0.0000001
 43
0.0000001
 44
0.0000000001
 40
0.0
 40
0.0
 40
0.0
 40
0.0
 40
0.2798275854
 40
1.0
 40
1.0
 40
1.0
 40
1.0
 10
36.2997720345
 20
95.6403971335
 30
0.0
 10
36.2318977074
 20
95.6338444835
 30
0.0
 10
35.9895086448
 20
95.6088756364
 30
0.0
 10
35.7475829636
 20
95.5782800034
 30
0.0
 10
35.5744356535
 20
95.5496674747
 30
0.0
  0
SPLINE
  5
50F
100
AcDbEntity
  8
3_AXES_OTHER
100
AcDbSpline
 62
7
  6
CONTINUOUS
 70
0
 71
3
 72
13
 73
9
 74
0
 42
0.0000001
 43
0.0000001
 44
0.0000000001
 40
0.0
 40
0.0
 40
0.0
 40
0.0
 40
0.0109586962
 40
0.1411369704
 40
0.2822739408
 40
0.5645478817
 40
0.8468218225
 40
1.0
 40
1.0
 40
1.0
 40
1.0
 10
46.5513960553
 20
106.7872393511
 30
0.0
 10
46.5583260299
 20
106.7889672131
 30
0.0
 10
46.6471899696
 20
106.8116143034
 30
0.0
 10
46.8151897221
 20
106.8668078298
 30
0.0
 10
47.1189268119
 20
107.0012453222
 30
0.0
 10
47.4673407027
 20
107.2120745664
 30
0.0
 10
47.7846761026
 20
107.4641763643
 30
0.0
 10
47.962627475
 20
107.6319652953
 30
0.0
 10
48.023492517
 20
107.6927511621
 30
0.0
  0
SPLINE
  5
510
100
AcDbEntity
  8
3_AXES_OTHER
100
AcDbSpline
 62
7
  6
CONTINUOUS
 70
0
 71
3
 72
13
 73
9
 74
0
 42
0.0000001
 43
0.0000001
 44
0.0000000001
 40
0.0
 40
0.0
 40
0.0
 40
0.0
 40
0.1531781775
 40
0.4354521183
 40
0.7177260592
 40
0.8588630296
 40
0.9890413038
 40
1.0
 40
1.0
 40
1.0
 40
1.0
 10
36.2997720345
 20
107.6927511621
 30
0.0
 10
36.3606370765
 20
107.6319652953
 30
0.0
 10
36.5385884489
 20
107.4641763643
 30
0.0
 10
36.8559238488
 20
107.2120745664
 30
0.0
 10
37.2043377396
 20
107.0012453222
 30
0.0
 10
37.5080748294
 20
106.8668078298
 30
0.0
 10
37.676074582
 20
106.8116143034
 30
0.0
 10
37.7649385216
 20
106.7889672131
 30
0.0
 10
37.7718684962
 20
106.7872393511
 30
0.0
  0
SPLINE
  5
511
100
AcDbEntity
  8
3_AXES_OTHER
100
AcDbSpline
 62
7
  6
CONTINUOUS
 70
0
 71
3
 72
8
 73
4
 74
0
 42
0.0000001
 43
0.0000001
 44
0.0000000001
 40
0.0
 40
0.0
 40
0.0
 40
0.0
 40
1.0
 40
1.0
 40
1.0
 40
1.0
 10
46.3858448742
 20
119.5037747841
 30
0.0
 10
46.9336584132
 20
119.5037747841
 30
0.0
 10
47.5215675523
 20
118.9660288825
 30
0.0
 10
47.6290026865
 20
118.4288535243
 30
0.0
  0
SPLINE
  5
512
100
AcDbEntity
  8
3_AXES_OTHER
100
AcDbSpline
 62
7
  6
CONTINUOUS
 70
0
 71
3
 72
8
 73
4
 74
0
 42
0.0000001
 43
0.0000001
 44
0.0000000001
 40
0.0
 40
0.0
 40
0.0
 40
0.0
 40
1.0
 40
1.0
 40
1.0
 40
1.0
 10
36.694261865
 20
118.4288535243
 30
0.0
 10
36.8016969992
 20
118.9660288825
 30
0.0
 10
37.3896061384
 20
119.5037747841
 30
0.0
 10
37.9374196773
 20
119.5037747841
 30
0.0
  0
SPLINE
  5
513
100
AcDbEntity
  8
3_AXES_OTHER
100
AcDbSpline
 62
7
  6
CONTINUOUS
 70
0
 71
3
 72
9
 73
5
 74
0
 42
0.0000001
 43
0.0000001
 44
0.0000000001
 40
0.0
 40
0.0
 40
0.0
 40
0.0
 40
0.4602881835
 40
1.0
 40
1.0
 40
1.0
 40
1.0
 10
174.2222348055
 20
86.4639366959
 30
0.0
 10
174.222420163
 20
86.2994657176
 30
0.0
 10
174.2816722867
 20
85.9391502853
 30
0.0
 10
174.4838290734
 20
85.6266652097
 30
0.0
 10
174.6228706541
 20
85.493027994
 30
0.0
  0
SPLINE
  5
514
100
AcDbEntity
  8
3_AXES_OTHER
100
AcDbSpline
 62
7
  6
CONTINUOUS
 70
0
 71
3
 72
9
 73
5
 74
0
 42
0.0000001
 43
0.0000001
 44
0.0000000001
 40
0.0
 40
0.0
 40
0.0
 40
0.0
 40
0.5047337032
 40
1.0
 40
1.0
 40
1.0
 40
1.0
 10
180.8309341267
 20
81.9078622612
 30
0.0
 10
181.1014961914
 20
81.8139785263
 30
0.0
 10
181.6640657273
 20
81.7071813123
 30
0.0
 10
182.2311410963
 20
81.6766000957
 30
0.0
 10
182.5121570594
 20
81.6764944728
 30
0.0
  0
SPLINE
  5
515
100
AcDbEntity
  8
3_AXES_OTHER
100
AcDbSpline
 62
7
  6
CONTINUOUS
 70
0
 71
3
 72
10
 73
6
 74
0
 42
0.0000001
 43
0.0000001
 44
0.0000000001
 40
0.0
 40
0.0
 40
0.0
 40
0.0
 40
0.2541731055
 40
0.5031428826
 40
1.0
 40
1.0
 40
1.0
 40
1.0
 10
180.8309341267
 20
100.839102578
 30
0.0
 10
181.0440318516
 20
100.7651586926
 30
0.0
 10
181.4831610753
 20
100.6692097729
 30
0.0
 10
182.3671371407
 20
100.5861577267
 30
0.0
 10
183.032893818
 20
100.6121296196
 30
0.0
 10
183.4706238904
 20
100.6651438958
 30
0.0
  0
SPLINE
  5
516
100
AcDbEntity
  8
3_AXES_OTHER
100
AcDbSpline
 62
7
  6
CONTINUOUS
 70
0
 71
3
 72
9
 73
5
 74
0
 42
0.0000001
 43
0.0000001
 44
0.0000000001
 40
0.0
 40
0.0
 40
0.0
 40
0.0
 40
0.5269166333
 40
1.0
 40
1.0
 40
1.0
 40
1.0
 10
189.824781409
 20
87.0689978169
 30
0.0
 10
189.8907895209
 20
87.1353861664
 30
0.0
 10
189.9927658964
 20
87.2876287961
 30
0.0
 10
190.0277489184
 20
87.4667722449
 30
0.0
 10
190.0277514435
 20
87.5508263525
 30
0.0
  0
SPLINE
  5
517
100
AcDbEntity
  8
3_AXES_OTHER
100
AcDbSpline
 62
7
  6
CONTINUOUS
 70
0
 71
3
 72
9
 73
5
 74
0
 42
0.0000001
 43
0.0000001
 44
0.0000000001
 40
0.0
 40
0.0
 40
0.0
 40
0.0
 40
0.5602700622
 40
1.0
 40
1.0
 40
1.0
 40
1.0
 10
189.7058202019
 20
105.3924604886
 30
0.0
 10
189.8034016313
 20
105.3361070704
 30
0.0
 10
189.9632440236
 20
105.1986063916
 30
0.0
 10
190.0277546339
 20
104.9953919249
 30
0.0
 10
190.0277514064
 20
104.9069509349
 30
0.0
  0
SPLINE
  5
518
100
AcDbEntity
  8
3_ALL_AXES
100
AcDbSpline
 62
7
  6
CONTINUOUS
 70
0
 71
3
 72
10
 73
6
 74
0
 42
0.0000001
 43
0.0000001
 44
0.0000000001
 40
0.0
 40
0.0
 40
0.0
 40
0.0
 40
0.184808043
 40
0.5806887405
 40
1.0
 40
1.0
 40
1.0
 40
1.0
 10
190.1158767822
 20
98.2605549091
 30
0.0
 10
190.1302936706
 20
98.2688700244
 30
0.0
 10
190.1895141897
 20
98.264812284
 30
0.0
 10
190.2537184354
 20
98.1940561402
 30
0.0
 10
190.2822235839
 20
98.1227201068
 30
0.0
 10
190.2822235839
 20
98.0849588893
 30
0.0
  0
SPLINE
  5
519
100
AcDbEntity
  8
3_AXES_OTHER
100
AcDbSpline
 62
7
  6
CONTINUOUS
 70
0
 71
3
 72
11
 73
7
 74
0
 42
0.0000001
 43
0.0000001
 44
0.0000000001
 40
0.0
 40
0.0
 40
0.0
 40
0.0
 40
0.2435837946
 40
0.5038857473
 40
0.7631775382
 40
1.0
 40
1.0
 40
1.0
 40
1.0
 10
182.0927520236
 20
108.9959493982
 30
0.0
 10
182.2233675365
 20
109.034088544
 30
0.0
 10
182.5051613092
 20
109.0712833052
 30
0.0
 10
182.9324203039
 20
109.0634130826
 30
0.0
 10
183.3505162486
 20
108.9981936064
 30
0.0
 10
183.6173199701
 20
108.9085782749
 30
0.0
 10
183.7318814548
 20
108.84241885
 30
0.0
  0
SPLINE
  5
51A
100
AcDbEntity
  8
3_AXES_OTHER
100
AcDbSpline
 62
7
  6
CONTINUOUS
 70
0
 71
3
 72
9
 73
5
 74
0
 42
0.0000001
 43
0.0000001
 44
0.0000000001
 40
0.0
 40
0.0
 40
0.0
 40
0.0
 40
0.2574681451
 40
1.0
 40
1.0
 40
1.0
 40
1.0
 10
174.3216442613
 20
87.2424419659
 30
0.0
 10
174.3051721734
 20
87.1970824536
 30
0.0
 10
174.2485968204
 20
87.0183381365
 30
0.0
 10
174.222233865
 20
86.8297885402
 30
0.0
 10
174.2222338543
 20
86.6906142279
 30
0.0
  0
SPLINE
  5
51B
100
AcDbEntity
  8
3_AXES_OTHER
100
AcDbSpline
 62
7
  6
CONTINUOUS
 70
0
 71
3
 72
9
 73
5
 74
0
 42
0.0000001
 43
0.0000001
 44
0.0000000001
 40
0.0
 40
0.0
 40
0.0
 40
0.0
 40
0.248728517
 40
1.0
 40
1.0
 40
1.0
 40
1.0
 10
181.8769014449
 20
90.6084979082
 30
0.0
 10
181.7985159709
 20
90.8194758208
 30
0.0
 10
181.4462021379
 20
91.653365349
 30
0.0
 10
180.9564292333
 20
92.4296528091
 30
0.0
 10
180.5228105058
 20
92.9532121973
 30
0.0
  0
SPLINE
  5
51C
100
AcDbEntity
  8
3_AXES_OTHER
100
AcDbSpline
 62
7
  6
CONTINUOUS
 70
0
 71
3
 72
9
 73
5
 74
0
 42
0.0000001
 43
0.0000001
 44
0.0000000001
 40
0.0
 40
0.0
 40
0.0
 40
0.0
 40
0.4603054604
 40
1.0
 40
1.0
 40
1.0
 40
1.0
 10
174.2222338543
 20
105.3968652711
 30
0.0
 10
174.2222338416
 20
105.232134112
 30
0.0
 10
174.2812412494
 20
104.8711866341
 30
0.0
 10
174.4836188932
 20
104.5581075373
 30
0.0
 10
174.6228706541
 20
104.4242683108
 30
0.0
  0
SPLINE
  5
51D
100
AcDbEntity
  8
3_AXES_OTHER
100
AcDbSpline
 62
7
  6
CONTINUOUS
 70
0
 71
3
 72
9
 73
5
 74
0
 42
0.0000001
 43
0.0000001
 44
0.0000000001
 40
0.0
 40
0.0
 40
0.0
 40
0.0
 40
0.2468185947
 40
1.0
 40
1.0
 40
1.0
 40
1.0
 10
174.2222338483
 20
105.6216913451
 30
0.0
 10
174.2222334435
 20
105.6731785033
 30
0.0
 10
174.235224031
 20
105.8816990492
 30
0.0
 10
174.3009345283
 20
106.0859633931
 30
0.0
 10
174.3730227075
 20
106.2255655319
 30
0.0
  0
SPLINE
  5
51E
100
AcDbEntity
  8
3_ALL_AXES
100
AcDbSpline
 62
7
  6
CONTINUOUS
 70
0
 71
3
 72
9
 73
5
 74
0
 42
0.0000001
 43
0.0000001
 44
0.0000000001
 40
0.0
 40
0.0
 40
0.0
 40
0.0
 40
0.2949613449
 40
1.0
 40
1.0
 40
1.0
 40
1.0
 10
190.2822235839
 20
98.0849588893
 30
0.0
 10
190.2822235839
 20
98.0779934755
 30
0.0
 10
190.280659647
 20
98.0546958326
 30
0.0
 10
190.2681207853
 20
98.0302199678
 30
0.0
 10
190.2536984381
 20
98.0219017041
 30
0.0
  0
SPLINE
  5
51F
100
AcDbEntity
  8
3_AXES_OTHER
100
AcDbSpline
 62
7
  6
CONTINUOUS
 70
0
 71
3
 72
19
 73
15
 74
0
 42
0.0000001
 43
0.0000001
 44
0.0000000001
 40
0.0
 40
0.0
 40
0.0
 40
0.0
 40
0.0604617828
 40
0.1145439887
 40
0.1631884873
 40
0.2086144469
 40
0.2540370592
 40
0.3026717717
 40
0.3567448324
 40
0.417191752
 40
0.5554327605
 40
0.7085812589
 40
0.8617382307
 40
1.0
 40
1.0
 40
1.0
 40
1.0
 10
178.8961340758
 20
94.3716301535
 30
0.0
 10
178.685296587
 20
94.4933891115
 30
0.0
 10
178.2660765616
 20
94.6930157482
 30
0.0
 10
177.6217367474
 20
94.8486097505
 30
0.0
 10
177.0167585586
 20
94.8333965964
 30
0.0
 10
176.4782785699
 20
94.6382844703
 30
0.0
 10
176.0399103477
 20
94.2697262328
 30
0.0
 10
175.7241172443
 20
93.7536380145
 30
0.0
 10
175.5365150932
 20
93.1177994791
 30
0.0
 10
175.4559054464
 20
92.097561647
 30
0.0
 10
175.7088517013
 20
90.6814003261
 30
0.0
 10
176.436449049
 20
89.0308887729
 30
0.0
 10
177.501556414
 20
87.5756470458
 30
0.0
 10
178.4139987021
 20
86.8075807816
 30
0.0
 10
178.8961340758
 20
86.5291468983
 30
0.0
  0
SPLINE
  5
520
100
AcDbEntity
  8
3_AXES_OTHER
100
AcDbSpline
 62
7
  6
CONTINUOUS
 70
0
 71
3
 72
14
 73
10
 74
0
 42
0.0000001
 43
0.0000001
 44
0.0000000001
 40
0.0
 40
0.0
 40
0.0
 40
0.0
 40
0.1315192499
 40
0.2450229042
 40
0.3464706639
 40
0.4474624648
 40
0.5598502205
 40
0.6900403924
 40
1.0
 40
1.0
 40
1.0
 40
1.0
 10
178.8961340758
 20
86.5291468983
 30
0.0
 10
179.1690137295
 20
86.3715584993
 30
0.0
 10
179.7107907407
 20
86.1280371505
 30
0.0
 10
180.549696445
 20
86.0173253562
 30
0.0
 10
181.30383708
 20
86.2265882658
 30
0.0
 10
181.8777008831
 20
86.7552175302
 30
0.0
 10
182.2176503521
 20
87.5239012723
 30
0.0
 10
182.3750773515
 20
88.8509069286
 30
0.0
 10
182.1355470131
 20
89.9123421113
 30
0.0
 10
181.8769014449
 20
90.6084979082
 30
0.0
  0
SPLINE
  5
521
100
AcDbEntity
  8
3_AXES_OTHER
100
AcDbSpline
 62
7
  6
CONTINUOUS
 70
0
 71
3
 72
18
 73
14
 74
0
 42
0.0000001
 43
0.0000001
 44
0.0000000001
 40
0.0
 40
0.0
 40
0.0
 40
0.0
 40
0.1139849155
 40
0.1626579051
 40
0.2081132035
 40
0.2535645456
 40
0.302230048
 40
0.3563371577
 40
0.4168221639
 40
0.5551505275
 40
0.7083956354
 40
0.8616482843
 40
1.0
 40
1.0
 40
1.0
 40
1.0
 10
180.0653657613
 20
93.2148076469
 30
0.0
 10
179.8537286074
 20
93.3370284127
 30
0.0
 10
179.5161529388
 20
93.4721007913
 30
0.0
 10
179.0641189866
 20
93.4608430715
 30
0.0
 10
178.7771482964
 20
93.3568723555
 30
0.0
 10
178.5436188711
 20
93.1605060444
 30
0.0
 10
178.3753620404
 20
92.885542309
 30
0.0
 10
178.2754113808
 20
92.5467778379
 30
0.0
 10
178.2324617809
 20
92.003210841
 30
0.0
 10
178.3672316182
 20
91.2487023469
 30
0.0
 10
178.7548787501
 20
90.3693365987
 30
0.0
 10
179.3223430724
 20
89.5939941432
 30
0.0
 10
179.8084864785
 20
89.1847835822
 30
0.0
 10
180.0653657613
 20
89.0364354208
 30
0.0
  0
SPLINE
  5
522
100
AcDbEntity
  8
3_AXES_OTHER
100
AcDbSpline
 62
7
  6
CONTINUOUS
 70
0
 71
3
 72
9
 73
5
 74
0
 42
0.0000001
 43
0.0000001
 44
0.0000000001
 40
0.0
 40
0.0
 40
0.0
 40
0.0
 40
0.2401750241
 40
1.0
 40
1.0
 40
1.0
 40
1.0
 10
180.0653657613
 20
93.2148076469
 30
0.0
 10
180.1010776872
 20
93.1941839574
 30
0.0
 10
180.2475414957
 20
93.1044784494
 30
0.0
 10
180.3851573969
 20
93.0006179982
 30
0.0
 10
180.484449553
 20
92.9159870241
 30
0.0
  0
SPLINE
  5
523
100
AcDbEntity
  8
3_AXES_OTHER
100
AcDbSpline
 62
7
  6
CONTINUOUS
 70
0
 71
3
 72
9
 73
5
 74
0
 42
0.0000001
 43
0.0000001
 44
0.0000000001
 40
0.0
 40
0.0
 40
0.0
 40
0.0
 40
0.2659792123
 40
1.0
 40
1.0
 40
1.0
 40
1.0
 10
180.5228105058
 20
92.9532121973
 30
0.0
 10
180.4004208891
 20
93.1009877172
 30
0.0
 10
179.9199365374
 20
93.6385764144
 30
0.0
 10
179.3546833533
 20
94.1068172753
 30
0.0
 10
178.8961340758
 20
94.3716301535
 30
0.0
  0
SPLINE
  5
524
100
AcDbEntity
  8
3_AXES_OTHER
100
AcDbSpline
 62
7
  6
CONTINUOUS
 70
0
 71
3
 72
9
 73
5
 74
0
 42
0.0000001
 43
0.0000001
 44
0.0000000001
 40
0.0
 40
0.0
 40
0.0
 40
0.0
 40
0.2548938559
 40
1.0
 40
1.0
 40
1.0
 40
1.0
 10
181.7272535256
 20
90.9923933365
 30
0.0
 10
181.7374455522
 20
90.9591918145
 30
0.0
 10
181.7756660713
 20
90.8284039427
 30
0.0
 10
181.8066926296
 20
90.6954853353
 30
0.0
 10
181.8251727446
 20
90.5956567202
 30
0.0
  0
SPLINE
  5
525
100
AcDbEntity
  8
3_AXES_OTHER
100
AcDbSpline
 62
7
  6
CONTINUOUS
 70
0
 71
3
 72
14
 73
10
 74
0
 42
0.0000001
 43
0.0000001
 44
0.0000000001
 40
0.0
 40
0.0
 40
0.0
 40
0.0
 40
0.1561350182
 40
0.2958120487
 40
0.5252964305
 40
0.6295772893
 40
0.7387691944
 40
0.8609913195
 40
1.0
 40
1.0
 40
1.0
 40
1.0
 10
181.8251727446
 20
90.5956567202
 30
0.0
 10
181.8554012391
 20
90.4323639742
 30
0.0
 10
181.8889500942
 20
90.1168765314
 30
0.0
 10
181.8464656771
 20
89.5605289456
 30
0.0
 10
181.6192599985
 20
89.0644868793
 30
0.0
 10
181.2013388674
 20
88.8191429173
 30
0.0
 10
180.8397740494
 20
88.7700123116
 30
0.0
 10
180.4477539587
 20
88.8446578432
 30
0.0
 10
180.1934003793
 20
88.9624952416
 30
0.0
 10
180.0653657613
 20
89.0364354208
 30
0.0
  0
SPLINE
  5
526
100
AcDbEntity
  8
3_AXES_OTHER
100
AcDbSpline
 62
7
  6
CONTINUOUS
 70
0
 71
3
 72
9
 73
5
 74
0
 42
0.0000001
 43
0.0000001
 44
0.0000000001
 40
0.0
 40
0.0
 40
0.0
 40
0.0
 40
0.4596097549
 40
1.0
 40
1.0
 40
1.0
 40
1.0
 10
174.2392813222
 20
86.4671040964
 30
0.0
 10
174.2592648953
 20
86.3379718973
 30
0.0
 10
174.3418873808
 20
86.0615071689
 30
0.0
 10
174.5121025052
 20
85.8244800031
 30
0.0
 10
174.6228706541
 20
85.7180172677
 30
0.0
  0
SPLINE
  5
527
100
AcDbEntity
  8
3_AXES_OTHER
100
AcDbSpline
 62
7
  6
CONTINUOUS
 70
0
 71
3
 72
9
 73
5
 74
0
 42
0.0000001
 43
0.0000001
 44
0.0000000001
 40
0.0
 40
0.0
 40
0.0
 40
0.0
 40
0.4596739261
 40
1.0
 40
1.0
 40
1.0
 40
1.0
 10
174.2412017762
 20
105.3862796619
 30
0.0
 10
174.2620054982
 20
105.2591306108
 30
0.0
 10
174.3453758757
 20
104.9872608258
 30
0.0
 10
174.5136816498
 20
104.7542025546
 30
0.0
 10
174.6228706541
 20
104.6492575845
 30
0.0
  0
SPLINE
  5
528
100
AcDbEntity
  8
3_AXES_OTHER
100
AcDbSpline
 62
7
  6
CONTINUOUS
 70
0
 71
3
 72
9
 73
5
 74
0
 42
0.0000001
 43
0.0000001
 44
0.0000000001
 40
0.0
 40
0.0
 40
0.0
 40
0.0
 40
0.465201338
 40
1.0
 40
1.0
 40
1.0
 40
1.0
 10
190.0277514064
 20
104.9069509349
 30
0.0
 10
190.0277489159
 20
104.8387027867
 30
0.0
 10
189.9917671177
 20
104.6897980833
 30
0.0
 10
189.8882496107
 20
104.5768162789
 30
0.0
 10
189.824781409
 20
104.5306911225
 30
0.0
  0
SPLINE
  5
529
100
AcDbEntity
  8
3_ALL_AXES
100
AcDbSpline
 62
7
  6
CONTINUOUS
 70
0
 71
3
 72
10
 73
6
 74
0
 42
0.0000001
 43
0.0000001
 44
0.0000000001
 40
0.0
 40
0.0
 40
0.0
 40
0.0
 40
0.184808043
 40
0.5806887405
 40
1.0
 40
1.0
 40
1.0
 40
1.0
 10
190.2536984381
 20
98.0219017041
 30
0.0
 10
190.2392815496
 20
98.0135865888
 30
0.0
 10
190.1800610306
 20
98.0176443292
 30
0.0
 10
190.1158567849
 20
98.088400473
 30
0.0
 10
190.0873516364
 20
98.1597365064
 30
0.0
 10
190.0873516364
 20
98.1974977239
 30
0.0
  0
SPLINE
  5
52A
100
AcDbEntity
  8
3_ALL_AXES
100
AcDbSpline
 62
7
  6
CONTINUOUS
 70
0
 71
3
 72
9
 73
5
 74
0
 42
0.0000001
 43
0.0000001
 44
0.0000000001
 40
0.0
 40
0.0
 40
0.0
 40
0.0
 40
0.2949613449
 40
1.0
 40
1.0
 40
1.0
 40
1.0
 10
190.0873516364
 20
98.1974977239
 30
0.0
 10
190.0873516364
 20
98.2044631376
 30
0.0
 10
190.0889155733
 20
98.2277607805
 30
0.0
 10
190.101454435
 20
98.2522366454
 30
0.0
 10
190.1158767822
 20
98.2605549091
 30
0.0
  0
SPLINE
  5
52B
100
AcDbEntity
  8
3_AXES_OTHER
100
AcDbSpline
 62
7
  6
CONTINUOUS
 70
0
 71
3
 72
10
 73
6
 74
0
 42
0.0000001
 43
0.0000001
 44
0.0000000001
 40
0.0
 40
0.0
 40
0.0
 40
0.0
 40
0.2541731055
 40
0.5031428826
 40
1.0
 40
1.0
 40
1.0
 40
1.0
 10
180.8309341267
 20
82.1328515349
 30
0.0
 10
181.0440318516
 20
82.0589076495
 30
0.0
 10
181.4831610753
 20
81.9629587298
 30
0.0
 10
182.3671371407
 20
81.8799066836
 30
0.0
 10
183.032893818
 20
81.9058785764
 30
0.0
 10
183.4706238904
 20
81.9588928526
 30
0.0
  0
SPLINE
  5
52C
100
AcDbEntity
  8
3_AXES_OTHER
100
AcDbSpline
 62
7
  6
CONTINUOUS
 70
0
 71
3
 72
9
 73
5
 74
0
 42
0.0000001
 43
0.0000001
 44
0.0000000001
 40
0.0
 40
0.0
 40
0.0
 40
0.0
 40
0.5047337032
 40
1.0
 40
1.0
 40
1.0
 40
1.0
 10
180.8309341267
 20
101.0640918518
 30
0.0
 10
181.1014961914
 20
100.9702081169
 30
0.0
 10
181.6640657273
 20
100.8634109028
 30
0.0
 10
182.2311410963
 20
100.8328296863
 30
0.0
 10
182.5121570594
 20
100.8327240634
 30
0.0
  0
SPLINE
  5
52D
100
AcDbEntity
  8
3_AXES_OTHER
100
AcDbSpline
 62
7
  6
CONTINUOUS
 70
0
 71
3
 72
13
 73
9
 74
0
 42
0.0000001
 43
0.0000001
 44
0.0000000001
 40
0.0
 40
0.0
 40
0.0
 40
0.0
 40
0.1531781775
 40
0.4354521183
 40
0.7177260592
 40
0.8588630296
 40
0.9890413038
 40
1.0
 40
1.0
 40
1.0
 40
1.0
 10
36.2997720345
 20
61.033294929
 30
0.0
 10
36.3606370765
 20
61.0940807958
 30
0.0
 10
36.5385884489
 20
61.2618697268
 30
0.0
 10
36.8559238488
 20
61.5139715248
 30
0.0
 10
37.2043377396
 20
61.724800769
 30
0.0
 10
37.5080748294
 20
61.8592382613
 30
0.0
 10
37.676074582
 20
61.9144317878
 30
0.0
 10
37.7649385216
 20
61.9370788781
 30
0.0
 10
37.7718684962
 20
61.9388067401
 30
0.0
  0
SPLINE
  5
52E
100
AcDbEntity
  8
3_AXES_OTHER
100
AcDbSpline
 62
7
  6
CONTINUOUS
 70
0
 71
3
 72
13
 73
9
 74
0
 42
0.0000001
 43
0.0000001
 44
0.0000000001
 40
0.0
 40
0.0
 40
0.0
 40
0.0
 40
0.0109586962
 40
0.1411369704
 40
0.2822739408
 40
0.5645478817
 40
0.8468218225
 40
1.0
 40
1.0
 40
1.0
 40
1.0
 10
46.5513960553
 20
61.9388067401
 30
0.0
 10
46.5583260299
 20
61.9370788781
 30
0.0
 10
46.6471899696
 20
61.9144317878
 30
0.0
 10
46.8151897221
 20
61.8592382613
 30
0.0
 10
47.1189268119
 20
61.724800769
 30
0.0
 10
47.4673407027
 20
61.5139715248
 30
0.0
 10
47.7846761026
 20
61.2618697268
 30
0.0
 10
47.962627475
 20
61.0940807958
 30
0.0
 10
48.023492517
 20
61.033294929
 30
0.0
  0
SPLINE
  5
52F
100
AcDbEntity
  8
3_AXES_OTHER
100
AcDbSpline
 62
7
  6
CONTINUOUS
 70
0
 71
3
 72
8
 73
4
 74
0
 42
0.0000001
 43
0.0000001
 44
0.0000000001
 40
0.0
 40
0.0
 40
0.0
 40
0.0
 40
1.0
 40
1.0
 40
1.0
 40
1.0
 10
47.6290026865
 20
50.2971925668
 30
0.0
 10
47.5215675523
 20
49.7600172087
 30
0.0
 10
46.9336584132
 20
49.222271307
 30
0.0
 10
46.3858448742
 20
49.222271307
 30
0.0
  0
SPLINE
  5
530
100
AcDbEntity
  8
3_AXES_OTHER
100
AcDbSpline
 62
7
  6
CONTINUOUS
 70
0
 71
3
 72
8
 73
4
 74
0
 42
0.0000001
 43
0.0000001
 44
0.0000000001
 40
0.0
 40
0.0
 40
0.0
 40
0.0
 40
1.0
 40
1.0
 40
1.0
 40
1.0
 10
37.9374196773
 20
49.222271307
 30
0.0
 10
37.3896061384
 20
49.222271307
 30
0.0
 10
36.8016969992
 20
49.7600172087
 30
0.0
 10
36.694261865
 20
50.2971925668
 30
0.0
  0
SPLINE
  5
531
100
AcDbEntity
  8
3_AXES_OTHER
100
AcDbSpline
 62
7
  6
CONTINUOUS
 70
0
 71
3
 72
9
 73
5
 74
0
 42
0.0000001
 43
0.0000001
 44
0.0000000001
 40
0.0
 40
0.0
 40
0.0
 40
0.0
 40
0.2191834778
 40
1.0
 40
1.0
 40
1.0
 40
1.0
 10
133.7967070836
 20
95.5496674747
 30
0.0
 10
133.8494051095
 20
95.5583758039
 30
0.0
 10
134.0903458197
 20
95.5950011094
 30
0.0
 10
134.3326472596
 20
95.6221126497
 30
0.0
 10
134.5220434646
 20
95.6403971335
 30
0.0
  0
SPLINE
  5
532
100
AcDbEntity
  8
3_AXES_OTHER
100
AcDbSpline
 62
7
  6
CONTINUOUS
 70
0
 71
3
 72
9
 73
5
 74
0
 42
0.0000001
 43
0.0000001
 44
0.0000000001
 40
0.0
 40
0.0
 40
0.0
 40
0.0
 40
0.2798280395
 40
1.0
 40
1.0
 40
1.0
 40
1.0
 10
134.5220434646
 20
72.1758302043
 30
0.0
 10
134.4541690273
 20
72.1823828649
 30
0.0
 10
134.2117799618
 20
72.2073516859
 30
0.0
 10
133.9698542847
 20
72.2379473524
 30
0.0
 10
133.7967070836
 20
72.2665598631
 30
0.0
  0
SPLINE
  5
533
100
AcDbEntity
  8
3_AXES_OTHER
100
AcDbSpline
 62
7
  6
CONTINUOUS
 70
0
 71
3
 72
9
 73
5
 74
0
 42
0.0000001
 43
0.0000001
 44
0.0000000001
 40
0.0
 40
0.0
 40
0.0
 40
0.0
 40
0.2191838114
 40
1.0
 40
1.0
 40
1.0
 40
1.0
 10
146.9711003282
 20
72.2665598631
 30
0.0
 10
146.9184022221
 20
72.2578515206
 30
0.0
 10
146.6774615057
 20
72.2212262562
 30
0.0
 10
146.4351600712
 20
72.1941146803
 30
0.0
 10
146.2457639471
 20
72.1758302043
 30
0.0
  0
SPLINE
  5
534
100
AcDbEntity
  8
3_AXES_OTHER
100
AcDbSpline
 62
7
  6
CONTINUOUS
 70
0
 71
3
 72
9
 73
5
 74
0
 42
0.0000001
 43
0.0000001
 44
0.0000000001
 40
0.0
 40
0.0
 40
0.0
 40
0.0
 40
0.2798275854
 40
1.0
 40
1.0
 40
1.0
 40
1.0
 10
146.2457639471
 20
95.6403971335
 30
0.0
 10
146.3136382742
 20
95.6338444835
 30
0.0
 10
146.5560273369
 20
95.6088756364
 30
0.0
 10
146.797953018
 20
95.5782800034
 30
0.0
 10
146.9711003282
 20
95.5496674747
 30
0.0
  0
SPLINE
  5
535
100
AcDbEntity
  8
3_AXES_OTHER
100
AcDbSpline
 62
7
  6
CONTINUOUS
 70
0
 71
3
 72
12
 73
8
 74
0
 42
0.0000001
 43
0.0000001
 44
0.0000000001
 40
0.0
 40
0.0
 40
0.0
 40
0.0
 40
0.0546761136
 40
0.1377832047
 40
0.3666724731
 40
0.6597257142
 40
1.0
 40
1.0
 40
1.0
 40
1.0
 10
134.9165332951
 20
73.2136534327
 30
0.0
 10
134.9370540459
 20
73.2235717898
 30
0.0
 10
134.9935230804
 20
73.237244154
 30
0.0
 10
135.1436279826
 20
73.2638204061
 30
0.0
 10
135.3951926303
 20
73.2888938282
 30
0.0
 10
135.753744019
 20
73.3114440122
 30
0.0
 10
136.0178461735
 20
73.3175624878
 30
0.0
 10
136.1596911075
 20
73.3175624878
 30
0.0
  0
SPLINE
  5
536
100
AcDbEntity
  8
3_AXES_OTHER
100
AcDbSpline
 62
7
  6
CONTINUOUS
 70
0
 71
3
 72
12
 73
8
 74
0
 42
0.0000001
 43
0.0000001
 44
0.0000000001
 40
0.0
 40
0.0
 40
0.0
 40
0.0
 40
0.3402752309
 40
0.6333274316
 40
0.8622161703
 40
0.9453236728
 40
1.0
 40
1.0
 40
1.0
 40
1.0
 10
136.1596911075
 20
94.49866485
 30
0.0
 10
136.0178457794
 20
94.49866485
 30
0.0
 10
135.7537436652
 20
94.5047833493
 30
0.0
 10
135.3951925331
 20
94.5273335142
 30
0.0
 10
135.1436283758
 20
94.5524069192
 30
0.0
 10
134.9935234181
 20
94.5789830839
 30
0.0
 10
134.9370541261
 20
94.5926555092
 30
0.0
 10
134.9165332951
 20
94.6025739051
 30
0.0
  0
SPLINE
  5
537
100
AcDbEntity
  8
3_AXES_OTHER
100
AcDbSpline
 62
7
  6
CONTINUOUS
 70
0
 71
3
 72
12
 73
8
 74
0
 42
0.0000001
 43
0.0000001
 44
0.0000000001
 40
0.0
 40
0.0
 40
0.0
 40
0.0
 40
0.3402749564
 40
0.6333270943
 40
0.8622159986
 40
0.9453236028
 40
1.0
 40
1.0
 40
1.0
 40
1.0
 10
144.6081163043
 20
73.3175624878
 30
0.0
 10
144.7499615179
 20
73.3175624878
 30
0.0
 10
145.0140634913
 20
73.3114439962
 30
0.0
 10
145.3726145535
 20
73.2888938522
 30
0.0
 10
145.6241787963
 20
73.2638204473
 30
0.0
 10
145.7742838955
 20
73.2372442795
 30
0.0
 10
145.8307532593
 20
73.2235718413
 30
0.0
 10
145.8512741166
 20
73.2136534327
 30
0.0
  0
SPLINE
  5
538
100
AcDbEntity
  8
3_AXES_OTHER
100
AcDbSpline
 62
7
  6
CONTINUOUS
 70
0
 71
3
 72
12
 73
8
 74
0
 42
0.0000001
 43
0.0000001
 44
0.0000000001
 40
0.0
 40
0.0
 40
0.0
 40
0.0
 40
0.054676179
 40
0.1377833465
 40
0.3666728121
 40
0.6597260871
 40
1.0
 40
1.0
 40
1.0
 40
1.0
 10
145.8512741166
 20
94.6025739051
 30
0.0
 10
145.8307533412
 20
94.5926555361
 30
0.0
 10
145.7742842469
 20
94.5789831626
 30
0.0
 10
145.6241792033
 20
94.552406903
 30
0.0
 10
145.3726144269
 20
94.5273334784
 30
0.0
 10
145.0140630958
 20
94.5047833156
 30
0.0
 10
144.7499610828
 20
94.49866485
 30
0.0
 10
144.6081163043
 20
94.49866485
 30
0.0
  0
ELLIPSE
  5
539
100
AcDbEntity
  8
3_AXES_OTHER
100
AcDbEllipse
 62
7
  6
CONTINUOUS
 10
45.4415929057
 20
72.4535756112
 30
0.0
 11
3.8315354331
 21
-0.0
 31
0.0
 40
0.0966666667
 41
-0.5292973837
 42
-0.3368976966
  0
ELLIPSE
  5
53A
100
AcDbEntity
  8
3_AXES_OTHER
100
AcDbEllipse
 62
7
  6
CONTINUOUS
 10
45.4415929057
 20
95.3626517266
 30
0.0
 11
3.8315354331
 21
0.0
 31
0.0
 40
0.0966666667
 41
0.3368976966
 42
0.5292973837
  0
ELLIPSE
  5
53B
100
AcDbEntity
  8
3_AXES_OTHER
100
AcDbEllipse
 62
7
  6
CONTINUOUS
 10
47.831560466
 20
72.3726572384
 30
0.0
 11
1.2992125984
 21
0.0
 31
0.0
 40
0.0966666667
 41
-0.3368976966
 42
-0.0001541399
  0
ELLIPSE
  5
53C
100
AcDbEntity
  8
3_AXES_OTHER
100
AcDbEllipse
 62
7
  6
CONTINUOUS
 10
47.831560466
 20
95.4435700993
 30
0.0
 11
1.2992125984
 21
0.0
 31
0.0
 40
0.0966666667
 41
0.0001541399
 42
0.3368976966
  0
ELLIPSE
  5
53D
100
AcDbEntity
  8
3_AXES_OTHER
100
AcDbEllipse
 62
7
  6
CONTINUOUS
 10
36.4917040856
 20
95.4435700993
 30
0.0
 11
1.2992125984
 21
0.0
 31
0.0
 40
0.0966666667
 41
2.8046949569
 42
3.1414385174
  0
ELLIPSE
  5
53E
100
AcDbEntity
  8
3_AXES_OTHER
100
AcDbEllipse
 62
7
  6
CONTINUOUS
 10
36.4917040856
 20
72.3726572384
 30
0.0
 11
1.2992125984
 21
0.0
 31
0.0
 40
0.0966666667
 41
-3.1414385174
 42
-2.8046949569
  0
ELLIPSE
  5
53F
100
AcDbEntity
  8
3_AXES_OTHER
100
AcDbEllipse
 62
7
  6
CONTINUOUS
 10
38.8816716458
 20
72.4535756112
 30
0.0
 11
3.8315354331
 21
0.0
 31
0.0
 40
0.0966666667
 41
-2.8046949569
 42
-2.6122952699
  0
ELLIPSE
  5
540
100
AcDbEntity
  8
3_AXES_OTHER
100
AcDbEllipse
 62
7
  6
CONTINUOUS
 10
38.8816716458
 20
95.3626517266
 30
0.0
 11
3.8315354331
 21
-0.0
 31
0.0
 40
0.0966666667
 41
2.6122952699
 42
2.8046949569
  0
ELLIPSE
  5
541
100
AcDbEntity
  8
3_AXES_OTHER
100
AcDbEllipse
 62
7
  6
CONTINUOUS
 10
182.7181575836
 20
84.1308728169
 30
0.0
 11
3.8249959025
 21
0.3551575714
 31
0.0
 40
0.6300401723
 41
-1.3731292827
 42
-1.1807295956
  0
ELLIPSE
  5
542
100
AcDbEntity
  8
3_AXES_OTHER
100
AcDbEllipse
 62
7
  6
CONTINUOUS
 10
183.8162102309
 20
82.7470275419
 30
0.0
 11
1.2969951478
 21
0.120428272
 31
0.0
 40
0.6300401723
 41
-1.1807295956
 42
-0.7543881945
  0
ELLIPSE
  5
543
100
AcDbEntity
  8
3_AXES_OTHER
100
AcDbEllipse
 62
7
  6
CONTINUOUS
 10
144.565019898
 20
101.3229317437
 30
0.0
 11
52.3551742866
 21
4.8612696646
 31
0.0
 40
0.6300401723
 41
-0.7543881945
 42
-0.588052039
  0
ELLIPSE
  5
544
100
AcDbEntity
  8
3_AXES_OTHER
100
AcDbEllipse
 62
7
  6
CONTINUOUS
 10
208.5880153144
 20
83.9054903122
 30
0.0
 11
52.4032688527
 21
-4.0114083134
 31
0.0
 40
0.5194792014
 41
2.1401592088
 42
2.3064953643
  0
ELLIPSE
  5
545
100
AcDbEntity
  8
3_AXES_OTHER
100
AcDbEllipse
 62
7
  6
CONTINUOUS
 10
175.7977208867
 20
106.2125713462
 30
0.0
 11
1.2981865949
 21
-0.09937465
 31
0.0
 40
0.5194792014
 41
2.3064953643
 42
2.7328367654
  0
ELLIPSE
  5
546
100
AcDbEntity
  8
3_AXES_OTHER
100
AcDbEllipse
 62
7
  6
CONTINUOUS
 10
178.0795927767
 20
105.5123834148
 30
0.0
 11
3.8285096243
 21
-0.2930678882
 31
0.0
 40
0.5194792014
 41
2.7328367654
 42
2.9252364525
  0
ELLIPSE
  5
547
100
AcDbEntity
  8
3_AXES_OTHER
100
AcDbEllipse
 62
7
  6
CONTINUOUS
 10
182.7181575836
 20
102.8336054563
 30
0.0
 11
3.8285096243
 21
-0.2930678882
 31
0.0
 40
0.5194792014
 41
-1.2749509685
 42
-1.0825512815
  0
ELLIPSE
  5
548
100
AcDbEntity
  8
3_AXES_OTHER
100
AcDbEllipse
 62
7
  6
CONTINUOUS
 10
183.8162102309
 20
101.5818820253
 30
0.0
 11
1.2981865949
 21
-0.09937465
 31
0.0
 40
0.5194792014
 41
-1.0825512815
 42
-0.6562098803
  0
ELLIPSE
  5
549
100
AcDbEntity
  8
3_AXES_OTHER
100
AcDbEllipse
 62
7
  6
CONTINUOUS
 10
144.565019898
 20
120.8788637785
 30
0.0
 11
52.4032688527
 21
-4.0114083134
 31
0.0
 40
0.5194792014
 41
-0.6562098803
 42
-0.4898737248
  0
ELLIPSE
  5
54A
100
AcDbEntity
  8
3_ALL_AXES
100
AcDbEllipse
 62
7
  6
CONTINUOUS
 10
182.2200927244
 20
105.021490635
 30
0.0
 11
0.1966949386
 21
-0.0150567651
 31
0.0
 40
0.5194792014
 41
0.0
 42
6.2831853072
  0
ELLIPSE
  5
54B
100
AcDbEntity
  8
3_AXES_OTHER
100
AcDbEllipse
 62
7
  6
CONTINUOUS
 10
146.0538318961
 20
95.4435700993
 30
0.0
 11
1.2992125984
 21
-0.0
 31
0.0
 40
0.0966666667
 41
0.0001541362
 42
0.3368976966
  0
ELLIPSE
  5
54C
100
AcDbEntity
  8
3_AXES_OTHER
100
AcDbEllipse
 62
7
  6
CONTINUOUS
 10
146.0538318961
 20
72.3726572384
 30
0.0
 11
1.2992125984
 21
-0.0
 31
0.0
 40
0.0966666667
 41
-0.3368976966
 42
-0.0001541362
  0
ELLIPSE
  5
54D
100
AcDbEntity
  8
3_AXES_OTHER
100
AcDbEllipse
 62
7
  6
CONTINUOUS
 10
137.103943076
 20
72.4535756112
 30
0.0
 11
3.8315354331
 21
0.0
 31
0.0
 40
0.0966666667
 41
-2.8046949569
 42
-2.6122952699
  0
ELLIPSE
  5
54E
100
AcDbEntity
  8
3_AXES_OTHER
100
AcDbEllipse
 62
7
  6
CONTINUOUS
 10
137.103943076
 20
95.3626517266
 30
0.0
 11
3.8315354331
 21
0.0
 31
0.0
 40
0.0966666667
 41
2.6122952699
 42
2.8046949569
  0
ELLIPSE
  5
54F
100
AcDbEntity
  8
3_AXES_OTHER
100
AcDbEllipse
 62
7
  6
CONTINUOUS
 10
134.7139755157
 20
72.3726572384
 30
0.0
 11
1.2992125984
 21
0.0
 31
0.0
 40
0.0966666667
 41
-3.1414385137
 42
-2.8046949569
  0
ELLIPSE
  5
550
100
AcDbEntity
  8
3_AXES_OTHER
100
AcDbEllipse
 62
7
  6
CONTINUOUS
 10
134.7139755157
 20
95.4435700993
 30
0.0
 11
1.2992125984
 21
0.0
 31
0.0
 40
0.0966666667
 41
2.8046949569
 42
3.1414385137
  0
ELLIPSE
  5
551
100
AcDbEntity
  8
3_AXES_OTHER
100
AcDbEllipse
 62
7
  6
CONTINUOUS
 10
143.6638643358
 20
72.4535756112
 30
0.0
 11
3.8315354331
 21
-0.0
 31
0.0
 40
0.0966666667
 41
-0.5292973837
 42
-0.3368976966
  0
ELLIPSE
  5
552
100
AcDbEntity
  8
3_AXES_OTHER
100
AcDbEllipse
 62
7
  6
CONTINUOUS
 10
143.6638643358
 20
95.3626517266
 30
0.0
 11
3.8315354331
 21
0.0
 31
0.0
 40
0.0966666667
 41
0.3368976966
 42
0.5292973837
  0
ELLIPSE
  5
553
100
AcDbEntity
  8
3_AXES_OTHER
100
AcDbEllipse
 62
7
  6
CONTINUOUS
 10
95.1128094951
 20
95.8851959524
 30
0.0
 11
52.4446850394
 21
-0.0
 31
0.0
 40
0.0966666667
 41
-0.25577986
 42
-0.0894437045
  0
ELLIPSE
  5
554
100
AcDbEntity
  8
3_AXES_OTHER
100
AcDbEllipse
 62
7
  6
CONTINUOUS
 10
185.6549979167
 20
95.8851959524
 30
0.0
 11
52.4446850394
 21
-0.0
 31
0.0
 40
0.0966666667
 41
-3.0521489491
 42
-2.8858127936
  0
ELLIPSE
  5
555
100
AcDbEntity
  8
3_AXES_OTHER
100
AcDbEllipse
 62
7
  6
CONTINUOUS
 10
185.6549979167
 20
71.9310313854
 30
0.0
 11
52.4446850394
 21
0.0
 31
0.0
 40
0.0966666667
 41
2.8858127936
 42
3.0521489491
  0
ELLIPSE
  5
556
100
AcDbEntity
  8
3_ALL_AXES
100
AcDbEllipse
 62
7
  6
CONTINUOUS
 10
140.3839037059
 20
95.1136779734
 30
0.0
 11
0.1968503937
 21
0.0
 31
0.0
 40
0.0966666667
 41
0.0
 42
6.2831853072
  0
ELLIPSE
  5
557
100
AcDbEntity
  8
3_ALL_AXES
100
AcDbEllipse
 62
7
  6
CONTINUOUS
 10
140.3839037059
 20
72.7025493644
 30
0.0
 11
0.1968503937
 21
0.0
 31
0.0
 40
0.0966666667
 41
0.0
 42
6.2831853072
  0
ELLIPSE
  5
558
100
AcDbEntity
  8
3_ALL_AXES
100
AcDbEllipse
 62
7
  6
CONTINUOUS
 10
135.4823289027
 20
72.4802921466
 30
0.0
 11
0.1968503937
 21
0.0
 31
0.0
 40
0.0966666667
 41
0.0
 42
6.2831853072
  0
ELLIPSE
  5
559
100
AcDbEntity
  8
3_AXES_OTHER
100
AcDbEllipse
 62
7
  6
CONTINUOUS
 10
95.1128094951
 20
71.9310313854
 30
0.0
 11
52.4446850394
 21
0.0
 31
0.0
 40
0.0966666667
 41
0.0894437045
 42
0.25577986
  0
ELLIPSE
  5
55A
100
AcDbEntity
  8
3_ALL_AXES
100
AcDbEllipse
 62
7
  6
CONTINUOUS
 10
145.285478509
 20
72.4802921466
 30
0.0
 11
0.1968503937
 21
0.0
 31
0.0
 40
0.0966666667
 41
0.0
 42
6.2831853072
  0
ENDSEC
  0
SECTION
  2
OBJECTS
  0
DICTIONARY
  5
C
100
AcDbDictionary
280
0
281
1
  3
ACAD_GROUP
350
D
  3
ACAD_MLINESTYLE
350
17
  3
ACAD_LAYOUT
350
1A
  3
ACAD_PLOTSETTINGS
350
19
  3
ACAD_PLOTSTYLENAME
350
E
  0
DICTIONARY
  5
D
102
{ACAD_REACTORS
330
C
102
}
100
AcDbDictionary
280
0
281
1
  0
ACDBDICTIONARYWDFLT
  5
E
102
{ACAD_REACTORS
330
C
102
}
100
AcDbDictionary
281
1
  3
Normal
350
F
100
AcDbDictionaryWithDefault
340
F
  0
DICTIONARY
  5
17
102
{ACAD_REACTORS
330
C
102
}
100
AcDbDictionary
280
0
281
1
  3
Standard
350
18
  0
DICTIONARY
  5
19
102
{ACAD_REACTORS
330
C
102
}
100
AcDbDictionary
281
1
  0
DICTIONARY
  5
1A
102
{ACAD_REACTORS
330
C
102
}
100
AcDbDictionary
281
1
  3
Model
350
55B
  3
Layout1
350
55C
  0
ACDBPLACEHOLDER
  5
F
102
{ACAD_REACTORS
330
E
102
}
  0
MLINESTYLE
  5
18
102
{ACAD_REACTORS
330
17
102
}
100
AcDbMlineStyle
  2
STANDARD
 70
0
  3

 62
256
 51
90.0
 52
90.0
 71
2
 49
0.5
 62
256
  6
BYLAYER
 49
-0.5
 62
256
  6
BYLAYER
  0
LAYOUT
  5
55B
102
{ACAD_REACTORS
330
1A
102
}
100
AcDbPlotSettings
  1

  2
none_device
  4
ANSI_B_(17.00_x_11.00_Inches)
  6

 40
0.0
 41
0.0
 42
0.0
 43
0.0
 44
431.8
 45
279.4
 46
0.0
 47
0.0
 48
0.0
 49
0.0
140
0.0
141
0.0
142
1.0
143
1.0
 70
1024
 72
0
 73
0
 74
0
  7

 75
0
147
1.0
148
0.0
149
0.0
100
AcDbLayout
  1
Model
 70
0
 71
0
 10
0.0
 20
0.0
 11
17.0
 21
11.0
 12
0.0
 22
0.0
 32
0.0
 14
0.0
 24
0.0
 34
0.0
 15
0.0
 25
0.0
 35
0.0
146
0.0
 13
0.0
 23
0.0
 33
0.0
 16
1.0
 26
0.0
 36
0.0
 17
0.0
 27
1.0
 37
0.0
 76
0
330
211
345
0
346
0
  0
LAYOUT
  5
55C
102
{ACAD_REACTORS
330
1A
102
}
100
AcDbPlotSettings
  1

  2
none_device
  4
ANSI_B_(17.00_x_11.00_Inches)
  6

 40
0.0
 41
0.0
 42
0.0
 43
0.0
 44
431.8
 45
279.4
 46
0.0
 47
0.0
 48
0.0
 49
0.0
140
0.0
141
0.0
142
1.0
143
1.0
 70
0
 72
0
 73
0
 74
0
  7

 75
0
147
1.0
148
0.0
149
0.0
100
AcDbLayout
  1
Layout1
 70
0
 71
1
 10
0.0
 20
0.0
 11
17.0
 21
11.0
 12
0.0
 22
0.0
 32
0.0
 14
0.0
 24
0.0
 34
0.0
 15
0.0
 25
0.0
 35
0.0
146
0.0
 13
0.0
 23
0.0
 33
0.0
 16
1.0
 26
0.0
 36
0.0
 17
0.0
 27
1.0
 37
0.0
 76
0
330
212
345
0
346
0
  0
ENDSEC
  0
EOF
