999
DXF file: fg-901165-2d-A.dxf
999
Pro/ENGINEER 2016130 by Parametric Technology Corporation
  0
SECTION
  2
HEADER
  9
$ACADVER
  1
AC1015
  9
$DWGCODEPAGE
  3
ANSI_1252
  9
$EXTMAX
 10
68.0
 20
44.0
 30
0.0
  9
$EXTMIN
 10
0.0
 20
0.0
 30
0.0
  9
$LIMMIN
 10
0.0
 20
0.0
  9
$LIMMAX
 10
68.0
 20
44.0
  9
$VIEWCTR
 10
34.0
 20
22.0
  9
$VIEWSIZE
 40
44.0
  9
$CLAYER
  8
0
  9
$LTSCALE
 40
3.74
  9
$CELTYPE
  6
BYLAYER
  9
$DIMSCALE
 40
1.0
  9
$DIMASZ
 40
0.375
  9
$DIMEXO
 40
0.0625
  9
$DIMDLI
 40
2.584
  9
$DIMEXE
 40
0.125
  9
$DIMCEN
 40
0.612
  9
$DIMLFAC
 40
1.0
  9
$DIMBLK
  1
_FILLED
  9
$DIMALT
 70
0
  9
$DIMALTF
 40
25.4
  9
$DIMTXT
 40
0.3125
  9
$DIMTOL
 70
1
  9
$DIMLIM
 70
0
  9
$DIMTFAC
 40
1.0
  9
$DIMTP
 40
0.02
  9
$DIMTM
 40
0.02
  9
$DIMGAP
 40
0.09
  9
$DIMDSEP
 70
46
  9
$AUNITS
 70
0
  9
$PDMODE
 70
3
  9
$PDSIZE
 40
0.3125
  9
$HANDSEED
  5
89D
  9
$TILEMODE
 70
1
  9
$MEASUREMENT
 70
0
  9
$INSUNITS
 70
1
  0
ENDSEC
  0
SECTION
  2
CLASSES
  0
CLASS
  1
ACDBDICTIONARYWDFLT
  2
AcDbDictionaryWithDefault
  3
AutoCAD 2000
 90
0
280
0
281
0
  0
CLASS
  1
ACDBPLACEHOLDER
  2
AcDbPlaceHolder
  3
AutoCAD 2000
 90
0
280
0
281
0
  0
CLASS
  1
LAYOUT
  2
AcDbLayout
  3
AutoCAD 2000
 90
0
280
0
281
0
  0
ENDSEC
  0
SECTION
  2
TABLES
  0
TABLE
  2
VPORT
  5
8
100
AcDbSymbolTable
 70
2
  0
VPORT
  5
1F4
100
AcDbSymbolTableRecord
100
AcDbViewportTableRecord
  2
*ACTIVE
 70
0
 10
0.0
 20
0.0
 11
1.0
 21
1.0
 12
34.0
 22
22.0
 13
0.0
 23
0.0
 14
1.0
 24
1.0
 15
0.0
 25
0.0
 16
0.0
 26
0.0
 36
1.0
 17
0.0
 27
0.0
 37
0.0
 40
44.0
 41
1.5454545455
 42
50.0
 43
0.0
 44
0.0
 50
0.0
 51
0.0
 71
0
 72
100
 73
1
 74
1
 75
0
 76
0
 77
0
 78
0
  0
ENDTAB
  0
TABLE
  2
LTYPE
  5
5
100
AcDbSymbolTable
 70
6
  0
LTYPE
  5
14
100
AcDbSymbolTableRecord
100
AcDbLinetypeTableRecord
  2
BYBLOCK
 70
0
  3

 72
65
 73
0
 40
0.0
  0
LTYPE
  5
15
100
AcDbSymbolTableRecord
100
AcDbLinetypeTableRecord
  2
BYLAYER
 70
0
  3

 72
65
 73
0
 40
0.0
  0
LTYPE
  5
16
100
AcDbSymbolTableRecord
100
AcDbLinetypeTableRecord
  2
CONTINUOUS
 70
64
  3
Solid line
 72
65
 73
0
 40
0.0
  0
LTYPE
  5
1F5
100
AcDbSymbolTableRecord
100
AcDbLinetypeTableRecord
  2
CENTER
 70
64
  3
____ _ ____ _ ____ _ ____ _ ____ _ ____ _ ____
 72
65
 73
4
 40
0.6
 49
0.375
 74
0
 49
-0.075
 74
0
 49
0.075
 74
0
 49
-0.075
 74
0
  0
LTYPE
  5
1F6
100
AcDbSymbolTableRecord
100
AcDbLinetypeTableRecord
  2
HIDDEN
 70
64
  3
- - - - - - - - - - - - - - - - - - - -
 72
65
 73
2
 40
0.2
 49
0.1
 74
0
 49
-0.1
 74
0
  0
LTYPE
  5
1F7
100
AcDbSymbolTableRecord
100
AcDbLinetypeTableRecord
  2
PHANTOM
 70
64
  3
_____ _ _ _____ _ _ _____ _ _ _____
 72
65
 73
6
 40
0.8
 49
0.45
 74
0
 49
-0.05
 74
0
 49
0.1
 74
0
 49
-0.05
 74
0
 49
0.1
 74
0
 49
-0.05
 74
0
  0
LTYPE
  5
1F8
100
AcDbSymbolTableRecord
100
AcDbLinetypeTableRecord
  2
DOT
 70
64
  3
. . . . . . . . . . . . . . . . . . . .
 72
65
 73
2
 40
0.2
 49
0.1
 74
0
 49
-0.1
 74
0
  0
LTYPE
  5
1F9
100
AcDbSymbolTableRecord
100
AcDbLinetypeTableRecord
  2
DASHED
 70
64
  3
- - - - - - - - - - - - - - - - - - - -
 72
65
 73
2
 40
0.2
 49
0.1
 74
0
 49
-0.1
 74
0
  0
ENDTAB
  0
TABLE
  2
LAYER
  5
2
100
AcDbSymbolTable
 70
36
  0
LAYER
  5
10
100
AcDbSymbolTableRecord
100
AcDbLayerTableRecord
  2
0
 70
0
 62
7
  6
CONTINUOUS
370
-3
390
F
  0
LAYER
  5
1FA
100
AcDbSymbolTableRecord
100
AcDbLayerTableRecord
  2
DEFAULT_1
 70
0
 62
7
  6
CENTER
370
-3
390
F
  0
LAYER
  5
1FB
100
AcDbSymbolTableRecord
100
AcDbLayerTableRecord
  2
DEFAULT_2
 70
0
 62
8
  6
HIDDEN
370
-3
390
F
  0
LAYER
  5
1FC
100
AcDbSymbolTableRecord
100
AcDbLayerTableRecord
  2
DEFAULT_3
 70
0
 62
7
  6
PHANTOM
370
-3
390
F
  0
LAYER
  5
1FD
100
AcDbSymbolTableRecord
100
AcDbLayerTableRecord
  2
1_ALL_PLANES
 70
0
 62
7
  6
CONTINUOUS
370
-3
390
F
  0
LAYER
  5
1FE
100
AcDbSymbolTableRecord
100
AcDbLayerTableRecord
  2
1_DEF_PLANES
 70
0
 62
7
  6
CONTINUOUS
370
-3
390
F
  0
LAYER
  5
1FF
100
AcDbSymbolTableRecord
100
AcDbLayerTableRecord
  2
2_ALL_CSYS
 70
0
 62
7
  6
CONTINUOUS
370
-3
390
F
  0
LAYER
  5
200
100
AcDbSymbolTableRecord
100
AcDbLayerTableRecord
  2
2_DEF_CSYS
 70
0
 62
7
  6
CONTINUOUS
370
-3
390
F
  0
LAYER
  5
201
100
AcDbSymbolTableRecord
100
AcDbLayerTableRecord
  2
3_ALL_AXES
 70
0
 62
7
  6
CONTINUOUS
370
-3
390
F
  0
LAYER
  5
202
100
AcDbSymbolTableRecord
100
AcDbLayerTableRecord
  2
3_AXES_OTHER
 70
0
 62
7
  6
CONTINUOUS
370
-3
390
F
  0
LAYER
  5
203
100
AcDbSymbolTableRecord
100
AcDbLayerTableRecord
  2
3_HOLES
 70
0
 62
7
  6
CONTINUOUS
370
-3
390
F
  0
LAYER
  5
204
100
AcDbSymbolTableRecord
100
AcDbLayerTableRecord
  2
4_ALL_POINTS
 70
0
 62
7
  6
CONTINUOUS
370
-3
390
F
  0
LAYER
  5
205
100
AcDbSymbolTableRecord
100
AcDbLayerTableRecord
  2
5_ALL_CURVES
 70
0
 62
7
  6
CONTINUOUS
370
-3
390
F
  0
LAYER
  5
206
100
AcDbSymbolTableRecord
100
AcDbLayerTableRecord
  2
6_ALL_SURFS
 70
0
 62
7
  6
CONTINUOUS
370
-3
390
F
  0
LAYER
  5
207
100
AcDbSymbolTableRecord
100
AcDbLayerTableRecord
  2
6_COPYGEOM
 70
0
 62
7
  6
CONTINUOUS
370
-3
390
F
  0
LAYER
  5
208
100
AcDbSymbolTableRecord
100
AcDbLayerTableRecord
  2
7_ALL_ROUNDS
 70
0
 62
7
  6
CONTINUOUS
370
-3
390
F
  0
LAYER
  5
209
100
AcDbSymbolTableRecord
100
AcDbLayerTableRecord
  2
7_MERGES
 70
0
 62
7
  6
CONTINUOUS
370
-3
390
F
  0
LAYER
  5
20A
100
AcDbSymbolTableRecord
100
AcDbLayerTableRecord
  2
8_GDT
 70
0
 62
7
  6
CONTINUOUS
370
-3
390
F
  0
LAYER
  5
20B
100
AcDbSymbolTableRecord
100
AcDbLayerTableRecord
  2
8_SET_DATUMS
 70
0
 62
7
  6
CONTINUOUS
370
-3
390
F
  0
LAYER
  5
20C
100
AcDbSymbolTableRecord
100
AcDbLayerTableRecord
  2
9_COSMETICS
 70
0
 62
7
  6
CONTINUOUS
370
-3
390
F
  0
LAYER
  5
20D
100
AcDbSymbolTableRecord
100
AcDbLayerTableRecord
  2
9_THREADS
 70
0
 62
7
  6
CONTINUOUS
370
-3
390
F
  0
ENDTAB
  0
TABLE
  2
STYLE
  5
3
100
AcDbSymbolTable
 70
1
  0
STYLE
  5
11
100
AcDbSymbolTableRecord
100
AcDbTextStyleTableRecord
  2
STANDARD
 70
0
 40
0.0
 41
0.8
 50
0.0
 71
0
 42
0.2
  3
txt
  4

  0
STYLE
  5
20E
100
AcDbSymbolTableRecord
100
AcDbTextStyleTableRecord
  2
TEXTSTYLE_1
 70
0
 40
0.0
 41
0.8
 50
0.0
 71
0
 42
0.2
  3
gdt
  4

  0
ENDTAB
  0
TABLE
  2
VIEW
  5
6
100
AcDbSymbolTable
 70
0
  0
ENDTAB
  0
TABLE
  2
UCS
  5
7
100
AcDbSymbolTable
 70
0
  0
ENDTAB
  0
TABLE
  2
APPID
  5
9
100
AcDbSymbolTable
 70
1
  0
APPID
  5
20F
100
AcDbSymbolTableRecord
100
AcDbRegAppTableRecord
  2
ACAD
 70
0
  0
ENDTAB
  0
TABLE
  2
BLOCK_RECORD
  5
1
100
AcDbSymbolTable
 70
0
  0
BLOCK_RECORD
  5
210
100
AcDbSymbolTableRecord
100
AcDbBlockTableRecord
  2
*Model_Space
  0
BLOCK_RECORD
  5
211
100
AcDbSymbolTableRecord
100
AcDbBlockTableRecord
  2
*Paper_Space
  0
BLOCK_RECORD
  5
212
100
AcDbSymbolTableRecord
100
AcDbBlockTableRecord
  2
_FILLED
  0
BLOCK_RECORD
  5
213
100
AcDbSymbolTableRecord
100
AcDbBlockTableRecord
  2
_DOT
  0
BLOCK_RECORD
  5
214
100
AcDbSymbolTableRecord
100
AcDbBlockTableRecord
  2
*D0
  0
BLOCK_RECORD
  5
215
100
AcDbSymbolTableRecord
100
AcDbBlockTableRecord
  2
*D1
  0
BLOCK_RECORD
  5
216
100
AcDbSymbolTableRecord
100
AcDbBlockTableRecord
  2
*D2
  0
BLOCK_RECORD
  5
217
100
AcDbSymbolTableRecord
100
AcDbBlockTableRecord
  2
*D3
  0
BLOCK_RECORD
  5
218
100
AcDbSymbolTableRecord
100
AcDbBlockTableRecord
  2
*D4
  0
BLOCK_RECORD
  5
219
100
AcDbSymbolTableRecord
100
AcDbBlockTableRecord
  2
*D5
  0
BLOCK_RECORD
  5
21A
100
AcDbSymbolTableRecord
100
AcDbBlockTableRecord
  2
*D6
  0
BLOCK_RECORD
  5
21B
100
AcDbSymbolTableRecord
100
AcDbBlockTableRecord
  2
*D7
  0
BLOCK_RECORD
  5
21C
100
AcDbSymbolTableRecord
100
AcDbBlockTableRecord
  2
RD010411_BL0
  0
ENDTAB
  0
TABLE
  2
DIMSTYLE
  5
A
100
AcDbSymbolTable
 70
1
100
AcDbDimStyleTable
 71
0
  0
DIMSTYLE
105
21D
100
AcDbSymbolTableRecord
100
AcDbDimStyleTableRecord
  2
STANDARD
 70
0
  3

  4

 40
1.0
 41
0.375
 42
0.0625
 43
0.38
 44
0.125
 45
0.0
 46
0.0
 47
0.02
 48
0.02
140
0.3125
141
0.09
142
0.0
143
25.4
144
1.0
145
0.0
146
1.0
147
0.09
 71
1.0
 72
0.0
 73
1
 74
1
 75
0
 76
0
 77
0
 78
0
170
0
171
2
172
0
173
0
174
0
175
0
176
0
177
0
178
0
270
2
271
2
272
2
273
2
274
2
275
0
280
0
281
0
282
0
283
1
284
0
285
0
286
0
287
3
288
0
340
11
278
46
341
212
342
212
343
212
344
212
  0
DIMSTYLE
105
21E
100
AcDbSymbolTableRecord
100
AcDbDimStyleTableRecord
  2
DIMSTYLE_1
 70
0
  3
<>
  4

 40
1.0
 41
0.375
 42
0.0625
 43
0.38
 44
0.125
 45
0.0
 46
0.0
 47
0.1
 48
0.1
140
0.3125
141
0.09
142
0.0
143
25.4
144
1.0
145
0.0
146
1.0
147
0.09
 71
0.0
 72
0.0
 73
1
 74
1
 75
0
 76
0
 77
0
 78
0
170
0
171
2
172
0
173
0
174
0
175
0
176
0
177
0
178
0
270
2
271
1
272
1
273
2
274
2
275
0
280
0
281
0
282
0
283
1
284
0
285
0
286
0
287
3
288
1
340
11
278
46
289
2
341
212
342
212
343
212
344
212
  0
DIMSTYLE
105
21F
100
AcDbSymbolTableRecord
100
AcDbDimStyleTableRecord
  2
DIMSTYLE_2
 70
0
  3

  4

 40
1.0
 41
0.375
 42
0.0625
 43
0.38
 44
0.125
 45
0.0
 46
0.0
 47
0.1
 48
0.1
140
0.3125
141
0.09
142
0.0
143
25.4
144
1.0
145
0.0
146
1.0
147
0.078125
 71
0.0
 72
0.0
 73
1
 74
1
 75
0
 76
0
 77
0
 78
0
170
0
171
2
172
0
173
0
174
0
175
0
176
0
177
0
178
0
270
2
271
1
272
1
273
2
274
2
275
0
280
0
281
0
282
0
283
1
284
0
285
0
286
0
287
3
288
0
340
11
278
46
341
212
342
212
343
212
344
212
  0
ENDTAB
  0
ENDSEC
  0
SECTION
  2
BLOCKS
  0
BLOCK
  5
20
100
AcDbEntity
  8
0
100
AcDbBlockBegin
  2
*Model_Space
 70
0
 10
0.0
 20
0.0
 30
0.0
  3
*Model_Space
  1

  0
ENDBLK
  5
21
100
AcDbEntity
  8
0
100
AcDbBlockEnd
  0
BLOCK
  5
1C
100
AcDbEntity
  8
0
100
AcDbBlockBegin
  2
*Paper_Space
 70
0
 10
0.0
 20
0.0
 30
0.0
  3
*Paper_Space
  1

  0
ENDBLK
  5
1D
100
AcDbEntity
  8
0
100
AcDbBlockEnd
  0
BLOCK
  5
220
100
AcDbEntity
  8
0
100
AcDbBlockBegin
 62
7
  6
CONTINUOUS
  2
RD010411_BL0
 70
64
 10
57.7776405976
 20
5.4022213303
  3
RD010411_BL0
  1

  0
ARC
  5
221
100
AcDbEntity
  8
0
100
AcDbCircle
 62
7
  6
CONTINUOUS
 10
59.0819637369
 20
5.6029752454
 40
0.0247430265
100
AcDbArc
 50
270.0
 51
360.0
  0
LINE
  5
222
100
AcDbEntity
  8
0
100
AcDbLine
 62
7
  6
CONTINUOUS
 10
59.1067067634
 20
5.6029752454
 11
59.1067067634
 21
5.6524783038
  0
ARC
  5
223
100
AcDbEntity
  8
0
100
AcDbCircle
 62
7
  6
CONTINUOUS
 10
59.0819637369
 20
5.6524783038
 40
0.0247430265
100
AcDbArc
 50
0.0
 51
90.0
  0
LINE
  5
224
100
AcDbEntity
  8
0
100
AcDbLine
 62
7
  6
CONTINUOUS
 10
59.0819637369
 20
5.6772213303
 11
58.4167770725
 21
5.6772213303
  0
SPLINE
  5
225
100
AcDbEntity
  8
0
100
AcDbSpline
 62
7
  6
CONTINUOUS
 70
0
 71
3
 72
13
 73
9
 74
0
 42
0.0000001
 43
0.0000001
 44
0.0000000001
 40
0.0
 40
0.0
 40
0.0
 40
0.0
 40
0.1310616762
 40
0.2699656353
 40
0.4157607805
 40
0.5899807757
 40
0.76586761
 40
0.9948829976
 40
0.9948829976
 40
0.9948829976
 40
0.9948829976
 10
58.4167770725
 20
5.6772213303
 30
0.0
 10
58.4027942434
 20
5.67617988
 30
0.0
 10
58.3739919011
 20
5.6740346626
 30
0.0
 10
58.3349589914
 20
5.6498476469
 30
0.0
 10
58.3069380201
 20
5.6092420039
 30
0.0
 10
58.2887173369
 20
5.5595902407
 30
0.0
 10
58.2784543356
 20
5.4988951451
 30
0.0
 10
58.2775093907
 20
5.4560069247
 30
0.0
 10
58.2770196478
 20
5.431745876
 30
0.0
  0
LINE
  5
226
100
AcDbEntity
  8
0
100
AcDbLine
 62
7
  6
CONTINUOUS
 10
58.2770196478
 20
5.431745876
 11
58.2770630744
 21
5.4279810182
  0
SPLINE
  5
227
100
AcDbEntity
  8
0
100
AcDbSpline
 62
7
  6
CONTINUOUS
 70
0
 71
3
 72
13
 73
9
 74
0
 42
0.0000001
 43
0.0000001
 44
0.0000000001
 40
0.0
 40
0.0
 40
0.0
 40
0.0
 40
0.2222860645
 40
0.3981728988
 40
0.572392894
 40
0.7181880393
 40
0.8570919984
 40
0.9881536746
 40
0.9881536746
 40
0.9881536746
 40
0.9881536746
 10
58.2770630744
 20
5.4279810182
 30
0.0
 10
58.2775431653
 20
5.4044331609
 30
0.0
 10
58.2785733793
 20
5.362265561
 30
0.0
 10
58.2887173285
 20
5.3022740315
 30
0.0
 10
58.3069382299
 20
5.2526278213
 30
0.0
 10
58.3349583272
 20
5.2120049453
 30
0.0
 10
58.3739942159
 20
5.1878757469
 30
0.0
 10
58.4027895362
 20
5.1855943884
 30
0.0
 10
58.4167770725
 20
5.1845525879
 30
0.0
  0
LINE
  5
228
100
AcDbEntity
  8
0
100
AcDbLine
 62
7
  6
CONTINUOUS
 10
58.4167770725
 20
5.1845525879
 11
59.082017741
 21
5.1860045433
  0
ARC
  5
229
100
AcDbEntity
  8
0
100
AcDbCircle
 62
7
  6
CONTINUOUS
 10
59.0819637369
 20
5.2107475108
 40
0.0247430265
100
AcDbArc
 50
270.125053868
 51
360.0
  0
LINE
  5
22A
100
AcDbEntity
  8
0
100
AcDbLine
 62
7
  6
CONTINUOUS
 10
59.1067067634
 20
5.2107475108
 11
59.1067067634
 21
5.2583178693
  0
ARC
  5
22B
100
AcDbEntity
  8
0
100
AcDbCircle
 62
7
  6
CONTINUOUS
 10
59.0819637369
 20
5.2583178693
 40
0.0247430265
100
AcDbArc
 50
0.0
 51
90.0
  0
LINE
  5
22C
100
AcDbEntity
  8
0
100
AcDbLine
 62
7
  6
CONTINUOUS
 10
59.0819637369
 20
5.2830608959
 11
58.5118078505
 21
5.2830608959
  0
LINE
  5
22D
100
AcDbEntity
  8
0
100
AcDbLine
 62
7
  6
CONTINUOUS
 10
58.487064824
 20
5.3078039224
 11
58.487064824
 21
5.5534891923
  0
ARC
  5
22E
100
AcDbEntity
  8
0
100
AcDbCircle
 62
7
  6
CONTINUOUS
 10
58.5118078507
 20
5.5534891923
 40
0.0247430265
100
AcDbArc
 50
90.0
 51
180.0
  0
LINE
  5
22F
100
AcDbEntity
  8
0
100
AcDbLine
 62
7
  6
CONTINUOUS
 10
58.5118078505
 20
5.5782322189
 11
59.0819637369
 21
5.5782322189
  0
LINE
  5
230
100
AcDbEntity
  8
0
100
AcDbLine
 62
7
  6
CONTINUOUS
 10
57.495169266
 20
5.3809262012
 11
57.9703931345
 21
5.3809262012
  0
ARC
  5
231
100
AcDbEntity
  8
0
100
AcDbCircle
 62
7
  6
CONTINUOUS
 10
57.9703931344
 20
5.3561831747
 40
0.0247430265
100
AcDbArc
 50
0.0
 51
90.0
  0
LINE
  5
232
100
AcDbEntity
  8
0
100
AcDbLine
 62
7
  6
CONTINUOUS
 10
57.995136161
 20
5.3561831746
 11
57.995136161
 21
5.3056604702
  0
LINE
  5
233
100
AcDbEntity
  8
0
100
AcDbLine
 62
7
  6
CONTINUOUS
 10
57.9703931345
 20
5.2809174437
 11
57.4164328547
 21
5.2809174437
  0
ARC
  5
234
100
AcDbEntity
  8
0
100
AcDbCircle
 62
7
  6
CONTINUOUS
 10
57.4164328547
 20
5.2561744171
 40
0.0247430265
100
AcDbArc
 50
90.0
 51
180.0
  0
LINE
  5
235
100
AcDbEntity
  8
0
100
AcDbLine
 62
7
  6
CONTINUOUS
 10
57.3916898282
 20
5.2561744171
 11
57.3916898282
 21
5.2092953647
  0
ARC
  5
236
100
AcDbEntity
  8
0
100
AcDbCircle
 62
7
  6
CONTINUOUS
 10
57.4164328547
 20
5.2092953647
 40
0.0247430265
100
AcDbArc
 50
180.0
 51
270.0
  0
LINE
  5
237
100
AcDbEntity
  8
0
100
AcDbLine
 62
7
  6
CONTINUOUS
 10
57.4164328547
 20
5.1845523381
 11
58.1041462888
 21
5.1845523381
  0
SPLINE
  5
238
100
AcDbEntity
  8
0
100
AcDbSpline
 62
7
  6
CONTINUOUS
 70
0
 71
3
 72
13
 73
9
 74
0
 42
0.0000001
 43
0.0000001
 44
0.0000000001
 40
0.0
 40
0.0
 40
0.0
 40
0.0
 40
0.1604571392
 40
0.3334692485
 40
0.4767982758
 40
0.6242014838
 40
0.7505998515
 40
1.0
 40
1.0
 40
1.0
 40
1.0
 10
58.1041462888
 20
5.1845523381
 30
0.0
 10
58.1157412232
 20
5.1851106135
 30
0.0
 10
58.1398383372
 20
5.186270846
 30
0.0
 10
58.1722421298
 20
5.2003390868
 30
0.0
 10
58.1966594551
 20
5.2239866254
 30
0.0
 10
58.2104195783
 20
5.2510976148
 30
0.0
 10
58.2209692595
 20
5.2874672848
 30
0.0
 10
58.221397366
 20
5.3146846205
 30
0.0
 10
58.2216814802
 20
5.332747511
 30
0.0
  0
SPLINE
  5
239
100
AcDbEntity
  8
0
100
AcDbSpline
 62
7
  6
CONTINUOUS
 70
0
 71
3
 72
13
 73
9
 74
0
 42
0.0000001
 43
0.0000001
 44
0.0000000001
 40
0.0
 40
0.0
 40
0.0
 40
0.0
 40
0.2494001485
 40
0.3757985162
 40
0.5232017242
 40
0.6665307515
 40
0.8395428608
 40
1.0
 40
1.0
 40
1.0
 40
1.0
 10
58.2216814802
 20
5.332747511
 30
0.0
 10
58.221397366
 20
5.3508104019
 30
0.0
 10
58.2209692595
 20
5.3780277372
 30
0.0
 10
58.2104195783
 20
5.4143974076
 30
0.0
 10
58.1966594551
 20
5.441508397
 30
0.0
 10
58.1722421298
 20
5.4651559351
 30
0.0
 10
58.1398383372
 20
5.4792241759
 30
0.0
 10
58.1157412232
 20
5.4803844088
 30
0.0
 10
58.1041462888
 20
5.4809426838
 30
0.0
  0
LINE
  5
23A
100
AcDbEntity
  8
0
100
AcDbLine
 62
7
  6
CONTINUOUS
 10
58.1041462888
 20
5.4809426838
 11
57.63525684
 21
5.4809426838
  0
LINE
  5
23B
100
AcDbEntity
  8
0
100
AcDbLine
 62
7
  6
CONTINUOUS
 10
57.6105138134
 20
5.5056857104
 11
57.6105138134
 21
5.5525019989
  0
ARC
  5
23C
100
AcDbEntity
  8
0
100
AcDbCircle
 62
7
  6
CONTINUOUS
 10
57.6352568398
 20
5.5525019989
 40
0.0247430265
100
AcDbArc
 50
90.0
 51
180.0
  0
LINE
  5
23D
100
AcDbEntity
  8
0
100
AcDbLine
 62
7
  6
CONTINUOUS
 10
57.63525684
 20
5.5772450254
 11
58.1899690394
 21
5.5772450254
  0
ARC
  5
23E
100
AcDbEntity
  8
0
100
AcDbCircle
 62
7
  6
CONTINUOUS
 10
58.1899690394
 20
5.601988052
 40
0.0247430265
100
AcDbArc
 50
270.0
 51
360.0
  0
LINE
  5
23F
100
AcDbEntity
  8
0
100
AcDbLine
 62
7
  6
CONTINUOUS
 10
58.2147120659
 20
5.601988052
 11
58.2147120659
 21
5.6524783038
  0
ARC
  5
240
100
AcDbEntity
  8
0
100
AcDbCircle
 62
7
  6
CONTINUOUS
 10
58.1899690394
 20
5.6524783038
 40
0.0247430265
100
AcDbArc
 50
0.0
 51
90.0
  0
LINE
  5
241
100
AcDbEntity
  8
0
100
AcDbLine
 62
7
  6
CONTINUOUS
 10
58.1899690394
 20
5.6772213303
 11
57.495169266
 21
5.6772213303
  0
SPLINE
  5
242
100
AcDbEntity
  8
0
100
AcDbSpline
 62
7
  6
CONTINUOUS
 70
0
 71
3
 72
13
 73
9
 74
0
 42
0.0000001
 43
0.0000001
 44
0.0000000001
 40
0.0
 40
0.0
 40
0.0
 40
0.0
 40
0.1133740464
 40
0.2392044088
 40
0.3655787964
 40
0.4912154373
 40
0.7445390876
 40
1.0
 40
1.0
 40
1.0
 40
1.0
 10
57.495169266
 20
5.6772213303
 30
0.0
 10
57.4872320137
 20
5.6768303837
 30
0.0
 10
57.4704854499
 20
5.6760055368
 30
0.0
 10
57.4456100859
 20
5.6685735211
 30
0.0
 10
57.4233566486
 20
5.6535659669
 30
0.0
 10
57.400624564
 20
5.6259214794
 30
0.0
 10
57.3863200943
 20
5.5825233121
 30
0.0
 10
57.3847687724
 20
5.5469401064
 30
0.0
 10
57.3839898535
 20
5.5290737658
 30
0.0
  0
SPLINE
  5
243
100
AcDbEntity
  8
0
100
AcDbSpline
 62
7
  6
CONTINUOUS
 70
0
 71
3
 72
13
 73
9
 74
0
 42
0.0000001
 43
0.0000001
 44
0.0000000001
 40
0.0
 40
0.0
 40
0.0
 40
0.0
 40
0.2554609124
 40
0.5087845627
 40
0.6344212036
 40
0.7607955912
 40
0.8866259536
 40
1.0
 40
1.0
 40
1.0
 40
1.0
 10
57.3839898535
 20
5.5290737658
 30
0.0
 10
57.3847687724
 20
5.5112074251
 30
0.0
 10
57.3863200943
 20
5.475624219
 30
0.0
 10
57.400624564
 20
5.4322260521
 30
0.0
 10
57.4233566486
 20
5.4045815646
 30
0.0
 10
57.4456100859
 20
5.3895740104
 30
0.0
 10
57.4704854499
 20
5.3821419947
 30
0.0
 10
57.4872320137
 20
5.3813171478
 30
0.0
 10
57.495169266
 20
5.3809262012
 30
0.0
  0
LINE
  5
244
100
AcDbEntity
  8
0
100
AcDbLine
 62
7
  6
CONTINUOUS
 10
56.5809416116
 20
5.1845523381
 11
56.9653966053
 21
5.1845523381
  0
LINE
  5
245
100
AcDbEntity
  8
0
100
AcDbLine
 62
7
  6
CONTINUOUS
 10
56.9653966053
 20
5.1845523381
 11
56.9653966053
 21
5.136737879
  0
ARC
  5
246
100
AcDbEntity
  8
0
100
AcDbCircle
 62
7
  6
CONTINUOUS
 10
56.974913154
 20
5.136737879
 40
0.0095165487
100
AcDbArc
 50
180.0
 51
270.0
  0
LINE
  5
247
100
AcDbEntity
  8
0
100
AcDbLine
 62
7
  6
CONTINUOUS
 10
56.974913154
 20
5.1272213303
 11
57.1230954959
 21
5.1272213303
  0
ARC
  5
248
100
AcDbEntity
  8
0
100
AcDbCircle
 62
7
  6
CONTINUOUS
 10
57.1230954959
 20
5.136737879
 40
0.0095165487
100
AcDbArc
 50
270.0
 51
360.0
  0
LINE
  5
249
100
AcDbEntity
  8
0
100
AcDbLine
 62
7
  6
CONTINUOUS
 10
57.1326120445
 20
5.136737879
 11
57.1326120445
 21
5.1845523381
  0
LINE
  5
24A
100
AcDbEntity
  8
0
100
AcDbLine
 62
7
  6
CONTINUOUS
 10
57.1326120445
 20
5.1845523381
 11
57.2082102852
 21
5.1845523381
  0
SPLINE
  5
24B
100
AcDbEntity
  8
0
100
AcDbSpline
 62
7
  6
CONTINUOUS
 70
0
 71
3
 72
12
 73
8
 74
0
 42
0.0000001
 43
0.0000001
 44
0.0000000001
 40
0.0
 40
0.0
 40
0.0
 40
0.0
 40
0.2415790084
 40
0.4893269843
 40
0.7378634303
 40
0.8656387112
 40
1.0
 40
1.0
 40
1.0
 40
1.0
 10
57.2082102852
 20
5.1845523381
 30
0.0
 10
57.2217657946
 20
5.1849737637
 30
0.0
 10
57.2492229675
 20
5.1858273764
 30
0.0
 10
57.2894036749
 20
5.2001568853
 30
0.0
 10
57.3138062096
 20
5.2272072059
 30
0.0
 10
57.3245571563
 20
5.2542354801
 30
0.0
 10
57.3247509041
 20
5.2690415115
 30
0.0
 10
57.3248502119
 20
5.2766305228
 30
0.0
  0
LINE
  5
24C
100
AcDbEntity
  8
0
100
AcDbLine
 62
7
  6
CONTINUOUS
 10
57.3248502119
 20
5.2766305228
 11
57.3248502119
 21
5.5845653039
  0
SPLINE
  5
24D
100
AcDbEntity
  8
0
100
AcDbSpline
 62
7
  6
CONTINUOUS
 70
0
 71
3
 72
12
 73
8
 74
0
 42
0.0000001
 43
0.0000001
 44
0.0000000001
 40
0.0
 40
0.0
 40
0.0
 40
0.0
 40
0.1343612888
 40
0.2621365697
 40
0.5106730157
 40
0.7584209916
 40
1.0
 40
1.0
 40
1.0
 40
1.0
 10
57.3248502119
 20
5.5845653039
 30
0.0
 10
57.3247509041
 20
5.5921543156
 30
0.0
 10
57.3245571563
 20
5.606960347
 30
0.0
 10
57.3138062096
 20
5.6339886212
 30
0.0
 10
57.2894036749
 20
5.6610389418
 30
0.0
 10
57.2492229675
 20
5.6753684503
 30
0.0
 10
57.2217657946
 20
5.676222063
 30
0.0
 10
57.2082102852
 20
5.6766434886
 30
0.0
  0
LINE
  5
24E
100
AcDbEntity
  8
0
100
AcDbLine
 62
7
  6
CONTINUOUS
 10
57.2082102852
 20
5.6766434886
 11
56.5809416116
 21
5.6766434886
  0
SPLINE
  5
24F
100
AcDbEntity
  8
0
100
AcDbSpline
 62
7
  6
CONTINUOUS
 70
0
 71
3
 72
12
 73
8
 74
0
 42
0.0000001
 43
0.0000001
 44
0.0000000001
 40
0.0
 40
0.0
 40
0.0
 40
0.0
 40
0.1341799809
 40
0.290831959
 40
0.5815217441
 40
0.760783857
 40
1.0
 40
1.0
 40
1.0
 40
1.0
 10
56.5809416116
 20
5.6766434886
 30
0.0
 10
56.5672597682
 20
5.6743051317
 30
0.0
 10
56.537604694
 20
5.6692367976
 30
0.0
 10
56.4876851358
 20
5.6319420116
 30
0.0
 10
56.4640406997
 20
5.5691972795
 30
0.0
 10
56.4502065515
 20
5.4980703428
 30
0.0
 10
56.4491680653
 20
5.4550495295
 30
0.0
 10
56.4485744318
 20
5.4304573962
 30
0.0
  0
SPLINE
  5
250
100
AcDbEntity
  8
0
100
AcDbSpline
 62
7
  6
CONTINUOUS
 70
0
 71
3
 72
12
 73
8
 74
0
 42
0.0000001
 43
0.0000001
 44
0.0000000001
 40
0.0
 40
0.0
 40
0.0
 40
0.0
 40
0.2392679579
 40
0.4185688994
 40
0.7093216488
 40
0.8660075581
 40
1.0
 40
1.0
 40
1.0
 40
1.0
 10
56.4485744318
 20
5.4304573962
 30
0.0
 10
56.4491683025
 20
5.4058662214
 30
0.0
 10
56.4502072032
 20
5.3628470849
 30
0.0
 10
56.4640383662
 20
5.2917080781
 30
0.0
 10
56.4876972485
 20
5.2290217605
 30
0.0
 10
56.5375648333
 20
5.1916058708
 30
0.0
 10
56.5672553384
 20
5.186777874
 30
0.0
 10
56.5809416116
 20
5.1845523381
 30
0.0
  0
LINE
  5
251
100
AcDbEntity
  8
0
100
AcDbLine
 62
7
  6
CONTINUOUS
 10
57.1981423032
 20
5.3112449168
 11
57.1981423032
 21
5.5579709135
  0
ARC
  5
252
100
AcDbEntity
  8
0
100
AcDbCircle
 62
7
  6
CONTINUOUS
 10
56.6790424294
 20
5.3112449168
 40
0.0247430265
100
AcDbArc
 50
180.0
 51
270.0
  0
LINE
  5
253
100
AcDbEntity
  8
0
100
AcDbLine
 62
7
  6
CONTINUOUS
 10
56.6790424294
 20
5.2865018903
 11
56.9632322156
 21
5.2865018903
  0
LINE
  5
254
100
AcDbEntity
  8
0
100
AcDbLine
 62
7
  6
CONTINUOUS
 10
56.9632322156
 20
5.2865018903
 11
56.9632322156
 21
5.3341681992
  0
ARC
  5
255
100
AcDbEntity
  8
0
100
AcDbCircle
 62
7
  6
CONTINUOUS
 10
56.9727487644
 20
5.3341681992
 40
0.0095165487
100
AcDbArc
 50
90.0
 51
180.0
  0
LINE
  5
256
100
AcDbEntity
  8
0
100
AcDbLine
 62
7
  6
CONTINUOUS
 10
56.9727487642
 20
5.3436847479
 11
57.1201759356
 21
5.3436847479
  0
ARC
  5
257
100
AcDbEntity
  8
0
100
AcDbCircle
 62
7
  6
CONTINUOUS
 10
57.1201759353
 20
5.3341681996
 40
0.0095165487
100
AcDbArc
 50
0.0
 51
90.0
  0
LINE
  5
258
100
AcDbEntity
  8
0
100
AcDbLine
 62
7
  6
CONTINUOUS
 10
57.1296924843
 20
5.2865018903
 11
57.1733992767
 21
5.2865018903
  0
ARC
  5
259
100
AcDbEntity
  8
0
100
AcDbCircle
 62
7
  6
CONTINUOUS
 10
57.1733992767
 20
5.3112449168
 40
0.0247430265
100
AcDbArc
 50
270.0
 51
360.0
  0
LINE
  5
25A
100
AcDbEntity
  8
0
100
AcDbLine
 62
7
  6
CONTINUOUS
 10
57.1296924843
 20
5.2865018903
 11
57.1296924843
 21
5.3341681992
  0
LINE
  5
25B
100
AcDbEntity
  8
0
100
AcDbLine
 62
7
  6
CONTINUOUS
 10
56.6542994028
 20
5.3112449168
 11
56.6542994028
 21
5.5579709135
  0
ARC
  5
25C
100
AcDbEntity
  8
0
100
AcDbCircle
 62
7
  6
CONTINUOUS
 10
56.6790424297
 20
5.5579709135
 40
0.0247430265
100
AcDbArc
 50
90.0
 51
180.0
  0
LINE
  5
25D
100
AcDbEntity
  8
0
100
AcDbLine
 62
7
  6
CONTINUOUS
 10
56.6790424294
 20
5.58271394
 11
57.1733992767
 21
5.58271394
  0
ARC
  5
25E
100
AcDbEntity
  8
0
100
AcDbCircle
 62
7
  6
CONTINUOUS
 10
57.1733992769
 20
5.5579709133
 40
0.0247430265
100
AcDbArc
 50
0.0000000277
 51
90.0000000277
  0
ARC
  5
25F
100
AcDbEntity
  8
0
100
AcDbCircle
 62
7
  6
CONTINUOUS
 10
57.63525684
 20
5.5056857104
 40
0.0247430265
100
AcDbArc
 50
180.0
 51
270.0
  0
ARC
  5
260
100
AcDbEntity
  8
0
100
AcDbCircle
 62
7
  6
CONTINUOUS
 10
57.9703931345
 20
5.3056604702
 40
0.0247430265
100
AcDbArc
 50
270.0
 51
360.0
  0
ARC
  5
261
100
AcDbEntity
  8
0
100
AcDbCircle
 62
7
  6
CONTINUOUS
 10
58.5118078505
 20
5.3078039224
 40
0.0247430265
100
AcDbArc
 50
180.0
 51
270.0
  0
ENDBLK
  5
262
100
AcDbEntity
  8
0
  6
BYBLOCK
 62
0
100
AcDbBlockEnd
  0
BLOCK
  5
263
100
AcDbEntity
  8
0
100
AcDbBlockBegin
  2
_FILLED
 70
64
 10
0.0
 20
0.0
  3
_FILLED
  1

  0
SOLID
  5
264
100
AcDbEntity
  8
0
  6
BYBLOCK
 62
0
100
AcDbTrace
 10
0.0
 20
0.0
 11
-1.0
 21
0.1666666667
 12
-1.0
 22
-0.1666666667
 13
-1.0
 23
-0.1666666667
  0
ENDBLK
  5
265
100
AcDbEntity
  8
0
  6
BYBLOCK
 62
0
100
AcDbBlockEnd
  0
BLOCK
  5
266
100
AcDbEntity
  8
0
100
AcDbBlockBegin
  2
_DOT
 70
64
 10
0.0
 20
0.0
  3
_DOT
  1

  0
LWPOLYLINE
  5
267
100
AcDbEntity
  8
0
  6
BYBLOCK
 62
0
100
AcDbPolyline
 90
2
 70
1
 43
0.1666666667
 10
-0.0833333333
 20
0.0
 42
1.0
 10
0.0833333333
 20
0.0
 42
1.0
  0
LINE
  5
268
100
AcDbEntity
  8
0
  6
BYBLOCK
 62
0
100
AcDbLine
 10
-0.1666666667
 20
0.0
 11
-1.0
 21
0.0
  0
ENDBLK
  5
269
100
AcDbEntity
  8
0
  6
BYBLOCK
 62
0
100
AcDbBlockEnd
  0
BLOCK
  5
26A
100
AcDbEntity
  8
0
100
AcDbBlockBegin
 62
2
  6
CONTINUOUS
  2
*D0
 70
65
 10
0.0
 20
0.0
  3
*D0
  1

  0
MTEXT
  5
26B
100
AcDbEntity
  8
0
100
AcDbMText
 62
2
  6
CONTINUOUS
  7
TEXTSTYLE_1
 71
1
 72
1
 10
30.42952
 20
38.8962633333
 30
0.0
 11
1.0
 21
0.0
 31
0.0
 44
0.9
  1
{\Fgdt;n}\Ftxt;213.0\P[8.39]
 40
0.3125
 41
2.2321428571
  0
LINE
  5
26C
100
AcDbEntity
  8
0
100
AcDbLine
 62
2
  6
CONTINUOUS
 10
27.661663748
 20
37.631092246
 11
29.92952
 21
38.7400133333
  0
LINE
  5
26D
100
AcDbEntity
  8
0
100
AcDbLine
 62
2
  6
CONTINUOUS
 10
29.92952
 20
38.7400133333
 11
30.27327
 21
38.7400133333
  0
INSERT
  5
26E
100
AcDbEntity
  8
0
100
AcDbBlockReference
 62
2
  6
CONTINUOUS
  2
_FILLED
 10
27.661663748
 20
37.631092246
 41
0.375
 42
0.375
 43
0.375
 50
206.0573972242
  0
ENDBLK
  5
26F
100
AcDbEntity
  8
0
  6
BYBLOCK
 62
0
100
AcDbBlockEnd
  0
BLOCK
  5
270
100
AcDbEntity
  8
0
100
AcDbBlockBegin
 62
2
  6
CONTINUOUS
  2
*D1
 70
65
 10
0.0
 20
0.0
  3
*D1
  1

  0
MTEXT
  5
271
100
AcDbEntity
  8
0
100
AcDbMText
 62
2
  6
CONTINUOUS
  7
STANDARD
 71
2
 72
1
 10
18.6468235156
 20
23.6981533696
 30
0.0
 11
1.0
 21
0.0
 31
0.0
 44
0.9
  1
204.5\P[8.05]
 40
0.3125
 41
1.7410714286
  0
LINE
  5
272
100
AcDbEntity
  8
0
100
AcDbLine
 62
2
  6
CONTINUOUS
 10
23.002224822
 20
27.379488938
 11
18.4079842299
 21
27.379488938
  0
LINE
  5
273
100
AcDbEntity
  8
0
100
AcDbLine
 62
2
  6
CONTINUOUS
 10
23.5730909637
 20
19.3277673321
 11
18.4079842299
 21
19.3277673321
  0
LINE
  5
274
100
AcDbEntity
  8
0
100
AcDbLine
 62
2
  6
CONTINUOUS
 10
18.6579842299
 20
27.379488938
 11
18.6579842299
 21
23.8544033696
  0
LINE
  5
275
100
AcDbEntity
  8
0
100
AcDbLine
 62
2
  6
CONTINUOUS
 10
18.6579842299
 20
19.3277673321
 11
18.6579842299
 21
22.7606533696
  0
INSERT
  5
276
100
AcDbEntity
  8
0
100
AcDbBlockReference
 62
2
  6
CONTINUOUS
  2
_FILLED
 10
18.6579842299
 20
27.379488938
 41
0.375
 42
0.375
 43
0.375
 50
90.0
  0
INSERT
  5
277
100
AcDbEntity
  8
0
100
AcDbBlockReference
 62
2
  6
CONTINUOUS
  2
_FILLED
 10
18.6579842299
 20
19.3277673321
 41
0.375
 42
0.375
 43
0.375
 50
270.0
  0
ENDBLK
  5
278
100
AcDbEntity
  8
0
  6
BYBLOCK
 62
0
100
AcDbBlockEnd
  0
BLOCK
  5
279
100
AcDbEntity
  8
0
100
AcDbBlockBegin
 62
2
  6
CONTINUOUS
  2
*D2
 70
65
 10
0.0
 20
0.0
  3
*D2
  1

  0
MTEXT
  5
27A
100
AcDbEntity
  8
0
100
AcDbMText
 62
2
  6
CONTINUOUS
  7
STANDARD
 71
2
 72
1
 10
29.2610097586
 20
23.9109492889
 30
0.0
 11
1.0
 21
0.0
 31
0.0
 44
0.9
  1
177.3\P[6.98]
 40
0.3125
 41
1.7745535714
  0
LINE
  5
27B
100
AcDbEntity
  8
0
100
AcDbLine
 62
2
  6
CONTINUOUS
 10
28.2128547433
 20
26.9387909542
 11
29.5668133301
 21
26.9387909542
  0
LINE
  5
27C
100
AcDbEntity
  8
0
100
AcDbLine
 62
2
  6
CONTINUOUS
 10
26.4215161606
 20
19.957688592
 11
29.5668133301
 21
19.957688592
  0
LINE
  5
27D
100
AcDbEntity
  8
0
100
AcDbLine
 62
2
  6
CONTINUOUS
 10
29.3168133301
 20
26.9387909542
 11
29.3168133301
 21
24.0671992889
  0
LINE
  5
27E
100
AcDbEntity
  8
0
100
AcDbLine
 62
2
  6
CONTINUOUS
 10
29.3168133301
 20
19.957688592
 11
29.3168133301
 21
22.9734492889
  0
INSERT
  5
27F
100
AcDbEntity
  8
0
100
AcDbBlockReference
 62
2
  6
CONTINUOUS
  2
_FILLED
 10
29.3168133301
 20
26.9387909542
 41
0.375
 42
0.375
 43
0.375
 50
90.0
  0
INSERT
  5
280
100
AcDbEntity
  8
0
100
AcDbBlockReference
 62
2
  6
CONTINUOUS
  2
_FILLED
 10
29.3168133301
 20
19.957688592
 41
0.375
 42
0.375
 43
0.375
 50
270.0
  0
ENDBLK
  5
281
100
AcDbEntity
  8
0
  6
BYBLOCK
 62
0
100
AcDbBlockEnd
  0
BLOCK
  5
282
100
AcDbEntity
  8
0
100
AcDbBlockBegin
 62
2
  6
CONTINUOUS
  2
*D3
 70
65
 10
0.0
 20
0.0
  3
*D3
  1

  0
MTEXT
  5
283
100
AcDbEntity
  8
0
100
AcDbMText
 62
2
  6
CONTINUOUS
  7
STANDARD
 71
2
 72
1
 10
29.1229389864
 20
29.5492623316
 30
0.0
 11
1.0
 21
0.0
 31
0.0
 44
0.9
  1
11.2\P[0.44]
 40
0.3125
 41
1.7745535714
  0
LINE
  5
284
100
AcDbEntity
  8
0
100
AcDbLine
 62
2
  6
CONTINUOUS
 10
24.7876578929
 20
27.379488938
 11
29.5738318435
 21
27.379488938
  0
LINE
  5
285
100
AcDbEntity
  8
0
100
AcDbLine
 62
2
  6
CONTINUOUS
 10
28.2128547433
 20
26.9387909542
 11
29.5738318435
 21
26.9387909542
  0
LINE
  5
286
100
AcDbEntity
  8
0
100
AcDbLine
 62
2
  6
CONTINUOUS
 10
29.3238318435
 20
27.379488938
 11
29.3238318435
 21
28.6117623316
  0
LINE
  5
287
100
AcDbEntity
  8
0
100
AcDbLine
 62
2
  6
CONTINUOUS
 10
29.3238318435
 20
26.9387909542
 11
29.3238318435
 21
25.9387909542
  0
INSERT
  5
288
100
AcDbEntity
  8
0
100
AcDbBlockReference
 62
2
  6
CONTINUOUS
  2
_FILLED
 10
29.3238318435
 20
27.379488938
 41
0.375
 42
0.375
 43
0.375
 50
270.0
  0
INSERT
  5
289
100
AcDbEntity
  8
0
100
AcDbBlockReference
 62
2
  6
CONTINUOUS
  2
_FILLED
 10
29.3238318435
 20
26.9387909542
 41
0.375
 42
0.375
 43
0.375
 50
90.0
  0
ENDBLK
  5
28A
100
AcDbEntity
  8
0
  6
BYBLOCK
 62
0
100
AcDbBlockEnd
  0
BLOCK
  5
28B
100
AcDbEntity
  8
0
100
AcDbBlockBegin
 62
2
  6
CONTINUOUS
  2
*D4
 70
65
 10
0.0
 20
0.0
  3
*D4
  1

  0
MTEXT
  5
28C
100
AcDbEntity
  8
0
100
AcDbMText
 62
2
  6
CONTINUOUS
  7
TEXTSTYLE_1
 71
2
 72
1
 10
23.9576075887
 20
18.3662517482
 30
0.0
 11
1.0
 21
0.0
 31
0.0
 44
0.9
  1
{\Fgdt;n}\Ftxt;180.0\P[7.09]
 40
0.3125
 41
2.265625
  0
LINE
  5
28D
100
AcDbEntity
  8
0
100
AcDbLine
 62
2
  6
CONTINUOUS
 10
20.3516342708
 20
26.3712712692
 11
20.3516342708
 21
19.4625402406
  0
LINE
  5
28E
100
AcDbEntity
  8
0
100
AcDbLine
 62
2
  6
CONTINUOUS
 10
20.3516342708
 20
19.2601130192
 11
20.3516342708
 21
17.9600017482
  0
LINE
  5
28F
100
AcDbEntity
  8
0
100
AcDbLine
 62
2
  6
CONTINUOUS
 10
27.4382484441
 20
26.3712712692
 11
27.4382484441
 21
20.0617248162
  0
LINE
  5
290
100
AcDbEntity
  8
0
100
AcDbLine
 62
2
  6
CONTINUOUS
 10
27.4382484441
 20
19.8673946836
 11
27.4382484441
 21
17.9600017482
  0
LINE
  5
291
100
AcDbEntity
  8
0
100
AcDbLine
 62
2
  6
CONTINUOUS
 10
20.3516342708
 20
18.2100017482
 11
23.0461492554
 21
18.2100017482
  0
LINE
  5
292
100
AcDbEntity
  8
0
100
AcDbLine
 62
2
  6
CONTINUOUS
 10
27.4382484441
 20
18.2100017482
 11
24.9583516364
 21
18.2100017482
  0
INSERT
  5
293
100
AcDbEntity
  8
0
100
AcDbBlockReference
 62
2
  6
CONTINUOUS
  2
_FILLED
 10
20.3516342708
 20
18.2100017482
 41
0.375
 42
0.375
 43
0.375
 50
180.0
  0
INSERT
  5
294
100
AcDbEntity
  8
0
100
AcDbBlockReference
 62
2
  6
CONTINUOUS
  2
_FILLED
 10
27.4382484441
 20
18.2100017482
 41
0.375
 42
0.375
 43
0.375
  0
ENDBLK
  5
295
100
AcDbEntity
  8
0
  6
BYBLOCK
 62
0
100
AcDbBlockEnd
  0
BLOCK
  5
296
100
AcDbEntity
  8
0
100
AcDbBlockBegin
 62
2
  6
CONTINUOUS
  2
*D5
 70
65
 10
0.0
 20
0.0
  3
*D5
  1

  0
MTEXT
  5
297
100
AcDbEntity
  8
0
100
AcDbMText
 62
2
  6
CONTINUOUS
  7
STANDARD
 71
2
 72
1
 10
49.6421625665
 20
18.4995590109
 30
0.0
 11
1.0
 21
0.0
 31
0.0
 44
0.9
  1
71.0\P[2.80]
 40
0.3125
 41
1.7745535714
  0
LINE
  5
298
100
AcDbEntity
  8
0
100
AcDbLine
 62
2
  6
CONTINUOUS
 10
48.3492813694
 20
20.2263893794
 11
48.3492813694
 21
20.0014064616
  0
LINE
  5
299
100
AcDbEntity
  8
0
100
AcDbLine
 62
2
  6
CONTINUOUS
 10
48.3492813694
 20
19.908011918
 11
48.3492813694
 21
19.6482052788
  0
LINE
  5
29A
100
AcDbEntity
  8
0
100
AcDbLine
 62
2
  6
CONTINUOUS
 10
48.3492813694
 20
19.5649992309
 11
48.3492813694
 21
18.0933090109
  0
LINE
  5
29B
100
AcDbEntity
  8
0
100
AcDbLine
 62
2
  6
CONTINUOUS
 10
51.1445569599
 20
19.0818524834
 11
51.1445569599
 21
18.0933090109
  0
LINE
  5
29C
100
AcDbEntity
  8
0
100
AcDbLine
 62
2
  6
CONTINUOUS
 10
48.3492813694
 20
18.3433090109
 11
49.0618054237
 21
18.3433090109
  0
LINE
  5
29D
100
AcDbEntity
  8
0
100
AcDbLine
 62
2
  6
CONTINUOUS
 10
51.1445569599
 20
18.3433090109
 11
50.557341138
 21
18.3433090109
  0
INSERT
  5
29E
100
AcDbEntity
  8
0
100
AcDbBlockReference
 62
2
  6
CONTINUOUS
  2
_FILLED
 10
48.3492813694
 20
18.3433090109
 41
0.375
 42
0.375
 43
0.375
 50
180.0
  0
INSERT
  5
29F
100
AcDbEntity
  8
0
100
AcDbBlockReference
 62
2
  6
CONTINUOUS
  2
_FILLED
 10
51.1445569599
 20
18.3433090109
 41
0.375
 42
0.375
 43
0.375
  0
ENDBLK
  5
2A0
100
AcDbEntity
  8
0
  6
BYBLOCK
 62
0
100
AcDbBlockEnd
  0
BLOCK
  5
2A1
100
AcDbEntity
  8
0
100
AcDbBlockBegin
 62
2
  6
CONTINUOUS
  2
*D6
 70
65
 10
0.0
 20
0.0
  3
*D6
  1

  0
MTEXT
  5
2A2
100
AcDbEntity
  8
0
100
AcDbMText
 62
2
  6
CONTINUOUS
  7
STANDARD
 71
2
 72
1
 10
46.2866247877
 20
21.4692335303
 30
0.0
 11
1.0
 21
0.0
 31
0.0
 44
0.9
  1
9.0\P[0.35]
 40
0.3125
 41
1.7075892857
  0
LINE
  5
2A3
100
AcDbEntity
  8
0
100
AcDbLine
 62
2
  6
CONTINUOUS
 10
50.6640451489
 20
19.6033578833
 11
46.2709997877
 21
19.6033578833
  0
LINE
  5
2A4
100
AcDbEntity
  8
0
100
AcDbLine
 62
2
  6
CONTINUOUS
 10
48.6179821568
 20
19.957688592
 11
46.2709997877
 21
19.957688592
  0
LINE
  5
2A5
100
AcDbEntity
  8
0
100
AcDbLine
 62
2
  6
CONTINUOUS
 10
46.5209997877
 20
19.6033578833
 11
46.5209997877
 21
18.6033578833
  0
LINE
  5
2A6
100
AcDbEntity
  8
0
100
AcDbLine
 62
2
  6
CONTINUOUS
 10
46.5209997877
 20
19.957688592
 11
46.5209997877
 21
20.5317335303
  0
INSERT
  5
2A7
100
AcDbEntity
  8
0
100
AcDbBlockReference
 62
2
  6
CONTINUOUS
  2
_FILLED
 10
46.5209997877
 20
19.6033578833
 41
0.375
 42
0.375
 43
0.375
 50
90.0
  0
INSERT
  5
2A8
100
AcDbEntity
  8
0
100
AcDbBlockReference
 62
2
  6
CONTINUOUS
  2
_FILLED
 10
46.5209997877
 20
19.957688592
 41
0.375
 42
0.375
 43
0.375
 50
270.0
  0
ENDBLK
  5
2A9
100
AcDbEntity
  8
0
  6
BYBLOCK
 62
0
100
AcDbBlockEnd
  0
BLOCK
  5
2AA
100
AcDbEntity
  8
0
100
AcDbBlockBegin
 62
2
  6
CONTINUOUS
  2
*D7
 70
65
 10
0.0
 20
0.0
  3
*D7
  1

  0
MTEXT
  5
2AB
100
AcDbEntity
  8
0
100
AcDbMText
 62
2
  6
CONTINUOUS
  7
TEXTSTYLE_1
 71
1
 72
1
 10
53.8174920588
 20
18.9855393948
 30
0.0
 11
1.0
 21
0.0
 31
0.0
 44
0.9
  1
{\Fgdt;n}\Ftxt;7.9\P[0.31]
 40
0.3125
 41
1.640625
  0
LINE
  5
2AC
100
AcDbEntity
  8
0
100
AcDbLine
 62
2
  6
CONTINUOUS
 10
51.2910511781
 20
19.5511719906
 11
53.3174920588
 21
18.8292893948
  0
LINE
  5
2AD
100
AcDbEntity
  8
0
100
AcDbLine
 62
2
  6
CONTINUOUS
 10
53.3174920588
 20
18.8292893948
 11
53.6612420588
 21
18.8292893948
  0
INSERT
  5
2AE
100
AcDbEntity
  8
0
100
AcDbBlockReference
 62
2
  6
CONTINUOUS
  2
_FILLED
 10
51.2910511781
 20
19.5511719906
 41
0.375
 42
0.375
 43
0.375
 50
160.3924862554
  0
ENDBLK
  5
2AF
100
AcDbEntity
  8
0
  6
BYBLOCK
 62
0
100
AcDbBlockEnd
  0
ENDSEC
  0
SECTION
  2
ENTITIES
  0
MTEXT
  5
2B0
100
AcDbEntity
  8
0
100
AcDbMText
 62
2
  6
CONTINUOUS
  7
STANDARD
 71
1
 72
1
 10
4.9258154895
 20
0.7298333671
 30
0.0
 11
1.0
 21
0.0
 31
0.0
 44
0.9
  1
8
 40
0.3125
 41
0.3683035714
  0
MTEXT
  5
2B1
100
AcDbEntity
  8
0
100
AcDbMText
 62
2
  6
CONTINUOUS
  7
STANDARD
 71
1
 72
1
 10
13.0508154895
 20
0.7298333671
 30
0.0
 11
1.0
 21
0.0
 31
0.0
 44
0.9
  1
7
 40
0.3125
 41
0.3683035714
  0
MTEXT
  5
2B2
100
AcDbEntity
  8
0
100
AcDbMText
 62
2
  6
CONTINUOUS
  7
STANDARD
 71
1
 72
1
 10
21.1758154895
 20
0.7298333671
 30
0.0
 11
1.0
 21
0.0
 31
0.0
 44
0.9
  1
6
 40
0.3125
 41
0.3683035714
  0
MTEXT
  5
2B3
100
AcDbEntity
  8
0
100
AcDbMText
 62
2
  6
CONTINUOUS
  7
STANDARD
 71
1
 72
1
 10
29.3008154895
 20
0.7298333671
 30
0.0
 11
1.0
 21
0.0
 31
0.0
 44
0.9
  1
5
 40
0.3125
 41
0.3348214286
  0
MTEXT
  5
2B4
100
AcDbEntity
  8
0
100
AcDbMText
 62
2
  6
CONTINUOUS
  7
STANDARD
 71
1
 72
1
 10
37.4258154895
 20
0.7298333671
 30
0.0
 11
1.0
 21
0.0
 31
0.0
 44
0.9
  1
4
 40
0.3125
 41
0.3683035714
  0
MTEXT
  5
2B5
100
AcDbEntity
  8
0
100
AcDbMText
 62
2
  6
CONTINUOUS
  7
STANDARD
 71
1
 72
1
 10
45.5508154895
 20
0.7298333671
 30
0.0
 11
1.0
 21
0.0
 31
0.0
 44
0.9
  1
3
 40
0.3125
 41
0.3348214286
  0
MTEXT
  5
2B6
100
AcDbEntity
  8
0
100
AcDbMText
 62
2
  6
CONTINUOUS
  7
STANDARD
 71
1
 72
1
 10
53.6758154895
 20
0.7298333671
 30
0.0
 11
1.0
 21
0.0
 31
0.0
 44
0.9
  1
2
 40
0.3125
 41
0.3683035714
  0
MTEXT
  5
2B7
100
AcDbEntity
  8
0
100
AcDbMText
 62
2
  6
CONTINUOUS
  7
STANDARD
 71
1
 72
1
 10
61.8008154895
 20
0.7298333671
 30
0.0
 11
1.0
 21
0.0
 31
0.0
 44
0.9
  1
1
 40
0.3125
 41
0.2678571429
  0
MTEXT
  5
2B8
100
AcDbEntity
  8
0
100
AcDbMText
 62
2
  6
CONTINUOUS
  7
STANDARD
 71
1
 72
1
 10
4.9258154895
 20
43.7298333671
 30
0.0
 11
1.0
 21
0.0
 31
0.0
 44
0.9
  1
8
 40
0.3125
 41
0.4575892857
  0
MTEXT
  5
2B9
100
AcDbEntity
  8
0
100
AcDbMText
 62
2
  6
CONTINUOUS
  7
STANDARD
 71
1
 72
1
 10
13.0508154895
 20
43.7298333671
 30
0.0
 11
1.0
 21
0.0
 31
0.0
 44
0.9
  1
7
 40
0.3125
 41
0.3683035714
  0
MTEXT
  5
2BA
100
AcDbEntity
  8
0
100
AcDbMText
 62
2
  6
CONTINUOUS
  7
STANDARD
 71
1
 72
1
 10
21.1758154895
 20
43.7298333671
 30
0.0
 11
1.0
 21
0.0
 31
0.0
 44
0.9
  1
6
 40
0.3125
 41
0.3683035714
  0
MTEXT
  5
2BB
100
AcDbEntity
  8
0
100
AcDbMText
 62
2
  6
CONTINUOUS
  7
STANDARD
 71
1
 72
1
 10
29.3008154895
 20
43.7298333671
 30
0.0
 11
1.0
 21
0.0
 31
0.0
 44
0.9
  1
5
 40
0.3125
 41
0.3348214286
  0
MTEXT
  5
2BC
100
AcDbEntity
  8
0
100
AcDbMText
 62
2
  6
CONTINUOUS
  7
STANDARD
 71
1
 72
1
 10
37.4258154895
 20
43.7298333671
 30
0.0
 11
1.0
 21
0.0
 31
0.0
 44
0.9
  1
4
 40
0.3125
 41
0.3683035714
  0
MTEXT
  5
2BD
100
AcDbEntity
  8
0
100
AcDbMText
 62
2
  6
CONTINUOUS
  7
STANDARD
 71
1
 72
1
 10
45.5508154895
 20
43.7298333671
 30
0.0
 11
1.0
 21
0.0
 31
0.0
 44
0.9
  1
3
 40
0.3125
 41
0.3348214286
  0
MTEXT
  5
2BE
100
AcDbEntity
  8
0
100
AcDbMText
 62
2
  6
CONTINUOUS
  7
STANDARD
 71
1
 72
1
 10
53.6758154895
 20
43.7298333671
 30
0.0
 11
1.0
 21
0.0
 31
0.0
 44
0.9
  1
2
 40
0.3125
 41
0.3683035714
  0
MTEXT
  5
2BF
100
AcDbEntity
  8
0
100
AcDbMText
 62
2
  6
CONTINUOUS
  7
STANDARD
 71
1
 72
1
 10
61.8008154895
 20
43.7298333671
 30
0.0
 11
1.0
 21
0.0
 31
0.0
 44
0.9
  1
1
 40
0.3125
 41
0.2678571429
  0
MTEXT
  5
2C0
100
AcDbEntity
  8
0
100
AcDbMText
 62
2
  6
CONTINUOUS
  7
STANDARD
 71
1
 72
1
 10
0.3964386186
 20
6.4389798985
 30
0.0
 11
1.0
 21
0.0
 31
0.0
 44
0.9
  1
A
 40
0.3125
 41
0.4017857143
  0
MTEXT
  5
2C1
100
AcDbEntity
  8
0
100
AcDbMText
 62
2
  6
CONTINUOUS
  7
STANDARD
 71
1
 72
1
 10
0.3964386186
 20
16.9389798985
 30
0.0
 11
1.0
 21
0.0
 31
0.0
 44
0.9
  1
B
 40
0.3125
 41
0.3683035714
  0
MTEXT
  5
2C2
100
AcDbEntity
  8
0
100
AcDbMText
 62
2
  6
CONTINUOUS
  7
STANDARD
 71
1
 72
1
 10
0.3964386186
 20
27.4389798985
 30
0.0
 11
1.0
 21
0.0
 31
0.0
 44
0.9
  1
C
 40
0.3125
 41
0.390625
  0
MTEXT
  5
2C3
100
AcDbEntity
  8
0
100
AcDbMText
 62
2
  6
CONTINUOUS
  7
STANDARD
 71
1
 72
1
 10
0.3964386186
 20
37.9389798985
 30
0.0
 11
1.0
 21
0.0
 31
0.0
 44
0.9
  1
D
 40
0.3125
 41
0.4241071429
  0
MTEXT
  5
2C4
100
AcDbEntity
  8
0
100
AcDbMText
 62
2
  6
CONTINUOUS
  7
STANDARD
 71
1
 72
1
 10
66.3964386186
 20
6.4389798985
 30
0.0
 11
1.0
 21
0.0
 31
0.0
 44
0.9
  1
A
 40
0.3125
 41
0.4017857143
  0
MTEXT
  5
2C5
100
AcDbEntity
  8
0
100
AcDbMText
 62
2
  6
CONTINUOUS
  7
STANDARD
 71
1
 72
1
 10
66.3964386186
 20
16.9389798985
 30
0.0
 11
1.0
 21
0.0
 31
0.0
 44
0.9
  1
B
 40
0.3125
 41
0.3683035714
  0
MTEXT
  5
2C6
100
AcDbEntity
  8
0
100
AcDbMText
 62
2
  6
CONTINUOUS
  7
STANDARD
 71
1
 72
1
 10
66.3964386186
 20
27.4389798985
 30
0.0
 11
1.0
 21
0.0
 31
0.0
 44
0.9
  1
C
 40
0.3125
 41
0.390625
  0
MTEXT
  5
2C7
100
AcDbEntity
  8
0
100
AcDbMText
 62
2
  6
CONTINUOUS
  7
STANDARD
 71
1
 72
1
 10
66.3964386186
 20
37.9389798985
 30
0.0
 11
1.0
 21
0.0
 31
0.0
 44
0.9
  1
D
 40
0.3125
 41
0.4241071429
  0
MTEXT
  5
2C8
100
AcDbEntity
  8
0
100
AcDbMText
 62
5
  6
CONTINUOUS
  7
STANDARD
 71
1
 72
1
 10
1.1325792212
 20
42.9123642308
 30
0.0
 11
1.0
 21
0.0
 31
0.0
 44
0.9
  1
THIS DOCUMENT CONTAINS PROPRIETARY INFORMATION\PWHICH IS THE PROPERTY OF QSC, LLC, THAT MAY NOT BE\PDISCLOSED, REPRODUCED OR USED WITHOUT EXPRESS\PWRITTEN CONSENT FROM QSC, LLC.
 40
0.15
 41
8.8875
  0
MTEXT
  5
2C9
100
AcDbEntity
  8
0
100
AcDbMText
 62
2
  6
CONTINUOUS
  7
STANDARD
 71
2
 72
1
 10
48.4986282107
 20
5.9565149306
 30
0.0
 11
1.0
 21
0.0
 31
0.0
 44
0.9
  1
UNLESS OTHERWISE SPECIFIED\PDIMENSIONS IN MILLIMETERS [IN]
 40
0.2
 41
6.5714285714
  0
MTEXT
  5
2CA
100
AcDbEntity
  8
0
100
AcDbMText
 62
2
  6
CONTINUOUS
  7
STANDARD
 71
2
 72
1
 10
48.4698945584
 20
5.1839709972
 30
0.0
 11
1.0
 21
0.0
 31
0.0
 44
0.9
  1
TOLERANCES ARE:
 40
0.18
 41
3.0921428571
  0
MTEXT
  5
2CB
100
AcDbEntity
  8
0
100
AcDbMText
 62
2
  6
CONTINUOUS
  7
STANDARD
 71
2
 72
1
 10
46.9985532817
 20
4.7274111455
 30
0.0
 11
1.0
 21
0.0
 31
0.0
 44
0.9
  1
DECIMALS\P.X\Fgdt;{\Fgdt;`}\Ftxt;.5[.02]
 40
0.18
 41
1.8578571429
  0
MTEXT
  5
2CC
100
AcDbEntity
  8
0
100
AcDbMText
 62
2
  6
CONTINUOUS
  7
STANDARD
 71
2
 72
1
 10
48.75
 20
4.715
 30
0.0
 11
1.0
 21
0.0
 31
0.0
 44
0.9
  1
DECIMALS\P.XX\Fgdt;{\Fgdt;`}\Ftxt;.25[.010]
 40
0.18
 41
2.4557142857
  0
MTEXT
  5
2CD
100
AcDbEntity
  8
0
100
AcDbMText
 62
2
  6
CONTINUOUS
  7
STANDARD
 71
2
 72
1
 10
50.2585939888
 20
4.7250013893
 30
0.0
 11
1.0
 21
0.0
 31
0.0
 44
0.9
  1
ANGLES\P\Fgdt;{\Fgdt;`}\Ftxt; 1/2
 40
0.18
 41
1.2857142857
  0
MTEXT
  5
2CE
100
AcDbEntity
  8
0
100
AcDbMText
 62
2
  6
CONTINUOUS
  7
STANDARD
 71
2
 72
1
 10
48.5
 20
3.965
 30
0.0
 11
1.0
 21
0.0
 31
0.0
 44
0.9
  1
DEBURR EDGES .25 [.010] R MAX
 40
0.18
 41
5.8821428571
  0
MTEXT
  5
2CF
100
AcDbEntity
  8
0
100
AcDbMText
 62
2
  6
CONTINUOUS
  7
STANDARD
 71
2
 72
1
 10
46.9178489616
 20
3.3724398351
 30
0.0
 11
1.0
 21
0.0
 31
0.0
 44
0.9
  1
MATERIAL
 40
0.18
 41
1.7292857143
  0
MTEXT
  5
2D0
100
AcDbEntity
  8
0
100
AcDbMText
 62
2
  6
CONTINUOUS
  7
STANDARD
 71
2
 72
1
 10
46.7262794321
 20
2.1542932539
 30
0.0
 11
1.0
 21
0.0
 31
0.0
 44
0.9
  1
FINISH
 40
0.18
 41
1.2278571429
  0
MTEXT
  5
2D1
100
AcDbEntity
  8
0
100
AcDbMText
 62
2
  6
CONTINUOUS
  7
STANDARD
 71
2
 72
1
 10
60.5395846296
 20
1.3618051235
 30
0.0
 11
1.0
 21
0.0
 31
0.0
 44
0.9
  1
DO NOT SCALE DRAWING
 40
0.25
 41
6.2321428571
  0
MTEXT
  5
2D2
100
AcDbEntity
  8
0
100
AcDbMText
 62
2
  6
CONTINUOUS
  7
STANDARD
 71
2
 72
1
 10
51.4420732885
 20
6.0178722363
 30
0.0
 11
1.0
 21
0.0
 31
0.0
 44
0.9
  1
DESIGNER
 40
0.18
 41
1.7035714286
  0
MTEXT
  5
2D3
100
AcDbEntity
  8
0
100
AcDbMText
 62
2
  6
CONTINUOUS
  7
STANDARD
 71
2
 72
1
 10
51.3716825982
 20
4.9931999708
 30
0.0
 11
1.0
 21
0.0
 31
0.0
 44
0.9
  1
ENGINEER
 40
0.18
 41
1.6521428571
  0
MTEXT
  5
2D4
100
AcDbEntity
  8
0
100
AcDbMText
 62
2
  6
CONTINUOUS
  7
STANDARD
 71
2
 72
1
 10
52.1396855542
 20
3.9492502587
 30
0.0
 11
1.0
 21
0.0
 31
0.0
 44
0.9
  1
TECHNICAL DIRECTOR
 40
0.18
 41
3.8442857143
  0
MTEXT
  5
2D5
100
AcDbEntity
  8
0
100
AcDbMText
 62
2
  6
CONTINUOUS
  7
STANDARD
 71
2
 72
1
 10
52.406322558
 20
2.9046238556
 30
0.0
 11
1.0
 21
0.0
 31
0.0
 44
0.9
  1
MANUFACTURING ENGINEER
 40
0.18
 41
4.6542857143
  0
MTEXT
  5
2D6
100
AcDbEntity
  8
0
100
AcDbMText
 62
2
  6
CONTINUOUS
  7
STANDARD
 71
2
 72
1
 10
51.9130470007
 20
1.3520049377
 30
0.0
 11
1.0
 21
0.0
 31
0.0
 44
0.9
  1
MODEL INFO:
 40
0.18
 41
2.205
  0
MTEXT
  5
2D7
100
AcDbEntity
  8
0
100
AcDbMText
 62
2
  6
CONTINUOUS
  7
STANDARD
 71
2
 72
1
 10
51.7277017866
 20
1.836722083
 30
0.0
 11
1.0
 21
0.0
 31
0.0
 44
0.9
  1
DRAWING INFO:
 40
0.18
 41
2.8028571429
  0
MTEXT
  5
2D8
100
AcDbEntity
  8
0
100
AcDbMText
 62
2
  6
CONTINUOUS
  7
STANDARD
 71
2
 72
1
 10
56.4787291628
 20
1.3340406604
 30
0.0
 11
1.0
 21
0.0
 31
0.0
 44
0.9
  1
SCALE:
 40
0.18
 41
1.1828571429
  0
MTEXT
  5
2D9
100
AcDbEntity
  8
0
100
AcDbMText
 62
2
  6
CONTINUOUS
  7
STANDARD
 71
2
 72
1
 10
63.2324854686
 20
1.337361773
 30
0.0
 11
1.0
 21
0.0
 31
0.0
 44
0.9
  1
SHEET
 40
0.18
 41
1.0928571429
  0
MTEXT
  5
2DA
100
AcDbEntity
  8
0
100
AcDbMText
 62
2
  6
CONTINUOUS
  7
STANDARD
 71
2
 72
1
 10
56.4839589016
 20
2.4206593346
 30
0.0
 11
1.0
 21
0.0
 31
0.0
 44
0.9
  1
SIZE
 40
0.18
 41
0.8421428571
  0
MTEXT
  5
2DB
100
AcDbEntity
  8
0
100
AcDbMText
 62
2
  6
CONTINUOUS
  7
STANDARD
 71
2
 72
1
 10
57.9673952173
 20
2.4228328862
 30
0.0
 11
1.0
 21
0.0
 31
0.0
 44
0.9
  1
CAGE CODE
 40
0.18
 41
1.9992857143
  0
MTEXT
  5
2DC
100
AcDbEntity
  8
0
100
AcDbMText
 62
2
  6
CONTINUOUS
  7
STANDARD
 71
2
 72
1
 10
59.8818994961
 20
2.4186659314
 30
0.0
 11
1.0
 21
0.0
 31
0.0
 44
0.9
  1
DRAWING NO.
 40
0.18
 41
2.4942857143
  0
MTEXT
  5
2DD
100
AcDbEntity
  8
0
100
AcDbMText
 62
2
  6
CONTINUOUS
  7
STANDARD
 71
2
 72
1
 10
65.5242653189
 20
2.4213478134
 30
0.0
 11
1.0
 21
0.0
 31
0.0
 44
0.9
  1
REV
 40
0.18
 41
0.6814285714
  0
MTEXT
  5
2DE
100
AcDbEntity
  8
0
100
AcDbMText
 62
2
  6
CONTINUOUS
  7
STANDARD
 71
2
 72
1
 10
60.8342830009
 20
5.9870356053
 30
0.0
 11
1.0
 21
0.0
 31
0.0
 44
0.9
  1
QSC, LLC
 40
0.3125
 41
2.8794642857
  0
MTEXT
  5
2DF
100
AcDbEntity
  8
0
100
AcDbMText
 62
2
  6
CONTINUOUS
  7
STANDARD
 71
1
 72
1
 10
59.8242648276
 20
5.5085803278
 30
0.0
 11
1.0
 21
0.0
 31
0.0
 44
0.9
  1
1675 MACARTHUR BOULEVARD\PCOSTA MESA, CA  92626
 40
0.25
 41
7.1696428571
  0
MTEXT
  5
2E0
100
AcDbEntity
  8
0
100
AcDbMText
 62
2
  6
CONTINUOUS
  7
STANDARD
 71
1
 72
1
 10
57.2602169778
 20
1.9925529836
 30
0.0
 11
1.0
 21
0.0
 31
0.0
 44
0.9
  1
00PW4
 40
0.3125
 41
2.1986607143
  0
INSERT
  5
2E1
100
AcDbEntity
  8
0
100
AcDbBlockReference
 62
7
  6
CONTINUOUS
  2
RD010411_BL0
 10
57.7776405976
 20
5.4022213303
  0
DIMENSION
  5
2E2
100
AcDbEntity
  8
0
100
AcDbDimension
 62
2
  6
CONTINUOUS
  2
*D0
 10
27.661663748
 20
37.631092246
 11
31.2182104762
 21
38.5056383333
 70
163
 71
1
 42
213.0
  1
%%c<>
  3
DIMSTYLE_1
100
AcDbDiametricDimension
 15
20.1282189669
 25
33.9474391171
  0
DIMENSION
  5
2E3
100
AcDbEntity
  8
0
100
AcDbDimension
 62
2
  6
CONTINUOUS
  2
*D1
 10
18.6579842299
 20
19.3277673321
 11
18.6579842299
 21
23.3075283696
 70
160
 71
2
 42
204.5137287888
  3
DIMSTYLE_2
100
AcDbAlignedDimension
 13
23.064724822
 23
27.379488938
 14
23.6355909637
 24
19.3277673321
 50
270.0
100
AcDbRotatedDimension
  0
DIMENSION
  5
2E4
100
AcDbEntity
  8
0
100
AcDbDimension
 62
2
  6
CONTINUOUS
  2
*D2
 10
29.3168133301
 20
19.957688592
 11
29.3168133301
 21
23.5203242889
 70
160
 71
2
 42
177.32
  3
DIMSTYLE_2
100
AcDbAlignedDimension
 13
28.1503547433
 23
26.9387909542
 14
26.3590161606
 24
19.957688592
 50
270.0
100
AcDbRotatedDimension
  0
DIMENSION
  5
2E5
100
AcDbEntity
  8
0
100
AcDbDimension
 62
2
  6
CONTINUOUS
  2
*D3
 10
29.3238318435
 20
26.9387909542
 11
29.3238318435
 21
29.1586373316
 70
160
 71
2
 42
11.1937287888
  3
DIMSTYLE_2
100
AcDbAlignedDimension
 13
24.7251578929
 23
27.379488938
 14
28.1503547433
 24
26.9387909542
 50
270.0
100
AcDbRotatedDimension
  0
DIMENSION
  5
2E6
100
AcDbEntity
  8
0
100
AcDbDimension
 62
2
  6
CONTINUOUS
  2
*D4
 10
27.4382484441
 20
18.2100017482
 11
24.0022504459
 21
17.9756267482
 70
160
 71
2
 42
180.0
  1
%%c<>
  3
DIMSTYLE_2
100
AcDbAlignedDimension
 13
20.3516342708
 23
26.4337712692
 14
27.4382484441
 24
26.4337712692
100
AcDbRotatedDimension
  0
DIMENSION
  5
2E7
100
AcDbEntity
  8
0
100
AcDbDimension
 62
2
  6
CONTINUOUS
  2
*D5
 10
51.1445569599
 20
18.3433090109
 11
49.8095732808
 21
18.1089340109
 70
160
 71
2
 42
71.0
  3
DIMSTYLE_2
100
AcDbAlignedDimension
 13
48.3492813694
 23
20.2888893794
 14
51.1445569599
 24
19.1443524834
100
AcDbRotatedDimension
  0
DIMENSION
  5
2E8
100
AcDbEntity
  8
0
100
AcDbDimension
 62
2
  6
CONTINUOUS
  2
*D6
 10
46.5209997877
 20
19.957688592
 11
46.5209997877
 21
21.0786085303
 70
160
 71
2
 42
9.0
  3
DIMSTYLE_2
100
AcDbAlignedDimension
 13
50.7265451489
 23
19.6033578833
 14
48.6804821568
 24
19.957688592
 50
90.0
100
AcDbRotatedDimension
  0
DIMENSION
  5
2E9
100
AcDbEntity
  8
0
100
AcDbDimension
 62
2
  6
CONTINUOUS
  2
*D7
 10
51.2910511781
 20
19.5511719906
 11
54.5727003922
 21
18.5949143948
 70
163
 71
1
 42
7.9
  1
%%c<>
  3
DIMSTYLE_1
100
AcDbDiametricDimension
 15
50.9980627417
 25
19.6555437761
  0
LWPOLYLINE
  5
2EA
100
AcDbEntity
  8
0
100
AcDbPolyline
 62
2
  6
CONTINUOUS
 90
2
 70
0
 43
0.04
 10
66.0175961538
 20
42.9856113022
 10
45.8525961538
 20
42.9856113022
  0
LWPOLYLINE
  5
2EB
100
AcDbEntity
  8
0
100
AcDbPolyline
 62
2
  6
CONTINUOUS
 90
2
 70
0
 43
0.04
 10
65.9975961538
 20
42.9856113022
 10
65.9975961538
 20
39.8606113022
  0
LWPOLYLINE
  5
2EC
100
AcDbEntity
  8
0
100
AcDbPolyline
 62
2
  6
CONTINUOUS
 90
2
 70
0
 43
0.04
 10
65.9975961538
 20
42.3606113022
 10
45.8725961538
 20
42.3606113022
  0
LWPOLYLINE
  5
2ED
100
AcDbEntity
  8
0
100
AcDbPolyline
 62
2
  6
CONTINUOUS
 90
2
 70
0
 43
0.04
 10
65.9975961538
 20
41.7356113022
 10
45.8725961538
 20
41.7356113022
  0
LWPOLYLINE
  5
2EE
100
AcDbEntity
  8
0
100
AcDbPolyline
 62
2
  6
CONTINUOUS
 90
2
 70
0
 43
0.04
 10
65.9975961538
 20
41.1106113022
 10
45.8725961538
 20
41.1106113022
  0
LWPOLYLINE
  5
2EF
100
AcDbEntity
  8
0
100
AcDbPolyline
 62
2
  6
CONTINUOUS
 90
2
 70
0
 43
0.04
 10
65.9975961538
 20
40.4856113022
 10
45.8725961538
 20
40.4856113022
  0
LWPOLYLINE
  5
2F0
100
AcDbEntity
  8
0
100
AcDbPolyline
 62
2
  6
CONTINUOUS
 90
2
 70
0
 43
0.04
 10
66.0175961538
 20
39.8606113022
 10
45.8525961538
 20
39.8606113022
  0
LWPOLYLINE
  5
2F1
100
AcDbEntity
  8
0
100
AcDbPolyline
 62
2
  6
CONTINUOUS
 90
2
 70
0
 43
0.04
 10
63.4975961538
 20
42.3606113022
 10
63.4975961538
 20
39.8606113022
  0
LWPOLYLINE
  5
2F2
100
AcDbEntity
  8
0
100
AcDbPolyline
 62
2
  6
CONTINUOUS
 90
2
 70
0
 43
0.04
 10
62.4975961538
 20
42.3606113022
 10
62.4975961538
 20
39.8606113022
  0
LWPOLYLINE
  5
2F3
100
AcDbEntity
  8
0
100
AcDbPolyline
 62
2
  6
CONTINUOUS
 90
2
 70
0
 43
0.04
 10
46.8725961538
 20
42.3606113022
 10
46.8725961538
 20
39.8606113022
  0
LWPOLYLINE
  5
2F4
100
AcDbEntity
  8
0
100
AcDbPolyline
 62
2
  6
CONTINUOUS
 90
2
 70
0
 43
0.04
 10
45.8725961538
 20
42.9856113022
 10
45.8725961538
 20
39.8606113022
  0
MTEXT
  5
2F5
100
AcDbEntity
  8
0
100
AcDbMText
 62
2
  6
CONTINUOUS
  7
STANDARD
 71
2
 72
1
 10
55.9350961538
 20
42.8293613022
 30
0.0
 11
1.0
 21
0.0
 31
0.0
 44
0.9
  1
REVISIONS
 40
0.3125
 41
3.1696428571
  0
MTEXT
  5
2F6
100
AcDbEntity
  8
0
100
AcDbMText
 62
2
  6
CONTINUOUS
  7
STANDARD
 71
2
 72
1
 10
64.7475961538
 20
42.2043613022
 30
0.0
 11
1.0
 21
0.0
 31
0.0
 44
0.9
  1
 DATE 
 40
0.3125
 41
2.3883928571
  0
MTEXT
  5
2F7
100
AcDbEntity
  8
0
100
AcDbMText
 62
2
  6
CONTINUOUS
  7
STANDARD
 71
2
 72
1
 10
62.9975961538
 20
42.2043613022
 30
0.0
 11
1.0
 21
0.0
 31
0.0
 44
0.9
  1
BY
 40
0.3125
 41
0.7700892857
  0
MTEXT
  5
2F8
100
AcDbEntity
  8
0
100
AcDbMText
 62
2
  6
CONTINUOUS
  7
STANDARD
 71
2
 72
1
 10
54.6850961538
 20
42.2043613022
 30
0.0
 11
1.0
 21
0.0
 31
0.0
 44
0.9
  1
DESCRIPTION
 40
0.3125
 41
3.9955357143
  0
MTEXT
  5
2F9
100
AcDbEntity
  8
0
100
AcDbMText
 62
2
  6
CONTINUOUS
  7
STANDARD
 71
2
 72
1
 10
46.3725961538
 20
42.2043613022
 30
0.0
 11
1.0
 21
0.0
 31
0.0
 44
0.9
  1
REV
 40
0.3125
 41
1.09375
  0
MTEXT
  5
2FA
100
AcDbEntity
  8
0
100
AcDbMText
 62
2
  6
CONTINUOUS
  7
STANDARD
 71
2
 72
1
 10
64.7475961538
 20
41.5793613022
 30
0.0
 11
1.0
 21
0.0
 31
0.0
 44
0.9
  1
13-DEC-17
 40
0.3125
 41
3.1473214286
  0
MTEXT
  5
2FB
100
AcDbEntity
  8
0
100
AcDbMText
 62
2
  6
CONTINUOUS
  7
STANDARD
 71
2
 72
1
 10
62.9975961538
 20
41.5793613022
 30
0.0
 11
1.0
 21
0.0
 31
0.0
 44
0.9
  1
ES
 40
0.3125
 41
0.7924107143
  0
MTEXT
  5
2FC
100
AcDbEntity
  8
0
100
AcDbMText
 62
2
  6
CONTINUOUS
  7
STANDARD
 71
1
 72
1
 10
46.9975961538
 20
41.5793613022
 30
0.0
 11
1.0
 21
0.0
 31
0.0
 44
0.9
  1
RELEASE FOR SALES AND MARKETING
 40
0.3125
 41
11.3616071429
  0
MTEXT
  5
2FD
100
AcDbEntity
  8
0
100
AcDbMText
 62
2
  6
CONTINUOUS
  7
STANDARD
 71
2
 72
1
 10
46.3725961538
 20
41.5793613022
 30
0.0
 11
1.0
 21
0.0
 31
0.0
 44
0.9
  1
A
 40
0.3125
 41
0.4910714286
  0
LINE
  5
2FE
100
AcDbEntity
  8
0
100
AcDbLine
 62
2
  6
CONTINUOUS
 10
46.25
 20
3.5
 11
50.75
 21
3.5
  0
LINE
  5
2FF
100
AcDbEntity
  8
0
100
AcDbLine
 62
2
  6
CONTINUOUS
 10
46.25
 20
3.5
 11
46.25
 21
2.25
  0
LINE
  5
300
100
AcDbEntity
  8
0
100
AcDbLine
 62
2
  6
CONTINUOUS
 10
46.25
 20
2.25
 11
50.75
 21
2.25
  0
LINE
  5
301
100
AcDbEntity
  8
0
100
AcDbLine
 62
2
  6
CONTINUOUS
 10
50.75
 20
3.5
 11
50.75
 21
2.25
  0
LINE
  5
302
100
AcDbEntity
  8
0
100
AcDbLine
 62
2
  6
CONTINUOUS
 10
46.25
 20
2.25
 11
50.75
 21
2.25
  0
LINE
  5
303
100
AcDbEntity
  8
0
100
AcDbLine
 62
2
  6
CONTINUOUS
 10
46.25
 20
2.25
 11
46.25
 21
1.0
  0
LINE
  5
304
100
AcDbEntity
  8
0
100
AcDbLine
 62
2
  6
CONTINUOUS
 10
46.25
 20
1.0
 11
50.75
 21
1.0
  0
LINE
  5
305
100
AcDbEntity
  8
0
100
AcDbLine
 62
2
  6
CONTINUOUS
 10
50.75
 20
2.25
 11
50.75
 21
1.0
  0
LINE
  5
306
100
AcDbEntity
  8
0
100
AcDbLine
 62
2
  6
CONTINUOUS
 10
50.7494219713
 20
6.1234928289
 11
55.9994219713
 21
6.1234928289
  0
LINE
  5
307
100
AcDbEntity
  8
0
100
AcDbLine
 62
2
  6
CONTINUOUS
 10
50.7494219713
 20
6.1234928289
 11
50.7494219713
 21
5.1034928289
  0
LINE
  5
308
100
AcDbEntity
  8
0
100
AcDbLine
 62
2
  6
CONTINUOUS
 10
50.7494219713
 20
5.1034928289
 11
55.9994219713
 21
5.1034928289
  0
LINE
  5
309
100
AcDbEntity
  8
0
100
AcDbLine
 62
2
  6
CONTINUOUS
 10
55.9994219713
 20
6.1234928289
 11
55.9994219713
 21
5.1034928289
  0
MTEXT
  5
30A
100
AcDbEntity
  8
0
100
AcDbMText
 62
2
  6
CONTINUOUS
  7
STANDARD
 71
1
 72
1
 10
50.8744219713
 20
5.5722428289
 30
0.0
 11
1.0
 21
0.0
 31
0.0
 44
0.9
  1
ENG. SERVICES
 40
0.3125
 41
4.6540178571
  0
LINE
  5
30B
100
AcDbEntity
  8
0
100
AcDbLine
 62
2
  6
CONTINUOUS
 10
50.75
 20
5.0922730768
 11
56.0
 21
5.0922730768
  0
LINE
  5
30C
100
AcDbEntity
  8
0
100
AcDbLine
 62
2
  6
CONTINUOUS
 10
50.75
 20
5.0922730768
 11
50.75
 21
4.0722730768
  0
LINE
  5
30D
100
AcDbEntity
  8
0
100
AcDbLine
 62
2
  6
CONTINUOUS
 10
50.75
 20
4.0722730768
 11
56.0
 21
4.0722730768
  0
LINE
  5
30E
100
AcDbEntity
  8
0
100
AcDbLine
 62
2
  6
CONTINUOUS
 10
56.0
 20
5.0922730768
 11
56.0
 21
4.0722730768
  0
LINE
  5
30F
100
AcDbEntity
  8
0
100
AcDbLine
 62
2
  6
CONTINUOUS
 10
50.75
 20
4.0475990231
 11
56.0
 21
4.0475990231
  0
LINE
  5
310
100
AcDbEntity
  8
0
100
AcDbLine
 62
2
  6
CONTINUOUS
 10
50.75
 20
4.0475990231
 11
50.75
 21
3.0275990231
  0
LINE
  5
311
100
AcDbEntity
  8
0
100
AcDbLine
 62
2
  6
CONTINUOUS
 10
50.75
 20
3.0275990231
 11
56.0
 21
3.0275990231
  0
LINE
  5
312
100
AcDbEntity
  8
0
100
AcDbLine
 62
2
  6
CONTINUOUS
 10
56.0
 20
4.0475990231
 11
56.0
 21
3.0275990231
  0
LINE
  5
313
100
AcDbEntity
  8
0
100
AcDbLine
 62
2
  6
CONTINUOUS
 10
50.75
 20
2.9999312041
 11
56.0
 21
2.9999312041
  0
LINE
  5
314
100
AcDbEntity
  8
0
100
AcDbLine
 62
2
  6
CONTINUOUS
 10
50.75
 20
2.9999312041
 11
50.75
 21
1.9799312041
  0
LINE
  5
315
100
AcDbEntity
  8
0
100
AcDbLine
 62
2
  6
CONTINUOUS
 10
50.75
 20
1.9799312041
 11
56.0
 21
1.9799312041
  0
LINE
  5
316
100
AcDbEntity
  8
0
100
AcDbLine
 62
2
  6
CONTINUOUS
 10
56.0
 20
2.9999312041
 11
56.0
 21
1.9799312041
  0
LINE
  5
317
100
AcDbEntity
  8
0
100
AcDbLine
 62
2
  6
CONTINUOUS
 10
50.75
 20
2.0
 11
56.0
 21
2.0
  0
LINE
  5
318
100
AcDbEntity
  8
0
100
AcDbLine
 62
2
  6
CONTINUOUS
 10
50.75
 20
2.0
 11
50.75
 21
1.5
  0
LINE
  5
319
100
AcDbEntity
  8
0
100
AcDbLine
 62
2
  6
CONTINUOUS
 10
50.75
 20
1.5
 11
56.0
 21
1.5
  0
LINE
  5
31A
100
AcDbEntity
  8
0
100
AcDbLine
 62
2
  6
CONTINUOUS
 10
56.0
 20
2.0
 11
56.0
 21
1.5
  0
MTEXT
  5
31B
100
AcDbEntity
  8
0
100
AcDbMText
 62
2
  6
CONTINUOUS
  7
STANDARD
 71
3
 72
1
 10
55.875
 20
1.87625
 30
0.0
 11
1.0
 21
0.0
 31
0.0
 44
0.9
  1
FG-901165-2D.A.0
 40
0.22
 41
3.8971428571
  0
LINE
  5
31C
100
AcDbEntity
  8
0
100
AcDbLine
 62
2
  6
CONTINUOUS
 10
50.75
 20
1.5
 11
56.0
 21
1.5
  0
LINE
  5
31D
100
AcDbEntity
  8
0
100
AcDbLine
 62
2
  6
CONTINUOUS
 10
50.75
 20
1.5
 11
50.75
 21
1.0
  0
LINE
  5
31E
100
AcDbEntity
  8
0
100
AcDbLine
 62
2
  6
CONTINUOUS
 10
50.75
 20
1.0
 11
56.0
 21
1.0
  0
LINE
  5
31F
100
AcDbEntity
  8
0
100
AcDbLine
 62
2
  6
CONTINUOUS
 10
56.0
 20
1.5
 11
56.0
 21
1.0
  0
MTEXT
  5
320
100
AcDbEntity
  8
0
100
AcDbMText
 62
2
  6
CONTINUOUS
  7
STANDARD
 71
3
 72
1
 10
55.875
 20
1.37625
 30
0.0
 11
1.0
 21
0.0
 31
0.0
 44
0.9
  1
FG-901165-3D.A.0
 40
0.22
 41
3.8735714286
  0
LINE
  5
321
100
AcDbEntity
  8
0
100
AcDbLine
 62
2
  6
CONTINUOUS
 10
56.0
 20
4.75
 11
66.0
 21
4.75
  0
LINE
  5
322
100
AcDbEntity
  8
0
100
AcDbLine
 62
2
  6
CONTINUOUS
 10
56.0
 20
4.75
 11
56.0
 21
2.5
  0
LINE
  5
323
100
AcDbEntity
  8
0
100
AcDbLine
 62
2
  6
CONTINUOUS
 10
56.0
 20
2.5
 11
66.0
 21
2.5
  0
LINE
  5
324
100
AcDbEntity
  8
0
100
AcDbLine
 62
2
  6
CONTINUOUS
 10
66.0
 20
4.75
 11
66.0
 21
2.5
  0
MTEXT
  5
325
100
AcDbEntity
  8
0
100
AcDbMText
 62
2
  6
CONTINUOUS
  7
STANDARD
 71
2
 72
1
 10
61.0
 20
4.235
 30
0.0
 11
1.0
 21
0.0
 31
0.0
 44
1.02
  1
AC-C2T, FULL RANGE,\PCEILING MOUNT LOUDSPEAKER
 40
0.4
 41
11.5428571429
  0
LINE
  5
326
100
AcDbEntity
  8
0
100
AcDbLine
 62
2
  6
CONTINUOUS
 10
56.0021846059
 20
2.495880935
 11
57.0021846059
 21
2.495880935
  0
LINE
  5
327
100
AcDbEntity
  8
0
100
AcDbLine
 62
2
  6
CONTINUOUS
 10
56.0021846059
 20
2.495880935
 11
56.0021846059
 21
1.495880935
  0
LINE
  5
328
100
AcDbEntity
  8
0
100
AcDbLine
 62
2
  6
CONTINUOUS
 10
56.0021846059
 20
1.495880935
 11
57.0021846059
 21
1.495880935
  0
LINE
  5
329
100
AcDbEntity
  8
0
100
AcDbLine
 62
2
  6
CONTINUOUS
 10
57.0021846059
 20
2.495880935
 11
57.0021846059
 21
1.495880935
  0
MTEXT
  5
32A
100
AcDbEntity
  8
0
100
AcDbMText
 62
2
  6
CONTINUOUS
  7
STANDARD
 71
2
 72
1
 10
56.5021846059
 20
2.052130935
 30
0.0
 11
1.0
 21
0.0
 31
0.0
 44
0.9
  1
D
 40
0.4
 41
0.6571428571
  0
LINE
  5
32B
100
AcDbEntity
  8
0
100
AcDbLine
 62
2
  6
CONTINUOUS
 10
59.0010349952
 20
2.4899491782
 11
65.0010349952
 21
2.4899491782
  0
LINE
  5
32C
100
AcDbEntity
  8
0
100
AcDbLine
 62
2
  6
CONTINUOUS
 10
59.0010349952
 20
2.4899491782
 11
59.0010349952
 21
1.4899491782
  0
LINE
  5
32D
100
AcDbEntity
  8
0
100
AcDbLine
 62
2
  6
CONTINUOUS
 10
59.0010349952
 20
1.4899491782
 11
65.0010349952
 21
1.4899491782
  0
LINE
  5
32E
100
AcDbEntity
  8
0
100
AcDbLine
 62
2
  6
CONTINUOUS
 10
65.0010349952
 20
2.4899491782
 11
65.0010349952
 21
1.4899491782
  0
MTEXT
  5
32F
100
AcDbEntity
  8
0
100
AcDbMText
 62
2
  6
CONTINUOUS
  7
STANDARD
 71
2
 72
1
 10
62.0010349952
 20
2.1061991782
 30
0.0
 11
1.0
 21
0.0
 31
0.0
 44
0.9
  1
FG-901165-2D
 40
0.46
 41
6.2264285714
  0
LINE
  5
330
100
AcDbEntity
  8
0
100
AcDbLine
 62
2
  6
CONTINUOUS
 10
64.9973997925
 20
2.4965756452
 11
65.9973997925
 21
2.4965756452
  0
LINE
  5
331
100
AcDbEntity
  8
0
100
AcDbLine
 62
2
  6
CONTINUOUS
 10
64.9973997925
 20
2.4965756452
 11
64.9973997925
 21
1.4965756452
  0
LINE
  5
332
100
AcDbEntity
  8
0
100
AcDbLine
 62
2
  6
CONTINUOUS
 10
64.9973997925
 20
1.4965756452
 11
65.9973997925
 21
1.4965756452
  0
LINE
  5
333
100
AcDbEntity
  8
0
100
AcDbLine
 62
2
  6
CONTINUOUS
 10
65.9973997925
 20
2.4965756452
 11
65.9973997925
 21
1.4965756452
  0
MTEXT
  5
334
100
AcDbEntity
  8
0
100
AcDbMText
 62
2
  6
CONTINUOUS
  7
STANDARD
 71
2
 72
1
 10
65.4973997925
 20
2.0128256452
 30
0.0
 11
1.0
 21
0.0
 31
0.0
 44
0.9
  1
A
 40
0.36
 41
0.5657142857
  0
LINE
  5
335
100
AcDbEntity
  8
0
100
AcDbLine
 62
2
  6
CONTINUOUS
 10
62.7512412387
 20
1.4858577673
 11
66.0012412387
 21
1.4858577673
  0
LINE
  5
336
100
AcDbEntity
  8
0
100
AcDbLine
 62
2
  6
CONTINUOUS
 10
62.7512412387
 20
1.4858577673
 11
62.7512412387
 21
0.9858577673
  0
LINE
  5
337
100
AcDbEntity
  8
0
100
AcDbLine
 62
2
  6
CONTINUOUS
 10
62.7512412387
 20
0.9858577673
 11
66.0012412387
 21
0.9858577673
  0
LINE
  5
338
100
AcDbEntity
  8
0
100
AcDbLine
 62
2
  6
CONTINUOUS
 10
66.0012412387
 20
1.4858577673
 11
66.0012412387
 21
0.9858577673
  0
MTEXT
  5
339
100
AcDbEntity
  8
0
100
AcDbMText
 62
2
  6
CONTINUOUS
  7
STANDARD
 71
3
 72
1
 10
65.8762412387
 20
1.4221077673
 30
0.0
 11
1.0
 21
0.0
 31
0.0
 44
0.9
  1
1 OF 1
 40
0.28
 41
1.85
  0
LINE
  5
33A
100
AcDbEntity
  8
0
100
AcDbLine
 62
2
  6
CONTINUOUS
 10
55.9965196242
 20
1.4976464338
 11
58.3725196242
 21
1.4976464338
  0
LINE
  5
33B
100
AcDbEntity
  8
0
100
AcDbLine
 62
2
  6
CONTINUOUS
 10
55.9965196242
 20
1.4976464338
 11
55.9965196242
 21
0.9898339338
  0
LINE
  5
33C
100
AcDbEntity
  8
0
100
AcDbLine
 62
2
  6
CONTINUOUS
 10
55.9965196242
 20
0.9898339338
 11
58.3725196242
 21
0.9898339338
  0
LINE
  5
33D
100
AcDbEntity
  8
0
100
AcDbLine
 62
2
  6
CONTINUOUS
 10
58.3725196242
 20
1.4976464338
 11
58.3725196242
 21
0.9898339338
  0
MTEXT
  5
33E
100
AcDbEntity
  8
0
100
AcDbMText
 62
2
  6
CONTINUOUS
  7
STANDARD
 71
3
 72
1
 10
58.2475196242
 20
1.3860839338
 30
0.0
 11
1.0
 21
0.0
 31
0.0
 44
0.9
  1
0.500
 40
0.24
 41
1.38
  0
MTEXT
  5
33F
100
AcDbEntity
  8
0
100
AcDbMText
 62
2
  6
CONTINUOUS
  7
STANDARD
 71
1
 72
1
 10
1.3444214389
 20
4.2795682363
 30
0.0
 11
1.0
 21
0.0
 31
0.0
 44
1.2
  1
3. DIMENSIONS ARE IN MILLIMETERS [INCH].\P2. TOLERANCES (MM): X \Fgdt;{\Fgdt;`}\Ftxt; 3, ANGLES: \Fgdt;{\Fgdt;`}\Ftxt; 1\Fgdt;{\Fgdt;~}\Ftxt;.\P1. NET WEIGHT APPROX. 1.91 KG [4.2 LBS].\P \PNOTES: UNLESS OTHERWISE SPECIFIED.
 40
0.3125
 41
13.8571428571
  0
LEADER
  5
340
100
AcDbEntity
  8
0
100
AcDbLeader
 62
2
  6
CONTINUOUS
  3
STANDARD
 71
1
 72
0
 73
0
 75
0
 40
0.3125
 41
5.2232142857
 76
3
 10
21.8758345237
 20
12.540869851
 30
0.0
 10
18.2020279716
 20
11.3722489277
 30
0.0
 10
17.7020279716
 20
11.3722489277
 30
0.0
340
341
1001
ACAD
1000
DSTYLE
1002
{
1070
77
1070
0
1070
341
1005
213
1002
}
  0
MTEXT
  5
341
102
{ACAD_REACTORS
330
340
102
}
100
AcDbEntity
  8
0
100
AcDbMText
 62
2
  6
CONTINUOUS
  7
STANDARD
 71
3
 72
1
 10
17.7020279716
 20
11.5284989277
 30
0.0
 11
1.0
 21
0.0
 31
0.0
 44
0.9
  1
ROTATABLE COVER PLATE
 40
0.3125
 41
7.8348214286
  0
LEADER
  5
342
100
AcDbEntity
  8
0
100
AcDbLeader
 62
2
  6
CONTINUOUS
  3
STANDARD
 71
1
 72
0
 73
0
 75
0
 40
0.3125
 41
4.5163690476
 76
3
 10
27.1725607284
 20
10.1638041225
 30
0.0
 10
29.5878547433
 20
10.8969894661
 30
0.0
 10
30.0878547433
 20
10.8969894661
 30
0.0
340
343
1001
ACAD
1000
DSTYLE
1002
{
1070
77
1070
0
1070
341
1005
213
1002
}
  0
MTEXT
  5
343
102
{ACAD_REACTORS
330
342
102
}
100
AcDbEntity
  8
0
100
AcDbMText
 62
2
  6
CONTINUOUS
  7
STANDARD
 71
1
 72
1
 10
30.0878547433
 20
11.0532394661
 30
0.0
 11
1.0
 21
0.0
 31
0.0
 44
0.9
  1
4X MOUNTING CLAMPS
 40
0.3125
 41
6.7745535714
  0
LEADER
  5
344
100
AcDbEntity
  8
0
100
AcDbLeader
 62
2
  6
CONTINUOUS
  3
STANDARD
 71
1
 72
0
 73
0
 75
0
 40
0.3125
 41
3.5044642857
 76
3
 10
24.0900059908
 20
11.1897754182
 30
0.0
 10
29.5878547433
 20
12.9006200218
 30
0.0
 10
30.0878547433
 20
12.9006200218
 30
0.0
340
345
1001
ACAD
1000
DSTYLE
1002
{
1070
77
1070
0
1070
341
1005
213
1002
}
  0
MTEXT
  5
345
102
{ACAD_REACTORS
330
344
102
}
100
AcDbEntity
  8
0
100
AcDbMText
 62
2
  6
CONTINUOUS
  7
STANDARD
 71
1
 72
1
 10
30.0878547433
 20
13.0568700218
 30
0.0
 11
1.0
 21
0.0
 31
0.0
 44
0.9
  1
EURO CONNECTOR
 40
0.3125
 41
5.2566964286
  0
LEADER
  5
346
100
AcDbEntity
  8
0
100
AcDbLeader
 62
2
  6
CONTINUOUS
  3
STANDARD
 71
1
 72
0
 73
0
 75
0
 40
0.3125
 41
2.7455357143
 76
3
 10
23.4504070411
 20
9.8684771261
 30
0.0
 10
18.2020279716
 20
7.8999316861
 30
0.0
 10
17.7020279716
 20
7.8999316861
 30
0.0
340
347
1001
ACAD
1000
DSTYLE
1002
{
1070
77
1070
0
1002
}
  0
MTEXT
  5
347
102
{ACAD_REACTORS
330
346
102
}
100
AcDbEntity
  8
0
100
AcDbMText
 62
2
  6
CONTINUOUS
  7
STANDARD
 71
3
 72
1
 10
17.7020279716
 20
8.0561816861
 30
0.0
 11
1.0
 21
0.0
 31
0.0
 44
0.9
  1
CABLE CLAMP
 40
0.3125
 41
4.1183035714
  0
LEADER
  5
348
100
AcDbEntity
  8
0
100
AcDbLeader
 62
2
  6
CONTINUOUS
  3
STANDARD
 71
1
 72
0
 73
0
 75
0
 40
0.3125
 41
0.46875
 76
3
 10
23.8689576437
 20
9.601595939
 30
0.0
 10
23.0212149757
 20
5.8338868311
 30
0.0
 10
22.5212149757
 20
5.8338868311
 30
0.0
340
349
1001
ACAD
1000
DSTYLE
1002
{
1070
77
1070
0
1002
}
  0
MTEXT
  5
349
102
{ACAD_REACTORS
330
348
102
}
100
AcDbEntity
  8
0
100
AcDbMText
 62
2
  6
CONTINUOUS
  7
TEXTSTYLE_1
 71
3
 72
1
 10
22.5212149757
 20
5.9901368311
 30
0.0
 11
1.0
 21
0.0
 31
0.0
 44
0.9
  1
{\Fgdt;n}\Ftxt;23.5 CLAMP-WIRE ENTRY POINT \P[0.93]
 40
0.3125
 41
11.0044642857
  0
LEADER
  5
34A
100
AcDbEntity
  8
0
100
AcDbLeader
 62
2
  6
CONTINUOUS
  3
STANDARD
 71
1
 72
0
 73
0
 75
0
 40
0.3125
 41
4.9404761905
 76
3
 10
51.2769119836
 20
19.3277673321
 30
0.0
 10
53.1874111575
 20
17.2597017924
 30
0.0
 10
53.6874111575
 20
17.2597017924
 30
0.0
340
34B
1001
ACAD
1000
DSTYLE
1002
{
1070
77
1070
0
1002
}
  0
MTEXT
  5
34B
102
{ACAD_REACTORS
330
34A
102
}
100
AcDbEntity
  8
0
100
AcDbMText
 62
2
  6
CONTINUOUS
  7
STANDARD
 71
1
 72
1
 10
53.6874111575
 20
17.4159517924
 30
0.0
 11
1.0
 21
0.0
 31
0.0
 44
0.9
  1
SEISMIC MOUNTING TAB
 40
0.3125
 41
7.4107142857
  0
LINE
  5
34C
100
AcDbEntity
  8
DEFAULT_3
100
AcDbLine
 62
7
  6
PHANTOM
 10
0.0
 20
-0.0
 11
0.0
 21
44.0
  0
LWPOLYLINE
  5
34D
100
AcDbEntity
  8
0
100
AcDbPolyline
 62
7
  6
CONTINUOUS
 90
2
 70
0
 43
0.0400000017
 10
0.5249254442
 20
21.6626902213
 10
0.5249254442
 20
22.3373097787
  0
LWPOLYLINE
  5
34E
100
AcDbEntity
  8
0
100
AcDbPolyline
 62
7
  6
CONTINUOUS
 90
2
 70
0
 43
0.0600000005
 10
1.0
 20
43.0
 10
1.0
 20
1.0
  0
LWPOLYLINE
  5
34F
100
AcDbEntity
  8
0
100
AcDbPolyline
 62
7
  6
CONTINUOUS
 90
2
 70
0
 43
0.0600000005
 10
7.125
 20
43.0
 10
7.125
 20
42.0
  0
LWPOLYLINE
  5
350
100
AcDbEntity
  8
0
100
AcDbPolyline
 62
7
  6
CONTINUOUS
 90
2
 70
0
 43
0.0400000017
 10
9.125
 20
1.0
 10
9.125
 20
-0.0
  0
LWPOLYLINE
  5
351
100
AcDbEntity
  8
0
100
AcDbPolyline
 62
7
  6
CONTINUOUS
 90
2
 70
0
 43
0.0400000017
 10
9.125
 20
43.0
 10
9.125
 20
44.0
  0
LINE
  5
352
100
AcDbEntity
  8
0
100
AcDbLine
 62
7
  6
CONTINUOUS
 10
46.2448550643
 20
1.0233342113
 11
50.7466015628
 21
2.2344841977
  0
LINE
  5
353
100
AcDbEntity
  8
0
100
AcDbLine
 62
7
  6
CONTINUOUS
 10
46.2511322697
 20
2.2654999271
 11
50.751497458
 21
3.4859025099
  0
LINE
  5
354
100
AcDbEntity
  8
DEFAULT_3
100
AcDbLine
 62
7
  6
PHANTOM
 10
0.0
 20
-0.0
 11
68.0
 21
-0.0
  0
LWPOLYLINE
  5
355
100
AcDbEntity
  8
0
100
AcDbPolyline
 62
7
  6
CONTINUOUS
 90
2
 70
0
 43
0.0400000017
 10
33.1626902213
 20
0.5249254442
 10
33.8373097787
 20
0.5249254442
  0
LWPOLYLINE
  5
356
100
AcDbEntity
  8
0
100
AcDbPolyline
 62
7
  6
CONTINUOUS
 90
2
 70
0
 43
0.0400000017
 10
1.0
 20
22.0
 10
0.5249254442
 20
21.6626902213
  0
LWPOLYLINE
  5
357
100
AcDbEntity
  8
0
100
AcDbPolyline
 62
7
  6
CONTINUOUS
 90
2
 70
0
 43
0.0600000005
 10
1.0
 20
1.0
 10
66.0
 20
1.0
  0
LWPOLYLINE
  5
358
100
AcDbEntity
  8
0
100
AcDbPolyline
 62
7
  6
CONTINUOUS
 90
2
 70
0
 43
0.0400000017
 10
50.75
 20
1.5
 10
66.0
 20
1.5
  0
LWPOLYLINE
  5
359
100
AcDbEntity
  8
0
100
AcDbPolyline
 62
7
  6
CONTINUOUS
 90
2
 70
0
 43
0.0400000017
 10
50.75
 20
2.0
 10
56.0
 20
2.0
  0
LWPOLYLINE
  5
35A
100
AcDbEntity
  8
0
100
AcDbPolyline
 62
7
  6
CONTINUOUS
 90
2
 70
0
 43
0.0400000017
 10
50.75
 20
2.25
 10
46.25
 20
2.25
  0
LWPOLYLINE
  5
35B
100
AcDbEntity
  8
0
100
AcDbPolyline
 62
7
  6
CONTINUOUS
 90
2
 70
0
 43
0.0400000017
 10
56.0
 20
2.5
 10
66.0
 20
2.5
  0
LWPOLYLINE
  5
35C
100
AcDbEntity
  8
0
100
AcDbPolyline
 62
7
  6
CONTINUOUS
 90
2
 70
0
 43
0.0400000017
 10
50.7631388334
 20
3.0234706899
 10
56.0131388334
 20
3.0234706899
  0
LWPOLYLINE
  5
35D
100
AcDbEntity
  8
0
100
AcDbPolyline
 62
7
  6
CONTINUOUS
 90
2
 70
0
 43
0.0400000017
 10
1.0
 20
22.0
 10
0.5249254442
 20
22.3373097787
  0
LWPOLYLINE
  5
35E
100
AcDbEntity
  8
0
100
AcDbPolyline
 62
7
  6
CONTINUOUS
 90
2
 70
0
 43
0.0400000017
 10
17.25
 20
1.0
 10
17.25
 20
-0.0
  0
LWPOLYLINE
  5
35F
100
AcDbEntity
  8
0
100
AcDbPolyline
 62
7
  6
CONTINUOUS
 90
2
 70
0
 43
0.0400000017
 10
17.25
 20
43.0
 10
17.25
 20
44.0
  0
LWPOLYLINE
  5
360
100
AcDbEntity
  8
0
100
AcDbPolyline
 62
7
  6
CONTINUOUS
 90
2
 70
0
 43
0.0400000017
 10
46.25
 20
3.5
 10
50.75
 20
3.5
  0
LWPOLYLINE
  5
361
100
AcDbEntity
  8
0
100
AcDbPolyline
 62
7
  6
CONTINUOUS
 90
2
 70
0
 43
0.0400000017
 10
50.7658862143
 20
4.0518380709
 10
56.0158862143
 20
4.0518380709
  0
LWPOLYLINE
  5
362
100
AcDbEntity
  8
0
100
AcDbPolyline
 62
7
  6
CONTINUOUS
 90
2
 70
0
 43
0.0400000017
 10
56.0
 20
4.75
 10
66.0
 20
4.75
  0
LWPOLYLINE
  5
363
100
AcDbEntity
  8
0
100
AcDbPolyline
 62
7
  6
CONTINUOUS
 90
2
 70
0
 43
0.0400000017
 10
50.75
 20
5.115059657
 10
56.0
 20
5.115059657
  0
LWPOLYLINE
  5
364
100
AcDbEntity
  8
0
100
AcDbPolyline
 62
7
  6
CONTINUOUS
 90
2
 70
0
 43
0.0400000017
 10
46.25
 20
6.125
 10
66.0
 20
6.125
  0
LWPOLYLINE
  5
365
100
AcDbEntity
  8
0
100
AcDbPolyline
 62
7
  6
CONTINUOUS
 90
2
 70
0
 43
0.0400000017
 10
33.5
 20
43.0
 10
33.8373097787
 20
43.4750745558
  0
LWPOLYLINE
  5
366
100
AcDbEntity
  8
0
100
AcDbPolyline
 62
7
  6
CONTINUOUS
 90
2
 70
0
 43
0.0400000017
 10
33.5
 20
1.0
 10
33.8373097787
 20
0.5249254442
  0
LWPOLYLINE
  5
367
100
AcDbEntity
  8
0
100
AcDbPolyline
 62
7
  6
CONTINUOUS
 90
2
 70
0
 43
0.0400000017
 10
1.0
 20
11.5
 10
0.0
 20
11.5
  0
LWPOLYLINE
  5
368
100
AcDbEntity
  8
0
100
AcDbPolyline
 62
7
  6
CONTINUOUS
 90
2
 70
0
 43
0.0400000017
 10
66.0131877017
 20
11.5016820819
 10
67.0131877017
 20
11.5016820819
  0
LWPOLYLINE
  5
369
100
AcDbEntity
  8
0
100
AcDbPolyline
 62
7
  6
CONTINUOUS
 90
2
 70
0
 43
0.0400000017
 10
25.375
 20
1.0
 10
25.375
 20
-0.0
  0
LWPOLYLINE
  5
36A
100
AcDbEntity
  8
0
100
AcDbPolyline
 62
7
  6
CONTINUOUS
 90
2
 70
0
 43
0.0400000017
 10
25.375
 20
43.0
 10
25.375
 20
44.0
  0
LINE
  5
36B
100
AcDbEntity
  8
0
100
AcDbLine
 62
7
  6
CONTINUOUS
 10
46.2534706266
 20
6.1144039304
 11
50.7574420855
 21
3.504563809
  0
LWPOLYLINE
  5
36C
100
AcDbEntity
  8
0
100
AcDbPolyline
 62
7
  6
CONTINUOUS
 90
2
 70
0
 43
0.0400000017
 10
33.5
 20
1.0
 10
33.5
 20
-0.0
  0
LWPOLYLINE
  5
36D
100
AcDbEntity
  8
0
100
AcDbPolyline
 62
7
  6
CONTINUOUS
 90
2
 70
0
 43
0.0400000017
 10
33.5
 20
43.0
 10
33.5
 20
44.0
  0
LWPOLYLINE
  5
36E
100
AcDbEntity
  8
0
100
AcDbPolyline
 62
7
  6
CONTINUOUS
 90
2
 70
0
 43
0.0400000017
 10
1.0
 20
22.0
 10
-0.0
 20
22.0
  0
LWPOLYLINE
  5
36F
100
AcDbEntity
  8
0
100
AcDbPolyline
 62
7
  6
CONTINUOUS
 90
2
 70
0
 43
0.0400000017
 10
66.0021586919
 20
22.0027195963
 10
67.0021586919
 20
22.0027195963
  0
LWPOLYLINE
  5
370
100
AcDbEntity
  8
0
100
AcDbPolyline
 62
7
  6
CONTINUOUS
 90
2
 70
0
 43
0.0400000017
 10
41.625
 20
1.0
 10
41.625
 20
-0.0
  0
LWPOLYLINE
  5
371
100
AcDbEntity
  8
0
100
AcDbPolyline
 62
7
  6
CONTINUOUS
 90
2
 70
0
 43
0.0400000017
 10
41.625
 20
43.0
 10
41.625
 20
44.0
  0
LWPOLYLINE
  5
372
100
AcDbEntity
  8
0
100
AcDbPolyline
 62
7
  6
CONTINUOUS
 90
2
 70
0
 43
0.0400000017
 10
33.5
 20
1.0
 10
33.1626902213
 20
0.5249254442
  0
LWPOLYLINE
  5
373
100
AcDbEntity
  8
0
100
AcDbPolyline
 62
7
  6
CONTINUOUS
 90
2
 70
0
 43
0.0400000017
 10
1.0
 20
32.5
 10
0.0
 20
32.5
  0
LWPOLYLINE
  5
374
100
AcDbEntity
  8
0
100
AcDbPolyline
 62
7
  6
CONTINUOUS
 90
2
 70
0
 43
0.0400000017
 10
66.0
 20
32.5
 10
67.0
 20
32.5
  0
LWPOLYLINE
  5
375
100
AcDbEntity
  8
0
100
AcDbPolyline
 62
7
  6
CONTINUOUS
 90
2
 70
0
 43
0.0400000017
 10
33.5
 20
43.0
 10
33.1626902213
 20
43.4750745558
  0
LWPOLYLINE
  5
376
100
AcDbEntity
  8
0
100
AcDbPolyline
 62
7
  6
CONTINUOUS
 90
2
 70
0
 43
0.0400000017
 10
46.25
 20
1.0
 10
46.25
 20
6.125
  0
LWPOLYLINE
  5
377
100
AcDbEntity
  8
0
100
AcDbPolyline
 62
7
  6
CONTINUOUS
 90
2
 70
0
 43
0.0400000017
 10
49.75
 20
1.0
 10
49.75
 20
-0.0
  0
LWPOLYLINE
  5
378
100
AcDbEntity
  8
0
100
AcDbPolyline
 62
7
  6
CONTINUOUS
 90
2
 70
0
 43
0.0400000017
 10
49.75
 20
43.0
 10
49.75
 20
44.0
  0
LWPOLYLINE
  5
379
100
AcDbEntity
  8
0
100
AcDbPolyline
 62
7
  6
CONTINUOUS
 90
2
 70
0
 43
0.0400000017
 10
50.75
 20
1.0
 10
50.75
 20
6.125
  0
LWPOLYLINE
  5
37A
100
AcDbEntity
  8
0
100
AcDbPolyline
 62
7
  6
CONTINUOUS
 90
2
 70
0
 43
0.0400000017
 10
66.0021586919
 20
22.0027195963
 10
66.4772332477
 20
22.340029375
  0
LWPOLYLINE
  5
37B
100
AcDbEntity
  8
0
100
AcDbPolyline
 62
7
  6
CONTINUOUS
 90
2
 70
0
 43
0.0400000017
 10
66.0021586919
 20
22.0027195963
 10
66.4772332477
 20
21.6654098176
  0
LWPOLYLINE
  5
37C
100
AcDbEntity
  8
0
100
AcDbPolyline
 62
7
  6
CONTINUOUS
 90
2
 70
0
 43
0.0600000005
 10
7.125
 20
42.0
 10
1.0
 20
42.0
  0
LWPOLYLINE
  5
37D
100
AcDbEntity
  8
0
100
AcDbPolyline
 62
7
  6
CONTINUOUS
 90
2
 70
0
 43
0.0600000005
 10
66.0
 20
43.0
 10
1.0
 20
43.0
  0
LWPOLYLINE
  5
37E
100
AcDbEntity
  8
0
100
AcDbPolyline
 62
7
  6
CONTINUOUS
 90
2
 70
0
 43
0.0400000017
 10
33.1626902213
 20
43.4750745558
 10
33.8373097787
 20
43.4750745558
  0
LWPOLYLINE
  5
37F
100
AcDbEntity
  8
0
100
AcDbPolyline
 62
7
  6
CONTINUOUS
 90
2
 70
0
 43
0.0400000017
 10
56.0
 20
1.0
 10
56.0
 20
6.125
  0
LWPOLYLINE
  5
380
100
AcDbEntity
  8
0
100
AcDbPolyline
 62
7
  6
CONTINUOUS
 90
2
 70
0
 43
0.0400000017
 10
57.0
 20
1.5
 10
57.0
 20
2.5
  0
LWPOLYLINE
  5
381
100
AcDbEntity
  8
0
100
AcDbPolyline
 62
7
  6
CONTINUOUS
 90
2
 70
0
 43
0.0400000017
 10
57.875
 20
1.0
 10
57.875
 20
-0.0
  0
LWPOLYLINE
  5
382
100
AcDbEntity
  8
0
100
AcDbPolyline
 62
7
  6
CONTINUOUS
 90
2
 70
0
 43
0.0400000017
 10
57.875
 20
43.0
 10
57.875
 20
44.0
  0
LINE
  5
383
100
AcDbEntity
  8
0
100
AcDbLine
 62
7
  6
CONTINUOUS
 10
46.2461986791
 20
3.5068545033
 11
50.7446996236
 21
6.1135521123
  0
LINE
  5
384
100
AcDbEntity
  8
DEFAULT_3
100
AcDbLine
 62
7
  6
PHANTOM
 10
0.0
 20
44.0
 11
68.0
 21
44.0
  0
LWPOLYLINE
  5
385
100
AcDbEntity
  8
0
100
AcDbPolyline
 62
7
  6
CONTINUOUS
 90
2
 70
0
 43
0.0400000017
 10
58.3672579331
 20
1.0095003111
 10
58.3672579331
 20
1.5095003111
  0
LWPOLYLINE
  5
386
100
AcDbEntity
  8
0
100
AcDbPolyline
 62
7
  6
CONTINUOUS
 90
2
 70
0
 43
0.0400000017
 10
59.0
 20
1.5
 10
59.0
 20
2.5
  0
LWPOLYLINE
  5
387
100
AcDbEntity
  8
0
100
AcDbPolyline
 62
7
  6
CONTINUOUS
 90
2
 70
0
 43
0.0400000017
 10
62.75
 20
1.0
 10
62.75
 20
1.5
  0
LWPOLYLINE
  5
388
100
AcDbEntity
  8
0
100
AcDbPolyline
 62
7
  6
CONTINUOUS
 90
2
 70
0
 43
0.0400000017
 10
65.0
 20
1.5
 10
65.0
 20
2.5
  0
LWPOLYLINE
  5
389
100
AcDbEntity
  8
0
100
AcDbPolyline
 62
7
  6
CONTINUOUS
 90
2
 70
0
 43
0.0600000005
 10
66.0
 20
43.0
 10
66.0
 20
1.0
  0
LWPOLYLINE
  5
38A
100
AcDbEntity
  8
0
100
AcDbPolyline
 62
7
  6
CONTINUOUS
 90
2
 70
0
 43
0.0400000017
 10
66.4772332477
 20
21.6654098176
 10
66.4772332477
 20
22.340029375
  0
LINE
  5
38B
100
AcDbEntity
  8
DEFAULT_3
100
AcDbLine
 62
7
  6
PHANTOM
 10
68.0
 20
-0.0
 11
68.0
 21
44.0
  0
LINE
  5
38C
100
AcDbEntity
  8
0
100
AcDbLine
 62
7
  6
CONTINUOUS
 10
19.7020279716
 20
26.9387909542
 11
19.7020279716
 21
27.0175311117
  0
LINE
  5
38D
100
AcDbEntity
  8
7_ALL_ROUNDS
100
AcDbLine
 62
7
  6
CONTINUOUS
 10
24.0917917511
 20
19.3277673321
 11
23.6980909637
 21
19.3277673321
  0
LINE
  5
38E
100
AcDbEntity
  8
7_ALL_ROUNDS
100
AcDbLine
 62
7
  6
CONTINUOUS
 10
24.2177760031
 20
19.3828854424
 11
24.1311618299
 21
19.3828854424
  0
LINE
  5
38F
100
AcDbEntity
  8
0
100
AcDbLine
 62
7
  6
CONTINUOUS
 10
24.1311618299
 20
19.3828854424
 11
24.0962007909
 21
19.3828854424
  0
LINE
  5
390
100
AcDbEntity
  8
7_ALL_ROUNDS
100
AcDbLine
 62
7
  6
CONTINUOUS
 10
23.658720885
 20
19.3828854424
 11
23.5721067118
 21
19.3828854424
  0
LINE
  5
391
100
AcDbEntity
  8
0
100
AcDbLine
 62
7
  6
CONTINUOUS
 10
23.5721067118
 20
19.3828854424
 11
23.4051232177
 21
19.3828854424
  0
LINE
  5
392
100
AcDbEntity
  8
0
100
AcDbLine
 62
7
  6
CONTINUOUS
 10
24.2177760031
 20
19.426192529
 11
24.2492720661
 21
19.426192529
  0
LINE
  5
393
100
AcDbEntity
  8
7_ALL_ROUNDS
100
AcDbLine
 62
7
  6
CONTINUOUS
 10
24.2177760031
 20
19.426192529
 11
24.2492720661
 21
19.426192529
  0
LINE
  5
394
100
AcDbEntity
  8
0
100
AcDbLine
 62
7
  6
CONTINUOUS
 10
24.1311618299
 20
19.5059169384
 11
23.658720885
 21
19.5059169384
  0
LINE
  5
395
100
AcDbEntity
  8
0
100
AcDbLine
 62
7
  6
CONTINUOUS
 10
23.5721067118
 20
19.5059169384
 11
23.3437602551
 21
19.5059169384
  0
LINE
  5
396
100
AcDbEntity
  8
0
100
AcDbLine
 62
7
  6
CONTINUOUS
 10
22.7650200976
 20
19.5088696944
 11
22.6862799401
 21
19.5088696944
  0
LINE
  5
397
100
AcDbEntity
  8
0
100
AcDbLine
 62
7
  6
CONTINUOUS
 10
20.3516342708
 20
26.4962712692
 11
20.3516342708
 21
26.9387909542
  0
LINE
  5
398
100
AcDbEntity
  8
0
100
AcDbLine
 62
7
  6
CONTINUOUS
 10
20.359517055
 20
25.000208277
 11
20.359517055
 21
26.4962712692
  0
LINE
  5
399
100
AcDbEntity
  8
0
100
AcDbLine
 62
7
  6
CONTINUOUS
 10
20.3637298974
 20
26.4962712692
 11
20.3637298974
 21
25.3151689069
  0
LINE
  5
39A
100
AcDbEntity
  8
0
100
AcDbLine
 62
7
  6
CONTINUOUS
 10
20.4303744283
 20
25.3151689069
 11
20.4303744283
 21
24.6065074896
  0
LINE
  5
39B
100
AcDbEntity
  8
0
100
AcDbLine
 62
7
  6
CONTINUOUS
 10
20.4500594677
 20
24.8427279621
 11
20.4500594677
 21
25.7088696944
  0
LINE
  5
39C
100
AcDbEntity
  8
7_ALL_ROUNDS
100
AcDbLine
 62
9
  6
CONTINUOUS
 10
23.658720885
 20
19.5797358361
 11
23.5721067118
 21
19.5797358361
  0
LINE
  5
39D
100
AcDbEntity
  8
0
100
AcDbLine
 62
7
  6
CONTINUOUS
 10
24.1311618299
 20
19.6535547337
 11
23.658720885
 21
19.6535547337
  0
LINE
  5
39E
100
AcDbEntity
  8
0
100
AcDbLine
 62
7
  6
CONTINUOUS
 10
23.5721067118
 20
19.6535547337
 11
23.3437602551
 21
19.6535547337
  0
LINE
  5
39F
100
AcDbEntity
  8
7_ALL_ROUNDS
100
AcDbLine
 62
9
  6
CONTINUOUS
 10
23.5721067118
 20
19.6584759936
 11
23.658720885
 21
19.6584759936
  0
LINE
  5
3A0
100
AcDbEntity
  8
0
100
AcDbLine
 62
7
  6
CONTINUOUS
 10
24.2177760031
 20
19.7332791432
 11
24.2492720661
 21
19.7332791432
  0
LINE
  5
3A1
100
AcDbEntity
  8
7_ALL_ROUNDS
100
AcDbLine
 62
7
  6
CONTINUOUS
 10
24.2177760031
 20
19.7332791432
 11
24.2492720661
 21
19.7332791432
  0
LINE
  5
3A2
100
AcDbEntity
  8
7_ALL_ROUNDS
100
AcDbLine
 62
7
  6
CONTINUOUS
 10
24.6311618299
 20
19.737216151
 11
24.4973035622
 21
19.737216151
  0
LINE
  5
3A3
100
AcDbEntity
  8
7_ALL_ROUNDS
100
AcDbLine
 62
7
  6
CONTINUOUS
 10
23.2925791527
 20
19.737216151
 11
23.158720885
 21
19.737216151
  0
LINE
  5
3A4
100
AcDbEntity
  8
7_ALL_ROUNDS
100
AcDbLine
 62
7
  6
CONTINUOUS
 10
24.8358862393
 20
19.7608381983
 11
24.6862799401
 21
19.7608381983
  0
LINE
  5
3A5
100
AcDbEntity
  8
0
100
AcDbLine
 62
7
  6
CONTINUOUS
 10
24.1311618299
 20
19.7765862298
 11
24.0962007909
 21
19.7765862298
  0
LINE
  5
3A6
100
AcDbEntity
  8
0
100
AcDbLine
 62
7
  6
CONTINUOUS
 10
22.6075397826
 20
19.7765862298
 11
22.4382484441
 21
19.7765862298
  0
LINE
  5
3A7
100
AcDbEntity
  8
7_ALL_ROUNDS
100
AcDbLine
 62
7
  6
CONTINUOUS
 10
24.1311618299
 20
19.7765862298
 11
24.2177760031
 21
19.7765862298
  0
LINE
  5
3A8
100
AcDbEntity
  8
7_ALL_ROUNDS
100
AcDbLine
 62
9
  6
CONTINUOUS
 10
24.6100340258
 20
19.8238303243
 11
24.4106893889
 21
19.8238303243
  0
LINE
  5
3A9
100
AcDbEntity
  8
7_ALL_ROUNDS
100
AcDbLine
 62
9
  6
CONTINUOUS
 10
23.379193326
 20
19.8238303243
 11
23.0721067118
 21
19.8238303243
  0
LINE
  5
3AA
100
AcDbEntity
  8
7_ALL_ROUNDS
100
AcDbLine
 62
9
  6
CONTINUOUS
 10
24.9146263968
 20
19.8395783558
 11
24.6075397826
 21
19.8395783558
  0
LINE
  5
3AB
100
AcDbEntity
  8
0
100
AcDbLine
 62
7
  6
CONTINUOUS
 10
25.1941539559
 20
19.8553263873
 11
24.9146263968
 21
19.8553263873
  0
LINE
  5
3AC
100
AcDbEntity
  8
0
100
AcDbLine
 62
7
  6
CONTINUOUS
 10
24.6075397826
 20
19.8553263873
 11
24.2177760031
 21
19.8553263873
  0
LINE
  5
3AD
100
AcDbEntity
  8
0
100
AcDbLine
 62
7
  6
CONTINUOUS
 10
23.5721067118
 20
19.8553263873
 11
22.7650200976
 21
19.8553263873
  0
LINE
  5
3AE
100
AcDbEntity
  8
7_ALL_ROUNDS
100
AcDbLine
 62
7
  6
CONTINUOUS
 10
22.2807681291
 20
19.8553263873
 11
22.6862799401
 21
19.8553263873
  0
LINE
  5
3AF
100
AcDbEntity
  8
7_ALL_ROUNDS
100
AcDbLine
 62
7
  6
CONTINUOUS
 10
23.5721067118
 20
19.8553263873
 11
23.658720885
 21
19.8553263873
  0
LINE
  5
3B0
100
AcDbEntity
  8
0
100
AcDbLine
 62
7
  6
CONTINUOUS
 10
24.9146263968
 20
19.8789484345
 11
24.6075397826
 21
19.8789484345
  0
LINE
  5
3B1
100
AcDbEntity
  8
0
100
AcDbLine
 62
7
  6
CONTINUOUS
 10
25.5091145858
 20
19.9025704818
 11
24.8299807275
 21
19.9025704818
  0
LINE
  5
3B2
100
AcDbEntity
  8
7_ALL_ROUNDS
100
AcDbLine
 62
7
  6
CONTINUOUS
 10
21.1390358456
 20
19.9025704818
 11
22.6469098614
 21
19.9025704818
  0
LINE
  5
3B3
100
AcDbEntity
  8
0
100
AcDbLine
 62
7
  6
CONTINUOUS
 10
22.7650200976
 20
19.9025704818
 11
24.6921854519
 21
19.9025704818
  0
LINE
  5
3B4
100
AcDbEntity
  8
0
100
AcDbLine
 62
7
  6
CONTINUOUS
 10
20.5681697039
 20
24.6065074896
 11
20.5681697039
 21
24.5277673321
  0
LINE
  5
3B5
100
AcDbEntity
  8
0
100
AcDbLine
 62
7
  6
CONTINUOUS
 10
20.6862799401
 20
24.6065074896
 11
20.6862799401
 21
24.5277673321
  0
LINE
  5
3B6
100
AcDbEntity
  8
0
100
AcDbLine
 62
7
  6
CONTINUOUS
 10
20.8043901763
 20
25.7088696944
 11
20.8043901763
 21
24.8427279621
  0
LINE
  5
3B7
100
AcDbEntity
  8
0
100
AcDbLine
 62
7
  6
CONTINUOUS
 10
20.8240752157
 20
25.3151689069
 11
20.8240752157
 21
24.6065074896
  0
LINE
  5
3B8
100
AcDbEntity
  8
0
100
AcDbLine
 62
7
  6
CONTINUOUS
 10
26.2965161606
 20
19.957688592
 11
22.7650200976
 21
19.957688592
  0
LINE
  5
3B9
100
AcDbEntity
  8
7_ALL_ROUNDS
100
AcDbLine
 62
7
  6
CONTINUOUS
 10
21.1390358456
 20
19.9734366235
 11
22.7256500189
 21
19.9734366235
  0
LINE
  5
3BA
100
AcDbEntity
  8
0
100
AcDbLine
 62
7
  6
CONTINUOUS
 10
22.7256500189
 20
19.9734366235
 11
22.7650200976
 21
19.9734366235
  0
LINE
  5
3BB
100
AcDbEntity
  8
0
100
AcDbLine
 62
7
  6
CONTINUOUS
 10
20.8634452945
 20
25.000208277
 11
20.8634452945
 21
25.3151689069
  0
LINE
  5
3BC
100
AcDbEntity
  8
0
100
AcDbLine
 62
7
  6
CONTINUOUS
 10
20.9028153732
 20
25.3151689069
 11
20.9028153732
 21
25.000208277
  0
LINE
  5
3BD
100
AcDbEntity
  8
0
100
AcDbLine
 62
7
  6
CONTINUOUS
 10
20.9149109998
 20
25.000208277
 11
20.9149109998
 21
26.4962712692
  0
LINE
  5
3BE
100
AcDbEntity
  8
7_ALL_ROUNDS
100
AcDbLine
 62
7
  6
CONTINUOUS
 10
21.0996657669
 20
26.2569011904
 11
21.0996657669
 21
20.3513893794
  0
LINE
  5
3BF
100
AcDbEntity
  8
0
100
AcDbLine
 62
7
  6
CONTINUOUS
 10
21.0996657669
 20
20.3513893794
 11
21.0996657669
 21
26.2569011904
  0
LINE
  5
3C0
100
AcDbEntity
  8
7_ALL_ROUNDS
100
AcDbLine
 62
7
  6
CONTINUOUS
 10
21.1390358456
 20
19.9734366235
 11
21.1390358456
 21
19.9025704818
  0
LINE
  5
3C1
100
AcDbEntity
  8
7_ALL_ROUNDS
100
AcDbLine
 62
9
  6
CONTINUOUS
 10
26.690216948
 20
20.3513893794
 11
21.0996657669
 21
20.3513893794
  0
LINE
  5
3C2
100
AcDbEntity
  8
7_ALL_ROUNDS
100
AcDbLine
 62
9
  6
CONTINUOUS
 10
21.9264374204
 20
19.9734366235
 11
21.9264374204
 21
19.9025704818
  0
LINE
  5
3C3
100
AcDbEntity
  8
0
100
AcDbLine
 62
7
  6
CONTINUOUS
 10
22.2807681291
 20
19.9025704818
 11
22.2807681291
 21
19.8553263873
  0
LINE
  5
3C4
100
AcDbEntity
  8
0
100
AcDbLine
 62
9
  6
CONTINUOUS
 10
22.3988783653
 20
19.9025704818
 11
22.3988783653
 21
19.8553263873
  0
LINE
  5
3C5
100
AcDbEntity
  8
0
100
AcDbLine
 62
7
  6
CONTINUOUS
 10
22.4382484441
 20
19.8553263873
 11
22.4382484441
 21
19.7765862298
  0
LINE
  5
3C6
100
AcDbEntity
  8
0
100
AcDbLine
 62
7
  6
CONTINUOUS
 10
22.6075397826
 20
19.8553263873
 11
22.6075397826
 21
19.7765862298
  0
LINE
  5
3C7
100
AcDbEntity
  8
0
100
AcDbLine
 62
9
  6
CONTINUOUS
 10
22.6469098614
 20
19.8553263873
 11
22.6469098614
 21
19.9025704818
  0
LINE
  5
3C8
100
AcDbEntity
  8
7_ALL_ROUNDS
100
AcDbLine
 62
7
  6
CONTINUOUS
 10
22.6862799401
 20
19.863200403
 11
22.6862799401
 21
19.5088696944
  0
LINE
  5
3C9
100
AcDbEntity
  8
7_ALL_ROUNDS
100
AcDbLine
 62
7
  6
CONTINUOUS
 10
22.7650200976
 20
19.9340665447
 11
22.7650200976
 21
19.5088696944
  0
LINE
  5
3CA
100
AcDbEntity
  8
0
100
AcDbLine
 62
7
  6
CONTINUOUS
 10
22.7650200976
 20
19.9340665447
 11
22.7650200976
 21
19.9734366235
  0
LINE
  5
3CB
100
AcDbEntity
  8
0
100
AcDbLine
 62
7
  6
CONTINUOUS
 10
23.0721067118
 20
19.8553263873
 11
23.0721067118
 21
19.8238303243
  0
LINE
  5
3CC
100
AcDbEntity
  8
7_ALL_ROUNDS
100
AcDbLine
 62
7
  6
CONTINUOUS
 10
23.0721067118
 20
19.8553263873
 11
23.0721067118
 21
19.8238303243
  0
LINE
  5
3CD
100
AcDbEntity
  8
0
100
AcDbLine
 62
7
  6
CONTINUOUS
 10
23.127224822
 20
27.379488938
 11
23.127224822
 21
27.3802712139
  0
LINE
  5
3CE
100
AcDbEntity
  8
0
100
AcDbLine
 62
7
  6
CONTINUOUS
 10
23.3437602551
 20
19.5059169384
 11
23.3437602551
 21
19.6535547337
  0
LINE
  5
3CF
100
AcDbEntity
  8
0
100
AcDbLine
 62
7
  6
CONTINUOUS
 10
23.379193326
 20
19.8553263873
 11
23.379193326
 21
19.8238303243
  0
LINE
  5
3D0
100
AcDbEntity
  8
7_ALL_ROUNDS
100
AcDbLine
 62
7
  6
CONTINUOUS
 10
23.379193326
 20
19.8553263873
 11
23.379193326
 21
19.8238303243
  0
LINE
  5
3D1
100
AcDbEntity
  8
0
100
AcDbLine
 62
7
  6
CONTINUOUS
 10
23.4051213831
 20
19.8553263873
 11
23.4051213831
 21
19.6535547337
  0
LINE
  5
3D2
100
AcDbEntity
  8
0
100
AcDbLine
 62
7
  6
CONTINUOUS
 10
23.4051213831
 20
19.5059169384
 11
23.4051213831
 21
19.3828854424
  0
LINE
  5
3D3
100
AcDbEntity
  8
0
100
AcDbLine
 62
7
  6
CONTINUOUS
 10
23.50124057
 20
26.4962712692
 11
23.50124057
 21
25.000208277
  0
LINE
  5
3D4
100
AcDbEntity
  8
7_ALL_ROUNDS
100
AcDbLine
 62
7
  6
CONTINUOUS
 10
23.5721067118
 20
19.3828854424
 11
23.5721067118
 21
19.8553263873
  0
LINE
  5
3D5
100
AcDbEntity
  8
0
100
AcDbLine
 62
7
  6
CONTINUOUS
 10
23.6024165983
 20
26.4962712692
 11
23.6024165983
 21
25.000208277
  0
LINE
  5
3D6
100
AcDbEntity
  8
7_ALL_ROUNDS
100
AcDbLine
 62
7
  6
CONTINUOUS
 10
23.658720885
 20
19.3828854424
 11
23.658720885
 21
19.8553263873
  0
LINE
  5
3D7
100
AcDbEntity
  8
0
100
AcDbLine
 62
7
  6
CONTINUOUS
 10
23.658720885
 20
19.8553263873
 11
23.658720885
 21
19.9025704818
  0
LINE
  5
3D8
100
AcDbEntity
  8
0
100
AcDbLine
 62
7
  6
CONTINUOUS
 10
23.658720885
 20
25.000208277
 11
23.658720885
 21
26.4962712692
  0
LINE
  5
3D9
100
AcDbEntity
  8
0
100
AcDbLine
 62
7
  6
CONTINUOUS
 10
23.6980909637
 20
25.5120193006
 11
23.6980909637
 21
24.6065074896
  0
LINE
  5
3DA
100
AcDbEntity
  8
0
100
AcDbLine
 62
7
  6
CONTINUOUS
 10
23.7020279716
 20
19.957688592
 11
23.7020279716
 21
19.9025704818
  0
LINE
  5
3DB
100
AcDbEntity
  8
0
100
AcDbLine
 62
7
  6
CONTINUOUS
 10
23.8358862393
 20
26.4962712692
 11
23.8358862393
 21
25.5120193006
  0
LINE
  5
3DC
100
AcDbEntity
  8
0
100
AcDbLine
 62
7
  6
CONTINUOUS
 10
23.8358862393
 20
24.6065074896
 11
23.8358862393
 21
24.5277673321
  0
LINE
  5
3DD
100
AcDbEntity
  8
0
100
AcDbLine
 62
7
  6
CONTINUOUS
 10
23.9539964756
 20
26.4962712692
 11
23.9539964756
 21
25.5120193006
  0
LINE
  5
3DE
100
AcDbEntity
  8
0
100
AcDbLine
 62
7
  6
CONTINUOUS
 10
23.9539964756
 20
24.6065074896
 11
23.9539964756
 21
24.5277673321
  0
LINE
  5
3DF
100
AcDbEntity
  8
0
100
AcDbLine
 62
7
  6
CONTINUOUS
 10
23.9807464548
 20
25.3151689069
 11
23.9807464548
 21
24.8427279621
  0
LINE
  5
3E0
100
AcDbEntity
  8
0
100
AcDbLine
 62
7
  6
CONTINUOUS
 10
24.0878547433
 20
19.957688592
 11
24.0878547433
 21
19.9025704818
  0
LINE
  5
3E1
100
AcDbEntity
  8
0
100
AcDbLine
 62
7
  6
CONTINUOUS
 10
24.0917917511
 20
25.5120193006
 11
24.0917917511
 21
25.3151689069
  0
LINE
  5
3E2
100
AcDbEntity
  8
0
100
AcDbLine
 62
7
  6
CONTINUOUS
 10
24.0917917511
 20
24.8427279621
 11
24.0917917511
 21
24.6065074896
  0
LINE
  5
3E3
100
AcDbEntity
  8
0
100
AcDbLine
 62
7
  6
CONTINUOUS
 10
24.0962007909
 20
19.7765862298
 11
24.0962007909
 21
19.6535547337
  0
LINE
  5
3E4
100
AcDbEntity
  8
0
100
AcDbLine
 62
7
  6
CONTINUOUS
 10
24.0962007909
 20
19.5059169384
 11
24.0962007909
 21
19.3828854424
  0
LINE
  5
3E5
100
AcDbEntity
  8
7_ALL_ROUNDS
100
AcDbLine
 62
7
  6
CONTINUOUS
 10
24.1311618299
 20
19.7765862298
 11
24.1311618299
 21
19.3828854424
  0
LINE
  5
3E6
100
AcDbEntity
  8
0
100
AcDbLine
 62
7
  6
CONTINUOUS
 10
24.1311618299
 20
19.7765862298
 11
24.1311618299
 21
19.9025704818
  0
LINE
  5
3E7
100
AcDbEntity
  8
0
100
AcDbLine
 62
7
  6
CONTINUOUS
 10
24.1311618299
 20
25.3151689069
 11
24.1311618299
 21
26.4962712692
  0
LINE
  5
3E8
100
AcDbEntity
  8
0
100
AcDbLine
 62
7
  6
CONTINUOUS
 10
24.1874661166
 20
26.4962712692
 11
24.1874661166
 21
25.3151689069
  0
LINE
  5
3E9
100
AcDbEntity
  8
0
100
AcDbLine
 62
7
  6
CONTINUOUS
 10
24.2177760031
 20
19.8553263873
 11
24.2177760031
 21
19.7765862298
  0
LINE
  5
3EA
100
AcDbEntity
  8
7_ALL_ROUNDS
100
AcDbLine
 62
7
  6
CONTINUOUS
 10
24.2177760031
 20
19.3828854424
 11
24.2177760031
 21
19.7765862298
  0
LINE
  5
3EB
100
AcDbEntity
  8
7_ALL_ROUNDS
100
AcDbLine
 62
9
  6
CONTINUOUS
 10
24.2492720661
 20
19.7332791432
 11
24.2492720661
 21
19.426192529
  0
LINE
  5
3EC
100
AcDbEntity
  8
0
100
AcDbLine
 62
7
  6
CONTINUOUS
 10
24.2886421448
 20
26.4962712692
 11
24.2886421448
 21
25.3151689069
  0
LINE
  5
3ED
100
AcDbEntity
  8
7_ALL_ROUNDS
100
AcDbLine
 62
7
  6
CONTINUOUS
 10
24.3358862393
 20
19.6466649699
 11
24.3358862393
 21
19.5128067022
  0
LINE
  5
3EE
100
AcDbEntity
  8
0
100
AcDbLine
 62
7
  6
CONTINUOUS
 10
24.4106893889
 20
19.8553263873
 11
24.4106893889
 21
19.8238303243
  0
LINE
  5
3EF
100
AcDbEntity
  8
7_ALL_ROUNDS
100
AcDbLine
 62
7
  6
CONTINUOUS
 10
24.4106893889
 20
19.8553263873
 11
24.4106893889
 21
19.8238303243
  0
LINE
  5
3F0
100
AcDbEntity
  8
0
100
AcDbLine
 62
7
  6
CONTINUOUS
 10
24.4539964756
 20
25.3151689069
 11
24.4539964756
 21
25.7088696944
  0
LINE
  5
3F1
100
AcDbEntity
  8
0
100
AcDbLine
 62
9
  6
CONTINUOUS
 10
24.5793941134
 20
27.3819197875
 11
24.5793941134
 21
27.383672844
  0
LINE
  5
3F2
100
AcDbEntity
  8
0
100
AcDbLine
 62
7
  6
CONTINUOUS
 10
24.5962641921
 20
27.3814445919
 11
24.5962641921
 21
27.383672844
  0
LINE
  5
3F3
100
AcDbEntity
  8
0
100
AcDbLine
 62
7
  6
CONTINUOUS
 10
24.6075397826
 20
19.8789484345
 11
24.6075397826
 21
19.8395783558
  0
LINE
  5
3F4
100
AcDbEntity
  8
7_ALL_ROUNDS
100
AcDbLine
 62
7
  6
CONTINUOUS
 10
24.6075397826
 20
19.8789484345
 11
24.6075397826
 21
19.8395783558
  0
LINE
  5
3F5
100
AcDbEntity
  8
0
100
AcDbLine
 62
7
  6
CONTINUOUS
 10
24.6626578929
 20
27.3802712139
 11
24.6626578929
 21
27.379488938
  0
LINE
  5
3F6
100
AcDbEntity
  8
0
100
AcDbLine
 62
7
  6
CONTINUOUS
 10
24.6921854519
 20
19.957688592
 11
24.6921854519
 21
19.8789484345
  0
LINE
  5
3F7
100
AcDbEntity
  8
0
100
AcDbLine
 62
7
  6
CONTINUOUS
 10
24.8299807275
 20
19.957688592
 11
24.8299807275
 21
19.8789484345
  0
LINE
  5
3F8
100
AcDbEntity
  8
0
100
AcDbLine
 62
7
  6
CONTINUOUS
 10
24.9146263968
 20
19.8789484345
 11
24.9146263968
 21
19.8395783558
  0
LINE
  5
3F9
100
AcDbEntity
  8
7_ALL_ROUNDS
100
AcDbLine
 62
7
  6
CONTINUOUS
 10
24.9146263968
 20
19.8789484345
 11
24.9146263968
 21
19.8395783558
  0
LINE
  5
3FA
100
AcDbEntity
  8
0
100
AcDbLine
 62
7
  6
CONTINUOUS
 10
24.9185634047
 20
24.8427279621
 11
24.9185634047
 21
25.7088696944
  0
LINE
  5
3FB
100
AcDbEntity
  8
0
100
AcDbLine
 62
7
  6
CONTINUOUS
 10
27.2216577924
 20
24.5277673321
 11
27.1036579933
 21
24.5277673321
  0
LINE
  5
3FC
100
AcDbEntity
  8
0
100
AcDbLine
 62
7
  6
CONTINUOUS
 10
23.953941257
 20
24.5277673321
 11
23.8359414579
 21
24.5277673321
  0
LINE
  5
3FD
100
AcDbEntity
  8
0
100
AcDbLine
 62
7
  6
CONTINUOUS
 10
20.6862247216
 20
24.5277673321
 11
20.5682249225
 21
24.5277673321
  0
LINE
  5
3FE
100
AcDbEntity
  8
0
100
AcDbLine
 62
7
  6
CONTINUOUS
 10
25.1941539559
 20
19.9025704818
 11
25.1941539559
 21
19.8553263873
  0
LINE
  5
3FF
100
AcDbEntity
  8
0
100
AcDbLine
 62
7
  6
CONTINUOUS
 10
27.3595082866
 20
24.6065074896
 11
26.9658074992
 21
24.6065074896
  0
LINE
  5
400
100
AcDbEntity
  8
0
100
AcDbLine
 62
7
  6
CONTINUOUS
 10
24.0917917511
 20
24.6065074896
 11
23.6980909637
 21
24.6065074896
  0
LINE
  5
401
100
AcDbEntity
  8
0
100
AcDbLine
 62
7
  6
CONTINUOUS
 10
20.8240752157
 20
24.6065074896
 11
20.4303744283
 21
24.6065074896
  0
LINE
  5
402
100
AcDbEntity
  8
0
100
AcDbLine
 62
7
  6
CONTINUOUS
 10
20.4500594677
 20
24.8427279621
 11
20.8043901763
 21
24.8427279621
  0
LINE
  5
403
100
AcDbEntity
  8
0
100
AcDbLine
 62
7
  6
CONTINUOUS
 10
23.9807464548
 20
24.8427279621
 11
24.9185634047
 21
24.8427279621
  0
LINE
  5
404
100
AcDbEntity
  8
0
100
AcDbLine
 62
7
  6
CONTINUOUS
 10
25.5091145858
 20
19.957688592
 11
25.5091145858
 21
19.9025704818
  0
LINE
  5
405
100
AcDbEntity
  8
0
100
AcDbLine
 62
7
  6
CONTINUOUS
 10
27.4303656599
 20
25.000208277
 11
26.8749717151
 21
25.000208277
  0
LINE
  5
406
100
AcDbEntity
  8
0
100
AcDbLine
 62
7
  6
CONTINUOUS
 10
20.359517055
 20
25.000208277
 11
20.4303744283
 21
25.000208277
  0
LINE
  5
407
100
AcDbEntity
  8
0
100
AcDbLine
 62
7
  6
CONTINUOUS
 10
20.8240752157
 20
25.000208277
 11
20.9149109998
 21
25.000208277
  0
LINE
  5
408
100
AcDbEntity
  8
0
100
AcDbLine
 62
7
  6
CONTINUOUS
 10
23.5013130561
 20
25.000208277
 11
23.6980909637
 21
25.000208277
  0
LINE
  5
409
100
AcDbEntity
  8
0
100
AcDbLine
 62
7
  6
CONTINUOUS
 10
20.9149109998
 20
25.3151689069
 11
20.8043901763
 21
25.3151689069
  0
LINE
  5
40A
100
AcDbEntity
  8
0
100
AcDbLine
 62
7
  6
CONTINUOUS
 10
20.359517055
 20
25.3151689069
 11
20.4500594677
 21
25.3151689069
  0
LINE
  5
40B
100
AcDbEntity
  8
0
100
AcDbLine
 62
7
  6
CONTINUOUS
 10
23.9807464548
 20
25.3151689069
 11
24.4539964756
 21
25.3151689069
  0
LINE
  5
40C
100
AcDbEntity
  8
0
100
AcDbLine
 62
7
  6
CONTINUOUS
 10
24.0917917511
 20
25.5120193006
 11
23.6980909637
 21
25.5120193006
  0
LINE
  5
40D
100
AcDbEntity
  8
0
100
AcDbLine
 62
7
  6
CONTINUOUS
 10
20.4500594677
 20
25.7088696944
 11
20.8043901763
 21
25.7088696944
  0
LINE
  5
40E
100
AcDbEntity
  8
0
100
AcDbLine
 62
7
  6
CONTINUOUS
 10
24.4539964756
 20
25.7088696944
 11
24.9185634047
 21
25.7088696944
  0
LINE
  5
40F
100
AcDbEntity
  8
7_ALL_ROUNDS
100
AcDbLine
 62
7
  6
CONTINUOUS
 10
26.690216948
 20
26.2569011904
 11
26.690216948
 21
20.3513893794
  0
LINE
  5
410
100
AcDbEntity
  8
0
100
AcDbLine
 62
7
  6
CONTINUOUS
 10
26.690216948
 20
20.3513893794
 11
26.690216948
 21
26.2569011904
  0
LINE
  5
411
100
AcDbEntity
  8
0
100
AcDbLine
 62
7
  6
CONTINUOUS
 10
26.8749717151
 20
25.000208277
 11
26.8749717151
 21
26.4962712692
  0
LINE
  5
412
100
AcDbEntity
  8
0
100
AcDbLine
 62
7
  6
CONTINUOUS
 10
26.9658074992
 20
25.000208277
 11
26.9658074992
 21
24.6065074896
  0
LINE
  5
413
100
AcDbEntity
  8
0
100
AcDbLine
 62
7
  6
CONTINUOUS
 10
26.8749717151
 20
26.2569011904
 11
24.2886421448
 21
26.2569011904
  0
LINE
  5
414
100
AcDbEntity
  8
0
100
AcDbLine
 62
7
  6
CONTINUOUS
 10
23.50124057
 20
26.2569011904
 11
20.9149109998
 21
26.2569011904
  0
LINE
  5
415
100
AcDbEntity
  8
0
100
AcDbLine
 62
7
  6
CONTINUOUS
 10
27.4261528175
 20
26.4962712692
 11
24.1874661166
 21
26.4962712692
  0
LINE
  5
416
100
AcDbEntity
  8
0
100
AcDbLine
 62
7
  6
CONTINUOUS
 10
23.6024165983
 20
26.4962712692
 11
20.3637298974
 21
26.4962712692
  0
LINE
  5
417
100
AcDbEntity
  8
0
100
AcDbLine
 62
7
  6
CONTINUOUS
 10
20.3516342709
 20
26.4962712692
 11
20.359517055
 21
26.4962712692
  0
LINE
  5
418
100
AcDbEntity
  8
0
100
AcDbLine
 62
7
  6
CONTINUOUS
 10
23.658720885
 20
26.4962712692
 11
24.1311618299
 21
26.4962712692
  0
LINE
  5
419
100
AcDbEntity
  8
0
100
AcDbLine
 62
7
  6
CONTINUOUS
 10
27.4303656599
 20
26.4962712692
 11
27.438248444
 21
26.4962712692
  0
LINE
  5
41A
100
AcDbEntity
  8
0
100
AcDbLine
 62
7
  6
CONTINUOUS
 10
27.1036027748
 20
24.6065074896
 11
27.1036027748
 21
24.5277673321
  0
LINE
  5
41B
100
AcDbEntity
  8
0
100
AcDbLine
 62
7
  6
CONTINUOUS
 10
27.221713011
 20
24.6065074896
 11
27.221713011
 21
24.5277673321
  0
LINE
  5
41C
100
AcDbEntity
  8
0
100
AcDbLine
 62
7
  6
CONTINUOUS
 10
27.3595082866
 20
25.000208277
 11
27.3595082866
 21
24.6065074896
  0
LINE
  5
41D
100
AcDbEntity
  8
0
100
AcDbLine
 62
7
  6
CONTINUOUS
 10
27.4261528175
 20
26.4962712692
 11
27.4261528175
 21
25.000208277
  0
LINE
  5
41E
100
AcDbEntity
  8
0
100
AcDbLine
 62
7
  6
CONTINUOUS
 10
27.4303656599
 20
25.000208277
 11
27.4303656599
 21
26.4962712692
  0
LINE
  5
41F
100
AcDbEntity
  8
0
100
AcDbLine
 62
7
  6
CONTINUOUS
 10
27.4382484441
 20
26.4962712692
 11
27.4382484441
 21
26.9387909542
  0
LINE
  5
420
100
AcDbEntity
  8
0
100
AcDbLine
 62
7
  6
CONTINUOUS
 10
28.0878547433
 20
26.9387909542
 11
19.7020279716
 21
26.9387909542
  0
LINE
  5
421
100
AcDbEntity
  8
0
100
AcDbLine
 62
7
  6
CONTINUOUS
 10
28.0878547433
 20
27.0175311117
 11
19.7020279716
 21
27.0175311117
  0
LINE
  5
422
100
AcDbEntity
  8
0
100
AcDbLine
 62
7
  6
CONTINUOUS
 10
20.4162736393
 20
27.1516793372
 11
27.3736090756
 21
27.1516793372
  0
LINE
  5
423
100
AcDbEntity
  8
0
100
AcDbLine
 62
7
  6
CONTINUOUS
 10
28.0878547433
 20
26.9387909542
 11
28.0878547433
 21
27.0175311117
  0
LINE
  5
424
100
AcDbEntity
  8
0
100
AcDbLine
 62
7
  6
CONTINUOUS
 10
23.2435646939
 20
27.383672844
 11
23.2779578585
 21
27.383672844
  0
LINE
  5
425
100
AcDbEntity
  8
0
100
AcDbLine
 62
7
  6
CONTINUOUS
 10
24.5119473054
 20
27.383672844
 11
24.5962641921
 21
27.383672844
  0
LINE
  5
426
100
AcDbEntity
  8
0
100
AcDbLine
 62
7
  6
CONTINUOUS
 10
34.188575957
 20
26.9387909542
 11
34.188575957
 21
27.0175311117
  0
LINE
  5
427
100
AcDbEntity
  8
7_ALL_ROUNDS
100
AcDbLine
 62
7
  6
CONTINUOUS
 10
40.8224342247
 20
19.3277673321
 11
40.7751901302
 21
19.3277673321
  0
LINE
  5
428
100
AcDbEntity
  8
7_ALL_ROUNDS
100
AcDbLine
 62
7
  6
CONTINUOUS
 10
39.7594135729
 20
19.3828854424
 11
39.4178908064
 21
19.3828854424
  0
LINE
  5
429
100
AcDbEntity
  8
0
100
AcDbLine
 62
7
  6
CONTINUOUS
 10
39.4178908064
 20
19.3828854424
 11
38.9986311862
 21
19.3828854424
  0
LINE
  5
42A
100
AcDbEntity
  8
7_ALL_ROUNDS
100
AcDbLine
 62
7
  6
CONTINUOUS
 10
38.9986311862
 20
19.3828854424
 11
38.6571084198
 21
19.3828854424
  0
LINE
  5
42B
100
AcDbEntity
  8
7_ALL_ROUNDS
100
AcDbLine
 62
9
  6
CONTINUOUS
 10
40.8224342247
 20
19.4458775684
 11
40.7751901302
 21
19.4458775684
  0
LINE
  5
42C
100
AcDbEntity
  8
0
100
AcDbLine
 62
7
  6
CONTINUOUS
 10
35.1531428861
 20
19.5088696944
 11
35.5586546971
 21
19.5088696944
  0
LINE
  5
42D
100
AcDbEntity
  8
0
100
AcDbLine
 62
7
  6
CONTINUOUS
 10
34.8381822562
 20
26.4962712692
 11
34.8381822562
 21
26.9387909542
  0
LINE
  5
42E
100
AcDbEntity
  8
0
100
AcDbLine
 62
7
  6
CONTINUOUS
 10
34.8460650403
 20
25.000208277
 11
34.8460650403
 21
26.4962712692
  0
LINE
  5
42F
100
AcDbEntity
  8
0
100
AcDbLine
 62
7
  6
CONTINUOUS
 10
34.8502778828
 20
26.4962712692
 11
34.8502778828
 21
25.3151689069
  0
LINE
  5
430
100
AcDbEntity
  8
0
100
AcDbLine
 62
7
  6
CONTINUOUS
 10
34.9169224137
 20
25.3151689069
 11
34.9169224137
 21
24.6065074896
  0
LINE
  5
431
100
AcDbEntity
  8
0
100
AcDbLine
 62
7
  6
CONTINUOUS
 10
34.936607453
 20
24.8427279621
 11
34.936607453
 21
25.7088696944
  0
LINE
  5
432
100
AcDbEntity
  8
7_ALL_ROUNDS
100
AcDbLine
 62
7
  6
CONTINUOUS
 10
39.2751901302
 20
19.737216151
 11
39.1413318625
 21
19.737216151
  0
LINE
  5
433
100
AcDbEntity
  8
7_ALL_ROUNDS
100
AcDbLine
 62
7
  6
CONTINUOUS
 10
38.1806768327
 20
19.7608381983
 11
38.031095642
 21
19.7608381983
  0
LINE
  5
434
100
AcDbEntity
  8
7_ALL_ROUNDS
100
AcDbLine
 62
7
  6
CONTINUOUS
 10
39.7594135729
 20
19.7765862298
 11
39.6019617837
 21
19.7765862298
  0
LINE
  5
435
100
AcDbEntity
  8
0
100
AcDbLine
 62
7
  6
CONTINUOUS
 10
39.4178908064
 20
19.7765862298
 11
39.3471306124
 21
19.7765862298
  0
LINE
  5
436
100
AcDbEntity
  8
0
100
AcDbLine
 62
7
  6
CONTINUOUS
 10
39.0693913803
 20
19.7765862298
 11
38.9986311862
 21
19.7765862298
  0
LINE
  5
437
100
AcDbEntity
  8
7_ALL_ROUNDS
100
AcDbLine
 62
7
  6
CONTINUOUS
 10
38.8145602089
 20
19.7765862298
 11
38.6571084198
 21
19.7765862298
  0
LINE
  5
438
100
AcDbEntity
  8
0
100
AcDbLine
 62
7
  6
CONTINUOUS
 10
38.2436940672
 20
19.7765862298
 11
38.2276942441
 21
19.7765862298
  0
LINE
  5
439
100
AcDbEntity
  8
7_ALL_ROUNDS
100
AcDbLine
 62
9
  6
CONTINUOUS
 10
39.3618043034
 20
19.8238303243
 11
39.0547176893
 21
19.8238303243
  0
LINE
  5
43A
100
AcDbEntity
  8
7_ALL_ROUNDS
100
AcDbLine
 62
9
  6
CONTINUOUS
 10
38.2594420987
 20
19.8395783558
 11
37.9523554845
 21
19.8395783558
  0
LINE
  5
43B
100
AcDbEntity
  8
7_ALL_ROUNDS
100
AcDbLine
 62
7
  6
CONTINUOUS
 10
39.7596134567
 20
19.8553263873
 11
39.6019617837
 21
19.8553263873
  0
LINE
  5
43C
100
AcDbEntity
  8
0
100
AcDbLine
 62
7
  6
CONTINUOUS
 10
39.6019617837
 20
19.8553263873
 11
38.8145602089
 21
19.8553263873
  0
LINE
  5
43D
100
AcDbEntity
  8
7_ALL_ROUNDS
100
AcDbLine
 62
7
  6
CONTINUOUS
 10
38.8145602089
 20
19.8553263873
 11
38.656908536
 21
19.8553263873
  0
LINE
  5
43E
100
AcDbEntity
  8
7_ALL_ROUNDS
100
AcDbLine
 62
7
  6
CONTINUOUS
 10
38.4011743822
 20
19.8553263873
 11
38.2594420987
 21
19.8553263873
  0
LINE
  5
43F
100
AcDbEntity
  8
7_ALL_ROUNDS
100
AcDbLine
 62
7
  6
CONTINUOUS
 10
37.9523554845
 20
19.8553263873
 11
37.9090483979
 21
19.8553263873
  0
LINE
  5
440
100
AcDbEntity
  8
0
100
AcDbLine
 62
7
  6
CONTINUOUS
 10
38.2593892102
 20
19.8789484345
 11
37.952408373
 21
19.8789484345
  0
LINE
  5
441
100
AcDbEntity
  8
0
100
AcDbLine
 62
7
  6
CONTINUOUS
 10
40.7751901302
 20
19.9025704818
 11
38.3814893428
 21
19.9025704818
  0
LINE
  5
442
100
AcDbEntity
  8
0
100
AcDbLine
 62
7
  6
CONTINUOUS
 10
35.5586546971
 20
19.9025704818
 11
38.0271586341
 21
19.9025704818
  0
LINE
  5
443
100
AcDbEntity
  8
0
100
AcDbLine
 62
7
  6
CONTINUOUS
 10
35.0547176893
 20
24.6065074896
 11
35.0547176893
 21
24.5277673321
  0
LINE
  5
444
100
AcDbEntity
  8
7_ALL_ROUNDS
100
AcDbLine
 62
7
  6
CONTINUOUS
 10
35.1531428861
 20
19.5088696944
 11
35.1531428861
 21
19.9734366235
  0
LINE
  5
445
100
AcDbEntity
  8
0
100
AcDbLine
 62
7
  6
CONTINUOUS
 10
35.1728279255
 20
24.6065074896
 11
35.1728279255
 21
24.5277673321
  0
LINE
  5
446
100
AcDbEntity
  8
0
100
AcDbLine
 62
7
  6
CONTINUOUS
 10
35.2909381617
 20
25.7088696944
 11
35.2909381617
 21
24.8427279621
  0
LINE
  5
447
100
AcDbEntity
  8
0
100
AcDbLine
 62
7
  6
CONTINUOUS
 10
35.3106232011
 20
25.3151689069
 11
35.3106232011
 21
24.6065074896
  0
LINE
  5
448
100
AcDbEntity
  8
7_ALL_ROUNDS
100
AcDbLine
 62
9
  6
CONTINUOUS
 10
35.1531428861
 20
19.9340665447
 11
35.812591705
 21
19.9340665447
  0
LINE
  5
449
100
AcDbEntity
  8
0
100
AcDbLine
 62
7
  6
CONTINUOUS
 10
38.3814893428
 20
19.957688592
 11
35.9799183605
 21
19.957688592
  0
LINE
  5
44A
100
AcDbEntity
  8
7_ALL_ROUNDS
100
AcDbLine
 62
7
  6
CONTINUOUS
 10
35.9799145397
 20
19.957688592
 11
40.762305255
 21
19.957688592
  0
LINE
  5
44B
100
AcDbEntity
  8
7_ALL_ROUNDS
100
AcDbLine
 62
7
  6
CONTINUOUS
 10
35.1531428861
 20
19.9734366235
 11
35.812591705
 21
19.9734366235
  0
LINE
  5
44C
100
AcDbEntity
  8
0
100
AcDbLine
 62
7
  6
CONTINUOUS
 10
35.812591705
 20
19.9734366235
 11
35.8755119979
 21
19.9734366235
  0
LINE
  5
44D
100
AcDbEntity
  8
0
100
AcDbLine
 62
7
  6
CONTINUOUS
 10
35.3499932798
 20
25.000208277
 11
35.3499932798
 21
25.3151689069
  0
LINE
  5
44E
100
AcDbEntity
  8
0
100
AcDbLine
 62
7
  6
CONTINUOUS
 10
35.3893633586
 20
25.3151689069
 11
35.3893633586
 21
25.000208277
  0
LINE
  5
44F
100
AcDbEntity
  8
0
100
AcDbLine
 62
7
  6
CONTINUOUS
 10
35.4014589852
 20
25.000208277
 11
35.4014589852
 21
26.4962712692
  0
LINE
  5
450
100
AcDbEntity
  8
0
100
AcDbLine
 62
7
  6
CONTINUOUS
 10
35.5586546971
 20
19.5088696944
 11
35.5586546971
 21
19.9025704818
  0
LINE
  5
451
100
AcDbEntity
  8
0
100
AcDbLine
 62
7
  6
CONTINUOUS
 10
35.5862137523
 20
20.3513893794
 11
35.5862137523
 21
26.2569011904
  0
LINE
  5
452
100
AcDbEntity
  8
7_ALL_ROUNDS
100
AcDbLine
 62
9
  6
CONTINUOUS
 10
35.5862137523
 20
20.3513893794
 11
41.1767649334
 21
20.3513893794
  0
LINE
  5
453
100
AcDbEntity
  8
7_ALL_ROUNDS
100
AcDbLine
 62
7
  6
CONTINUOUS
 10
35.812591705
 20
19.9025704818
 11
35.812591705
 21
19.9734366235
  0
LINE
  5
454
100
AcDbEntity
  8
0
100
AcDbLine
 62
7
  6
CONTINUOUS
 10
36.001568083
 20
19.9025704818
 11
36.001568083
 21
19.957688592
  0
LINE
  5
455
100
AcDbEntity
  8
7_ALL_ROUNDS
100
AcDbLine
 62
7
  6
CONTINUOUS
 10
37.9090483979
 20
19.8553263873
 11
37.9090483979
 21
19.9025704818
  0
LINE
  5
456
100
AcDbEntity
  8
0
100
AcDbLine
 62
7
  6
CONTINUOUS
 10
37.9090483979
 20
19.8553263873
 11
37.9090483979
 21
19.9025704818
  0
LINE
  5
457
100
AcDbEntity
  8
0
100
AcDbLine
 62
7
  6
CONTINUOUS
 10
37.9523554845
 20
19.8789484345
 11
37.9523554845
 21
19.8395783558
  0
LINE
  5
458
100
AcDbEntity
  8
0
100
AcDbLine
 62
7
  6
CONTINUOUS
 10
37.9877885554
 20
26.4962712692
 11
37.9877885554
 21
25.000208277
  0
LINE
  5
459
100
AcDbEntity
  8
0
100
AcDbLine
 62
9
  6
CONTINUOUS
 10
38.0271586341
 20
19.8789484345
 11
38.0271586341
 21
19.9025704818
  0
LINE
  5
45A
100
AcDbEntity
  8
0
100
AcDbLine
 62
7
  6
CONTINUOUS
 10
38.0370011538
 20
19.957688592
 11
38.0370011538
 21
19.8789484345
  0
LINE
  5
45B
100
AcDbEntity
  8
0
100
AcDbLine
 62
7
  6
CONTINUOUS
 10
38.0889645836
 20
26.4962712692
 11
38.0889645836
 21
25.000208277
  0
LINE
  5
45C
100
AcDbEntity
  8
0
100
AcDbLine
 62
7
  6
CONTINUOUS
 10
38.1452688704
 20
25.000208277
 11
38.1452688704
 21
26.4962712692
  0
LINE
  5
45D
100
AcDbEntity
  8
0
100
AcDbLine
 62
7
  6
CONTINUOUS
 10
38.1747964294
 20
19.957688592
 11
38.1747964294
 21
19.8789484345
  0
LINE
  5
45E
100
AcDbEntity
  8
0
100
AcDbLine
 62
7
  6
CONTINUOUS
 10
38.1846389491
 20
25.5120193006
 11
38.1846389491
 21
24.6065074896
  0
LINE
  5
45F
100
AcDbEntity
  8
0
100
AcDbLine
 62
7
  6
CONTINUOUS
 10
38.1846389491
 20
27.379488938
 11
38.1846389491
 21
27.3910198817
  0
LINE
  5
460
100
AcDbEntity
  8
0
100
AcDbLine
 62
7
  6
CONTINUOUS
 10
38.2436940672
 20
19.7925860529
 11
38.2436940672
 21
19.7765862298
  0
LINE
  5
461
100
AcDbEntity
  8
0
100
AcDbLine
 62
7
  6
CONTINUOUS
 10
38.2557216263
 20
27.3799451587
 11
38.2557216263
 21
27.383672844
  0
LINE
  5
462
100
AcDbEntity
  8
0
100
AcDbLine
 62
7
  6
CONTINUOUS
 10
38.2594420987
 20
19.8789484345
 11
38.2594420987
 21
19.8395783558
  0
LINE
  5
463
100
AcDbEntity
  8
0
100
AcDbLine
 62
9
  6
CONTINUOUS
 10
38.2634302877
 20
27.3799758537
 11
38.2634302877
 21
27.383672844
  0
LINE
  5
464
100
AcDbEntity
  8
0
100
AcDbLine
 62
7
  6
CONTINUOUS
 10
38.2802885554
 20
27.3800429814
 11
38.2802885554
 21
27.383672844
  0
LINE
  5
465
100
AcDbEntity
  8
0
100
AcDbLine
 62
9
  6
CONTINUOUS
 10
38.2971586341
 20
27.3801101562
 11
38.2971586341
 21
27.383672844
  0
LINE
  5
466
100
AcDbEntity
  8
0
100
AcDbLine
 62
9
  6
CONTINUOUS
 10
38.3140208389
 20
27.3801772996
 11
38.3140208389
 21
27.383672844
  0
LINE
  5
467
100
AcDbEntity
  8
0
100
AcDbLine
 62
7
  6
CONTINUOUS
 10
38.3224342247
 20
26.4962712692
 11
38.3224342247
 21
25.5120193006
  0
LINE
  5
468
100
AcDbEntity
  8
0
100
AcDbLine
 62
7
  6
CONTINUOUS
 10
38.3224342247
 20
24.6065074896
 11
38.3224342247
 21
24.5277673321
  0
LINE
  5
469
100
AcDbEntity
  8
0
100
AcDbLine
 62
7
  6
CONTINUOUS
 10
38.3308909176
 20
27.3802040016
 11
38.3308909176
 21
27.383672844
  0
LINE
  5
46A
100
AcDbEntity
  8
0
100
AcDbLine
 62
9
  6
CONTINUOUS
 10
38.3477609963
 20
27.3802264109
 11
38.3477609963
 21
27.383672844
  0
LINE
  5
46B
100
AcDbEntity
  8
0
100
AcDbLine
 62
7
  6
CONTINUOUS
 10
38.3814893428
 20
19.957688592
 11
38.3814893428
 21
19.9025704818
  0
LINE
  5
46C
100
AcDbEntity
  8
0
100
AcDbLine
 62
7
  6
CONTINUOUS
 10
38.4011743822
 20
19.8553263873
 11
38.4011743822
 21
19.9025704818
  0
LINE
  5
46D
100
AcDbEntity
  8
0
100
AcDbLine
 62
7
  6
CONTINUOUS
 10
38.4405444609
 20
26.4962712692
 11
38.4405444609
 21
25.5120193006
  0
LINE
  5
46E
100
AcDbEntity
  8
0
100
AcDbLine
 62
7
  6
CONTINUOUS
 10
38.4405444609
 20
24.6065074896
 11
38.4405444609
 21
24.5277673321
  0
LINE
  5
46F
100
AcDbEntity
  8
7_ALL_ROUNDS
100
AcDbLine
 62
7
  6
CONTINUOUS
 10
38.4600581423
 20
19.6584759936
 11
38.4600581423
 21
19.5797358361
  0
LINE
  5
470
100
AcDbEntity
  8
0
100
AcDbLine
 62
9
  6
CONTINUOUS
 10
38.4637255633
 20
27.3801184946
 11
38.4637255633
 21
27.383672844
  0
LINE
  5
471
100
AcDbEntity
  8
0
100
AcDbLine
 62
7
  6
CONTINUOUS
 10
38.4672944401
 20
25.3151689069
 11
38.4672944401
 21
24.8427279621
  0
LINE
  5
472
100
AcDbEntity
  8
0
100
AcDbLine
 62
7
  6
CONTINUOUS
 10
38.480595642
 20
27.3800513215
 11
38.480595642
 21
27.383672844
  0
LINE
  5
473
100
AcDbEntity
  8
0
100
AcDbLine
 62
9
  6
CONTINUOUS
 10
38.4974657208
 20
27.3799841485
 11
38.4974657208
 21
27.383672844
  0
LINE
  5
474
100
AcDbEntity
  8
0
100
AcDbLine
 62
9
  6
CONTINUOUS
 10
38.5143279255
 20
27.3799133674
 11
38.5143279255
 21
27.383672844
  0
LINE
  5
475
100
AcDbEntity
  8
0
100
AcDbLine
 62
7
  6
CONTINUOUS
 10
38.5311980042
 20
27.3798015106
 11
38.5311980042
 21
27.383672844
  0
LINE
  5
476
100
AcDbEntity
  8
0
100
AcDbLine
 62
7
  6
CONTINUOUS
 10
38.5783397365
 20
27.3910198817
 11
38.5783397365
 21
27.379488938
  0
LINE
  5
477
100
AcDbEntity
  8
0
100
AcDbLine
 62
7
  6
CONTINUOUS
 10
38.5783397365
 20
25.5120193006
 11
38.5783397365
 21
25.3151689069
  0
LINE
  5
478
100
AcDbEntity
  8
0
100
AcDbLine
 62
7
  6
CONTINUOUS
 10
38.5783397365
 20
24.8427279621
 11
38.5783397365
 21
24.6065074896
  0
LINE
  5
479
100
AcDbEntity
  8
0
100
AcDbLine
 62
7
  6
CONTINUOUS
 10
38.6177098152
 20
25.3151689069
 11
38.6177098152
 21
26.4962712692
  0
LINE
  5
47A
100
AcDbEntity
  8
0
100
AcDbLine
 62
7
  6
CONTINUOUS
 10
38.674014102
 20
26.4962712692
 11
38.674014102
 21
25.3151689069
  0
LINE
  5
47B
100
AcDbEntity
  8
0
100
AcDbLine
 62
7
  6
CONTINUOUS
 10
38.7751901302
 20
26.4962712692
 11
38.7751901302
 21
25.3151689069
  0
LINE
  5
47C
100
AcDbEntity
  8
0
100
AcDbLine
 62
7
  6
CONTINUOUS
 10
38.8145602089
 20
19.9025704818
 11
38.8145602089
 21
19.7765862298
  0
LINE
  5
47D
100
AcDbEntity
  8
0
100
AcDbLine
 62
7
  6
CONTINUOUS
 10
38.9405444609
 20
25.3151689069
 11
38.9405444609
 21
25.7088696944
  0
LINE
  5
47E
100
AcDbEntity
  8
0
100
AcDbLine
 62
9
  6
CONTINUOUS
 10
38.9986311862
 20
19.7765862298
 11
38.9986311862
 21
19.3828854424
  0
LINE
  5
47F
100
AcDbEntity
  8
0
100
AcDbLine
 62
7
  6
CONTINUOUS
 10
39.0547176893
 20
19.8553263873
 11
39.0547176893
 21
19.8238303243
  0
LINE
  5
480
100
AcDbEntity
  8
0
100
AcDbLine
 62
7
  6
CONTINUOUS
 10
39.0882185471
 20
19.7559607679
 11
39.0882185471
 21
19.3828854424
  0
LINE
  5
481
100
AcDbEntity
  8
0
100
AcDbLine
 62
9
  6
CONTINUOUS
 10
39.2082609963
 20
19.957688592
 11
39.2082609963
 21
19.9025704818
  0
LINE
  5
482
100
AcDbEntity
  8
0
100
AcDbLine
 62
7
  6
CONTINUOUS
 10
39.3283034456
 20
19.7559607679
 11
39.3283034456
 21
19.3828854424
  0
LINE
  5
483
100
AcDbEntity
  8
0
100
AcDbLine
 62
7
  6
CONTINUOUS
 10
39.3618043034
 20
19.8553263873
 11
39.3618043034
 21
19.8238303243
  0
LINE
  5
484
100
AcDbEntity
  8
0
100
AcDbLine
 62
7
  6
CONTINUOUS
 10
39.40511139
 20
25.7088696944
 11
39.40511139
 21
24.8427279621
  0
LINE
  5
485
100
AcDbEntity
  8
0
100
AcDbLine
 62
9
  6
CONTINUOUS
 10
39.4178908064
 20
19.7765862298
 11
39.4178908064
 21
19.3828854424
  0
LINE
  5
486
100
AcDbEntity
  8
0
100
AcDbLine
 62
7
  6
CONTINUOUS
 10
41.7082609963
 20
24.5277673321
 11
41.5901507601
 21
24.5277673321
  0
LINE
  5
487
100
AcDbEntity
  8
0
100
AcDbLine
 62
7
  6
CONTINUOUS
 10
38.4405444609
 20
24.5277673321
 11
38.3224342247
 21
24.5277673321
  0
LINE
  5
488
100
AcDbEntity
  8
0
100
AcDbLine
 62
7
  6
CONTINUOUS
 10
35.1728279255
 20
24.5277673321
 11
35.0547176893
 21
24.5277673321
  0
LINE
  5
489
100
AcDbEntity
  8
0
100
AcDbLine
 62
7
  6
CONTINUOUS
 10
39.6019617837
 20
19.9025704818
 11
39.6019617837
 21
19.7765862298
  0
LINE
  5
48A
100
AcDbEntity
  8
7_ALL_ROUNDS
100
AcDbLine
 62
7
  6
CONTINUOUS
 10
39.9564638504
 20
19.6584759936
 11
39.9564638504
 21
19.5797358361
  0
LINE
  5
48B
100
AcDbEntity
  8
0
100
AcDbLine
 62
7
  6
CONTINUOUS
 10
41.8460562719
 20
24.6065074896
 11
41.4523554845
 21
24.6065074896
  0
LINE
  5
48C
100
AcDbEntity
  8
0
100
AcDbLine
 62
7
  6
CONTINUOUS
 10
38.5783397365
 20
24.6065074896
 11
38.1846389491
 21
24.6065074896
  0
LINE
  5
48D
100
AcDbEntity
  8
0
100
AcDbLine
 62
7
  6
CONTINUOUS
 10
35.3106232011
 20
24.6065074896
 11
34.9169224137
 21
24.6065074896
  0
LINE
  5
48E
100
AcDbEntity
  8
0
100
AcDbLine
 62
7
  6
CONTINUOUS
 10
34.936607453
 20
24.8427279621
 11
35.2909381617
 21
24.8427279621
  0
LINE
  5
48F
100
AcDbEntity
  8
0
100
AcDbLine
 62
7
  6
CONTINUOUS
 10
38.4672944401
 20
24.8427279621
 11
39.40511139
 21
24.8427279621
  0
LINE
  5
490
100
AcDbEntity
  8
0
100
AcDbLine
 62
7
  6
CONTINUOUS
 10
41.9169136453
 20
25.000208277
 11
41.3615197005
 21
25.000208277
  0
LINE
  5
491
100
AcDbEntity
  8
0
100
AcDbLine
 62
7
  6
CONTINUOUS
 10
34.8460650403
 20
25.000208277
 11
34.9169224137
 21
25.000208277
  0
LINE
  5
492
100
AcDbEntity
  8
0
100
AcDbLine
 62
7
  6
CONTINUOUS
 10
35.3106232011
 20
25.000208277
 11
35.4014589852
 21
25.000208277
  0
LINE
  5
493
100
AcDbEntity
  8
0
100
AcDbLine
 62
7
  6
CONTINUOUS
 10
37.9878610415
 20
25.000208277
 11
38.1846389491
 21
25.000208277
  0
LINE
  5
494
100
AcDbEntity
  8
0
100
AcDbLine
 62
7
  6
CONTINUOUS
 10
35.4014589852
 20
25.3151689069
 11
35.2909381617
 21
25.3151689069
  0
LINE
  5
495
100
AcDbEntity
  8
0
100
AcDbLine
 62
7
  6
CONTINUOUS
 10
34.8460650403
 20
25.3151689069
 11
34.936607453
 21
25.3151689069
  0
LINE
  5
496
100
AcDbEntity
  8
0
100
AcDbLine
 62
7
  6
CONTINUOUS
 10
38.4672944401
 20
25.3151689069
 11
38.9405444609
 21
25.3151689069
  0
LINE
  5
497
100
AcDbEntity
  8
0
100
AcDbLine
 62
7
  6
CONTINUOUS
 10
40.3893633586
 20
19.957688592
 11
40.3893633586
 21
19.9025704818
  0
LINE
  5
498
100
AcDbEntity
  8
0
100
AcDbLine
 62
7
  6
CONTINUOUS
 10
38.5783397365
 20
25.5120193006
 11
38.1846389491
 21
25.5120193006
  0
LINE
  5
499
100
AcDbEntity
  8
0
100
AcDbLine
 62
7
  6
CONTINUOUS
 10
34.936607453
 20
25.7088696944
 11
35.2909381617
 21
25.7088696944
  0
LINE
  5
49A
100
AcDbEntity
  8
0
100
AcDbLine
 62
7
  6
CONTINUOUS
 10
38.9405444609
 20
25.7088696944
 11
39.40511139
 21
25.7088696944
  0
LINE
  5
49B
100
AcDbEntity
  8
7_ALL_ROUNDS
100
AcDbLine
 62
7
  6
CONTINUOUS
 10
40.7751901302
 20
19.3277673321
 11
40.7751901302
 21
19.9025704818
  0
LINE
  5
49C
100
AcDbEntity
  8
7_ALL_ROUNDS
100
AcDbLine
 62
7
  6
CONTINUOUS
 10
40.8224342247
 20
19.3277673321
 11
40.8224342247
 21
19.9622269371
  0
LINE
  5
49D
100
AcDbEntity
  8
0
100
AcDbLine
 62
7
  6
CONTINUOUS
 10
41.1767649334
 20
20.3513893794
 11
41.1767649334
 21
26.2569011904
  0
LINE
  5
49E
100
AcDbEntity
  8
0
100
AcDbLine
 62
7
  6
CONTINUOUS
 10
41.3615197005
 20
25.000208277
 11
41.3615197005
 21
26.4962712692
  0
LINE
  5
49F
100
AcDbEntity
  8
0
100
AcDbLine
 62
7
  6
CONTINUOUS
 10
41.4523554845
 20
25.000208277
 11
41.4523554845
 21
24.6065074896
  0
LINE
  5
4A0
100
AcDbEntity
  8
0
100
AcDbLine
 62
7
  6
CONTINUOUS
 10
37.9877885554
 20
26.2569011904
 11
35.4014589852
 21
26.2569011904
  0
LINE
  5
4A1
100
AcDbEntity
  8
0
100
AcDbLine
 62
7
  6
CONTINUOUS
 10
38.7751901302
 20
26.2569011904
 11
41.3615197005
 21
26.2569011904
  0
LINE
  5
4A2
100
AcDbEntity
  8
0
100
AcDbLine
 62
7
  6
CONTINUOUS
 10
38.0889645836
 20
26.4962712692
 11
34.8502778828
 21
26.4962712692
  0
LINE
  5
4A3
100
AcDbEntity
  8
0
100
AcDbLine
 62
7
  6
CONTINUOUS
 10
34.8381822562
 20
26.4962712692
 11
34.8460650403
 21
26.4962712692
  0
LINE
  5
4A4
100
AcDbEntity
  8
0
100
AcDbLine
 62
7
  6
CONTINUOUS
 10
38.1452688704
 20
26.4962712692
 11
38.6177098152
 21
26.4962712692
  0
LINE
  5
4A5
100
AcDbEntity
  8
0
100
AcDbLine
 62
7
  6
CONTINUOUS
 10
38.674014102
 20
26.4962712692
 11
41.9127008028
 21
26.4962712692
  0
LINE
  5
4A6
100
AcDbEntity
  8
0
100
AcDbLine
 62
7
  6
CONTINUOUS
 10
41.9169136453
 20
26.4962712692
 11
41.9247964294
 21
26.4962712692
  0
LINE
  5
4A7
100
AcDbEntity
  8
0
100
AcDbLine
 62
7
  6
CONTINUOUS
 10
41.5901507601
 20
24.6065074896
 11
41.5901507601
 21
24.5277673321
  0
LINE
  5
4A8
100
AcDbEntity
  8
0
100
AcDbLine
 62
7
  6
CONTINUOUS
 10
41.7082609963
 20
24.6065074896
 11
41.7082609963
 21
24.5277673321
  0
LINE
  5
4A9
100
AcDbEntity
  8
0
100
AcDbLine
 62
7
  6
CONTINUOUS
 10
41.8460562719
 20
25.000208277
 11
41.8460562719
 21
24.6065074896
  0
LINE
  5
4AA
100
AcDbEntity
  8
0
100
AcDbLine
 62
7
  6
CONTINUOUS
 10
41.9127008028
 20
26.4962712692
 11
41.9127008028
 21
25.000208277
  0
LINE
  5
4AB
100
AcDbEntity
  8
0
100
AcDbLine
 62
7
  6
CONTINUOUS
 10
41.9169136453
 20
25.000208277
 11
41.9169136453
 21
26.4962712692
  0
LINE
  5
4AC
100
AcDbEntity
  8
0
100
AcDbLine
 62
7
  6
CONTINUOUS
 10
41.9247964294
 20
26.4962712692
 11
41.9247964294
 21
26.9387909542
  0
LINE
  5
4AD
100
AcDbEntity
  8
0
100
AcDbLine
 62
7
  6
CONTINUOUS
 10
34.1886101109
 20
26.9387909542
 11
42.5743685747
 21
26.9387909542
  0
LINE
  5
4AE
100
AcDbEntity
  8
0
100
AcDbLine
 62
7
  6
CONTINUOUS
 10
34.188575957
 20
27.0175311117
 11
42.5744027286
 21
27.0175311117
  0
LINE
  5
4AF
100
AcDbEntity
  8
0
100
AcDbLine
 62
7
  6
CONTINUOUS
 10
34.9028216247
 20
27.1516793372
 11
41.8601570609
 21
27.1516793372
  0
LINE
  5
4B0
100
AcDbEntity
  8
0
100
AcDbLine
 62
7
  6
CONTINUOUS
 10
42.5744027286
 20
26.9387909542
 11
42.5744027286
 21
27.0175311117
  0
LINE
  5
4B1
100
AcDbEntity
  8
0
100
AcDbLine
 62
7
  6
CONTINUOUS
 10
38.2557216263
 20
27.383672844
 11
38.5311980042
 21
27.383672844
  0
LINE
  5
4B2
100
AcDbEntity
  8
0
100
AcDbLine
 62
7
  6
CONTINUOUS
 10
5.5547093136
 20
26.9387909542
 11
5.5547093136
 21
27.0175311117
  0
LINE
  5
4B3
100
AcDbEntity
  8
7_ALL_ROUNDS
100
AcDbLine
 62
7
  6
CONTINUOUS
 10
7.3066778175
 20
19.3277673321
 11
7.353921912
 21
19.3277673321
  0
LINE
  5
4B4
100
AcDbEntity
  8
7_ALL_ROUNDS
100
AcDbLine
 62
7
  6
CONTINUOUS
 10
9.4722035061
 20
19.3828854424
 11
9.2670853959
 21
19.3828854424
  0
LINE
  5
4B5
100
AcDbEntity
  8
0
100
AcDbLine
 62
7
  6
CONTINUOUS
 10
9.2670853959
 20
19.3828854424
 11
8.5746166958
 21
19.3828854424
  0
LINE
  5
4B6
100
AcDbEntity
  8
7_ALL_ROUNDS
100
AcDbLine
 62
7
  6
CONTINUOUS
 10
8.5746166958
 20
19.3828854424
 11
8.3694985855
 21
19.3828854424
  0
LINE
  5
4B7
100
AcDbEntity
  8
7_ALL_ROUNDS
100
AcDbLine
 62
9
  6
CONTINUOUS
 10
7.3066778175
 20
19.4458775684
 11
7.353921912
 21
19.4458775684
  0
LINE
  5
4B8
100
AcDbEntity
  8
0
100
AcDbLine
 62
7
  6
CONTINUOUS
 10
12.9759691561
 20
19.5088696944
 11
12.5704573451
 21
19.5088696944
  0
LINE
  5
4B9
100
AcDbEntity
  8
0
100
AcDbLine
 62
7
  6
CONTINUOUS
 10
6.2043156128
 20
26.4962712692
 11
6.2043156128
 21
26.9387909542
  0
LINE
  5
4BA
100
AcDbEntity
  8
0
100
AcDbLine
 62
7
  6
CONTINUOUS
 10
6.2121983969
 20
25.000208277
 11
6.2121983969
 21
26.4962712692
  0
LINE
  5
4BB
100
AcDbEntity
  8
0
100
AcDbLine
 62
7
  6
CONTINUOUS
 10
6.2164112394
 20
26.4962712692
 11
6.2164112394
 21
25.3151689069
  0
LINE
  5
4BC
100
AcDbEntity
  8
0
100
AcDbLine
 62
7
  6
CONTINUOUS
 10
6.2830557703
 20
25.3151689069
 11
6.2830557703
 21
24.6065074896
  0
LINE
  5
4BD
100
AcDbEntity
  8
0
100
AcDbLine
 62
7
  6
CONTINUOUS
 10
6.3027408096
 20
24.8427279621
 11
6.3027408096
 21
25.7088696944
  0
LINE
  5
4BE
100
AcDbEntity
  8
7_ALL_ROUNDS
100
AcDbLine
 62
7
  6
CONTINUOUS
 10
8.9877801797
 20
19.737216151
 11
8.853921912
 21
19.737216151
  0
LINE
  5
4BF
100
AcDbEntity
  8
7_ALL_ROUNDS
100
AcDbLine
 62
7
  6
CONTINUOUS
 10
10.0979912917
 20
19.7608381983
 11
9.948410101
 21
19.7608381983
  0
LINE
  5
4C0
100
AcDbEntity
  8
0
100
AcDbLine
 62
7
  6
CONTINUOUS
 10
10.0547093136
 20
19.7765862298
 11
9.885417975
 21
19.7765862298
  0
LINE
  5
4C1
100
AcDbEntity
  8
7_ALL_ROUNDS
100
AcDbLine
 62
9
  6
CONTINUOUS
 10
9.0743943529
 20
19.8238303243
 11
8.7673077388
 21
19.8238303243
  0
LINE
  5
4C2
100
AcDbEntity
  8
7_ALL_ROUNDS
100
AcDbLine
 62
9
  6
CONTINUOUS
 10
10.1767565577
 20
19.8395783558
 11
10.0547093136
 21
19.8395783558
  0
LINE
  5
4C3
100
AcDbEntity
  8
7_ALL_ROUNDS
100
AcDbLine
 62
9
  6
CONTINUOUS
 10
9.885417975
 20
19.8395783558
 11
9.8696699435
 21
19.8395783558
  0
LINE
  5
4C4
100
AcDbEntity
  8
7_ALL_ROUNDS
100
AcDbLine
 62
7
  6
CONTINUOUS
 10
9.4722035061
 20
19.8553263873
 11
9.3145518332
 21
19.8553263873
  0
LINE
  5
4C5
100
AcDbEntity
  8
0
100
AcDbLine
 62
7
  6
CONTINUOUS
 10
9.3145518332
 20
19.8553263873
 11
8.5271502584
 21
19.8553263873
  0
LINE
  5
4C6
100
AcDbEntity
  8
7_ALL_ROUNDS
100
AcDbLine
 62
7
  6
CONTINUOUS
 10
8.5271502584
 20
19.8553263873
 11
8.3694985855
 21
19.8553263873
  0
LINE
  5
4C7
100
AcDbEntity
  8
7_ALL_ROUNDS
100
AcDbLine
 62
7
  6
CONTINUOUS
 10
9.72793766
 20
19.8553263873
 11
10.2200636443
 21
19.8553263873
  0
LINE
  5
4C8
100
AcDbEntity
  8
7_ALL_ROUNDS
100
AcDbLine
 62
9
  6
CONTINUOUS
 10
12.9759691561
 20
19.863200403
 11
12.5704573451
 21
19.863200403
  0
LINE
  5
4C9
100
AcDbEntity
  8
0
100
AcDbLine
 62
7
  6
CONTINUOUS
 10
9.72793766
 20
19.9025704818
 11
7.353921912
 21
19.9025704818
  0
LINE
  5
4CA
100
AcDbEntity
  8
7_ALL_ROUNDS
100
AcDbLine
 62
7
  6
CONTINUOUS
 10
9.7476226994
 20
19.9025704818
 11
12.9759691561
 21
19.9025704818
  0
LINE
  5
4CB
100
AcDbEntity
  8
0
100
AcDbLine
 62
7
  6
CONTINUOUS
 10
6.4208510458
 20
24.6065074896
 11
6.4208510458
 21
24.5277673321
  0
LINE
  5
4CC
100
AcDbEntity
  8
0
100
AcDbLine
 62
7
  6
CONTINUOUS
 10
6.5389612821
 20
24.6065074896
 11
6.5389612821
 21
24.5277673321
  0
LINE
  5
4CD
100
AcDbEntity
  8
0
100
AcDbLine
 62
7
  6
CONTINUOUS
 10
6.6570715183
 20
25.7088696944
 11
6.6570715183
 21
24.8427279621
  0
LINE
  5
4CE
100
AcDbEntity
  8
0
100
AcDbLine
 62
7
  6
CONTINUOUS
 10
6.6767565577
 20
25.3151689069
 11
6.6767565577
 21
24.6065074896
  0
LINE
  5
4CF
100
AcDbEntity
  8
7_ALL_ROUNDS
100
AcDbLine
 62
7
  6
CONTINUOUS
 10
7.3668133266
 20
19.957688592
 11
9.8751938644
 21
19.957688592
  0
LINE
  5
4D0
100
AcDbEntity
  8
7_ALL_ROUNDS
100
AcDbLine
 62
7
  6
CONTINUOUS
 10
9.9568963644
 20
19.9734366235
 11
12.9759691561
 21
19.9734366235
  0
LINE
  5
4D1
100
AcDbEntity
  8
0
100
AcDbLine
 62
7
  6
CONTINUOUS
 10
6.7161266364
 20
25.000208277
 11
6.7161266364
 21
25.3151689069
  0
LINE
  5
4D2
100
AcDbEntity
  8
0
100
AcDbLine
 62
7
  6
CONTINUOUS
 10
6.7554967151
 20
25.3151689069
 11
6.7554967151
 21
25.000208277
  0
LINE
  5
4D3
100
AcDbEntity
  8
0
100
AcDbLine
 62
7
  6
CONTINUOUS
 10
6.7675923417
 20
25.000208277
 11
6.7675923417
 21
26.4962712692
  0
LINE
  5
4D4
100
AcDbEntity
  8
0
100
AcDbLine
 62
7
  6
CONTINUOUS
 10
6.9523471088
 20
20.3513893794
 11
6.9523471088
 21
26.2569011904
  0
LINE
  5
4D5
100
AcDbEntity
  8
7_ALL_ROUNDS
100
AcDbLine
 62
9
  6
CONTINUOUS
 10
6.9523471088
 20
20.3513893794
 11
12.5428982899
 21
20.3513893794
  0
LINE
  5
4D6
100
AcDbEntity
  8
7_ALL_ROUNDS
100
AcDbLine
 62
7
  6
CONTINUOUS
 10
7.3066778175
 20
19.3277673321
 11
7.3066778175
 21
19.9622269371
  0
LINE
  5
4D7
100
AcDbEntity
  8
7_ALL_ROUNDS
100
AcDbLine
 62
7
  6
CONTINUOUS
 10
7.353921912
 20
19.3277673321
 11
7.353921912
 21
19.9025704818
  0
LINE
  5
4D8
100
AcDbEntity
  8
0
100
AcDbLine
 62
7
  6
CONTINUOUS
 10
7.7397486836
 20
19.957688592
 11
7.7397486836
 21
19.9025704818
  0
LINE
  5
4D9
100
AcDbEntity
  8
7_ALL_ROUNDS
100
AcDbLine
 62
7
  6
CONTINUOUS
 10
8.1726481918
 20
19.6584759936
 11
8.1726481918
 21
19.5797358361
  0
LINE
  5
4DA
100
AcDbEntity
  8
0
100
AcDbLine
 62
7
  6
CONTINUOUS
 10
8.5271502584
 20
19.9025704818
 11
8.5271502584
 21
19.8553263873
  0
LINE
  5
4DB
100
AcDbEntity
  8
0
100
AcDbLine
 62
7
  6
CONTINUOUS
 10
8.5746166958
 20
19.8553263873
 11
8.5746166958
 21
19.3828854424
  0
LINE
  5
4DC
100
AcDbEntity
  8
0
100
AcDbLine
 62
7
  6
CONTINUOUS
 10
8.7673077388
 20
19.8553263873
 11
8.7673077388
 21
19.8238303243
  0
LINE
  5
4DD
100
AcDbEntity
  8
0
100
AcDbLine
 62
9
  6
CONTINUOUS
 10
8.9208510458
 20
19.957688592
 11
8.9208510458
 21
19.9025704818
  0
LINE
  5
4DE
100
AcDbEntity
  8
0
100
AcDbLine
 62
7
  6
CONTINUOUS
 10
9.0743943529
 20
19.8553263873
 11
9.0743943529
 21
19.8238303243
  0
LINE
  5
4DF
100
AcDbEntity
  8
0
100
AcDbLine
 62
7
  6
CONTINUOUS
 10
9.2670853959
 20
19.3828854424
 11
9.2670853959
 21
19.8553263873
  0
LINE
  5
4E0
100
AcDbEntity
  8
0
100
AcDbLine
 62
7
  6
CONTINUOUS
 10
9.3145518332
 20
19.9025704818
 11
9.3145518332
 21
19.8553263873
  0
LINE
  5
4E1
100
AcDbEntity
  8
0
100
AcDbLine
 62
7
  6
CONTINUOUS
 10
9.353921912
 20
26.4962712692
 11
9.353921912
 21
25.000208277
  0
LINE
  5
4E2
100
AcDbEntity
  8
0
100
AcDbLine
 62
7
  6
CONTINUOUS
 10
9.4550979402
 20
26.4962712692
 11
9.4550979402
 21
25.000208277
  0
LINE
  5
4E3
100
AcDbEntity
  8
0
100
AcDbLine
 62
7
  6
CONTINUOUS
 10
9.5114022269
 20
25.000208277
 11
9.5114022269
 21
26.4962712692
  0
LINE
  5
4E4
100
AcDbEntity
  8
0
100
AcDbLine
 62
7
  6
CONTINUOUS
 10
9.5507723057
 20
25.5120193006
 11
9.5507723057
 21
24.6065074896
  0
LINE
  5
4E5
100
AcDbEntity
  8
0
100
AcDbLine
 62
7
  6
CONTINUOUS
 10
9.5507723057
 20
27.379488938
 11
9.5507723057
 21
27.3910198817
  0
LINE
  5
4E6
100
AcDbEntity
  8
0
100
AcDbLine
 62
7
  6
CONTINUOUS
 10
9.597914038
 20
27.379801513
 11
9.597914038
 21
27.383672844
  0
LINE
  5
4E7
100
AcDbEntity
  8
7_ALL_ROUNDS
100
AcDbLine
 62
7
  6
CONTINUOUS
 10
9.6690538999
 20
19.6584759936
 11
9.6690538999
 21
19.5797358361
  0
LINE
  5
4E8
100
AcDbEntity
  8
0
100
AcDbLine
 62
7
  6
CONTINUOUS
 10
9.6885675813
 20
26.4962712692
 11
9.6885675813
 21
25.5120193006
  0
LINE
  5
4E9
100
AcDbEntity
  8
0
100
AcDbLine
 62
7
  6
CONTINUOUS
 10
9.6885675813
 20
24.6065074896
 11
9.6885675813
 21
24.5277673321
  0
LINE
  5
4EA
100
AcDbEntity
  8
0
100
AcDbLine
 62
9
  6
CONTINUOUS
 10
9.7234770301
 20
27.38023914
 11
9.7234770301
 21
27.383672844
  0
LINE
  5
4EB
100
AcDbEntity
  8
0
100
AcDbLine
 62
7
  6
CONTINUOUS
 10
9.72793766
 20
19.9025704818
 11
9.72793766
 21
19.8553263873
  0
LINE
  5
4EC
100
AcDbEntity
  8
7_ALL_ROUNDS
100
AcDbLine
 62
7
  6
CONTINUOUS
 10
9.7476226994
 20
19.957688592
 11
9.7476226994
 21
19.9025704818
  0
LINE
  5
4ED
100
AcDbEntity
  8
0
100
AcDbLine
 62
7
  6
CONTINUOUS
 10
9.8066778175
 20
26.4962712692
 11
9.8066778175
 21
25.5120193006
  0
LINE
  5
4EE
100
AcDbEntity
  8
0
100
AcDbLine
 62
7
  6
CONTINUOUS
 10
9.8066778175
 20
24.6065074896
 11
9.8066778175
 21
24.5277673321
  0
LINE
  5
4EF
100
AcDbEntity
  8
0
100
AcDbLine
 62
7
  6
CONTINUOUS
 10
9.8334277967
 20
25.3151689069
 11
9.8334277967
 21
24.8427279621
  0
LINE
  5
4F0
100
AcDbEntity
  8
0
100
AcDbLine
 62
7
  6
CONTINUOUS
 10
9.8488195498
 20
27.3800429974
 11
9.8488195498
 21
27.383672844
  0
LINE
  5
4F1
100
AcDbEntity
  8
0
100
AcDbLine
 62
9
  6
CONTINUOUS
 10
9.8656817545
 20
27.3799758557
 11
9.8656817545
 21
27.383672844
  0
LINE
  5
4F2
100
AcDbEntity
  8
0
100
AcDbLine
 62
7
  6
CONTINUOUS
 10
9.8696699435
 20
19.8553263873
 11
9.8696699435
 21
19.8395783558
  0
LINE
  5
4F3
100
AcDbEntity
  8
0
100
AcDbLine
 62
7
  6
CONTINUOUS
 10
9.8733904159
 20
27.3799451614
 11
9.8733904159
 21
27.383672844
  0
LINE
  5
4F4
100
AcDbEntity
  8
0
100
AcDbLine
 62
7
  6
CONTINUOUS
 10
9.885417975
 20
19.8553263873
 11
9.885417975
 21
19.7765862298
  0
LINE
  5
4F5
100
AcDbEntity
  8
0
100
AcDbLine
 62
7
  6
CONTINUOUS
 10
9.9444730931
 20
27.3910198817
 11
9.9444730931
 21
27.379488938
  0
LINE
  5
4F6
100
AcDbEntity
  8
0
100
AcDbLine
 62
7
  6
CONTINUOUS
 10
9.9444730931
 20
25.5120193006
 11
9.9444730931
 21
25.3151689069
  0
LINE
  5
4F7
100
AcDbEntity
  8
0
100
AcDbLine
 62
7
  6
CONTINUOUS
 10
9.9444730931
 20
24.8427279621
 11
9.9444730931
 21
24.6065074896
  0
LINE
  5
4F8
100
AcDbEntity
  8
0
100
AcDbLine
 62
7
  6
CONTINUOUS
 10
9.9838431718
 20
25.3151689069
 11
9.9838431718
 21
26.4962712692
  0
LINE
  5
4F9
100
AcDbEntity
  8
0
100
AcDbLine
 62
7
  6
CONTINUOUS
 10
10.0401474585
 20
26.4962712692
 11
10.0401474585
 21
25.3151689069
  0
LINE
  5
4FA
100
AcDbEntity
  8
0
100
AcDbLine
 62
7
  6
CONTINUOUS
 10
10.0547093136
 20
19.8553263873
 11
10.0547093136
 21
19.7765862298
  0
LINE
  5
4FB
100
AcDbEntity
  8
0
100
AcDbLine
 62
9
  6
CONTINUOUS
 10
10.101953408
 20
19.9025704818
 11
10.101953408
 21
19.8553263873
  0
LINE
  5
4FC
100
AcDbEntity
  8
0
100
AcDbLine
 62
7
  6
CONTINUOUS
 10
10.1413234868
 20
26.4962712692
 11
10.1413234868
 21
25.3151689069
  0
LINE
  5
4FD
100
AcDbEntity
  8
0
100
AcDbLine
 62
7
  6
CONTINUOUS
 10
10.1767565577
 20
19.8553263873
 11
10.1767565577
 21
19.8395783558
  0
LINE
  5
4FE
100
AcDbEntity
  8
7_ALL_ROUNDS
100
AcDbLine
 62
7
  6
CONTINUOUS
 10
10.2200636443
 20
19.9025704818
 11
10.2200636443
 21
19.8553263873
  0
LINE
  5
4FF
100
AcDbEntity
  8
0
100
AcDbLine
 62
7
  6
CONTINUOUS
 10
10.2200636443
 20
19.9025704818
 11
10.2200636443
 21
19.8553263873
  0
LINE
  5
500
100
AcDbEntity
  8
0
100
AcDbLine
 62
7
  6
CONTINUOUS
 10
10.3066778175
 20
25.3151689069
 11
10.3066778175
 21
25.7088696944
  0
LINE
  5
501
100
AcDbEntity
  8
7_ALL_ROUNDS
100
AcDbLine
 62
9
  6
CONTINUOUS
 10
10.5350242742
 20
19.9734366235
 11
10.5350242742
 21
19.9025704818
  0
LINE
  5
502
100
AcDbEntity
  8
0
100
AcDbLine
 62
7
  6
CONTINUOUS
 10
10.7712447466
 20
24.8427279621
 11
10.7712447466
 21
25.7088696944
  0
LINE
  5
503
100
AcDbEntity
  8
0
100
AcDbLine
 62
7
  6
CONTINUOUS
 10
13.0743943529
 20
24.5277673321
 11
12.9562841167
 21
24.5277673321
  0
LINE
  5
504
100
AcDbEntity
  8
0
100
AcDbLine
 62
7
  6
CONTINUOUS
 10
9.8066778175
 20
24.5277673321
 11
9.6885675813
 21
24.5277673321
  0
LINE
  5
505
100
AcDbEntity
  8
0
100
AcDbLine
 62
7
  6
CONTINUOUS
 10
6.5389612821
 20
24.5277673321
 11
6.4208510458
 21
24.5277673321
  0
LINE
  5
506
100
AcDbEntity
  8
0
100
AcDbLine
 62
7
  6
CONTINUOUS
 10
13.2121896285
 20
24.6065074896
 11
12.8184888411
 21
24.6065074896
  0
LINE
  5
507
100
AcDbEntity
  8
0
100
AcDbLine
 62
7
  6
CONTINUOUS
 10
9.9444730931
 20
24.6065074896
 11
9.5507723057
 21
24.6065074896
  0
LINE
  5
508
100
AcDbEntity
  8
0
100
AcDbLine
 62
7
  6
CONTINUOUS
 10
6.6767565577
 20
24.6065074896
 11
6.2830557703
 21
24.6065074896
  0
LINE
  5
509
100
AcDbEntity
  8
0
100
AcDbLine
 62
7
  6
CONTINUOUS
 10
6.3027408096
 20
24.8427279621
 11
6.6570715183
 21
24.8427279621
  0
LINE
  5
50A
100
AcDbEntity
  8
0
100
AcDbLine
 62
7
  6
CONTINUOUS
 10
9.8334277967
 20
24.8427279621
 11
10.7712447466
 21
24.8427279621
  0
LINE
  5
50B
100
AcDbEntity
  8
0
100
AcDbLine
 62
7
  6
CONTINUOUS
 10
13.2830470019
 20
25.000208277
 11
12.727653057
 21
25.000208277
  0
LINE
  5
50C
100
AcDbEntity
  8
0
100
AcDbLine
 62
7
  6
CONTINUOUS
 10
6.2121983969
 20
25.000208277
 11
6.2830557703
 21
25.000208277
  0
LINE
  5
50D
100
AcDbEntity
  8
0
100
AcDbLine
 62
7
  6
CONTINUOUS
 10
6.6767565577
 20
25.000208277
 11
6.7675923417
 21
25.000208277
  0
LINE
  5
50E
100
AcDbEntity
  8
0
100
AcDbLine
 62
7
  6
CONTINUOUS
 10
9.3539943981
 20
25.000208277
 11
9.5507723057
 21
25.000208277
  0
LINE
  5
50F
100
AcDbEntity
  8
0
100
AcDbLine
 62
7
  6
CONTINUOUS
 10
6.7675923417
 20
25.3151689069
 11
6.6570715183
 21
25.3151689069
  0
LINE
  5
510
100
AcDbEntity
  8
0
100
AcDbLine
 62
7
  6
CONTINUOUS
 10
6.2121983969
 20
25.3151689069
 11
6.3027408096
 21
25.3151689069
  0
LINE
  5
511
100
AcDbEntity
  8
0
100
AcDbLine
 62
7
  6
CONTINUOUS
 10
9.8334277967
 20
25.3151689069
 11
10.3066778175
 21
25.3151689069
  0
LINE
  5
512
100
AcDbEntity
  8
0
100
AcDbLine
 62
7
  6
CONTINUOUS
 10
9.9444730931
 20
25.5120193006
 11
9.5507723057
 21
25.5120193006
  0
LINE
  5
513
100
AcDbEntity
  8
0
100
AcDbLine
 62
7
  6
CONTINUOUS
 10
6.3027408096
 20
25.7088696944
 11
6.6570715183
 21
25.7088696944
  0
LINE
  5
514
100
AcDbEntity
  8
0
100
AcDbLine
 62
7
  6
CONTINUOUS
 10
10.3066778175
 20
25.7088696944
 11
10.7712447466
 21
25.7088696944
  0
LINE
  5
515
100
AcDbEntity
  8
7_ALL_ROUNDS
100
AcDbLine
 62
9
  6
CONTINUOUS
 10
12.1885675813
 20
19.9734366235
 11
12.1885675813
 21
19.9025704818
  0
LINE
  5
516
100
AcDbEntity
  8
0
100
AcDbLine
 62
7
  6
CONTINUOUS
 10
12.5428982899
 20
20.3513893794
 11
12.5428982899
 21
26.2569011904
  0
LINE
  5
517
100
AcDbEntity
  8
7_ALL_ROUNDS
100
AcDbLine
 62
7
  6
CONTINUOUS
 10
12.5704573451
 20
19.5088696944
 11
12.5704573451
 21
19.9025704818
  0
LINE
  5
518
100
AcDbEntity
  8
0
100
AcDbLine
 62
7
  6
CONTINUOUS
 10
12.727653057
 20
25.000208277
 11
12.727653057
 21
26.4962712692
  0
LINE
  5
519
100
AcDbEntity
  8
0
100
AcDbLine
 62
7
  6
CONTINUOUS
 10
12.8184888411
 20
25.000208277
 11
12.8184888411
 21
24.6065074896
  0
LINE
  5
51A
100
AcDbEntity
  8
0
100
AcDbLine
 62
7
  6
CONTINUOUS
 10
12.727653057
 20
26.2569011904
 11
10.1413234868
 21
26.2569011904
  0
LINE
  5
51B
100
AcDbEntity
  8
0
100
AcDbLine
 62
7
  6
CONTINUOUS
 10
6.7675923417
 20
26.2569011904
 11
9.353921912
 21
26.2569011904
  0
LINE
  5
51C
100
AcDbEntity
  8
0
100
AcDbLine
 62
7
  6
CONTINUOUS
 10
13.2788341594
 20
26.4962712692
 11
10.0401474585
 21
26.4962712692
  0
LINE
  5
51D
100
AcDbEntity
  8
0
100
AcDbLine
 62
7
  6
CONTINUOUS
 10
6.2043156128
 20
26.4962712692
 11
6.2121983969
 21
26.4962712692
  0
LINE
  5
51E
100
AcDbEntity
  8
0
100
AcDbLine
 62
7
  6
CONTINUOUS
 10
6.2164112394
 20
26.4962712692
 11
9.4550979402
 21
26.4962712692
  0
LINE
  5
51F
100
AcDbEntity
  8
0
100
AcDbLine
 62
7
  6
CONTINUOUS
 10
9.5114022269
 20
26.4962712692
 11
9.9838431718
 21
26.4962712692
  0
LINE
  5
520
100
AcDbEntity
  8
0
100
AcDbLine
 62
7
  6
CONTINUOUS
 10
13.2830470019
 20
26.4962712692
 11
13.290929786
 21
26.4962712692
  0
LINE
  5
521
100
AcDbEntity
  8
0
100
AcDbLine
 62
7
  6
CONTINUOUS
 10
12.9562841167
 20
24.6065074896
 11
12.9562841167
 21
24.5277673321
  0
LINE
  5
522
100
AcDbEntity
  8
7_ALL_ROUNDS
100
AcDbLine
 62
7
  6
CONTINUOUS
 10
12.9759691561
 20
19.9734366235
 11
12.9759691561
 21
19.5088696944
  0
LINE
  5
523
100
AcDbEntity
  8
0
100
AcDbLine
 62
7
  6
CONTINUOUS
 10
13.0743943529
 20
24.6065074896
 11
13.0743943529
 21
24.5277673321
  0
LINE
  5
524
100
AcDbEntity
  8
0
100
AcDbLine
 62
7
  6
CONTINUOUS
 10
13.2121896285
 20
25.000208277
 11
13.2121896285
 21
24.6065074896
  0
LINE
  5
525
100
AcDbEntity
  8
0
100
AcDbLine
 62
7
  6
CONTINUOUS
 10
13.2788341594
 20
26.4962712692
 11
13.2788341594
 21
25.000208277
  0
LINE
  5
526
100
AcDbEntity
  8
0
100
AcDbLine
 62
7
  6
CONTINUOUS
 10
13.2830470019
 20
25.000208277
 11
13.2830470019
 21
26.4962712692
  0
LINE
  5
527
100
AcDbEntity
  8
0
100
AcDbLine
 62
7
  6
CONTINUOUS
 10
13.290929786
 20
26.4962712692
 11
13.290929786
 21
26.9387909542
  0
LINE
  5
528
100
AcDbEntity
  8
0
100
AcDbLine
 62
7
  6
CONTINUOUS
 10
5.5547434674
 20
26.9387909542
 11
13.9405019313
 21
26.9387909542
  0
LINE
  5
529
100
AcDbEntity
  8
0
100
AcDbLine
 62
7
  6
CONTINUOUS
 10
5.5547093136
 20
27.0175311117
 11
13.9405360852
 21
27.0175311117
  0
LINE
  5
52A
100
AcDbEntity
  8
0
100
AcDbLine
 62
7
  6
CONTINUOUS
 10
6.2689549813
 20
27.1516793372
 11
13.2262904175
 21
27.1516793372
  0
LINE
  5
52B
100
AcDbEntity
  8
0
100
AcDbLine
 62
7
  6
CONTINUOUS
 10
13.9405360852
 20
26.9387909542
 11
13.9405360852
 21
27.0175311117
  0
LINE
  5
52C
100
AcDbEntity
  8
0
100
AcDbLine
 62
7
  6
CONTINUOUS
 10
9.597914038
 20
27.383672844
 11
9.8733904159
 21
27.383672844
  0
LINE
  5
52D
100
AcDbEntity
  8
0
100
AcDbLine
 62
7
  6
CONTINUOUS
 10
23.127224822
 20
35.5924152878
 11
23.127224822
 21
35.9861160753
  0
LINE
  5
52E
100
AcDbEntity
  8
0
100
AcDbLine
 62
7
  6
CONTINUOUS
 10
23.3450437197
 20
35.7555373351
 11
23.3450437197
 21
35.871501902
  0
LINE
  5
52F
100
AcDbEntity
  8
0
100
AcDbLine
 62
7
  6
CONTINUOUS
 10
23.5037445071
 20
35.7555373351
 11
23.5037445071
 21
35.7386672564
  0
LINE
  5
530
100
AcDbEntity
  8
0
100
AcDbLine
 62
7
  6
CONTINUOUS
 10
23.5037445071
 20
35.6880688312
 11
23.5037445071
 21
35.6712066264
  0
LINE
  5
531
100
AcDbEntity
  8
0
100
AcDbLine
 62
7
  6
CONTINUOUS
 10
23.5919807275
 20
35.6712066264
 11
23.5919807275
 21
35.6880648941
  0
LINE
  5
532
100
AcDbEntity
  8
0
100
AcDbLine
 62
7
  6
CONTINUOUS
 10
23.5919807275
 20
35.7386672564
 11
23.5919807275
 21
35.7555373351
  0
LINE
  5
533
100
AcDbEntity
  8
0
100
AcDbLine
 62
7
  6
CONTINUOUS
 10
23.625713011
 20
35.871501902
 11
23.625713011
 21
35.7555373351
  0
LINE
  5
534
100
AcDbEntity
  8
0
100
AcDbLine
 62
7
  6
CONTINUOUS
 10
23.6880752157
 20
35.7353759178
 11
23.6880752157
 21
35.8915885162
  0
LINE
  5
535
100
AcDbEntity
  8
0
100
AcDbLine
 62
7
  6
CONTINUOUS
 10
23.7187641921
 20
35.7217932406
 11
23.7187641921
 21
35.7049310359
  0
LINE
  5
536
100
AcDbEntity
  8
0
100
AcDbLine
 62
7
  6
CONTINUOUS
 10
23.8299571055
 20
35.8546396973
 11
23.8299571055
 21
35.871501902
  0
LINE
  5
537
100
AcDbEntity
  8
0
100
AcDbLine
 62
7
  6
CONTINUOUS
 10
24.6626578929
 20
35.5924152878
 11
23.127224822
 21
35.5924152878
  0
LINE
  5
538
100
AcDbEntity
  8
0
100
AcDbLine
 62
7
  6
CONTINUOUS
 10
23.5114531685
 20
35.663497965
 11
23.5842720661
 21
35.663497965
  0
LINE
  5
539
100
AcDbEntity
  8
0
100
AcDbLine
 62
7
  6
CONTINUOUS
 10
23.7356342708
 20
35.6880609571
 11
24.0848468693
 21
35.6880609571
  0
LINE
  5
53A
100
AcDbEntity
  8
0
100
AcDbLine
 62
7
  6
CONTINUOUS
 10
23.5919807275
 20
35.6880648941
 11
23.6289098614
 21
35.6880648941
  0
LINE
  5
53B
100
AcDbEntity
  8
0
100
AcDbLine
 62
7
  6
CONTINUOUS
 10
24.2419728535
 20
35.6880648941
 11
24.5793941134
 21
35.6880648941
  0
LINE
  5
53C
100
AcDbEntity
  8
0
100
AcDbLine
 62
7
  6
CONTINUOUS
 10
23.310713011
 20
35.6880688312
 11
23.5037445071
 21
35.6880688312
  0
LINE
  5
53D
100
AcDbEntity
  8
0
100
AcDbLine
 62
7
  6
CONTINUOUS
 10
24.0139531685
 20
35.7386633193
 11
23.7356342708
 21
35.7386633193
  0
LINE
  5
53E
100
AcDbEntity
  8
0
100
AcDbLine
 62
7
  6
CONTINUOUS
 10
24.5793941134
 20
35.7386672564
 11
24.2916185228
 21
35.7386672564
  0
LINE
  5
53F
100
AcDbEntity
  8
0
100
AcDbLine
 62
7
  6
CONTINUOUS
 10
23.6088429322
 20
35.7386672564
 11
23.5919807275
 21
35.7386672564
  0
LINE
  5
540
100
AcDbEntity
  8
0
100
AcDbLine
 62
7
  6
CONTINUOUS
 10
23.5037445071
 20
35.7386672564
 11
23.3619137984
 21
35.7386672564
  0
LINE
  5
541
100
AcDbEntity
  8
0
100
AcDbLine
 62
7
  6
CONTINUOUS
 10
23.5842720661
 20
35.7632459965
 11
23.5114531685
 21
35.7632459965
  0
LINE
  5
542
100
AcDbEntity
  8
0
100
AcDbLine
 62
7
  6
CONTINUOUS
 10
23.7759295464
 20
35.7892656816
 11
24.0139531685
 21
35.7892656816
  0
LINE
  5
543
100
AcDbEntity
  8
0
100
AcDbLine
 62
7
  6
CONTINUOUS
 10
24.0848508063
 20
35.8377696186
 11
23.8468271842
 21
35.8377696186
  0
LINE
  5
544
100
AcDbEntity
  8
0
100
AcDbLine
 62
7
  6
CONTINUOUS
 10
24.0308232472
 20
35.7723956028
 11
24.0308232472
 21
35.7555333981
  0
LINE
  5
545
100
AcDbEntity
  8
0
100
AcDbLine
 62
7
  6
CONTINUOUS
 10
24.1420122236
 20
35.9052420595
 11
24.1420122236
 21
35.9221042642
  0
LINE
  5
546
100
AcDbEntity
  8
0
100
AcDbLine
 62
7
  6
CONTINUOUS
 10
24.2747484441
 20
35.7555373351
 11
24.2747484441
 21
35.871501902
  0
LINE
  5
547
100
AcDbEntity
  8
0
100
AcDbLine
 62
7
  6
CONTINUOUS
 10
23.3619137984
 20
35.8883719808
 11
23.6088429322
 21
35.8883719808
  0
LINE
  5
548
100
AcDbEntity
  8
0
100
AcDbLine
 62
7
  6
CONTINUOUS
 10
23.8468271842
 20
35.8883719808
 11
24.1251421448
 21
35.8883719808
  0
LINE
  5
549
100
AcDbEntity
  8
0
100
AcDbLine
 62
7
  6
CONTINUOUS
 10
24.2916185228
 20
35.8883719808
 11
24.5793941134
 21
35.8883719808
  0
LINE
  5
54A
100
AcDbEntity
  8
0
100
AcDbLine
 62
7
  6
CONTINUOUS
 10
24.5793941134
 20
35.938974343
 11
24.2419728535
 21
35.938974343
  0
LINE
  5
54B
100
AcDbEntity
  8
0
100
AcDbLine
 62
7
  6
CONTINUOUS
 10
24.1251421448
 20
35.938974343
 11
23.7759295464
 21
35.938974343
  0
LINE
  5
54C
100
AcDbEntity
  8
0
100
AcDbLine
 62
7
  6
CONTINUOUS
 10
23.6289137984
 20
35.938974343
 11
23.310713011
 21
35.938974343
  0
LINE
  5
54D
100
AcDbEntity
  8
0
100
AcDbLine
 62
7
  6
CONTINUOUS
 10
23.127224822
 20
35.9861160753
 11
24.6626578929
 21
35.9861160753
  0
LINE
  5
54E
100
AcDbEntity
  8
0
100
AcDbLine
 62
7
  6
CONTINUOUS
 10
24.5962641921
 20
35.7049349729
 11
24.5962641921
 21
35.7217971776
  0
LINE
  5
54F
100
AcDbEntity
  8
0
100
AcDbLine
 62
7
  6
CONTINUOUS
 10
24.5962641921
 20
35.9052420595
 11
24.5962641921
 21
35.9221042642
  0
LINE
  5
550
100
AcDbEntity
  8
0
100
AcDbLine
 62
7
  6
CONTINUOUS
 10
24.6626578929
 20
35.9861160753
 11
24.6626578929
 21
35.5924152878
  0
LINE
  5
551
100
AcDbEntity
  8
0
100
AcDbLine
 62
7
  6
CONTINUOUS
 10
20.4500594677
 20
10.9760267573
 11
20.4500594677
 21
11.9138437072
  0
LINE
  5
552
100
AcDbEntity
  8
0
100
AcDbLine
 62
7
  6
CONTINUOUS
 10
23.8091362601
 20
7.4453397702
 11
22.8713193102
 21
7.4453397702
  0
LINE
  5
553
100
AcDbEntity
  8
0
100
AcDbLine
 62
7
  6
CONTINUOUS
 10
20.8043901763
 20
11.9138437072
 11
20.8043901763
 21
10.9760267573
  0
LINE
  5
554
100
AcDbEntity
  8
7_ALL_ROUNDS
100
AcDbLine
 62
7
  6
CONTINUOUS
 10
21.1390358456
 20
11.6776232348
 11
21.1390358456
 21
13.3311665418
  0
LINE
  5
555
100
AcDbEntity
  8
0
100
AcDbLine
 62
7
  6
CONTINUOUS
 10
22.8713193102
 20
7.7996704789
 11
23.8091362601
 21
7.7996704789
  0
LINE
  5
556
100
AcDbEntity
  8
7_ALL_ROUNDS
100
AcDbLine
 62
7
  6
CONTINUOUS
 10
24.2099019874
 20
8.4492767781
 11
23.5799807275
 21
8.4492767781
  0
LINE
  5
557
100
AcDbEntity
  8
7_ALL_ROUNDS
100
AcDbLine
 62
7
  6
CONTINUOUS
 10
23.5799807275
 20
8.4965208726
 11
24.2099019874
 21
8.4965208726
  0
LINE
  5
558
100
AcDbEntity
  8
0
100
AcDbLine
 62
7
  6
CONTINUOUS
 10
23.4618704913
 20
8.8823476442
 11
23.5799807275
 21
8.8823476442
  0
LINE
  5
559
100
AcDbEntity
  8
0
100
AcDbLine
 62
7
  6
CONTINUOUS
 10
24.2099019874
 20
8.8823476442
 11
24.3280122236
 21
8.8823476442
  0
LINE
  5
55A
100
AcDbEntity
  8
0
100
AcDbLine
 62
7
  6
CONTINUOUS
 10
22.2807681291
 20
10.8705366206
 11
22.2807681291
 21
10.0634500064
  0
LINE
  5
55B
100
AcDbEntity
  8
7_ALL_ROUNDS
100
AcDbLine
 62
7
  6
CONTINUOUS
 10
22.2807681291
 20
10.8705366206
 11
22.2807681291
 21
11.2445523686
  0
LINE
  5
55C
100
AcDbEntity
  8
7_ALL_ROUNDS
100
AcDbLine
 62
7
  6
CONTINUOUS
 10
23.5721067118
 20
9.3152471524
 11
23.658720885
 21
9.3152471524
  0
LINE
  5
55D
100
AcDbEntity
  8
7_ALL_ROUNDS
100
AcDbLine
 62
7
  6
CONTINUOUS
 10
24.1311618299
 20
9.3154470361
 11
24.2177760031
 21
9.3154470361
  0
LINE
  5
55E
100
AcDbEntity
  8
0
100
AcDbLine
 62
7
  6
CONTINUOUS
 10
24.2177760031
 20
9.3587541228
 11
24.2492720661
 21
9.3587541228
  0
LINE
  5
55F
100
AcDbEntity
  8
7_ALL_ROUNDS
100
AcDbLine
 62
9
  6
CONTINUOUS
 10
22.6469098614
 20
14.1185681167
 11
22.6469098614
 21
13.7130563056
  0
LINE
  5
560
100
AcDbEntity
  8
0
100
AcDbLine
 62
7
  6
CONTINUOUS
 10
22.6862799401
 20
14.1185681167
 11
22.6862799401
 21
13.7130563056
  0
LINE
  5
561
100
AcDbEntity
  8
0
100
AcDbLine
 62
7
  6
CONTINUOUS
 10
22.7138389952
 20
10.4571507938
 11
22.7138389952
 21
9.669749219
  0
LINE
  5
562
100
AcDbEntity
  8
0
100
AcDbLine
 62
7
  6
CONTINUOUS
 10
24.1311618299
 20
9.4384785322
 11
23.658720885
 21
9.4384785322
  0
LINE
  5
563
100
AcDbEntity
  8
0
100
AcDbLine
 62
7
  6
CONTINUOUS
 10
23.5721067118
 20
9.4384785322
 11
23.3437602551
 21
9.4384785322
  0
LINE
  5
564
100
AcDbEntity
  8
7_ALL_ROUNDS
100
AcDbLine
 62
9
  6
CONTINUOUS
 10
23.5721067118
 20
9.5120975461
 11
23.658720885
 21
9.5120975461
  0
LINE
  5
565
100
AcDbEntity
  8
7_ALL_ROUNDS
100
AcDbLine
 62
9
  6
CONTINUOUS
 10
24.1311618299
 20
9.5122974298
 11
24.2177760031
 21
9.5122974298
  0
LINE
  5
566
100
AcDbEntity
  8
0
100
AcDbLine
 62
7
  6
CONTINUOUS
 10
24.1311618299
 20
9.5861163275
 11
23.658720885
 21
9.5861163275
  0
LINE
  5
567
100
AcDbEntity
  8
0
100
AcDbLine
 62
7
  6
CONTINUOUS
 10
23.5721067118
 20
9.5861163275
 11
23.3437602551
 21
9.5861163275
  0
LINE
  5
568
100
AcDbEntity
  8
0
100
AcDbLine
 62
7
  6
CONTINUOUS
 10
24.2177760031
 20
9.6658407369
 11
24.2492720661
 21
9.6658407369
  0
LINE
  5
569
100
AcDbEntity
  8
0
100
AcDbLine
 62
7
  6
CONTINUOUS
 10
22.7138389952
 20
9.669749219
 11
23.5721067118
 21
9.669749219
  0
LINE
  5
56A
100
AcDbEntity
  8
0
100
AcDbLine
 62
7
  6
CONTINUOUS
 10
24.2177760031
 20
9.669749219
 11
25.1941539559
 21
9.669749219
  0
LINE
  5
56B
100
AcDbEntity
  8
0
100
AcDbLine
 62
7
  6
CONTINUOUS
 10
22.7650200976
 20
14.1185681167
 11
22.7650200976
 21
13.4591192978
  0
LINE
  5
56C
100
AcDbEntity
  8
0
100
AcDbLine
 62
7
  6
CONTINUOUS
 10
22.7650200976
 20
13.2701429198
 11
22.7650200976
 21
11.2445523686
  0
LINE
  5
56D
100
AcDbEntity
  8
7_ALL_ROUNDS
100
AcDbLine
 62
7
  6
CONTINUOUS
 10
22.7650200976
 20
10.8705366206
 11
22.7650200976
 21
11.2445523686
  0
LINE
  5
56E
100
AcDbEntity
  8
7_ALL_ROUNDS
100
AcDbLine
 62
7
  6
CONTINUOUS
 10
22.8122641921
 20
10.89022166
 11
22.8122641921
 21
11.795733471
  0
LINE
  5
56F
100
AcDbEntity
  8
0
100
AcDbLine
 62
7
  6
CONTINUOUS
 10
22.8713193102
 20
7.4453397702
 11
22.8713193102
 21
7.7996704789
  0
LINE
  5
570
100
AcDbEntity
  8
0
100
AcDbLine
 62
7
  6
CONTINUOUS
 10
27.3398232472
 20
9.8665996127
 11
26.9854925385
 21
9.8665996127
  0
LINE
  5
571
100
AcDbEntity
  8
7_ALL_ROUNDS
100
AcDbLine
 62
9
  6
CONTINUOUS
 10
24.1284586217
 20
9.8665996127
 11
23.554201876
 21
9.8665996127
  0
LINE
  5
572
100
AcDbEntity
  8
0
100
AcDbLine
 62
7
  6
CONTINUOUS
 10
24.9421854519
 20
9.9689618174
 11
24.6852596736
 21
9.9689618174
  0
LINE
  5
573
100
AcDbEntity
  8
0
100
AcDbLine
 62
7
  6
CONTINUOUS
 10
24.4432057185
 20
9.9689618174
 11
24.3437602551
 21
9.9689618174
  0
LINE
  5
574
100
AcDbEntity
  8
0
100
AcDbLine
 62
7
  6
CONTINUOUS
 10
23.1046230413
 20
9.9689618174
 11
23.0051775779
 21
9.9689618174
  0
LINE
  5
575
100
AcDbEntity
  8
7_ALL_ROUNDS
100
AcDbLine
 62
9
  6
CONTINUOUS
 10
23.1665949008
 20
10.89022166
 11
23.1665949008
 21
11.795733471
  0
LINE
  5
576
100
AcDbEntity
  8
7_ALL_ROUNDS
100
AcDbLine
 62
9
  6
CONTINUOUS
 10
23.284705137
 20
11.9138437072
 11
23.284705137
 21
12.6225051245
  0
LINE
  5
577
100
AcDbEntity
  8
0
100
AcDbLine
 62
7
  6
CONTINUOUS
 10
23.3437602551
 20
9.4385475554
 11
23.3437602551
 21
9.5860473043
  0
LINE
  5
578
100
AcDbEntity
  8
0
100
AcDbLine
 62
7
  6
CONTINUOUS
 10
23.3437602551
 20
10.5408527085
 11
23.3437602551
 21
10.6883524574
  0
LINE
  5
579
100
AcDbEntity
  8
0
100
AcDbLine
 62
7
  6
CONTINUOUS
 10
23.50124057
 20
11.6776232348
 11
23.50124057
 21
11.0870720537
  0
LINE
  5
57A
100
AcDbEntity
  8
0
100
AcDbLine
 62
7
  6
CONTINUOUS
 10
23.0051775779
 20
10.1579381954
 11
23.1046230413
 21
10.1579381954
  0
LINE
  5
57B
100
AcDbEntity
  8
0
100
AcDbLine
 62
7
  6
CONTINUOUS
 10
24.3437602551
 20
10.1579381954
 11
24.4432057185
 21
10.1579381954
  0
LINE
  5
57C
100
AcDbEntity
  8
0
100
AcDbLine
 62
7
  6
CONTINUOUS
 10
24.6852596736
 20
10.1579381954
 11
24.9421854519
 21
10.1579381954
  0
LINE
  5
57D
100
AcDbEntity
  8
0
100
AcDbLine
 62
7
  6
CONTINUOUS
 10
25.1941539559
 20
10.4571507938
 11
24.2177760031
 21
10.4571507938
  0
LINE
  5
57E
100
AcDbEntity
  8
0
100
AcDbLine
 62
7
  6
CONTINUOUS
 10
23.5721067118
 20
10.4571507938
 11
22.7138389952
 21
10.4571507938
  0
LINE
  5
57F
100
AcDbEntity
  8
0
100
AcDbLine
 62
7
  6
CONTINUOUS
 10
24.2177760031
 20
10.4610592759
 11
24.2492720661
 21
10.4610592759
  0
LINE
  5
580
100
AcDbEntity
  8
0
100
AcDbLine
 62
7
  6
CONTINUOUS
 10
24.1311618299
 20
10.5407836854
 11
23.658720885
 21
10.5407836854
  0
LINE
  5
581
100
AcDbEntity
  8
0
100
AcDbLine
 62
7
  6
CONTINUOUS
 10
23.5721067118
 20
10.5407836854
 11
23.3437602551
 21
10.5407836854
  0
LINE
  5
582
100
AcDbEntity
  8
0
100
AcDbLine
 62
7
  6
CONTINUOUS
 10
23.5602956882
 20
11.6192012208
 11
23.5602956882
 21
11.3436106696
  0
LINE
  5
583
100
AcDbEntity
  8
7_ALL_ROUNDS
100
AcDbLine
 62
7
  6
CONTINUOUS
 10
23.5721067118
 20
10.8116528604
 11
23.5721067118
 21
10.4096843565
  0
LINE
  5
584
100
AcDbEntity
  8
7_ALL_ROUNDS
100
AcDbLine
 62
7
  6
CONTINUOUS
 10
23.5721067118
 20
9.7172156563
 11
23.5721067118
 21
9.3152471524
  0
LINE
  5
585
100
AcDbEntity
  8
0
100
AcDbLine
 62
7
  6
CONTINUOUS
 10
23.5799807275
 20
8.8823476442
 11
23.5799807275
 21
8.4965208726
  0
LINE
  5
586
100
AcDbEntity
  8
7_ALL_ROUNDS
100
AcDbLine
 62
7
  6
CONTINUOUS
 10
23.5799807275
 20
8.4492767781
 11
23.5799807275
 21
8.4965208726
  0
LINE
  5
587
100
AcDbEntity
  8
0
100
AcDbLine
 62
7
  6
CONTINUOUS
 10
23.658720885
 20
14.4256459624
 11
23.658720885
 21
14.1579381954
  0
LINE
  5
588
100
AcDbEntity
  8
0
100
AcDbLine
 62
7
  6
CONTINUOUS
 10
23.658720885
 20
7.3547973575
 11
23.658720885
 21
7.4453397702
  0
LINE
  5
589
100
AcDbEntity
  8
7_ALL_ROUNDS
100
AcDbLine
 62
7
  6
CONTINUOUS
 10
23.658720885
 20
9.3152471524
 11
23.658720885
 21
9.7618681223
  0
LINE
  5
58A
100
AcDbEntity
  8
7_ALL_ROUNDS
100
AcDbLine
 62
7
  6
CONTINUOUS
 10
23.658720885
 20
10.3650318905
 11
23.658720885
 21
10.8116528604
  0
LINE
  5
58B
100
AcDbEntity
  8
7_ALL_ROUNDS
100
AcDbLine
 62
9
  6
CONTINUOUS
 10
23.6980909637
 20
8.4492767781
 11
23.6980909637
 21
8.4965208726
  0
LINE
  5
58C
100
AcDbEntity
  8
0
100
AcDbLine
 62
7
  6
CONTINUOUS
 10
23.6980909637
 20
11.3436106696
 11
23.6980909637
 21
11.6192012208
  0
LINE
  5
58D
100
AcDbEntity
  8
0
100
AcDbLine
 62
7
  6
CONTINUOUS
 10
23.7020279716
 20
10.89022166
 11
23.7020279716
 21
10.6884214806
  0
LINE
  5
58E
100
AcDbEntity
  8
0
100
AcDbLine
 62
7
  6
CONTINUOUS
 10
23.7020279716
 20
10.5407836854
 11
23.7020279716
 21
10.4839041996
  0
LINE
  5
58F
100
AcDbEntity
  8
0
100
AcDbLine
 62
7
  6
CONTINUOUS
 10
23.7374610425
 20
11.6192012208
 11
23.7374610425
 21
11.3436106696
  0
LINE
  5
590
100
AcDbEntity
  8
0
100
AcDbLine
 62
7
  6
CONTINUOUS
 10
23.8752563181
 20
11.3436106696
 11
23.8752563181
 21
11.6192012208
  0
LINE
  5
591
100
AcDbEntity
  8
0
100
AcDbLine
 62
7
  6
CONTINUOUS
 10
23.8949413574
 20
13.921717723
 11
23.8949413574
 21
13.8823476442
  0
LINE
  5
592
100
AcDbEntity
  8
0
100
AcDbLine
 62
7
  6
CONTINUOUS
 10
23.8949413574
 20
7.858725597
 11
23.8949413574
 21
7.8980956757
  0
LINE
  5
593
100
AcDbEntity
  8
0
100
AcDbLine
 62
7
  6
CONTINUOUS
 10
23.9146263968
 20
11.6192012208
 11
23.9146263968
 21
11.3436106696
  0
LINE
  5
594
100
AcDbEntity
  8
7_ALL_ROUNDS
100
AcDbLine
 62
9
  6
CONTINUOUS
 10
24.2177760031
 20
10.614602583
 11
24.1311618299
 21
10.614602583
  0
LINE
  5
595
100
AcDbEntity
  8
7_ALL_ROUNDS
100
AcDbLine
 62
9
  6
CONTINUOUS
 10
23.658720885
 20
10.6148024667
 11
23.5721067118
 21
10.6148024667
  0
LINE
  5
596
100
AcDbEntity
  8
0
100
AcDbLine
 62
7
  6
CONTINUOUS
 10
27.4303656599
 20
10.6540011875
 11
27.3398232472
 21
10.6540011875
  0
LINE
  5
597
100
AcDbEntity
  8
0
100
AcDbLine
 62
7
  6
CONTINUOUS
 10
20.359517055
 20
10.6540011875
 11
20.627224822
 21
10.6540011875
  0
LINE
  5
598
100
AcDbEntity
  8
0
100
AcDbLine
 62
7
  6
CONTINUOUS
 10
24.1311618299
 20
10.6884214806
 11
23.658720885
 21
10.6884214806
  0
LINE
  5
599
100
AcDbEntity
  8
0
100
AcDbLine
 62
7
  6
CONTINUOUS
 10
23.5721067118
 20
10.6884214806
 11
23.3437602551
 21
10.6884214806
  0
LINE
  5
59A
100
AcDbEntity
  8
0
100
AcDbLine
 62
7
  6
CONTINUOUS
 10
24.2177760031
 20
10.7681458901
 11
24.2492720661
 21
10.7681458901
  0
LINE
  5
59B
100
AcDbEntity
  8
7_ALL_ROUNDS
100
AcDbLine
 62
7
  6
CONTINUOUS
 10
24.2177760031
 20
10.8114529767
 11
24.1311618299
 21
10.8114529767
  0
LINE
  5
59C
100
AcDbEntity
  8
7_ALL_ROUNDS
100
AcDbLine
 62
7
  6
CONTINUOUS
 10
23.658720885
 20
10.8116528604
 11
23.5721067118
 21
10.8116528604
  0
LINE
  5
59D
100
AcDbEntity
  8
0
100
AcDbLine
 62
7
  6
CONTINUOUS
 10
22.2807681291
 20
10.8705366206
 11
22.7650200976
 21
10.8705366206
  0
LINE
  5
59E
100
AcDbEntity
  8
0
100
AcDbLine
 62
7
  6
CONTINUOUS
 10
26.9264374204
 20
10.89022166
 11
26.8870673417
 21
10.89022166
  0
LINE
  5
59F
100
AcDbEntity
  8
0
100
AcDbLine
 62
7
  6
CONTINUOUS
 10
25.5091145858
 20
10.89022166
 11
24.0878547433
 21
10.89022166
  0
LINE
  5
5A0
100
AcDbEntity
  8
0
100
AcDbLine
 62
7
  6
CONTINUOUS
 10
23.7020279716
 20
10.89022166
 11
22.7650200976
 21
10.89022166
  0
LINE
  5
5A1
100
AcDbEntity
  8
7_ALL_ROUNDS
100
AcDbLine
 62
7
  6
CONTINUOUS
 10
22.2807681291
 20
10.89022166
 11
21.9264374204
 21
10.89022166
  0
LINE
  5
5A2
100
AcDbEntity
  8
0
100
AcDbLine
 62
7
  6
CONTINUOUS
 10
20.8634452945
 20
10.89022166
 11
20.9028153732
 21
10.89022166
  0
LINE
  5
5A3
100
AcDbEntity
  8
0
100
AcDbLine
 62
7
  6
CONTINUOUS
 10
24.0524216724
 20
11.3436106696
 11
24.0524216724
 21
11.6192012208
  0
LINE
  5
5A4
100
AcDbEntity
  8
0
100
AcDbLine
 62
7
  6
CONTINUOUS
 10
24.0878547433
 20
10.89022166
 11
24.0878547433
 21
10.6884214806
  0
LINE
  5
5A5
100
AcDbEntity
  8
0
100
AcDbLine
 62
7
  6
CONTINUOUS
 10
24.0878547433
 20
10.5407836854
 11
24.0878547433
 21
10.4839041996
  0
LINE
  5
5A6
100
AcDbEntity
  8
0
100
AcDbLine
 62
7
  6
CONTINUOUS
 10
24.0917917511
 20
11.6192012208
 11
24.0917917511
 21
11.3436106696
  0
LINE
  5
5A7
100
AcDbEntity
  8
7_ALL_ROUNDS
100
AcDbLine
 62
9
  6
CONTINUOUS
 10
24.0917917511
 20
8.4492767781
 11
24.0917917511
 21
8.4965208726
  0
LINE
  5
5A8
100
AcDbEntity
  8
0
100
AcDbLine
 62
7
  6
CONTINUOUS
 10
24.1311618299
 20
14.4256459624
 11
24.1311618299
 21
14.3351035497
  0
LINE
  5
5A9
100
AcDbEntity
  8
7_ALL_ROUNDS
100
AcDbLine
 62
7
  6
CONTINUOUS
 10
24.1311618299
 20
10.8114224397
 11
24.1311618299
 21
10.2835002208
  0
LINE
  5
5AA
100
AcDbEntity
  8
7_ALL_ROUNDS
100
AcDbLine
 62
7
  6
CONTINUOUS
 10
24.1311618299
 20
9.843399792
 11
24.1311618299
 21
9.3154775732
  0
LINE
  5
5AB
100
AcDbEntity
  8
0
100
AcDbLine
 62
7
  6
CONTINUOUS
 10
24.1311618299
 20
7.3547973575
 11
24.1311618299
 21
7.6225051245
  0
LINE
  5
5AC
100
AcDbEntity
  8
7_ALL_ROUNDS
100
AcDbLine
 62
7
  6
CONTINUOUS
 10
24.2099019874
 20
8.4492767781
 11
24.2099019874
 21
8.4965208726
  0
LINE
  5
5AD
100
AcDbEntity
  8
0
100
AcDbLine
 62
7
  6
CONTINUOUS
 10
24.2099019874
 20
8.4965208726
 11
24.2099019874
 21
8.8823476442
  0
LINE
  5
5AE
100
AcDbEntity
  8
7_ALL_ROUNDS
100
AcDbLine
 62
7
  6
CONTINUOUS
 10
24.2177760031
 20
9.3154775732
 11
24.2177760031
 21
9.8538201963
  0
LINE
  5
5AF
100
AcDbEntity
  8
0
100
AcDbLine
 62
7
  6
CONTINUOUS
 10
24.2177760031
 20
9.8538201963
 11
24.2177760031
 21
10.2730798165
  0
LINE
  5
5B0
100
AcDbEntity
  8
7_ALL_ROUNDS
100
AcDbLine
 62
7
  6
CONTINUOUS
 10
24.2177760031
 20
10.2730798165
 11
24.2177760031
 21
10.8114224397
  0
LINE
  5
5B1
100
AcDbEntity
  8
0
100
AcDbLine
 62
7
  6
CONTINUOUS
 10
24.2295870267
 20
11.3436106696
 11
24.2295870267
 21
11.6192012208
  0
LINE
  5
5B2
100
AcDbEntity
  8
7_ALL_ROUNDS
100
AcDbLine
 62
9
  6
CONTINUOUS
 10
24.2492720661
 20
10.7681458901
 11
24.2492720661
 21
10.4610592759
  0
LINE
  5
5B3
100
AcDbEntity
  8
7_ALL_ROUNDS
100
AcDbLine
 62
9
  6
CONTINUOUS
 10
24.2492720661
 20
9.6658407369
 11
24.2492720661
 21
9.3587541228
  0
LINE
  5
5B4
100
AcDbEntity
  8
0
100
AcDbLine
 62
7
  6
CONTINUOUS
 10
24.2886421448
 20
11.0870720537
 11
24.2886421448
 21
11.6776232348
  0
LINE
  5
5B5
100
AcDbEntity
  8
7_ALL_ROUNDS
100
AcDbLine
 62
7
  6
CONTINUOUS
 10
24.3358862393
 20
10.6815317168
 11
24.3358862393
 21
10.5476734491
  0
LINE
  5
5B6
100
AcDbEntity
  8
7_ALL_ROUNDS
100
AcDbLine
 62
7
  6
CONTINUOUS
 10
24.3358862393
 20
9.5792265637
 11
24.3358862393
 21
9.445368296
  0
LINE
  5
5B7
100
AcDbEntity
  8
0
100
AcDbLine
 62
7
  6
CONTINUOUS
 10
23.50124057
 20
11.0870720537
 11
24.2886421448
 21
11.0870720537
  0
LINE
  5
5B8
100
AcDbEntity
  8
0
100
AcDbLine
 62
7
  6
CONTINUOUS
 10
27.4303656599
 20
11.1264421324
 11
27.1626578929
 21
11.1264421324
  0
LINE
  5
5B9
100
AcDbEntity
  8
0
100
AcDbLine
 62
7
  6
CONTINUOUS
 10
20.359517055
 20
11.1264421324
 11
20.4500594677
 21
11.1264421324
  0
LINE
  5
5BA
100
AcDbEntity
  8
7_ALL_ROUNDS
100
AcDbLine
 62
9
  6
CONTINUOUS
 10
24.5051775779
 20
11.9138437072
 11
24.5051775779
 21
12.6225051245
  0
LINE
  5
5BB
100
AcDbEntity
  8
7_ALL_ROUNDS
100
AcDbLine
 62
7
  6
CONTINUOUS
 10
24.564232696
 20
10.89022166
 11
24.564232696
 21
11.1658122111
  0
LINE
  5
5BC
100
AcDbEntity
  8
7_ALL_ROUNDS
100
AcDbLine
 62
9
  6
CONTINUOUS
 10
24.6232878141
 20
11.795733471
 11
24.6232878141
 21
11.3060799289
  0
LINE
  5
5BD
100
AcDbEntity
  8
0
100
AcDbLine
 62
7
  6
CONTINUOUS
 10
23.5602956882
 20
11.3436106696
 11
23.6980909637
 21
11.3436106696
  0
LINE
  5
5BE
100
AcDbEntity
  8
0
100
AcDbLine
 62
7
  6
CONTINUOUS
 10
23.7374610425
 20
11.3436106696
 11
23.8752563181
 21
11.3436106696
  0
LINE
  5
5BF
100
AcDbEntity
  8
0
100
AcDbLine
 62
7
  6
CONTINUOUS
 10
23.9146263968
 20
11.3436106696
 11
24.0524216724
 21
11.3436106696
  0
LINE
  5
5C0
100
AcDbEntity
  8
0
100
AcDbLine
 62
7
  6
CONTINUOUS
 10
24.0917917511
 20
11.3436106696
 11
24.2295870267
 21
11.3436106696
  0
LINE
  5
5C1
100
AcDbEntity
  8
7_ALL_ROUNDS
100
AcDbLine
 62
7
  6
CONTINUOUS
 10
22.3988783653
 20
11.3626626048
 11
22.6469098614
 21
11.3626626048
  0
LINE
  5
5C2
100
AcDbEntity
  8
7_ALL_ROUNDS
100
AcDbLine
 62
7
  6
CONTINUOUS
 10
24.7610830897
 20
11.3626626048
 11
24.7689571055
 21
11.3626626048
  0
LINE
  5
5C3
100
AcDbEntity
  8
0
100
AcDbLine
 62
7
  6
CONTINUOUS
 10
24.2295870267
 20
11.6192012208
 11
24.0917917511
 21
11.6192012208
  0
LINE
  5
5C4
100
AcDbEntity
  8
0
100
AcDbLine
 62
7
  6
CONTINUOUS
 10
24.0524216724
 20
11.6192012208
 11
23.9146263968
 21
11.6192012208
  0
LINE
  5
5C5
100
AcDbEntity
  8
0
100
AcDbLine
 62
7
  6
CONTINUOUS
 10
23.8752563181
 20
11.6192012208
 11
23.7374610425
 21
11.6192012208
  0
LINE
  5
5C6
100
AcDbEntity
  8
0
100
AcDbLine
 62
7
  6
CONTINUOUS
 10
23.6980909637
 20
11.6192012208
 11
23.5602956882
 21
11.6192012208
  0
LINE
  5
5C7
100
AcDbEntity
  8
0
100
AcDbLine
 62
7
  6
CONTINUOUS
 10
24.2886421448
 20
11.6776232348
 11
23.50124057
 21
11.6776232348
  0
LINE
  5
5C8
100
AcDbEntity
  8
0
100
AcDbLine
 62
7
  6
CONTINUOUS
 10
24.9185634047
 20
14.3351035497
 11
24.9185634047
 21
13.9807728411
  0
LINE
  5
5C9
100
AcDbEntity
  8
7_ALL_ROUNDS
100
AcDbLine
 62
7
  6
CONTINUOUS
 10
24.9658074992
 20
10.89022166
 11
24.9658074992
 21
11.1658122111
  0
LINE
  5
5CA
100
AcDbEntity
  8
7_ALL_ROUNDS
100
AcDbLine
 62
7
  6
CONTINUOUS
 10
24.9776185228
 20
11.795733471
 11
24.9776185228
 21
10.89022166
  0
LINE
  5
5CB
100
AcDbEntity
  8
7_ALL_ROUNDS
100
AcDbLine
 62
9
  6
CONTINUOUS
 10
23.1665949008
 20
11.795733471
 11
22.8122641921
 21
11.795733471
  0
LINE
  5
5CC
100
AcDbEntity
  8
0
100
AcDbLine
 62
9
  6
CONTINUOUS
 10
22.7650200976
 20
11.795733471
 11
22.8122641921
 21
11.795733471
  0
LINE
  5
5CD
100
AcDbEntity
  8
7_ALL_ROUNDS
100
AcDbLine
 62
9
  6
CONTINUOUS
 10
24.6232878141
 20
11.795733471
 11
25.3319492315
 21
11.795733471
  0
LINE
  5
5CE
100
AcDbEntity
  8
0
100
AcDbLine
 62
7
  6
CONTINUOUS
 10
20.4500594677
 20
11.9138437072
 11
20.8043901763
 21
11.9138437072
  0
LINE
  5
5CF
100
AcDbEntity
  8
7_ALL_ROUNDS
100
AcDbLine
 62
9
  6
CONTINUOUS
 10
23.284705137
 20
11.9138437072
 11
24.5051775779
 21
11.9138437072
  0
LINE
  5
5D0
100
AcDbEntity
  8
0
100
AcDbLine
 62
7
  6
CONTINUOUS
 10
25.1941539559
 20
9.669749219
 11
25.1941539559
 21
10.4571507938
  0
LINE
  5
5D1
100
AcDbEntity
  8
0
100
AcDbLine
 62
9
  6
CONTINUOUS
 10
25.3319492315
 20
11.795733471
 11
25.3319492315
 21
10.89022166
  0
LINE
  5
5D2
100
AcDbEntity
  8
0
100
AcDbLine
 62
7
  6
CONTINUOUS
 10
25.5091145858
 20
10.0634500064
 11
25.5091145858
 21
10.89022166
  0
LINE
  5
5D3
100
AcDbEntity
  8
7_ALL_ROUNDS
100
AcDbLine
 62
7
  6
CONTINUOUS
 10
23.284705137
 20
12.2681744159
 11
24.5051775779
 21
12.2681744159
  0
LINE
  5
5D4
100
AcDbEntity
  8
7_ALL_ROUNDS
100
AcDbLine
 62
9
  6
CONTINUOUS
 10
23.284705137
 20
12.6225051245
 11
24.5051775779
 21
12.6225051245
  0
LINE
  5
5D5
100
AcDbEntity
  8
0
100
AcDbLine
 62
7
  6
CONTINUOUS
 10
22.5248626173
 20
13.2701429198
 11
22.7650200976
 21
13.2701429198
  0
LINE
  5
5D6
100
AcDbEntity
  8
0
100
AcDbLine
 62
7
  6
CONTINUOUS
 10
22.7650200976
 20
13.4591192978
 11
22.5248626173
 21
13.4591192978
  0
LINE
  5
5D7
100
AcDbEntity
  8
0
100
AcDbLine
 62
7
  6
CONTINUOUS
 10
26.9854925385
 20
9.8665996127
 11
26.9854925385
 21
10.8044165626
  0
LINE
  5
5D8
100
AcDbEntity
  8
7_ALL_ROUNDS
100
AcDbLine
 62
7
  6
CONTINUOUS
 10
22.6862799401
 20
13.7130563056
 11
22.6469098614
 21
13.7130563056
  0
LINE
  5
5D9
100
AcDbEntity
  8
0
100
AcDbLine
 62
7
  6
CONTINUOUS
 10
22.7650200976
 20
13.7130563056
 11
22.6862799401
 21
13.7130563056
  0
LINE
  5
5DA
100
AcDbEntity
  8
0
100
AcDbLine
 62
7
  6
CONTINUOUS
 10
24.9185634047
 20
13.9807728411
 11
23.9807464548
 21
13.9807728411
  0
LINE
  5
5DB
100
AcDbEntity
  8
0
100
AcDbLine
 62
7
  6
CONTINUOUS
 10
27.3398232472
 20
10.8044165626
 11
27.3398232472
 21
9.8665996127
  0
LINE
  5
5DC
100
AcDbEntity
  8
0
100
AcDbLine
 62
7
  6
CONTINUOUS
 10
22.7650200976
 20
14.1185681167
 11
22.6862799401
 21
14.1185681167
  0
LINE
  5
5DD
100
AcDbEntity
  8
7_ALL_ROUNDS
100
AcDbLine
 62
7
  6
CONTINUOUS
 10
21.9264374204
 20
14.1185681167
 11
22.6862799401
 21
14.1185681167
  0
LINE
  5
5DE
100
AcDbEntity
  8
0
100
AcDbLine
 62
7
  6
CONTINUOUS
 10
23.9807464548
 20
14.3351035497
 11
24.9185634047
 21
14.3351035497
  0
LINE
  5
5DF
100
AcDbEntity
  8
0
100
AcDbLine
 62
7
  6
CONTINUOUS
 10
55.0459614918
 20
29.0735622616
 11
54.9902837925
 21
29.1057162144
  0
LINE
  5
5E0
100
AcDbEntity
  8
7_ALL_ROUNDS
100
AcDbLine
 62
7
  6
CONTINUOUS
 10
54.4529939942
 20
29.7374151067
 11
54.9624449429
 21
29.4432064389
  0
LINE
  5
5E1
100
AcDbEntity
  8
7_ALL_ROUNDS
100
AcDbLine
 62
7
  6
CONTINUOUS
 10
54.4529939942
 20
29.7952694914
 11
55.0181226422
 21
29.4689068709
  0
LINE
  5
5E2
100
AcDbEntity
  8
7_ALL_ROUNDS
100
AcDbLine
 62
7
  6
CONTINUOUS
 10
55.4844233739
 20
29.7381962252
 11
55.3424452406
 21
29.8201888048
  0
LINE
  5
5E3
100
AcDbEntity
  8
0
100
AcDbLine
 62
7
  6
CONTINUOUS
 10
55.476071719
 20
29.8395039067
 11
55.6458887018
 21
29.7414343508
  0
LINE
  5
5E4
100
AcDbEntity
  8
0
100
AcDbLine
 62
7
  6
CONTINUOUS
 10
55.476071719
 20
29.8973582914
 11
55.6278640944
 21
29.8096979726
  0
LINE
  5
5E5
100
AcDbEntity
  8
7_ALL_ROUNDS
100
AcDbLine
 62
7
  6
CONTINUOUS
 10
54.2223694125
 20
30.116809019
 11
54.2223694125
 21
30.0589546343
  0
LINE
  5
5E6
100
AcDbEntity
  8
7_ALL_ROUNDS
100
AcDbLine
 62
9
  6
CONTINUOUS
 10
54.4529939942
 20
29.7952694914
 11
54.4529939942
 21
29.7374151067
  0
LINE
  5
5E7
100
AcDbEntity
  8
0
100
AcDbLine
 62
7
  6
CONTINUOUS
 10
54.702525298
 20
36.0193176759
 11
54.702525298
 21
36.1658821171
  0
LINE
  5
5E8
100
AcDbEntity
  8
7_ALL_ROUNDS
100
AcDbLine
 62
7
  6
CONTINUOUS
 10
54.9902837925
 20
29.3949881378
 11
54.9902837925
 21
29.1057162144
  0
LINE
  5
5E9
100
AcDbEntity
  8
7_ALL_ROUNDS
100
AcDbLine
 62
7
  6
CONTINUOUS
 10
55.0459614918
 20
29.4206885697
 11
55.0459614918
 21
29.0735622616
  0
LINE
  5
5EA
100
AcDbEntity
  8
0
100
AcDbLine
 62
7
  6
CONTINUOUS
 10
55.3324465579
 20
30.6182894538
 11
55.3324465579
 21
34.1940387512
  0
LINE
  5
5EB
100
AcDbEntity
  8
0
100
AcDbLine
 62
7
  6
CONTINUOUS
 10
55.3327016432
 20
29.2391551184
 11
55.3327016432
 21
29.5605683665
  0
LINE
  5
5EC
100
AcDbEntity
  8
0
100
AcDbLine
 62
7
  6
CONTINUOUS
 10
55.4239323384
 20
34.1484363734
 11
55.4239323384
 21
33.0910025324
  0
LINE
  5
5ED
100
AcDbEntity
  8
0
100
AcDbLine
 62
7
  6
CONTINUOUS
 10
55.4607665518
 20
33.0662900481
 11
55.4607665518
 21
34.132305449
  0
LINE
  5
5EE
100
AcDbEntity
  8
0
100
AcDbLine
 62
9
  6
CONTINUOUS
 10
55.476071719
 20
29.8395039067
 11
55.476071719
 21
29.8973582914
  0
LINE
  5
5EF
100
AcDbEntity
  8
7_ALL_ROUNDS
100
AcDbLine
 62
7
  6
CONTINUOUS
 10
55.5122622235
 20
29.6642648642
 11
55.5122622235
 21
29.689977924
  0
LINE
  5
5F0
100
AcDbEntity
  8
0
100
AcDbLine
 62
7
  6
CONTINUOUS
 10
55.6202472335
 20
33.4969852712
 11
55.6202472335
 21
32.7577348004
  0
LINE
  5
5F1
100
AcDbEntity
  8
0
100
AcDbLine
 62
7
  6
CONTINUOUS
 10
57.7240588284
 20
36.7468305488
 11
57.4483594852
 21
36.587613775
  0
LINE
  5
5F2
100
AcDbEntity
  8
0
100
AcDbLine
 62
7
  6
CONTINUOUS
 10
57.7150362573
 20
36.5701533067
 11
57.7970355889
 21
36.6175080406
  0
LINE
  5
5F3
100
AcDbEntity
  8
0
100
AcDbLine
 62
7
  6
CONTINUOUS
 10
57.7150362573
 20
36.5637250417
 11
57.7970355889
 21
36.6110797757
  0
LINE
  5
5F4
100
AcDbEntity
  8
0
100
AcDbLine
 62
7
  6
CONTINUOUS
 10
57.8272546602
 20
36.5053470149
 11
57.8153257131
 21
36.4984580305
  0
LINE
  5
5F5
100
AcDbEntity
  8
0
100
AcDbLine
 62
7
  6
CONTINUOUS
 10
57.7795472236
 20
36.4777959005
 11
57.7676238443
 21
36.4709101315
  0
LINE
  5
5F6
100
AcDbEntity
  8
0
100
AcDbLine
 62
7
  6
CONTINUOUS
 10
57.8300162741
 20
36.434878412
 11
57.8419368695
 21
36.4417625733
  0
LINE
  5
5F7
100
AcDbEntity
  8
0
100
AcDbLine
 62
7
  6
CONTINUOUS
 10
57.877718143
 20
36.4624263111
 11
57.8896470901
 21
36.4693152954
  0
LINE
  5
5F8
100
AcDbEntity
  8
0
100
AcDbLine
 62
7
  6
CONTINUOUS
 10
57.8300162741
 20
36.4284501471
 11
57.8419368695
 21
36.4353343084
  0
LINE
  5
5F9
100
AcDbEntity
  8
0
100
AcDbLine
 62
7
  6
CONTINUOUS
 10
57.8832837263
 20
36.4592121786
 11
57.8896470901
 21
36.4628870305
  0
LINE
  5
5FA
100
AcDbEntity
  8
0
100
AcDbLine
 62
7
  6
CONTINUOUS
 10
57.9954987481
 20
36.502895276
 11
57.9134994164
 21
36.4555405421
  0
LINE
  5
5FB
100
AcDbEntity
  8
0
100
AcDbLine
 62
7
  6
CONTINUOUS
 10
55.6458887018
 20
29.7414343508
 11
55.6458887018
 21
29.7900503915
  0
LINE
  5
5FC
100
AcDbEntity
  8
0
100
AcDbLine
 62
9
  6
CONTINUOUS
 10
55.6500645293
 20
33.5552420934
 11
55.6500645293
 21
34.0494055833
  0
LINE
  5
5FD
100
AcDbEntity
  8
0
100
AcDbLine
 62
7
  6
CONTINUOUS
 10
55.7524961699
 20
33.2288932957
 11
55.7524961699
 21
32.8431973979
  0
LINE
  5
5FE
100
AcDbEntity
  8
0
100
AcDbLine
 62
7
  6
CONTINUOUS
 10
55.7580425091
 20
34.0021184429
 11
55.7580425091
 21
33.4969852712
  0
LINE
  5
5FF
100
AcDbEntity
  8
0
100
AcDbLine
 62
7
  6
CONTINUOUS
 10
55.7948327477
 20
33.13049693
 11
55.7948327477
 21
33.9860067767
  0
LINE
  5
600
100
AcDbEntity
  8
0
100
AcDbLine
 62
7
  6
CONTINUOUS
 10
55.8376248201
 20
33.9683438709
 11
55.8376248201
 21
33.1092251179
  0
LINE
  5
601
100
AcDbEntity
  8
0
100
AcDbLine
 62
7
  6
CONTINUOUS
 10
57.9433398794
 20
36.4218415919
 11
58.053798867
 21
36.4856318188
  0
LINE
  5
602
100
AcDbEntity
  8
0
100
AcDbLine
 62
7
  6
CONTINUOUS
 10
57.9433398794
 20
36.4154133269
 11
58.053798867
 21
36.4792035538
  0
LINE
  5
603
100
AcDbEntity
  8
0
100
AcDbLine
 62
7
  6
CONTINUOUS
 10
57.9554358596
 20
36.403763032
 11
57.9435124803
 21
36.396877263
  0
LINE
  5
604
100
AcDbEntity
  8
0
100
AcDbLine
 62
7
  6
CONTINUOUS
 10
58.127997753
 20
36.412605369
 11
58.1399211323
 21
36.4194911379
  0
LINE
  5
605
100
AcDbEntity
  8
0
100
AcDbLine
 62
7
  6
CONTINUOUS
 10
58.127997753
 20
36.406177104
 11
58.1399211323
 21
36.413062873
  0
LINE
  5
606
100
AcDbEntity
  8
0
100
AcDbLine
 62
7
  6
CONTINUOUS
 10
58.211876207
 20
36.2969958318
 11
58.1999528277
 21
36.2901100628
  0
LINE
  5
607
100
AcDbEntity
  8
0
100
AcDbLine
 62
7
  6
CONTINUOUS
 10
58.3844353166
 20
36.3058397765
 11
58.3963586959
 21
36.3127255455
  0
LINE
  5
608
100
AcDbEntity
  8
0
100
AcDbLine
 62
7
  6
CONTINUOUS
 10
58.3844353166
 20
36.2994115116
 11
58.3963586959
 21
36.3062972805
  0
LINE
  5
609
100
AcDbEntity
  8
0
100
AcDbLine
 62
7
  6
CONTINUOUS
 10
56.0871344688
 20
33.0356391888
 11
56.0871344688
 21
33.3570524369
  0
LINE
  5
60A
100
AcDbEntity
  8
0
100
AcDbLine
 62
7
  6
CONTINUOUS
 10
56.2107984146
 20
33.8471696046
 11
56.2107984146
 21
33.4284685464
  0
LINE
  5
60B
100
AcDbEntity
  8
0
100
AcDbLine
 62
7
  6
CONTINUOUS
 10
56.4156328948
 20
32.4602349697
 11
56.4156328948
 21
33.1673441156
  0
LINE
  5
60C
100
AcDbEntity
  8
0
100
AcDbLine
 62
7
  6
CONTINUOUS
 10
58.3724367724
 20
36.190503548
 11
58.4544361041
 21
36.2378582819
  0
LINE
  5
60D
100
AcDbEntity
  8
0
100
AcDbLine
 62
7
  6
CONTINUOUS
 10
58.3724367724
 20
36.184075283
 11
58.4544361041
 21
36.2314300169
  0
LINE
  5
60E
100
AcDbEntity
  8
0
100
AcDbLine
 62
7
  6
CONTINUOUS
 10
58.5640014646
 20
36.0385471826
 11
58.5759248439
 21
36.0454329516
  0
LINE
  5
60F
100
AcDbEntity
  8
0
100
AcDbLine
 62
7
  6
CONTINUOUS
 10
58.7056399639
 20
36.120343623
 11
58.7175633432
 21
36.127229392
  0
LINE
  5
610
100
AcDbEntity
  8
0
100
AcDbLine
 62
7
  6
CONTINUOUS
 10
58.5640014646
 20
36.0321189177
 11
58.5759248439
 21
36.0390046866
  0
LINE
  5
611
100
AcDbEntity
  8
0
100
AcDbLine
 62
7
  6
CONTINUOUS
 10
58.7056399639
 20
36.1139153581
 11
58.7175633432
 21
36.1208011271
  0
LINE
  5
612
100
AcDbEntity
  8
0
100
AcDbLine
 62
7
  6
CONTINUOUS
 10
55.7524961699
 20
32.8431973979
 11
56.4156328948
 21
32.4602349697
  0
LINE
  5
613
100
AcDbEntity
  8
0
100
AcDbLine
 62
7
  6
CONTINUOUS
 10
56.6661825416
 20
33.3120369031
 11
56.6661825416
 21
32.6049277571
  0
LINE
  5
614
100
AcDbEntity
  8
0
100
AcDbLine
 62
7
  6
CONTINUOUS
 10
55.7524961699
 20
33.2288932957
 11
55.7948327477
 21
33.2044438601
  0
LINE
  5
615
100
AcDbEntity
  8
0
100
AcDbLine
 62
7
  6
CONTINUOUS
 10
55.9404316806
 20
33.1203602635
 11
56.0871344688
 21
33.0356391888
  0
LINE
  5
616
100
AcDbEntity
  8
0
100
AcDbLine
 62
7
  6
CONTINUOUS
 10
56.0871344688
 20
33.3570524369
 11
56.4156328948
 21
33.1673441156
  0
LINE
  5
617
100
AcDbEntity
  8
0
100
AcDbLine
 62
7
  6
CONTINUOUS
 10
55.4607665518
 20
33.0662900481
 11
55.6202472335
 21
33.1583903749
  0
LINE
  5
618
100
AcDbEntity
  8
0
100
AcDbLine
 62
7
  6
CONTINUOUS
 10
56.6661825416
 20
33.3120369031
 11
56.3376841157
 21
33.5017452243
  0
LINE
  5
619
100
AcDbEntity
  8
0
100
AcDbLine
 62
9
  6
CONTINUOUS
 10
57.6430533437
 20
36.5501930507
 11
57.6430533437
 21
36.5566213157
  0
LINE
  5
61A
100
AcDbEntity
  8
0
100
AcDbLine
 62
9
  6
CONTINUOUS
 10
57.7150362573
 20
36.5637250417
 11
57.7150362573
 21
36.5701533067
  0
LINE
  5
61B
100
AcDbEntity
  8
0
100
AcDbLine
 62
7
  6
CONTINUOUS
 10
57.7240588284
 20
36.7498431163
 11
57.7240588284
 21
36.7468305488
  0
LINE
  5
61C
100
AcDbEntity
  8
0
100
AcDbLine
 62
7
  6
CONTINUOUS
 10
56.3376841157
 20
33.5017452243
 11
56.0871344688
 21
33.3570524369
  0
LINE
  5
61D
100
AcDbEntity
  8
0
100
AcDbLine
 62
7
  6
CONTINUOUS
 10
56.4156328948
 20
33.1673441156
 11
56.6661825416
 21
33.3120369031
  0
LINE
  5
61E
100
AcDbEntity
  8
0
100
AcDbLine
 62
7
  6
CONTINUOUS
 10
57.7653660296
 20
36.4613339946
 11
57.7653660296
 21
36.4677622595
  0
LINE
  5
61F
100
AcDbEntity
  8
0
100
AcDbLine
 62
9
  6
CONTINUOUS
 10
57.7676238443
 20
36.4581861226
 11
57.7676238443
 21
36.4646143876
  0
LINE
  5
620
100
AcDbEntity
  8
0
100
AcDbLine
 62
9
  6
CONTINUOUS
 10
57.7970355889
 20
36.6110797757
 11
57.7970355889
 21
36.6175080406
  0
LINE
  5
621
100
AcDbEntity
  8
0
100
AcDbLine
 62
9
  6
CONTINUOUS
 10
57.8191145806
 20
36.4284501471
 11
57.8191145806
 21
36.434878412
  0
LINE
  5
622
100
AcDbEntity
  8
0
100
AcDbLine
 62
9
  6
CONTINUOUS
 10
57.8208934831
 20
36.6110797757
 11
57.8208934831
 21
36.6175080406
  0
LINE
  5
623
100
AcDbEntity
  8
0
100
AcDbLine
 62
9
  6
CONTINUOUS
 10
57.8300162741
 20
36.4284501471
 11
57.8300162741
 21
36.434878412
  0
LINE
  5
624
100
AcDbEntity
  8
0
100
AcDbLine
 62
7
  6
CONTINUOUS
 10
57.8419368695
 20
36.4353343084
 11
57.8419368695
 21
36.4417625733
  0
LINE
  5
625
100
AcDbEntity
  8
0
100
AcDbLine
 62
9
  6
CONTINUOUS
 10
57.8680497105
 20
36.4202541045
 11
57.8680497105
 21
36.4266823695
  0
LINE
  5
626
100
AcDbEntity
  8
0
100
AcDbLine
 62
9
  6
CONTINUOUS
 10
57.8896470901
 20
36.4628870305
 11
57.8896470901
 21
36.4693152954
  0
LINE
  5
627
100
AcDbEntity
  8
0
100
AcDbLine
 62
7
  6
CONTINUOUS
 10
57.8919049047
 20
36.4660349025
 11
57.8919049047
 21
36.4724631674
  0
LINE
  5
628
100
AcDbEntity
  8
0
100
AcDbLine
 62
9
  6
CONTINUOUS
 10
57.9433398794
 20
36.4154133269
 11
57.9433398794
 21
36.4218415919
  0
LINE
  5
629
100
AcDbEntity
  8
0
100
AcDbLine
 62
9
  6
CONTINUOUS
 10
57.9435124803
 20
36.3766710293
 11
57.9435124803
 21
36.3830992942
  0
LINE
  5
62A
100
AcDbEntity
  8
0
100
AcDbLine
 62
9
  6
CONTINUOUS
 10
57.9954987481
 20
36.5102449798
 11
57.9954987481
 21
36.5166732448
  0
LINE
  5
62B
100
AcDbEntity
  8
0
100
AcDbLine
 62
9
  6
CONTINUOUS
 10
58.0435680898
 20
36.4015437194
 11
58.0435680898
 21
36.4079719844
  0
LINE
  5
62C
100
AcDbEntity
  8
0
100
AcDbLine
 62
9
  6
CONTINUOUS
 10
58.053798867
 20
36.4792035538
 11
58.053798867
 21
36.4856318188
  0
LINE
  5
62D
100
AcDbEntity
  8
0
100
AcDbLine
 62
9
  6
CONTINUOUS
 10
58.127997753
 20
36.406177104
 11
58.127997753
 21
36.412605369
  0
LINE
  5
62E
100
AcDbEntity
  8
0
100
AcDbLine
 62
9
  6
CONTINUOUS
 10
58.1399211323
 20
36.413062873
 11
58.1399211323
 21
36.4194911379
  0
LINE
  5
62F
100
AcDbEntity
  8
0
100
AcDbLine
 62
9
  6
CONTINUOUS
 10
58.1637790265
 20
36.413062873
 11
58.1637790265
 21
36.4194911379
  0
LINE
  5
630
100
AcDbEntity
  8
0
100
AcDbLine
 62
9
  6
CONTINUOUS
 10
58.1904430767
 20
36.2340682488
 11
58.1904430767
 21
36.2404965137
  0
LINE
  5
631
100
AcDbEntity
  8
0
100
AcDbLine
 62
9
  6
CONTINUOUS
 10
58.211876207
 20
36.3043455356
 11
58.211876207
 21
36.3107738006
  0
LINE
  5
632
100
AcDbEntity
  8
0
100
AcDbLine
 62
9
  6
CONTINUOUS
 10
58.2851508432
 20
36.2412643034
 11
58.2851508432
 21
36.2476925684
  0
LINE
  5
633
100
AcDbEntity
  8
0
100
AcDbLine
 62
9
  6
CONTINUOUS
 10
58.3015507095
 20
36.1699066437
 11
58.3015507095
 21
36.1763349087
  0
LINE
  5
634
100
AcDbEntity
  8
0
100
AcDbLine
 62
9
  6
CONTINUOUS
 10
58.3605774224
 20
36.2994115116
 11
58.3605774224
 21
36.3058397765
  0
LINE
  5
635
100
AcDbEntity
  8
0
100
AcDbLine
 62
9
  6
CONTINUOUS
 10
58.3724367724
 20
36.184075283
 11
58.3724367724
 21
36.190503548
  0
LINE
  5
636
100
AcDbEntity
  8
0
100
AcDbLine
 62
9
  6
CONTINUOUS
 10
58.3844353166
 20
36.2994115116
 11
58.3844353166
 21
36.3058397765
  0
LINE
  5
637
100
AcDbEntity
  8
0
100
AcDbLine
 62
9
  6
CONTINUOUS
 10
58.3963586959
 20
36.3062972805
 11
58.3963586959
 21
36.3127255455
  0
LINE
  5
638
100
AcDbEntity
  8
0
100
AcDbLine
 62
9
  6
CONTINUOUS
 10
58.4544361041
 20
36.2314300169
 11
58.4544361041
 21
36.2378582819
  0
LINE
  5
639
100
AcDbEntity
  8
0
100
AcDbLine
 62
9
  6
CONTINUOUS
 10
58.4782939982
 20
36.2314300169
 11
58.4782939982
 21
36.2378582819
  0
LINE
  5
63A
100
AcDbEntity
  8
0
100
AcDbLine
 62
9
  6
CONTINUOUS
 10
58.5401435705
 20
36.0321189177
 11
58.5401435705
 21
36.0385471826
  0
LINE
  5
63B
100
AcDbEntity
  8
0
100
AcDbLine
 62
9
  6
CONTINUOUS
 10
58.5640014646
 20
36.0321189177
 11
58.5640014646
 21
36.0385471826
  0
LINE
  5
63C
100
AcDbEntity
  8
0
100
AcDbLine
 62
9
  6
CONTINUOUS
 10
58.5759248439
 20
36.0390046866
 11
58.5759248439
 21
36.0454329516
  0
LINE
  5
63D
100
AcDbEntity
  8
0
100
AcDbLine
 62
7
  6
CONTINUOUS
 10
56.4156328948
 20
32.4602349697
 11
56.6661825416
 21
32.6049277571
  0
LINE
  5
63E
100
AcDbEntity
  8
0
100
AcDbLine
 62
9
  6
CONTINUOUS
 10
58.6817820697
 20
36.1139153581
 11
58.6817820697
 21
36.120343623
  0
LINE
  5
63F
100
AcDbEntity
  8
0
100
AcDbLine
 62
9
  6
CONTINUOUS
 10
58.7056399639
 20
36.1139153581
 11
58.7056399639
 21
36.120343623
  0
LINE
  5
640
100
AcDbEntity
  8
0
100
AcDbLine
 62
9
  6
CONTINUOUS
 10
58.7175633432
 20
36.1208011271
 11
58.7175633432
 21
36.127229392
  0
LINE
  5
641
100
AcDbEntity
  8
7_ALL_ROUNDS
100
AcDbLine
 62
7
  6
CONTINUOUS
 10
55.3324465579
 20
30.946233688
 11
54.4529939942
 21
30.4383485466
  0
LINE
  5
642
100
AcDbEntity
  8
0
100
AcDbLine
 62
7
  6
CONTINUOUS
 10
61.0368819372
 20
34.1480396748
 11
60.8315119585
 21
34.0294382118
  0
LINE
  5
643
100
AcDbEntity
  8
0
100
AcDbLine
 62
7
  6
CONTINUOUS
 10
60.9589331581
 20
33.8136385661
 11
61.287431584
 21
34.0033468874
  0
LINE
  5
644
100
AcDbEntity
  8
0
100
AcDbLine
 62
7
  6
CONTINUOUS
 10
60.6351970633
 20
33.4155209734
 11
60.794677745
 21
33.3234206466
  0
LINE
  5
645
100
AcDbEntity
  8
0
100
AcDbLine
 62
7
  6
CONTINUOUS
 10
60.9589331581
 20
33.492225318
 11
60.8315119585
 21
33.5658112471
  0
LINE
  5
646
100
AcDbEntity
  8
0
100
AcDbLine
 62
7
  6
CONTINUOUS
 10
60.6242948592
 20
33.298971211
 11
60.730654591
 21
33.3603941116
  0
LINE
  5
647
100
AcDbEntity
  8
0
100
AcDbLine
 62
7
  6
CONTINUOUS
 10
60.8315119585
 20
33.4186393888
 11
60.9589331581
 21
33.492225318
  0
LINE
  5
648
100
AcDbEntity
  8
0
100
AcDbLine
 62
7
  6
CONTINUOUS
 10
60.8315119585
 20
33.8872244952
 11
60.9589331581
 21
33.8136385661
  0
LINE
  5
649
100
AcDbEntity
  8
0
100
AcDbLine
 62
7
  6
CONTINUOUS
 10
60.0446458822
 20
33.8476059108
 11
60.0446458822
 21
33.0791480485
  0
LINE
  5
64A
100
AcDbEntity
  8
0
100
AcDbLine
 62
7
  6
CONTINUOUS
 10
60.2414962759
 20
32.88538972
 11
60.2414962759
 21
32.7577348004
  0
LINE
  5
64B
100
AcDbEntity
  8
0
100
AcDbLine
 62
7
  6
CONTINUOUS
 10
60.6242948592
 20
32.9132753132
 11
61.287431584
 21
33.2962377414
  0
LINE
  5
64C
100
AcDbEntity
  8
7_ALL_ROUNDS
100
AcDbLine
 62
9
  6
CONTINUOUS
 10
55.0181226422
 20
29.4689068709
 11
55.4844233739
 21
29.7381962252
  0
LINE
  5
64D
100
AcDbEntity
  8
7_ALL_ROUNDS
100
AcDbLine
 62
9
  6
CONTINUOUS
 10
55.0459614918
 20
29.4206885697
 11
55.5122622235
 21
29.689977924
  0
LINE
  5
64E
100
AcDbEntity
  8
0
100
AcDbLine
 62
7
  6
CONTINUOUS
 10
55.3327016432
 20
29.5605683665
 11
55.5122622235
 21
29.6642648642
  0
LINE
  5
64F
100
AcDbEntity
  8
0
100
AcDbLine
 62
7
  6
CONTINUOUS
 10
55.6458887018
 20
29.7414343508
 11
55.675042987
 21
29.7582709931
  0
LINE
  5
650
100
AcDbEntity
  8
0
100
AcDbLine
 62
7
  6
CONTINUOUS
 10
61.287431584
 20
34.0033468874
 11
61.0368819372
 21
34.1480396748
  0
LINE
  5
651
100
AcDbEntity
  8
0
100
AcDbLine
 62
7
  6
CONTINUOUS
 10
60.4178194767
 20
33.9745802239
 11
60.4178194767
 21
32.8520945194
  0
LINE
  5
652
100
AcDbEntity
  8
0
100
AcDbLine
 62
7
  6
CONTINUOUS
 10
60.4606115491
 20
32.8733663315
 11
60.4606115491
 21
33.9907891429
  0
LINE
  5
653
100
AcDbEntity
  8
0
100
AcDbLine
 62
7
  6
CONTINUOUS
 10
60.4974017877
 20
34.0047246679
 11
60.4974017877
 21
33.4969852712
  0
LINE
  5
654
100
AcDbEntity
  8
0
100
AcDbLine
 62
9
  6
CONTINUOUS
 10
60.6053797675
 20
33.5552420934
 11
60.6053797675
 21
34.0456249148
  0
LINE
  5
655
100
AcDbEntity
  8
0
100
AcDbLine
 62
7
  6
CONTINUOUS
 10
60.6242948592
 20
33.298971211
 11
60.6242948592
 21
32.9132753132
  0
LINE
  5
656
100
AcDbEntity
  8
0
100
AcDbLine
 62
7
  6
CONTINUOUS
 10
60.6351970633
 20
33.4969852712
 11
60.6351970633
 21
33.3362786471
  0
LINE
  5
657
100
AcDbEntity
  8
0
100
AcDbLine
 62
7
  6
CONTINUOUS
 10
60.6351970633
 20
32.919571352
 11
60.6351970633
 21
32.7577348004
  0
LINE
  5
658
100
AcDbEntity
  8
0
100
AcDbLine
 62
7
  6
CONTINUOUS
 10
55.0459614918
 20
29.0735622616
 11
55.3327016432
 21
29.2391551184
  0
LINE
  5
659
100
AcDbEntity
  8
0
100
AcDbLine
 62
7
  6
CONTINUOUS
 10
57.7676238443
 20
36.4581861226
 11
57.8191145806
 21
36.4284501471
  0
LINE
  5
65A
100
AcDbEntity
  8
0
100
AcDbLine
 62
7
  6
CONTINUOUS
 10
57.7676238443
 20
36.4646143876
 11
57.8191145806
 21
36.434878412
  0
LINE
  5
65B
100
AcDbEntity
  8
0
100
AcDbLine
 62
7
  6
CONTINUOUS
 10
57.9435124803
 20
36.3766710293
 11
58.1904430767
 21
36.2340682488
  0
LINE
  5
65C
100
AcDbEntity
  8
0
100
AcDbLine
 62
7
  6
CONTINUOUS
 10
57.8419368695
 20
36.4353343084
 11
57.8680497105
 21
36.4202541045
  0
LINE
  5
65D
100
AcDbEntity
  8
0
100
AcDbLine
 62
7
  6
CONTINUOUS
 10
58.3015507095
 20
36.1699066437
 11
58.5401435705
 21
36.0321189177
  0
LINE
  5
65E
100
AcDbEntity
  8
0
100
AcDbLine
 62
7
  6
CONTINUOUS
 10
57.6430533437
 20
36.5501930507
 11
57.7732579834
 21
36.4749996809
  0
LINE
  5
65F
100
AcDbEntity
  8
0
100
AcDbLine
 62
7
  6
CONTINUOUS
 10
57.9435124803
 20
36.3830992942
 11
58.1904430767
 21
36.2404965137
  0
LINE
  5
660
100
AcDbEntity
  8
0
100
AcDbLine
 62
7
  6
CONTINUOUS
 10
57.8419368695
 20
36.4417625733
 11
57.8680497105
 21
36.4266823695
  0
LINE
  5
661
100
AcDbEntity
  8
0
100
AcDbLine
 62
7
  6
CONTINUOUS
 10
58.3015507095
 20
36.1763349087
 11
58.5401435705
 21
36.0385471826
  0
LINE
  5
662
100
AcDbEntity
  8
0
100
AcDbLine
 62
7
  6
CONTINUOUS
 10
57.6430533437
 20
36.5566213157
 11
57.7795472236
 21
36.4777959005
  0
LINE
  5
663
100
AcDbEntity
  8
0
100
AcDbLine
 62
7
  6
CONTINUOUS
 10
58.1760949336
 20
36.2901100628
 11
57.9792937537
 21
36.403763032
  0
LINE
  5
664
100
AcDbEntity
  8
0
100
AcDbLine
 62
7
  6
CONTINUOUS
 10
58.5759248439
 20
36.0592109204
 11
58.3724367724
 21
36.1767255792
  0
LINE
  5
665
100
AcDbEntity
  8
0
100
AcDbLine
 62
7
  6
CONTINUOUS
 10
57.8896415223
 20
36.4555405421
 11
57.877718143
 21
36.4624263111
  0
LINE
  5
666
100
AcDbEntity
  8
0
100
AcDbLine
 62
7
  6
CONTINUOUS
 10
57.8153257131
 20
36.4984580305
 11
57.7150362573
 21
36.5563753379
  0
LINE
  5
667
100
AcDbEntity
  8
0
100
AcDbLine
 62
7
  6
CONTINUOUS
 10
57.8896470901
 20
36.4756110394
 11
57.8381563537
 21
36.5053470149
  0
LINE
  5
668
100
AcDbEntity
  8
0
100
AcDbLine
 62
7
  6
CONTINUOUS
 10
58.0435680898
 20
36.4015437194
 11
58.211876207
 21
36.3043455356
  0
LINE
  5
669
100
AcDbEntity
  8
0
100
AcDbLine
 62
7
  6
CONTINUOUS
 10
58.0435680898
 20
36.4079719844
 11
58.211876207
 21
36.3107738006
  0
LINE
  5
66A
100
AcDbEntity
  8
0
100
AcDbLine
 62
7
  6
CONTINUOUS
 10
58.2963058703
 20
36.3016292164
 11
58.127997753
 21
36.3988274002
  0
LINE
  5
66B
100
AcDbEntity
  8
0
100
AcDbLine
 62
7
  6
CONTINUOUS
 10
57.8208934831
 20
36.6110797757
 11
57.9954987481
 21
36.5102449798
  0
LINE
  5
66C
100
AcDbEntity
  8
0
100
AcDbLine
 62
7
  6
CONTINUOUS
 10
58.1637790265
 20
36.413062873
 11
58.3605774224
 21
36.2994115116
  0
LINE
  5
66D
100
AcDbEntity
  8
0
100
AcDbLine
 62
7
  6
CONTINUOUS
 10
58.4782939982
 20
36.2314300169
 11
58.6817820697
 21
36.1139153581
  0
LINE
  5
66E
100
AcDbEntity
  8
0
100
AcDbLine
 62
7
  6
CONTINUOUS
 10
57.8208934831
 20
36.6175080406
 11
57.9954987481
 21
36.5166732448
  0
LINE
  5
66F
100
AcDbEntity
  8
0
100
AcDbLine
 62
7
  6
CONTINUOUS
 10
58.1637790265
 20
36.4194911379
 11
58.3605774224
 21
36.3058397765
  0
LINE
  5
670
100
AcDbEntity
  8
0
100
AcDbLine
 62
7
  6
CONTINUOUS
 10
58.4782939982
 20
36.2378582819
 11
58.6817820697
 21
36.120343623
  0
LINE
  5
671
100
AcDbEntity
  8
0
100
AcDbLine
 62
7
  6
CONTINUOUS
 10
58.7175633432
 20
36.1410073608
 11
58.4789704823
 21
36.2787950869
  0
LINE
  5
672
100
AcDbEntity
  8
0
100
AcDbLine
 62
7
  6
CONTINUOUS
 10
58.3963586959
 20
36.3265035143
 11
58.1494280995
 21
36.4691062948
  0
LINE
  5
673
100
AcDbEntity
  8
0
100
AcDbLine
 62
7
  6
CONTINUOUS
 10
58.0454722671
 20
36.52914094
 11
57.8204703326
 21
36.6590798862
  0
LINE
  5
674
100
AcDbEntity
  8
0
100
AcDbLine
 62
7
  6
CONTINUOUS
 10
58.8071482853
 20
36.1213448038
 11
57.7240588284
 21
36.7468305488
  0
LINE
  5
675
100
AcDbEntity
  8
0
100
AcDbLine
 62
7
  6
CONTINUOUS
 10
60.794677745
 20
33.3234206466
 11
60.794677745
 21
34.1339779731
  0
LINE
  5
676
100
AcDbEntity
  8
0
100
AcDbLine
 62
7
  6
CONTINUOUS
 10
60.8315119585
 20
34.1525260315
 11
60.8315119585
 21
33.348133131
  0
LINE
  5
677
100
AcDbEntity
  8
0
100
AcDbLine
 62
7
  6
CONTINUOUS
 10
60.922997739
 20
30.6182894538
 11
60.922997739
 21
33.0857766631
  0
LINE
  5
678
100
AcDbEntity
  8
0
100
AcDbLine
 62
7
  6
CONTINUOUS
 10
60.922997739
 20
34.0822713839
 11
60.922997739
 21
34.1985941686
  0
LINE
  5
679
100
AcDbEntity
  8
0
100
AcDbLine
 62
7
  6
CONTINUOUS
 10
60.9589331581
 20
33.492225318
 11
60.9589331581
 21
33.8136385661
  0
LINE
  5
67A
100
AcDbEntity
  8
0
100
AcDbLine
 62
7
  6
CONTINUOUS
 10
61.287431584
 20
34.0033468874
 11
61.287431584
 21
33.2962377414
  0
LINE
  5
67B
100
AcDbEntity
  8
0
100
AcDbLine
 62
7
  6
CONTINUOUS
 10
61.5529189988
 20
36.0193176759
 11
61.5529189988
 21
36.1658821171
  0
LINE
  5
67C
100
AcDbEntity
  8
0
100
AcDbLine
 62
7
  6
CONTINUOUS
 10
46.9516435741
 20
26.9387909542
 11
46.9516435741
 21
27.0175311117
  0
LINE
  5
67D
100
AcDbEntity
  8
7_ALL_ROUNDS
100
AcDbLine
 62
7
  6
CONTINUOUS
 10
50.9477065662
 20
19.3277673321
 11
51.3414073536
 21
19.3277673321
  0
LINE
  5
67E
100
AcDbEntity
  8
7_ALL_ROUNDS
100
AcDbLine
 62
7
  6
CONTINUOUS
 10
51.4673916056
 20
19.3828854424
 11
51.4402374677
 21
19.3828854424
  0
LINE
  5
67F
100
AcDbEntity
  8
0
100
AcDbLine
 62
7
  6
CONTINUOUS
 10
51.6343750997
 20
19.3828854424
 11
51.4673916056
 21
19.3828854424
  0
LINE
  5
680
100
AcDbEntity
  8
7_ALL_ROUNDS
100
AcDbLine
 62
7
  6
CONTINUOUS
 10
50.8488764521
 20
19.3828854424
 11
50.8217223143
 21
19.3828854424
  0
LINE
  5
681
100
AcDbEntity
  8
0
100
AcDbLine
 62
7
  6
CONTINUOUS
 10
50.8217223143
 20
19.426192529
 11
50.7902262513
 21
19.426192529
  0
LINE
  5
682
100
AcDbEntity
  8
7_ALL_ROUNDS
100
AcDbLine
 62
7
  6
CONTINUOUS
 10
50.8217223143
 20
19.426192529
 11
50.7902262513
 21
19.426192529
  0
LINE
  5
683
100
AcDbEntity
  8
0
100
AcDbLine
 62
7
  6
CONTINUOUS
 10
51.0239730091
 20
19.5059169384
 11
51.2651409108
 21
19.5059169384
  0
LINE
  5
684
100
AcDbEntity
  8
0
100
AcDbLine
 62
7
  6
CONTINUOUS
 10
51.4673916056
 20
19.5059169384
 11
51.6957380623
 21
19.5059169384
  0
LINE
  5
685
100
AcDbEntity
  8
0
100
AcDbLine
 62
7
  6
CONTINUOUS
 10
52.2744782198
 20
19.5088696944
 11
52.3532183772
 21
19.5088696944
  0
LINE
  5
686
100
AcDbEntity
  8
0
100
AcDbLine
 62
7
  6
CONTINUOUS
 10
47.6012498733
 20
26.4962712692
 11
47.6012498733
 21
26.9387909542
  0
LINE
  5
687
100
AcDbEntity
  8
0
100
AcDbLine
 62
7
  6
CONTINUOUS
 10
47.6091326575
 20
25.000208277
 11
47.6091326575
 21
26.4962712692
  0
LINE
  5
688
100
AcDbEntity
  8
0
100
AcDbLine
 62
7
  6
CONTINUOUS
 10
47.6133454999
 20
26.4962712692
 11
47.6133454999
 21
25.3151689069
  0
LINE
  5
689
100
AcDbEntity
  8
0
100
AcDbLine
 62
7
  6
CONTINUOUS
 10
47.6799900308
 20
25.3151689069
 11
47.6799900308
 21
24.6065074896
  0
LINE
  5
68A
100
AcDbEntity
  8
0
100
AcDbLine
 62
7
  6
CONTINUOUS
 10
47.6996750702
 20
25.7088696944
 11
47.6996750702
 21
24.8427279621
  0
LINE
  5
68B
100
AcDbEntity
  8
7_ALL_ROUNDS
100
AcDbLine
 62
9
  6
CONTINUOUS
 10
51.4673916056
 20
19.5797358361
 11
51.4595175898
 21
19.5797358361
  0
LINE
  5
68C
100
AcDbEntity
  8
3_AXES_OTHER
100
AcDbLine
 62
7
  6
CENTER
 10
51.1445569599
 20
19.6033578833
 11
50.7890451489
 21
19.6033578833
  0
LINE
  5
68D
100
AcDbEntity
  8
3_AXES_OTHER
100
AcDbLine
 62
7
  6
CENTER
 10
51.1445569599
 20
19.6033578833
 11
51.5000687709
 21
19.6033578833
  0
LINE
  5
68E
100
AcDbEntity
  8
0
100
AcDbLine
 62
7
  6
CONTINUOUS
 10
50.997896208
 20
19.6535547337
 11
51.2912177119
 21
19.6535547337
  0
LINE
  5
68F
100
AcDbEntity
  8
0
100
AcDbLine
 62
7
  6
CONTINUOUS
 10
51.4673916056
 20
19.6535547337
 11
51.6957380623
 21
19.6535547337
  0
LINE
  5
690
100
AcDbEntity
  8
7_ALL_ROUNDS
100
AcDbLine
 62
9
  6
CONTINUOUS
 10
51.4595175898
 20
19.6584759936
 11
51.4673916056
 21
19.6584759936
  0
LINE
  5
691
100
AcDbEntity
  8
0
100
AcDbLine
 62
7
  6
CONTINUOUS
 10
50.8217223143
 20
19.7332791432
 11
50.7902262513
 21
19.7332791432
  0
LINE
  5
692
100
AcDbEntity
  8
7_ALL_ROUNDS
100
AcDbLine
 62
7
  6
CONTINUOUS
 10
50.8217223143
 20
19.7332791432
 11
50.7902262513
 21
19.7332791432
  0
LINE
  5
693
100
AcDbEntity
  8
7_ALL_ROUNDS
100
AcDbLine
 62
7
  6
CONTINUOUS
 10
51.8807774324
 20
19.737216151
 11
51.7469191647
 21
19.737216151
  0
LINE
  5
694
100
AcDbEntity
  8
7_ALL_ROUNDS
100
AcDbLine
 62
7
  6
CONTINUOUS
 10
50.5421947552
 20
19.737216151
 11
50.4083364875
 21
19.737216151
  0
LINE
  5
695
100
AcDbEntity
  8
7_ALL_ROUNDS
100
AcDbLine
 62
7
  6
CONTINUOUS
 10
50.3497045909
 20
19.7608381983
 11
50.203612078
 21
19.7608381983
  0
LINE
  5
696
100
AcDbEntity
  8
0
100
AcDbLine
 62
7
  6
CONTINUOUS
 10
52.6012498733
 20
19.7765862298
 11
52.4319585347
 21
19.7765862298
  0
LINE
  5
697
100
AcDbEntity
  8
7_ALL_ROUNDS
100
AcDbLine
 62
7
  6
CONTINUOUS
 10
50.8217223143
 20
19.7765862298
 11
50.82959633
 21
19.7765862298
  0
LINE
  5
698
100
AcDbEntity
  8
7_ALL_ROUNDS
100
AcDbLine
 62
9
  6
CONTINUOUS
 10
51.9673916056
 20
19.8238303243
 11
51.6603049914
 21
19.8238303243
  0
LINE
  5
699
100
AcDbEntity
  8
7_ALL_ROUNDS
100
AcDbLine
 62
9
  6
CONTINUOUS
 10
50.6288089284
 20
19.8238303243
 11
50.3217223143
 21
19.8238303243
  0
LINE
  5
69A
100
AcDbEntity
  8
7_ALL_ROUNDS
100
AcDbLine
 62
9
  6
CONTINUOUS
 10
50.3217223143
 20
19.8395783558
 11
50.1248719206
 21
19.8395783558
  0
LINE
  5
69B
100
AcDbEntity
  8
0
100
AcDbLine
 62
7
  6
CONTINUOUS
 10
52.7587301883
 20
19.8553263873
 11
51.4673916056
 21
19.8553263873
  0
LINE
  5
69C
100
AcDbEntity
  8
0
100
AcDbLine
 62
7
  6
CONTINUOUS
 10
50.8217223143
 20
19.8553263873
 11
49.8453443615
 21
19.8553263873
  0
LINE
  5
69D
100
AcDbEntity
  8
7_ALL_ROUNDS
100
AcDbLine
 62
7
  6
CONTINUOUS
 10
51.4595175898
 20
19.8553263873
 11
51.4673916056
 21
19.8553263873
  0
LINE
  5
69E
100
AcDbEntity
  8
0
100
AcDbLine
 62
7
  6
CONTINUOUS
 10
52.7587301883
 20
19.9025704818
 11
51.4595175898
 21
19.9025704818
  0
LINE
  5
69F
100
AcDbEntity
  8
0
100
AcDbLine
 62
7
  6
CONTINUOUS
 10
50.82959633
 20
19.9025704818
 11
49.5303837316
 21
19.9025704818
  0
LINE
  5
6A0
100
AcDbEntity
  8
7_ALL_ROUNDS
100
AcDbLine
 62
7
  6
CONTINUOUS
 10
52.7587301883
 20
19.9025704818
 11
53.9004624717
 21
19.9025704818
  0
LINE
  5
6A1
100
AcDbEntity
  8
0
100
AcDbLine
 62
7
  6
CONTINUOUS
 10
47.8177853064
 20
24.6065074896
 11
47.8177853064
 21
24.5277673321
  0
LINE
  5
6A2
100
AcDbEntity
  8
0
100
AcDbLine
 62
7
  6
CONTINUOUS
 10
47.9358955426
 20
24.6065074896
 11
47.9358955426
 21
24.5277673321
  0
LINE
  5
6A3
100
AcDbEntity
  8
0
100
AcDbLine
 62
7
  6
CONTINUOUS
 10
48.0540057788
 20
24.8427279621
 11
48.0540057788
 21
25.7088696944
  0
LINE
  5
6A4
100
AcDbEntity
  8
0
100
AcDbLine
 62
7
  6
CONTINUOUS
 10
48.0736908182
 20
25.3151689069
 11
48.0736908182
 21
24.6065074896
  0
LINE
  5
6A5
100
AcDbEntity
  8
7_ALL_ROUNDS
100
AcDbLine
 62
7
  6
CONTINUOUS
 10
53.5461317631
 20
19.957688592
 11
51.4595175898
 21
19.957688592
  0
LINE
  5
6A6
100
AcDbEntity
  8
7_ALL_ROUNDS
100
AcDbLine
 62
7
  6
CONTINUOUS
 10
50.82959633
 20
19.957688592
 11
48.7429821568
 21
19.957688592
  0
LINE
  5
6A7
100
AcDbEntity
  8
7_ALL_ROUNDS
100
AcDbLine
 62
7
  6
CONTINUOUS
 10
53.6505343048
 20
19.9734366235
 11
53.9004624717
 21
19.9734366235
  0
LINE
  5
6A8
100
AcDbEntity
  8
0
100
AcDbLine
 62
7
  6
CONTINUOUS
 10
48.1130608969
 20
25.000208277
 11
48.1130608969
 21
25.3151689069
  0
LINE
  5
6A9
100
AcDbEntity
  8
0
100
AcDbLine
 62
7
  6
CONTINUOUS
 10
48.1524309757
 20
25.3151689069
 11
48.1524309757
 21
25.000208277
  0
LINE
  5
6AA
100
AcDbEntity
  8
0
100
AcDbLine
 62
7
  6
CONTINUOUS
 10
48.1645266023
 20
25.000208277
 11
48.1645266023
 21
26.4962712692
  0
LINE
  5
6AB
100
AcDbEntity
  8
7_ALL_ROUNDS
100
AcDbLine
 62
7
  6
CONTINUOUS
 10
48.3492813694
 20
26.2569011904
 11
48.3492813694
 21
20.3513893794
  0
LINE
  5
6AC
100
AcDbEntity
  8
0
100
AcDbLine
 62
7
  6
CONTINUOUS
 10
48.3492813694
 20
20.3513893794
 11
48.3492813694
 21
26.2569011904
  0
LINE
  5
6AD
100
AcDbEntity
  8
7_ALL_ROUNDS
100
AcDbLine
 62
9
  6
CONTINUOUS
 10
48.3492813694
 20
20.3513893794
 11
53.9398325505
 21
20.3513893794
  0
LINE
  5
6AE
100
AcDbEntity
  8
0
100
AcDbLine
 62
7
  6
CONTINUOUS
 10
49.5303837316
 20
19.957688592
 11
49.5303837316
 21
19.9025704818
  0
LINE
  5
6AF
100
AcDbEntity
  8
0
100
AcDbLine
 62
7
  6
CONTINUOUS
 10
49.8453443615
 20
19.9025704818
 11
49.8453443615
 21
19.8553263873
  0
LINE
  5
6B0
100
AcDbEntity
  8
0
100
AcDbLine
 62
7
  6
CONTINUOUS
 10
50.1248719206
 20
19.8553263873
 11
50.1248719206
 21
19.8395783558
  0
LINE
  5
6B1
100
AcDbEntity
  8
7_ALL_ROUNDS
100
AcDbLine
 62
7
  6
CONTINUOUS
 10
50.1248719206
 20
19.8553263873
 11
50.1248719206
 21
19.8395783558
  0
LINE
  5
6B2
100
AcDbEntity
  8
0
100
AcDbLine
 62
7
  6
CONTINUOUS
 10
50.3217223143
 20
19.8553263873
 11
50.3217223143
 21
19.8238303243
  0
LINE
  5
6B3
100
AcDbEntity
  8
7_ALL_ROUNDS
100
AcDbLine
 62
7
  6
CONTINUOUS
 10
50.3217223143
 20
19.8553263873
 11
50.3217223143
 21
19.8238303243
  0
LINE
  5
6B4
100
AcDbEntity
  8
0
100
AcDbLine
 62
7
  6
CONTINUOUS
 10
50.3768404245
 20
27.379488938
 11
50.3768404245
 21
27.3802712139
  0
LINE
  5
6B5
100
AcDbEntity
  8
0
100
AcDbLine
 62
7
  6
CONTINUOUS
 10
50.4432341253
 20
27.3814451323
 11
50.4432341253
 21
27.383672844
  0
LINE
  5
6B6
100
AcDbEntity
  8
0
100
AcDbLine
 62
9
  6
CONTINUOUS
 10
50.460104204
 20
27.3819213214
 11
50.460104204
 21
27.383672844
  0
LINE
  5
6B7
100
AcDbEntity
  8
0
100
AcDbLine
 62
7
  6
CONTINUOUS
 10
50.6288089284
 20
19.8553263873
 11
50.6288089284
 21
19.8238303243
  0
LINE
  5
6B8
100
AcDbEntity
  8
7_ALL_ROUNDS
100
AcDbLine
 62
7
  6
CONTINUOUS
 10
50.6288089284
 20
19.8553263873
 11
50.6288089284
 21
19.8238303243
  0
LINE
  5
6B9
100
AcDbEntity
  8
7_ALL_ROUNDS
100
AcDbLine
 62
7
  6
CONTINUOUS
 10
50.703612078
 20
19.5128067022
 11
50.703612078
 21
19.6466649699
  0
LINE
  5
6BA
100
AcDbEntity
  8
0
100
AcDbLine
 62
9
  6
CONTINUOUS
 10
50.7114860938
 20
19.957688592
 11
50.7114860938
 21
19.9025704818
  0
LINE
  5
6BB
100
AcDbEntity
  8
0
100
AcDbLine
 62
7
  6
CONTINUOUS
 10
50.7508561725
 20
26.4962712692
 11
50.7508561725
 21
25.000208277
  0
LINE
  5
6BC
100
AcDbEntity
  8
7_ALL_ROUNDS
100
AcDbLine
 62
9
  6
CONTINUOUS
 10
50.7902262513
 20
19.426192529
 11
50.7902262513
 21
19.7332791432
  0
LINE
  5
6BD
100
AcDbEntity
  8
0
100
AcDbLine
 62
7
  6
CONTINUOUS
 10
50.8217223143
 20
19.8553263873
 11
50.8217223143
 21
19.7765862298
  0
LINE
  5
6BE
100
AcDbEntity
  8
7_ALL_ROUNDS
100
AcDbLine
 62
7
  6
CONTINUOUS
 10
50.8217223143
 20
19.7765862298
 11
50.8217223143
 21
19.3828854424
  0
LINE
  5
6BF
100
AcDbEntity
  8
7_ALL_ROUNDS
100
AcDbLine
 62
7
  6
CONTINUOUS
 10
50.82959633
 20
19.4458775684
 11
50.82959633
 21
19.9622269371
  0
LINE
  5
6C0
100
AcDbEntity
  8
0
100
AcDbLine
 62
7
  6
CONTINUOUS
 10
50.8520322008
 20
26.4962712692
 11
50.8520322008
 21
25.000208277
  0
LINE
  5
6C1
100
AcDbEntity
  8
0
100
AcDbLine
 62
7
  6
CONTINUOUS
 10
50.9083364875
 20
25.000208277
 11
50.9083364875
 21
26.4962712692
  0
LINE
  5
6C2
100
AcDbEntity
  8
0
100
AcDbLine
 62
7
  6
CONTINUOUS
 10
50.9477065662
 20
25.5120193006
 11
50.9477065662
 21
24.6065074896
  0
LINE
  5
6C3
100
AcDbEntity
  8
0
100
AcDbLine
 62
7
  6
CONTINUOUS
 10
51.0855018418
 20
26.4962712692
 11
51.0855018418
 21
25.5120193006
  0
LINE
  5
6C4
100
AcDbEntity
  8
0
100
AcDbLine
 62
7
  6
CONTINUOUS
 10
51.0855018418
 20
24.6065074896
 11
51.0855018418
 21
24.5277673321
  0
LINE
  5
6C5
100
AcDbEntity
  8
3_AXES_OTHER
100
AcDbLine
 62
7
  6
CENTER
 10
51.1445569599
 20
19.6033578833
 11
51.1445569599
 21
19.2068524834
  0
LINE
  5
6C6
100
AcDbEntity
  8
3_AXES_OTHER
100
AcDbLine
 62
7
  6
CENTER
 10
51.1445569599
 20
19.6033578833
 11
51.1445569599
 21
27.5987301037
  0
LINE
  5
6C7
100
AcDbEntity
  8
0
100
AcDbLine
 62
7
  6
CONTINUOUS
 10
51.203612078
 20
26.4962712692
 11
51.203612078
 21
25.5120193006
  0
LINE
  5
6C8
100
AcDbEntity
  8
0
100
AcDbLine
 62
7
  6
CONTINUOUS
 10
51.203612078
 20
24.6065074896
 11
51.203612078
 21
24.5277673321
  0
LINE
  5
6C9
100
AcDbEntity
  8
0
100
AcDbLine
 62
7
  6
CONTINUOUS
 10
51.2303620572
 20
25.3151689069
 11
51.2303620572
 21
24.8427279621
  0
LINE
  5
6CA
100
AcDbEntity
  8
0
100
AcDbLine
 62
7
  6
CONTINUOUS
 10
51.3414073536
 20
25.5120193006
 11
51.3414073536
 21
25.3151689069
  0
LINE
  5
6CB
100
AcDbEntity
  8
0
100
AcDbLine
 62
7
  6
CONTINUOUS
 10
51.3414073536
 20
24.8427279621
 11
51.3414073536
 21
24.6065074896
  0
LINE
  5
6CC
100
AcDbEntity
  8
0
100
AcDbLine
 62
7
  6
CONTINUOUS
 10
51.3807774324
 20
25.3151689069
 11
51.3807774324
 21
26.4962712692
  0
LINE
  5
6CD
100
AcDbEntity
  8
0
100
AcDbLine
 62
7
  6
CONTINUOUS
 10
51.4370817191
 20
26.4962712692
 11
51.4370817191
 21
25.3151689069
  0
LINE
  5
6CE
100
AcDbEntity
  8
7_ALL_ROUNDS
100
AcDbLine
 62
7
  6
CONTINUOUS
 10
51.4595175898
 20
19.4458775684
 11
51.4595175898
 21
19.9622269371
  0
LINE
  5
6CF
100
AcDbEntity
  8
7_ALL_ROUNDS
100
AcDbLine
 62
7
  6
CONTINUOUS
 10
51.4673916056
 20
19.3828854424
 11
51.4673916056
 21
19.8553263873
  0
LINE
  5
6D0
100
AcDbEntity
  8
0
100
AcDbLine
 62
7
  6
CONTINUOUS
 10
51.5382577473
 20
26.4962712692
 11
51.5382577473
 21
25.3151689069
  0
LINE
  5
6D1
100
AcDbEntity
  8
0
100
AcDbLine
 62
9
  6
CONTINUOUS
 10
51.5776278261
 20
19.957688592
 11
51.5776278261
 21
19.9025704818
  0
LINE
  5
6D2
100
AcDbEntity
  8
0
100
AcDbLine
 62
7
  6
CONTINUOUS
 10
51.6343769342
 20
19.8553263873
 11
51.6343769342
 21
19.6535547337
  0
LINE
  5
6D3
100
AcDbEntity
  8
0
100
AcDbLine
 62
7
  6
CONTINUOUS
 10
51.6343769342
 20
19.5059169384
 11
51.6343769342
 21
19.3828854424
  0
LINE
  5
6D4
100
AcDbEntity
  8
0
100
AcDbLine
 62
7
  6
CONTINUOUS
 10
51.6603049914
 20
19.8553263873
 11
51.6603049914
 21
19.8238303243
  0
LINE
  5
6D5
100
AcDbEntity
  8
7_ALL_ROUNDS
100
AcDbLine
 62
7
  6
CONTINUOUS
 10
51.6603049914
 20
19.8553263873
 11
51.6603049914
 21
19.8238303243
  0
LINE
  5
6D6
100
AcDbEntity
  8
0
100
AcDbLine
 62
7
  6
CONTINUOUS
 10
51.6957380623
 20
19.6535547337
 11
51.6957380623
 21
19.5059169384
  0
LINE
  5
6D7
100
AcDbEntity
  8
0
100
AcDbLine
 62
7
  6
CONTINUOUS
 10
51.703612078
 20
25.3151689069
 11
51.703612078
 21
25.7088696944
  0
LINE
  5
6D8
100
AcDbEntity
  8
0
100
AcDbLine
 62
7
  6
CONTINUOUS
 10
51.9122734954
 20
27.3802712139
 11
51.9122734954
 21
27.379488938
  0
LINE
  5
6D9
100
AcDbEntity
  8
0
100
AcDbLine
 62
7
  6
CONTINUOUS
 10
51.9673916056
 20
19.8553263873
 11
51.9673916056
 21
19.8238303243
  0
LINE
  5
6DA
100
AcDbEntity
  8
7_ALL_ROUNDS
100
AcDbLine
 62
7
  6
CONTINUOUS
 10
51.9673916056
 20
19.8553263873
 11
51.9673916056
 21
19.8238303243
  0
LINE
  5
6DB
100
AcDbEntity
  8
0
100
AcDbLine
 62
7
  6
CONTINUOUS
 10
52.1681790072
 20
24.8427279621
 11
52.1681790072
 21
25.7088696944
  0
LINE
  5
6DC
100
AcDbEntity
  8
0
100
AcDbLine
 62
7
  6
CONTINUOUS
 10
52.2744782198
 20
19.5088696944
 11
52.2744782198
 21
19.8553263873
  0
LINE
  5
6DD
100
AcDbEntity
  8
0
100
AcDbLine
 62
7
  6
CONTINUOUS
 10
52.3256593221
 20
19.9025704818
 11
52.3256593221
 21
19.8553263873
  0
LINE
  5
6DE
100
AcDbEntity
  8
7_ALL_ROUNDS
100
AcDbLine
 62
7
  6
CONTINUOUS
 10
52.3532183772
 20
19.5088696944
 11
52.3532183772
 21
19.8553263873
  0
LINE
  5
6DF
100
AcDbEntity
  8
0
100
AcDbLine
 62
7
  6
CONTINUOUS
 10
54.4712733949
 20
24.5277673321
 11
54.3532735958
 21
24.5277673321
  0
LINE
  5
6E0
100
AcDbEntity
  8
0
100
AcDbLine
 62
7
  6
CONTINUOUS
 10
51.2035568595
 20
24.5277673321
 11
51.0855570604
 21
24.5277673321
  0
LINE
  5
6E1
100
AcDbEntity
  8
0
100
AcDbLine
 62
7
  6
CONTINUOUS
 10
47.9358403241
 20
24.5277673321
 11
47.8178405249
 21
24.5277673321
  0
LINE
  5
6E2
100
AcDbEntity
  8
0
100
AcDbLine
 62
7
  6
CONTINUOUS
 10
52.4319585347
 20
19.8553263873
 11
52.4319585347
 21
19.7765862298
  0
LINE
  5
6E3
100
AcDbEntity
  8
0
100
AcDbLine
 62
7
  6
CONTINUOUS
 10
52.6012498733
 20
19.8553263873
 11
52.6012498733
 21
19.7765862298
  0
LINE
  5
6E4
100
AcDbEntity
  8
0
100
AcDbLine
 62
7
  6
CONTINUOUS
 10
54.6091238891
 20
24.6065074896
 11
54.2154231017
 21
24.6065074896
  0
LINE
  5
6E5
100
AcDbEntity
  8
0
100
AcDbLine
 62
7
  6
CONTINUOUS
 10
51.3414073536
 20
24.6065074896
 11
50.9477065662
 21
24.6065074896
  0
LINE
  5
6E6
100
AcDbEntity
  8
0
100
AcDbLine
 62
7
  6
CONTINUOUS
 10
48.0736908182
 20
24.6065074896
 11
47.6799900308
 21
24.6065074896
  0
LINE
  5
6E7
100
AcDbEntity
  8
0
100
AcDbLine
 62
7
  6
CONTINUOUS
 10
47.6996750702
 20
24.8427279621
 11
48.0540057788
 21
24.8427279621
  0
LINE
  5
6E8
100
AcDbEntity
  8
0
100
AcDbLine
 62
7
  6
CONTINUOUS
 10
51.2303620572
 20
24.8427279621
 11
52.1681790072
 21
24.8427279621
  0
LINE
  5
6E9
100
AcDbEntity
  8
0
100
AcDbLine
 62
7
  6
CONTINUOUS
 10
52.7587301883
 20
19.957688592
 11
52.7587301883
 21
19.8553263873
  0
LINE
  5
6EA
100
AcDbEntity
  8
7_ALL_ROUNDS
100
AcDbLine
 62
9
  6
CONTINUOUS
 10
53.1130608969
 20
19.957688592
 11
53.1130608969
 21
19.9025704818
  0
LINE
  5
6EB
100
AcDbEntity
  8
0
100
AcDbLine
 62
7
  6
CONTINUOUS
 10
54.6799812624
 20
25.000208277
 11
54.1245873176
 21
25.000208277
  0
LINE
  5
6EC
100
AcDbEntity
  8
0
100
AcDbLine
 62
7
  6
CONTINUOUS
 10
47.6091326575
 20
25.000208277
 11
47.6799900308
 21
25.000208277
  0
LINE
  5
6ED
100
AcDbEntity
  8
0
100
AcDbLine
 62
7
  6
CONTINUOUS
 10
48.0736908182
 20
25.000208277
 11
48.1645266023
 21
25.000208277
  0
LINE
  5
6EE
100
AcDbEntity
  8
0
100
AcDbLine
 62
7
  6
CONTINUOUS
 10
50.7509286586
 20
25.000208277
 11
50.9477065662
 21
25.000208277
  0
LINE
  5
6EF
100
AcDbEntity
  8
0
100
AcDbLine
 62
7
  6
CONTINUOUS
 10
48.1645266023
 20
25.3151689069
 11
48.0540057788
 21
25.3151689069
  0
LINE
  5
6F0
100
AcDbEntity
  8
0
100
AcDbLine
 62
7
  6
CONTINUOUS
 10
47.6091326575
 20
25.3151689069
 11
47.6996750702
 21
25.3151689069
  0
LINE
  5
6F1
100
AcDbEntity
  8
0
100
AcDbLine
 62
7
  6
CONTINUOUS
 10
51.2303620572
 20
25.3151689069
 11
51.703612078
 21
25.3151689069
  0
LINE
  5
6F2
100
AcDbEntity
  8
0
100
AcDbLine
 62
7
  6
CONTINUOUS
 10
51.3414073536
 20
25.5120193006
 11
50.9477065662
 21
25.5120193006
  0
LINE
  5
6F3
100
AcDbEntity
  8
0
100
AcDbLine
 62
7
  6
CONTINUOUS
 10
47.6996750702
 20
25.7088696944
 11
48.0540057788
 21
25.7088696944
  0
LINE
  5
6F4
100
AcDbEntity
  8
0
100
AcDbLine
 62
7
  6
CONTINUOUS
 10
51.703612078
 20
25.7088696944
 11
52.1681790072
 21
25.7088696944
  0
LINE
  5
6F5
100
AcDbEntity
  8
7_ALL_ROUNDS
100
AcDbLine
 62
7
  6
CONTINUOUS
 10
53.9004624717
 20
19.9734366235
 11
53.9004624717
 21
19.9025704818
  0
LINE
  5
6F6
100
AcDbEntity
  8
7_ALL_ROUNDS
100
AcDbLine
 62
7
  6
CONTINUOUS
 10
53.9398325505
 20
26.2569011904
 11
53.9398325505
 21
20.3513893794
  0
LINE
  5
6F7
100
AcDbEntity
  8
0
100
AcDbLine
 62
7
  6
CONTINUOUS
 10
53.9398325505
 20
20.3513893794
 11
53.9398325505
 21
26.2569011904
  0
LINE
  5
6F8
100
AcDbEntity
  8
0
100
AcDbLine
 62
7
  6
CONTINUOUS
 10
54.1245873176
 20
25.000208277
 11
54.1245873176
 21
26.4962712692
  0
LINE
  5
6F9
100
AcDbEntity
  8
0
100
AcDbLine
 62
7
  6
CONTINUOUS
 10
54.2154231017
 20
25.000208277
 11
54.2154231017
 21
24.6065074896
  0
LINE
  5
6FA
100
AcDbEntity
  8
0
100
AcDbLine
 62
7
  6
CONTINUOUS
 10
48.1645266023
 20
26.2569011904
 11
50.7508561725
 21
26.2569011904
  0
LINE
  5
6FB
100
AcDbEntity
  8
0
100
AcDbLine
 62
7
  6
CONTINUOUS
 10
51.5382577473
 20
26.2569011904
 11
54.1245873176
 21
26.2569011904
  0
LINE
  5
6FC
100
AcDbEntity
  8
0
100
AcDbLine
 62
7
  6
CONTINUOUS
 10
47.6012498734
 20
26.4962712692
 11
47.6091326575
 21
26.4962712692
  0
LINE
  5
6FD
100
AcDbEntity
  8
0
100
AcDbLine
 62
7
  6
CONTINUOUS
 10
47.6133454999
 20
26.4962712692
 11
50.8520322008
 21
26.4962712692
  0
LINE
  5
6FE
100
AcDbEntity
  8
0
100
AcDbLine
 62
7
  6
CONTINUOUS
 10
50.9083364875
 20
26.4962712692
 11
51.3807774324
 21
26.4962712692
  0
LINE
  5
6FF
100
AcDbEntity
  8
0
100
AcDbLine
 62
7
  6
CONTINUOUS
 10
51.4370817191
 20
26.4962712692
 11
54.6757684199
 21
26.4962712692
  0
LINE
  5
700
100
AcDbEntity
  8
0
100
AcDbLine
 62
7
  6
CONTINUOUS
 10
54.6799812624
 20
26.4962712692
 11
54.6878640465
 21
26.4962712692
  0
LINE
  5
701
100
AcDbEntity
  8
0
100
AcDbLine
 62
7
  6
CONTINUOUS
 10
54.3532183772
 20
24.6065074896
 11
54.3532183772
 21
24.5277673321
  0
LINE
  5
702
100
AcDbEntity
  8
0
100
AcDbLine
 62
7
  6
CONTINUOUS
 10
54.4713286135
 20
24.6065074896
 11
54.4713286135
 21
24.5277673321
  0
LINE
  5
703
100
AcDbEntity
  8
0
100
AcDbLine
 62
7
  6
CONTINUOUS
 10
54.6091238891
 20
25.000208277
 11
54.6091238891
 21
24.6065074896
  0
LINE
  5
704
100
AcDbEntity
  8
0
100
AcDbLine
 62
7
  6
CONTINUOUS
 10
54.6757684199
 20
26.4962712692
 11
54.6757684199
 21
25.000208277
  0
LINE
  5
705
100
AcDbEntity
  8
0
100
AcDbLine
 62
7
  6
CONTINUOUS
 10
54.6799812624
 20
25.000208277
 11
54.6799812624
 21
26.4962712692
  0
LINE
  5
706
100
AcDbEntity
  8
0
100
AcDbLine
 62
7
  6
CONTINUOUS
 10
54.6878640465
 20
26.4962712692
 11
54.6878640465
 21
26.9387909542
  0
LINE
  5
707
100
AcDbEntity
  8
0
100
AcDbLine
 62
7
  6
CONTINUOUS
 10
46.9516435741
 20
26.9387909542
 11
55.3374703458
 21
26.9387909542
  0
LINE
  5
708
100
AcDbEntity
  8
0
100
AcDbLine
 62
7
  6
CONTINUOUS
 10
46.9516435741
 20
27.0175311117
 11
55.3374703458
 21
27.0175311117
  0
LINE
  5
709
100
AcDbEntity
  8
0
100
AcDbLine
 62
7
  6
CONTINUOUS
 10
47.6658892418
 20
27.1516793372
 11
54.623224678
 21
27.1516793372
  0
LINE
  5
70A
100
AcDbEntity
  8
0
100
AcDbLine
 62
7
  6
CONTINUOUS
 10
55.3374703458
 20
26.9387909542
 11
55.3374703458
 21
27.0175311117
  0
LINE
  5
70B
100
AcDbEntity
  8
0
100
AcDbLine
 62
7
  6
CONTINUOUS
 10
50.4432341253
 20
27.383672844
 11
50.5275734609
 21
27.383672844
  0
LINE
  5
70C
100
AcDbEntity
  8
0
100
AcDbLine
 62
7
  6
CONTINUOUS
 10
51.7615629078
 20
27.383672844
 11
51.7959309757
 21
27.383672844
  0
ARC
  5
70D
100
AcDbEntity
  8
0
100
AcDbCircle
 62
7
  6
CONTINUOUS
 10
23.8555712787
 20
3.8622648889
 40
23.5292819708
100
AcDbArc
 50
91.7738682135
 51
98.1759339047
  0
ARC
  5
70E
100
AcDbEntity
  8
7_ALL_ROUNDS
100
AcDbCircle
 62
7
  6
CONTINUOUS
 10
21.4933665543
 20
20.3513893794
 40
0.3937007874
100
AcDbArc
 50
180.0
 51
254.5490477274
  0
ARC
  5
70F
100
AcDbEntity
  8
0
100
AcDbCircle
 62
7
  6
CONTINUOUS
 10
20.4162736393
 20
25.1831754002
 40
1.968503937
100
AcDbArc
 50
90.0
 51
111.2745161228
  0
ARC
  5
710
100
AcDbEntity
  8
7_ALL_ROUNDS
100
AcDbCircle
 62
7
  6
CONTINUOUS
 10
23.6980909637
 20
19.4458775684
 40
0.1181102362
100
AcDbArc
 50
212.512534191
 51
270.0
  0
ARC
  5
711
100
AcDbEntity
  8
7_ALL_ROUNDS
100
AcDbCircle
 62
7
  6
CONTINUOUS
 10
23.2925791527
 20
19.8238303243
 40
0.0866141732
100
AcDbArc
 50
270.0
 51
360.0
  0
ARC
  5
712
100
AcDbEntity
  8
7_ALL_ROUNDS
100
AcDbCircle
 62
7
  6
CONTINUOUS
 10
23.158720885
 20
19.8238303243
 40
0.0866141732
100
AcDbArc
 50
180.0
 51
270.0
  0
ARC
  5
713
100
AcDbEntity
  8
7_ALL_ROUNDS
100
AcDbCircle
 62
7
  6
CONTINUOUS
 10
22.6469098614
 20
19.863200403
 40
0.0393700787
100
AcDbArc
 50
0.0
 51
90.0
  0
ARC
  5
714
100
AcDbEntity
  8
7_ALL_ROUNDS
100
AcDbCircle
 62
7
  6
CONTINUOUS
 10
22.7256500189
 20
19.9340665447
 40
0.0393700787
100
AcDbArc
 50
0.0
 51
90.0
  0
ARC
  5
715
100
AcDbEntity
  8
0
100
AcDbCircle
 62
7
  6
CONTINUOUS
 10
23.8949413574
 20
1.8283573894
 40
25.562662461
100
AcDbArc
 50
88.2789925526
 51
91.7210074474
  0
ARC
  5
716
100
AcDbEntity
  8
0
100
AcDbCircle
 62
7
  6
CONTINUOUS
 10
23.9343114362
 20
3.8622648889
 40
23.5292819708
100
AcDbArc
 50
81.8240660953
 51
88.2261317865
  0
ARC
  5
717
100
AcDbEntity
  8
0
100
AcDbCircle
 62
7
  6
CONTINUOUS
 10
23.8949413574
 20
19.6033578833
 40
0.155511811
100
AcDbArc
 50
218.9408307291
 51
321.0591692709
  0
ARC
  5
718
100
AcDbEntity
  8
0
100
AcDbCircle
 62
7
  6
CONTINUOUS
 10
23.8949413574
 20
19.6033578833
 40
0.155511811
100
AcDbArc
 50
18.8978222959
 51
161.1021777041
  0
ARC
  5
719
100
AcDbEntity
  8
7_ALL_ROUNDS
100
AcDbCircle
 62
7
  6
CONTINUOUS
 10
24.0917917511
 20
19.4458775684
 40
0.1181102362
100
AcDbArc
 50
270.0
 51
327.487465809
  0
ARC
  5
71A
100
AcDbEntity
  8
7_ALL_ROUNDS
100
AcDbCircle
 62
7
  6
CONTINUOUS
 10
24.2492720661
 20
19.5128067022
 40
0.0866141732
100
AcDbArc
 50
270.0
 51
360.0
  0
ARC
  5
71B
100
AcDbEntity
  8
7_ALL_ROUNDS
100
AcDbCircle
 62
7
  6
CONTINUOUS
 10
24.2492720661
 20
19.6466649699
 40
0.0866141732
100
AcDbArc
 50
0.0
 51
90.0
  0
ARC
  5
71C
100
AcDbEntity
  8
7_ALL_ROUNDS
100
AcDbCircle
 62
7
  6
CONTINUOUS
 10
24.6311618299
 20
19.8238303243
 40
0.0866141732
100
AcDbArc
 50
270.0
 51
312.9070987241
  0
ARC
  5
71D
100
AcDbEntity
  8
7_ALL_ROUNDS
100
AcDbCircle
 62
7
  6
CONTINUOUS
 10
24.4973035622
 20
19.8238303243
 40
0.0866141732
100
AcDbArc
 50
180.0
 51
270.0
  0
ARC
  5
71E
100
AcDbEntity
  8
7_ALL_ROUNDS
100
AcDbCircle
 62
7
  6
CONTINUOUS
 10
24.8358862393
 20
19.8395783558
 40
0.0787401575
100
AcDbArc
 50
270.0
 51
360.0
  0
ARC
  5
71F
100
AcDbEntity
  8
7_ALL_ROUNDS
100
AcDbCircle
 62
7
  6
CONTINUOUS
 10
24.6862799401
 20
19.8395783558
 40
0.0787401575
100
AcDbArc
 50
180.0
 51
270.0
  0
ARC
  5
720
100
AcDbEntity
  8
7_ALL_ROUNDS
100
AcDbCircle
 62
7
  6
CONTINUOUS
 10
26.2965161606
 20
20.3513893794
 40
0.3937007874
100
AcDbArc
 50
270.0
 51
360.0
  0
ARC
  5
721
100
AcDbEntity
  8
0
100
AcDbCircle
 62
7
  6
CONTINUOUS
 10
27.3736090756
 20
25.1831754002
 40
1.968503937
100
AcDbArc
 50
68.7254838772
 51
90.0
  0
ARC
  5
722
100
AcDbEntity
  8
0
100
AcDbCircle
 62
7
  6
CONTINUOUS
 10
38.3814077588
 20
2.6328821486
 40
24.7473890654
100
AcDbArc
 50
89.9998111147
 51
90.4555689128
  0
ARC
  5
723
100
AcDbEntity
  8
0
100
AcDbCircle
 62
7
  6
CONTINUOUS
 10
38.3421192641
 20
3.8622648889
 40
23.5292819708
100
AcDbArc
 50
90.3842804214
 51
98.1622179335
  0
ARC
  5
724
100
AcDbEntity
  8
0
100
AcDbCircle
 62
7
  6
CONTINUOUS
 10
34.9028216247
 20
25.1831754002
 40
1.968503937
100
AcDbArc
 50
90.0
 51
111.2745161228
  0
ARC
  5
725
100
AcDbEntity
  8
7_ALL_ROUNDS
100
AcDbCircle
 62
7
  6
CONTINUOUS
 10
35.9799145397
 20
20.3513893794
 40
0.3937007874
100
AcDbArc
 50
180.0
 51
270.0
  0
ARC
  5
726
100
AcDbEntity
  8
7_ALL_ROUNDS
100
AcDbCircle
 62
7
  6
CONTINUOUS
 10
38.031095642
 20
19.8395783558
 40
0.0787401575
100
AcDbArc
 50
180.0
 51
270.0
  0
ARC
  5
727
100
AcDbEntity
  8
7_ALL_ROUNDS
100
AcDbCircle
 62
7
  6
CONTINUOUS
 10
38.1807019412
 20
19.8395783558
 40
0.0787401575
100
AcDbArc
 50
270.0
 51
360.0
  0
ARC
  5
728
100
AcDbEntity
  8
0
100
AcDbCircle
 62
7
  6
CONTINUOUS
 10
38.3815709268
 20
2.6328821486
 40
24.7473890654
100
AcDbArc
 50
89.5444310872
 51
90.0001888853
  0
ARC
  5
729
100
AcDbEntity
  8
0
100
AcDbCircle
 62
7
  6
CONTINUOUS
 10
38.4208594215
 20
3.8622648889
 40
23.5292819708
100
AcDbArc
 50
81.8377820665
 51
89.6157195786
  0
ARC
  5
72A
100
AcDbEntity
  8
0
100
AcDbCircle
 62
7
  6
CONTINUOUS
 10
41.8601570609
 20
25.1831754002
 40
1.968503937
100
AcDbArc
 50
68.7254838772
 51
90.0
  0
ARC
  5
72B
100
AcDbEntity
  8
7_ALL_ROUNDS
100
AcDbCircle
 62
7
  6
CONTINUOUS
 10
40.7622876173
 20
20.3585185955
 40
0.400830005
100
AcDbArc
 50
270.0048305562
 51
278.6301227164
  0
ARC
  5
72C
100
AcDbEntity
  8
7_ALL_ROUNDS
100
AcDbCircle
 62
7
  6
CONTINUOUS
 10
40.783064146
 20
20.3513893794
 40
0.3937007874
100
AcDbArc
 50
276.0732346152
 51
360.0
  0
ARC
  5
72D
100
AcDbEntity
  8
7_ALL_ROUNDS
100
AcDbCircle
 62
7
  6
CONTINUOUS
 10
39.7594135729
 20
19.5797358361
 40
0.1968503937
100
AcDbArc
 50
270.0
 51
90.0
  0
ARC
  5
72E
100
AcDbEntity
  8
7_ALL_ROUNDS
100
AcDbCircle
 62
7
  6
CONTINUOUS
 10
38.6571084198
 20
19.5797358361
 40
0.1968503937
100
AcDbArc
 50
90.0
 51
270.0
  0
ARC
  5
72F
100
AcDbEntity
  8
7_ALL_ROUNDS
100
AcDbCircle
 62
7
  6
CONTINUOUS
 10
39.7596134567
 20
19.6584759936
 40
0.1968503937
100
AcDbArc
 50
0.0
 51
90.0
  0
ARC
  5
730
100
AcDbEntity
  8
7_ALL_ROUNDS
100
AcDbCircle
 62
7
  6
CONTINUOUS
 10
38.656908536
 20
19.6584759936
 40
0.1968503937
100
AcDbArc
 50
90.0
 51
180.0
  0
CIRCLE
  5
731
100
AcDbEntity
  8
7_ALL_ROUNDS
100
AcDbCircle
 62
7
  6
CONTINUOUS
 10
38.6571084198
 20
19.5797358361
 40
0.1535433071
  0
CIRCLE
  5
732
100
AcDbEntity
  8
7_ALL_ROUNDS
100
AcDbCircle
 62
7
  6
CONTINUOUS
 10
39.7594135729
 20
19.5797358361
 40
0.1535433071
  0
ARC
  5
733
100
AcDbEntity
  8
7_ALL_ROUNDS
100
AcDbCircle
 62
7
  6
CONTINUOUS
 10
39.1413318625
 20
19.8238303243
 40
0.0866141732
100
AcDbArc
 50
180.0
 51
270.0
  0
ARC
  5
734
100
AcDbEntity
  8
7_ALL_ROUNDS
100
AcDbCircle
 62
7
  6
CONTINUOUS
 10
39.2751901302
 20
19.8238303243
 40
0.0866141732
100
AcDbArc
 50
270.0
 51
360.0
  0
CIRCLE
  5
735
100
AcDbEntity
  8
7_ALL_ROUNDS
100
AcDbCircle
 62
9
  6
CONTINUOUS
 10
38.6571084198
 20
19.5797358361
 40
0.0669291339
  0
CIRCLE
  5
736
100
AcDbEntity
  8
7_ALL_ROUNDS
100
AcDbCircle
 62
9
  6
CONTINUOUS
 10
39.7594135729
 20
19.5797358361
 40
0.0669291339
  0
ARC
  5
737
100
AcDbEntity
  8
0
100
AcDbCircle
 62
7
  6
CONTINUOUS
 10
9.7477042834
 20
2.6328821486
 40
24.7473890654
100
AcDbArc
 50
89.5444310872
 51
90.4555689128
  0
ARC
  5
738
100
AcDbEntity
  8
0
100
AcDbCircle
 62
7
  6
CONTINUOUS
 10
9.7869927781
 20
3.8622648889
 40
23.5292819708
100
AcDbArc
 50
81.8377820665
 51
89.6157195786
  0
ARC
  5
739
100
AcDbEntity
  8
0
100
AcDbCircle
 62
7
  6
CONTINUOUS
 10
9.7082526206
 20
3.8622648889
 40
23.5292819708
100
AcDbArc
 50
90.3842804214
 51
98.1622179335
  0
ARC
  5
73A
100
AcDbEntity
  8
0
100
AcDbCircle
 62
7
  6
CONTINUOUS
 10
13.2262904175
 20
25.1831754002
 40
1.968503937
100
AcDbArc
 50
68.7254838772
 51
90.0
  0
ARC
  5
73B
100
AcDbEntity
  8
0
100
AcDbCircle
 62
7
  6
CONTINUOUS
 10
6.2689549813
 20
25.1831754002
 40
1.968503937
100
AcDbArc
 50
90.0
 51
111.2745161228
  0
ARC
  5
73C
100
AcDbEntity
  8
7_ALL_ROUNDS
100
AcDbCircle
 62
7
  6
CONTINUOUS
 10
7.3668244249
 20
20.3585185955
 40
0.400830005
100
AcDbArc
 50
261.3698772836
 51
269.9951694439
  0
ARC
  5
73D
100
AcDbEntity
  8
7_ALL_ROUNDS
100
AcDbCircle
 62
7
  6
CONTINUOUS
 10
12.1491975025
 20
20.3513893794
 40
0.3937007874
100
AcDbArc
 50
285.4522318196
 51
360.0
  0
ARC
  5
73E
100
AcDbEntity
  8
7_ALL_ROUNDS
100
AcDbCircle
 62
7
  6
CONTINUOUS
 10
7.3460478962
 20
20.3513893794
 40
0.3937007874
100
AcDbArc
 50
180.0
 51
263.9267653848
  0
ARC
  5
73F
100
AcDbEntity
  8
7_ALL_ROUNDS
100
AcDbCircle
 62
7
  6
CONTINUOUS
 10
8.3694985855
 20
19.6584759936
 40
0.1968503937
100
AcDbArc
 50
90.0
 51
180.0
  0
ARC
  5
740
100
AcDbEntity
  8
7_ALL_ROUNDS
100
AcDbCircle
 62
7
  6
CONTINUOUS
 10
8.3694985855
 20
19.5797358361
 40
0.1968503937
100
AcDbArc
 50
180.0
 51
270.0
  0
ARC
  5
741
100
AcDbEntity
  8
7_ALL_ROUNDS
100
AcDbCircle
 62
7
  6
CONTINUOUS
 10
9.4722035061
 20
19.6584759936
 40
0.1968503937
100
AcDbArc
 50
0.0
 51
90.0
  0
ARC
  5
742
100
AcDbEntity
  8
7_ALL_ROUNDS
100
AcDbCircle
 62
7
  6
CONTINUOUS
 10
9.4722035061
 20
19.5797358361
 40
0.1968503937
100
AcDbArc
 50
270.0
 51
360.0
  0
ARC
  5
743
100
AcDbEntity
  8
7_ALL_ROUNDS
100
AcDbCircle
 62
7
  6
CONTINUOUS
 10
8.9877801797
 20
19.8238303243
 40
0.0866141732
100
AcDbArc
 50
270.0
 51
360.0
  0
ARC
  5
744
100
AcDbEntity
  8
7_ALL_ROUNDS
100
AcDbCircle
 62
7
  6
CONTINUOUS
 10
8.853921912
 20
19.8238303243
 40
0.0866141732
100
AcDbArc
 50
180.0
 51
270.0
  0
ARC
  5
745
100
AcDbEntity
  8
7_ALL_ROUNDS
100
AcDbCircle
 62
7
  6
CONTINUOUS
 10
10.0980164002
 20
19.8395783558
 40
0.0787401575
100
AcDbArc
 50
270.0
 51
360.0
  0
ARC
  5
746
100
AcDbEntity
  8
7_ALL_ROUNDS
100
AcDbCircle
 62
7
  6
CONTINUOUS
 10
9.948410101
 20
19.8395783558
 40
0.0787401575
100
AcDbArc
 50
180.0
 51
216.0
  0
ARC
  5
747
100
AcDbEntity
  8
7_ALL_ROUNDS
100
AcDbCircle
 62
7
  6
CONTINUOUS
 10
9.948410101
 20
19.8395783558
 40
0.0787401575
100
AcDbArc
 50
234.0
 51
270.0
  0
CIRCLE
  5
748
100
AcDbEntity
  8
0
100
AcDbCircle
 62
7
  6
CONTINUOUS
 10
9.4720036224
 20
19.5797358361
 40
0.0738188976
  0
CIRCLE
  5
749
100
AcDbEntity
  8
0
100
AcDbCircle
 62
7
  6
CONTINUOUS
 10
8.3696984693
 20
19.5797358361
 40
0.0738188976
  0
CIRCLE
  5
74A
100
AcDbEntity
  8
0
100
AcDbCircle
 62
7
  6
CONTINUOUS
 10
23.8949413574
 20
35.7892656816
 40
4.1929133858
  0
CIRCLE
  5
74B
100
AcDbEntity
  8
0
100
AcDbCircle
 62
7
  6
CONTINUOUS
 10
23.8949413574
 20
35.7892656816
 40
3.4448818898
  0
CIRCLE
  5
74C
100
AcDbEntity
  8
0
100
AcDbCircle
 62
7
  6
CONTINUOUS
 10
23.8949413574
 20
35.7892656816
 40
3.4251968504
  0
ARC
  5
74D
100
AcDbEntity
  8
0
100
AcDbCircle
 62
7
  6
CONTINUOUS
 10
23.3619137984
 20
35.7555373351
 40
0.0168700787
100
AcDbArc
 50
180.0
 51
270.0
  0
ARC
  5
74E
100
AcDbEntity
  8
0
100
AcDbCircle
 62
7
  6
CONTINUOUS
 10
23.3619137984
 20
35.871501902
 40
0.0168700787
100
AcDbArc
 50
90.0
 51
180.0
  0
ARC
  5
74F
100
AcDbEntity
  8
0
100
AcDbCircle
 62
7
  6
CONTINUOUS
 10
23.6088429322
 20
35.871501902
 40
0.0168700787
100
AcDbArc
 50
0.0
 51
90.0
  0
ARC
  5
750
100
AcDbEntity
  8
0
100
AcDbCircle
 62
7
  6
CONTINUOUS
 10
23.6088429322
 20
35.7555373351
 40
0.0168700787
100
AcDbArc
 50
270.0
 51
360.0
  0
ARC
  5
751
100
AcDbEntity
  8
0
100
AcDbCircle
 62
7
  6
CONTINUOUS
 10
24.0139531685
 20
35.7723956028
 40
0.0168700787
100
AcDbArc
 50
0.0
 51
90.0
  0
ARC
  5
752
100
AcDbEntity
  8
0
100
AcDbCircle
 62
7
  6
CONTINUOUS
 10
24.0139531685
 20
35.7555333981
 40
0.0168700787
100
AcDbArc
 50
270.0
 51
360.0
  0
ARC
  5
753
100
AcDbEntity
  8
0
100
AcDbCircle
 62
7
  6
CONTINUOUS
 10
23.7356342708
 20
35.7217932406
 40
0.0168700787
100
AcDbArc
 50
90.0
 51
180.0
  0
ARC
  5
754
100
AcDbEntity
  8
0
100
AcDbCircle
 62
7
  6
CONTINUOUS
 10
23.7356342708
 20
35.7049310359
 40
0.0168700787
100
AcDbArc
 50
180.0
 51
270.0
  0
ARC
  5
755
100
AcDbEntity
  8
0
100
AcDbCircle
 62
7
  6
CONTINUOUS
 10
23.8468271842
 20
35.8546396973
 40
0.0168700787
100
AcDbArc
 50
180.0
 51
270.0
  0
ARC
  5
756
100
AcDbEntity
  8
0
100
AcDbCircle
 62
7
  6
CONTINUOUS
 10
23.8468271842
 20
35.871501902
 40
0.0168700787
100
AcDbArc
 50
90.0
 51
180.0
  0
ARC
  5
757
100
AcDbEntity
  8
0
100
AcDbCircle
 62
7
  6
CONTINUOUS
 10
24.1251421448
 20
35.9052420595
 40
0.0168700787
100
AcDbArc
 50
270.0
 51
360.0
  0
ARC
  5
758
100
AcDbEntity
  8
0
100
AcDbCircle
 62
7
  6
CONTINUOUS
 10
24.1251421448
 20
35.9221042642
 40
0.0168700787
100
AcDbArc
 50
0.0
 51
90.0
  0
ARC
  5
759
100
AcDbEntity
  8
0
100
AcDbCircle
 62
7
  6
CONTINUOUS
 10
24.5793941134
 20
35.9221042642
 40
0.0168700787
100
AcDbArc
 50
0.0
 51
90.0
  0
ARC
  5
75A
100
AcDbEntity
  8
0
100
AcDbCircle
 62
7
  6
CONTINUOUS
 10
24.5793941134
 20
35.7049349729
 40
0.0168700787
100
AcDbArc
 50
270.0
 51
360.0
  0
ARC
  5
75B
100
AcDbEntity
  8
0
100
AcDbCircle
 62
7
  6
CONTINUOUS
 10
24.5793941134
 20
35.7217971776
 40
0.0168700787
100
AcDbArc
 50
0.0
 51
90.0
  0
ARC
  5
75C
100
AcDbEntity
  8
0
100
AcDbCircle
 62
7
  6
CONTINUOUS
 10
24.2916185228
 20
35.7555373351
 40
0.0168700787
100
AcDbArc
 50
180.0
 51
270.0
  0
ARC
  5
75D
100
AcDbEntity
  8
0
100
AcDbCircle
 62
7
  6
CONTINUOUS
 10
24.2916185228
 20
35.871501902
 40
0.0168700787
100
AcDbArc
 50
90.0
 51
180.0
  0
ARC
  5
75E
100
AcDbEntity
  8
0
100
AcDbCircle
 62
7
  6
CONTINUOUS
 10
24.5793941134
 20
35.9052420595
 40
0.0168700787
100
AcDbArc
 50
270.0
 51
360.0
  0
ARC
  5
75F
100
AcDbEntity
  8
0
100
AcDbCircle
 62
7
  6
CONTINUOUS
 10
23.5842720661
 20
35.7555373351
 40
0.0077086614
100
AcDbArc
 50
0.0
 51
90.0
  0
ARC
  5
760
100
AcDbEntity
  8
0
100
AcDbCircle
 62
7
  6
CONTINUOUS
 10
23.5114531685
 20
35.7555373351
 40
0.0077086614
100
AcDbArc
 50
90.0
 51
180.0
  0
ARC
  5
761
100
AcDbEntity
  8
0
100
AcDbCircle
 62
7
  6
CONTINUOUS
 10
23.5114531685
 20
35.6712066264
 40
0.0077086614
100
AcDbArc
 50
180.0
 51
270.0
  0
ARC
  5
762
100
AcDbEntity
  8
0
100
AcDbCircle
 62
7
  6
CONTINUOUS
 10
23.5842720661
 20
35.6712066264
 40
0.0077086614
100
AcDbArc
 50
270.0
 51
360.0
  0
ARC
  5
763
100
AcDbEntity
  8
0
100
AcDbCircle
 62
7
  6
CONTINUOUS
 10
23.4618704913
 20
10.0634500064
 40
1.1811023622
100
AcDbArc
 50
180.0
 51
270.0
  0
ARC
  5
764
100
AcDbEntity
  8
0
100
AcDbCircle
 62
7
  6
CONTINUOUS
 10
23.8475624237
 20
10.0634500064
 40
0.4424410406
100
AcDbArc
 50
128.5049127361
 51
231.4950872639
  0
ARC
  5
765
100
AcDbEntity
  8
0
100
AcDbCircle
 62
7
  6
CONTINUOUS
 10
23.8475624237
 20
10.0634500064
 40
0.3558268674
100
AcDbArc
 50
122.0535649858
 51
237.9464350142
  0
CIRCLE
  5
766
100
AcDbEntity
  8
7_ALL_ROUNDS
100
AcDbCircle
 62
7
  6
CONTINUOUS
 10
23.2256500189
 20
10.0634500064
 40
0.1535433071
  0
ARC
  5
767
100
AcDbEntity
  8
0
100
AcDbCircle
 62
7
  6
CONTINUOUS
 10
23.0051775779
 20
10.0634500064
 40
0.094488189
100
AcDbArc
 50
90.0
 51
270.0
  0
CIRCLE
  5
768
100
AcDbEntity
  8
7_ALL_ROUNDS
100
AcDbCircle
 62
9
  6
CONTINUOUS
 10
23.2256500189
 20
10.0634500064
 40
0.0669291339
  0
ARC
  5
769
100
AcDbEntity
  8
7_ALL_ROUNDS
100
AcDbCircle
 62
7
  6
CONTINUOUS
 10
21.9264374204
 20
11.6776232348
 40
0.7874015748
100
AcDbArc
 50
180.0
 51
270.0
  0
ARC
  5
76A
100
AcDbEntity
  8
0
100
AcDbCircle
 62
7
  6
CONTINUOUS
 10
20.627224822
 20
10.89022166
 40
0.3937007874
100
AcDbArc
 50
227.9887038226
 51
316.9470308815
  0
ARC
  5
76B
100
AcDbEntity
  8
0
100
AcDbCircle
 62
7
  6
CONTINUOUS
 10
20.627224822
 20
10.89022166
 40
0.3937007874
100
AcDbArc
 50
43.0529691185
 51
63.2563160496
  0
ARC
  5
76C
100
AcDbEntity
  8
0
100
AcDbCircle
 62
7
  6
CONTINUOUS
 10
20.627224822
 20
10.89022166
 40
0.3937007874
100
AcDbArc
 50
116.7436839504
 51
132.0112961774
  0
ARC
  5
76D
100
AcDbEntity
  8
0
100
AcDbCircle
 62
7
  6
CONTINUOUS
 10
20.627224822
 20
10.89022166
 40
0.2362204724
100
AcDbArc
 50
270.0
 51
41.4096221093
  0
CIRCLE
  5
76E
100
AcDbEntity
  8
0
100
AcDbCircle
 62
7
  6
CONTINUOUS
 10
20.627224822
 20
10.89022166
 40
0.1968503937
  0
CIRCLE
  5
76F
100
AcDbEntity
  8
0
100
AcDbCircle
 62
7
  6
CONTINUOUS
 10
20.627224822
 20
10.89022166
 40
0.0590551181
  0
ARC
  5
770
100
AcDbEntity
  8
7_ALL_ROUNDS
100
AcDbCircle
 62
7
  6
CONTINUOUS
 10
21.9264374204
 20
13.3311665418
 40
0.7874015748
100
AcDbArc
 50
90.0
 51
180.0
  0
ARC
  5
771
100
AcDbEntity
  8
0
100
AcDbCircle
 62
9
  6
CONTINUOUS
 10
23.284705137
 20
11.795733471
 40
0.8267716535
100
AcDbArc
 50
90.0
 51
128.9448035941
  0
ARC
  5
772
100
AcDbEntity
  8
7_ALL_ROUNDS
100
AcDbCircle
 62
7
  6
CONTINUOUS
 10
23.284705137
 20
11.795733471
 40
0.4724409449
100
AcDbArc
 50
90.0
 51
180.0
  0
ARC
  5
773
100
AcDbEntity
  8
7_ALL_ROUNDS
100
AcDbCircle
 62
7
  6
CONTINUOUS
 10
22.3988783653
 20
11.2445523686
 40
0.1181102362
100
AcDbArc
 50
90.0
 51
180.0
  0
ARC
  5
774
100
AcDbEntity
  8
7_ALL_ROUNDS
100
AcDbCircle
 62
7
  6
CONTINUOUS
 10
22.6469098614
 20
11.2445523686
 40
0.1181102362
100
AcDbArc
 50
0.0
 51
90.0
  0
ARC
  5
775
100
AcDbEntity
  8
7_ALL_ROUNDS
100
AcDbCircle
 62
9
  6
CONTINUOUS
 10
23.284705137
 20
11.795733471
 40
0.1181102362
100
AcDbArc
 50
90.0
 51
180.0
  0
CIRCLE
  5
776
100
AcDbEntity
  8
0
100
AcDbCircle
 62
7
  6
CONTINUOUS
 10
22.5228941134
 20
11.1126626048
 40
0.0846456693
  0
ARC
  5
777
100
AcDbEntity
  8
0
100
AcDbCircle
 62
7
  6
CONTINUOUS
 10
22.5248626173
 20
13.3646311088
 40
0.094488189
100
AcDbArc
 50
90.0
 51
270.0
  0
ARC
  5
778
100
AcDbEntity
  8
0
100
AcDbCircle
 62
7
  6
CONTINUOUS
 10
23.8949413574
 20
7.6225051245
 40
0.3937007874
100
AcDbArc
 50
317.9887038226
 51
46.9470308815
  0
ARC
  5
779
100
AcDbEntity
  8
0
100
AcDbCircle
 62
7
  6
CONTINUOUS
 10
23.8949413574
 20
7.6225051245
 40
0.3937007874
100
AcDbArc
 50
133.0529691185
 51
153.2563160496
  0
ARC
  5
77A
100
AcDbEntity
  8
0
100
AcDbCircle
 62
7
  6
CONTINUOUS
 10
23.8949413574
 20
7.6225051245
 40
0.3937007874
100
AcDbArc
 50
206.7436839504
 51
222.0112961774
  0
ARC
  5
77B
100
AcDbEntity
  8
0
100
AcDbCircle
 62
7
  6
CONTINUOUS
 10
23.8949413574
 20
7.6225051245
 40
0.2362204724
100
AcDbArc
 50
0.0
 51
131.4096221093
  0
CIRCLE
  5
77C
100
AcDbEntity
  8
0
100
AcDbCircle
 62
7
  6
CONTINUOUS
 10
23.8949413574
 20
7.6225051245
 40
0.1968503937
  0
CIRCLE
  5
77D
100
AcDbEntity
  8
0
100
AcDbCircle
 62
7
  6
CONTINUOUS
 10
23.8949413574
 20
7.6225051245
 40
0.0590551181
  0
ARC
  5
77E
100
AcDbEntity
  8
0
100
AcDbCircle
 62
7
  6
CONTINUOUS
 10
24.3280122236
 20
10.0634500064
 40
1.1811023622
100
AcDbArc
 50
270.0
 51
360.0
  0
ARC
  5
77F
100
AcDbEntity
  8
0
100
AcDbCircle
 62
7
  6
CONTINUOUS
 10
23.8949413574
 20
10.0634500064
 40
0.4625984252
100
AcDbArc
 50
59.2782171634
 51
65.3533294553
  0
ARC
  5
780
100
AcDbEntity
  8
0
100
AcDbCircle
 62
7
  6
CONTINUOUS
 10
23.8949413574
 20
10.0634500064
 40
0.4625984252
100
AcDbArc
 50
239.2570640204
 51
300.7429359796
  0
ARC
  5
781
100
AcDbEntity
  8
0
100
AcDbCircle
 62
7
  6
CONTINUOUS
 10
23.8949413574
 20
10.0634500064
 40
0.4625984252
100
AcDbArc
 50
114.6466705447
 51
120.7217828366
  0
ARC
  5
782
100
AcDbEntity
  8
0
100
AcDbCircle
 62
7
  6
CONTINUOUS
 10
23.8949413574
 20
10.0634500064
 40
0.4625984252
100
AcDbArc
 50
348.2140903796
 51
11.7859096204
  0
ARC
  5
783
100
AcDbEntity
  8
0
100
AcDbCircle
 62
7
  6
CONTINUOUS
 10
23.8949413574
 20
10.0634500064
 40
0.3228346457
100
AcDbArc
 50
338.1709339969
 51
21.8290660031
  0
ARC
  5
784
100
AcDbEntity
  8
0
100
AcDbCircle
 62
7
  6
CONTINUOUS
 10
23.8949413574
 20
10.0634500064
 40
0.2362204724
100
AcDbArc
 50
328.4296818292
 51
31.5703181708
  0
ARC
  5
785
100
AcDbEntity
  8
0
100
AcDbCircle
 62
7
  6
CONTINUOUS
 10
24.0328423354
 20
9.8538201963
 40
0.1849336677
100
AcDbArc
 50
0.0
 51
28.9751145479
  0
ARC
  5
786
100
AcDbEntity
  8
0
100
AcDbCircle
 62
7
  6
CONTINUOUS
 10
24.0328423354
 20
10.2730798165
 40
0.1849336677
100
AcDbArc
 50
331.0248854521
 51
360.0
  0
ARC
  5
787
100
AcDbEntity
  8
0
100
AcDbCircle
 62
7
  6
CONTINUOUS
 10
23.9808367284
 20
10.2835002208
 40
0.1503251015
100
AcDbArc
 50
320.1237042577
 51
360.0
  0
ARC
  5
788
100
AcDbEntity
  8
0
100
AcDbCircle
 62
7
  6
CONTINUOUS
 10
23.9808367284
 20
9.843399792
 40
0.1503251015
100
AcDbArc
 50
0.0
 51
39.8762957423
  0
ARC
  5
789
100
AcDbEntity
  8
0
100
AcDbCircle
 62
7
  6
CONTINUOUS
 10
24.3437602551
 20
10.0634500064
 40
0.094488189
100
AcDbArc
 50
90.0
 51
270.0
  0
ARC
  5
78A
100
AcDbEntity
  8
7_ALL_ROUNDS
100
AcDbCircle
 62
7
  6
CONTINUOUS
 10
24.2492720661
 20
10.6815317168
 40
0.0866141732
100
AcDbArc
 50
0.0
 51
90.0
  0
ARC
  5
78B
100
AcDbEntity
  8
7_ALL_ROUNDS
100
AcDbCircle
 62
7
  6
CONTINUOUS
 10
24.2492720661
 20
10.5476734491
 40
0.0866141732
100
AcDbArc
 50
270.0
 51
360.0
  0
ARC
  5
78C
100
AcDbEntity
  8
7_ALL_ROUNDS
100
AcDbCircle
 62
7
  6
CONTINUOUS
 10
24.2492720661
 20
9.445368296
 40
0.0866141732
100
AcDbArc
 50
270.0
 51
360.0
  0
ARC
  5
78D
100
AcDbEntity
  8
7_ALL_ROUNDS
100
AcDbCircle
 62
7
  6
CONTINUOUS
 10
24.2492720661
 20
9.5792265637
 40
0.0866141732
100
AcDbArc
 50
0.0
 51
90.0
  0
CIRCLE
  5
78E
100
AcDbEntity
  8
7_ALL_ROUNDS
100
AcDbCircle
 62
7
  6
CONTINUOUS
 10
24.564232696
 20
10.0634500064
 40
0.1535433071
  0
ARC
  5
78F
100
AcDbEntity
  8
0
100
AcDbCircle
 62
7
  6
CONTINUOUS
 10
24.9421854519
 20
10.0634500064
 40
0.094488189
100
AcDbArc
 50
270.0
 51
90.0
  0
CIRCLE
  5
790
100
AcDbEntity
  8
7_ALL_ROUNDS
100
AcDbCircle
 62
9
  6
CONTINUOUS
 10
24.564232696
 20
10.0634500064
 40
0.0669291339
  0
CIRCLE
  5
791
100
AcDbEntity
  8
0
100
AcDbCircle
 62
7
  6
CONTINUOUS
 10
23.8949413574
 20
10.89022166
 40
4.1929133858
  0
ARC
  5
792
100
AcDbEntity
  8
0
100
AcDbCircle
 62
7
  6
CONTINUOUS
 10
23.8949413574
 20
10.89022166
 40
3.5433070866
100
AcDbArc
 50
141.1830741519
 51
163.1662808478
  0
ARC
  5
793
100
AcDbEntity
  8
0
100
AcDbCircle
 62
7
  6
CONTINUOUS
 10
23.8949413574
 20
10.89022166
 40
3.5433070866
100
AcDbArc
 50
346.6258400129
 51
73.165759316
  0
ARC
  5
794
100
AcDbEntity
  8
0
100
AcDbCircle
 62
7
  6
CONTINUOUS
 10
23.8949413574
 20
10.89022166
 40
3.5433070866
100
AcDbArc
 50
76.6238424189
 51
114.0387866449
  0
ARC
  5
795
100
AcDbEntity
  8
0
100
AcDbCircle
 62
7
  6
CONTINUOUS
 10
23.8949413574
 20
10.89022166
 40
3.5433070866
100
AcDbArc
 50
166.6258400129
 51
253.165759316
  0
ARC
  5
796
100
AcDbEntity
  8
0
100
AcDbCircle
 62
7
  6
CONTINUOUS
 10
23.8949413574
 20
10.89022166
 40
3.5433070866
100
AcDbArc
 50
256.6238424189
 51
343.1662808478
  0
ARC
  5
797
100
AcDbEntity
  8
0
100
AcDbCircle
 62
7
  6
CONTINUOUS
 10
23.8949413574
 20
10.89022166
 40
2.9921259843
100
AcDbArc
 50
157.2944021014
 51
112.2143983697
  0
ARC
  5
798
100
AcDbEntity
  8
7_ALL_ROUNDS
100
AcDbCircle
 62
7
  6
CONTINUOUS
 10
23.8949413574
 20
10.89022166
 40
2.7952755906
100
AcDbArc
 50
167.9053690335
 51
120.6665822966
  0
ARC
  5
799
100
AcDbEntity
  8
7_ALL_ROUNDS
100
AcDbCircle
 62
9
  6
CONTINUOUS
 10
23.8949413574
 20
10.89022166
 40
2.4015748031
100
AcDbArc
 50
277.5359598922
 51
360.0
  0
ARC
  5
79A
100
AcDbEntity
  8
0
100
AcDbCircle
 62
9
  6
CONTINUOUS
 10
23.8949413574
 20
10.89022166
 40
2.4015748031
100
AcDbArc
 50
0.0
 51
118.0662252845
  0
ARC
  5
79B
100
AcDbEntity
  8
7_ALL_ROUNDS
100
AcDbCircle
 62
9
  6
CONTINUOUS
 10
23.8949413574
 20
10.89022166
 40
2.4015748031
100
AcDbArc
 50
176.955026694
 51
262.4640196463
  0
ARC
  5
79C
100
AcDbEntity
  8
7_ALL_ROUNDS
100
AcDbCircle
 62
7
  6
CONTINUOUS
 10
24.7689571055
 20
11.1658122111
 40
0.1968503937
100
AcDbArc
 50
0.0
 51
90.0
  0
ARC
  5
79D
100
AcDbEntity
  8
7_ALL_ROUNDS
100
AcDbCircle
 62
7
  6
CONTINUOUS
 10
24.7610830897
 20
11.1658122111
 40
0.1968503937
100
AcDbArc
 50
90.0
 51
180.0
  0
CIRCLE
  5
79E
100
AcDbEntity
  8
7_ALL_ROUNDS
100
AcDbCircle
 62
7
  6
CONTINUOUS
 10
24.7610830897
 20
11.1658122111
 40
0.1535433071
  0
CIRCLE
  5
79F
100
AcDbEntity
  8
7_ALL_ROUNDS
100
AcDbCircle
 62
9
  6
CONTINUOUS
 10
24.7610830897
 20
11.1658122111
 40
0.0748031496
  0
ARC
  5
7A0
100
AcDbEntity
  8
7_ALL_ROUNDS
100
AcDbCircle
 62
9
  6
CONTINUOUS
 10
24.5051775779
 20
11.795733471
 40
0.8267716535
100
AcDbArc
 50
0.0
 51
90.0
  0
ARC
  5
7A1
100
AcDbEntity
  8
7_ALL_ROUNDS
100
AcDbCircle
 62
7
  6
CONTINUOUS
 10
24.5051775779
 20
11.795733471
 40
0.4724409449
100
AcDbArc
 50
0.0
 51
90.0
  0
ARC
  5
7A2
100
AcDbEntity
  8
7_ALL_ROUNDS
100
AcDbCircle
 62
9
  6
CONTINUOUS
 10
24.5051775779
 20
11.795733471
 40
0.1181102362
100
AcDbArc
 50
0.0
 51
90.0
  0
ARC
  5
7A3
100
AcDbEntity
  8
0
100
AcDbCircle
 62
7
  6
CONTINUOUS
 10
23.8949413574
 20
14.1579381954
 40
0.3937007874
100
AcDbArc
 50
137.9887038226
 51
226.9470308815
  0
ARC
  5
7A4
100
AcDbEntity
  8
0
100
AcDbCircle
 62
7
  6
CONTINUOUS
 10
23.8949413574
 20
14.1579381954
 40
0.3937007874
100
AcDbArc
 50
313.0529691185
 51
333.2563160496
  0
ARC
  5
7A5
100
AcDbEntity
  8
0
100
AcDbCircle
 62
7
  6
CONTINUOUS
 10
23.8949413574
 20
14.1579381954
 40
0.3937007874
100
AcDbArc
 50
26.7436839504
 51
42.0112961774
  0
ARC
  5
7A6
100
AcDbEntity
  8
0
100
AcDbCircle
 62
7
  6
CONTINUOUS
 10
23.8949413574
 20
14.1579381954
 40
0.2362204724
100
AcDbArc
 50
180.0
 51
311.4096221093
  0
CIRCLE
  5
7A7
100
AcDbEntity
  8
0
100
AcDbCircle
 62
7
  6
CONTINUOUS
 10
23.8949413574
 20
14.1579381954
 40
0.1968503937
  0
CIRCLE
  5
7A8
100
AcDbEntity
  8
0
100
AcDbCircle
 62
7
  6
CONTINUOUS
 10
23.8949413574
 20
14.1579381954
 40
0.0590551181
  0
ARC
  5
7A9
100
AcDbEntity
  8
0
100
AcDbCircle
 62
7
  6
CONTINUOUS
 10
27.1626578929
 20
10.89022166
 40
0.3937007874
100
AcDbArc
 50
47.9887038226
 51
136.9470308815
  0
ARC
  5
7AA
100
AcDbEntity
  8
0
100
AcDbCircle
 62
7
  6
CONTINUOUS
 10
27.1626578929
 20
10.89022166
 40
0.3937007874
100
AcDbArc
 50
223.0529691185
 51
243.2563160496
  0
ARC
  5
7AB
100
AcDbEntity
  8
0
100
AcDbCircle
 62
7
  6
CONTINUOUS
 10
27.1626578929
 20
10.89022166
 40
0.3937007874
100
AcDbArc
 50
296.7436839504
 51
312.0112961774
  0
ARC
  5
7AC
100
AcDbEntity
  8
0
100
AcDbCircle
 62
7
  6
CONTINUOUS
 10
27.1626578929
 20
10.89022166
 40
0.2362204724
100
AcDbArc
 50
90.0
 51
221.4096221093
  0
CIRCLE
  5
7AD
100
AcDbEntity
  8
0
100
AcDbCircle
 62
7
  6
CONTINUOUS
 10
27.1626578929
 20
10.89022166
 40
0.1968503937
  0
CIRCLE
  5
7AE
100
AcDbEntity
  8
0
100
AcDbCircle
 62
7
  6
CONTINUOUS
 10
27.1626578929
 20
10.89022166
 40
0.0590551181
  0
ARC
  5
7AF
100
AcDbEntity
  8
0
100
AcDbCircle
 62
7
  6
CONTINUOUS
 10
45.5419381481
 20
14.4099384791
 40
25.4460875289
100
AcDbArc
 50
59.6077635564
 51
60.521492269
  0
ARC
  5
7B0
100
AcDbEntity
  8
0
100
AcDbCircle
 62
7
  6
CONTINUOUS
 10
46.0521933121
 20
15.6092077331
 40
23.8740296384
100
AcDbArc
 50
58.4857961568
 51
60.5353509405
  0
ARC
  5
7B1
100
AcDbEntity
  8
0
100
AcDbCircle
 62
7
  6
CONTINUOUS
 10
46.5153919835
 20
16.0654049404
 40
23.5256249418
100
AcDbArc
 50
59.3746597538
 51
59.6130132852
  0
ARC
  5
7B2
100
AcDbEntity
  8
0
100
AcDbCircle
 62
7
  6
CONTINUOUS
 10
46.6586064841
 20
16.3107719153
 40
23.2415351052
100
AcDbArc
 50
58.4783164152
 51
58.695833092
  0
ARC
  5
7B3
100
AcDbEntity
  8
0
100
AcDbCircle
 62
7
  6
CONTINUOUS
 10
46.7232994394
 20
16.4170812499
 40
23.1170889258
100
AcDbArc
 50
58.6959289737
 51
59.3740554824
  0
ARC
  5
7B4
100
AcDbEntity
  8
0
100
AcDbCircle
 62
7
  6
CONTINUOUS
 10
46.7077013596
 20
16.7944532463
 40
22.519652362
100
AcDbArc
 50
60.5041023382
 51
60.6442463889
  0
ARC
  5
7B5
100
AcDbEntity
  8
0
100
AcDbCircle
 62
7
  6
CONTINUOUS
 10
47.2504993123
 20
17.4251229364
 40
21.9804701967
100
AcDbArc
 50
60.5308973012
 51
61.1629573601
  0
ARC
  5
7B6
100
AcDbEntity
  8
0
100
AcDbCircle
 62
7
  6
CONTINUOUS
 10
47.1021059068
 20
17.4978014803
 40
21.7132699731
100
AcDbArc
 50
60.6414945081
 51
61.4576475415
  0
ARC
  5
7B7
100
AcDbEntity
  8
0
100
AcDbCircle
 62
7
  6
CONTINUOUS
 10
47.5369753831
 20
17.9438950274
 40
21.3878552605
100
AcDbArc
 50
61.1649327728
 51
61.5558271133
  0
ARC
  5
7B8
100
AcDbEntity
  8
0
100
AcDbCircle
 62
7
  6
CONTINUOUS
 10
57.6471460129
 20
38.8383432692
 40
5.1355737837
100
AcDbArc
 50
248.6369215735
 51
249.1818679556
  0
ARC
  5
7B9
100
AcDbEntity
  8
0
100
AcDbCircle
 62
7
  6
CONTINUOUS
 10
57.4720506008
 20
36.4508441394
 40
3.7199146923
100
AcDbArc
 50
243.2001403761
 51
243.9361907677
  0
ARC
  5
7BA
100
AcDbEntity
  8
0
100
AcDbCircle
 62
7
  6
CONTINUOUS
 10
57.0996546822
 20
35.5488768811
 40
2.9747590974
100
AcDbArc
 50
235.7147315077
 51
236.5690670825
  0
ARC
  5
7BB
100
AcDbEntity
  8
7_ALL_ROUNDS
100
AcDbCircle
 62
7
  6
CONTINUOUS
 10
56.944124743
 20
30.8339247515
 40
1.6699533186
100
AcDbArc
 50
218.5421089459
 51
219.9870940767
  0
ARC
  5
7BC
100
AcDbEntity
  8
7_ALL_ROUNDS
100
AcDbCircle
 62
7
  6
CONTINUOUS
 10
56.9109603171
 20
30.8075084997
 40
1.6275540557
100
AcDbArc
 50
217.0226888455
 51
218.5422119979
  0
ARC
  5
7BD
100
AcDbEntity
  8
0
100
AcDbCircle
 62
7
  6
CONTINUOUS
 10
55.3352479459
 20
36.0604863808
 40
1.4004386352
100
AcDbArc
 50
182.6339811676
 51
183.385352983
  0
ARC
  5
7BE
100
AcDbEntity
  8
0
100
AcDbCircle
 62
7
  6
CONTINUOUS
 10
55.3338207457
 20
36.0604195852
 40
1.3990098733
100
AcDbArc
 50
179.99840333
 51
182.6339345869
  0
ARC
  5
7BF
100
AcDbEntity
  8
0
100
AcDbCircle
 62
7
  6
CONTINUOUS
 10
55.863877851
 20
36.0157695196
 40
1.1812534018
100
AcDbArc
 50
168.4170229101
 51
172.6339014367
  0
ARC
  5
7C0
100
AcDbEntity
  8
0
100
AcDbCircle
 62
7
  6
CONTINUOUS
 10
55.8488374838
 20
36.17113552
 40
1.1660613158
100
AcDbArc
 50
187.0600647163
 51
187.585930394
  0
ARC
  5
7C1
100
AcDbEntity
  8
0
100
AcDbCircle
 62
7
  6
CONTINUOUS
 10
55.8481228028
 20
36.0180103738
 40
1.1653410972
100
AcDbArc
 50
172.6438539619
 51
172.9399659932
  0
ARC
  5
7C2
100
AcDbEntity
  8
0
100
AcDbCircle
 62
7
  6
CONTINUOUS
 10
55.8417258905
 20
36.0187593329
 40
1.1589006336
100
AcDbArc
 50
172.9378420963
 51
176.255267678
  0
ARC
  5
7C3
100
AcDbEntity
  8
0
100
AcDbCircle
 62
7
  6
CONTINUOUS
 10
55.8387714535
 20
36.1699710715
 40
1.1559284885
100
AcDbArc
 50
180.2620839502
 51
187.0641090873
  0
ARC
  5
7C4
100
AcDbEntity
  8
0
100
AcDbCircle
 62
7
  6
CONTINUOUS
 10
55.8467504235
 20
36.0193897612
 40
1.1442226712
100
AcDbArc
 50
179.9984207786
 51
182.918171918
  0
ARC
  5
7C5
100
AcDbEntity
  8
7_ALL_ROUNDS
100
AcDbCircle
 62
7
  6
CONTINUOUS
 10
54.8080853288
 20
30.3527263807
 40
0.7104208751
100
AcDbArc
 50
237.224756414
 51
240.0110911001
  0
ARC
  5
7C6
100
AcDbEntity
  8
0
100
AcDbCircle
 62
7
  6
CONTINUOUS
 10
55.8160085292
 20
32.97090783
 40
0.3268076311
100
AcDbArc
 50
262.0755038997
 51
264.7849182699
  0
ARC
  5
7C7
100
AcDbEntity
  8
0
100
AcDbCircle
 62
7
  6
CONTINUOUS
 10
55.8157500593
 20
33.5463438577
 40
0.3236910778
100
AcDbArc
 50
258.7310688197
 51
266.2687386461
  0
ARC
  5
7C8
100
AcDbEntity
  8
7_ALL_ROUNDS
100
AcDbCircle
 62
7
  6
CONTINUOUS
 10
54.5052556993
 20
30.1204903881
 40
0.2832494077
100
AcDbArc
 50
192.2610797747
 51
199.0378577588
  0
ARC
  5
7C9
100
AcDbEntity
  8
7_ALL_ROUNDS
100
AcDbCircle
 62
7
  6
CONTINUOUS
 10
54.4898541043
 20
30.1171271403
 40
0.267484881
100
AcDbArc
 50
180.0681422225
 51
192.2577066731
  0
ARC
  5
7CA
100
AcDbEntity
  8
0
100
AcDbCircle
 62
7
  6
CONTINUOUS
 10
55.3765580324
 20
29.7780186603
 40
0.0702492662
100
AcDbArc
 50
126.3461161812
 51
129.9977866009
  0
ARC
  5
7CB
100
AcDbEntity
  8
0
100
AcDbCircle
 62
7
  6
CONTINUOUS
 10
55.373162305
 20
29.7821066526
 40
0.0649349552
100
AcDbArc
 50
130.0209284983
 51
131.9420284824
  0
ARC
  5
7CC
100
AcDbEntity
  8
0
100
AcDbCircle
 62
7
  6
CONTINUOUS
 10
69.3266894728
 20
16.3381693473
 40
23.4788783559
100
AcDbArc
 50
120.0067227639
 51
120.3997565362
  0
ARC
  5
7CD
100
AcDbEntity
  8
0
100
AcDbCircle
 62
7
  6
CONTINUOUS
 10
70.4124046091
 20
15.7111672687
 40
23.4788783557
100
AcDbArc
 50
120.0067227639
 51
120.3997565362
  0
ARC
  5
7CE
100
AcDbEntity
  8
0
100
AcDbCircle
 62
7
  6
CONTINUOUS
 10
70.2742798796
 20
15.9506022999
 40
23.2024591851
100
AcDbArc
 50
119.6145868192
 51
120.007044832
  0
ARC
  5
7CF
100
AcDbEntity
  8
0
100
AcDbCircle
 62
7
  6
CONTINUOUS
 10
69.1875784639
 20
16.5793216085
 40
23.2004788814
100
AcDbArc
 50
119.6108838836
 51
120.0070564772
  0
ARC
  5
7D0
100
AcDbEntity
  8
0
100
AcDbCircle
 62
7
  6
CONTINUOUS
 10
58.6062876629
 20
38.8437267532
 40
5.1413203978
100
AcDbArc
 50
290.8315730003
 51
291.3609743755
  0
ARC
  5
7D1
100
AcDbEntity
  8
0
100
AcDbCircle
 62
7
  6
CONTINUOUS
 10
58.783393696
 20
36.193713541
 40
3.7199146924
100
AcDbArc
 50
296.0638092323
 51
296.7998596239
  0
ARC
  5
7D2
100
AcDbEntity
  8
0
100
AcDbCircle
 62
7
  6
CONTINUOUS
 10
58.940191742
 20
37.5741403556
 40
3.2462307026
100
AcDbArc
 50
299.8262858468
 51
300.006407799
  0
ARC
  5
7D3
100
AcDbEntity
  8
0
100
AcDbCircle
 62
7
  6
CONTINUOUS
 10
58.9452017238
 20
37.5455411038
 40
3.2083770101
100
AcDbArc
 50
300.0064306014
 51
300.1767124833
  0
ARC
  5
7D4
100
AcDbEntity
  8
0
100
AcDbCircle
 62
7
  6
CONTINUOUS
 10
59.1557896146
 20
35.8060074796
 40
2.9747590973
100
AcDbArc
 50
303.4309329175
 51
304.2852684923
  0
ARC
  5
7D5
100
AcDbEntity
  8
0
100
AcDbCircle
 62
7
  6
CONTINUOUS
 10
60.9203754533
 20
36.0605245461
 40
1.400257972
100
AcDbArc
 50
357.3878810362
 51
359.9973004602
  0
ARC
  5
7D6
100
AcDbEntity
  8
0
100
AcDbCircle
 62
7
  6
CONTINUOUS
 10
60.3915603721
 20
36.0157701529
 40
1.18125935
100
AcDbArc
 50
7.3660302924
 51
11.582886845
  0
ARC
  5
7D7
100
AcDbEntity
  8
0
100
AcDbCircle
 62
7
  6
CONTINUOUS
 10
60.4066300404
 20
36.1711337128
 40
1.1660380424
100
AcDbArc
 50
352.4140068879
 51
352.9398831287
  0
ARC
  5
7D8
100
AcDbEntity
  8
0
100
AcDbCircle
 62
7
  6
CONTINUOUS
 10
60.4072973104
 20
36.0180084452
 40
1.1653653345
100
AcDbArc
 50
7.0599819682
 51
7.356087805
  0
ARC
  5
7D9
100
AcDbEntity
  8
0
100
AcDbCircle
 62
7
  6
CONTINUOUS
 10
60.4136988625
 20
36.0187579148
 40
1.1589202036
100
AcDbArc
 50
3.7447392299
 51
7.0621086851
  0
ARC
  5
7DA
100
AcDbEntity
  8
0
100
AcDbCircle
 62
7
  6
CONTINUOUS
 10
60.4166860818
 20
36.1699702436
 40
1.1559152487
100
AcDbArc
 50
352.9358509406
 51
359.7379540891
  0
ARC
  5
7DB
100
AcDbEntity
  8
0
100
AcDbCircle
 62
7
  6
CONTINUOUS
 10
60.4102897783
 20
36.0192686878
 40
1.142626767
100
AcDbArc
 50
357.9640344369
 51
359.9972603886
  0
ARC
  5
7DC
100
AcDbEntity
  8
0
100
AcDbCircle
 62
7
  6
CONTINUOUS
 10
58.2544584143
 20
36.0862514621
 40
0.425255304
100
AcDbArc
 50
117.1192916703
 51
117.9559728873
  0
ARC
  5
7DD
100
AcDbEntity
  8
0
100
AcDbCircle
 62
7
  6
CONTINUOUS
 10
60.4372575716
 20
32.97090783
 40
0.3268076311
100
AcDbArc
 50
262.0755038997
 51
264.7849182699
  0
ARC
  5
7DE
100
AcDbEntity
  8
0
100
AcDbCircle
 62
7
  6
CONTINUOUS
 10
58.177051591
 20
36.2368641792
 40
0.2559156731
100
AcDbArc
 50
116.4479653822
 51
117.0654087793
  0
ARC
  5
7DF
100
AcDbEntity
  8
0
100
AcDbCircle
 62
7
  6
CONTINUOUS
 10
58.0421922394
 20
36.4230139548
 40
0.0160068729
100
AcDbArc
 50
179.992087693
 51
186.1656439557
  0
ARC
  5
7E0
100
AcDbEntity
  8
0
100
AcDbCircle
 62
7
  6
CONTINUOUS
 10
58.2987483383
 20
36.2790834858
 40
0.0157392741
100
AcDbArc
 50
0.000248361
 51
6.8688003091
  0
ARC
  5
7E1
100
AcDbEntity
  8
0
100
AcDbCircle
 62
7
  6
CONTINUOUS
 10
51.1051868812
 20
3.8622648889
 40
23.5292819708
100
AcDbArc
 50
91.7738682135
 51
98.1759339047
  0
ARC
  5
7E2
100
AcDbEntity
  8
7_ALL_ROUNDS
100
AcDbCircle
 62
7
  6
CONTINUOUS
 10
48.7429821568
 20
20.3513893794
 40
0.3937007874
100
AcDbArc
 50
180.0
 51
270.0
  0
ARC
  5
7E3
100
AcDbEntity
  8
0
100
AcDbCircle
 62
7
  6
CONTINUOUS
 10
47.6658892418
 20
25.1831754002
 40
1.968503937
100
AcDbArc
 50
90.0
 51
111.2745161228
  0
ARC
  5
7E4
100
AcDbEntity
  8
7_ALL_ROUNDS
100
AcDbCircle
 62
7
  6
CONTINUOUS
 10
50.4083364875
 20
19.8238303243
 40
0.0866141732
100
AcDbArc
 50
180.0
 51
270.0
  0
ARC
  5
7E5
100
AcDbEntity
  8
7_ALL_ROUNDS
100
AcDbCircle
 62
7
  6
CONTINUOUS
 10
50.5421947552
 20
19.8238303243
 40
0.0866141732
100
AcDbArc
 50
270.0
 51
360.0
  0
ARC
  5
7E6
100
AcDbEntity
  8
7_ALL_ROUNDS
100
AcDbCircle
 62
7
  6
CONTINUOUS
 10
50.203612078
 20
19.8395783558
 40
0.0787401575
100
AcDbArc
 50
180.0
 51
270.0
  0
ARC
  5
7E7
100
AcDbEntity
  8
7_ALL_ROUNDS
100
AcDbCircle
 62
7
  6
CONTINUOUS
 10
50.9477065662
 20
19.4458775684
 40
0.1181102362
100
AcDbArc
 50
180.0
 51
270.0
  0
ARC
  5
7E8
100
AcDbEntity
  8
7_ALL_ROUNDS
100
AcDbCircle
 62
7
  6
CONTINUOUS
 10
50.7902262513
 20
19.5128067022
 40
0.0866141732
100
AcDbArc
 50
180.0
 51
270.0
  0
ARC
  5
7E9
100
AcDbEntity
  8
7_ALL_ROUNDS
100
AcDbCircle
 62
7
  6
CONTINUOUS
 10
50.7902262513
 20
19.6466649699
 40
0.0866141732
100
AcDbArc
 50
90.0
 51
180.0
  0
ARC
  5
7EA
100
AcDbEntity
  8
0
100
AcDbCircle
 62
7
  6
CONTINUOUS
 10
51.1445569599
 20
1.8283573894
 40
25.562662461
100
AcDbArc
 50
88.2789925526
 51
91.7210074474
  0
ARC
  5
7EB
100
AcDbEntity
  8
0
100
AcDbCircle
 62
7
  6
CONTINUOUS
 10
51.1839270387
 20
3.8622648889
 40
23.5292819708
100
AcDbArc
 50
81.8240660953
 51
88.2261317865
  0
CIRCLE
  5
7EC
100
AcDbEntity
  8
0
100
AcDbCircle
 62
7
  6
CONTINUOUS
 10
51.1445569599
 20
19.6033578833
 40
0.155511811
  0
ARC
  5
7ED
100
AcDbEntity
  8
7_ALL_ROUNDS
100
AcDbCircle
 62
7
  6
CONTINUOUS
 10
51.3414073536
 20
19.4458775684
 40
0.1181102362
100
AcDbArc
 50
270.0
 51
360.0
  0
ARC
  5
7EE
100
AcDbEntity
  8
7_ALL_ROUNDS
100
AcDbCircle
 62
7
  6
CONTINUOUS
 10
51.7469191647
 20
19.8238303243
 40
0.0866141732
100
AcDbArc
 50
180.0
 51
270.0
  0
ARC
  5
7EF
100
AcDbEntity
  8
7_ALL_ROUNDS
100
AcDbCircle
 62
7
  6
CONTINUOUS
 10
51.8807774324
 20
19.8238303243
 40
0.0866141732
100
AcDbArc
 50
270.0
 51
360.0
  0
ARC
  5
7F0
100
AcDbEntity
  8
7_ALL_ROUNDS
100
AcDbCircle
 62
7
  6
CONTINUOUS
 10
53.5461317631
 20
20.3513893794
 40
0.3937007874
100
AcDbArc
 50
270.0
 51
360.0
  0
ARC
  5
7F1
100
AcDbEntity
  8
0
100
AcDbCircle
 62
7
  6
CONTINUOUS
 10
54.623224678
 20
25.1831754002
 40
1.968503937
100
AcDbArc
 50
68.7254838772
 51
90.0
  0
SPLINE
  5
7F2
100
AcDbEntity
  8
7_ALL_ROUNDS
100
AcDbSpline
 62
7
  6
CONTINUOUS
 70
0
 71
3
 72
9
 73
5
 74
0
 42
0.0000001
 43
0.0000001
 44
0.0000000001
 40
0.0
 40
0.0
 40
0.0
 40
0.0
 40
0.2269221822
 40
1.0
 40
1.0
 40
1.0
 40
1.0
 10
9.8751938644
 20
19.957688592
 30
0.0
 10
9.8815044579
 20
19.957688592
 30
0.0
 10
9.9093173397
 20
19.9593853189
 30
0.0
 10
9.9365333172
 20
19.9665410095
 30
0.0
 10
9.9568963644
 20
19.9734366235
 30
0.0
  0
SPLINE
  5
7F3
100
AcDbEntity
  8
0
100
AcDbSpline
 62
7
  6
CONTINUOUS
 70
0
 71
3
 72
12
 73
8
 74
0
 42
0.0000001
 43
0.0000001
 44
0.0000000001
 40
0.0
 40
0.0
 40
0.0
 40
0.0
 40
0.2415790084
 40
0.4893269843
 40
0.7378634303
 40
0.8656387112
 40
1.0
 40
1.0
 40
1.0
 40
1.0
 10
23.6289098614
 20
35.6880648941
 30
0.0
 10
23.6358235092
 20
35.6880648941
 30
0.0
 10
23.6498110528
 20
35.6889690083
 30
0.0
 10
23.6702484136
 20
35.6962446787
 30
0.0
 10
23.6826092837
 20
35.7101505768
 30
0.0
 10
23.687986026
 20
35.723957784
 30
0.0
 10
23.6880752157
 20
35.7315068707
 30
0.0
 10
23.6880752157
 20
35.7353759178
 30
0.0
  0
SPLINE
  5
7F4
100
AcDbEntity
  8
0
100
AcDbSpline
 62
7
  6
CONTINUOUS
 70
0
 71
3
 72
12
 73
8
 74
0
 42
0.0000001
 43
0.0000001
 44
0.0000000001
 40
0.0
 40
0.0
 40
0.0
 40
0.0
 40
0.1343612888
 40
0.2621365697
 40
0.5106730157
 40
0.7584209916
 40
1.0
 40
1.0
 40
1.0
 40
1.0
 10
23.6880752157
 20
35.8915885162
 30
0.0
 10
23.6880752157
 20
35.8954597936
 30
0.0
 10
23.6879964855
 20
35.9030133195
 30
0.0
 10
23.6826256744
 20
35.9168326875
 30
0.0
 10
23.6702698394
 20
35.9307573609
 30
0.0
 10
23.6498262342
 20
35.9380502593
 30
0.0
 10
23.6358314313
 20
35.938974343
 30
0.0
 10
23.6289137984
 20
35.938974343
 30
0.0
  0
SPLINE
  5
7F5
100
AcDbEntity
  8
0
100
AcDbSpline
 62
7
  6
CONTINUOUS
 70
0
 71
3
 72
12
 73
8
 74
0
 42
0.0000001
 43
0.0000001
 44
0.0000000001
 40
0.0
 40
0.0
 40
0.0
 40
0.0
 40
0.1341799809
 40
0.290831959
 40
0.5815217441
 40
0.760783857
 40
1.0
 40
1.0
 40
1.0
 40
1.0
 10
23.310713011
 20
35.938974343
 30
0.0
 10
23.3036422258
 20
35.938974343
 30
0.0
 10
23.2887007489
 20
35.9345061926
 30
0.0
 10
23.2632262827
 20
35.9164626081
 30
0.0
 10
23.2512961544
 20
35.884033266
 30
0.0
 10
23.2443093424
 20
35.8478785274
 30
0.0
 10
23.2438697462
 20
35.8259389319
 30
0.0
 10
23.2435673417
 20
35.8134113508
 30
0.0
  0
SPLINE
  5
7F6
100
AcDbEntity
  8
0
100
AcDbSpline
 62
7
  6
CONTINUOUS
 70
0
 71
3
 72
12
 73
8
 74
0
 42
0.0000001
 43
0.0000001
 44
0.0000000001
 40
0.0
 40
0.0
 40
0.0
 40
0.0
 40
0.2392679579
 40
0.4185688994
 40
0.7093216488
 40
0.8660075581
 40
1.0
 40
1.0
 40
1.0
 40
1.0
 10
23.2435673417
 20
35.8134113508
 30
0.0
 10
23.2432650941
 20
35.8008902696
 30
0.0
 10
23.2445230109
 20
35.7789633212
 30
0.0
 10
23.2512248369
 20
35.7428171367
 30
0.0
 10
23.2632659787
 20
35.7104567346
 30
0.0
 10
23.2886820441
 20
35.692318839
 30
0.0
 10
23.3036528449
 20
35.6880688312
 30
0.0
 10
23.310713011
 20
35.6880688312
 30
0.0
  0
SPLINE
  5
7F7
100
AcDbEntity
  8
0
100
AcDbSpline
 62
7
  6
CONTINUOUS
 70
0
 71
3
 72
13
 73
9
 74
0
 42
0.0000001
 43
0.0000001
 44
0.0000000001
 40
0.0
 40
0.0
 40
0.0
 40
0.0
 40
0.1604571392
 40
0.3334692485
 40
0.4767982758
 40
0.6242014838
 40
0.7505998515
 40
1.0
 40
1.0
 40
1.0
 40
1.0
 10
24.0848468693
 20
35.6880609571
 30
0.0
 10
24.0907094062
 20
35.6880609571
 30
0.0
 10
24.1028504355
 20
35.6894058298
 30
0.0
 10
24.1191057969
 20
35.6965385502
 30
0.0
 10
24.1312481908
 20
35.7087296
 30
0.0
 10
24.1379622385
 20
35.7225173888
 30
0.0
 10
24.1430661421
 20
35.7409705052
 30
0.0
 10
24.1427556586
 20
35.7547205015
 30
0.0
 10
24.1430043496
 20
35.7638404847
 30
0.0
  0
SPLINE
  5
7F8
100
AcDbEntity
  8
0
100
AcDbSpline
 62
7
  6
CONTINUOUS
 70
0
 71
3
 72
13
 73
9
 74
0
 42
0.0000001
 43
0.0000001
 44
0.0000000001
 40
0.0
 40
0.0
 40
0.0
 40
0.0
 40
0.2494001485
 40
0.3757985162
 40
0.5232017242
 40
0.6665307515
 40
0.8395428608
 40
1.0
 40
1.0
 40
1.0
 40
1.0
 10
24.1430043496
 20
35.7638404847
 30
0.0
 10
24.1432492301
 20
35.7728207323
 30
0.0
 10
24.1426608463
 20
35.7863586115
 30
0.0
 10
24.1375845
 20
35.8044679655
 30
0.0
 10
24.1307725595
 20
35.8179667738
 30
0.0
 10
24.1186849318
 20
35.8298176349
 30
0.0
 10
24.1025920797
 20
35.8366920264
 30
0.0
 10
24.0906235178
 20
35.8377696186
 30
0.0
 10
24.0848508063
 20
35.8377696186
 30
0.0
  0
SPLINE
  5
7F9
100
AcDbEntity
  8
0
100
AcDbSpline
 62
7
  6
CONTINUOUS
 70
0
 71
3
 72
13
 73
9
 74
0
 42
0.0000001
 43
0.0000001
 44
0.0000000001
 40
0.0
 40
0.0
 40
0.0
 40
0.0
 40
0.1133740464
 40
0.2392044088
 40
0.3655787964
 40
0.4912154373
 40
0.7445390876
 40
1.0
 40
1.0
 40
1.0
 40
1.0
 10
23.7759295464
 20
35.938974343
 30
0.0
 10
23.7718471677
 20
35.938974343
 30
0.0
 10
23.76324547
 20
35.9383903719
 30
0.0
 10
23.7504276687
 20
35.9348041031
 30
0.0
 10
23.7389229631
 20
35.9271770827
 30
0.0
 10
23.7271008131
 20
35.9131005275
 30
0.0
 10
23.7195826985
 20
35.890872178
 30
0.0
 10
23.7184753462
 20
35.8726091312
 30
0.0
 10
23.7180752157
 20
35.8634310359
 30
0.0
  0
SPLINE
  5
7FA
100
AcDbEntity
  8
0
100
AcDbSpline
 62
7
  6
CONTINUOUS
 70
0
 71
3
 72
13
 73
9
 74
0
 42
0.0000001
 43
0.0000001
 44
0.0000000001
 40
0.0
 40
0.0
 40
0.0
 40
0.0
 40
0.2554609124
 40
0.5087845627
 40
0.6344212036
 40
0.7607955912
 40
0.8866259536
 40
1.0
 40
1.0
 40
1.0
 40
1.0
 10
23.7180752157
 20
35.8634310359
 30
0.0
 10
23.7176796699
 20
35.8543581034
 30
0.0
 10
23.7202185767
 20
35.8363202064
 30
0.0
 10
23.7273839665
 20
35.8144126459
 30
0.0
 10
23.7392540872
 20
35.8006001417
 30
0.0
 10
23.7506815616
 20
35.7931686336
 30
0.0
 10
23.7633868973
 20
35.789712667
 30
0.0
 10
23.7718939437
 20
35.7892656816
 30
0.0
 10
23.7759295464
 20
35.7892656816
 30
0.0
  0
SPLINE
  5
7FB
100
AcDbEntity
  8
0
100
AcDbSpline
 62
7
  6
CONTINUOUS
 70
0
 71
3
 72
14
 73
10
 74
0
 42
0.0000001
 43
0.0000001
 44
0.0000000001
 40
0.0
 40
0.0
 40
0.0
 40
0.0
 40
0.1311519482
 40
0.270151581
 40
0.4160471464
 40
0.59038714
 40
0.7663951209
 40
0.9955682487
 40
1.0
 40
1.0
 40
1.0
 40
1.0
 10
24.2419728535
 20
35.938974343
 30
0.0
 10
24.2348327842
 20
35.938974343
 30
0.0
 10
24.2202000133
 20
35.9370338146
 30
0.0
 10
24.2003369467
 20
35.925018757
 30
0.0
 10
24.1861236336
 20
35.9042062279
 30
0.0
 10
24.1768784009
 20
35.8789351442
 30
0.0
 10
24.1718189223
 20
35.8480050791
 30
0.0
 10
24.1710790366
 20
35.8259311831
 30
0.0
 10
24.1710871818
 20
35.8133353496
 30
0.0
 10
24.1710874876
 20
35.8130963902
 30
0.0
  0
SPLINE
  5
7FC
100
AcDbEntity
  8
0
100
AcDbSpline
 62
7
  6
CONTINUOUS
 70
0
 71
3
 72
14
 73
10
 74
0
 42
0.0000001
 43
0.0000001
 44
0.0000000001
 40
0.0
 40
0.0
 40
0.0
 40
0.0
 40
0.0043052355
 40
0.2282876751
 40
0.4055167889
 40
0.5810663431
 40
0.7279741233
 40
0.8679381273
 40
1.0
 40
1.0
 40
1.0
 40
1.0
 10
24.1710874876
 20
35.8130963902
 30
0.0
 10
24.1710871811
 20
35.8128655283
 30
0.0
 10
24.1710789666
 20
35.8006240827
 30
0.0
 10
24.1718367768
 20
35.7788944117
 30
0.0
 10
24.1768257792
 20
35.7482764847
 30
0.0
 10
24.1860676595
 20
35.7229670311
 30
0.0
 10
24.200287139
 20
35.7021063716
 30
0.0
 10
24.2201720132
 20
35.6900941273
 30
0.0
 10
24.2348203298
 20
35.6880648941
 30
0.0
 10
24.2419728535
 20
35.6880648941
 30
0.0
  0
SPLINE
  5
7FD
100
AcDbEntity
  8
0
100
AcDbSpline
 62
7
  6
CONTINUOUS
 70
0
 71
3
 72
8
 73
4
 74
0
 42
0.0000001
 43
0.0000001
 44
0.0000000001
 40
0.0
 40
0.0
 40
0.0
 40
0.0
 40
1.0
 40
1.0
 40
1.0
 40
1.0
 10
55.3349239856
 20
29.8346010387
 30
0.0
 10
55.3373335249
 20
29.8363760028
 30
0.0
 10
55.3398536382
 20
29.8380072525
 30
0.0
 10
55.3424452406
 20
29.8395039067
 30
0.0
  0
SPLINE
  5
7FE
100
AcDbEntity
  8
0
100
AcDbSpline
 62
7
  6
CONTINUOUS
 70
0
 71
3
 72
9
 73
5
 74
0
 42
0.0000001
 43
0.0000001
 44
0.0000000001
 40
0.0
 40
0.0
 40
0.0
 40
0.0
 40
0.5
 40
1.0
 40
1.0
 40
1.0
 40
1.0
 10
55.3424452406
 20
29.8395039067
 30
0.0
 10
55.3622754063
 20
29.8509558564
 30
0.0
 10
55.4092584798
 20
29.860016605
 30
0.0
 10
55.4562415533
 20
29.8509558564
 30
0.0
 10
55.476071719
 20
29.8395039067
 30
0.0
  0
SPLINE
  5
7FF
100
AcDbEntity
  8
0
100
AcDbSpline
 62
7
  6
CONTINUOUS
 70
0
 71
3
 72
11
 73
7
 74
0
 42
0.0000001
 43
0.0000001
 44
0.0000000001
 40
0.0
 40
0.0
 40
0.0
 40
0.0
 40
0.2897846149
 40
0.5490206009
 40
0.7822079662
 40
1.0
 40
1.0
 40
1.0
 40
1.0
 10
61.0925596365
 20
34.2839779376
 30
0.0
 10
61.2766216369
 20
34.3902740119
 30
0.0
 10
61.610491421
 20
34.6201591458
 30
0.0
 10
62.0092919879
 20
35.0396823615
 30
0.0
 10
62.2617229164
 20
35.5035051366
 30
0.0
 10
62.3206389885
 20
35.8365269615
 30
0.0
 10
62.3206334238
 20
35.9962724517
 30
0.0
  0
SPLINE
  5
800
100
AcDbEntity
  8
0
100
AcDbSpline
 62
7
  6
CONTINUOUS
 70
0
 71
3
 72
11
 73
7
 74
0
 42
0.0000001
 43
0.0000001
 44
0.0000000001
 40
0.0
 40
0.0
 40
0.0
 40
0.0
 40
0.2869416602
 40
0.5465730652
 40
0.7818166019
 40
1.0
 40
1.0
 40
1.0
 40
1.0
 10
60.5636214931
 20
34.7630036428
 30
0.0
 10
60.7008137254
 20
34.8422323576
 30
0.0
 10
60.951907358
 20
35.0124958076
 30
0.0
 10
61.2609657784
 20
35.3180331582
 30
0.0
 10
61.4739739586
 20
35.6537547225
 30
0.0
 10
61.5465601053
 20
35.8977910864
 30
0.0
 10
61.5624627347
 20
36.017200288
 30
0.0
  0
LINE
  5
801
100
AcDbEntity
  8
0
100
AcDbLine
 62
7
  6
CONTINUOUS
 10
61.5725892411
 20
36.1646836097
 11
61.5726003533
 21
36.1697390761
  0
SPLINE
  5
802
100
AcDbEntity
  8
0
100
AcDbSpline
 62
7
  6
CONTINUOUS
 70
0
 71
3
 72
18
 73
14
 74
0
 42
0.0000001
 43
0.0000001
 44
0.0000000001
 40
0.0
 40
0.0
 40
0.0
 40
0.0
 40
0.1286426229
 40
0.270190938
 40
0.4172987282
 40
0.5615994436
 40
0.6952315957
 40
0.7562390164
 40
0.8127337583
 40
0.8646893853
 40
0.9125171317
 40
0.9571427661
 40
1.0
 40
1.0
 40
1.0
 40
1.0
 10
61.0925596365
 20
34.2839779376
 30
0.0
 10
60.7822180528
 20
34.1047552192
 30
0.0
 10
60.0794991113
 20
33.8147448621
 30
0.0
 10
58.9342499985
 20
33.5854720664
 30
0.0
 10
57.7226507967
 20
33.5519955741
 30
0.0
 10
56.5447206604
 20
33.7174056046
 30
0.0
 10
55.6419915291
 20
34.0189934415
 30
0.0
 10
55.0259087832
 20
34.3539836391
 30
0.0
 10
54.6434583462
 20
34.6335344994
 30
0.0
 10
54.3348164058
 20
34.9435320242
 30
0.0
 10
54.1070925249
 20
35.278547376
 30
0.0
 10
53.9667474033
 20
35.6319401256
 30
0.0
 10
53.934815032
 20
35.8766868981
 30
0.0
 10
53.934810873
 20
35.9960793924
 30
0.0
  0
SPLINE
  5
803
100
AcDbEntity
  8
0
100
AcDbSpline
 62
7
  6
CONTINUOUS
 70
0
 71
3
 72
19
 73
15
 74
0
 42
0.0000001
 43
0.0000001
 44
0.0000000001
 40
0.0
 40
0.0
 40
0.0
 40
0.0
 40
0.1272096037
 40
0.2668889531
 40
0.3394212044
 40
0.4124403747
 40
0.484965178
 40
0.5560345399
 40
0.6901544289
 40
0.8092517915
 40
0.8624293458
 40
0.9114403576
 40
0.9569264139
 40
1.0
 40
1.0
 40
1.0
 40
1.0
 10
60.5547760556
 20
34.757913932
 30
0.0
 10
60.3081295479
 20
34.6165073293
 30
0.0
 10
59.7521258957
 20
34.3858010742
 30
0.0
 10
59.0058014945
 20
34.2306647184
 30
0.0
 10
58.369853341
 20
34.178545816
 30
0.0
 10
57.881904435
 20
34.1787160607
 30
0.0
 10
57.3988391177
 20
34.2185270207
 30
0.0
 10
56.7861641046
 20
34.3215618256
 30
0.0
 10
56.0888946007
 20
34.5338425463
 30
0.0
 10
55.4825513384
 20
34.8684821901
 30
0.0
 10
55.109887491
 20
35.1964461662
 30
0.0
 10
54.9008161104
 20
35.454224313
 30
0.0
 10
54.7565666106
 20
35.7282130976
 30
0.0
 10
54.7056898746
 20
35.9217756027
 30
0.0
 10
54.6929815513
 20
36.017200288
 30
0.0
  0
LINE
  5
804
100
AcDbEntity
  8
0
100
AcDbLine
 62
7
  6
CONTINUOUS
 10
54.6828550581
 20
36.1646836097
 11
54.6828439436
 21
36.1697390761
  0
LINE
  5
805
100
AcDbEntity
  8
0
100
AcDbLine
 62
7
  6
CONTINUOUS
 10
58.8097739649
 20
36.1228410374
 11
58.808478086
 21
36.1221045113
  0
LINE
  5
806
100
AcDbEntity
  8
0
100
AcDbLine
 62
7
  6
CONTINUOUS
 10
57.4768852722
 20
36.5721309848
 11
57.4456703319
 21
36.5890733525
  0
SPLINE
  5
807
100
AcDbEntity
  8
0
100
AcDbSpline
 62
7
  6
CONTINUOUS
 70
0
 71
3
 72
8
 73
4
 74
0
 42
0.0000001
 43
0.0000001
 44
0.0000000001
 40
0.0
 40
0.0
 40
0.0
 40
0.0
 40
1.0
 40
1.0
 40
1.0
 40
1.0
 10
58.0004420471
 20
36.5097842604
 30
0.0
 10
58.0004420471
 20
36.5086451938
 30
0.0
 10
58.0000586332
 20
36.5074790741
 30
0.0
 10
57.9994561962
 20
36.5065123568
 30
0.0
  0
LINE
  5
808
100
AcDbEntity
  8
0
100
AcDbLine
 62
7
  6
CONTINUOUS
 10
57.9994561962
 20
36.5065123568
 11
57.9986639374
 21
36.5054435082
  0
SPLINE
  5
809
100
AcDbEntity
  8
0
100
AcDbSpline
 62
7
  6
CONTINUOUS
 70
0
 71
3
 72
8
 73
4
 74
0
 42
0.0000001
 43
0.0000001
 44
0.0000000001
 40
0.0
 40
0.0
 40
0.0
 40
0.0
 40
1.0
 40
1.0
 40
1.0
 40
1.0
 10
57.9986639374
 20
36.5054435082
 30
0.0
 10
57.9977780984
 20
36.5044188394
 30
0.0
 10
57.9966716984
 20
36.5035726565
 30
0.0
 10
57.9954987481
 20
36.502895276
 30
0.0
  0
SPLINE
  5
80A
100
AcDbEntity
  8
0
100
AcDbSpline
 62
7
  6
CONTINUOUS
 70
0
 71
3
 72
13
 73
9
 74
0
 42
0.0000001
 43
0.0000001
 44
0.0000000001
 40
0.0
 40
0.0
 40
0.0
 40
0.0
 40
0.306890063
 40
0.5821477943
 40
0.7025927629
 40
0.8106602676
 40
0.9084151875
 40
1.0
 40
1.0
 40
1.0
 40
1.0
 10
60.4178194767
 20
32.8520945194
 30
0.0
 10
60.3692988021
 20
32.8535574856
 30
0.0
 10
60.2772764567
 20
32.8660015114
 30
0.0
 10
60.1721683684
 20
32.9068891566
 30
0.0
 10
60.1071556484
 20
32.9537032297
 30
0.0
 10
60.0720209743
 20
32.9921351142
 30
0.0
 10
60.049879481
 20
33.03433041
 30
0.0
 10
60.0446817095
 20
33.0644581846
 30
0.0
 10
60.0446491715
 20
33.0789446919
 30
0.0
  0
LINE
  5
80B
100
AcDbEntity
  8
0
100
AcDbLine
 62
7
  6
CONTINUOUS
 10
57.8919058951
 20
36.4724631674
 11
57.8916422385
 21
36.4736153685
  0
SPLINE
  5
80C
100
AcDbEntity
  8
0
100
AcDbSpline
 62
7
  6
CONTINUOUS
 70
0
 71
3
 72
8
 73
4
 74
0
 42
0.0000001
 43
0.0000001
 44
0.0000000001
 40
0.0
 40
0.0
 40
0.0
 40
0.0
 40
1.0
 40
1.0
 40
1.0
 40
1.0
 10
57.8916422385
 20
36.4736153685
 30
0.0
 10
57.891243619
 20
36.4744673754
 30
0.0
 10
57.8904616593
 20
36.4751406245
 30
0.0
 10
57.8896470901
 20
36.4756110394
 30
0.0
  0
SPLINE
  5
80D
100
AcDbEntity
  8
0
100
AcDbSpline
 62
7
  6
CONTINUOUS
 70
0
 71
3
 72
8
 73
4
 74
0
 42
0.0000001
 43
0.0000001
 44
0.0000000001
 40
0.0
 40
0.0
 40
0.0
 40
0.0
 40
1.0
 40
1.0
 40
1.0
 40
1.0
 10
58.0678869969
 20
36.5039608099
 30
0.0
 10
58.067887004
 20
36.5061504289
 30
0.0
 10
58.06736183
 20
36.5083807096
 30
0.0
 10
58.0664462695
 20
36.5103697245
 30
0.0
  0
SPLINE
  5
80E
100
AcDbEntity
  8
0
100
AcDbSpline
 62
7
  6
CONTINUOUS
 70
0
 71
3
 72
9
 73
5
 74
0
 42
0.0000001
 43
0.0000001
 44
0.0000000001
 40
0.0
 40
0.0
 40
0.0
 40
0.0
 40
0.2220221023
 40
1.0
 40
1.0
 40
1.0
 40
1.0
 10
58.0664462695
 20
36.5103697245
 30
0.0
 10
58.0655666765
 20
36.5122806014
 30
0.0
 10
58.0600849769
 20
36.52016744
 30
0.0
 10
58.051855438
 20
36.5254546494
 30
0.0
 10
58.0454722671
 20
36.52914094
 30
0.0
  0
SPLINE
  5
80F
100
AcDbEntity
  8
0
100
AcDbSpline
 62
7
  6
CONTINUOUS
 70
0
 71
3
 72
9
 73
5
 74
0
 42
0.0000001
 43
0.0000001
 44
0.0000000001
 40
0.0
 40
0.0
 40
0.0
 40
0.0
 40
0.2465822913
 40
1.0
 40
1.0
 40
1.0
 40
1.0
 10
55.9404316806
 20
33.1203602635
 30
0.0
 10
55.9320773918
 20
33.1187687547
 30
0.0
 10
55.8980660379
 20
33.1130174922
 30
0.0
 10
55.8635981102
 20
33.1100082489
 30
0.0
 10
55.8376248201
 20
33.1092251179
 30
0.0
  0
SPLINE
  5
810
100
AcDbEntity
  8
0
100
AcDbSpline
 62
7
  6
CONTINUOUS
 70
0
 71
3
 72
8
 73
4
 74
0
 42
0.0000001
 43
0.0000001
 44
0.0000000001
 40
0.0
 40
0.0
 40
0.0
 40
0.0
 40
1.0
 40
1.0
 40
1.0
 40
1.0
 10
58.4013019949
 20
36.3196145299
 30
0.0
 10
58.4013019949
 20
36.3204767693
 30
0.0
 10
58.4010903869
 20
36.3213550837
 30
0.0
 10
58.4007249936
 20
36.3221360732
 30
0.0
  0
SPLINE
  5
811
100
AcDbEntity
  8
0
100
AcDbSpline
 62
7
  6
CONTINUOUS
 70
0
 71
3
 72
8
 73
4
 74
0
 42
0.0000001
 43
0.0000001
 44
0.0000000001
 40
0.0
 40
0.0
 40
0.0
 40
0.0
 40
1.0
 40
1.0
 40
1.0
 40
1.0
 10
58.4007249936
 20
36.3221360732
 30
0.0
 10
58.3998526317
 20
36.3240006542
 30
0.0
 10
58.3981413462
 20
36.3254740311
 30
0.0
 10
58.3963586959
 20
36.3265035143
 30
0.0
  0
SPLINE
  5
812
100
AcDbEntity
  8
0
100
AcDbSpline
 62
7
  6
CONTINUOUS
 70
0
 71
3
 72
9
 73
5
 74
0
 42
0.0000001
 43
0.0000001
 44
0.0000000001
 40
0.0
 40
0.0
 40
0.0
 40
0.0
 40
0.2170085542
 40
1.0
 40
1.0
 40
1.0
 40
1.0
 10
58.3143746455
 20
36.2809658436
 30
0.0
 10
58.3141316845
 20
36.282983739
 30
0.0
 10
58.3110356668
 20
36.2920803848
 30
0.0
 10
58.3026563476
 20
36.2979618065
 30
0.0
 10
58.2963058703
 20
36.3016292164
 30
0.0
  0
SPLINE
  5
813
100
AcDbEntity
  8
0
100
AcDbSpline
 62
7
  6
CONTINUOUS
 70
0
 71
3
 72
8
 73
4
 74
0
 42
0.0000001
 43
0.0000001
 44
0.0000000001
 40
0.0
 40
0.0
 40
0.0
 40
0.0
 40
1.0
 40
1.0
 40
1.0
 40
1.0
 10
58.216819506
 20
36.3038848162
 30
0.0
 10
58.216819506
 20
36.3027457496
 30
0.0
 10
58.2164360921
 20
36.3015796299
 30
0.0
 10
58.2158336551
 20
36.3006129126
 30
0.0
  0
LINE
  5
814
100
AcDbEntity
  8
0
100
AcDbLine
 62
7
  6
CONTINUOUS
 10
58.2158336551
 20
36.3006129126
 11
58.2150413963
 21
36.299544064
  0
SPLINE
  5
815
100
AcDbEntity
  8
0
100
AcDbSpline
 62
7
  6
CONTINUOUS
 70
0
 71
3
 72
8
 73
4
 74
0
 42
0.0000001
 43
0.0000001
 44
0.0000000001
 40
0.0
 40
0.0
 40
0.0
 40
0.0
 40
1.0
 40
1.0
 40
1.0
 40
1.0
 10
58.2150413963
 20
36.299544064
 30
0.0
 10
58.2141555574
 20
36.2985193953
 30
0.0
 10
58.2130491573
 20
36.2976732123
 30
0.0
 10
58.211876207
 20
36.2969958318
 30
0.0
  0
SPLINE
  5
816
100
AcDbEntity
  8
0
100
AcDbSpline
 62
7
  6
CONTINUOUS
 70
0
 71
3
 72
8
 73
4
 74
0
 42
0.0000001
 43
0.0000001
 44
0.0000000001
 40
0.0
 40
0.0
 40
0.0
 40
0.0
 40
1.0
 40
1.0
 40
1.0
 40
1.0
 10
58.5808681429
 20
36.052321936
 30
0.0
 10
58.5808681429
 20
36.0531841754
 30
0.0
 10
58.5806565349
 20
36.0540624898
 30
0.0
 10
58.5802911416
 20
36.0548434793
 30
0.0
  0
SPLINE
  5
817
100
AcDbEntity
  8
0
100
AcDbSpline
 62
7
  6
CONTINUOUS
 70
0
 71
3
 72
8
 73
4
 74
0
 42
0.0000001
 43
0.0000001
 44
0.0000000001
 40
0.0
 40
0.0
 40
0.0
 40
0.0
 40
1.0
 40
1.0
 40
1.0
 40
1.0
 10
58.5802911416
 20
36.0548434793
 30
0.0
 10
58.5794187798
 20
36.0567080603
 30
0.0
 10
58.5777074942
 20
36.0581814372
 30
0.0
 10
58.5759248439
 20
36.0592109204
 30
0.0
  0
SPLINE
  5
818
100
AcDbEntity
  8
0
100
AcDbSpline
 62
7
  6
CONTINUOUS
 70
0
 71
3
 72
8
 73
4
 74
0
 42
0.0000001
 43
0.0000001
 44
0.0000000001
 40
0.0
 40
0.0
 40
0.0
 40
0.0
 40
1.0
 40
1.0
 40
1.0
 40
1.0
 10
58.7225066422
 20
36.1341183764
 30
0.0
 10
58.7225066422
 20
36.1349806158
 30
0.0
 10
58.7222950342
 20
36.1358589303
 30
0.0
 10
58.7219296409
 20
36.1366399197
 30
0.0
  0
SPLINE
  5
819
100
AcDbEntity
  8
0
100
AcDbSpline
 62
7
  6
CONTINUOUS
 70
0
 71
3
 72
8
 73
4
 74
0
 42
0.0000001
 43
0.0000001
 44
0.0000000001
 40
0.0
 40
0.0
 40
0.0
 40
0.0
 40
1.0
 40
1.0
 40
1.0
 40
1.0
 10
58.7219296409
 20
36.1366399197
 30
0.0
 10
58.721057279
 20
36.1385045007
 30
0.0
 10
58.7193459935
 20
36.1399778777
 30
0.0
 10
58.7175633432
 20
36.1410073608
 30
0.0
  0
SPLINE
  5
81A
100
AcDbEntity
  8
7_ALL_ROUNDS
100
AcDbSpline
 62
7
  6
CONTINUOUS
 70
0
 71
3
 72
9
 73
5
 74
0
 42
0.0000001
 43
0.0000001
 44
0.0000000001
 40
0.0
 40
0.0
 40
0.0
 40
0.0
 40
0.4938419844
 40
1.0
 40
1.0
 40
1.0
 40
1.0
 10
55.3324465579
 20
30.6182894538
 30
0.0
 10
55.3324465579
 20
30.4783921595
 30
0.0
 10
55.383931852
 20
30.1930998454
 30
0.0
 10
55.5251950819
 20
29.9419914809
 30
0.0
 10
55.6115258274
 20
29.8275073716
 30
0.0
  0
SPLINE
  5
81B
100
AcDbEntity
  8
7_ALL_ROUNDS
100
AcDbSpline
 62
7
  6
CONTINUOUS
 70
0
 71
3
 72
14
 73
10
 74
0
 42
0.0000001
 43
0.0000001
 44
0.0000000001
 40
0.0
 40
0.0
 40
0.0
 40
0.0
 40
0.2230663267
 40
0.3486465612
 40
0.4809392671
 40
0.616287115
 40
0.750417671
 40
0.8792921653
 40
1.0
 40
1.0
 40
1.0
 40
1.0
 10
55.6646245255
 20
29.7607876309
 30
0.0
 10
55.8876212366
 20
29.4948800106
 30
0.0
 10
56.3628372365
 20
29.185550362
 30
0.0
 10
57.0724594835
 20
28.9493512283
 30
0.0
 10
57.6782742255
 20
28.8452799145
 30
0.0
 10
58.3048092902
 20
28.8266782476
 30
0.0
 10
58.9230899484
 20
28.8935486849
 30
0.0
 10
59.5030625566
 20
29.0436654113
 30
0.0
 10
59.8601591748
 20
29.2027469748
 30
0.0
 10
60.0227810295
 20
29.2966613337
 30
0.0
  0
SPLINE
  5
81C
100
AcDbEntity
  8
7_ALL_ROUNDS
100
AcDbSpline
 62
7
  6
CONTINUOUS
 70
0
 71
3
 72
11
 73
7
 74
0
 42
0.0000001
 43
0.0000001
 44
0.0000000001
 40
0.0
 40
0.0
 40
0.0
 40
0.0
 40
0.2694969673
 40
0.5222190866
 40
0.7636683424
 40
1.0
 40
1.0
 40
1.0
 40
1.0
 10
60.0227810295
 20
29.2966613337
 30
0.0
 10
60.1527912706
 20
29.371742438
 30
0.0
 10
60.3933631435
 20
29.5389554352
 30
0.0
 10
60.6857247601
 20
29.853460029
 30
0.0
 10
60.8775805865
 20
30.2186091893
 30
0.0
 10
60.922997739
 20
30.4866326265
 30
0.0
 10
60.922997739
 20
30.6182894538
 30
0.0
  0
SPLINE
  5
81D
100
AcDbEntity
  8
0
100
AcDbSpline
 62
7
  6
CONTINUOUS
 70
0
 71
3
 72
9
 73
5
 74
0
 42
0.0000001
 43
0.0000001
 44
0.0000000001
 40
0.0
 40
0.0
 40
0.0
 40
0.0
 40
0.5507976733
 40
1.0
 40
1.0
 40
1.0
 40
1.0
 10
60.5775409179
 20
33.5773701531
 30
0.0
 10
60.5938234603
 20
33.567966961
 30
0.0
 10
60.6218014676
 20
33.5465444889
 30
0.0
 10
60.6351892009
 20
33.5123197824
 30
0.0
 10
60.6351899319
 20
33.4969852717
 30
0.0
  0
SPLINE
  5
81E
100
AcDbEntity
  8
0
100
AcDbSpline
 62
7
  6
CONTINUOUS
 70
0
 71
3
 72
9
 73
5
 74
0
 42
0.0000001
 43
0.0000001
 44
0.0000000001
 40
0.0
 40
0.0
 40
0.0
 40
0.0
 40
0.5507976733
 40
1.0
 40
1.0
 40
1.0
 40
1.0
 10
60.2991524213
 20
32.6773499185
 30
0.0
 10
60.2828698789
 20
32.6867531106
 30
0.0
 10
60.2548918716
 20
32.7081755826
 30
0.0
 10
60.2415041384
 20
32.7424002891
 30
0.0
 10
60.2415034073
 20
32.7577347998
 30
0.0
  0
SPLINE
  5
81F
100
AcDbEntity
  8
0
100
AcDbSpline
 62
7
  6
CONTINUOUS
 70
0
 71
3
 72
9
 73
5
 74
0
 42
0.0000001
 43
0.0000001
 44
0.0000000001
 40
0.0
 40
0.0
 40
0.0
 40
0.0
 40
0.5507976733
 40
1.0
 40
1.0
 40
1.0
 40
1.0
 10
55.6779033789
 20
32.6773499185
 30
0.0
 10
55.6616208365
 20
32.6867531106
 30
0.0
 10
55.6336428292
 20
32.7081755826
 30
0.0
 10
55.620255096
 20
32.7424002891
 30
0.0
 10
55.6202543649
 20
32.7577347998
 30
0.0
  0
SPLINE
  5
820
100
AcDbEntity
  8
0
100
AcDbSpline
 62
7
  6
CONTINUOUS
 70
0
 71
3
 72
9
 73
5
 74
0
 42
0.0000001
 43
0.0000001
 44
0.0000000001
 40
0.0
 40
0.0
 40
0.0
 40
0.0
 40
0.4523592181
 40
1.0
 40
1.0
 40
1.0
 40
1.0
 10
55.9916354032
 20
32.705164395
 30
0.0
 10
55.9695224157
 20
32.6806846104
 30
0.0
 10
55.8998147758
 20
32.6473181596
 30
0.0
 10
55.8260747905
 20
32.6418192671
 30
0.0
 10
55.7863034412
 20
32.6454530167
 30
0.0
  0
SPLINE
  5
821
100
AcDbEntity
  8
0
100
AcDbSpline
 62
7
  6
CONTINUOUS
 70
0
 71
3
 72
9
 73
5
 74
0
 42
0.0000001
 43
0.0000001
 44
0.0000000001
 40
0.0
 40
0.0
 40
0.0
 40
0.0
 40
0.2665669344
 40
1.0
 40
1.0
 40
1.0
 40
1.0
 10
55.7709522103
 20
32.6472210125
 30
0.0
 10
55.7623170179
 20
32.6484238818
 30
0.0
 10
55.7301548916
 20
32.6542438136
 30
0.0
 10
55.698676493
 20
32.6653534148
 30
0.0
 10
55.6779033789
 20
32.6773499185
 30
0.0
  0
SPLINE
  5
822
100
AcDbEntity
  8
0
100
AcDbSpline
 62
7
  6
CONTINUOUS
 70
0
 71
3
 72
11
 73
7
 74
0
 42
0.0000001
 43
0.0000001
 44
0.0000000001
 40
0.0
 40
0.0
 40
0.0
 40
0.0
 40
0.1954529662
 40
0.4224377579
 40
0.6926827285
 40
1.0
 40
1.0
 40
1.0
 40
1.0
 10
55.6202543649
 20
33.4969852706
 30
0.0
 10
55.6202537835
 20
33.509183051
 30
0.0
 10
55.6282910261
 20
33.535776207
 30
0.0
 10
55.6589345564
 20
33.5676909482
 30
0.0
 10
55.7034411766
 20
33.5920366623
 30
0.0
 10
55.7384466552
 20
33.6018205413
 30
0.0
 10
55.7573085674
 20
33.6052935164
 30
0.0
  0
SPLINE
  5
823
100
AcDbEntity
  8
0
100
AcDbSpline
 62
7
  6
CONTINUOUS
 70
0
 71
3
 72
12
 73
8
 74
0
 42
0.0000001
 43
0.0000001
 44
0.0000000001
 40
0.0
 40
0.0
 40
0.0
 40
0.0
 40
0.1834727134
 40
0.2926480679
 40
0.4156570975
 40
0.696295711
 40
1.0
 40
1.0
 40
1.0
 40
1.0
 10
60.6351899319
 20
32.757734801
 30
0.0
 10
60.6351907409
 20
32.7407642095
 30
0.0
 10
60.6233075642
 20
32.7135711963
 30
0.0
 10
60.5949484418
 20
32.6874970403
 30
0.0
 10
60.5539897942
 20
32.6628999809
 30
0.0
 10
60.490115767
 20
32.6446599117
 30
0.0
 10
60.4355275583
 20
32.6428970457
 30
0.0
 10
60.4075524836
 20
32.6454530167
 30
0.0
  0
SPLINE
  5
824
100
AcDbEntity
  8
0
100
AcDbSpline
 62
7
  6
CONTINUOUS
 70
0
 71
3
 72
9
 73
5
 74
0
 42
0.0000001
 43
0.0000001
 44
0.0000000001
 40
0.0
 40
0.0
 40
0.0
 40
0.0
 40
0.2665669344
 40
1.0
 40
1.0
 40
1.0
 40
1.0
 10
60.3922012527
 20
32.6472210125
 30
0.0
 10
60.3835660603
 20
32.6484238818
 30
0.0
 10
60.351403934
 20
32.6542438136
 30
0.0
 10
60.3199255354
 20
32.6653534148
 30
0.0
 10
60.2991524213
 20
32.6773499185
 30
0.0
  0
SPLINE
  5
825
100
AcDbEntity
  8
0
100
AcDbSpline
 62
7
  6
CONTINUOUS
 70
0
 71
3
 72
9
 73
5
 74
0
 42
0.0000001
 43
0.0000001
 44
0.0000000001
 40
0.0
 40
0.0
 40
0.0
 40
0.0
 40
0.265630577
 40
1.0
 40
1.0
 40
1.0
 40
1.0
 10
60.4981368237
 20
33.6052957999
 30
0.0
 10
60.5054852975
 20
33.6039430585
 30
0.0
 10
60.5329345079
 20
33.5978555165
 30
0.0
 10
60.5596524789
 20
33.5877007527
 30
0.0
 10
60.5775409179
 20
33.5773701531
 30
0.0
  0
SPLINE
  5
826
100
AcDbEntity
  8
0
100
AcDbSpline
 62
7
  6
CONTINUOUS
 70
0
 71
3
 72
11
 73
7
 74
0
 42
0.0000001
 43
0.0000001
 44
0.0000000001
 40
0.0
 40
0.0
 40
0.0
 40
0.0
 40
0.2178911356
 40
0.4511242341
 40
0.710315266
 40
1.0
 40
1.0
 40
1.0
 40
1.0
 10
54.702525298
 20
36.1658821171
 30
0.0
 10
54.7025255236
 20
36.2960672412
 30
0.0
 10
54.7504348705
 20
36.5674195353
 30
0.0
 10
54.9556913395
 20
36.9454860598
 30
0.0
 10
55.2800154135
 20
37.2876340644
 30
0.0
 10
55.5516229588
 20
37.4752559462
 30
0.0
 10
55.7013686491
 20
37.5620487259
 30
0.0
  0
LINE
  5
827
100
AcDbEntity
  8
0
100
AcDbLine
 62
7
  6
CONTINUOUS
 10
55.7013686491
 20
37.5620487259
 11
55.7057422286
 21
37.5645790622
  0
SPLINE
  5
828
100
AcDbEntity
  8
0
100
AcDbSpline
 62
7
  6
CONTINUOUS
 70
0
 71
3
 72
17
 73
13
 74
0
 42
0.0000001
 43
0.0000001
 44
0.0000000001
 40
0.0
 40
0.0
 40
0.0
 40
0.0
 40
0.0428686214
 40
0.0875057515
 40
0.1353456315
 40
0.1873143978
 40
0.3045818524
 40
0.4382488756
 40
0.582588007
 40
0.7297354237
 40
0.8713213789
 40
1.0
 40
1.0
 40
1.0
 40
1.0
 10
61.5529189988
 20
36.1658821171
 30
0.0
 10
61.5529191678
 20
36.2634152075
 30
0.0
 10
61.5268510938
 20
36.4633540744
 30
0.0
 10
61.4122124755
 20
36.7520421654
 30
0.0
 10
61.2262089459
 20
37.0257524902
 30
0.0
 10
60.8760170145
 20
37.3772705705
 30
0.0
 10
60.2793333999
 20
37.7406009107
 30
0.0
 10
59.421366477
 20
38.0272570406
 30
0.0
 10
58.4585546227
 20
38.1625736233
 30
0.0
 10
57.4689363959
 20
38.1351832413
 30
0.0
 10
56.5333224681
 20
37.9479079952
 30
0.0
 10
55.9592673875
 20
37.7109902121
 30
0.0
 10
55.7057422286
 20
37.5645790622
 30
0.0
  0
SPLINE
  5
829
100
AcDbEntity
  8
0
100
AcDbSpline
 62
7
  6
CONTINUOUS
 70
0
 71
3
 72
11
 73
7
 74
0
 42
0.0000001
 43
0.0000001
 44
0.0000000001
 40
0.0
 40
0.0
 40
0.0
 40
0.0
 40
0.2177919123
 40
0.4509803537
 40
0.7102166944
 40
1.0
 40
1.0
 40
1.0
 40
1.0
 10
53.934810873
 20
36.0604585717
 30
0.0
 10
53.9348163332
 20
36.2201970454
 30
0.0
 10
53.9937499809
 20
36.5532006145
 30
0.0
 10
54.2461864471
 20
37.016994096
 30
0.0
 10
54.6449761445
 20
37.436492192
 30
0.0
 10
54.9788314734
 20
37.6663655716
 30
0.0
 10
55.1628846604
 20
37.7726565562
 30
0.0
  0
SPLINE
  5
82A
100
AcDbEntity
  8
0
100
AcDbSpline
 62
7
  6
CONTINUOUS
 70
0
 71
3
 72
18
 73
14
 74
0
 42
0.0000001
 43
0.0000001
 44
0.0000000001
 40
0.0
 40
0.0
 40
0.0
 40
0.0
 40
0.0428572269
 40
0.0874824755
 40
0.1353096244
 40
0.1872646003
 40
0.2437587562
 40
0.3047657311
 40
0.438397529
 40
0.5826986045
 40
0.7298072413
 40
0.8713565553
 40
1.0
 40
1.0
 40
1.0
 40
1.0
 10
62.3206334238
 20
36.0604585717
 30
0.0
 10
62.320637505
 20
36.1798524134
 30
0.0
 10
62.2887213927
 20
36.4246032153
 30
0.0
 10
62.1483958857
 20
36.7780057963
 30
0.0
 10
61.9206872092
 20
37.1130319123
 30
0.0
 10
61.6120562925
 20
37.4230405497
 30
0.0
 10
61.2296129076
 20
37.7026025436
 30
0.0
 10
60.6135336504
 20
38.0376081693
 30
0.0
 10
59.7107993218
 20
38.3392125525
 30
0.0
 10
58.5328547912
 20
38.5046366475
 30
0.0
 10
57.3212351164
 20
38.4711681115
 30
0.0
 10
56.1759643617
 20
38.2418966094
 30
0.0
 10
55.4732317797
 20
37.9518824714
 30
0.0
 10
55.1628846604
 20
37.7726565562
 30
0.0
  0
SPLINE
  5
82B
100
AcDbEntity
  8
7_ALL_ROUNDS
100
AcDbSpline
 62
7
  6
CONTINUOUS
 70
0
 71
3
 72
9
 73
5
 74
0
 42
0.0000001
 43
0.0000001
 44
0.0000000001
 40
0.0
 40
0.0
 40
0.0
 40
0.0
 40
0.5000256547
 40
1.0
 40
1.0
 40
1.0
 40
1.0
 10
54.9624449429
 20
29.4432064389
 30
0.0
 10
54.9707077601
 20
29.4384346499
 30
0.0
 10
54.9837631837
 20
29.423368631
 30
0.0
 10
54.9902837925
 20
29.4045288629
 30
0.0
 10
54.9902837925
 20
29.3949881378
 30
0.0
  0
SPLINE
  5
82C
100
AcDbEntity
  8
7_ALL_ROUNDS
100
AcDbSpline
 62
7
  6
CONTINUOUS
 70
0
 71
3
 72
9
 73
5
 74
0
 42
0.0000001
 43
0.0000001
 44
0.0000000001
 40
0.0
 40
0.0
 40
0.0
 40
0.0
 40
0.5000256547
 40
1.0
 40
1.0
 40
1.0
 40
1.0
 10
55.4844233739
 20
29.7381962252
 30
0.0
 10
55.4926861911
 20
29.7334244362
 30
0.0
 10
55.5057416147
 20
29.7183584173
 30
0.0
 10
55.5122622235
 20
29.6995186492
 30
0.0
 10
55.5122622235
 20
29.689977924
 30
0.0
  0
SPLINE
  5
82D
100
AcDbEntity
  8
0
100
AcDbSpline
 62
7
  6
CONTINUOUS
 70
0
 71
3
 72
9
 73
5
 74
0
 42
0.0000001
 43
0.0000001
 44
0.0000000001
 40
0.0
 40
0.0
 40
0.0
 40
0.0
 40
0.5507201556
 40
1.0
 40
1.0
 40
1.0
 40
1.0
 10
55.3424452406
 20
29.8201888048
 30
0.0
 10
55.3346305877
 20
29.8247017783
 30
0.0
 10
55.3212062449
 20
29.8349855332
 30
0.0
 10
55.3147662464
 20
29.851411589
 30
0.0
 10
55.3147702908
 20
29.8587735481
 30
0.0
  0
SPLINE
  5
82E
100
AcDbEntity
  8
7_ALL_ROUNDS
100
AcDbSpline
 62
7
  6
CONTINUOUS
 70
0
 71
3
 72
11
 73
7
 74
0
 42
0.0000001
 43
0.0000001
 44
0.0000000001
 40
0.0
 40
0.0
 40
0.0
 40
0.0
 40
0.2897766208
 40
0.5490198412
 40
0.782208314
 40
1.0
 40
1.0
 40
1.0
 40
1.0
 10
54.4529939942
 20
30.4383485466
 30
0.0
 10
54.4184307891
 20
30.4183882451
 30
0.0
 10
54.3557349453
 20
30.3752195463
 30
0.0
 10
54.2808441889
 20
30.2964408642
 30
0.0
 10
54.2334379578
 20
30.2093428228
 30
0.0
 10
54.2223694125
 20
30.1468068438
 30
0.0
 10
54.2223694125
 20
30.116809019
 30
0.0
  0
SPLINE
  5
82F
100
AcDbEntity
  8
7_ALL_ROUNDS
100
AcDbSpline
 62
7
  6
CONTINUOUS
 70
0
 71
3
 72
11
 73
7
 74
0
 42
0.0000001
 43
0.0000001
 44
0.0000000001
 40
0.0
 40
0.0
 40
0.0
 40
0.0
 40
0.2866341569
 40
0.5446969821
 40
0.779185292
 40
1.0
 40
1.0
 40
1.0
 40
1.0
 10
54.4235025637
 20
29.755404092
 30
0.0
 10
54.3930736309
 20
29.7750091227
 30
0.0
 10
54.3379797224
 20
29.816927245
 30
0.0
 10
54.2727824511
 20
29.8917272084
 30
0.0
 10
54.2318439238
 20
29.9732210273
 30
0.0
 10
54.2223694125
 20
30.0310689284
 30
0.0
 10
54.2223694125
 20
30.0589546343
 30
0.0
  0
SPLINE
  5
830
100
AcDbEntity
  8
0
100
AcDbSpline
 62
7
  6
CONTINUOUS
 70
0
 71
3
 72
8
 73
4
 74
0
 42
0.0000001
 43
0.0000001
 44
0.0000000001
 40
0.0
 40
0.0
 40
0.0
 40
0.0
 40
1.0
 40
1.0
 40
1.0
 40
1.0
 10
58.3724367724
 20
36.1767255792
 30
0.0
 10
58.3706541221
 20
36.1777550623
 30
0.0
 10
58.3689428366
 20
36.1792284393
 30
0.0
 10
58.3680704747
 20
36.1810930203
 30
0.0
  0
SPLINE
  5
831
100
AcDbEntity
  8
0
100
AcDbSpline
 62
7
  6
CONTINUOUS
 70
0
 71
3
 72
8
 73
4
 74
0
 42
0.0000001
 43
0.0000001
 44
0.0000000001
 40
0.0
 40
0.0
 40
0.0
 40
0.0
 40
1.0
 40
1.0
 40
1.0
 40
1.0
 10
58.3680704747
 20
36.1810930203
 30
0.0
 10
58.3677050814
 20
36.1818740098
 30
0.0
 10
58.3674934734
 20
36.1827523242
 30
0.0
 10
58.3674934734
 20
36.1836145636
 30
0.0
  0
SPLINE
  5
832
100
AcDbEntity
  8
0
100
AcDbSpline
 62
7
  6
CONTINUOUS
 70
0
 71
3
 72
8
 73
4
 74
0
 42
0.0000001
 43
0.0000001
 44
0.0000000001
 40
0.0
 40
0.0
 40
0.0
 40
0.0
 40
1.0
 40
1.0
 40
1.0
 40
1.0
 10
58.3398378054
 20
36.256338578
 30
0.0
 10
58.3321523488
 20
36.2519119856
 30
0.0
 10
58.3245681766
 20
36.2472813752
 30
0.0
 10
58.3172874994
 20
36.2422165255
 30
0.0
  0
SPLINE
  5
833
100
AcDbEntity
  8
0
100
AcDbSpline
 62
7
  6
CONTINUOUS
 70
0
 71
3
 72
8
 73
4
 74
0
 42
0.0000001
 43
0.0000001
 44
0.0000000001
 40
0.0
 40
0.0
 40
0.0
 40
0.0
 40
1.0
 40
1.0
 40
1.0
 40
1.0
 10
58.3172874994
 20
36.2422165255
 30
0.0
 10
58.3111090363
 20
36.2379184381
 30
0.0
 10
58.3050996319
 20
36.2333048291
 30
0.0
 10
58.2996760808
 20
36.2280863948
 30
0.0
  0
SPLINE
  5
834
100
AcDbEntity
  8
0
100
AcDbSpline
 62
7
  6
CONTINUOUS
 70
0
 71
3
 72
8
 73
4
 74
0
 42
0.0000001
 43
0.0000001
 44
0.0000000001
 40
0.0
 40
0.0
 40
0.0
 40
0.0
 40
1.0
 40
1.0
 40
1.0
 40
1.0
 10
58.2996760808
 20
36.2280863948
 30
0.0
 10
58.2952908037
 20
36.2238669674
 30
0.0
 10
58.2912203431
 20
36.2191843249
 30
0.0
 10
58.2881413868
 20
36.2139351106
 30
0.0
  0
SPLINE
  5
835
100
AcDbEntity
  8
0
100
AcDbSpline
 62
7
  6
CONTINUOUS
 70
0
 71
3
 72
8
 73
4
 74
0
 42
0.0000001
 43
0.0000001
 44
0.0000000001
 40
0.0
 40
0.0
 40
0.0
 40
0.0
 40
1.0
 40
1.0
 40
1.0
 40
1.0
 10
58.2881413868
 20
36.2139351106
 30
0.0
 10
58.2856639101
 20
36.2097113395
 30
0.0
 10
58.2836646045
 20
36.2048403753
 30
0.0
 10
58.2836646002
 20
36.1999436281
 30
0.0
  0
SPLINE
  5
836
100
AcDbEntity
  8
0
100
AcDbSpline
 62
7
  6
CONTINUOUS
 70
0
 71
3
 72
9
 73
5
 74
0
 42
0.0000001
 43
0.0000001
 44
0.0000000001
 40
0.0
 40
0.0
 40
0.0
 40
0.0
 40
0.4918929059
 40
1.0
 40
1.0
 40
1.0
 40
1.0
 10
58.4789704823
 20
36.2787950869
 30
0.0
 10
58.4659987035
 20
36.286286308
 30
0.0
 10
58.4342901002
 20
36.2925167203
 30
0.0
 10
58.4043384027
 20
36.2850413725
 30
0.0
 10
58.3897110762
 20
36.2799952524
 30
0.0
  0
SPLINE
  5
837
100
AcDbEntity
  8
0
100
AcDbSpline
 62
7
  6
CONTINUOUS
 70
0
 71
3
 72
9
 73
5
 74
0
 42
0.0000001
 43
0.0000001
 44
0.0000000001
 40
0.0
 40
0.0
 40
0.0
 40
0.0
 40
0.2610622451
 40
1.0
 40
1.0
 40
1.0
 40
1.0
 10
58.3897110762
 20
36.2799952524
 30
0.0
 10
58.3851655421
 20
36.2784271387
 30
0.0
 10
58.3679717326
 20
36.2717802156
 30
0.0
 10
58.3516162905
 20
36.2631581035
 30
0.0
 10
58.3398378054
 20
36.256338578
 30
0.0
  0
SPLINE
  5
838
100
AcDbEntity
  8
0
100
AcDbSpline
 62
7
  6
CONTINUOUS
 70
0
 71
3
 72
9
 73
5
 74
0
 42
0.0000001
 43
0.0000001
 44
0.0000000001
 40
0.0
 40
0.0
 40
0.0
 40
0.0
 40
0.551939761
 40
1.0
 40
1.0
 40
1.0
 40
1.0
 10
58.0551017252
 20
36.4618829093
 30
0.0
 10
58.0478609037
 20
36.4580506958
 30
0.0
 10
58.0361405341
 20
36.4494513691
 30
0.0
 10
58.0261853662
 20
36.4360950059
 30
0.0
 10
58.0261853666
 20
36.4294444849
 30
0.0
  0
SPLINE
  5
839
100
AcDbEntity
  8
0
100
AcDbSpline
 62
7
  6
CONTINUOUS
 70
0
 71
3
 72
9
 73
5
 74
0
 42
0.0000001
 43
0.0000001
 44
0.0000000001
 40
0.0
 40
0.0
 40
0.0
 40
0.0
 40
0.4906157944
 40
1.0
 40
1.0
 40
1.0
 40
1.0
 10
58.1494280995
 20
36.4691062948
 30
0.0
 10
58.1384772931
 20
36.4754304014
 30
0.0
 10
58.1122217985
 20
36.4824074991
 30
0.0
 10
58.08640876
 20
36.4760381356
 30
0.0
 10
58.0742490535
 20
36.4710858592
 30
0.0
  0
SPLINE
  5
83A
100
AcDbEntity
  8
0
100
AcDbSpline
 62
7
  6
CONTINUOUS
 70
0
 71
3
 72
8
 73
4
 74
0
 42
0.0000001
 43
0.0000001
 44
0.0000000001
 40
0.0
 40
0.0
 40
0.0
 40
0.0
 40
1.0
 40
1.0
 40
1.0
 40
1.0
 10
58.0742490535
 20
36.4710858592
 30
0.0
 10
58.0704571798
 20
36.469541545
 30
0.0
 10
58.0667367829
 20
36.4678182837
 30
0.0
 10
58.0630706218
 20
36.4659955179
 30
0.0
  0
LINE
  5
83B
100
AcDbEntity
  8
0
100
AcDbLine
 62
7
  6
CONTINUOUS
 10
58.127997753
 20
36.3988274002
 11
58.1264874258
 21
36.399831718
  0
SPLINE
  5
83C
100
AcDbEntity
  8
0
100
AcDbSpline
 62
7
  6
CONTINUOUS
 70
0
 71
3
 72
8
 73
4
 74
0
 42
0.0000001
 43
0.0000001
 44
0.0000000001
 40
0.0
 40
0.0
 40
0.0
 40
0.0
 40
1.0
 40
1.0
 40
1.0
 40
1.0
 10
58.1264874258
 20
36.399831718
 30
0.0
 10
58.1253198134
 20
36.4007259773
 30
0.0
 10
58.1242547061
 20
36.4018627088
 30
0.0
 10
58.1236314554
 20
36.4031948413
 30
0.0
  0
SPLINE
  5
83D
100
AcDbEntity
  8
0
100
AcDbSpline
 62
7
  6
CONTINUOUS
 70
0
 71
3
 72
8
 73
4
 74
0
 42
0.0000001
 43
0.0000001
 44
0.0000000001
 40
0.0
 40
0.0
 40
0.0
 40
0.0
 40
1.0
 40
1.0
 40
1.0
 40
1.0
 10
58.1236314554
 20
36.4031948413
 30
0.0
 10
58.123266062
 20
36.4039758307
 30
0.0
 10
58.1230544541
 20
36.4048541452
 30
0.0
 10
58.1230544541
 20
36.4057163846
 30
0.0
  0
SPLINE
  5
83E
100
AcDbEntity
  8
0
100
AcDbSpline
 62
7
  6
CONTINUOUS
 70
0
 71
3
 72
9
 73
5
 74
0
 42
0.0000001
 43
0.0000001
 44
0.0000000001
 40
0.0
 40
0.0
 40
0.0
 40
0.0
 40
0.2938868289
 40
1.0
 40
1.0
 40
1.0
 40
1.0
 10
57.9435124803
 20
36.396877263
 30
0.0
 10
57.9427764021
 20
36.3964521768
 30
0.0
 10
57.9404061394
 20
36.3948530441
 30
0.0
 10
57.9385691813
 20
36.3920305616
 30
0.0
 10
57.9385691813
 20
36.3899882786
 30
0.0
  0
SPLINE
  5
83F
100
AcDbEntity
  8
0
100
AcDbSpline
 62
7
  6
CONTINUOUS
 70
0
 71
3
 72
8
 73
4
 74
0
 42
0.0000001
 43
0.0000001
 44
0.0000000001
 40
0.0
 40
0.0
 40
0.0
 40
0.0
 40
1.0
 40
1.0
 40
1.0
 40
1.0
 10
57.9792937537
 20
36.403763032
 30
0.0
 10
57.9769926032
 20
36.4050919498
 30
0.0
 10
57.9743566484
 20
36.4058748989
 30
0.0
 10
57.9717311043
 20
36.4062845752
 30
0.0
  0
SPLINE
  5
840
100
AcDbEntity
  8
0
100
AcDbSpline
 62
7
  6
CONTINUOUS
 70
0
 71
3
 72
9
 73
5
 74
0
 42
0.0000001
 43
0.0000001
 44
0.0000000001
 40
0.0
 40
0.0
 40
0.0
 40
0.0
 40
0.7712524182
 40
1.0
 40
1.0
 40
1.0
 40
1.0
 10
57.9717311043
 20
36.4062845752
 30
0.0
 10
57.9674998407
 20
36.4069447998
 30
0.0
 10
57.9616706272
 20
36.406584645
 30
0.0
 10
57.9565357661
 20
36.4043982296
 30
0.0
 10
57.9554358596
 20
36.403763032
 30
0.0
  0
SPLINE
  5
841
100
AcDbEntity
  8
0
100
AcDbSpline
 62
7
  6
CONTINUOUS
 70
0
 71
3
 72
8
 73
4
 74
0
 42
0.0000001
 43
0.0000001
 44
0.0000000001
 40
0.0
 40
0.0
 40
0.0
 40
0.0
 40
1.0
 40
1.0
 40
1.0
 40
1.0
 10
58.1999528277
 20
36.2901100628
 30
0.0
 10
58.1930660978
 20
36.2861329662
 30
0.0
 10
58.1829816635
 20
36.2861329662
 30
0.0
 10
58.1760949336
 20
36.2901100628
 30
0.0
  0
SPLINE
  5
842
100
AcDbEntity
  8
0
100
AcDbSpline
 62
7
  6
CONTINUOUS
 70
0
 71
3
 72
10
 73
6
 74
0
 42
0.0000001
 43
0.0000001
 44
0.0000000001
 40
0.0
 40
0.0
 40
0.0
 40
0.0
 40
0.5426927449
 40
0.7896971688
 40
1.0
 40
1.0
 40
1.0
 40
1.0
 10
57.6842047313
 20
36.6352248686
 30
0.0
 10
57.671337625
 20
36.6281443846
 30
0.0
 10
57.6534970917
 20
36.6158345509
 30
0.0
 10
57.6341984495
 20
36.5970966126
 30
0.0
 10
57.6282087815
 20
36.5851796432
 30
0.0
 10
57.6282090307
 20
36.5794883387
 30
0.0
  0
SPLINE
  5
843
100
AcDbEntity
  8
0
100
AcDbSpline
 62
7
  6
CONTINUOUS
 70
0
 71
3
 72
10
 73
6
 74
0
 42
0.0000001
 43
0.0000001
 44
0.0000000001
 40
0.0
 40
0.0
 40
0.0
 40
0.0
 40
0.1240769752
 40
0.2600203685
 40
1.0
 40
1.0
 40
1.0
 40
1.0
 10
57.8204703326
 20
36.6590798862
 30
0.0
 10
57.8153658284
 20
36.6620277448
 30
0.0
 10
57.8033315246
 20
36.6656575407
 30
0.0
 10
57.756006913
 20
36.6718755785
 30
0.0
 10
57.7150039786
 20
36.6521730132
 30
0.0
 10
57.6842047313
 20
36.6352248686
 30
0.0
  0
SPLINE
  5
844
100
AcDbEntity
  8
0
100
AcDbSpline
 62
7
  6
CONTINUOUS
 70
0
 71
3
 72
8
 73
4
 74
0
 42
0.0000001
 43
0.0000001
 44
0.0000000001
 40
0.0
 40
0.0
 40
0.0
 40
0.0
 40
1.0
 40
1.0
 40
1.0
 40
1.0
 10
57.7676238443
 20
36.4709101315
 30
0.0
 10
57.766809275
 20
36.4704397166
 30
0.0
 10
57.7660273154
 20
36.4697664675
 30
0.0
 10
57.7656286959
 20
36.4689144606
 30
0.0
  0
LINE
  5
845
100
AcDbEntity
  8
0
100
AcDbLine
 62
7
  6
CONTINUOUS
 10
57.7656286959
 20
36.4689144606
 11
57.7653650393
 21
36.4677622595
  0
SPLINE
  5
846
100
AcDbEntity
  8
0
100
AcDbSpline
 62
7
  6
CONTINUOUS
 70
0
 71
3
 72
8
 73
4
 74
0
 42
0.0000001
 43
0.0000001
 44
0.0000000001
 40
0.0
 40
0.0
 40
0.0
 40
0.0
 40
1.0
 40
1.0
 40
1.0
 40
1.0
 10
57.9134994164
 20
36.4555405421
 30
0.0
 10
57.9066126865
 20
36.4515634455
 30
0.0
 10
57.8965282522
 20
36.4515634455
 30
0.0
 10
57.8896415223
 20
36.4555405421
 30
0.0
  0
SPLINE
  5
847
100
AcDbEntity
  8
0
100
AcDbSpline
 62
7
  6
CONTINUOUS
 70
0
 71
3
 72
8
 73
4
 74
0
 42
0.0000001
 43
0.0000001
 44
0.0000000001
 40
0.0
 40
0.0
 40
0.0
 40
0.0
 40
1.0
 40
1.0
 40
1.0
 40
1.0
 10
57.7150362573
 20
36.5563753379
 30
0.0
 10
57.713253607
 20
36.5574048211
 30
0.0
 10
57.7115423215
 20
36.558878198
 30
0.0
 10
57.7106699596
 20
36.560742779
 30
0.0
  0
SPLINE
  5
848
100
AcDbEntity
  8
0
100
AcDbSpline
 62
7
  6
CONTINUOUS
 70
0
 71
3
 72
8
 73
4
 74
0
 42
0.0000001
 43
0.0000001
 44
0.0000000001
 40
0.0
 40
0.0
 40
0.0
 40
0.0
 40
1.0
 40
1.0
 40
1.0
 40
1.0
 10
57.7106699596
 20
36.560742779
 30
0.0
 10
57.7103045663
 20
36.5615237685
 30
0.0
 10
57.7100929583
 20
36.5624020829
 30
0.0
 10
57.7100929583
 20
36.5632643223
 30
0.0
  0
SPLINE
  5
849
100
AcDbEntity
  8
0
100
AcDbSpline
 62
7
  6
CONTINUOUS
 70
0
 71
3
 72
8
 73
4
 74
0
 42
0.0000001
 43
0.0000001
 44
0.0000000001
 40
0.0
 40
0.0
 40
0.0
 40
0.0
 40
1.0
 40
1.0
 40
1.0
 40
1.0
 10
57.8381563537
 20
36.5053470149
 30
0.0
 10
57.8350095119
 20
36.5071643207
 30
0.0
 10
57.830401502
 20
36.5071643207
 30
0.0
 10
57.8272546602
 20
36.5053470149
 30
0.0
  0
SPLINE
  5
84A
100
AcDbEntity
  8
0
100
AcDbSpline
 62
7
  6
CONTINUOUS
 70
0
 71
3
 72
10
 73
6
 74
0
 42
0.0000001
 43
0.0000001
 44
0.0000000001
 40
0.0
 40
0.0
 40
0.0
 40
0.0
 40
0.5104607452
 40
0.7686908999
 40
1.0
 40
1.0
 40
1.0
 40
1.0
 10
58.1904430767
 20
36.2340682488
 30
0.0
 10
58.205033371
 20
36.2256423325
 30
0.0
 10
58.2321991381
 20
36.2208556265
 30
0.0
 10
58.2643746667
 20
36.229490133
 30
0.0
 10
58.2784522808
 20
36.2376012483
 30
0.0
 10
58.2851508432
 20
36.2412643034
 30
0.0
  0
SPLINE
  5
84B
100
AcDbEntity
  8
0
100
AcDbSpline
 62
7
  6
CONTINUOUS
 70
0
 71
3
 72
9
 73
5
 74
0
 42
0.0000001
 43
0.0000001
 44
0.0000000001
 40
0.0
 40
0.0
 40
0.0
 40
0.0
 40
0.5562045366
 40
1.0
 40
1.0
 40
1.0
 40
1.0
 10
58.2851508432
 20
36.2412643034
 30
0.0
 10
58.2923385381
 20
36.2451948366
 30
0.0
 10
58.3047252171
 20
36.2526087843
 30
0.0
 10
58.3144876122
 20
36.2661186833
 30
0.0
 10
58.3144876124
 20
36.2726552333
 30
0.0
  0
SPLINE
  5
84C
100
AcDbEntity
  8
0
100
AcDbSpline
 62
7
  6
CONTINUOUS
 70
0
 71
3
 72
8
 73
4
 74
0
 42
0.0000001
 43
0.0000001
 44
0.0000000001
 40
0.0
 40
0.0
 40
0.0
 40
0.0
 40
1.0
 40
1.0
 40
1.0
 40
1.0
 10
57.6282090307
 20
36.5730609378
 30
0.0
 10
57.6282090297
 20
36.5713444105
 30
0.0
 10
57.6284407871
 20
36.5696165759
 30
0.0
 10
57.6288651057
 20
36.5679533201
 30
0.0
  0
SPLINE
  5
84D
100
AcDbEntity
  8
0
100
AcDbSpline
 62
7
  6
CONTINUOUS
 70
0
 71
3
 72
9
 73
5
 74
0
 42
0.0000001
 43
0.0000001
 44
0.0000000001
 40
0.0
 40
0.0
 40
0.0
 40
0.0
 40
0.2249200354
 40
1.0
 40
1.0
 40
1.0
 40
1.0
 10
57.6288651057
 20
36.5679533201
 30
0.0
 10
57.6292924599
 20
36.5662781647
 30
0.0
 10
57.6320481693
 20
36.5590585879
 30
0.0
 10
57.6378943222
 20
36.5531723932
 30
0.0
 10
57.6430533437
 20
36.5501930507
 30
0.0
  0
SPLINE
  5
84E
100
AcDbEntity
  8
0
100
AcDbSpline
 62
7
  6
CONTINUOUS
 70
0
 71
3
 72
8
 73
4
 74
0
 42
0.0000001
 43
0.0000001
 44
0.0000000001
 40
0.0
 40
0.0
 40
0.0
 40
0.0
 40
1.0
 40
1.0
 40
1.0
 40
1.0
 10
58.127997753
 20
36.406177104
 30
0.0
 10
58.1262151028
 20
36.4051476209
 30
0.0
 10
58.1245038172
 20
36.4036742439
 30
0.0
 10
58.1236314554
 20
36.4018096629
 30
0.0
  0
SPLINE
  5
84F
100
AcDbEntity
  8
0
100
AcDbSpline
 62
7
  6
CONTINUOUS
 70
0
 71
3
 72
8
 73
4
 74
0
 42
0.0000001
 43
0.0000001
 44
0.0000000001
 40
0.0
 40
0.0
 40
0.0
 40
0.0
 40
1.0
 40
1.0
 40
1.0
 40
1.0
 10
58.1637790265
 20
36.413062873
 30
0.0
 10
58.1614778759
 20
36.4143917908
 30
0.0
 10
58.1588419211
 20
36.4151747399
 30
0.0
 10
58.1562163771
 20
36.4155844163
 30
0.0
  0
SPLINE
  5
850
100
AcDbEntity
  8
0
100
AcDbSpline
 62
7
  6
CONTINUOUS
 70
0
 71
3
 72
9
 73
5
 74
0
 42
0.0000001
 43
0.0000001
 44
0.0000000001
 40
0.0
 40
0.0
 40
0.0
 40
0.0
 40
0.7712524182
 40
1.0
 40
1.0
 40
1.0
 40
1.0
 10
58.1562163771
 20
36.4155844163
 30
0.0
 10
58.1519851135
 20
36.4162446408
 30
0.0
 10
58.1461559
 20
36.4158844861
 30
0.0
 10
58.1410210388
 20
36.4136980706
 30
0.0
 10
58.1399211323
 20
36.413062873
 30
0.0
  0
SPLINE
  5
851
100
AcDbEntity
  8
0
100
AcDbSpline
 62
7
  6
CONTINUOUS
 70
0
 71
3
 72
8
 73
4
 74
0
 42
0.0000001
 43
0.0000001
 44
0.0000000001
 40
0.0
 40
0.0
 40
0.0
 40
0.0
 40
1.0
 40
1.0
 40
1.0
 40
1.0
 10
58.3605774224
 20
36.2994115116
 30
0.0
 10
58.3674641523
 20
36.295434415
 30
0.0
 10
58.3775485867
 20
36.295434415
 30
0.0
 10
58.3844353166
 20
36.2994115116
 30
0.0
  0
SPLINE
  5
852
100
AcDbEntity
  8
0
100
AcDbSpline
 62
7
  6
CONTINUOUS
 70
0
 71
3
 72
9
 73
5
 74
0
 42
0.0000001
 43
0.0000001
 44
0.0000000001
 40
0.0
 40
0.0
 40
0.0
 40
0.0
 40
0.2938868289
 40
1.0
 40
1.0
 40
1.0
 40
1.0
 10
58.3963586959
 20
36.3062972805
 30
0.0
 10
58.3970947741
 20
36.3067223668
 30
0.0
 10
58.3994650368
 20
36.3083214995
 30
0.0
 10
58.4013019949
 20
36.3111439819
 30
0.0
 10
58.4013019949
 20
36.3131862649
 30
0.0
  0
SPLINE
  5
853
100
AcDbEntity
  8
0
100
AcDbSpline
 62
7
  6
CONTINUOUS
 70
0
 71
3
 72
9
 73
5
 74
0
 42
0.0000001
 43
0.0000001
 44
0.0000000001
 40
0.0
 40
0.0
 40
0.0
 40
0.0
 40
0.2241271917
 40
1.0
 40
1.0
 40
1.0
 40
1.0
 10
57.6282090307
 20
36.5794883387
 30
0.0
 10
57.6282091222
 20
36.5773991943
 30
0.0
 10
57.6297362959
 20
36.5680776675
 30
0.0
 10
57.636790571
 20
36.5602380761
 30
0.0
 10
57.6430533437
 20
36.5566213157
 30
0.0
  0
SPLINE
  5
854
100
AcDbEntity
  8
0
100
AcDbSpline
 62
7
  6
CONTINUOUS
 70
0
 71
3
 72
8
 73
4
 74
0
 42
0.0000001
 43
0.0000001
 44
0.0000000001
 40
0.0
 40
0.0
 40
0.0
 40
0.0
 40
1.0
 40
1.0
 40
1.0
 40
1.0
 10
57.8191145806
 20
36.4284501471
 30
0.0
 10
57.8222614224
 20
36.4266328413
 30
0.0
 10
57.8268694323
 20
36.4266328413
 30
0.0
 10
57.8300162741
 20
36.4284501471
 30
0.0
  0
SPLINE
  5
855
100
AcDbEntity
  8
0
100
AcDbSpline
 62
7
  6
CONTINUOUS
 70
0
 71
3
 72
9
 73
5
 74
0
 42
0.0000001
 43
0.0000001
 44
0.0000000001
 40
0.0
 40
0.0
 40
0.0
 40
0.0
 40
0.4741019028
 40
1.0
 40
1.0
 40
1.0
 40
1.0
 10
57.8680497105
 20
36.4202541045
 30
0.0
 10
57.8770472483
 20
36.4150580133
 30
0.0
 10
57.8975027266
 20
36.4061985315
 30
0.0
 10
57.9205371895
 20
36.4066864287
 30
0.0
 10
57.9315765071
 20
36.409997846
 30
0.0
  0
LINE
  5
856
100
AcDbEntity
  8
0
100
AcDbLine
 62
7
  6
CONTINUOUS
 10
57.9315765071
 20
36.409997846
 11
57.9368231227
 21
36.4119567273
  0
LINE
  5
857
100
AcDbEntity
  8
0
100
AcDbLine
 62
7
  6
CONTINUOUS
 10
57.9368231227
 20
36.4119567273
 11
57.9433398794
 21
36.4154133269
  0
SPLINE
  5
858
100
AcDbEntity
  8
0
100
AcDbSpline
 62
7
  6
CONTINUOUS
 70
0
 71
3
 72
9
 73
5
 74
0
 42
0.0000001
 43
0.0000001
 44
0.0000000001
 40
0.0
 40
0.0
 40
0.0
 40
0.0
 40
0.554935015
 40
1.0
 40
1.0
 40
1.0
 40
1.0
 10
58.053798867
 20
36.4792035538
 30
0.0
 10
58.0576576856
 20
36.4814320272
 30
0.0
 10
58.0648306747
 20
36.4857264155
 30
0.0
 10
58.0678869853
 20
36.4939587186
 30
0.0
 10
58.0678869969
 20
36.4975325451
 30
0.0
  0
SPLINE
  5
859
100
AcDbEntity
  8
0
100
AcDbSpline
 62
7
  6
CONTINUOUS
 70
0
 71
3
 72
8
 73
4
 74
0
 42
0.0000001
 43
0.0000001
 44
0.0000000001
 40
0.0
 40
0.0
 40
0.0
 40
0.0
 40
1.0
 40
1.0
 40
1.0
 40
1.0
 10
57.8896470901
 20
36.4628870305
 30
0.0
 10
57.8904616593
 20
36.4633574454
 30
0.0
 10
57.891243619
 20
36.4640306945
 30
0.0
 10
57.8916422385
 20
36.4648827013
 30
0.0
  0
LINE
  5
85A
100
AcDbEntity
  8
0
100
AcDbLine
 62
7
  6
CONTINUOUS
 10
57.8916422385
 20
36.4648827013
 11
57.8919058951
 21
36.4660349025
  0
SPLINE
  5
85B
100
AcDbEntity
  8
0
100
AcDbSpline
 62
7
  6
CONTINUOUS
 70
0
 71
3
 72
8
 73
4
 74
0
 42
0.0000001
 43
0.0000001
 44
0.0000000001
 40
0.0
 40
0.0
 40
0.0
 40
0.0
 40
1.0
 40
1.0
 40
1.0
 40
1.0
 10
57.7150362573
 20
36.5637250417
 30
0.0
 10
57.713253607
 20
36.5626955586
 30
0.0
 10
57.7115423215
 20
36.5612221816
 30
0.0
 10
57.7106699596
 20
36.5593576006
 30
0.0
  0
SPLINE
  5
85C
100
AcDbEntity
  8
0
100
AcDbSpline
 62
7
  6
CONTINUOUS
 70
0
 71
3
 72
8
 73
4
 74
0
 42
0.0000001
 43
0.0000001
 44
0.0000000001
 40
0.0
 40
0.0
 40
0.0
 40
0.0
 40
1.0
 40
1.0
 40
1.0
 40
1.0
 10
57.8208934831
 20
36.6110797757
 30
0.0
 10
57.8140067532
 20
36.6150568723
 30
0.0
 10
57.8039223188
 20
36.6150568723
 30
0.0
 10
57.7970355889
 20
36.6110797757
 30
0.0
  0
SPLINE
  5
85D
100
AcDbEntity
  8
0
100
AcDbSpline
 62
7
  6
CONTINUOUS
 70
0
 71
3
 72
8
 73
4
 74
0
 42
0.0000001
 43
0.0000001
 44
0.0000000001
 40
0.0
 40
0.0
 40
0.0
 40
0.0
 40
1.0
 40
1.0
 40
1.0
 40
1.0
 10
57.7653650393
 20
36.4677622595
 30
0.0
 10
57.7653650393
 20
36.466470779
 30
0.0
 10
57.7665054625
 20
36.4652602546
 30
0.0
 10
57.7676238443
 20
36.4646143876
 30
0.0
  0
LINE
  5
85E
100
AcDbEntity
  8
0
100
AcDbLine
 62
7
  6
CONTINUOUS
 10
57.7653650393
 20
36.4613339946
 11
57.7656286959
 21
36.4601817935
  0
SPLINE
  5
85F
100
AcDbEntity
  8
0
100
AcDbSpline
 62
7
  6
CONTINUOUS
 70
0
 71
3
 72
8
 73
4
 74
0
 42
0.0000001
 43
0.0000001
 44
0.0000000001
 40
0.0
 40
0.0
 40
0.0
 40
0.0
 40
1.0
 40
1.0
 40
1.0
 40
1.0
 10
57.7656286959
 20
36.4601817935
 30
0.0
 10
57.7660273154
 20
36.4593297866
 30
0.0
 10
57.766809275
 20
36.4586565375
 30
0.0
 10
57.7676238443
 20
36.4581861226
 30
0.0
  0
SPLINE
  5
860
100
AcDbEntity
  8
7_ALL_ROUNDS
100
AcDbSpline
 62
7
  6
CONTINUOUS
 70
0
 71
3
 72
9
 73
5
 74
0
 42
0.0000001
 43
0.0000001
 44
0.0000000001
 40
0.0
 40
0.0
 40
0.0
 40
0.0
 40
0.4586256459
 40
1.0
 40
1.0
 40
1.0
 40
1.0
 10
54.2374991129
 20
30.0280964629
 30
0.0
 10
54.2535442125
 20
29.9815165004
 30
0.0
 10
54.3148375004
 20
29.8888800741
 30
0.0
 10
54.4026336389
 20
29.8243526702
 30
0.0
 10
54.4529939942
 20
29.7952694914
 30
0.0
  0
SPLINE
  5
861
100
AcDbEntity
  8
0
100
AcDbSpline
 62
7
  6
CONTINUOUS
 70
0
 71
3
 72
11
 73
7
 74
0
 42
0.0000001
 43
0.0000001
 44
0.0000000001
 40
0.0
 40
0.0
 40
0.0
 40
0.0
 40
0.2177916637
 40
0.4509812413
 40
0.7102155522
 40
1.0
 40
1.0
 40
1.0
 40
1.0
 10
54.6828439436
 20
36.1697390761
 30
0.0
 10
54.6828439134
 20
36.3009794371
 30
0.0
 10
54.7312639998
 20
36.5745759757
 30
0.0
 10
54.9386699834
 20
36.9556224738
 30
0.0
 10
55.2663098439
 20
37.3002841359
 30
0.0
 10
55.5406048228
 20
37.4891459042
 30
0.0
 10
55.6918228038
 20
37.5764745093
 30
0.0
  0
SPLINE
  5
862
100
AcDbEntity
  8
0
100
AcDbSpline
 62
7
  6
CONTINUOUS
 70
0
 71
3
 72
9
 73
5
 74
0
 42
0.0000001
 43
0.0000001
 44
0.0000000001
 40
0.0
 40
0.0
 40
0.0
 40
0.0
 40
0.2349582212
 40
1.0
 40
1.0
 40
1.0
 40
1.0
 10
56.0878936558
 20
33.1712409268
 30
0.0
 10
56.0771508618
 20
33.1653628102
 30
0.0
 10
56.0302441118
 20
33.1425218995
 30
0.0
 10
55.979600563
 20
33.1278220143
 30
0.0
 10
55.9404316806
 20
33.1203602635
 30
0.0
  0
SPLINE
  5
863
100
AcDbEntity
  8
0
100
AcDbSpline
 62
7
  6
CONTINUOUS
 70
0
 71
3
 72
17
 73
13
 74
0
 42
0.0000001
 43
0.0000001
 44
0.0000000001
 40
0.0
 40
0.0
 40
0.0
 40
0.0
 40
0.0428663846
 40
0.0874976871
 40
0.1353258482
 40
0.1872764432
 40
0.304492976
 40
0.4381045062
 40
0.582406371
 40
0.7295569545
 40
0.8712029602
 40
1.0
 40
1.0
 40
1.0
 40
1.0
 10
61.5726003533
 20
36.1697390761
 30
0.0
 10
61.5726003307
 20
36.2677299331
 30
0.0
 10
61.5464399735
 20
36.4685975873
 30
0.0
 10
61.4313873724
 20
36.7586533131
 30
0.0
 10
61.2446987782
 20
37.0336941317
 30
0.0
 10
60.8932024683
 20
37.3869720572
 30
0.0
 10
60.2941967987
 20
37.7522997014
 30
0.0
 10
59.4326875992
 20
38.0408512494
 30
0.0
 10
58.4656259928
 20
38.1775633932
 30
0.0
 10
57.4712372462
 20
38.1509789872
 30
0.0
 10
56.5305654899
 20
37.9638479976
 30
0.0
 10
55.95305143
 20
37.7266055923
 30
0.0
 10
55.697777236
 20
37.5799047898
 30
0.0
  0
LINE
  5
864
100
AcDbEntity
  8
0
100
AcDbLine
 62
7
  6
CONTINUOUS
 10
55.697777236
 20
37.5799047898
 11
55.6918228038
 21
37.5764745093
  0
SPLINE
  5
865
100
AcDbEntity
  8
0
100
AcDbSpline
 62
7
  6
CONTINUOUS
 70
0
 71
3
 72
9
 73
5
 74
0
 42
0.0000001
 43
0.0000001
 44
0.0000000001
 40
0.0
 40
0.0
 40
0.0
 40
0.0
 40
0.2161792684
 40
1.0
 40
1.0
 40
1.0
 40
1.0
 10
58.0262779575
 20
36.4212947651
 30
0.0
 10
58.026486569
 20
36.4193654575
 30
0.0
 10
58.0291982812
 20
36.4105490124
 30
0.0
 10
58.0374750999
 20
36.40506243
 30
0.0
 10
58.0435680898
 20
36.4015437194
 30
0.0
  0
SPLINE
  5
866
100
AcDbEntity
  8
0
100
AcDbSpline
 62
7
  6
CONTINUOUS
 70
0
 71
3
 72
9
 73
5
 74
0
 42
0.0000001
 43
0.0000001
 44
0.0000000001
 40
0.0
 40
0.0
 40
0.0
 40
0.0
 40
0.4436459874
 40
1.0
 40
1.0
 40
1.0
 40
1.0
 10
58.0261853666
 20
36.4294444849
 30
0.0
 10
58.0261853669
 20
36.4252109572
 30
0.0
 10
58.0306957823
 20
36.4157350611
 30
0.0
 10
58.038970616
 20
36.4106270322
 30
0.0
 10
58.0435680898
 20
36.4079719844
 30
0.0
  0
SPLINE
  5
867
100
AcDbEntity
  8
7_ALL_ROUNDS
100
AcDbSpline
 62
7
  6
CONTINUOUS
 70
0
 71
3
 72
9
 73
5
 74
0
 42
0.0000001
 43
0.0000001
 44
0.0000000001
 40
0.0
 40
0.0
 40
0.0
 40
0.0
 40
0.4999743453
 40
1.0
 40
1.0
 40
1.0
 40
1.0
 10
55.0459614918
 20
29.4206885697
 30
0.0
 10
55.0459614918
 20
29.4302292948
 30
0.0
 10
55.039440883
 20
29.4490690629
 30
0.0
 10
55.0263854595
 20
29.4641350818
 30
0.0
 10
55.0181226422
 20
29.4689068709
 30
0.0
  0
SPLINE
  5
868
100
AcDbEntity
  8
0
100
AcDbSpline
 62
7
  6
CONTINUOUS
 70
0
 71
3
 72
9
 73
5
 74
0
 42
0.0000001
 43
0.0000001
 44
0.0000000001
 40
0.0
 40
0.0
 40
0.0
 40
0.0
 40
0.2949379573
 40
1.0
 40
1.0
 40
1.0
 40
1.0
 10
55.7753393527
 20
33.4728698066
 30
0.0
 10
55.7727530727
 20
33.4743633871
 30
0.0
 10
55.7644373176
 20
33.4799404523
 30
0.0
 10
55.7580385869
 20
33.4898457357
 30
0.0
 10
55.7580425091
 20
33.4969852712
 30
0.0
  0
SPLINE
  5
869
100
AcDbEntity
  8
0
100
AcDbSpline
 62
7
  6
CONTINUOUS
 70
0
 71
3
 72
9
 73
5
 74
0
 42
0.0000001
 43
0.0000001
 44
0.0000000001
 40
0.0
 40
0.0
 40
0.0
 40
0.0
 40
0.7061131711
 40
1.0
 40
1.0
 40
1.0
 40
1.0
 10
58.1230544541
 20
36.4057163846
 30
0.0
 10
58.1230544541
 20
36.4077586676
 30
0.0
 10
58.1248914122
 20
36.4105811501
 30
0.0
 10
58.1272616749
 20
36.4121802828
 30
0.0
 10
58.127997753
 20
36.412605369
 30
0.0
  0
SPLINE
  5
86A
100
AcDbEntity
  8
0
100
AcDbSpline
 62
7
  6
CONTINUOUS
 70
0
 71
3
 72
9
 73
5
 74
0
 42
0.0000001
 43
0.0000001
 44
0.0000000001
 40
0.0
 40
0.0
 40
0.0
 40
0.0
 40
0.5507976733
 40
1.0
 40
1.0
 40
1.0
 40
1.0
 10
55.6779033789
 20
33.4166003893
 30
0.0
 10
55.6616208365
 20
33.4260035813
 30
0.0
 10
55.6336428292
 20
33.4474260534
 30
0.0
 10
55.620255096
 20
33.4816507599
 30
0.0
 10
55.6202543649
 20
33.4969852706
 30
0.0
  0
SPLINE
  5
86B
100
AcDbEntity
  8
0
100
AcDbSpline
 62
7
  6
CONTINUOUS
 70
0
 71
3
 72
9
 73
5
 74
0
 42
0.0000001
 43
0.0000001
 44
0.0000000001
 40
0.0
 40
0.0
 40
0.0
 40
0.0
 40
0.7061131711
 40
1.0
 40
1.0
 40
1.0
 40
1.0
 10
57.9385691813
 20
36.3899882786
 30
0.0
 10
57.9385691813
 20
36.3879459956
 30
0.0
 10
57.9404061394
 20
36.3851235131
 30
0.0
 10
57.9427764021
 20
36.3835243804
 30
0.0
 10
57.9435124803
 20
36.3830992942
 30
0.0
  0
SPLINE
  5
86C
100
AcDbEntity
  8
0
100
AcDbSpline
 62
7
  6
CONTINUOUS
 70
0
 71
3
 72
8
 73
4
 74
0
 42
0.0000001
 43
0.0000001
 44
0.0000000001
 40
0.0
 40
0.0
 40
0.0
 40
0.0
 40
1.0
 40
1.0
 40
1.0
 40
1.0
 10
57.9385691813
 20
36.3835600136
 30
0.0
 10
57.9385691813
 20
36.3826977742
 30
0.0
 10
57.9387807893
 20
36.3818194598
 30
0.0
 10
57.9391461826
 20
36.3810384703
 30
0.0
  0
SPLINE
  5
86D
100
AcDbEntity
  8
0
100
AcDbSpline
 62
7
  6
CONTINUOUS
 70
0
 71
3
 72
8
 73
4
 74
0
 42
0.0000001
 43
0.0000001
 44
0.0000000001
 40
0.0
 40
0.0
 40
0.0
 40
0.0
 40
1.0
 40
1.0
 40
1.0
 40
1.0
 10
57.9391461826
 20
36.3810384703
 30
0.0
 10
57.9400185444
 20
36.3791738894
 30
0.0
 10
57.94172983
 20
36.3777005124
 30
0.0
 10
57.9435124803
 20
36.3766710293
 30
0.0
  0
SPLINE
  5
86E
100
AcDbEntity
  8
0
100
AcDbSpline
 62
7
  6
CONTINUOUS
 70
0
 71
3
 72
9
 73
5
 74
0
 42
0.0000001
 43
0.0000001
 44
0.0000000001
 40
0.0
 40
0.0
 40
0.0
 40
0.0
 40
0.2616410233
 40
1.0
 40
1.0
 40
1.0
 40
1.0
 10
60.6242948592
 20
33.298971211
 30
0.0
 10
60.6260524513
 20
33.3018928114
 30
0.0
 10
60.6321217096
 20
33.3134258335
 30
0.0
 10
60.6351929231
 20
33.3266168715
 30
0.0
 10
60.6351973427
 20
33.3362386619
 30
0.0
  0
SPLINE
  5
86F
100
AcDbEntity
  8
0
100
AcDbSpline
 62
7
  6
CONTINUOUS
 70
0
 71
3
 72
9
 73
5
 74
0
 42
0.0000001
 43
0.0000001
 44
0.0000000001
 40
0.0
 40
0.0
 40
0.0
 40
0.0
 40
0.2419071278
 40
1.0
 40
1.0
 40
1.0
 40
1.0
 10
61.0925596365
 20
34.3482605872
 30
0.0
 10
61.0450642296
 20
34.3208319203
 30
0.0
 10
60.8463688961
 20
34.2115507217
 30
0.0
 10
60.6390462599
 20
34.1182013844
 30
0.0
 10
60.4789752314
 20
34.0555938495
 30
0.0
  0
SPLINE
  5
870
100
AcDbEntity
  8
0
100
AcDbSpline
 62
7
  6
CONTINUOUS
 70
0
 71
3
 72
11
 73
7
 74
0
 42
0.0000001
 43
0.0000001
 44
0.0000000001
 40
0.0
 40
0.0
 40
0.0
 40
0.0
 40
0.2429314836
 40
0.4999822408
 40
0.7570416414
 40
1.0
 40
1.0
 40
1.0
 40
1.0
 10
60.4346545459
 20
34.0384952319
 30
0.0
 10
60.0789371153
 20
33.903141837
 30
0.0
 10
59.3156024248
 20
33.7036109813
 30
0.0
 10
58.1284147901
 20
33.6059105285
 30
0.0
 10
56.9411667175
 20
33.7033864806
 30
0.0
 10
56.1777373336
 20
33.9027695136
 30
0.0
 10
55.821948797
 20
34.0380544017
 30
0.0
  0
SPLINE
  5
871
100
AcDbEntity
  8
0
100
AcDbSpline
 62
7
  6
CONTINUOUS
 70
0
 71
3
 72
13
 73
9
 74
0
 42
0.0000001
 43
0.0000001
 44
0.0000000001
 40
0.0
 40
0.0
 40
0.0
 40
0.0
 40
0.2973692437
 40
0.433582087
 40
0.5610718732
 40
0.7913072608
 40
0.8973929268
 40
1.0
 40
1.0
 40
1.0
 40
1.0
 10
55.7763759707
 20
34.0556309073
 30
0.0
 10
55.5180011102
 20
34.1566983015
 30
0.0
 10
55.1512780193
 20
34.3350189298
 30
0.0
 10
54.722887936
 20
34.6378515541
 30
0.0
 10
54.3807956121
 20
34.9474070277
 30
0.0
 10
54.1191565228
 20
35.3030683995
 30
0.0
 10
53.9746134492
 20
35.6885180803
 30
0.0
 10
53.9429060222
 20
35.8822258476
 30
0.0
 10
53.9372531373
 20
35.9777888228
 30
0.0
  0
SPLINE
  5
872
100
AcDbEntity
  8
0
100
AcDbSpline
 62
7
  6
CONTINUOUS
 70
0
 71
3
 72
9
 73
5
 74
0
 42
0.0000001
 43
0.0000001
 44
0.0000000001
 40
0.0
 40
0.0
 40
0.0
 40
0.0
 40
0.2673708285
 40
1.0
 40
1.0
 40
1.0
 40
1.0
 10
55.7947022361
 20
33.3840433382
 30
0.0
 10
55.7838709857
 20
33.384757492
 30
0.0
 10
55.7435844796
 20
33.3893980012
 30
0.0
 10
55.7036602409
 20
33.4017257638
 30
0.0
 10
55.6779033789
 20
33.4166003893
 30
0.0
  0
SPLINE
  5
873
100
AcDbEntity
  8
0
100
AcDbSpline
 62
7
  6
CONTINUOUS
 70
0
 71
3
 72
11
 73
7
 74
0
 42
0.0000001
 43
0.0000001
 44
0.0000000001
 40
0.0
 40
0.0
 40
0.0
 40
0.0
 40
0.2895943189
 40
0.5487505732
 40
0.7820205207
 40
1.0
 40
1.0
 40
1.0
 40
1.0
 10
60.5579521869
 20
34.7719659772
 30
0.0
 10
60.7071577627
 20
34.8587247595
 30
0.0
 10
60.9777712477
 20
35.046205488
 30
0.0
 10
61.3008221533
 20
35.387863224
 30
0.0
 10
61.5052222942
 20
35.7652204234
 30
0.0
 10
61.5529187737
 20
36.0359679902
 30
0.0
 10
61.5529189988
 20
36.1658821171
 30
0.0
  0
LINE
  5
874
100
AcDbEntity
  8
0
100
AcDbLine
 62
7
  6
CONTINUOUS
 10
58.2150413963
 20
36.3017973034
 11
58.2133865342
 21
36.3033412179
  0
LINE
  5
875
100
AcDbEntity
  8
0
100
AcDbLine
 62
7
  6
CONTINUOUS
 10
58.2133865342
 20
36.3033412179
 11
58.211876207
 21
36.3043455356
  0
SPLINE
  5
876
100
AcDbEntity
  8
7_ALL_ROUNDS
100
AcDbSpline
 62
9
  6
CONTINUOUS
 70
0
 71
3
 72
17
 73
13
 74
0
 42
0.0000001
 43
0.0000001
 44
0.0000000001
 40
0.0
 40
0.0
 40
0.0
 40
0.0
 40
0.1286786209
 40
0.270264576
 40
0.4174119928
 40
0.5617511242
 40
0.6954181474
 40
0.8126856023
 40
0.8646543685
 40
0.9124942485
 40
0.9571313786
 40
1.0
 40
1.0
 40
1.0
 40
1.0
 10
60.1042804738
 20
29.4768241308
 30
0.0
 10
59.8973806318
 20
29.3573391695
 30
0.0
 10
59.4288988999
 20
29.1639924731
 30
0.0
 10
58.6653519019
 20
29.0111586514
 30
0.0
 10
57.8577324296
 20
28.9888055808
 30
0.0
 10
57.0719894218
 20
29.0992363549
 30
0.0
 10
56.3718095186
 20
29.3331741161
 30
0.0
 10
55.884860821
 20
29.6296850837
 30
0.0
 10
55.5990720032
 20
29.9165561608
 30
0.0
 10
55.4472760195
 20
30.1399289547
 30
0.0
 10
55.3537203653
 20
30.3755249828
 30
0.0
 10
55.33244642
 20
30.5386934834
 30
0.0
 10
55.3324465579
 20
30.6182894538
 30
0.0
  0
SPLINE
  5
877
100
AcDbEntity
  8
0
100
AcDbSpline
 62
7
  6
CONTINUOUS
 70
0
 71
3
 72
9
 73
5
 74
0
 42
0.0000001
 43
0.0000001
 44
0.0000000001
 40
0.0
 40
0.0
 40
0.0
 40
0.0
 40
0.7061131711
 40
1.0
 40
1.0
 40
1.0
 40
1.0
 10
58.3674934734
 20
36.1836145636
 30
0.0
 10
58.3674934734
 20
36.1856568466
 30
0.0
 10
58.3693304315
 20
36.1884793291
 30
0.0
 10
58.3717006942
 20
36.1900784618
 30
0.0
 10
58.3724367724
 20
36.190503548
 30
0.0
  0
SPLINE
  5
878
100
AcDbEntity
  8
0
100
AcDbSpline
 62
7
  6
CONTINUOUS
 70
0
 71
3
 72
9
 73
5
 74
0
 42
0.0000001
 43
0.0000001
 44
0.0000000001
 40
0.0
 40
0.0
 40
0.0
 40
0.0
 40
0.447016132
 40
1.0
 40
1.0
 40
1.0
 40
1.0
 10
58.2836646002
 20
36.1935153823
 30
0.0
 10
58.2836645914
 20
36.188943662
 30
0.0
 10
58.2880333526
 20
36.1787212683
 30
0.0
 10
58.2966532471
 20
36.1727349354
 30
0.0
 10
58.3015507095
 20
36.1699066437
 30
0.0
  0
SPLINE
  5
879
100
AcDbEntity
  8
0
100
AcDbSpline
 62
7
  6
CONTINUOUS
 70
0
 71
3
 72
9
 73
5
 74
0
 42
0.0000001
 43
0.0000001
 44
0.0000000001
 40
0.0
 40
0.0
 40
0.0
 40
0.0
 40
0.4470161559
 40
1.0
 40
1.0
 40
1.0
 40
1.0
 10
58.2836646002
 20
36.1999436281
 30
0.0
 10
58.2836645962
 20
36.1953719103
 30
0.0
 10
58.2880333615
 20
36.1851495274
 30
0.0
 10
58.2966532503
 20
36.1791631986
 30
0.0
 10
58.3015507095
 20
36.1763349087
 30
0.0
  0
SPLINE
  5
87A
100
AcDbEntity
  8
0
100
AcDbSpline
 62
7
  6
CONTINUOUS
 70
0
 71
3
 72
17
 73
13
 74
0
 42
0.0000001
 43
0.0000001
 44
0.0000000001
 40
0.0
 40
0.0
 40
0.0
 40
0.0
 40
0.1286786211
 40
0.2702645763
 40
0.417411993
 40
0.5617511244
 40
0.6954181476
 40
0.8126856022
 40
0.8646543685
 40
0.9124942485
 40
0.9571313786
 40
1.0
 40
1.0
 40
1.0
 40
1.0
 10
60.5497020682
 20
34.767185172
 30
0.0
 10
60.2961769093
 20
34.620774022
 30
0.0
 10
59.7221218287
 20
34.383856239
 30
0.0
 10
58.7865079009
 20
34.1965809928
 30
0.0
 10
57.7968896741
 20
34.1691906109
 30
0.0
 10
56.8340778199
 20
34.3045071936
 30
0.0
 10
55.976110897
 20
34.5911633235
 30
0.0
 10
55.3794272823
 20
34.9544936637
 30
0.0
 10
55.029235351
 20
35.306011744
 30
0.0
 10
54.8432318213
 20
35.5797220688
 30
0.0
 10
54.728593203
 20
35.8684101598
 30
0.0
 10
54.702525129
 20
36.0683490266
 30
0.0
 10
54.702525298
 20
36.1658821171
 30
0.0
  0
SPLINE
  5
87B
100
AcDbEntity
  8
0
100
AcDbSpline
 62
7
  6
CONTINUOUS
 70
0
 71
3
 72
11
 73
7
 74
0
 42
0.0000001
 43
0.0000001
 44
0.0000000001
 40
0.0
 40
0.0
 40
0.0
 40
0.0
 40
0.2888790989
 40
0.5483149699
 40
0.7822128524
 40
1.0
 40
1.0
 40
1.0
 40
1.0
 10
61.0925596365
 20
34.3482605872
 30
0.0
 10
61.2707794695
 20
34.4511828014
 30
0.0
 10
61.5950396204
 20
34.6732914486
 30
0.0
 10
61.9864519785
 20
35.0762877403
 30
0.0
 10
62.2420862456
 20
35.5208798331
 30
0.0
 10
62.3121084337
 20
35.8417134598
 30
0.0
 10
62.3191784908
 20
35.9967087899
 30
0.0
  0
SPLINE
  5
87C
100
AcDbEntity
  8
0
100
AcDbSpline
 62
7
  6
CONTINUOUS
 70
0
 71
3
 72
11
 73
7
 74
0
 42
0.0000001
 43
0.0000001
 44
0.0000000001
 40
0.0
 40
0.0
 40
0.0
 40
0.0
 40
0.1892804641
 40
0.4167829373
 40
0.6916218329
 40
1.0
 40
1.0
 40
1.0
 40
1.0
 10
60.6351899319
 20
33.4969852717
 30
0.0
 10
60.6351906072
 20
33.4828182664
 30
0.0
 10
60.6239336902
 20
33.4514465037
 30
0.0
 10
60.5836559046
 20
33.4168335386
 30
0.0
 10
60.5272423854
 20
33.3928524604
 30
0.0
 10
60.4837731942
 20
33.3855619848
 30
0.0
 10
60.4607421634
 20
33.3840430082
 30
0.0
  0
SPLINE
  5
87D
100
AcDbEntity
  8
0
100
AcDbSpline
 62
7
  6
CONTINUOUS
 70
0
 71
3
 72
8
 73
4
 74
0
 42
0.0000001
 43
0.0000001
 44
0.0000000001
 40
0.0
 40
0.0
 40
0.0
 40
0.0
 40
1.0
 40
1.0
 40
1.0
 40
1.0
 10
57.9986639374
 20
36.5076967476
 30
0.0
 10
57.9977780984
 20
36.5087214164
 30
0.0
 10
57.9966716984
 20
36.5095675993
 30
0.0
 10
57.9954987481
 20
36.5102449798
 30
0.0
  0
SPLINE
  5
87E
100
AcDbEntity
  8
7_ALL_ROUNDS
100
AcDbSpline
 62
9
  6
CONTINUOUS
 70
0
 71
3
 72
11
 73
7
 74
0
 42
0.0000001
 43
0.0000001
 44
0.0000000001
 40
0.0
 40
0.0
 40
0.0
 40
0.0
 40
0.2897862804
 40
0.54901656
 40
0.7822082832
 40
1.0
 40
1.0
 40
1.0
 40
1.0
 10
60.1042804738
 20
29.4768241308
 30
0.0
 10
60.2269837808
 20
29.54768547
 30
0.0
 10
60.4495553956
 20
29.7009307345
 30
0.0
 10
60.7154058924
 20
29.9806042639
 30
0.0
 10
60.8837028997
 20
30.2897927702
 30
0.0
 10
60.9229975547
 20
30.5117973005
 30
0.0
 10
60.922997739
 20
30.6182894538
 30
0.0
  0
SPLINE
  5
87F
100
AcDbEntity
  8
0
100
AcDbSpline
 62
7
  6
CONTINUOUS
 70
0
 71
3
 72
8
 73
4
 74
0
 42
0.0000001
 43
0.0000001
 44
0.0000000001
 40
0.0
 40
0.0
 40
0.0
 40
0.0
 40
1.0
 40
1.0
 40
1.0
 40
1.0
 10
58.6817820697
 20
36.120343623
 30
0.0
 10
58.6886687996
 20
36.1163665265
 30
0.0
 10
58.698753234
 20
36.1163665265
 30
0.0
 10
58.7056399639
 20
36.120343623
 30
0.0
  0
SPLINE
  5
880
100
AcDbEntity
  8
0
100
AcDbSpline
 62
7
  6
CONTINUOUS
 70
0
 71
3
 72
8
 73
4
 74
0
 42
0.0000001
 43
0.0000001
 44
0.0000000001
 40
0.0
 40
0.0
 40
0.0
 40
0.0
 40
1.0
 40
1.0
 40
1.0
 40
1.0
 10
58.4544361041
 20
36.2378582819
 30
0.0
 10
58.461322834
 20
36.2418353785
 30
0.0
 10
58.4714072683
 20
36.2418353785
 30
0.0
 10
58.4782939982
 20
36.2378582819
 30
0.0
  0
SPLINE
  5
881
100
AcDbEntity
  8
0
100
AcDbSpline
 62
7
  6
CONTINUOUS
 70
0
 71
3
 72
9
 73
5
 74
0
 42
0.0000001
 43
0.0000001
 44
0.0000000001
 40
0.0
 40
0.0
 40
0.0
 40
0.0
 40
0.2938868289
 40
1.0
 40
1.0
 40
1.0
 40
1.0
 10
58.5759248439
 20
36.0454329516
 30
0.0
 10
58.5766609221
 20
36.0458580378
 30
0.0
 10
58.5790311848
 20
36.0474571705
 30
0.0
 10
58.5808681429
 20
36.050279653
 30
0.0
 10
58.5808681429
 20
36.052321936
 30
0.0
  0
SPLINE
  5
882
100
AcDbEntity
  8
0
100
AcDbSpline
 62
7
  6
CONTINUOUS
 70
0
 71
3
 72
8
 73
4
 74
0
 42
0.0000001
 43
0.0000001
 44
0.0000000001
 40
0.0
 40
0.0
 40
0.0
 40
0.0
 40
1.0
 40
1.0
 40
1.0
 40
1.0
 10
58.5401435705
 20
36.0385471826
 30
0.0
 10
58.5470303004
 20
36.034570086
 30
0.0
 10
58.5571147347
 20
36.034570086
 30
0.0
 10
58.5640014646
 20
36.0385471826
 30
0.0
  0
SPLINE
  5
883
100
AcDbEntity
  8
0
100
AcDbSpline
 62
7
  6
CONTINUOUS
 70
0
 71
3
 72
9
 73
5
 74
0
 42
0.0000001
 43
0.0000001
 44
0.0000000001
 40
0.0
 40
0.0
 40
0.0
 40
0.0
 40
0.2938868289
 40
1.0
 40
1.0
 40
1.0
 40
1.0
 10
58.7175633432
 20
36.127229392
 30
0.0
 10
58.7182994214
 20
36.1276544782
 30
0.0
 10
58.7206696841
 20
36.1292536109
 30
0.0
 10
58.7225066422
 20
36.1320760934
 30
0.0
 10
58.7225066422
 20
36.1341183764
 30
0.0
  0
SPLINE
  5
884
100
AcDbEntity
  8
0
100
AcDbSpline
 62
7
  6
CONTINUOUS
 70
0
 71
3
 72
9
 73
5
 74
0
 42
0.0000001
 43
0.0000001
 44
0.0000000001
 40
0.0
 40
0.0
 40
0.0
 40
0.0
 40
0.2938868289
 40
1.0
 40
1.0
 40
1.0
 40
1.0
 10
58.3963586959
 20
36.3127255455
 30
0.0
 10
58.3970947741
 20
36.3131506317
 30
0.0
 10
58.3994650368
 20
36.3147497644
 30
0.0
 10
58.4013019949
 20
36.3175722469
 30
0.0
 10
58.4013019949
 20
36.3196145299
 30
0.0
  0
SPLINE
  5
885
100
AcDbEntity
  8
0
100
AcDbSpline
 62
7
  6
CONTINUOUS
 70
0
 71
3
 72
8
 73
4
 74
0
 42
0.0000001
 43
0.0000001
 44
0.0000000001
 40
0.0
 40
0.0
 40
0.0
 40
0.0
 40
1.0
 40
1.0
 40
1.0
 40
1.0
 10
58.3605774224
 20
36.3058397765
 30
0.0
 10
58.3674641523
 20
36.3018626799
 30
0.0
 10
58.3775485867
 20
36.3018626799
 30
0.0
 10
58.3844353166
 20
36.3058397765
 30
0.0
  0
SPLINE
  5
886
100
AcDbEntity
  8
0
100
AcDbSpline
 62
7
  6
CONTINUOUS
 70
0
 71
3
 72
8
 73
4
 74
0
 42
0.0000001
 43
0.0000001
 44
0.0000000001
 40
0.0
 40
0.0
 40
0.0
 40
0.0
 40
1.0
 40
1.0
 40
1.0
 40
1.0
 10
58.1399211323
 20
36.4194911379
 30
0.0
 10
58.1468078622
 20
36.4234682345
 30
0.0
 10
58.1568922966
 20
36.4234682345
 30
0.0
 10
58.1637790265
 20
36.4194911379
 30
0.0
  0
SPLINE
  5
887
100
AcDbEntity
  8
0
100
AcDbSpline
 62
7
  6
CONTINUOUS
 70
0
 71
3
 72
9
 73
5
 74
0
 42
0.0000001
 43
0.0000001
 44
0.0000000001
 40
0.0
 40
0.0
 40
0.0
 40
0.0
 40
0.5562046647
 40
1.0
 40
1.0
 40
1.0
 40
1.0
 10
58.2851508432
 20
36.2476925684
 30
0.0
 10
58.292338548
 20
36.251623107
 30
0.0
 10
58.3047252424
 20
36.2590370585
 30
0.0
 10
58.3144876354
 20
36.2725469985
 30
0.0
 10
58.3144876124
 20
36.2790835541
 30
0.0
  0
SPLINE
  5
888
100
AcDbEntity
  8
0
100
AcDbSpline
 62
7
  6
CONTINUOUS
 70
0
 71
3
 72
10
 73
6
 74
0
 42
0.0000001
 43
0.0000001
 44
0.0000000001
 40
0.0
 40
0.0
 40
0.0
 40
0.0
 40
0.5104607452
 40
0.7686908999
 40
1.0
 40
1.0
 40
1.0
 40
1.0
 10
58.1904430767
 20
36.2404965137
 30
0.0
 10
58.205033371
 20
36.2320705974
 30
0.0
 10
58.2321991381
 20
36.2272838915
 30
0.0
 10
58.2643746667
 20
36.235918398
 30
0.0
 10
58.2784522808
 20
36.2440295133
 30
0.0
 10
58.2851508432
 20
36.2476925684
 30
0.0
  0
SPLINE
  5
889
100
AcDbEntity
  8
0
100
AcDbSpline
 62
7
  6
CONTINUOUS
 70
0
 71
3
 72
9
 73
5
 74
0
 42
0.0000001
 43
0.0000001
 44
0.0000000001
 40
0.0
 40
0.0
 40
0.0
 40
0.0
 40
0.7061131711
 40
1.0
 40
1.0
 40
1.0
 40
1.0
 10
57.7100929583
 20
36.5632643223
 30
0.0
 10
57.7100929583
 20
36.5653066053
 30
0.0
 10
57.7119299164
 20
36.5681290878
 30
0.0
 10
57.7143001791
 20
36.5697282205
 30
0.0
 10
57.7150362573
 20
36.5701533067
 30
0.0
  0
SPLINE
  5
88A
100
AcDbEntity
  8
0
100
AcDbSpline
 62
7
  6
CONTINUOUS
 70
0
 71
3
 72
9
 73
5
 74
0
 42
0.0000001
 43
0.0000001
 44
0.0000000001
 40
0.0
 40
0.0
 40
0.0
 40
0.0
 40
0.2938868289
 40
1.0
 40
1.0
 40
1.0
 40
1.0
 10
58.211876207
 20
36.3107738006
 30
0.0
 10
58.2126122852
 20
36.3103487144
 30
0.0
 10
58.2149825479
 20
36.3087495817
 30
0.0
 10
58.216819506
 20
36.3059270992
 30
0.0
 10
58.216819506
 20
36.3038848162
 30
0.0
  0
SPLINE
  5
88B
100
AcDbEntity
  8
0
100
AcDbSpline
 62
7
  6
CONTINUOUS
 70
0
 71
3
 72
13
 73
9
 74
0
 42
0.0000001
 43
0.0000001
 44
0.0000000001
 40
0.0
 40
0.0
 40
0.0
 40
0.0
 40
0.0871673655
 40
0.186891035
 40
0.3045607784
 40
0.4386985883
 40
0.7300968155
 40
1.0
 40
1.0
 40
1.0
 40
1.0
 10
55.3147702908
 20
29.8587735481
 30
0.0
 10
55.3147732857
 20
29.8642250713
 30
0.0
 10
55.3180646528
 20
29.8760192218
 30
0.0
 10
55.3309183702
 20
29.8906393681
 30
0.0
 10
55.349889735
 20
29.9022101871
 30
0.0
 10
55.3823297796
 20
29.9130229616
 30
0.0
 10
55.4265119272
 20
29.915259657
 30
0.0
 10
55.4614541813
 20
29.9057999408
 30
0.0
 10
55.476071719
 20
29.8973582914
 30
0.0
  0
SPLINE
  5
88C
100
AcDbEntity
  8
0
100
AcDbSpline
 62
7
  6
CONTINUOUS
 70
0
 71
3
 72
8
 73
4
 74
0
 42
0.0000001
 43
0.0000001
 44
0.0000000001
 40
0.0
 40
0.0
 40
0.0
 40
0.0
 40
1.0
 40
1.0
 40
1.0
 40
1.0
 10
58.6817820697
 20
36.1139153581
 30
0.0
 10
58.6886687996
 20
36.1099382615
 30
0.0
 10
58.698753234
 20
36.1099382615
 30
0.0
 10
58.7056399639
 20
36.1139153581
 30
0.0
  0
SPLINE
  5
88D
100
AcDbEntity
  8
0
100
AcDbSpline
 62
7
  6
CONTINUOUS
 70
0
 71
3
 72
9
 73
5
 74
0
 42
0.0000001
 43
0.0000001
 44
0.0000000001
 40
0.0
 40
0.0
 40
0.0
 40
0.0
 40
0.5549350148
 40
1.0
 40
1.0
 40
1.0
 40
1.0
 10
58.053798867
 20
36.4856318188
 30
0.0
 10
58.0576576856
 20
36.4878602921
 30
0.0
 10
58.0648306746
 20
36.4921546805
 30
0.0
 10
58.0678869852
 20
36.5003869835
 30
0.0
 10
58.0678869969
 20
36.5039608099
 30
0.0
  0
SPLINE
  5
88E
100
AcDbEntity
  8
0
100
AcDbSpline
 62
7
  6
CONTINUOUS
 70
0
 71
3
 72
9
 73
5
 74
0
 42
0.0000001
 43
0.0000001
 44
0.0000000001
 40
0.0
 40
0.0
 40
0.0
 40
0.0
 40
0.4914205899
 40
1.0
 40
1.0
 40
1.0
 40
1.0
 10
57.8680497105
 20
36.4266823695
 30
0.0
 10
57.8791398919
 20
36.4202777735
 30
0.0
 10
57.904090143
 20
36.4103224079
 30
0.0
 10
57.9318624646
 20
36.4152133681
 30
0.0
 10
57.9433398794
 20
36.4218415919
 30
0.0
  0
SPLINE
  5
88F
100
AcDbEntity
  8
0
100
AcDbSpline
 62
7
  6
CONTINUOUS
 70
0
 71
3
 72
8
 73
4
 74
0
 42
0.0000001
 43
0.0000001
 44
0.0000000001
 40
0.0
 40
0.0
 40
0.0
 40
0.0
 40
1.0
 40
1.0
 40
1.0
 40
1.0
 10
57.8191145806
 20
36.434878412
 30
0.0
 10
57.8222614224
 20
36.4330611063
 30
0.0
 10
57.8268694323
 20
36.4330611063
 30
0.0
 10
57.8300162741
 20
36.434878412
 30
0.0
  0
SPLINE
  5
890
100
AcDbEntity
  8
0
100
AcDbSpline
 62
7
  6
CONTINUOUS
 70
0
 71
3
 72
9
 73
5
 74
0
 42
0.0000001
 43
0.0000001
 44
0.0000000001
 40
0.0
 40
0.0
 40
0.0
 40
0.0
 40
0.2938868289
 40
1.0
 40
1.0
 40
1.0
 40
1.0
 10
58.7175633432
 20
36.1208011271
 30
0.0
 10
58.7182994214
 20
36.1212262133
 30
0.0
 10
58.7206696841
 20
36.122825346
 30
0.0
 10
58.7225066422
 20
36.1256478284
 30
0.0
 10
58.7225066422
 20
36.1276901114
 30
0.0
  0
SPLINE
  5
891
100
AcDbEntity
  8
0
100
AcDbSpline
 62
7
  6
CONTINUOUS
 70
0
 71
3
 72
9
 73
5
 74
0
 42
0.0000001
 43
0.0000001
 44
0.0000000001
 40
0.0
 40
0.0
 40
0.0
 40
0.0
 40
0.2938868289
 40
1.0
 40
1.0
 40
1.0
 40
1.0
 10
57.9954987481
 20
36.5166732448
 30
0.0
 10
57.9962348263
 20
36.5162481586
 30
0.0
 10
57.998605089
 20
36.5146490259
 30
0.0
 10
58.0004420471
 20
36.5118265434
 30
0.0
 10
58.0004420471
 20
36.5097842604
 30
0.0
  0
SPLINE
  5
892
100
AcDbEntity
  8
0
100
AcDbSpline
 62
7
  6
CONTINUOUS
 70
0
 71
3
 72
8
 73
4
 74
0
 42
0.0000001
 43
0.0000001
 44
0.0000000001
 40
0.0
 40
0.0
 40
0.0
 40
0.0
 40
1.0
 40
1.0
 40
1.0
 40
1.0
 10
57.7970355889
 20
36.6175080406
 30
0.0
 10
57.8039223188
 20
36.6214851372
 30
0.0
 10
57.8140067532
 20
36.6214851372
 30
0.0
 10
57.8208934831
 20
36.6175080406
 30
0.0
  0
SPLINE
  5
893
100
AcDbEntity
  8
0
100
AcDbSpline
 62
7
  6
CONTINUOUS
 70
0
 71
3
 72
9
 73
5
 74
0
 42
0.0000001
 43
0.0000001
 44
0.0000000001
 40
0.0
 40
0.0
 40
0.0
 40
0.0
 40
0.2645096261
 40
1.0
 40
1.0
 40
1.0
 40
1.0
 10
55.7948078801
 20
33.465403291
 30
0.0
 10
55.7930151294
 20
33.4658259428
 30
0.0
 10
55.7862942555
 20
33.4676403846
 30
0.0
 10
55.7797744522
 20
33.4703085301
 30
0.0
 10
55.7753393527
 20
33.4728698066
 30
0.0
  0
SPLINE
  5
894
100
AcDbEntity
  8
0
100
AcDbSpline
 62
7
  6
CONTINUOUS
 70
0
 71
3
 72
8
 73
4
 74
0
 42
0.0000001
 43
0.0000001
 44
0.0000000001
 40
0.0
 40
0.0
 40
0.0
 40
0.0
 40
1.0
 40
1.0
 40
1.0
 40
1.0
 10
58.5401435705
 20
36.0321189177
 30
0.0
 10
58.5470303004
 20
36.0281418211
 30
0.0
 10
58.5571147347
 20
36.0281418211
 30
0.0
 10
58.5640014646
 20
36.0321189177
 30
0.0
  0
SPLINE
  5
895
100
AcDbEntity
  8
0
100
AcDbSpline
 62
7
  6
CONTINUOUS
 70
0
 71
3
 72
9
 73
5
 74
0
 42
0.0000001
 43
0.0000001
 44
0.0000000001
 40
0.0
 40
0.0
 40
0.0
 40
0.0
 40
0.2938868289
 40
1.0
 40
1.0
 40
1.0
 40
1.0
 10
58.5759248439
 20
36.0390046866
 30
0.0
 10
58.5766609221
 20
36.0394297729
 30
0.0
 10
58.5790311848
 20
36.0410289055
 30
0.0
 10
58.5808681429
 20
36.043851388
 30
0.0
 10
58.5808681429
 20
36.045893671
 30
0.0
  0
SPLINE
  5
896
100
AcDbEntity
  8
0
100
AcDbSpline
 62
7
  6
CONTINUOUS
 70
0
 71
3
 72
8
 73
4
 74
0
 42
0.0000001
 43
0.0000001
 44
0.0000000001
 40
0.0
 40
0.0
 40
0.0
 40
0.0
 40
1.0
 40
1.0
 40
1.0
 40
1.0
 10
57.8896470901
 20
36.4693152954
 30
0.0
 10
57.8907654718
 20
36.4699611625
 30
0.0
 10
57.8919058951
 20
36.4711716869
 30
0.0
 10
57.8919058951
 20
36.4724631674
 30
0.0
  0
SPLINE
  5
897
100
AcDbEntity
  8
0
100
AcDbSpline
 62
7
  6
CONTINUOUS
 70
0
 71
3
 72
8
 73
4
 74
0
 42
0.0000001
 43
0.0000001
 44
0.0000000001
 40
0.0
 40
0.0
 40
0.0
 40
0.0
 40
1.0
 40
1.0
 40
1.0
 40
1.0
 10
58.3724367724
 20
36.184075283
 30
0.0
 10
58.3706541221
 20
36.1830457999
 30
0.0
 10
58.3689428366
 20
36.1815724229
 30
0.0
 10
58.3680704747
 20
36.1797078419
 30
0.0
  0
SPLINE
  5
898
100
AcDbEntity
  8
0
100
AcDbSpline
 62
7
  6
CONTINUOUS
 70
0
 71
3
 72
8
 73
4
 74
0
 42
0.0000001
 43
0.0000001
 44
0.0000000001
 40
0.0
 40
0.0
 40
0.0
 40
0.0
 40
1.0
 40
1.0
 40
1.0
 40
1.0
 10
58.4782939982
 20
36.2314300169
 30
0.0
 10
58.4714072683
 20
36.2354071135
 30
0.0
 10
58.461322834
 20
36.2354071135
 30
0.0
 10
58.4544361041
 20
36.2314300169
 30
0.0
  0
SPLINE
  5
899
100
AcDbEntity
  8
0
100
AcDbSpline
 62
7
  6
CONTINUOUS
 70
0
 71
3
 72
9
 73
5
 74
0
 42
0.0000001
 43
0.0000001
 44
0.0000000001
 40
0.0
 40
0.0
 40
0.0
 40
0.0
 40
0.4216004908
 40
1.0
 40
1.0
 40
1.0
 40
1.0
 10
60.4974017877
 20
33.4969852712
 30
0.0
 10
60.4973978474
 20
33.4898128617
 30
0.0
 10
60.486708849
 20
33.4735816441
 30
0.0
 10
60.4702147081
 20
33.4676568268
 30
0.0
 10
60.4606362781
 20
33.4654034132
 30
0.0
  0
SPLINE
  5
89A
100
AcDbEntity
  8
7_ALL_ROUNDS
100
AcDbSpline
 62
7
  6
CONTINUOUS
 70
0
 71
3
 72
9
 73
5
 74
0
 42
0.0000001
 43
0.0000001
 44
0.0000000001
 40
0.0
 40
0.0
 40
0.0
 40
0.0
 40
0.5
 40
1.0
 40
1.0
 40
1.0
 40
1.0
 10
51.4595175898
 20
19.9622269371
 30
0.0
 10
51.3545473758
 20
19.9601694384
 30
0.0
 10
51.1445569599
 20
19.9591409302
 30
0.0
 10
50.9345665441
 20
19.9601694384
 30
0.0
 10
50.82959633
 20
19.9622269371
 30
0.0
  0
ENDSEC
  0
SECTION
  2
OBJECTS
  0
DICTIONARY
  5
C
100
AcDbDictionary
280
0
281
1
  3
ACAD_GROUP
350
D
  3
ACAD_MLINESTYLE
350
17
  3
ACAD_LAYOUT
350
1A
  3
ACAD_PLOTSETTINGS
350
19
  3
ACAD_PLOTSTYLENAME
350
E
  0
DICTIONARY
  5
D
102
{ACAD_REACTORS
330
C
102
}
100
AcDbDictionary
280
0
281
1
  0
ACDBDICTIONARYWDFLT
  5
E
102
{ACAD_REACTORS
330
C
102
}
100
AcDbDictionary
281
1
  3
Normal
350
F
100
AcDbDictionaryWithDefault
340
F
  0
DICTIONARY
  5
17
102
{ACAD_REACTORS
330
C
102
}
100
AcDbDictionary
280
0
281
1
  3
Standard
350
18
  0
DICTIONARY
  5
19
102
{ACAD_REACTORS
330
C
102
}
100
AcDbDictionary
281
1
  0
DICTIONARY
  5
1A
102
{ACAD_REACTORS
330
C
102
}
100
AcDbDictionary
281
1
  3
Model
350
89B
  3
Layout1
350
89C
  0
ACDBPLACEHOLDER
  5
F
102
{ACAD_REACTORS
330
E
102
}
  0
MLINESTYLE
  5
18
102
{ACAD_REACTORS
330
17
102
}
100
AcDbMlineStyle
  2
STANDARD
 70
0
  3

 62
256
 51
90.0
 52
90.0
 71
2
 49
0.5
 62
256
  6
BYLAYER
 49
-0.5
 62
256
  6
BYLAYER
  0
LAYOUT
  5
89B
102
{ACAD_REACTORS
330
1A
102
}
100
AcDbPlotSettings
  1

  2
none_device
  4
ANSI_D_(34.00_x_22.00_Inches)
  6

 40
0.0
 41
0.0
 42
0.0
 43
0.0
 44
863.6
 45
558.8
 46
0.0
 47
0.0
 48
0.0
 49
0.0
140
0.0
141
0.0
142
1.0
143
1.0
 70
1024
 72
0
 73
0
 74
0
  7

 75
0
147
1.0
148
0.0
149
0.0
100
AcDbLayout
  1
Model
 70
0
 71
0
 10
0.0
 20
0.0
 11
34.0
 21
22.0
 12
0.0
 22
0.0
 32
0.0
 14
0.0
 24
0.0
 34
0.0
 15
0.0
 25
0.0
 35
0.0
146
0.0
 13
0.0
 23
0.0
 33
0.0
 16
1.0
 26
0.0
 36
0.0
 17
0.0
 27
1.0
 37
0.0
 76
0
330
210
345
0
346
0
  0
LAYOUT
  5
89C
102
{ACAD_REACTORS
330
1A
102
}
100
AcDbPlotSettings
  1

  2
none_device
  4
ANSI_D_(34.00_x_22.00_Inches)
  6

 40
0.0
 41
0.0
 42
0.0
 43
0.0
 44
863.6
 45
558.8
 46
0.0
 47
0.0
 48
0.0
 49
0.0
140
0.0
141
0.0
142
1.0
143
1.0
 70
0
 72
0
 73
0
 74
0
  7

 75
0
147
1.0
148
0.0
149
0.0
100
AcDbLayout
  1
Layout1
 70
0
 71
1
 10
0.0
 20
0.0
 11
34.0
 21
22.0
 12
0.0
 22
0.0
 32
0.0
 14
0.0
 24
0.0
 34
0.0
 15
0.0
 25
0.0
 35
0.0
146
0.0
 13
0.0
 23
0.0
 33
0.0
 16
1.0
 26
0.0
 36
0.0
 17
0.0
 27
1.0
 37
0.0
 76
0
330
211
345
0
346
0
  0
ENDSEC
  0
EOF
