  0
SECTION
  2
HEADER
  9
$ACADVER
  1
AC1015
  9
$ACADMAINTVER
 70
     6
  9
$DWGCODEPAGE
  3
ANSI_1252
  9
$INSBASE
 10
0.0
 20
0.0
 30
0.0
  9
$EXTMIN
 10
0.0
 20
0.0
 30
0.0
  9
$EXTMAX
 10
863.6
 20
558.8
 30
0.0
  9
$LIMMIN
 10
0.0
 20
0.0
  9
$LIMMAX
 10
863.6
 20
558.8
  9
$ORTHOMODE
 70
     0
  9
$REGENMODE
 70
     1
  9
$FILLMODE
 70
     1
  9
$QTEXTMODE
 70
     0
  9
$MIRRTEXT
 70
     1
  9
$LTSCALE
 40
2.0
  9
$ATTMODE
 70
     1
  9
$TEXTSIZE
 40
6.35
  9
$TRACEWID
 40
1.0
  9
$TEXTSTYLE
  7
STANDARD
  9
$CLAYER
  8
0
  9
$CELTYPE
  6
ByLayer
  9
$CECOLOR
 62
   256
  9
$CELTSCALE
 40
1.0
  9
$DISPSILH
 70
     0
  9
$DIMSCALE
 40
1.0
  9
$DIMASZ
 40
4.0
  9
$DIMEXO
 40
1.524
  9
$DIMDLI
 40
3.75
  9
$DIMRND
 40
0.0
  9
$DIMDLE
 40
0.0
  9
$DIMEXE
 40
1.524
  9
$DIMTP
 40
0.0
  9
$DIMTM
 40
0.0
  9
$DIMTXT
 40
6.35
  9
$DIMCEN
 40
2.5
  9
$DIMTSZ
 40
0.0
  9
$DIMTOL
 70
     0
  9
$DIMLIM
 70
     0
  9
$DIMTIH
 70
     1
  9
$DIMTOH
 70
     1
  9
$DIMSE1
 70
     0
  9
$DIMSE2
 70
     0
  9
$DIMTAD
 70
     0
  9
$DIMZIN
 70
     1
  9
$DIMBLK
  1

  9
$DIMASO
 70
     1
  9
$DIMSHO
 70
     1
  9
$DIMPOST
  1

  9
$DIMAPOST
  1

  9
$DIMALT
 70
     0
  9
$DIMALTD
 70
     3
  9
$DIMALTF
 40
0.0393700787
  9
$DIMLFAC
 40
1.0
  9
$DIMTOFL
 70
     1
  9
$DIMTVP
 40
0.0
  9
$DIMTIX
 70
     0
  9
$DIMSOXD
 70
     0
  9
$DIMSAH
 70
     0
  9
$DIMBLK1
  1

  9
$DIMBLK2
  1

  9
$DIMSTYLE
  2
ISO-25
  9
$DIMCLRD
 70
     0
  9
$DIMCLRE
 70
     0
  9
$DIMCLRT
 70
     0
  9
$DIMTFAC
 40
1.0
  9
$DIMGAP
 40
3.048
  9
$DIMJUST
 70
     0
  9
$DIMSD1
 70
     0
  9
$DIMSD2
 70
     0
  9
$DIMTOLJ
 70
     0
  9
$DIMTZIN
 70
     1
  9
$DIMALTZ
 70
     0
  9
$DIMALTTZ
 70
     0
  9
$DIMUPT
 70
     0
  9
$DIMDEC
 70
     1
  9
$DIMTDEC
 70
     1
  9
$DIMALTU
 70
     2
  9
$DIMALTTD
 70
     3
  9
$DIMTXSTY
  7
STANDARD
  9
$DIMAUNIT
 70
     0
  9
$DIMADEC
 70
     0
  9
$DIMALTRND
 40
0.0
  9
$DIMAZIN
 70
     0
  9
$DIMDSEP
 70
    44
  9
$DIMATFIT
 70
     3
  9
$DIMFRAC
 70
     0
  9
$DIMLDRBLK
  1

  9
$DIMLUNIT
 70
     2
  9
$DIMLWD
 70
    -2
  9
$DIMLWE
 70
    -2
  9
$DIMTMOVE
 70
     0
  9
$LUNITS
 70
     2
  9
$LUPREC
 70
     2
  9
$SKETCHINC
 40
1.0
  9
$FILLETRAD
 40
10.0
  9
$AUNITS
 70
     0
  9
$AUPREC
 70
     0
  9
$MENU
  1
.
  9
$ELEVATION
 40
0.0
  9
$PELEVATION
 40
0.0
  9
$THICKNESS
 40
0.0
  9
$LIMCHECK
 70
     0
  9
$CHAMFERA
 40
0.0
  9
$CHAMFERB
 40
0.0
  9
$CHAMFERC
 40
0.0
  9
$CHAMFERD
 40
0.0
  9
$SKPOLY
 70
     0
  9
$TDCREATE
 40
2459564.466072824
  9
$TDUCREATE
 40
2459564.799406157
  9
$TDUPDATE
 40
2459564.466074849
  9
$TDUUPDATE
 40
2459564.799408183
  9
$TDINDWG
 40
0.0000000116
  9
$TDUSRTIMER
 40
0.0000000116
  9
$USRTIMER
 70
     1
  9
$ANGBASE
 50
0.0
  9
$ANGDIR
 70
     0
  9
$PDMODE
 70
     0
  9
$PDSIZE
 40
-1.0
  9
$PLINEWID
 40
0.0
  9
$SPLFRAME
 70
     0
  9
$SPLINETYPE
 70
     6
  9
$SPLINESEGS
 70
     8
  9
$HANDSEED
  5
3E4
  9
$SURFTAB1
 70
     6
  9
$SURFTAB2
 70
     6
  9
$SURFTYPE
 70
     6
  9
$SURFU
 70
     6
  9
$SURFV
 70
     6
  9
$UCSBASE
  2

  9
$UCSNAME
  2

  9
$UCSORG
 10
0.0
 20
0.0
 30
0.0
  9
$UCSXDIR
 10
1.0
 20
0.0
 30
0.0
  9
$UCSYDIR
 10
0.0
 20
1.0
 30
0.0
  9
$UCSORTHOREF
  2

  9
$UCSORTHOVIEW
 70
     0
  9
$UCSORGTOP
 10
0.0
 20
0.0
 30
0.0
  9
$UCSORGBOTTOM
 10
0.0
 20
0.0
 30
0.0
  9
$UCSORGLEFT
 10
0.0
 20
0.0
 30
0.0
  9
$UCSORGRIGHT
 10
0.0
 20
0.0
 30
0.0
  9
$UCSORGFRONT
 10
0.0
 20
0.0
 30
0.0
  9
$UCSORGBACK
 10
0.0
 20
0.0
 30
0.0
  9
$PUCSBASE
  2

  9
$PUCSNAME
  2

  9
$PUCSORG
 10
0.0
 20
0.0
 30
0.0
  9
$PUCSXDIR
 10
1.0
 20
0.0
 30
0.0
  9
$PUCSYDIR
 10
0.0
 20
1.0
 30
0.0
  9
$PUCSORTHOREF
  2

  9
$PUCSORTHOVIEW
 70
     0
  9
$PUCSORGTOP
 10
0.0
 20
0.0
 30
0.0
  9
$PUCSORGBOTTOM
 10
0.0
 20
0.0
 30
0.0
  9
$PUCSORGLEFT
 10
0.0
 20
0.0
 30
0.0
  9
$PUCSORGRIGHT
 10
0.0
 20
0.0
 30
0.0
  9
$PUCSORGFRONT
 10
0.0
 20
0.0
 30
0.0
  9
$PUCSORGBACK
 10
0.0
 20
0.0
 30
0.0
  9
$USERI1
 70
     0
  9
$USERI2
 70
     0
  9
$USERI3
 70
     0
  9
$USERI4
 70
     0
  9
$USERI5
 70
     0
  9
$USERR1
 40
0.0
  9
$USERR2
 40
0.0
  9
$USERR3
 40
0.0
  9
$USERR4
 40
0.0
  9
$USERR5
 40
0.0
  9
$WORLDVIEW
 70
     1
  9
$SHADEDGE
 70
     3
  9
$SHADEDIF
 70
    70
  9
$TILEMODE
 70
     1
  9
$MAXACTVP
 70
    64
  9
$PINSBASE
 10
0.0
 20
0.0
 30
0.0
  9
$PLIMCHECK
 70
     0
  9
$PEXTMIN
 10
1.0000000000E+20
 20
1.0000000000E+20
 30
1.0000000000E+20
  9
$PEXTMAX
 10
-1.0000000000E+20
 20
-1.0000000000E+20
 30
-1.0000000000E+20
  9
$PLIMMIN
 10
0.0
 20
0.0
  9
$PLIMMAX
 10
420.0
 20
297.0
  9
$UNITMODE
 70
     0
  9
$VISRETAIN
 70
     1
  9
$PLINEGEN
 70
     0
  9
$PSLTSCALE
 70
     1
  9
$TREEDEPTH
 70
  3020
  9
$CMLSTYLE
  2
Standard
  9
$CMLJUST
 70
     0
  9
$CMLSCALE
 40
20.0
  9
$PROXYGRAPHICS
 70
     1
  9
$MEASUREMENT
 70
     1
  9
$CELWEIGHT
370
    -1
  9
$ENDCAPS
280
     0
  9
$JOINSTYLE
280
     0
  9
$LWDISPLAY
290
     1
  9
$INSUNITS
 70
     4
  9
$HYPERLINKBASE
  1

  9
$STYLESHEET
  1

  9
$XEDIT
290
     1
  9
$CEPSNTYPE
380
     0
  9
$PSTYLEMODE
290
     1
  9
$FINGERPRINTGUID
  2
{349535df-53a4-4ed2-b9bc-c514589afcd0}
  9
$VERSIONGUID
  2
{FAEB1C32-E019-11D5-929B-00C0DF256EC4}
  9
$EXTNAMES
290
     1
  9
$PSVPSCALE
 40
0.0
  9
$OLESTARTUP
290
     0
  0
ENDSEC
  0
SECTION
  2
CLASSES
  0
CLASS
  1
ACDBDICTIONARYWDFLT
  2
AcDbDictionaryWithDefault
  3
ObjectDBX Classes
 90
        0
280
     0
281
     0
  0
CLASS
  1
VISUALSTYLE
  2
AcDbVisualStyle
  3
ObjectDBX Classes
 90
     4095
280
     0
281
     0
  0
CLASS
  1
MATERIAL
  2
AcDbMaterial
  3
ObjectDBX Classes
 90
     1153
280
     0
281
     0
  0
CLASS
  1
SCALE
  2
AcDbScale
  3
ObjectDBX Classes
 90
     1153
280
     0
281
     0
  0
CLASS
  1
TABLESTYLE
  2
AcDbTableStyle
  3
ObjectDBX Classes
 90
     4095
280
     0
281
     0
  0
CLASS
  1
MLEADERSTYLE
  2
AcDbMLeaderStyle
  3
ACDB_MLEADERSTYLE_CLASS
 90
     4095
280
     0
281
     0
  0
CLASS
  1
SUN
  2
AcDbSun
  3
SCENEOE
 90
     1153
280
     0
281
     0
  0
CLASS
  1
ACDBPLACEHOLDER
  2
AcDbPlaceHolder
  3
ObjectDBX Classes
 90
        0
280
     0
281
     0
  0
CLASS
  1
LAYOUT
  2
AcDbLayout
  3
ObjectDBX Classes
 90
        0
280
     0
281
     0
  0
ENDSEC
  0
SECTION
  2
TABLES
  0
TABLE
  2
VPORT
  5
8
330
0
100
AcDbSymbolTable
 70
     1
  0
VPORT
  5
29
330
8
100
AcDbSymbolTableRecord
100
AcDbViewportTableRecord
  2
*Active
 70
     0
 10
0.0
 20
0.0
 11
1.0
 21
1.0
 12
431.8
 22
279.4
 13
0.0
 23
0.0
 14
10.0
 24
10.0
 15
10.0
 25
10.0
 16
0.0
 26
0.0
 36
1.0
 17
0.0
 27
0.0
 37
0.0
 40
558.8
 41
1.5454545455
 42
50.0
 43
0.0
 44
0.0
 50
0.0
 51
0.0
 71
     0
 72
  2000
 73
     1
 74
     3
 75
     0
 76
     0
 77
     0
 78
     0
281
     0
 65
     1
110
0.0
120
0.0
130
0.0
111
1.0
121
0.0
131
0.0
112
0.0
122
1.0
132
0.0
 79
     0
146
0.0
  0
ENDTAB
  0
TABLE
  2
LTYPE
  5
5
330
0
100
AcDbSymbolTable
 70
     6
  0
LTYPE
  5
14
330
5
100
AcDbSymbolTableRecord
100
AcDbLinetypeTableRecord
  2
ByBlock
 70
     0
  3

 72
    65
 73
     0
 40
0.0
  0
LTYPE
  5
15
330
5
100
AcDbSymbolTableRecord
100
AcDbLinetypeTableRecord
  2
ByLayer
 70
     0
  3

 72
    65
 73
     0
 40
0.0
  0
LTYPE
  5
16
330
5
100
AcDbSymbolTableRecord
100
AcDbLinetypeTableRecord
  2
Continuous
 70
     0
  3
Solid line
 72
    65
 73
     0
 40
0.0
  0
LTYPE
  5
6E
330
5
100
AcDbSymbolTableRecord
100
AcDbLinetypeTableRecord
  2
HIDDEN
 70
     0
  3
Hidden __ __ __ __ __ __ __ __ __ __ __ __ __ __
 72
    65
 73
     2
 40
1.905
 49
1.27
 74
     0
 49
-0.635
 74
     0
  0
LTYPE
  5
6F
330
5
100
AcDbSymbolTableRecord
100
AcDbLinetypeTableRecord
  2
PHANTOM
 70
     0
  3
Phantom ______  __  __  ______  __  __  ______
 72
    65
 73
     6
 40
12.7
 49
6.35
 74
     0
 49
-1.27
 74
     0
 49
1.27
 74
     0
 49
-1.27
 74
     0
 49
1.27
 74
     0
 49
-1.27
 74
     0
  0
LTYPE
  5
70
330
5
100
AcDbSymbolTableRecord
100
AcDbLinetypeTableRecord
  2
CENTER
 70
     0
  3
Center ____ _ ____ _ ____ _ ____ _ ____ _ ____
 72
    65
 73
     4
 40
10.16
 49
6.35
 74
     0
 49
-1.27
 74
     0
 49
1.27
 74
     0
 49
-1.27
 74
     0
  0
LTYPE
  5
71
330
5
100
AcDbSymbolTableRecord
100
AcDbLinetypeTableRecord
  2
CENTERX2
 70
     0
  3
Center (2x) ________  __  ________  __  _____
 72
    65
 73
     4
 40
20.32
 49
12.7
 74
     0
 49
-2.54
 74
     0
 49
2.54
 74
     0
 49
-2.54
 74
     0
  0
LTYPE
  5
72
330
5
100
AcDbSymbolTableRecord
100
AcDbLinetypeTableRecord
  2
DOT2
 70
     0
  3
Dot (.5x) ........................................
 72
    65
 73
     2
 40
0.635
 49
0.0
 74
     0
 49
-0.635
 74
     0
  0
ENDTAB
  0
TABLE
  2
LAYER
  5
2
330
0
100
AcDbSymbolTable
 70
     6
  0
LAYER
  5
10
330
2
100
AcDbSymbolTableRecord
100
AcDbLayerTableRecord
  2
0
 70
     0
 62
     7
  6
Continuous
370
    -3
390
F
  0
LAYER
  5
73
330
2
100
AcDbSymbolTableRecord
100
AcDbLayerTableRecord
  2
SLD-0
 70
     0
 62
   179
  6
Continuous
370
    -3
390
F
  0
LAYER
  5
74
330
2
100
AcDbSymbolTableRecord
100
AcDbLayerTableRecord
  2
WIRE_BOND
 70
     0
 62
     6
  6
Continuous
370
   100
390
F
  0
LAYER
  5
75
330
2
100
AcDbSymbolTableRecord
100
AcDbLayerTableRecord
  2
HIGHLIGHT-BLUE
 70
     0
 62
     5
  6
Continuous
370
    70
390
F
  0
LAYER
  5
76
330
2
100
AcDbSymbolTableRecord
100
AcDbLayerTableRecord
  2
MANUAL_DIM
 70
     0
 62
   114
  6
Continuous
370
    -3
390
F
  0
LAYER
  5
77
330
2
100
AcDbSymbolTableRecord
100
AcDbLayerTableRecord
  2
TORQUE_9-10
 70
     0
 62
   155
  6
Continuous
370
    -3
390
F
  0
ENDTAB
  0
TABLE
  2
STYLE
  5
3
330
0
100
AcDbSymbolTable
 70
     4
  0
STYLE
  5
11
330
3
100
AcDbSymbolTableRecord
100
AcDbTextStyleTableRecord
  2
STANDARD
 70
     0
 40
0.0
 41
1.0
 50
0.0
 71
     0
 42
6.35
  3
GOTHIC.TTF
  4

1001
ACAD
1000
CENTURY GOTHIC
1071
       34
  0
STYLE
  5
E9
330
3
100
AcDbSymbolTableRecord
100
AcDbTextStyleTableRecord
  2
SLDTEXTSTYLE0
 70
     0
 40
0.0
 41
0.913
 50
0.0
 71
     0
 42
6.35
  3
GOTHIC.TTF
  4

1001
ACAD
1000
Century Gothic
1071
      290
  0
STYLE
  5
EE
330
3
100
AcDbSymbolTableRecord
100
AcDbTextStyleTableRecord
  2
SLDTEXTSTYLE1
 70
     0
 40
0.0
 41
0.9412371134
 50
0.0
 71
     0
 42
6.35
  3
GOTHIC.TTF
  4

1001
ACAD
1000
Century Gothic
1071
      290
  0
STYLE
  5
F4
330
3
100
AcDbSymbolTableRecord
100
AcDbTextStyleTableRecord
  2
SLDTEXTSTYLE2
 70
     0
 40
0.0
 41
0.9412371134
 50
0.0
 71
     0
 42
6.35
  3
GOTHIC.TTF
  4
bigfont
1001
ACAD
1000
Century Gothic
1071
      290
  0
ENDTAB
  0
TABLE
  2
VIEW
  5
6
330
0
100
AcDbSymbolTable
 70
     0
  0
ENDTAB
  0
TABLE
  2
UCS
  5
7
330
0
100
AcDbSymbolTable
 70
     0
  0
ENDTAB
  0
TABLE
  2
APPID
  5
9
330
0
100
AcDbSymbolTable
 70
     1
  0
APPID
  5
12
330
9
100
AcDbSymbolTableRecord
100
AcDbRegAppTableRecord
  2
ACAD
 70
     0
  0
ENDTAB
  0
TABLE
  2
DIMSTYLE
  5
A
330
0
100
AcDbSymbolTable
 70
     4
100
AcDbDimStyleTable
  0
DIMSTYLE
105
27
330
A
100
AcDbSymbolTableRecord
100
AcDbDimStyleTableRecord
  2
ISO-25
 70
     0
 41
2.5
 42
0.625
 43
3.75
 44
1.25
 73
     0
 74
     0
 77
     1
 78
     8
140
2.5
141
2.5
143
0.0393700787
147
0.625
171
     3
172
     1
178
     0
271
     2
272
     2
274
     3
278
    44
283
     0
284
     8
340
11
  0
DIMSTYLE
105
179
102
{ACAD_REACTORS
330
178
330
1A2
330
1B6
330
3CF
102
}
330
A
100
AcDbSymbolTableRecord
100
AcDbDimStyleTableRecord
  2
SLDDIMSTYLE0
 70
     0
 41
4.0
 44
0.0
 45
0.000000001
 78
    12
 79
     3
140
4.7625
143
0.0393700787
147
1.190625
148
0.000000001
170
     1
173
     1
178
     0
271
     1
272
     1
276
     2
284
    12
340
E9
  0
DIMSTYLE
105
18E
102
{ACAD_REACTORS
330
18D
102
}
330
A
100
AcDbSymbolTableRecord
100
AcDbDimStyleTableRecord
  2
SLDDIMSTYLE1
 70
     0
 41
4.0
 44
0.0
 45
0.000000001
 78
    12
 79
     3
140
4.7625
143
0.0393700787
147
1.190625
148
0.000000001
170
     1
172
     1
173
     1
178
     0
271
     1
272
     1
276
     2
284
    12
289
     0
340
E9
  0
DIMSTYLE
105
3C5
102
{ACAD_REACTORS
330
3C4
102
}
330
A
100
AcDbSymbolTableRecord
100
AcDbDimStyleTableRecord
  2
SLDDIMSTYLE2
 70
     0
 41
4.0
 44
0.0
 78
    12
 79
     3
140
4.7625
143
0.0393700787
144
2.0
147
1.190625
148
0.000000001
170
     1
171
     3
173
     1
178
     0
272
     1
276
     2
284
    12
340
E9
  0
ENDTAB
  0
TABLE
  2
BLOCK_RECORD
  5
1
330
0
100
AcDbSymbolTable
 70
     9
  0
BLOCK_RECORD
  5
1F
330
1
100
AcDbSymbolTableRecord
100
AcDbBlockTableRecord
  2
*Model_Space
340
22
  0
BLOCK_RECORD
  5
1B
330
1
100
AcDbSymbolTableRecord
100
AcDbBlockTableRecord
  2
*Paper_Space
340
1E
  0
BLOCK_RECORD
  5
23
330
1
100
AcDbSymbolTableRecord
100
AcDbBlockTableRecord
  2
*Paper_Space0
340
26
  0
BLOCK_RECORD
  5
78
330
1
100
AcDbSymbolTableRecord
100
AcDbBlockTableRecord
  2
QSC Logo
340
0
  0
BLOCK_RECORD
  5
EB
330
1
100
AcDbSymbolTableRecord
100
AcDbBlockTableRecord
  2
SW_NOTE_0
340
0
102
{BLKREFS
331
F6
102
}
  0
BLOCK_RECORD
  5
17A
330
1
100
AcDbSymbolTableRecord
100
AcDbBlockTableRecord
  2
_D
340
0
  0
BLOCK_RECORD
  5
18F
330
1
100
AcDbSymbolTableRecord
100
AcDbBlockTableRecord
  2
_D_1
340
0
  0
BLOCK_RECORD
  5
1A3
330
1
100
AcDbSymbolTableRecord
100
AcDbBlockTableRecord
  2
_D_2
340
0
  0
BLOCK_RECORD
  5
1B7
330
1
100
AcDbSymbolTableRecord
100
AcDbBlockTableRecord
  2
_D_3
340
0
  0
BLOCK_RECORD
  5
3C6
330
1
100
AcDbSymbolTableRecord
100
AcDbBlockTableRecord
  2
_D_4
340
0
  0
BLOCK_RECORD
  5
3D0
330
1
100
AcDbSymbolTableRecord
100
AcDbBlockTableRecord
  2
_D_5
340
0
  0
ENDTAB
  0
ENDSEC
  0
SECTION
  2
BLOCKS
  0
BLOCK
  5
20
330
1F
100
AcDbEntity
  8
0
100
AcDbBlockBegin
  2
*Model_Space
 70
     0
 10
0.0
 20
0.0
 30
0.0
  3
*Model_Space
  1

  0
ENDBLK
  5
21
330
1F
100
AcDbEntity
  8
0
100
AcDbBlockEnd
  0
BLOCK
  5
1C
330
1B
100
AcDbEntity
 67
     1
  8
0
100
AcDbBlockBegin
  2
*Paper_Space
 70
     0
 10
0.0
 20
0.0
 30
0.0
  3
*Paper_Space
  1

  0
ENDBLK
  5
1D
330
1B
100
AcDbEntity
 67
     1
  8
0
100
AcDbBlockEnd
  0
BLOCK
  5
24
330
23
100
AcDbEntity
  8
0
100
AcDbBlockBegin
  2
*Paper_Space0
 70
     0
 10
0.0
 20
0.0
 30
0.0
  3
*Paper_Space0
  1

  0
ENDBLK
  5
25
330
23
100
AcDbEntity
  8
0
100
AcDbBlockEnd
  0
BLOCK
  5
79
330
78
100
AcDbEntity
  8
0
100
AcDbBlockBegin
  2
QSC Logo
 70
     0
 10
0.0
 20
0.0
 30
0.0
  3
QSC Logo
  1

  0
ARC
  5
7B
330
78
100
AcDbEntity
  8
SLD-0
  6
Continuous
370
    25
100
AcDbCircle
 10
60.1992795138
 20
10.8757345045
 30
0.0
 40
0.565625588076033
100
AcDbArc
 50
270.0
 51
0.0
  0
ARC
  5
7C
330
78
100
AcDbEntity
  8
SLD-0
  6
Continuous
370
    25
100
AcDbCircle
 10
60.1992795161
 20
12.0073744142
 30
0.0
 40
0.5656255857900288
100
AcDbArc
 50
0.000000539
 51
89.9999999245
  0
ARC
  5
7D
330
78
100
AcDbEntity
  8
SLD-0
  6
Continuous
370
    25
100
AcDbCircle
 10
60.1992795169
 20
1.857339148
 30
0.0
 40
0.5656255850413672
100
AcDbArc
 50
270.1250535673
 51
0.0
  0
ARC
  5
7E
330
78
100
AcDbEntity
  8
SLD-0
  6
Continuous
370
    25
100
AcDbCircle
 10
60.1992795161
 20
2.99686688
 30
0.0
 40
0.5656255857900412
100
AcDbArc
 50
0.0
 51
90.0
  0
ARC
  5
7F
330
78
100
AcDbEntity
  8
SLD-0
  6
Continuous
370
    25
100
AcDbCircle
 10
47.1655159553
 20
9.7444833261
 30
0.0
 40
0.565625590361968
100
AcDbArc
 50
90.0
 51
180.0
  0
ARC
  5
80
330
78
100
AcDbEntity
  8
SLD-0
  6
Continuous
370
    25
100
AcDbCircle
 10
34.7887755437
 20
5.2340677561
 30
0.0
 40
0.5656255880763794
100
AcDbArc
 50
0.0
 51
89.9999995368
  0
ARC
  5
81
330
78
100
AcDbEntity
  8
SLD-0
  6
Continuous
370
    25
100
AcDbCircle
 10
22.1252435498
 20
2.9478675597
 30
0.0
 40
0.5656255880759771
100
AcDbArc
 50
90.0
 51
180.0
  0
ARC
  5
82
330
78
100
AcDbEntity
  8
SLD-0
  6
Continuous
370
    25
100
AcDbCircle
 10
22.1252435498
 20
1.8762124218
 30
0.0
 40
0.5656255880760186
100
AcDbArc
 50
180.0
 51
270.0
  0
ARC
  5
83
330
78
100
AcDbEntity
  8
SLD-0
  6
Continuous
370
    25
100
AcDbCircle
 10
27.1275598492
 20
9.7219160751
 30
0.0
 40
0.565625585790027
100
AcDbArc
 50
90.0
 51
180.0
  0
ARC
  5
84
330
78
100
AcDbEntity
  8
SLD-0
  6
Continuous
370
    25
100
AcDbCircle
 10
39.808280732
 20
10.8531672489
 30
0.0
 40
0.5656255880761591
100
AcDbArc
 50
270.0
 51
0.0
  0
ARC
  5
85
330
78
100
AcDbEntity
  8
SLD-0
  6
Continuous
370
    25
100
AcDbCircle
 10
39.808280732
 20
12.0073744096
 30
0.0
 40
0.5656255880761591
100
AcDbArc
 50
359.9999995369
 51
90.0
  0
ARC
  5
86
330
78
100
AcDbEntity
  8
SLD-0
  6
Continuous
370
    25
100
AcDbCircle
 10
12.0321031895
 20
0.217548301
 30
0.0
 40
0.2175483009960733
100
AcDbArc
 50
180.0
 51
270.0
  0
ARC
  5
87
330
78
100
AcDbEntity
  8
SLD-0
  6
Continuous
370
    25
100
AcDbCircle
 10
15.4195515276
 20
0.217548301
 30
0.0
 40
0.2175483009960455
100
AcDbArc
 50
270.0
 51
0.0
  0
ARC
  5
88
330
78
100
AcDbEntity
  8
SLD-0
  6
Continuous
370
    25
100
AcDbCircle
 10
5.2684984251
 20
4.2067791851
 30
0.0
 40
0.5656255880762124
100
AcDbArc
 50
180.0
 51
270.0
  0
ARC
  5
89
330
78
100
AcDbEntity
  8
SLD-0
  6
Continuous
370
    25
100
AcDbCircle
 10
11.9826252409
 20
4.7308054208
 30
0.0
 40
0.2175483032820367
100
AcDbArc
 50
90.0000000001
 51
180.0
  0
ARC
  5
8A
330
78
100
AcDbEntity
  8
SLD-0
  6
Continuous
370
    25
100
AcDbCircle
 10
15.35281037
 20
4.7308054276
 30
0.0
 40
0.2175482964241411
100
AcDbArc
 50
360.0
 51
89.9999987958
  0
ARC
  5
8B
330
78
100
AcDbEntity
  8
SLD-0
  6
Continuous
370
    25
100
AcDbCircle
 10
16.5694959544
 20
4.2067791942
 30
0.0
 40
0.5656255857899861
100
AcDbArc
 50
270.0
 51
0.0
  0
ARC
  5
8C
330
78
100
AcDbEntity
  8
SLD-0
  6
Continuous
370
    25
100
AcDbCircle
 10
5.2684984274
 20
9.8469354674
 30
0.0
 40
0.5656255903621616
100
AcDbArc
 50
90.0
 51
180.0
  0
ARC
  5
8D
330
78
100
AcDbEntity
  8
SLD-0
  6
Continuous
370
    25
100
AcDbCircle
 10
16.5694959544
 20
9.846935472
 30
0.0
 40
0.5656255857899861
100
AcDbArc
 50
0.0000004631
 51
90.0000004631
  0
ARC
  5
8E
330
78
100
AcDbEntity
  8
SLD-0
  6
Continuous
370
    25
100
AcDbCircle
 10
27.1275598515
 20
8.6516957222
 30
0.0
 40
0.5656255880759762
100
AcDbArc
 50
180.0
 51
270.0
  0
ARC
  5
8F
330
78
100
AcDbEntity
  8
SLD-0
  6
Continuous
370
    25
100
AcDbCircle
 10
34.788775546
 20
4.0791187335
 30
0.0
 40
0.5656255857899879
100
AcDbArc
 50
270.0
 51
0.0
  0
ARC
  5
90
330
78
100
AcDbEntity
  8
SLD-0
  6
Continuous
370
    25
100
AcDbCircle
 10
47.165515953
 20
4.1281180539
 30
0.0
 40
0.5656255880759771
100
AcDbArc
 50
180.0
 51
270.0
  0
LINE
  5
91
330
78
100
AcDbEntity
  8
SLD-0
  6
Continuous
370
    25
100
AcDbLine
 10
60.7649051019
 20
10.8757345045
 30
0.0
 11
60.7649051019
 21
12.0073744195
 31
0.0
  0
LINE
  5
92
330
78
100
AcDbEntity
  8
SLD-0
  6
Continuous
370
    25
100
AcDbLine
 10
60.1992795169
 20
12.573
 30
0.0
 11
44.9931123687
 21
12.573
 31
0.0
  0
LINE
  5
93
330
78
100
AcDbEntity
  8
SLD-0
  6
Continuous
370
    25
100
AcDbLine
 10
41.7982576378
 20
6.9614311124
 30
0.0
 11
41.7992503698
 21
6.8753664631
 31
0.0
  0
LINE
  5
94
330
78
100
AcDbEntity
  8
SLD-0
  6
Continuous
370
    25
100
AcDbLine
 10
44.9931123687
 20
1.3105925442
 30
0.0
 11
60.2005140483
 21
1.2917149102
 31
0.0
  0
LINE
  5
95
330
78
100
AcDbEntity
  8
SLD-0
  6
Continuous
370
    25
100
AcDbLine
 10
60.7649051019
 20
1.857339148
 30
0.0
 11
60.7649051019
 21
2.99686688
 31
0.0
  0
LINE
  5
96
330
78
100
AcDbEntity
  8
SLD-0
  6
Continuous
370
    25
100
AcDbLine
 10
60.1992795161
 20
3.5624924658
 30
0.0
 11
47.165515953
 21
3.5624924658
 31
0.0
  0
LINE
  5
97
330
78
100
AcDbEntity
  8
SLD-0
  6
Continuous
370
    25
100
AcDbLine
 10
46.5998903649
 20
4.1281180539
 30
0.0
 11
46.5998903649
 21
9.7444833261
 31
0.0
  0
LINE
  5
98
330
78
100
AcDbEntity
  8
SLD-0
  6
Continuous
370
    25
100
AcDbLine
 10
47.1655159553
 20
10.3101089164
 30
0.0
 11
60.1992795138
 21
10.3101089164
 31
0.0
  0
LINE
  5
99
330
78
100
AcDbEntity
  8
SLD-0
  6
Continuous
370
    25
100
AcDbLine
 10
23.9251579121
 20
5.7996933442
 30
0.0
 11
34.7887755483
 21
5.7996933442
 31
0.0
  0
LINE
  5
9A
330
78
100
AcDbEntity
  8
SLD-0
  6
Continuous
370
    25
100
AcDbLine
 10
35.3544011318
 20
5.2340677561
 30
0.0
 11
35.3544011318
 21
4.0791187335
 31
0.0
  0
LINE
  5
9B
330
78
100
AcDbEntity
  8
SLD-0
  6
Continuous
370
    25
100
AcDbLine
 10
34.788775546
 20
3.5134931478
 30
0.0
 11
22.1252435498
 21
3.5134931478
 31
0.0
  0
LINE
  5
9C
330
78
100
AcDbEntity
  8
SLD-0
  6
Continuous
370
    25
100
AcDbLine
 10
21.5596179617
 20
2.9478675597
 30
0.0
 11
21.5596179617
 21
1.8762124218
 31
0.0
  0
LINE
  5
9D
330
78
100
AcDbEntity
  8
SLD-0
  6
Continuous
370
    25
100
AcDbLine
 10
22.1252435498
 20
1.3105868337
 30
0.0
 11
37.846372651
 21
1.3105868337
 31
0.0
  0
LINE
  5
9E
330
78
100
AcDbEntity
  8
SLD-0
  6
Continuous
370
    25
100
AcDbLine
 10
37.846372651
 20
8.0860701342
 30
0.0
 11
27.1275598515
 21
8.0860701342
 31
0.0
  0
LINE
  5
9F
330
78
100
AcDbEntity
  8
SLD-0
  6
Continuous
370
    25
100
AcDbLine
 10
26.5619342634
 20
8.6516957222
 30
0.0
 11
26.5619342634
 21
9.7219160751
 31
0.0
  0
LINE
  5
A0
330
78
100
AcDbEntity
  8
SLD-0
  6
Continuous
370
    25
100
AcDbLine
 10
27.1275598492
 20
10.2875416608
 30
0.0
 11
39.808280732
 21
10.2875416608
 31
0.0
  0
LINE
  5
A1
330
78
100
AcDbEntity
  8
SLD-0
  6
Continuous
370
    25
100
AcDbLine
 10
40.3739063201
 20
10.8531672489
 30
0.0
 11
40.3739063201
 21
12.0073744051
 31
0.0
  0
LINE
  5
A2
330
78
100
AcDbEntity
  8
SLD-0
  6
Continuous
370
    25
100
AcDbLine
 10
39.808280732
 20
12.5729999977
 30
0.0
 11
23.9251579121
 21
12.5729999977
 31
0.0
  0
LINE
  5
A3
330
78
100
AcDbEntity
  8
SLD-0
  6
Continuous
370
    25
100
AcDbLine
 10
3.0259137302
 20
1.3105868383
 30
0.0
 11
11.8145548885
 21
1.3105868383
 31
0.0
  0
LINE
  5
A4
330
78
100
AcDbEntity
  8
SLD-0
  6
Continuous
370
    25
100
AcDbLine
 10
11.8145548885
 20
1.3105868383
 30
0.0
 11
11.8145548885
 21
0.217548301
 31
0.0
  0
LINE
  5
A5
330
78
100
AcDbEntity
  8
SLD-0
  6
Continuous
370
    25
100
AcDbLine
 10
12.0321031895
 20
0.0
 30
0.0
 11
15.4195515276
 21
0.0
 31
0.0
  0
LINE
  5
A6
330
78
100
AcDbEntity
  8
SLD-0
  6
Continuous
370
    25
100
AcDbLine
 10
15.6370998286
 20
0.217548301
 30
0.0
 11
15.6370998286
 21
1.3105868383
 31
0.0
  0
LINE
  5
A7
330
78
100
AcDbEntity
  8
SLD-0
  6
Continuous
370
    25
100
AcDbLine
 10
15.6370998286
 20
1.3105868383
 30
0.0
 11
17.3652756133
 21
1.3105868383
 31
0.0
  0
LINE
  5
A8
330
78
100
AcDbEntity
  8
SLD-0
  6
Continuous
370
    25
100
AcDbLine
 10
20.0316643354
 20
3.4154941383
 30
0.0
 11
20.0316643354
 21
10.4548832319
 31
0.0
  0
LINE
  5
A9
330
78
100
AcDbEntity
  8
SLD-0
  6
Continuous
370
    25
100
AcDbLine
 10
17.3652756133
 20
12.5597905365
 30
0.0
 11
3.0259137302
 21
12.5597905365
 31
0.0
  0
LINE
  5
AA
330
78
100
AcDbEntity
  8
SLD-0
  6
Continuous
370
    25
100
AcDbLine
 10
17.1351215402
 20
4.2067791942
 30
0.0
 11
17.1351215402
 21
9.8469354765
 31
0.0
  0
LINE
  5
AB
330
78
100
AcDbEntity
  8
SLD-0
  6
Continuous
370
    25
100
AcDbLine
 10
5.2684984251
 20
3.641153597
 30
0.0
 11
11.7650769377
 21
3.641153597
 31
0.0
  0
LINE
  5
AC
330
78
100
AcDbEntity
  8
SLD-0
  6
Continuous
370
    25
100
AcDbLine
 10
11.7650769377
 20
3.641153597
 30
0.0
 11
11.7650769377
 21
4.7308054208
 31
0.0
  0
LINE
  5
AD
330
78
100
AcDbEntity
  8
SLD-0
  6
Continuous
370
    25
100
AcDbLine
 10
11.9826252409
 20
4.948353724
 30
0.0
 11
15.3528103746
 21
4.948353724
 31
0.0
  0
LINE
  5
AE
330
78
100
AcDbEntity
  8
SLD-0
  6
Continuous
370
    25
100
AcDbLine
 10
15.5703586664
 20
3.6411536085
 30
0.0
 11
16.5694959544
 21
3.6411536085
 31
0.0
  0
LINE
  5
AF
330
78
100
AcDbEntity
  8
SLD-0
  6
Continuous
370
    25
100
AcDbLine
 10
15.5703586664
 20
3.6411536085
 30
0.0
 11
15.5703586664
 21
4.7308054276
 31
0.0
  0
LINE
  5
B0
330
78
100
AcDbEntity
  8
SLD-0
  6
Continuous
370
    25
100
AcDbLine
 10
4.7028728371
 20
4.2067791851
 30
0.0
 11
4.7028728371
 21
9.8469354674
 31
0.0
  0
LINE
  5
B1
330
78
100
AcDbEntity
  8
SLD-0
  6
Continuous
370
    25
100
AcDbLine
 10
5.2684984274
 20
10.4125610577
 30
0.0
 11
16.5694959498
 21
10.4125610577
 31
0.0
  0
SPLINE
  5
B2
330
78
100
AcDbEntity
  8
SLD-0
  6
Continuous
370
    25
100
AcDbSpline
210
0.0
220
0.0
230
1.0
 70
     8
 71
     3
 72
    13
 73
     9
 74
     0
 42
0.00000001
 43
0.00000001
 40
0.0
 40
0.0
 40
0.0
 40
0.0
 40
0.1310616762
 40
0.2699656353
 40
0.4157607805
 40
0.5899807757
 40
0.76586761
 40
0.9948829976
 40
0.9948829976
 40
0.9948829976
 40
0.9948829976
 10
44.99311236868792
 20
12.57299999999997
 30
0.0
 10
44.67346489317598
 20
12.54919244385597
 30
0.0
 10
44.01504335048406
 20
12.500152774092
 30
0.0
 10
43.12275103245616
 20
11.94723759747601
 30
0.0
 10
42.48219163082384
 20
11.01899259392404
 30
0.0
 10
42.065666812872
 20
9.883953287171995
 30
0.0
 10
41.83105460086806
 20
8.496463401756
 30
0.0
 10
41.80945316274004
 20
7.516038683411982
 30
0.0
 10
41.79825763775996
 20
6.961431112415998
 30
0.0
  0
SPLINE
  5
B3
330
78
100
AcDbEntity
  8
SLD-0
  6
Continuous
370
    25
100
AcDbSpline
210
0.0
220
0.0
230
1.0
 70
     8
 71
     3
 72
    13
 73
     9
 74
     0
 42
0.00000001
 43
0.00000001
 40
0.0
 40
0.0
 40
0.0
 40
0.0
 40
0.2222860645
 40
0.3981728988
 40
0.572392894
 40
0.7181880393
 40
0.8570919984
 40
0.9881536746
 40
0.9881536746
 40
0.9881536746
 40
0.9881536746
 10
41.79925036983584
 20
6.875366463107991
 30
0.0
 10
41.81022525009598
 20
6.337062442944019
 30
0.0
 10
41.83377594213616
 20
5.373111111516005
 30
0.0
 10
42.06566662084826
 20
4.001704744860016
 30
0.0
 10
42.48219642685186
 20
2.866792384260047
 30
0.0
 10
43.12273584884402
 20
1.938153438900053
 30
0.0
 10
44.01509626681205
 20
1.386559958904049
 30
0.0
 10
44.673357286584
 20
1.334408105879981
 30
0.0
 10
44.99311236868792
 20
1.310592544163991
 30
0.0
  0
SPLINE
  5
B4
330
78
100
AcDbEntity
  8
SLD-0
  6
Continuous
370
    25
100
AcDbSpline
210
0.0
220
0.0
230
1.0
 70
     8
 71
     3
 72
    13
 73
     9
 74
     0
 42
0.00000001
 43
0.00000001
 40
0.0
 40
0.0
 40
0.0
 40
0.0
 40
0.1604571392
 40
0.3334692485
 40
0.4767982758
 40
0.6242014838
 40
0.7505998515
 40
1.0
 40
1.0
 40
1.0
 40
1.0
 10
37.84637265102003
 20
1.310586833736069
 30
0.0
 10
38.111432851404
 20
1.323349009380026
 30
0.0
 10
38.66229287744388
 20
1.349871922044041
 30
0.0
 10
39.40304357628016
 20
1.671471906732017
 30
0.0
 10
39.96122363492422
 20
2.212054639128047
 30
0.0
 10
40.27578005127624
 20
2.831811856812
 30
0.0
 10
40.51694576350801
 20
3.663222513012002
 30
0.0
 10
40.52673227581188
 20
4.285410804828055
 30
0.0
 10
40.53322713099633
 20
4.698328483943998
 30
0.0
  0
SPLINE
  5
B5
330
78
100
AcDbEntity
  8
SLD-0
  6
Continuous
370
    25
100
AcDbSpline
210
0.0
220
0.0
230
1.0
 70
     8
 71
     3
 72
    13
 73
     9
 74
     0
 42
0.00000001
 43
0.00000001
 40
0.0
 40
0.0
 40
0.0
 40
0.0
 40
0.2494001485
 40
0.3757985162
 40
0.5232017242
 40
0.6665307515
 40
0.8395428608
 40
1.0
 40
1.0
 40
1.0
 40
1.0
 10
40.53322713099633
 20
4.698328483943998
 30
0.0
 10
40.52673227581188
 20
5.111246167632019
 30
0.0
 10
40.51694576350801
 20
5.733434454875994
 30
0.0
 10
40.27578005127624
 20
6.564845120219973
 30
0.0
 10
39.96122363492422
 20
7.184602337903994
 30
0.0
 10
39.40304357628016
 20
7.725185061155979
 30
0.0
 10
38.66229287744388
 20
8.04678504584401
 30
0.0
 10
38.111432851404
 20
8.073307967652003
 30
0.0
 10
37.84637265102003
 20
8.086070134152024
 30
0.0
  0
SPLINE
  5
B6
330
78
100
AcDbEntity
  8
SLD-0
  6
Continuous
370
    25
100
AcDbSpline
210
0.0
220
0.0
230
1.0
 70
     8
 71
     3
 72
    13
 73
     9
 74
     0
 42
0.00000001
 43
0.00000001
 40
0.0
 40
0.0
 40
0.0
 40
0.0
 40
0.1133740464
 40
0.2392044088
 40
0.3655787964
 40
0.4912154373
 40
0.7445390876
 40
1.0
 40
1.0
 40
1.0
 40
1.0
 10
23.92515791209809
 20
12.57299999771398
 30
0.0
 10
23.74371232680589
 20
12.564062953866
 30
0.0
 10
23.36088587833812
 20
12.54520695601803
 30
0.0
 10
22.79223505729805
 20
12.37531107940203
 30
0.0
 10
22.28352147833418
 20
12.03223838581805
 30
0.0
 10
21.76386602437802
 20
11.40028540385406
 30
0.0
 10
21.43686584932197
 20
10.40820330166212
 30
0.0
 10
21.40140262840212
 20
9.594771217074124
 30
0.0
 10
21.38359654463401
 20
9.186346670958107
 30
0.0
  0
SPLINE
  5
B7
330
78
100
AcDbEntity
  8
SLD-0
  6
Continuous
370
    25
100
AcDbSpline
210
0.0
220
0.0
230
1.0
 70
     8
 71
     3
 72
    13
 73
     9
 74
     0
 42
0.00000001
 43
0.00000001
 40
0.0
 40
0.0
 40
0.0
 40
0.0
 40
0.2554609124
 40
0.5087845627
 40
0.6344212036
 40
0.7607955912
 40
0.8866259536
 40
1.0
 40
1.0
 40
1.0
 40
1.0
 10
21.38359654463401
 20
9.186346670958107
 30
0.0
 10
21.40140262840212
 20
8.777922120270093
 30
0.0
 10
21.43686584932197
 20
7.964490031110036
 30
0.0
 10
21.76386602437791
 20
6.972407933490049
 30
0.0
 10
22.28352147833418
 20
6.340454951526089
 30
0.0
 10
22.79223505729805
 20
5.99738226251409
 30
0.0
 10
23.36088587833812
 20
5.827486381326144
 30
0.0
 10
23.74371232680589
 20
5.808630383478161
 30
0.0
 10
23.92515791209809
 20
5.799693344202134
 30
0.0
  0
SPLINE
  5
B8
330
78
100
AcDbEntity
  8
SLD-0
  6
Continuous
370
    25
100
AcDbSpline
210
0.0
220
0.0
230
1.0
 70
     8
 71
     3
 72
    12
 73
     8
 74
     0
 42
0.00000001
 43
0.00000001
 40
0.0
 40
0.0
 40
0.0
 40
0.0
 40
0.2415790084
 40
0.4893269843
 40
0.7378634303
 40
0.8656387112
 40
1.0
 40
1.0
 40
1.0
 40
1.0
 10
17.36527561329587
 20
1.310586838308064
 30
0.0
 10
17.67515455360796
 20
1.32022062295202
 30
0.0
 10
18.30282552838786
 20
1.339734211560001
 30
0.0
 10
19.22135649955209
 20
1.667306782728029
 30
0.0
 10
19.77919844050796
 20
2.285677111644041
 30
0.0
 10
20.02496508435619
 20
2.903543459855995
 30
0.0
 10
20.02939415906419
 20
3.242009337660015
 30
0.0
 10
20.03166433537234
 20
3.415494138264058
 30
0.0
  0
SPLINE
  5
B9
330
78
100
AcDbEntity
  8
SLD-0
  6
Continuous
370
    25
100
AcDbSpline
210
0.0
220
0.0
230
1.0
 70
     8
 71
     3
 72
    12
 73
     8
 74
     0
 42
0.00000001
 43
0.00000001
 40
0.0
 40
0.0
 40
0.0
 40
0.0
 40
0.1343612888
 40
0.2621365697
 40
0.5106730157
 40
0.7584209916
 40
1.0
 40
1.0
 40
1.0
 40
1.0
 10
20.03166433537234
 20
10.45488323192401
 30
0.0
 10
20.02939415906419
 20
10.62836804167197
 30
0.0
 10
20.02496508435619
 20
10.966833919476
 30
0.0
 10
19.77919844050796
 20
11.58470026768804
 30
0.0
 10
19.22135649955209
 20
12.203070596604
 30
0.0
 10
18.30282552838786
 20
12.5306431632
 30
0.0
 10
17.67515455360796
 20
12.55015674723599
 30
0.0
 10
17.36527561329587
 20
12.55979053645198
 30
0.0
  0
SPLINE
  5
BA
330
78
100
AcDbEntity
  8
SLD-0
  6
Continuous
370
    25
100
AcDbSpline
210
0.0
220
0.0
230
1.0
 70
     8
 71
     3
 72
    12
 73
     8
 74
     0
 42
0.00000001
 43
0.00000001
 40
0.0
 40
0.0
 40
0.0
 40
0.0
 40
0.1341799809
 40
0.290831959
 40
0.5815217441
 40
0.760783857
 40
1.0
 40
1.0
 40
1.0
 40
1.0
 10
3.02591373022798
 20
12.55979053645198
 30
0.0
 10
2.713146790103982
 20
12.50633569543196
 30
0.0
 10
2.035231793891812
 20
12.39047358019199
 30
0.0
 10
0.8940706934400522
 20
11.53791477223201
 30
0.0
 10
0.3535588864800321
 20
10.10357019413996
 30
0.0
 10
0.0373102586279095
 20
8.477608423463984
 30
0.0
 10
0.0135704640958911
 20
7.494152629139994
 30
0.0
 10
0.0
 20
6.931976464188041
 30
0.0
  0
SPLINE
  5
BB
330
78
100
AcDbEntity
  8
SLD-0
  6
Continuous
370
    25
100
AcDbSpline
210
0.0
220
0.0
230
1.0
 70
     8
 71
     3
 72
    12
 73
     8
 74
     0
 42
0.00000001
 43
0.00000001
 40
0.0
 40
0.0
 40
0.0
 40
0.0
 40
0.2392679579
 40
0.4185688994
 40
0.7093216488
 40
0.8660075581
 40
1.0
 40
1.0
 40
1.0
 40
1.0
 10
0.0
 20
6.931976464188041
 30
0.0
 10
0.0135758864880375
 20
6.369822208260004
 30
0.0
 10
0.0373251542040709
 20
5.386404745583995
 30
0.0
 10
0.353505540384047
 20
3.760167054707997
 30
0.0
 10
0.8943475920479838
 20
2.327157829800044
 30
0.0
 10
2.034320580575899
 20
1.471830593544013
 30
0.0
 10
2.713045524875946
 20
1.361462586696033
 30
0.0
 10
3.02591373022798
 20
1.310586838308064
 30
0.0
  0
ENDBLK
  5
7A
330
78
100
AcDbEntity
  8
0
100
AcDbBlockEnd
  0
BLOCK
  5
EC
330
EB
100
AcDbEntity
  8
0
100
AcDbBlockBegin
  2
SW_NOTE_0
 70
     0
 10
0.0
 20
0.0
 30
0.0
  3
SW_NOTE_0
  1

  0
MTEXT
  5
EF
330
EB
100
AcDbEntity
  8
0
  6
Continuous
 62
     0
370
     0
100
AcDbMText
 10
0.0
 20
3.3796386719
 30
0.0
 40
2.6458333333
 41
0.0
 71
     1
 72
     1
  1
THIS DOCUMENT CONTAINS CONFIDENTIAL OR PROPRIETARY 
  7
SLDTEXTSTYLE1
 73
     1
 44
1.0
  0
MTEXT
  5
F0
330
EB
100
AcDbEntity
  8
0
  6
Continuous
 62
     0
370
     0
100
AcDbMText
 10
0.0
 20
-0.1481390633
 30
0.0
 40
2.6458333333
 41
0.0
 71
     1
 72
     1
  1
INFORMATION WHICH IS THE PROPERTY OF QSC, LLC THAT MAY NOT BE 
  7
SLDTEXTSTYLE1
 73
     1
 44
1.0
  0
MTEXT
  5
F1
330
EB
100
AcDbEntity
  8
0
  6
Continuous
 62
     0
370
     0
100
AcDbMText
 10
0.0
 20
-3.6759167984
 30
0.0
 40
2.6458333333
 41
0.0
 71
     1
 72
     1
  1
DISCLOSED, REPRODUCED OR USED WITHOUT EXPRESS WRITTEN CONSENT 
  7
SLDTEXTSTYLE1
 73
     1
 44
1.0
  0
MTEXT
  5
F2
330
EB
100
AcDbEntity
  8
0
  6
Continuous
 62
     0
370
     0
100
AcDbMText
 10
0.0
 20
-7.2036945336
 30
0.0
 40
2.6458333333
 41
0.0
 71
     1
 72
     1
  1
FROM QSC, LLC. NO PORTION OF THIS DOCUMENT MAY BE REPRODUCED, 
  7
SLDTEXTSTYLE1
 73
     1
 44
1.0
  0
MTEXT
  5
F3
330
EB
100
AcDbEntity
  8
0
  6
Continuous
 62
     0
370
     0
100
AcDbMText
 10
0.0
 20
-10.7314722687
 30
0.0
 40
2.6458333333
 41
0.0
 71
     1
 72
     1
  1
REDISTRIBUTED, OR OTHERWISE DISCLOSED TO ANY THIRD PARTY WITHOUT 
  7
SLDTEXTSTYLE1
 73
     1
 44
1.0
  0
MTEXT
  5
F5
330
EB
100
AcDbEntity
  8
0
  6
Continuous
 62
     0
370
     0
100
AcDbMText
 10
0.0
 20
-14.2592500038
 30
0.0
 40
2.6458333333
 41
0.0
 71
     1
 72
     1
  1
QSC\U+2019S WRITTEN PERMISSION.
  7
SLDTEXTSTYLE2
 73
     1
 44
1.0
  0
ENDBLK
  5
ED
330
EB
100
AcDbEntity
  8
0
100
AcDbBlockEnd
  0
BLOCK
  5
17B
330
17A
100
AcDbEntity
  8
0
100
AcDbBlockBegin
  2
_D
 70
     0
 10
0.0
 20
0.0
 30
0.0
  3
_D
  1

  0
SOLID
  5
17D
330
17A
100
AcDbEntity
  8
SLD-0
 62
     7
100
AcDbTrace
 10
330.208170819
 20
254.5558410779
 30
0.0
 11
329.708170819
 21
250.5558410779
 31
0.0
 12
330.708170819
 22
250.5558410779
 32
0.0
 13
330.708170819
 23
250.5558410779
 33
0.0
  0
SOLID
  5
17E
330
17A
100
AcDbEntity
  8
SLD-0
 62
     7
100
AcDbTrace
 10
330.208170819
 20
156.0002649652
 30
0.0
 11
330.708170819
 21
160.0002649652
 31
0.0
 12
329.708170819
 22
160.0002649652
 32
0.0
 13
329.708170819
 23
160.0002649652
 33
0.0
  0
LINE
  5
17F
330
17A
100
AcDbEntity
  8
SLD-0
 62
     7
100
AcDbLine
 10
324.05219845
 20
204.8169797829
 30
0.0
 11
322.6036046491
 21
204.8169797829
 31
0.0
  0
LINE
  5
180
330
17A
100
AcDbEntity
  8
SLD-0
 62
     7
100
AcDbLine
 10
322.6036046491
 20
204.8169797829
 30
0.0
 11
322.6036046491
 21
197.2498963198
 31
0.0
  0
LINE
  5
181
330
17A
100
AcDbEntity
  8
SLD-0
 62
     7
100
AcDbLine
 10
322.6036046491
 20
197.2498963198
 30
0.0
 11
324.05219845
 21
197.2498963198
 31
0.0
  0
LINE
  5
182
330
17A
100
AcDbEntity
  8
SLD-0
 62
     7
100
AcDbLine
 10
336.364143188
 20
204.8169797829
 30
0.0
 11
337.8127369889
 21
204.8169797829
 31
0.0
  0
LINE
  5
183
330
17A
100
AcDbEntity
  8
SLD-0
 62
     7
100
AcDbLine
 10
337.8127369889
 20
204.8169797829
 30
0.0
 11
337.8127369889
 21
197.2498963198
 31
0.0
  0
LINE
  5
184
330
17A
100
AcDbEntity
  8
SLD-0
 62
     7
100
AcDbLine
 10
337.8127369889
 20
197.2498963198
 30
0.0
 11
336.364143188
 21
197.2498963198
 31
0.0
  0
LINE
  5
185
330
17A
100
AcDbEntity
  8
SLD-0
 62
     7
100
AcDbLine
 10
295.032145819
 20
254.5558410779
 30
0.0
 11
331.732170819
 21
254.5558410779
 31
0.0
  0
LINE
  5
186
330
17A
100
AcDbEntity
  8
SLD-0
 62
     7
100
AcDbLine
 10
268.682145819
 20
156.0002649652
 30
0.0
 11
331.732170819
 21
156.0002649652
 31
0.0
  0
LINE
  5
187
330
17A
100
AcDbEntity
  8
SLD-0
 62
     7
100
AcDbLine
 10
330.208170819
 20
254.5558410779
 30
0.0
 11
330.208170819
 21
213.3497916705
 31
0.0
  0
LINE
  5
188
330
17A
100
AcDbEntity
  8
SLD-0
 62
     7
100
AcDbLine
 10
330.208170819
 20
156.0002649652
 30
0.0
 11
330.208170819
 21
196.2841660327
 31
0.0
  0
MTEXT
  5
189
330
17A
100
AcDbEntity
  8
SLD-0
 62
     7
100
AcDbMText
 10
319.3999413726
 20
211.8660580496
 30
0.0
 40
4.7625
 41
0.0
 71
     1
 72
     1
  1
 
  7
SLDTEXTSTYLE0
 73
     1
 44
1.0
  0
MTEXT
  5
18A
330
17A
100
AcDbEntity
  8
SLD-0
 62
     7
100
AcDbMText
 10
324.0521979843
 20
211.8660585153
 30
0.0
 40
4.7625
 41
0.0
 71
     1
 72
     1
  1
98.6
  7
SLDTEXTSTYLE0
 73
     1
 44
1.0
  0
MTEXT
  5
18B
330
17A
100
AcDbEntity
  8
SLD-0
 62
     7
100
AcDbMText
 10
324.05219845
 20
203.3332461621
 30
0.0
 40
4.7625
 41
0.0
 71
     1
 72
     1
  1
3.88
  7
SLDTEXTSTYLE0
 73
     1
 44
1.0
  0
MTEXT
  5
18C
330
17A
100
AcDbEntity
  8
SLD-0
 62
     7
100
AcDbMText
 10
339.2613303241
 20
211.8660580496
 30
0.0
 40
4.7625
 41
0.0
 71
     1
 72
     1
  1
 
  7
SLDTEXTSTYLE0
 73
     1
 44
1.0
  0
ENDBLK
  5
17C
330
17A
100
AcDbEntity
  8
0
100
AcDbBlockEnd
  0
BLOCK
  5
190
330
18F
100
AcDbEntity
  8
0
100
AcDbBlockBegin
  2
_D_1
 70
     0
 10
0.0
 20
0.0
 30
0.0
  3
_D_1
  1

  0
SOLID
  5
192
330
18F
100
AcDbEntity
  8
SLD-0
 62
     7
100
AcDbTrace
 10
315.8006166924
 20
181.207227503
 30
0.0
 11
316.3006166924
 21
185.207227503
 31
0.0
 12
315.3006166924
 22
185.207227503
 32
0.0
 13
315.3006166924
 23
185.207227503
 33
0.0
  0
SOLID
  5
193
330
18F
100
AcDbEntity
  8
SLD-0
 62
     7
100
AcDbTrace
 10
315.8006166924
 20
156.0002649652
 30
0.0
 11
315.3006166924
 21
152.0002649652
 31
0.0
 12
316.3006166924
 22
152.0002649652
 32
0.0
 13
316.3006166924
 23
152.0002649652
 33
0.0
  0
LINE
  5
194
330
18F
100
AcDbEntity
  8
SLD-0
 62
     7
100
AcDbLine
 10
311.4041231457
 20
170.467448469
 30
0.0
 11
309.9555293448
 21
170.467448469
 31
0.0
  0
LINE
  5
195
330
18F
100
AcDbEntity
  8
SLD-0
 62
     7
100
AcDbLine
 10
309.9555293448
 20
170.467448469
 30
0.0
 11
309.9555293448
 21
162.900365006
 31
0.0
  0
LINE
  5
196
330
18F
100
AcDbEntity
  8
SLD-0
 62
     7
100
AcDbLine
 10
309.9555293448
 20
162.900365006
 30
0.0
 11
311.4041231457
 21
162.900365006
 31
0.0
  0
LINE
  5
197
330
18F
100
AcDbEntity
  8
SLD-0
 62
     7
100
AcDbLine
 10
320.1971093077
 20
170.467448469
 30
0.0
 11
321.6457031086
 21
170.467448469
 31
0.0
  0
LINE
  5
198
330
18F
100
AcDbEntity
  8
SLD-0
 62
     7
100
AcDbLine
 10
321.6457031086
 20
170.467448469
 30
0.0
 11
321.6457031086
 21
162.900365006
 31
0.0
  0
LINE
  5
199
330
18F
100
AcDbEntity
  8
SLD-0
 62
     7
100
AcDbLine
 10
321.6457031086
 20
162.900365006
 30
0.0
 11
320.1971093077
 21
162.900365006
 31
0.0
  0
LINE
  5
19A
330
18F
100
AcDbEntity
  8
SLD-0
 62
     7
100
AcDbLine
 10
283.682145819
 20
181.207227503
 30
0.0
 11
317.3246166924
 21
181.207227503
 31
0.0
  0
LINE
  5
19B
330
18F
100
AcDbEntity
  8
SLD-0
 62
     7
100
AcDbLine
 10
268.682145819
 20
156.0002649652
 30
0.0
 11
317.3246166924
 21
156.0002649652
 31
0.0
  0
LINE
  5
19C
330
18F
100
AcDbEntity
  8
SLD-0
 62
     7
100
AcDbLine
 10
315.8006166924
 20
181.207227503
 30
0.0
 11
315.8006166924
 21
189.207227503
 31
0.0
  0
LINE
  5
19D
330
18F
100
AcDbEntity
  8
SLD-0
 62
     7
100
AcDbLine
 10
315.8006166924
 20
156.0002649652
 30
0.0
 11
315.8006166924
 21
148.0002649652
 31
0.0
  0
MTEXT
  5
19E
330
18F
100
AcDbEntity
  8
SLD-0
 62
     7
100
AcDbMText
 10
306.7518660683
 20
177.5165267357
 30
0.0
 40
4.7625
 41
0.0
 71
     1
 72
     1
  1
 
  7
SLDTEXTSTYLE0
 73
     1
 44
1.0
  0
MTEXT
  5
19F
330
18F
100
AcDbEntity
  8
SLD-0
 62
     7
100
AcDbMText
 10
309.6446438577
 20
177.5165272014
 30
0.0
 40
4.7625
 41
0.0
 71
     1
 72
     1
  1
25.2
  7
SLDTEXTSTYLE0
 73
     1
 44
1.0
  0
MTEXT
  5
1A0
330
18F
100
AcDbEntity
  8
SLD-0
 62
     7
100
AcDbMText
 10
311.4041231457
 20
168.9837148482
 30
0.0
 40
4.7625
 41
0.0
 71
     1
 72
     1
  1
.99
  7
SLDTEXTSTYLE0
 73
     1
 44
1.0
  0
MTEXT
  5
1A1
330
18F
100
AcDbEntity
  8
SLD-0
 62
     7
100
AcDbMText
 10
323.0942973752
 20
177.5165267357
 30
0.0
 40
4.7625
 41
0.0
 71
     1
 72
     1
  1
 
  7
SLDTEXTSTYLE0
 73
     1
 44
1.0
  0
ENDBLK
  5
191
330
18F
100
AcDbEntity
  8
0
100
AcDbBlockEnd
  0
BLOCK
  5
1A4
330
1A3
100
AcDbEntity
  8
0
100
AcDbBlockBegin
  2
_D_2
 70
     0
 10
0.0
 20
0.0
 30
0.0
  3
_D_2
  1

  0
SOLID
  5
1A6
330
1A3
100
AcDbEntity
  8
SLD-0
 62
     7
100
AcDbTrace
 10
130.258145819
 20
131.4649681201
 30
0.0
 11
134.258145819
 21
130.9649681201
 31
0.0
 12
134.258145819
 22
131.9649681201
 32
0.0
 13
134.258145819
 23
131.9649681201
 33
0.0
  0
SOLID
  5
1A7
330
1A3
100
AcDbEntity
  8
SLD-0
 62
     7
100
AcDbTrace
 10
280.758145819
 20
131.4649681201
 30
0.0
 11
276.758145819
 21
131.9649681201
 31
0.0
 12
276.758145819
 22
130.9649681201
 32
0.0
 13
276.758145819
 23
130.9649681201
 33
0.0
  0
LINE
  5
1A8
330
1A3
100
AcDbEntity
  8
SLD-0
 62
     7
100
AcDbLine
 10
196.7209584549
 20
131.4649690515
 30
0.0
 11
195.2723646541
 21
131.4649690515
 31
0.0
  0
LINE
  5
1A9
330
1A3
100
AcDbEntity
  8
SLD-0
 62
     7
100
AcDbLine
 10
195.2723646541
 20
131.4649690515
 30
0.0
 11
195.2723646541
 21
123.8978855884
 31
0.0
  0
LINE
  5
1AA
330
1A3
100
AcDbEntity
  8
SLD-0
 62
     7
100
AcDbLine
 10
195.2723646541
 20
123.8978855884
 30
0.0
 11
196.7209584549
 21
123.8978855884
 31
0.0
  0
LINE
  5
1AB
330
1A3
100
AcDbEntity
  8
SLD-0
 62
     7
100
AcDbLine
 10
209.032903193
 20
131.4649690515
 30
0.0
 11
210.4814969939
 21
131.4649690515
 31
0.0
  0
LINE
  5
1AC
330
1A3
100
AcDbEntity
  8
SLD-0
 62
     7
100
AcDbLine
 10
210.4814969939
 20
131.4649690515
 30
0.0
 11
210.4814969939
 21
123.8978855884
 31
0.0
  0
LINE
  5
1AD
330
1A3
100
AcDbEntity
  8
SLD-0
 62
     7
100
AcDbLine
 10
210.4814969939
 20
123.8978855884
 30
0.0
 11
209.032903193
 21
123.8978855884
 31
0.0
  0
LINE
  5
1AE
330
1A3
100
AcDbEntity
  8
SLD-0
 62
     7
100
AcDbLine
 10
130.258145819
 20
156.1762649652
 30
0.0
 11
130.258145819
 21
129.9409681201
 31
0.0
  0
LINE
  5
1AF
330
1A3
100
AcDbEntity
  8
SLD-0
 62
     7
100
AcDbLine
 10
280.758145819
 20
156.1762649652
 30
0.0
 11
280.758145819
 21
129.9409681201
 31
0.0
  0
LINE
  5
1B0
330
1A3
100
AcDbEntity
  8
SLD-0
 62
     7
100
AcDbLine
 10
130.258145819
 20
131.4649681201
 30
0.0
 11
191.2129046646
 21
131.4649681201
 31
0.0
  0
LINE
  5
1B1
330
1A3
100
AcDbEntity
  8
SLD-0
 62
     7
100
AcDbLine
 10
280.758145819
 20
131.4649681201
 30
0.0
 11
214.5409569833
 21
131.4649681201
 31
0.0
  0
MTEXT
  5
1B2
330
1A3
100
AcDbEntity
  8
SLD-0
 62
     7
100
AcDbMText
 10
192.0687013776
 20
138.5140473182
 30
0.0
 40
4.7625
 41
0.0
 71
     1
 72
     1
  1
 
  7
SLDTEXTSTYLE0
 73
     1
 44
1.0
  0
MTEXT
  5
1B3
330
1A3
100
AcDbEntity
  8
SLD-0
 62
     7
100
AcDbMText
 10
194.9614791669
 20
138.5140477838
 30
0.0
 40
4.7625
 41
0.0
 71
     1
 72
     1
  1
150.5
  7
SLDTEXTSTYLE0
 73
     1
 44
1.0
  0
MTEXT
  5
1B4
330
1A3
100
AcDbEntity
  8
SLD-0
 62
     7
100
AcDbMText
 10
196.7209584549
 20
129.9812354306
 30
0.0
 40
4.7625
 41
0.0
 71
     1
 72
     1
  1
5.93
  7
SLDTEXTSTYLE0
 73
     1
 44
1.0
  0
MTEXT
  5
1B5
330
1A3
100
AcDbEntity
  8
SLD-0
 62
     7
100
AcDbMText
 10
211.9300903291
 20
138.5140473182
 30
0.0
 40
4.7625
 41
0.0
 71
     1
 72
     1
  1
 
  7
SLDTEXTSTYLE0
 73
     1
 44
1.0
  0
ENDBLK
  5
1A5
330
1A3
100
AcDbEntity
  8
0
100
AcDbBlockEnd
  0
BLOCK
  5
1B8
330
1B7
100
AcDbEntity
  8
0
100
AcDbBlockBegin
  2
_D_3
 70
     0
 10
0.0
 20
0.0
 30
0.0
  3
_D_3
  1

  0
SOLID
  5
1BA
330
1B7
100
AcDbEntity
  8
SLD-0
 62
     7
100
AcDbTrace
 10
298.208145819
 20
102.6240255082
 30
0.0
 11
294.208145819
 21
103.1240255082
 31
0.0
 12
294.208145819
 22
102.1240255082
 32
0.0
 13
294.208145819
 23
102.1240255082
 33
0.0
  0
SOLID
  5
1BB
330
1B7
100
AcDbEntity
  8
SLD-0
 62
     7
100
AcDbTrace
 10
112.808145819
 20
102.6240255082
 30
0.0
 11
116.808145819
 21
102.1240255082
 31
0.0
 12
116.808145819
 22
103.1240255082
 32
0.0
 13
116.808145819
 23
103.1240255082
 33
0.0
  0
LINE
  5
1BC
330
1B7
100
AcDbEntity
  8
SLD-0
 62
     7
100
AcDbLine
 10
196.7209584549
 20
102.6240264395
 30
0.0
 11
195.2723646541
 21
102.6240264395
 31
0.0
  0
LINE
  5
1BD
330
1B7
100
AcDbEntity
  8
SLD-0
 62
     7
100
AcDbLine
 10
195.2723646541
 20
102.6240264395
 30
0.0
 11
195.2723646541
 21
95.0569429765
 31
0.0
  0
LINE
  5
1BE
330
1B7
100
AcDbEntity
  8
SLD-0
 62
     7
100
AcDbLine
 10
195.2723646541
 20
95.0569429765
 30
0.0
 11
196.7209584549
 21
95.0569429765
 31
0.0
  0
LINE
  5
1BF
330
1B7
100
AcDbEntity
  8
SLD-0
 62
     7
100
AcDbLine
 10
209.032903193
 20
102.6240264395
 30
0.0
 11
210.4814969939
 21
102.6240264395
 31
0.0
  0
LINE
  5
1C0
330
1B7
100
AcDbEntity
  8
SLD-0
 62
     7
100
AcDbLine
 10
210.4814969939
 20
102.6240264395
 30
0.0
 11
210.4814969939
 21
95.0569429765
 31
0.0
  0
LINE
  5
1C1
330
1B7
100
AcDbEntity
  8
SLD-0
 62
     7
100
AcDbLine
 10
210.4814969939
 20
95.0569429765
 30
0.0
 11
209.032903193
 21
95.0569429765
 31
0.0
  0
LINE
  5
1C2
330
1B7
100
AcDbEntity
  8
SLD-0
 62
     7
100
AcDbLine
 10
298.208145819
 20
189.4222142866
 30
0.0
 11
298.208145819
 21
182.731227503
 31
0.0
  0
LINE
  5
1C3
330
1B7
100
AcDbEntity
  8
SLD-0
 62
     7
100
AcDbLine
 10
298.208145819
 20
179.683227503
 30
0.0
 11
298.208145819
 21
157.5242649652
 31
0.0
  0
LINE
  5
1C4
330
1B7
100
AcDbEntity
  8
SLD-0
 62
     7
100
AcDbLine
 10
298.208145819
 20
154.4762649652
 30
0.0
 11
298.208145819
 21
101.1000255082
 31
0.0
  0
LINE
  5
1C5
330
1B7
100
AcDbEntity
  8
SLD-0
 62
     7
100
AcDbLine
 10
112.808145819
 20
189.4222142866
 30
0.0
 11
112.808145819
 21
101.1000255082
 31
0.0
  0
LINE
  5
1C6
330
1B7
100
AcDbEntity
  8
SLD-0
 62
     7
100
AcDbLine
 10
298.208145819
 20
102.6240255082
 30
0.0
 11
214.5409569833
 21
102.6240255082
 31
0.0
  0
LINE
  5
1C7
330
1B7
100
AcDbEntity
  8
SLD-0
 62
     7
100
AcDbLine
 10
112.808145819
 20
102.6240255082
 30
0.0
 11
191.2129046646
 21
102.6240255082
 31
0.0
  0
MTEXT
  5
1C8
330
1B7
100
AcDbEntity
  8
SLD-0
 62
     7
100
AcDbMText
 10
192.0687013776
 20
109.6731047062
 30
0.0
 40
4.7625
 41
0.0
 71
     1
 72
     1
  1
 
  7
SLDTEXTSTYLE0
 73
     1
 44
1.0
  0
MTEXT
  5
1C9
330
1B7
100
AcDbEntity
  8
SLD-0
 62
     7
100
AcDbMText
 10
194.9614791669
 20
109.6731051719
 30
0.0
 40
4.7625
 41
0.0
 71
     1
 72
     1
  1
185.4
  7
SLDTEXTSTYLE0
 73
     1
 44
1.0
  0
MTEXT
  5
1CA
330
1B7
100
AcDbEntity
  8
SLD-0
 62
     7
100
AcDbMText
 10
196.7209584549
 20
101.1402928187
 30
0.0
 40
4.7625
 41
0.0
 71
     1
 72
     1
  1
7.30
  7
SLDTEXTSTYLE0
 73
     1
 44
1.0
  0
MTEXT
  5
1CB
330
1B7
100
AcDbEntity
  8
SLD-0
 62
     7
100
AcDbMText
 10
211.9300903291
 20
109.6731047062
 30
0.0
 40
4.7625
 41
0.0
 71
     1
 72
     1
  1
 
  7
SLDTEXTSTYLE0
 73
     1
 44
1.0
  0
ENDBLK
  5
1B9
330
1B7
100
AcDbEntity
  8
0
100
AcDbBlockEnd
  0
BLOCK
  5
3C7
330
3C6
100
AcDbEntity
  8
0
100
AcDbBlockBegin
  2
_D_4
 70
     0
 10
0.0
 20
0.0
 30
0.0
  3
_D_4
  1

  0
ARC
  5
3C9
330
3C6
100
AcDbEntity
  8
SLD-0
 62
     7
100
AcDbCircle
 10
390.3793181643
 20
188.2504050357
 30
0.0
 40
24.40904750133523
100
AcDbArc
 50
35.0
 51
96.2779091974
  0
ARC
  5
3CA
330
3C6
100
AcDbEntity
  8
SLD-0
 62
     7
100
AcDbCircle
 10
390.3793181643
 20
188.2504050357
 30
0.0
 40
24.40904750133528
100
AcDbArc
 50
129.5606534971
 51
180.0
  0
SOLID
  5
3CB
330
3C6
100
AcDbEntity
  8
SLD-0
 62
     7
100
AcDbTrace
 10
410.3740393241
 20
202.2508595163
 30
0.0
 11
408.2064388174
 21
205.6496104697
 31
0.0
 12
407.4365185983
 22
205.0114703156
 32
0.0
 13
407.4365185983
 23
205.0114703156
 33
0.0
  0
SOLID
  5
3CC
330
3C6
100
AcDbEntity
  8
SLD-0
 62
     7
100
AcDbTrace
 10
365.9702706629
 20
188.2504050357
 30
0.0
 11
366.7931254662
 21
192.1966576851
 31
0.0
 12
365.7964215893
 22
192.2777834013
 32
0.0
 13
365.7964215893
 23
192.2777834013
 33
0.0
  0
LINE
  5
3CD
330
3C6
100
AcDbEntity
  8
SLD-0
 62
     7
100
AcDbLine
 10
377.2472011073
 20
188.2504050357
 30
0.0
 11
364.4462706629
 21
188.2504050357
 31
0.0
  0
MTEXT
  5
3CE
330
3C6
100
AcDbEntity
  8
SLD-0
 62
     7
100
AcDbMText
 10
374.6132880224
 20
213.1519294958
 30
0.0
 40
4.7625
 41
0.0
 71
     1
 72
     1
  1
145°
  7
SLDTEXTSTYLE0
 73
     1
 44
1.0
  0
ENDBLK
  5
3C8
330
3C6
100
AcDbEntity
  8
0
100
AcDbBlockEnd
  0
BLOCK
  5
3D1
330
3D0
100
AcDbEntity
  8
0
100
AcDbBlockBegin
  2
_D_5
 70
     0
 10
0.0
 20
0.0
 30
0.0
  3
_D_5
  1

  0
SOLID
  5
3D3
330
3D0
100
AcDbEntity
  8
SLD-0
 62
     7
100
AcDbTrace
 10
391.5997309212
 20
128.8263864885
 30
0.0
 11
395.5997309212
 21
128.3263864885
 31
0.0
 12
395.5997309212
 22
129.3263864885
 32
0.0
 13
395.5997309212
 23
129.3263864885
 33
0.0
  0
SOLID
  5
3D4
330
3D0
100
AcDbEntity
  8
SLD-0
 62
     7
100
AcDbTrace
 10
510.3990903251
 20
128.8263864885
 30
0.0
 11
506.3990903251
 21
129.3263864885
 31
0.0
 12
506.3990903251
 22
128.3263864885
 32
0.0
 13
506.3990903251
 23
128.3263864885
 33
0.0
  0
LINE
  5
3D5
330
3D0
100
AcDbEntity
  8
SLD-0
 62
     7
100
AcDbLine
 10
449.321738133
 20
128.8263874199
 30
0.0
 11
447.8731443321
 21
128.8263874199
 31
0.0
  0
LINE
  5
3D6
330
3D0
100
AcDbEntity
  8
SLD-0
 62
     7
100
AcDbLine
 10
447.8731443321
 20
128.8263874199
 30
0.0
 11
447.8731443321
 21
121.2593039568
 31
0.0
  0
LINE
  5
3D7
330
3D0
100
AcDbEntity
  8
SLD-0
 62
     7
100
AcDbLine
 10
447.8731443321
 20
121.2593039568
 30
0.0
 11
449.321738133
 21
121.2593039568
 31
0.0
  0
LINE
  5
3D8
330
3D0
100
AcDbEntity
  8
SLD-0
 62
     7
100
AcDbLine
 10
461.6336828711
 20
128.8263874199
 30
0.0
 11
463.0822766719
 21
128.8263874199
 31
0.0
  0
LINE
  5
3D9
330
3D0
100
AcDbEntity
  8
SLD-0
 62
     7
100
AcDbLine
 10
463.0822766719
 20
128.8263874199
 30
0.0
 11
463.0822766719
 21
121.2593039568
 31
0.0
  0
LINE
  5
3DA
330
3D0
100
AcDbEntity
  8
SLD-0
 62
     7
100
AcDbLine
 10
463.0822766719
 20
121.2593039568
 30
0.0
 11
461.6336828711
 21
121.2593039568
 31
0.0
  0
LINE
  5
3DB
330
3D0
100
AcDbEntity
  8
SLD-0
 62
     7
100
AcDbLine
 10
391.5997309212
 20
186.7264050357
 30
0.0
 11
391.5997309212
 21
127.3023864885
 31
0.0
  0
LINE
  5
3DC
330
3D0
100
AcDbEntity
  8
SLD-0
 62
     7
100
AcDbLine
 10
510.3990903251
 20
156.1762649652
 30
0.0
 11
510.3990903251
 21
127.3023864885
 31
0.0
  0
LINE
  5
3DD
330
3D0
100
AcDbEntity
  8
SLD-0
 62
     7
100
AcDbLine
 10
391.5997309212
 20
128.8263864885
 30
0.0
 11
443.8136843427
 21
128.8263864885
 31
0.0
  0
LINE
  5
3DE
330
3D0
100
AcDbEntity
  8
SLD-0
 62
     7
100
AcDbLine
 10
510.3990903251
 20
128.8263864885
 30
0.0
 11
467.1417366614
 21
128.8263864885
 31
0.0
  0
MTEXT
  5
3DF
330
3D0
100
AcDbEntity
  8
SLD-0
 62
     7
100
AcDbMText
 10
444.6694810556
 20
135.8754656866
 30
0.0
 40
4.7625
 41
0.0
 71
     1
 72
     1
  1
 
  7
SLDTEXTSTYLE0
 73
     1
 44
1.0
  0
MTEXT
  5
3E0
330
3D0
100
AcDbEntity
  8
SLD-0
 62
     7
100
AcDbMText
 10
447.562258845
 20
135.8754661522
 30
0.0
 40
4.7625
 41
0.0
 71
     1
 72
     1
  1
118.8
  7
SLDTEXTSTYLE0
 73
     1
 44
1.0
  0
MTEXT
  5
3E1
330
3D0
100
AcDbEntity
  8
SLD-0
 62
     7
100
AcDbMText
 10
449.321738133
 20
127.342653799
 30
0.0
 40
4.7625
 41
0.0
 71
     1
 72
     1
  1
4.68
  7
SLDTEXTSTYLE0
 73
     1
 44
1.0
  0
MTEXT
  5
3E2
330
3D0
100
AcDbEntity
  8
SLD-0
 62
     7
100
AcDbMText
 10
464.5308700072
 20
135.8754656866
 30
0.0
 40
4.7625
 41
0.0
 71
     1
 72
     1
  1
 
  7
SLDTEXTSTYLE0
 73
     1
 44
1.0
  0
ENDBLK
  5
3D2
330
3D0
100
AcDbEntity
  8
0
100
AcDbBlockEnd
  0
ENDSEC
  0
SECTION
  2
ENTITIES
  0
LINE
  5
BC
330
1F
100
AcDbEntity
  8
0
  6
Continuous
 62
     7
370
    18
100
AcDbLine
 10
17.7770582316
 20
541.0189283994
 30
0.0
 11
845.8170582316
 21
541.0189283994
 31
0.0
  0
LINE
  5
BD
330
1F
100
AcDbEntity
  8
0
  6
Continuous
 62
     7
370
    18
100
AcDbLine
 10
17.7770582316
 20
541.0189283994
 30
0.0
 11
17.7770582316
 21
17.7789283994
 31
0.0
  0
LINE
  5
BE
330
1F
100
AcDbEntity
  8
0
  6
Continuous
 62
     7
370
    18
100
AcDbLine
 10
845.8170582316
 20
17.7789283994
 30
0.0
 11
17.7770582316
 21
17.7789283994
 31
0.0
  0
LINE
  5
BF
330
1F
100
AcDbEntity
  8
0
  6
Continuous
 62
     7
370
    18
100
AcDbLine
 10
845.8170582316
 20
17.7789283994
 30
0.0
 11
845.8170582316
 21
541.0189283994
 31
0.0
  0
LINE
  5
C0
330
1F
100
AcDbEntity
  8
0
  6
Continuous
 62
     7
370
    18
100
AcDbLine
 10
728.0448273613
 20
36.8289283994
 30
0.0
 11
728.0448273613
 21
17.7789283994
 31
0.0
  0
LINE
  5
C1
330
1F
100
AcDbEntity
  8
0
  6
Continuous
 62
     7
370
    18
100
AcDbLine
 10
728.0448273613
 20
24.1289283994
 30
0.0
 11
845.8170582316
 21
24.1289283994
 31
0.0
  0
LINE
  5
C2
330
1F
100
AcDbEntity
  8
0
  6
Continuous
 62
     7
370
    18
100
AcDbLine
 10
728.0448273613
 20
36.8289283994
 30
0.0
 11
845.8170582316
 21
36.8289283994
 31
0.0
  0
LINE
  5
C3
330
1F
100
AcDbEntity
  8
0
  6
Continuous
 62
     7
370
    18
100
AcDbLine
 10
737.2248385306
 20
36.8289283994
 30
0.0
 11
737.2248385306
 21
24.1289283994
 31
0.0
  0
LINE
  5
C4
330
1F
100
AcDbEntity
  8
0
  6
Continuous
 62
     7
370
    18
100
AcDbLine
 10
811.2044175569
 20
24.1289283994
 30
0.0
 11
811.2044175569
 21
17.7789283994
 31
0.0
  0
LINE
  5
C5
330
1F
100
AcDbEntity
  8
0
  6
Continuous
 62
     7
370
    18
100
AcDbLine
 10
751.7322172939
 20
24.1289283994
 30
0.0
 11
751.7322172939
 21
17.7789283994
 31
0.0
  0
LINE
  5
C6
330
1F
100
AcDbEntity
  8
0
  6
Continuous
 62
     7
370
    18
100
AcDbLine
 10
845.8170582316
 20
148.5889283994
 30
0.0
 11
852.1670582316
 21
148.5889283994
 31
0.0
  0
LINE
  5
C7
330
1F
100
AcDbEntity
  8
0
  6
Continuous
 62
     7
370
    18
100
AcDbLine
 10
848.9920582316
 20
277.5658412947
 30
0.0
 11
845.8170582316
 21
279.3989283994
 31
0.0
  0
LINE
  5
C8
330
1F
100
AcDbEntity
  8
0
  6
Continuous
 62
     7
370
    18
100
AcDbLine
 10
848.9920582316
 20
281.232015504
 30
0.0
 11
848.9920582316
 21
277.5658412947
 31
0.0
  0
LINE
  5
C9
330
1F
100
AcDbEntity
  8
0
  6
Continuous
 62
     7
370
    18
100
AcDbLine
 10
845.8170582316
 20
279.3989283994
 30
0.0
 11
848.9920582316
 21
281.232015504
 31
0.0
  0
LINE
  5
CA
330
1F
100
AcDbEntity
  8
0
  6
Continuous
 62
     7
370
    18
100
AcDbLine
 10
845.8170582316
 20
279.3989283994
 30
0.0
 11
852.1670582316
 21
279.3989283994
 31
0.0
  0
LINE
  5
CB
330
1F
100
AcDbEntity
  8
0
  6
Continuous
 62
     7
370
    18
100
AcDbLine
 10
845.8170582316
 20
410.2089283994
 30
0.0
 11
852.1670582316
 21
410.2089283994
 31
0.0
  0
LINE
  5
CC
330
1F
100
AcDbEntity
  8
0
  6
Continuous
 62
     7
370
    18
100
AcDbLine
 10
742.3120582316
 20
541.0189283994
 30
0.0
 11
742.3120582316
 21
547.3689283994
 31
0.0
  0
LINE
  5
CD
330
1F
100
AcDbEntity
  8
0
  6
Continuous
 62
     7
370
    18
100
AcDbLine
 10
535.3020582316
 20
17.7789283994
 30
0.0
 11
535.3020582316
 21
11.4289283994
 31
0.0
  0
LINE
  5
CE
330
1F
100
AcDbEntity
  8
0
  6
Continuous
 62
     7
370
    18
100
AcDbLine
 10
742.3120582316
 20
17.7789283994
 30
0.0
 11
742.3120582316
 21
11.4289283994
 31
0.0
  0
LINE
  5
CF
330
1F
100
AcDbEntity
  8
0
  6
Continuous
 62
     7
370
    18
100
AcDbLine
 10
638.8070582316
 20
17.7789283994
 30
0.0
 11
638.8070582316
 21
11.4289283994
 31
0.0
  0
LINE
  5
D0
330
1F
100
AcDbEntity
  8
0
  6
Continuous
 62
     7
370
    18
100
AcDbLine
 10
328.2920582316
 20
17.7789283994
 30
0.0
 11
328.2920582316
 21
11.4289283994
 31
0.0
  0
LINE
  5
D1
330
1F
100
AcDbEntity
  8
0
  6
Continuous
 62
     7
370
    18
100
AcDbLine
 10
224.7870582316
 20
17.7789283994
 30
0.0
 11
224.7870582316
 21
11.4289283994
 31
0.0
  0
LINE
  5
D2
330
1F
100
AcDbEntity
  8
0
  6
Continuous
 62
     7
370
    18
100
AcDbLine
 10
121.2820582316
 20
17.7789283994
 30
0.0
 11
121.2820582316
 21
11.4289283994
 31
0.0
  0
LINE
  5
D3
330
1F
100
AcDbEntity
  8
0
  6
Continuous
 62
     7
370
    18
100
AcDbLine
 10
638.8070582316
 20
541.0189283994
 30
0.0
 11
638.8070582316
 21
547.3689283994
 31
0.0
  0
LINE
  5
D4
330
1F
100
AcDbEntity
  8
0
  6
Continuous
 62
     7
370
    18
100
AcDbLine
 10
535.3020582316
 20
541.0189283994
 30
0.0
 11
535.3020582316
 21
547.3689283994
 31
0.0
  0
LINE
  5
D5
330
1F
100
AcDbEntity
  8
0
  6
Continuous
 62
     7
370
    18
100
AcDbLine
 10
433.6301453363
 20
544.1939283994
 30
0.0
 11
429.963971127
 21
544.1939283994
 31
0.0
  0
LINE
  5
D6
330
1F
100
AcDbEntity
  8
0
  6
Continuous
 62
     7
370
    18
100
AcDbLine
 10
431.7970582316
 20
541.0189283994
 30
0.0
 11
429.963971127
 21
544.1939283994
 31
0.0
  0
LINE
  5
D7
330
1F
100
AcDbEntity
  8
0
  6
Continuous
 62
     7
370
    18
100
AcDbLine
 10
431.7970582316
 20
541.0189283994
 30
0.0
 11
433.6301453363
 21
544.1939283994
 31
0.0
  0
LINE
  5
D8
330
1F
100
AcDbEntity
  8
0
  6
Continuous
 62
     7
370
    18
100
AcDbLine
 10
17.7770582316
 20
148.5889283994
 30
0.0
 11
11.4270582316
 21
148.5889283994
 31
0.0
  0
LINE
  5
D9
330
1F
100
AcDbEntity
  8
0
  6
Continuous
 62
     7
370
    18
100
AcDbLine
 10
17.7770582316
 20
279.3989283994
 30
0.0
 11
11.4270582316
 21
279.3989283994
 31
0.0
  0
LINE
  5
DA
330
1F
100
AcDbEntity
  8
0
  6
Continuous
 62
     7
370
    18
100
AcDbLine
 10
17.7770582316
 20
410.2089283994
 30
0.0
 11
11.4270582316
 21
410.2089283994
 31
0.0
  0
LINE
  5
DB
330
1F
100
AcDbEntity
  8
0
  6
Continuous
 62
     7
370
    18
100
AcDbLine
 10
17.7770582316
 20
279.3989283994
 30
0.0
 11
14.6020582316
 21
281.232015504
 31
0.0
  0
LINE
  5
DC
330
1F
100
AcDbEntity
  8
0
  6
Continuous
 62
     7
370
    18
100
AcDbLine
 10
14.6020582316
 20
281.232015504
 30
0.0
 11
14.6020582316
 21
277.5658412947
 31
0.0
  0
LINE
  5
DD
330
1F
100
AcDbEntity
  8
0
  6
Continuous
 62
     7
370
    18
100
AcDbLine
 10
14.6020582316
 20
277.5658412947
 30
0.0
 11
17.7770582316
 21
279.3989283994
 31
0.0
  0
LINE
  5
DE
330
1F
100
AcDbEntity
  8
0
  6
Continuous
 62
     7
370
    18
100
AcDbLine
 10
431.7970582316
 20
541.0189283994
 30
0.0
 11
431.7970582316
 21
547.3689283994
 31
0.0
  0
LINE
  5
DF
330
1F
100
AcDbEntity
  8
0
  6
Continuous
 62
     7
370
    18
100
AcDbLine
 10
328.2920582316
 20
541.0189283994
 30
0.0
 11
328.2920582316
 21
547.3689283994
 31
0.0
  0
LINE
  5
E0
330
1F
100
AcDbEntity
  8
0
  6
Continuous
 62
     7
370
    18
100
AcDbLine
 10
224.7870582316
 20
541.0189283994
 30
0.0
 11
224.7870582316
 21
547.3689283994
 31
0.0
  0
LINE
  5
E1
330
1F
100
AcDbEntity
  8
0
  6
Continuous
 62
     7
370
    18
100
AcDbLine
 10
121.2820582316
 20
541.0189283994
 30
0.0
 11
121.2820582316
 21
547.3689283994
 31
0.0
  0
LINE
  5
E2
330
1F
100
AcDbEntity
  8
0
  6
Continuous
 62
     7
370
    18
100
AcDbLine
 10
431.7970582316
 20
17.7789283994
 30
0.0
 11
431.7970582316
 21
11.4289283994
 31
0.0
  0
LINE
  5
E3
330
1F
100
AcDbEntity
  8
0
  6
Continuous
 62
     7
370
    18
100
AcDbLine
 10
431.7970582316
 20
17.7789283994
 30
0.0
 11
433.6301453363
 21
14.6039283994
 31
0.0
  0
LINE
  5
E4
330
1F
100
AcDbEntity
  8
0
  6
Continuous
 62
     7
370
    18
100
AcDbLine
 10
431.7970582316
 20
17.7789283994
 30
0.0
 11
429.963971127
 21
14.6039283994
 31
0.0
  0
LINE
  5
E5
330
1F
100
AcDbEntity
  8
0
  6
Continuous
 62
     7
370
    18
100
AcDbLine
 10
433.6301453363
 20
14.6039283994
 30
0.0
 11
429.963971127
 21
14.6039283994
 31
0.0
  0
LINE
  5
E6
330
1F
100
AcDbEntity
  8
0
  6
Continuous
 62
     7
370
    18
100
AcDbLine
 10
17.7770582316
 20
517.5004279921
 30
0.0
 11
149.8753518325
 21
517.5004279921
 31
0.0
  0
LINE
  5
E7
330
1F
100
AcDbEntity
  8
0
  6
Continuous
 62
     7
370
    18
100
AcDbLine
 10
149.8753518325
 20
541.0189283994
 30
0.0
 11
149.8753518325
 21
517.5004279921
 31
0.0
  0
LINE
  5
E8
330
1F
100
AcDbEntity
  8
0
  6
Continuous
 62
     7
370
    18
100
AcDbLine
 10
824.7215725591
 20
36.8289283994
 30
0.0
 11
824.7215725591
 21
24.1289283994
 31
0.0
  0
MTEXT
  5
EA
330
1F
100
AcDbEntity
  8
SLD-0
100
AcDbMText
 10
423.1664063804
 20
51.3935909923
 30
0.0
 40
10.5833333333
 41
0.0
 71
     2
 72
     1
  1
STAND WITH 7" TOUCHSCREEN CONTROLLER INSTALLED
  7
SLDTEXTSTYLE0
 73
     1
 44
1.0
  0
INSERT
  5
F6
330
1F
100
AcDbEntity
  8
0
  6
Continuous
 62
     7
370
     0
100
AcDbBlockReference
  2
SW_NOTE_0
 10
19.7731701097
 20
536.0083426113
 30
0.0
  0
MTEXT
  5
F7
330
1F
100
AcDbEntity
  8
0
  6
Continuous
 62
     7
370
     0
100
AcDbMText
 10
832.1383823192
 20
36.1262826977
 30
0.0
 40
2.6458333333
 41
0.0
 71
     1
 72
     1
  1
REV
  7
SLDTEXTSTYLE0
 73
     1
 44
1.0
  0
MTEXT
  5
F8
330
1F
100
AcDbEntity
  8
0
  6
Continuous
 62
     7
370
     0
100
AcDbMText
 10
274.9044892463
 20
546.7165399178
 30
0.0
 40
4.7625
 41
0.0
 71
     1
 72
     1
  1
6
  7
SLDTEXTSTYLE0
 73
     1
 44
1.0
  0
MTEXT
  5
F9
330
1F
100
AcDbEntity
  8
0
  6
Continuous
 62
     7
370
     0
100
AcDbMText
 10
769.6293302907
 20
21.8437228263
 30
0.0
 40
2.54
 41
0.0
 71
     1
 72
     1
  1
 FG-901525-2D
  7
SLDTEXTSTYLE0
 73
     1
 44
1.0
  0
MTEXT
  5
FA
330
1F
100
AcDbEntity
  8
0
  6
Continuous
 62
     7
370
     0
100
AcDbMText
 10
847.5215828392
 20
85.9414361542
 30
0.0
 40
4.7625
 41
0.0
 71
     1
 72
     1
  1
A
  7
SLDTEXTSTYLE0
 73
     1
 44
1.0
  0
MTEXT
  5
FB
330
1F
100
AcDbEntity
  8
0
  6
Continuous
 62
     7
370
     0
100
AcDbMText
 10
848.5673279065
 20
216.6712265686
 30
0.0
 40
4.7625
 41
0.0
 71
     1
 72
     1
  1
B
  7
SLDTEXTSTYLE0
 73
     1
 44
1.0
  0
MTEXT
  5
FC
330
1F
100
AcDbEntity
  8
0
  6
Continuous
 62
     7
370
     0
100
AcDbMText
 10
847.1136724834
 20
347.601157245
 30
0.0
 40
4.7625
 41
0.0
 71
     1
 72
     1
  1
C
  7
SLDTEXTSTYLE0
 73
     1
 44
1.0
  0
MTEXT
  5
FD
330
1F
100
AcDbEntity
  8
0
  6
Continuous
 62
     7
370
     0
100
AcDbMText
 10
847.6406414995
 20
478.3100785054
 30
0.0
 40
4.7625
 41
0.0
 71
     1
 72
     1
  1
D
  7
SLDTEXTSTYLE0
 73
     1
 44
1.0
  0
MTEXT
  5
FE
330
1F
100
AcDbEntity
  8
0
  6
Continuous
 62
     7
370
     0
100
AcDbMText
 10
792.5830446789
 20
546.7940520172
 30
0.0
 40
4.7625
 41
0.0
 71
     1
 72
     1
  1
1
  7
SLDTEXTSTYLE0
 73
     1
 44
1.0
  0
MTEXT
  5
FF
330
1F
100
AcDbEntity
  8
0
  6
Continuous
 62
     7
370
     0
100
AcDbMText
 10
688.894906649
 20
546.7526281102
 30
0.0
 40
4.7625
 41
0.0
 71
     1
 72
     1
  1
2
  7
SLDTEXTSTYLE0
 73
     1
 44
1.0
  0
MTEXT
  5
100
330
1F
100
AcDbEntity
  8
0
  6
Continuous
 62
     7
370
     0
100
AcDbMText
 10
585.3611054217
 20
546.6471015398
 30
0.0
 40
4.7625
 41
0.0
 71
     1
 72
     1
  1
3
  7
SLDTEXTSTYLE0
 73
     1
 44
1.0
  0
MTEXT
  5
101
330
1F
100
AcDbEntity
  8
0
  6
Continuous
 62
     7
370
     0
100
AcDbMText
 10
481.9144239716
 20
546.6593937128
 30
0.0
 40
4.7625
 41
0.0
 71
     1
 72
     1
  1
4
  7
SLDTEXTSTYLE0
 73
     1
 44
1.0
  0
MTEXT
  5
102
330
1F
100
AcDbEntity
  8
0
  6
Continuous
 62
     7
370
     0
100
AcDbMText
 10
378.4264775994
 20
546.6423769039
 30
0.0
 40
4.7625
 41
0.0
 71
     1
 72
     1
  1
5
  7
SLDTEXTSTYLE0
 73
     1
 44
1.0
  0
MTEXT
  5
103
330
1F
100
AcDbEntity
  8
0
  6
Continuous
 62
     7
370
     0
100
AcDbMText
 10
171.5249301416
 20
546.8422076892
 30
0.0
 40
4.7625
 41
0.0
 71
     1
 72
     1
  1
7
  7
SLDTEXTSTYLE0
 73
     1
 44
1.0
  0
MTEXT
  5
104
330
1F
100
AcDbEntity
  8
0
  6
Continuous
 62
     7
370
     0
100
AcDbMText
 10
769.2200957374
 20
32.047807006
 30
0.0
 40
6.35
 41
0.0
 71
     2
 72
     1
  1
FG-901525-2D
  7
SLDTEXTSTYLE0
 73
     1
 44
1.0
  0
MTEXT
  5
105
330
1F
100
AcDbEntity
  8
0
  6
Continuous
 62
     7
370
     0
100
AcDbMText
 10
823.5592003829
 20
23.0161842784
 30
0.0
 40
3.7041666667
 41
0.0
 71
     1
 72
     1
  1
2  OF  3
  7
SLDTEXTSTYLE0
 73
     1
 44
1.0
  0
MTEXT
  5
106
330
1F
100
AcDbEntity
  8
0
  6
Continuous
 62
     7
370
     0
100
AcDbMText
 10
746.7323009597
 20
22.8437594925
 30
0.0
 40
3.556
 41
0.0
 71
     2
 72
     1
  1
1:2
  7
SLDTEXTSTYLE0
 73
     1
 44
1.0
  0
MTEXT
  5
107
330
1F
100
AcDbEntity
  8
0
  6
Continuous
 62
     7
370
     0
100
AcDbMText
 10
67.944147644
 20
546.6480712239
 30
0.0
 40
4.7625
 41
0.0
 71
     1
 72
     1
  1
8
  7
SLDTEXTSTYLE0
 73
     1
 44
1.0
  0
MTEXT
  5
108
330
1F
100
AcDbEntity
  8
0
  6
Continuous
 62
     7
370
     0
100
AcDbMText
 10
835.0890379196
 20
32.1777370848
 30
0.0
 40
6.35
 41
0.0
 71
     2
 72
     1
  1
A
  7
SLDTEXTSTYLE0
 73
     1
 44
1.0
  0
MTEXT
  5
109
330
1F
100
AcDbEntity
  8
0
  6
Continuous
 62
     7
370
     0
100
AcDbMText
 10
67.7761843366
 20
16.7592836782
 30
0.0
 40
4.7625
 41
0.0
 71
     1
 72
     1
  1
8
  7
SLDTEXTSTYLE0
 73
     1
 44
1.0
  0
MTEXT
  5
10A
330
1F
100
AcDbEntity
  8
0
  6
Continuous
 62
     7
370
     0
100
AcDbMText
 10
171.3588469983
 20
16.8315671061
 30
0.0
 40
4.7625
 41
0.0
 71
     1
 72
     1
  1
7
  7
SLDTEXTSTYLE0
 73
     1
 44
1.0
  0
MTEXT
  5
10B
330
1F
100
AcDbEntity
  8
0
  6
Continuous
 62
     7
370
     0
100
AcDbMText
 10
274.8985307608
 20
16.9129951712
 30
0.0
 40
4.7625
 41
0.0
 71
     1
 72
     1
  1
6
  7
SLDTEXTSTYLE0
 73
     1
 44
1.0
  0
MTEXT
  5
10C
330
1F
100
AcDbEntity
  8
0
  6
Continuous
 62
     7
370
     0
100
AcDbMText
 10
378.4160175024
 20
16.7716636708
 30
0.0
 40
4.7625
 41
0.0
 71
     1
 72
     1
  1
5
  7
SLDTEXTSTYLE0
 73
     1
 44
1.0
  0
MTEXT
  5
10D
330
1F
100
AcDbEntity
  8
0
  6
Continuous
 62
     7
370
     0
100
AcDbMText
 10
481.8362164345
 20
16.8241970873
 30
0.0
 40
4.7625
 41
0.0
 71
     1
 72
     1
  1
4
  7
SLDTEXTSTYLE0
 73
     1
 44
1.0
  0
MTEXT
  5
10E
330
1F
100
AcDbEntity
  8
0
  6
Continuous
 62
     7
370
     0
100
AcDbMText
 10
585.2668238139
 20
16.7624653566
 30
0.0
 40
4.7625
 41
0.0
 71
     1
 72
     1
  1
3
  7
SLDTEXTSTYLE0
 73
     1
 44
1.0
  0
MTEXT
  5
10F
330
1F
100
AcDbEntity
  8
0
  6
Continuous
 62
     7
370
     0
100
AcDbMText
 10
688.8634389669
 20
16.8679362557
 30
0.0
 40
4.7625
 41
0.0
 71
     1
 72
     1
  1
2
  7
SLDTEXTSTYLE0
 73
     1
 44
1.0
  0
MTEXT
  5
110
330
1F
100
AcDbEntity
  8
0
  6
Continuous
 62
     7
370
     0
100
AcDbMText
 10
792.3915769235
 20
16.7025094057
 30
0.0
 40
4.7625
 41
0.0
 71
     1
 72
     1
  1
1
  7
SLDTEXTSTYLE0
 73
     1
 44
1.0
  0
MTEXT
  5
111
330
1F
100
AcDbEntity
  8
0
  6
Continuous
 62
     7
370
     0
100
AcDbMText
 10
811.8237811206
 20
23.008513856
 30
0.0
 40
2.6458333333
 41
0.0
 71
     1
 72
     1
  1
SHEET:
  7
SLDTEXTSTYLE0
 73
     1
 44
1.0
  0
MTEXT
  5
112
330
1F
100
AcDbEntity
  8
0
  6
Continuous
 62
     7
370
     0
100
AcDbMText
 10
731.1971915747
 20
30.4677761734
 30
0.0
 40
3.7041666667
 41
0.0
 71
     1
 72
     1
  1
B
  7
SLDTEXTSTYLE0
 73
     1
 44
1.0
  0
MTEXT
  5
113
330
1F
100
AcDbEntity
  8
0
  6
Continuous
 62
     7
370
     0
100
AcDbMText
 10
738.924532815
 20
35.7710989182
 30
0.0
 40
2.6458333333
 41
0.0
 71
     1
 72
     1
  1
DWG.  NO.
  7
SLDTEXTSTYLE0
 73
     1
 44
1.0
  0
MTEXT
  5
114
330
1F
100
AcDbEntity
  8
0
  6
Continuous
 62
     7
370
     0
100
AcDbMText
 10
752.8418251795
 20
23.008513856
 30
0.0
 40
2.6458333333
 41
0.0
 71
     1
 72
     1
  1
CAD FILE:
  7
SLDTEXTSTYLE0
 73
     1
 44
1.0
  0
MTEXT
  5
115
330
1F
100
AcDbEntity
  8
0
  6
Continuous
 62
     7
370
     0
100
AcDbMText
 10
729.3779100019
 20
35.7710989182
 30
0.0
 40
2.6458333333
 41
0.0
 71
     1
 72
     1
  1
SIZE
  7
SLDTEXTSTYLE0
 73
     1
 44
1.0
  0
MTEXT
  5
116
330
1F
100
AcDbEntity
  8
0
  6
Continuous
 62
     7
370
     0
100
AcDbMText
 10
729.6544009966
 20
23.008513856
 30
0.0
 40
2.6458333333
 41
0.0
 71
     1
 72
     1
  1
SCALE:  
  7
SLDTEXTSTYLE0
 73
     1
 44
1.0
  0
MTEXT
  5
117
330
1F
100
AcDbEntity
  8
0
  6
Continuous
 62
     7
370
     0
100
AcDbMText
 10
11.4696716321
 20
478.4508072522
 30
0.0
 40
4.7625
 41
0.0
 71
     1
 72
     1
  1
D
  7
SLDTEXTSTYLE0
 73
     1
 44
1.0
  0
MTEXT
  5
118
330
1F
100
AcDbEntity
  8
0
  6
Continuous
 62
     7
370
     0
100
AcDbMText
 10
11.4794853763
 20
347.6322123788
 30
0.0
 40
4.7625
 41
0.0
 71
     1
 72
     1
  1
C
  7
SLDTEXTSTYLE0
 73
     1
 44
1.0
  0
MTEXT
  5
119
330
1F
100
AcDbEntity
  8
0
  6
Continuous
 62
     7
370
     0
100
AcDbMText
 10
11.4785739269
 20
216.8638453104
 30
0.0
 40
4.7625
 41
0.0
 71
     1
 72
     1
  1
B
  7
SLDTEXTSTYLE0
 73
     1
 44
1.0
  0
MTEXT
  5
11A
330
1F
100
AcDbEntity
  8
0
  6
Continuous
 62
     7
370
     0
100
AcDbMText
 10
11.4973888207
 20
86.1195570852
 30
0.0
 40
4.7625
 41
0.0
 71
     1
 72
     1
  1
A
  7
SLDTEXTSTYLE0
 73
     1
 44
1.0
  0
LINE
  5
11B
330
1F
100
AcDbEntity
  8
0
  6
Continuous
 62
     7
370
    25
100
AcDbLine
 10
163.258145819
 20
168.2002649652
 30
0.0
 11
130.2633141802
 21
160.2015179013
 31
0.0
  0
SPLINE
  5
11C
330
1F
100
AcDbEntity
  8
0
  6
Continuous
 62
     7
370
    25
100
AcDbSpline
210
0.0
220
0.0
230
1.0
 70
    24
 71
     3
 72
    14
 73
    10
 74
     0
 42
0.00000001
 43
0.00000001
 40
0.0
 40
0.0
 40
0.0
 40
0.0
 40
0.1930409696380866
 40
0.3750766718894974
 40
0.5462059662966624
 40
0.6676431151096945
 40
0.7834695329243266
 40
0.8940874582677133
 40
1.0
 40
1.0
 40
1.0
 40
1.0
 10
280.7581458189892
 20
160.2002649652202
 30
0.0
 10
278.9481320068949
 20
160.6390561923945
 30
0.0
 10
275.431293286145
 20
161.4916231550006
 30
0.0
 10
269.9252835472028
 20
162.8264133947441
 30
0.0
 10
264.8517655841788
 20
164.056357143356
 30
0.0
 10
260.2314046665971
 20
165.1764446385273
 30
0.0
 10
256.100965245624
 20
166.177763286036
 30
0.0
 10
251.9810675658047
 20
167.1765263599316
 30
0.0
 10
249.1452448210586
 20
167.863998540476
 30
0.0
 10
247.7581458189892
 20
168.2002649652201
 30
0.0
  0
SPLINE
  5
11D
330
1F
100
AcDbEntity
  8
0
  6
Continuous
 62
     7
370
    25
100
AcDbSpline
210
0.0
220
0.0
230
1.0
 70
     8
 71
     3
 72
     9
 73
     5
 74
     0
 42
0.00000001
 43
0.00000001
 40
0.0
 40
0.0
 40
0.0
 40
0.0
 40
0.4996527734836894
 40
0.9999999999999999
 40
0.9999999999999999
 40
0.9999999999999999
 40
0.9999999999999999
 10
164.8139979180298
 20
168.3768275799962
 30
0.0
 10
164.868296687843
 20
168.3478849452154
 30
0.0
 10
164.9769696957691
 20
168.2899594491173
 30
0.0
 10
165.0865731188536
 20
168.2301769652283
 30
0.0
 10
165.1414128876106
 20
168.2002649652201
 30
0.0
  0
SPLINE
  5
11E
330
1F
100
AcDbEntity
  8
0
  6
Continuous
 62
     7
370
    25
100
AcDbSpline
210
0.0
220
0.0
230
1.0
 70
     8
 71
     3
 72
     9
 73
     5
 74
     0
 42
0.00000001
 43
0.00000001
 40
0.0
 40
0.0
 40
0.0
 40
0.0
 40
0.5003472265162919
 40
0.9999999999999999
 40
0.9999999999999999
 40
0.9999999999999999
 40
0.9999999999999999
 10
245.8748787503679
 20
168.2002649652201
 30
0.0
 10
245.9297185191249
 20
168.2301769652283
 30
0.0
 10
246.0393219422094
 20
168.2899594491173
 30
0.0
 10
246.1479949501356
 20
168.3478849452154
 30
0.0
 10
246.2022937199487
 20
168.3768275799962
 30
0.0
  0
SPLINE
  5
11F
330
1F
100
AcDbEntity
  8
0
  6
Continuous
 62
     7
370
    25
100
AcDbSpline
210
0.0
220
0.0
230
1.0
 70
     8
 71
     3
 72
    14
 73
    10
 74
     0
 42
0.00000001
 43
0.00000001
 40
0.0
 40
0.0
 40
0.0
 40
0.0
 40
0.1122160410133885
 40
0.2227843670278983
 40
0.3361323294736785
 40
0.4543303006530401
 40
0.5780266467618455
 40
0.708011739413929
 40
1.0
 40
1.0
 40
1.0
 40
1.0
 10
112.8777004434085
 20
190.4011594984276
 30
0.0
 10
112.913946006133
 20
190.1626034775997
 30
0.0
 10
112.985904922846
 20
189.688994253634
 30
0.0
 10
113.2555033631138
 20
189.0494342671083
 30
0.0
 10
113.6455983958256
 20
188.4876136276249
 30
0.0
 10
114.1751290835758
 20
188.0091581519384
 30
0.0
 10
114.8410364337681
 20
187.6276310014552
 30
0.0
 10
115.9434331398362
 20
187.239120360079
 30
0.0
 10
116.868226634741
 20
187.1934212103341
 30
0.0
 10
117.5081458189891
 20
187.1617992722617
 30
0.0
  0
SPLINE
  5
120
330
1F
100
AcDbEntity
  8
0
  6
Continuous
 62
     7
370
    25
100
AcDbSpline
210
0.0
220
0.0
230
1.0
 70
     8
 71
     3
 72
    14
 73
    10
 74
     0
 42
0.00000001
 43
0.00000001
 40
0.0
 40
0.0
 40
0.0
 40
0.0
 40
0.1442301747449951
 40
0.2775473765047621
 40
0.4051148649155857
 40
0.5293951543604067
 40
0.6508107064427823
 40
0.769399780200878
 40
1.0
 40
1.0
 40
1.0
 40
1.0
 10
293.5081458189891
 20
187.1617992722617
 30
0.0
 10
293.8459120194568
 20
187.1710351276837
 30
0.0
 10
294.4958878166679
 20
187.1888080205384
 30
0.0
 10
295.4318913219073
 20
187.3608870962329
 30
0.0
 10
296.2591748347407
 20
187.6498825631618
 30
0.0
 10
296.9490591668952
 20
188.0565854523836
 30
0.0
 10
297.4740965534861
 20
188.5579949854803
 30
0.0
 10
297.968224086763
 20
189.3039940541733
 30
0.0
 10
298.0795496749963
 20
189.9652446018237
 30
0.0
 10
298.1530676939892
 20
190.4019261508973
 30
0.0
  0
LINE
  5
121
330
1F
100
AcDbEntity
  8
0
  6
Continuous
 62
     7
370
    25
100
AcDbLine
 10
117.508145819
 20
187.1617992723
 30
0.0
 11
205.508145819
 21
187.1617992723
 31
0.0
  0
LINE
  5
122
330
1F
100
AcDbEntity
  8
0
  6
Continuous
 62
     7
370
    25
100
AcDbLine
 10
205.508145819
 20
187.1617992723
 30
0.0
 11
293.508145819
 21
187.1617992723
 31
0.0
  0
SPLINE
  5
123
330
1F
100
AcDbEntity
  8
0
  6
Continuous
 62
     7
370
    25
100
AcDbSpline
210
0.0
220
0.0
230
1.0
 70
     8
 71
     3
 72
    17
 73
    13
 74
     0
 42
0.00000001
 43
0.00000001
 40
0.0
 40
0.0
 40
0.0
 40
0.0
 40
0.1432575469636125
 40
0.2791856626121504
 40
0.3931748690093702
 40
0.4733192952227126
 40
0.5406258775063209
 40
0.6050057365376457
 40
0.6661643424609375
 40
0.7412871602975812
 40
0.8518701409909972
 40
1.0
 40
1.0
 40
1.0
 40
1.0
 10
284.5630713678892
 20
181.4964352423268
 30
0.0
 10
285.1146717726905
 20
181.5982721840203
 30
0.0
 10
286.1896512608617
 20
181.7967358227444
 30
0.0
 10
287.8363021729271
 20
182.0824153680137
 30
0.0
 10
289.2162037178911
 20
182.3055322623704
 30
0.0
 10
290.2572009014414
 20
182.5256043026399
 30
0.0
 10
291.0592809905884
 20
182.7198015725938
 30
0.0
 10
291.7904436663187
 20
182.9169827328359
 30
0.0
 10
292.5364638817748
 20
183.1378094365691
 30
0.0
 10
293.4114549374139
 20
183.4203721659554
 30
0.0
 10
294.5600742640934
 20
183.8264419446698
 30
0.0
 10
295.4276095474885
 20
184.1744234900998
 30
0.0
 10
295.9243296923505
 20
184.3736654655719
 30
0.0
  0
SPLINE
  5
124
330
1F
100
AcDbEntity
  8
0
  6
Continuous
 62
     7
370
    25
100
AcDbSpline
210
0.0
220
0.0
230
1.0
 70
     8
 71
     3
 72
    17
 73
    13
 74
     0
 42
0.00000001
 43
0.00000001
 40
0.0
 40
0.0
 40
0.0
 40
0.0
 40
0.1481298590090027
 40
0.2587128397024189
 40
0.3338356575390626
 40
0.3949942634623543
 40
0.4593741224936793
 40
0.5266807047772875
 40
0.6068251309906298
 40
0.7208143373878497
 40
0.8567424530363899
 40
1.0
 40
1.0
 40
1.0
 40
1.0
 10
115.0919619456278
 20
184.3736654655719
 30
0.0
 10
115.5886820904898
 20
184.1744234900998
 30
0.0
 10
116.4562173738849
 20
183.8264419446698
 30
0.0
 10
117.6048367005644
 20
183.4203721659554
 30
0.0
 10
118.4798277562036
 20
183.1378094365691
 30
0.0
 10
119.2258479716596
 20
182.9169827328359
 30
0.0
 10
119.9570106473899
 20
182.7198015725938
 30
0.0
 10
120.7590907365369
 20
182.5256043026399
 30
0.0
 10
121.8000879200872
 20
182.3055322623704
 30
0.0
 10
123.1799894650511
 20
182.0824153680138
 30
0.0
 10
124.8266403771166
 20
181.7967358227444
 30
0.0
 10
125.9016198652878
 20
181.5982721840203
 30
0.0
 10
126.4532202700891
 20
181.4964352423268
 30
0.0
  0
SPLINE
  5
125
330
1F
100
AcDbEntity
  8
0
  6
Continuous
 62
     7
370
    25
100
AcDbSpline
210
0.0
220
0.0
230
1.0
 70
     8
 71
     3
 72
     9
 73
     5
 74
     0
 42
0.00000001
 43
0.00000001
 40
0.0
 40
0.0
 40
0.0
 40
0.0
 40
0.4996530685770387
 40
1.0
 40
1.0
 40
1.0
 40
1.0
 10
282.6063556472787
 20
181.226432205277
 30
0.0
 10
282.7792223420428
 20
181.2414025744197
 30
0.0
 10
283.1251957896919
 20
181.2713641018959
 30
0.0
 10
283.4740869155366
 20
181.3009011273532
 30
0.0
 10
283.6486535197539
 20
181.3156798874041
 30
0.0
  0
SPLINE
  5
126
330
1F
100
AcDbEntity
  8
0
  6
Continuous
 62
     7
370
    25
100
AcDbSpline
210
0.0
220
0.0
230
1.0
 70
     8
 71
     3
 72
     9
 73
     5
 74
     0
 42
0.00000001
 43
0.00000001
 40
0.0
 40
0.0
 40
0.0
 40
0.0
 40
0.5006466808965031
 40
1.0
 40
1.0
 40
1.0
 40
1.0
 10
127.3676381182245
 20
181.3156798874041
 30
0.0
 10
127.5436196583808
 20
181.3007797750293
 30
0.0
 10
127.8951281110908
 20
181.2710180429667
 30
0.0
 10
128.2384813908345
 20
181.2412813310645
 30
0.0
 10
128.4099359906996
 20
181.226432205277
 30
0.0
  0
SPLINE
  5
127
330
1F
100
AcDbEntity
  8
0
  6
Continuous
 62
     7
370
    25
100
AcDbSpline
210
0.0
220
0.0
230
1.0
 70
     8
 71
     3
 72
    12
 73
     8
 74
     0
 42
0.00000001
 43
0.00000001
 40
0.0
 40
0.0
 40
0.0
 40
0.0
 40
0.1847282033584984
 40
0.38617843259916
 40
0.5991937391510853
 40
0.8160062486899865
 40
1.0
 40
1.0
 40
1.0
 40
1.0
 10
296.8808912956681
 20
253.0230718442183
 30
0.0
 10
296.7377011693762
 20
253.1608242651256
 30
0.0
 10
296.4383590140923
 20
253.4487987759234
 30
0.0
 10
295.857612153433
 20
253.7774832367247
 30
0.0
 10
295.1773430295124
 20
254.0273383963677
 30
0.0
 10
294.4584354499039
 20
254.177123683778
 30
0.0
 10
293.9723038624329
 20
254.1879310716997
 30
0.0
 10
293.7491407456202
 20
254.1928923012009
 30
0.0
  0
SPLINE
  5
128
330
1F
100
AcDbEntity
  8
0
  6
Continuous
 62
     7
370
    25
100
AcDbSpline
210
0.0
220
0.0
230
1.0
 70
     8
 71
     3
 72
    13
 73
     9
 74
     0
 42
0.00000001
 43
0.00000001
 40
0.0
 40
0.0
 40
0.0
 40
0.0
 40
0.0087685733351902
 40
0.2222842320708277
 40
0.4387169096392796
 40
0.6608932424449723
 40
0.8636282751954626
 40
1.0
 40
1.0
 40
1.0
 40
1.0
 10
117.2679865884953
 20
254.1978126964424
 30
0.0
 10
117.2572372404835
 20
254.1985415315671
 30
0.0
 10
116.9847401675034
 20
254.2170175766211
 30
0.0
 10
116.4417942411329
 20
254.1492416978457
 30
0.0
 10
115.674197795088
 20
253.9846000678854
 30
0.0
 10
114.9895464786504
 20
253.6933760106496
 30
0.0
 10
114.4544217162995
 20
253.3576255428998
 30
0.0
 10
114.206710045729
 20
253.0826771933116
 30
0.0
 10
114.1070928395917
 20
252.9721067613454
 30
0.0
  0
LINE
  5
129
330
1F
100
AcDbEntity
  8
0
  6
Continuous
 62
     7
370
    25
100
AcDbLine
 10
293.748145819
 20
254.2000113959
 30
0.0
 11
117.268145819
 21
254.2000113959
 31
0.0
  0
LINE
  5
12A
330
1F
100
AcDbEntity
  8
0
  6
Continuous
 62
     7
370
    25
100
AcDbLine
 10
268.758145819
 20
157.7002649652
 30
0.0
 11
142.2581458193
 21
157.7002649652
 31
0.0
  0
LINE
  5
12B
330
1F
100
AcDbEntity
  8
0
  6
Continuous
 62
     7
370
    25
100
AcDbLine
 10
268.758145819
 20
160.2002649652
 30
0.0
 11
142.2581458193
 21
160.2002649652
 31
0.0
  0
LINE
  5
12C
330
1F
100
AcDbEntity
  8
0
  6
Continuous
 62
     7
370
    25
100
AcDbLine
 10
142.2581458193
 20
157.7002649652
 30
0.0
 11
130.258145819
 21
157.7002649652
 31
0.0
  0
LINE
  5
12D
330
1F
100
AcDbEntity
  8
0
  6
Continuous
 62
     7
370
    25
100
AcDbLine
 10
130.258145819
 20
157.7002649652
 30
0.0
 11
130.258145819
 21
160.2002649652
 31
0.0
  0
SPLINE
  5
12E
330
1F
100
AcDbEntity
  8
0
  6
Continuous
 62
     7
370
    25
100
AcDbSpline
210
0.0
220
0.0
230
1.0
 70
    24
 71
     3
 72
    15
 73
    11
 74
     0
 42
0.00000001
 43
0.00000001
 40
0.0
 40
0.0
 40
0.0
 40
0.0
 40
0.1250000000000004
 40
0.2500000000000012
 40
0.3750000000000019
 40
0.5000000000000028
 40
0.6250000000000031
 40
0.7500000000000034
 40
0.8750000000000043
 40
1.0
 40
1.0
 40
1.0
 40
1.0
 10
142.2581458192749
 20
160.2002649652202
 30
0.0
 10
141.4727517976641
 20
160.2002649652201
 30
0.0
 10
139.9019637544427
 20
160.20026496522
 30
0.0
 10
137.6363708928278
 20
160.2002649652201
 30
0.0
 10
135.5482204583829
 20
160.2002649652201
 30
0.0
 10
133.7185654101105
 20
160.2002649652201
 30
0.0
 10
132.2147045692137
 20
160.2002649652201
 30
0.0
 10
131.1056791404916
 20
160.2002649652201
 30
0.0
 10
130.3921274412365
 20
160.20026496522
 30
0.0
 10
130.3028063597383
 20
160.2002649652201
 30
0.0
 10
130.2581458189891
 20
160.2002649652202
 30
0.0
  0
LINE
  5
12F
330
1F
100
AcDbEntity
  8
0
  6
Continuous
 62
     7
370
    25
100
AcDbLine
 10
280.758145819
 20
157.7002649652
 30
0.0
 11
280.758145819
 21
160.2002649652
 31
0.0
  0
LINE
  5
130
330
1F
100
AcDbEntity
  8
0
  6
Continuous
 62
     7
370
    25
100
AcDbLine
 10
280.758145819
 20
157.7002649652
 30
0.0
 11
268.758145819
 21
157.7002649652
 31
0.0
  0
SPLINE
  5
131
330
1F
100
AcDbEntity
  8
0
  6
Continuous
 62
     7
370
    25
100
AcDbSpline
210
0.0
220
0.0
230
1.0
 70
    24
 71
     3
 72
    15
 73
    11
 74
     0
 42
0.00000001
 43
0.00000001
 40
0.0
 40
0.0
 40
0.0
 40
0.0
 40
0.1249999999999966
 40
0.2499999999999971
 40
0.3749999999999963
 40
0.4999999999999966
 40
0.6249999999999967
 40
0.7499999999999972
 40
0.8749999999999979
 40
1.0
 40
1.0
 40
1.0
 40
1.0
 10
280.7581458189892
 20
160.2002649652201
 30
0.0
 10
280.7134852782107
 20
160.2002649652201
 30
0.0
 10
280.6241641966538
 20
160.20026496522
 30
0.0
 10
279.9106124973623
 20
160.20026496522
 30
0.0
 10
278.8015870686411
 20
160.20026496522
 30
0.0
 10
277.2977262277828
 20
160.20026496522
 30
0.0
 10
275.4680711795792
 20
160.20026496522
 30
0.0
 10
273.3799207452249
 20
160.20026496522
 30
0.0
 10
271.1143278837132
 20
160.20026496522
 30
0.0
 10
269.5435398405591
 20
160.2002649652201
 30
0.0
 10
268.758145818982
 20
160.2002649652201
 30
0.0
  0
SPLINE
  5
132
330
1F
100
AcDbEntity
  8
0
  6
Continuous
 62
     7
370
    25
100
AcDbSpline
210
0.0
220
0.0
230
1.0
 70
    24
 71
     3
 72
    14
 73
    10
 74
     0
 42
0.00000001
 43
0.00000001
 40
0.0
 40
0.0
 40
0.0
 40
0.0
 40
0.1266453711266997
 40
0.2631942332043735
 40
0.4077826673719092
 40
0.5566857849465181
 40
0.7118345978139357
 40
0.8608013325188009
 40
1.0
 40
1.0
 40
1.0
 40
1.0
 10
172.2581458189892
 20
168.2002649652202
 30
0.0
 10
171.6616734145788
 20
168.2002649652202
 30
0.0
 10
170.4220852976999
 20
168.2002649652202
 30
0.0
 10
168.5793918312467
 20
168.2002649652202
 30
0.0
 10
166.8167532360284
 20
168.2002649652202
 30
0.0
 10
165.2677950118369
 20
168.2002649652201
 30
0.0
 10
164.105936109707
 20
168.2002649652202
 30
0.0
 10
163.3863413544574
 20
168.2002649652202
 30
0.0
 10
163.2999009616902
 20
168.2002649652202
 30
0.0
 10
163.2581458189892
 20
168.2002649652202
 30
0.0
  0
LINE
  5
133
330
1F
100
AcDbEntity
  8
0
  6
Continuous
 62
     7
370
    25
100
AcDbLine
 10
238.758145819
 20
168.2002649652
 30
0.0
 11
172.258145819
 21
168.2002649652
 31
0.0
  0
SPLINE
  5
134
330
1F
100
AcDbEntity
  8
0
  6
Continuous
 62
     7
370
    25
100
AcDbSpline
210
0.0
220
0.0
230
1.0
 70
    24
 71
     3
 72
    14
 73
    10
 74
     0
 42
0.00000001
 43
0.00000001
 40
0.0
 40
0.0
 40
0.0
 40
0.0
 40
0.1326627182286191
 40
0.2743449827971057
 40
0.4220599232186162
 40
0.5711838747092556
 40
0.7233859469369198
 40
0.8670906160005563
 40
1.0
 40
1.0
 40
1.0
 40
1.0
 10
247.7581458189892
 20
168.2002649652202
 30
0.0
 10
247.7202546665327
 20
168.2002649652201
 30
0.0
 10
247.6418961969667
 20
168.20026496522
 30
0.0
 10
246.9890142340147
 20
168.20026496522
 30
0.0
 10
245.9138244137671
 20
168.2002649652201
 30
0.0
 10
244.4132197952933
 20
168.20026496522
 30
0.0
 10
242.6168517857853
 20
168.20026496522
 30
0.0
 10
240.6872392049347
 20
168.20026496522
 30
0.0
 10
239.3842262588354
 20
168.2002649652201
 30
0.0
 10
238.7581458189892
 20
168.2002649652202
 30
0.0
  0
LWPOLYLINE
  5
135
330
1F
100
AcDbEntity
  8
0
  6
Continuous
 62
     7
370
    25
100
AcDbPolyline
 90
        2
 70
   128
 43
0.0
 10
247.758145819
 20
168.2002649652
 10
247.758145819
 20
168.2002649652
  0
LWPOLYLINE
  5
136
330
1F
100
AcDbEntity
  8
0
  6
Continuous
 62
     7
370
    25
100
AcDbPolyline
 90
        2
 70
   128
 43
0.0
 10
130.258145819
 20
160.2002649652
 10
130.258145819
 20
160.2002649652
  0
LWPOLYLINE
  5
137
330
1F
100
AcDbEntity
  8
0
  6
Continuous
 62
     7
370
    25
100
AcDbPolyline
 90
        2
 70
   128
 43
0.0
 10
280.758145819
 20
160.2002649652
 10
280.758145819
 20
160.2002649652
  0
LINE
  5
138
330
1F
100
AcDbEntity
  8
0
  6
Continuous
 62
     7
370
    25
100
AcDbLine
 10
154.008145819
 20
156.0002649652
 30
0.0
 11
143.858145819
 21
156.0002649652
 31
0.0
  0
LINE
  5
139
330
1F
100
AcDbEntity
  8
0
  6
Continuous
 62
     7
370
    25
100
AcDbLine
 10
143.858145819
 20
156.0002649652
 30
0.0
 11
143.858145819
 21
157.7002649652
 31
0.0
  0
LINE
  5
13A
330
1F
100
AcDbEntity
  8
0
  6
Continuous
 62
     7
370
    25
100
AcDbLine
 10
257.008145819
 20
156.0002649652
 30
0.0
 11
154.008145819
 21
156.0002649652
 31
0.0
  0
LINE
  5
13B
330
1F
100
AcDbEntity
  8
0
  6
Continuous
 62
     7
370
    25
100
AcDbLine
 10
267.158145819
 20
156.0002649652
 30
0.0
 11
267.158145819
 21
157.7002649652
 31
0.0
  0
LINE
  5
13C
330
1F
100
AcDbEntity
  8
0
  6
Continuous
 62
     7
370
    25
100
AcDbLine
 10
267.158145819
 20
156.0002649652
 30
0.0
 11
257.008145819
 21
156.0002649652
 31
0.0
  0
SPLINE
  5
13D
330
1F
100
AcDbEntity
  8
0
  6
Continuous
 62
     7
370
    25
100
AcDbSpline
210
0.0
220
0.0
230
1.0
 70
     8
 71
     3
 72
    19
 73
    15
 74
     0
 42
0.00000001
 43
0.00000001
 40
0.0
 40
0.0
 40
0.0
 40
0.0
 40
0.0794374871211268
 40
0.1360898222897492
 40
0.2072564913819531
 40
0.2706003078132181
 40
0.3643476210828802
 40
0.4506472472120803
 40
0.5296153561529576
 40
0.6551679132037942
 40
0.7143823680974378
 40
0.7713566092510039
 40
0.887353044285588
 40
1.0
 40
1.0
 40
1.0
 40
1.0
 10
164.7581458189892
 20
168.4002649652201
 30
0.0
 10
164.7680041196626
 20
168.3925056365126
 30
0.0
 10
164.7848930525246
 20
168.3792125968763
 30
0.0
 10
164.9125272862115
 20
168.36028427202
 30
0.0
 10
165.0932463100429
 20
168.3420043227974
 30
0.0
 10
165.3962073679527
 20
168.3215803131016
 30
0.0
 10
165.8265126133273
 20
168.2991143111697
 30
0.0
 10
166.4158953550779
 20
168.2775658857035
 30
0.0
 10
167.2111194018275
 20
168.2563175373305
 30
0.0
 10
168.0841139339254
 20
168.2374533249054
 30
0.0
 10
168.9934236316562
 20
168.2243648205356
 30
0.0
 10
169.9274265839055
 20
168.2138780549692
 30
0.0
 10
171.1780106233856
 20
168.2033068245406
 30
0.0
 10
172.2366033222663
 20
168.2021447732465
 30
0.0
 10
172.7581458189892
 20
168.2015722592533
 30
0.0
  0
LINE
  5
13E
330
1F
100
AcDbEntity
  8
0
  6
Continuous
 62
     7
370
    25
100
AcDbLine
 10
164.758145819
 20
168.4002649652
 30
0.0
 11
164.758145819
 21
181.207227503
 31
0.0
  0
LINE
  5
13F
330
1F
100
AcDbEntity
  8
0
  6
Continuous
 62
     7
370
    25
100
AcDbLine
 10
172.758145819
 20
168.2015722593
 30
0.0
 11
238.258145819
 21
168.2015722593
 31
0.0
  0
LINE
  5
140
330
1F
100
AcDbEntity
  8
0
  6
Continuous
 62
     7
370
    25
100
AcDbLine
 10
246.258145819
 20
168.4002649652
 30
0.0
 11
246.258145819
 21
181.207227503
 31
0.0
  0
SPLINE
  5
141
330
1F
100
AcDbEntity
  8
0
  6
Continuous
 62
     7
370
    25
100
AcDbSpline
210
0.0
220
0.0
230
1.0
 70
     8
 71
     3
 72
    20
 73
    16
 74
     0
 42
0.00000001
 43
0.00000001
 40
0.0
 40
0.0
 40
0.0
 40
0.0
 40
0.1126209541732424
 40
0.1701734753413348
 40
0.2287885490102033
 40
0.3447857886150422
 40
0.4063762239510004
 40
0.4704860249520236
 40
0.5538611972108788
 40
0.6396161202834287
 40
0.7294533540068375
 40
0.7927756967500518
 40
0.8639371662372167
 40
0.92057181679996
 40
0.9999999999999999
 40
0.9999999999999999
 40
0.9999999999999999
 40
0.9999999999999999
 10
238.2581458189892
 20
168.2015722592633
 30
0.0
 10
238.7799836002546
 20
168.2021317809019
 30
0.0
 10
239.5684953781405
 20
168.2029772340634
 30
0.0
 10
240.5829095068667
 20
168.2096555885773
 30
0.0
 10
241.570257240904
 20
168.2187514482263
 30
0.0
 10
242.495430574695
 20
168.2303288106263
 30
0.0
 10
243.3319422496189
 20
168.2459875347634
 30
0.0
 10
243.9866180723965
 20
168.2610194013043
 30
0.0
 10
244.6224465930663
 20
168.278907827303
 30
0.0
 10
245.2055310722003
 20
168.3005192042063
 30
0.0
 10
245.625204774296
 20
168.3218111339981
 30
0.0
 10
245.9230430873238
 20
168.3420342186278
 30
0.0
 10
246.1037511112107
 20
168.3602761435904
 30
0.0
 10
246.231396534039
 20
168.3792146221128
 30
0.0
 10
246.2482862566954
 20
168.3925059851368
 30
0.0
 10
246.2581458189892
 20
168.4002649652201
 30
0.0
  0
LINE
  5
142
330
1F
100
AcDbEntity
  8
0
  6
Continuous
 62
     7
370
    25
100
AcDbLine
 10
164.758145819
 20
168.4002649652
 30
0.0
 11
165.1045559805
 21
168.2002649652
 31
0.0
  0
LINE
  5
143
330
1F
100
AcDbEntity
  8
0
  6
Continuous
 62
     7
370
    25
100
AcDbLine
 10
245.9117356575
 20
168.2002649652
 30
0.0
 11
246.258145819
 21
168.4002649652
 31
0.0
  0
SPLINE
  5
144
330
1F
100
AcDbEntity
  8
0
  6
Continuous
 62
     7
370
    25
100
AcDbSpline
210
0.0
220
0.0
230
1.0
 70
     8
 71
     3
 72
    12
 73
     8
 74
     0
 42
0.00000001
 43
0.00000001
 40
0.0
 40
0.0
 40
0.0
 40
0.0
 40
0.1888045511790598
 40
0.3741006348802766
 40
0.5601229132647
 40
0.7782950916834096
 40
1.0
 40
1.0
 40
1.0
 40
1.0
 10
117.5081458189891
 20
254.5558410779064
 30
0.0
 10
117.0357893220508
 20
254.5402977918344
 30
0.0
 10
116.099853910055
 20
254.5095000533725
 30
0.0
 10
114.7778046138222
 20
254.2010332125164
 30
0.0
 10
113.6532195604518
 20
253.6354163318796
 30
0.0
 10
112.9193146378133
 20
252.8111177838462
 30
0.0
 10
112.8453999658211
 20
252.1787533557987
 30
0.0
 10
112.8081458189891
 20
251.8600318270564
 30
0.0
  0
LINE
  5
145
330
1F
100
AcDbEntity
  8
0
  6
Continuous
 62
     7
370
    25
100
AcDbLine
 10
205.508145819
 20
254.5558410779
 30
0.0
 11
117.508145819
 21
254.5558410779
 31
0.0
  0
LINE
  5
146
330
1F
100
AcDbEntity
  8
0
  6
Continuous
 62
     7
370
    25
100
AcDbLine
 10
205.508145819
 20
254.5558410779
 30
0.0
 11
293.508145819
 21
254.5558410779
 31
0.0
  0
SPLINE
  5
147
330
1F
100
AcDbEntity
  8
0
  6
Continuous
 62
     7
370
    25
100
AcDbSpline
210
0.0
220
0.0
230
1.0
 70
     8
 71
     3
 72
    12
 73
     8
 74
     0
 42
0.00000001
 43
0.00000001
 40
0.0
 40
0.0
 40
0.0
 40
0.0
 40
0.1888045511790598
 40
0.3741006348802766
 40
0.5601229132647
 40
0.7782950916834096
 40
1.0
 40
1.0
 40
1.0
 40
1.0
 10
293.5081458189891
 20
254.5558410779064
 30
0.0
 10
293.9805023159275
 20
254.5402977918344
 30
0.0
 10
294.9164377279233
 20
254.5095000533725
 30
0.0
 10
296.2384870241561
 20
254.2010332125164
 30
0.0
 10
297.3630720775265
 20
253.6354163318796
 30
0.0
 10
298.096977000165
 20
252.8111177838462
 30
0.0
 10
298.1708916721572
 20
252.1787533557987
 30
0.0
 10
298.2081458189891
 20
251.8600318270564
 30
0.0
  0
LINE
  5
148
330
1F
100
AcDbEntity
  8
0
  6
Continuous
 62
     7
370
    25
100
AcDbLine
 10
298.208145819
 20
251.8600318271
 30
0.0
 11
298.208145819
 21
221.4031230568
 31
0.0
  0
LINE
  5
149
330
1F
100
AcDbEntity
  8
0
  6
Continuous
 62
     7
370
    25
100
AcDbLine
 10
298.208145819
 20
190.9462142866
 30
0.0
 11
298.208145819
 21
221.4031230568
 31
0.0
  0
SPLINE
  5
14A
330
1F
100
AcDbEntity
  8
0
  6
Continuous
 62
     7
370
    25
100
AcDbSpline
210
0.0
220
0.0
230
1.0
 70
     8
 71
     3
 72
    12
 73
     8
 74
     0
 42
0.00000001
 43
0.00000001
 40
0.0
 40
0.0
 40
0.0
 40
0.0
 40
0.1888045511790598
 40
0.3741006348802778
 40
0.5601229132647016
 40
0.7782950916834109
 40
1.0
 40
1.0
 40
1.0
 40
1.0
 10
293.5081458189891
 20
188.2504050357253
 30
0.0
 10
293.9805023159274
 20
188.2659483217973
 30
0.0
 10
294.9164377279233
 20
188.2967460602592
 30
0.0
 10
296.2384870241561
 20
188.6052129011153
 30
0.0
 10
297.3630720775265
 20
189.1708297817521
 30
0.0
 10
298.096977000165
 20
189.9951283297854
 30
0.0
 10
298.1708916721572
 20
190.627492757833
 30
0.0
 10
298.2081458189891
 20
190.9462142865752
 30
0.0
  0
LINE
  5
14B
330
1F
100
AcDbEntity
  8
0
  6
Continuous
 62
     7
370
    25
100
AcDbLine
 10
205.508145819
 20
188.2504050357
 30
0.0
 11
293.508145819
 21
188.2504050357
 31
0.0
  0
LINE
  5
14C
330
1F
100
AcDbEntity
  8
0
  6
Continuous
 62
     7
370
    25
100
AcDbLine
 10
205.508145819
 20
188.2504050357
 30
0.0
 11
117.508145819
 21
188.2504050357
 31
0.0
  0
SPLINE
  5
14D
330
1F
100
AcDbEntity
  8
0
  6
Continuous
 62
     7
370
    25
100
AcDbSpline
210
0.0
220
0.0
230
1.0
 70
     8
 71
     3
 72
    12
 73
     8
 74
     0
 42
0.00000001
 43
0.00000001
 40
0.0
 40
0.0
 40
0.0
 40
0.0
 40
0.1888045511790598
 40
0.3741006348802778
 40
0.5601229132647016
 40
0.7782950916834109
 40
1.0
 40
1.0
 40
1.0
 40
1.0
 10
117.5081458189891
 20
188.2504050357253
 30
0.0
 10
117.0357893220508
 20
188.2659483217973
 30
0.0
 10
116.099853910055
 20
188.2967460602592
 30
0.0
 10
114.7778046138222
 20
188.6052129011153
 30
0.0
 10
113.6532195604518
 20
189.1708297817521
 30
0.0
 10
112.9193146378133
 20
189.9951283297854
 30
0.0
 10
112.8453999658211
 20
190.627492757833
 30
0.0
 10
112.8081458189891
 20
190.9462142865752
 30
0.0
  0
LINE
  5
14E
330
1F
100
AcDbEntity
  8
0
  6
Continuous
 62
     7
370
    25
100
AcDbLine
 10
112.808145819
 20
190.9462142866
 30
0.0
 11
112.808145819
 21
221.4031230568
 31
0.0
  0
LINE
  5
14F
330
1F
100
AcDbEntity
  8
0
  6
Continuous
 62
     7
370
    25
100
AcDbLine
 10
112.808145819
 20
251.8600318271
 30
0.0
 11
112.808145819
 21
221.4031230568
 31
0.0
  0
LWPOLYLINE
  5
150
330
1F
100
AcDbEntity
  8
0
  6
Continuous
 62
     7
370
    25
100
AcDbPolyline
 90
        9
 70
   128
 43
0.0
 10
117.268145819
 20
188.764169701
 10
116.5727895486
 20
188.8034520095
 10
115.9041554297
 20
188.919789338
 10
115.2879386965
 20
189.1087109081
 10
114.7478202126
 20
189.3629565699
 10
114.3045564283
 20
189.6727558051
 10
113.9751817222
 20
190.0262032029
 10
113.7723537797
 20
190.4097159781
 10
113.7038671648
 20
190.8085559496
  0
LINE
  5
151
330
1F
100
AcDbEntity
  8
0
  6
Continuous
 62
     7
370
    25
100
AcDbLine
 10
293.748145819
 20
188.7641697011
 30
0.0
 11
117.268145819
 21
188.764169701
 31
0.0
  0
LWPOLYLINE
  5
152
330
1F
100
AcDbEntity
  8
0
  6
Continuous
 62
     7
370
    25
100
AcDbPolyline
 90
        9
 70
   128
 43
0.0
 10
297.3124244732
 20
190.8085559496
 10
297.2439378583
 20
190.4097159781
 10
297.0411099158
 20
190.0262032029
 10
296.7117352097
 20
189.6727558051
 10
296.2684714254
 20
189.3629565699
 10
295.7283529415
 20
189.1087109081
 10
295.1121362083
 20
188.919789338
 10
294.4435020894
 20
188.8034520095
 10
293.748145819
 20
188.7641697011
  0
SPLINE
  5
153
330
1F
100
AcDbEntity
  8
0
  6
Continuous
 62
     7
370
    25
100
AcDbSpline
210
0.0
220
0.0
230
1.0
 70
     8
 71
     3
 72
     9
 73
     5
 74
     0
 42
0.00000001
 43
0.00000001
 40
0.0
 40
0.0
 40
0.0
 40
0.0
 40
0.1080735274003946
 40
1.0
 40
1.0
 40
1.0
 40
1.0
 10
298.1476119169301
 20
190.4028153321692
 30
0.0
 10
298.153660214916
 20
190.4218840376953
 30
0.0
 10
298.2096248727875
 20
190.5983260025758
 30
0.0
 10
298.2088431014978
 20
190.7822064487971
 30
0.0
 10
298.2081458189891
 20
190.9462142865752
 30
0.0
  0
LWPOLYLINE
  5
154
330
1F
100
AcDbEntity
  8
0
  6
Continuous
 62
     7
370
    25
100
AcDbPolyline
 90
        9
 70
   128
 43
0.0
 10
117.268145819
 20
188.8152331131
 10
116.5727895486
 20
188.8545154216
 10
115.9041554297
 20
188.9708527501
 10
115.2879386966
 20
189.1597743202
 10
114.7478202126
 20
189.414019982
 10
114.3045564283
 20
189.7238192172
 10
113.9751817223
 20
190.077266615
 10
113.7723537797
 20
190.4607793902
 10
113.7038671648
 20
190.8596193617
  0
LWPOLYLINE
  5
155
330
1F
100
AcDbEntity
  8
0
  6
Continuous
 62
     7
370
    25
100
AcDbPolyline
 90
        9
 70
   128
 43
0.0
 10
297.3124244732
 20
190.8596193617
 10
297.2439378583
 20
190.4607793902
 10
297.0411099158
 20
190.077266615
 10
296.7117352097
 20
189.7238192172
 10
296.2684714254
 20
189.414019982
 10
295.7283529415
 20
189.1597743202
 10
295.1121362083
 20
188.9708527501
 10
294.4435020894
 20
188.8545154216
 10
293.748145819
 20
188.8152331132
  0
LINE
  5
156
330
1F
100
AcDbEntity
  8
0
  6
Continuous
 62
     7
370
    25
100
AcDbLine
 10
293.748145819
 20
188.8152331132
 30
0.0
 11
117.268145819
 21
188.8152331131
 31
0.0
  0
LINE
  5
157
330
1F
100
AcDbEntity
  8
0
  6
Continuous
 62
     7
370
    25
100
AcDbLine
 10
297.3124244732
 20
190.8085559496
 30
0.0
 11
297.3124244732
 21
190.8596193617
 31
0.0
  0
LINE
  5
158
330
1F
100
AcDbEntity
  8
0
  6
Continuous
 62
     7
370
    25
100
AcDbLine
 10
113.7038671648
 20
190.8085559496
 30
0.0
 11
113.7038671648
 21
190.8596193617
 31
0.0
  0
LINE
  5
159
330
1F
100
AcDbEntity
  8
0
  6
Continuous
 62
     7
370
    25
100
AcDbLine
 10
129.748145819
 20
194.7316487611
 30
0.0
 11
281.268145819
 21
194.7316487611
 31
0.0
  0
LINE
  5
15A
330
1F
100
AcDbEntity
  8
0
  6
Continuous
 62
     7
370
    25
100
AcDbLine
 10
281.268145819
 20
194.7316487611
 30
0.0
 11
281.268145819
 21
249.2214102145
 31
0.0
  0
LINE
  5
15B
330
1F
100
AcDbEntity
  8
0
  6
Continuous
 62
     7
370
    25
100
AcDbLine
 10
281.268145819
 20
249.2214102145
 30
0.0
 11
129.748145819
 21
249.2214102145
 31
0.0
  0
LINE
  5
15C
330
1F
100
AcDbEntity
  8
0
  6
Continuous
 62
     7
370
    25
100
AcDbLine
 10
129.748145819
 20
249.2214102145
 30
0.0
 11
129.748145819
 21
194.7316487611
 31
0.0
  0
LINE
  5
15D
330
1F
100
AcDbEntity
  8
0
  6
Continuous
 62
     7
370
    25
100
AcDbLine
 10
283.008145819
 20
183.8352265186
 30
0.0
 11
293.008145819
 21
183.8352265186
 31
0.0
  0
LINE
  5
15E
330
1F
100
AcDbEntity
  8
0
  6
Continuous
 62
     7
370
    25
100
AcDbLine
 10
283.008145819
 20
183.8352265186
 30
0.0
 11
128.008145819
 21
183.8352265186
 31
0.0
  0
LINE
  5
15F
330
1F
100
AcDbEntity
  8
0
  6
Continuous
 62
     7
370
    25
100
AcDbLine
 10
128.008145819
 20
183.8352265186
 30
0.0
 11
118.008145819
 21
183.8352265186
 31
0.0
  0
LINE
  5
160
330
1F
100
AcDbEntity
  8
0
  6
Continuous
 62
     7
370
    25
100
AcDbLine
 10
293.008145819
 20
185.063954585
 30
0.0
 11
118.008145819
 21
185.063954585
 31
0.0
  0
LINE
  5
161
330
1F
100
AcDbEntity
  8
0
  6
Continuous
 62
     7
370
    25
100
AcDbLine
 10
298.008145819
 20
186.7031087004
 30
0.0
 11
298.008145819
 21
187.9318367668
 31
0.0
  0
SPLINE
  5
162
330
1F
100
AcDbEntity
  8
0
  6
Continuous
 62
     7
370
    25
100
AcDbSpline
210
0.0
220
0.0
230
1.0
 70
     8
 71
     3
 72
    15
 73
    11
 74
     0
 42
0.00000001
 43
0.00000001
 40
0.0
 40
0.0
 40
0.0
 40
0.0
 40
0.1249999999999998
 40
0.2499999999999991
 40
0.375000000000001
 40
0.5000000000000004
 40
0.6250000000000003
 40
0.7500000000000013
 40
0.875000000000002
 40
1.0
 40
1.0
 40
1.0
 40
1.0
 10
293.0081458189891
 20
183.8352265186123
 30
0.0
 10
293.3353933279794
 20
183.8458999493728
 30
0.0
 10
293.98988834596
 20
183.8672468108938
 30
0.0
 10
294.9338853715894
 20
184.0377786612403
 30
0.0
 10
295.8039480525698
 20
184.3028248500853
 30
0.0
 10
296.5663043226542
 20
184.6622328258631
 30
0.0
 10
297.1929130063448
 20
185.099502418488
 30
0.0
 10
297.6550069349781
 20
185.5985498704468
 30
0.0
 10
297.9523201430161
 20
186.1400043203332
 30
0.0
 10
297.9895372603315
 20
186.5154072403561
 30
0.0
 10
298.0081458189891
 20
186.7031087003675
 30
0.0
  0
LWPOLYLINE
  5
163
330
1F
100
AcDbEntity
  8
0
  6
Continuous
 62
     7
370
    25
100
AcDbPolyline
 90
        9
 70
   128
 43
0.0
 10
293.008145819
 20
185.063954585
 10
293.9835974291
 20
185.119060137
 10
294.9215629808
 20
185.2822591174
 10
295.7859969841
 20
185.547279881
 10
296.5436797249
 20
185.9039378284
 10
297.1654938805
 20
186.3385267948
 10
297.6275434815
 20
186.8343457699
 10
297.912072221
 20
187.3723407085
 10
298.008145819
 20
187.9318367668
  0
SPLINE
  5
164
330
1F
100
AcDbEntity
  8
0
  6
Continuous
 62
     7
370
    25
100
AcDbSpline
210
0.0
220
0.0
230
1.0
 70
     8
 71
     3
 72
    15
 73
    11
 74
     0
 42
0.00000001
 43
0.00000001
 40
0.0
 40
0.0
 40
0.0
 40
0.0
 40
0.1249999999999999
 40
0.2499999999999995
 40
0.375000000000001
 40
0.5000000000000006
 40
0.6249999999999987
 40
0.7499999999999977
 40
0.8749999999999983
 40
1.0
 40
1.0
 40
1.0
 40
1.0
 10
118.0081458189891
 20
183.8352265186123
 30
0.0
 10
117.6808983099989
 20
183.8458999493728
 30
0.0
 10
117.0264032920182
 20
183.8672468108938
 30
0.0
 10
116.0824062663889
 20
184.0377786612403
 30
0.0
 10
115.2123435854085
 20
184.3028248500853
 30
0.0
 10
114.4499873153241
 20
184.6622328258632
 30
0.0
 10
113.8233786316336
 20
185.099502418488
 30
0.0
 10
113.3612847030001
 20
185.5985498704468
 30
0.0
 10
113.0639714949622
 20
186.1400043203333
 30
0.0
 10
113.0267543776468
 20
186.5154072403561
 30
0.0
 10
113.0081458189891
 20
186.7031087003675
 30
0.0
  0
LINE
  5
165
330
1F
100
AcDbEntity
  8
0
  6
Continuous
 62
     7
370
    25
100
AcDbLine
 10
113.008145819
 20
186.7031087004
 30
0.0
 11
113.008145819
 21
187.9318367668
 31
0.0
  0
LWPOLYLINE
  5
166
330
1F
100
AcDbEntity
  8
0
  6
Continuous
 62
     7
370
    25
100
AcDbPolyline
 90
        9
 70
   128
 43
0.0
 10
118.008145819
 20
185.063954585
 10
117.0326942089
 20
185.119060137
 10
116.0947286572
 20
185.2822591174
 10
115.2302946539
 20
185.547279881
 10
114.4726119131
 20
185.9039378284
 10
113.8507977575
 20
186.3385267948
 10
113.3887481564
 20
186.8343457699
 10
113.104219417
 20
187.3723407085
 10
113.008145819
 20
187.9318367668
  0
LINE
  5
167
330
1F
100
AcDbEntity
  8
0
  6
Continuous
 62
     7
370
    25
100
AcDbLine
 10
298.008145819
 20
189.8504180344
 30
0.0
 11
298.008145819
 21
187.9318367668
 31
0.0
  0
LINE
  5
168
330
1F
100
AcDbEntity
  8
0
  6
Continuous
 62
     7
370
    25
100
AcDbLine
 10
113.008145819
 20
189.7258999835
 30
0.0
 11
113.008145819
 21
187.9318367668
 31
0.0
  0
LINE
  5
169
330
1F
100
AcDbEntity
  8
0
  6
Continuous
 62
     7
370
    25
100
AcDbLine
 10
113.7038671648
 20
190.8596193617
 30
0.0
 11
113.7038671648
 21
252.0487535917
 31
0.0
  0
LINE
  5
16A
330
1F
100
AcDbEntity
  8
0
  6
Continuous
 62
     7
370
    25
100
AcDbLine
 10
297.3124244731
 20
252.0487535917
 30
0.0
 11
297.3124244732
 21
190.8596193617
 31
0.0
  0
LINE
  5
16B
330
1F
100
AcDbEntity
  8
0
  6
Continuous
 62
     7
370
    25
100
AcDbLine
 10
284.6387369093
 20
181.5216014614
 30
0.0
 11
283.008145819
 21
181.354232857
 31
0.0
  0
LINE
  5
16C
330
1F
100
AcDbEntity
  8
0
  6
Continuous
 62
     7
370
    25
100
AcDbLine
 10
126.3775547287
 20
181.5216014614
 30
0.0
 11
128.008145819
 21
181.354232857
 31
0.0
  0
LINE
  5
16D
330
1F
100
AcDbEntity
  8
0
  6
Continuous
 62
     7
370
    25
100
AcDbLine
 10
128.008145819
 20
181.354232857
 30
0.0
 11
283.008145819
 21
181.354232857
 31
0.0
  0
LINE
  5
16E
330
1F
100
AcDbEntity
  8
0
  6
Continuous
 62
     7
370
    25
100
AcDbLine
 10
281.268145819
 20
249.1804526123
 30
0.0
 11
129.748145819
 21
249.1804526123
 31
0.0
  0
SPLINE
  5
16F
330
1F
100
AcDbEntity
  8
0
  6
Continuous
 62
     7
370
    25
100
AcDbSpline
210
0.0
220
0.0
230
1.0
 70
     8
 71
     3
 72
     9
 73
     5
 74
     0
 42
0.00000001
 43
0.00000001
 40
0.0
 40
0.0
 40
0.0
 40
0.0
 40
0.1199851918767269
 40
1.0
 40
1.0
 40
1.0
 40
1.0
 10
284.8865796400736
 20
181.5555016687131
 30
0.0
 10
284.8224030055551
 20
181.5296701644642
 30
0.0
 10
284.287531714234
 20
181.3143810621607
 30
0.0
 10
283.6070126647364
 20
181.3007756557883
 30
0.0
 10
283.0081458239686
 20
181.2888026967101
 30
0.0
  0
LINE
  5
170
330
1F
100
AcDbEntity
  8
0
  6
Continuous
 62
     7
370
    25
100
AcDbLine
 10
128.008145814
 20
181.2888026967
 30
0.0
 11
283.008145824
 21
181.2888026967
 31
0.0
  0
SPLINE
  5
171
330
1F
100
AcDbEntity
  8
0
  6
Continuous
 62
     7
370
    25
100
AcDbSpline
210
0.0
220
0.0
230
1.0
 70
     8
 71
     3
 72
     9
 73
     5
 74
     0
 42
0.00000001
 43
0.00000001
 40
0.0
 40
0.0
 40
0.0
 40
0.0
 40
0.1199851918767199
 40
1.0
 40
1.0
 40
1.0
 40
1.0
 10
126.1297119979046
 20
181.5555016687131
 30
0.0
 10
126.1938886324232
 20
181.5296701644642
 30
0.0
 10
126.7287599237443
 20
181.3143810621607
 30
0.0
 10
127.4092789732419
 20
181.3007756557884
 30
0.0
 10
128.0081458140097
 20
181.2888026967101
 30
0.0
  0
LINE
  5
172
330
1F
100
AcDbEntity
  8
0
  6
Continuous
 62
     7
370
    25
100
AcDbLine
 10
282.158145819
 20
181.207227503
 30
0.0
 11
282.6083902695
 21
181.2486729555
 31
0.0
  0
LINE
  5
173
330
1F
100
AcDbEntity
  8
0
  6
Continuous
 62
     7
370
    25
100
AcDbLine
 10
128.0081458185
 20
181.2888026968
 30
0.0
 11
128.858145819
 21
181.207227503
 31
0.0
  0
LINE
  5
174
330
1F
100
AcDbEntity
  8
0
  6
Continuous
 62
     7
370
    25
100
AcDbLine
 10
128.858145819
 20
181.207227503
 30
0.0
 11
282.158145819
 21
181.207227503
 31
0.0
  0
LINE
  5
175
330
1F
100
AcDbEntity
  8
0
  6
Continuous
 62
     7
370
    25
100
AcDbLine
 10
128.4131478647
 20
181.2550520349
 30
0.0
 11
128.858145819
 21
181.207227503
 31
0.0
  0
ARC
  5
176
330
1F
100
AcDbEntity
  8
0
  6
Continuous
 62
     7
370
    25
100
AcDbCircle
 10
295.8668683522
 20
251.9906486425
 30
0.0
 40
1.44672343033061
100
AcDbArc
 50
2.3017972699
 51
44.4579826613
  0
ARC
  5
177
330
1F
100
AcDbEntity
  8
0
  6
Continuous
 62
     7
370
    25
100
AcDbCircle
 10
115.1375628553
 20
251.9937866956
 30
0.0
 40
1.434748999839575
100
AcDbArc
 50
136.9772634096
 51
177.8043949985
  0
DIMENSION
  5
178
330
1F
100
AcDbEntity
  8
SLD-0
 62
     7
100
AcDbDimension
  2
_D
 10
330.208170819
 20
156.0002649652
 30
0.0
 11
330.208170819
 21
204.8169788516
 31
0.0
 70
   160
  1
<>
 71
     2
 42
-1.0
  3
SLDDIMSTYLE0
100
AcDbAlignedDimension
 13
293.508145819
 23
254.5558410779
 33
0.0
 14
267.158145819
 24
156.0002649652
 34
0.0
 50
90.0
100
AcDbRotatedDimension
  0
DIMENSION
  5
18D
330
1F
100
AcDbEntity
  8
SLD-0
 62
     7
100
AcDbDimension
  2
_D_1
 10
315.8006166924
 20
156.0002649652
 30
0.0
 11
315.8006166924
 21
170.4674475377
 31
0.0
 70
   160
  1
<>
 71
     2
 42
-1.0
  3
SLDDIMSTYLE1
100
AcDbAlignedDimension
 13
282.158145819
 23
181.207227503
 33
0.0
 14
267.158145819
 24
156.0002649652
 34
0.0
 50
90.0
100
AcDbRotatedDimension
  0
DIMENSION
  5
1A2
330
1F
100
AcDbEntity
  8
SLD-0
 62
     7
100
AcDbDimension
  2
_D_2
 10
280.758145819
 20
131.4649681201
 30
0.0
 11
202.876930824
 21
131.4649681201
 31
0.0
 70
   160
  1
<>
 71
     2
 42
-1.0
  3
SLDDIMSTYLE0
100
AcDbAlignedDimension
 13
130.258145819
 23
157.7002649652
 33
0.0
 14
280.758145819
 24
157.7002649652
 34
0.0
100
AcDbRotatedDimension
  0
DIMENSION
  5
1B6
330
1F
100
AcDbEntity
  8
SLD-0
 62
     7
100
AcDbDimension
  2
_D_3
 10
112.808145819
 20
102.6240255082
 30
0.0
 11
202.876930824
 21
102.6240255082
 31
0.0
 70
   160
  1
<>
 71
     2
 42
-1.0
  3
SLDDIMSTYLE0
100
AcDbAlignedDimension
 13
298.208145819
 23
190.9462142866
 33
0.0
 14
112.808145819
 24
190.9462142866
 34
0.0
100
AcDbRotatedDimension
  0
LINE
  5
1CC
330
1F
100
AcDbEntity
  8
SLD-0
  6
CENTERX2
 62
     7
370
    18
100
AcDbLine
 10
205.508145819
 20
144.6901096801
 30
0.0
 11
205.508145819
 21
262.2211095424
 31
0.0
  0
LINE
  5
1CD
330
1F
100
AcDbEntity
  8
0
  6
Continuous
 62
     7
370
    25
100
AcDbLine
 10
293.508145819
 20
433.0699441249
 30
0.0
 11
205.508145819
 21
433.0699441249
 31
0.0
  0
SPLINE
  5
1CE
330
1F
100
AcDbEntity
  8
0
  6
Continuous
 62
     7
370
    25
100
AcDbSpline
210
0.0
220
0.0
230
1.0
 70
     8
 71
     3
 72
    13
 73
     9
 74
     0
 42
0.00000001
 43
0.00000001
 40
0.0
 40
0.0
 40
0.0
 40
0.0
 40
0.24640128300579
 40
0.3684259440068999
 40
0.4917672838318546
 40
0.616443869541234
 40
0.7421533421712763
 40
0.9999999999999999
 40
0.9999999999999999
 40
0.9999999999999999
 40
0.9999999999999999
 10
117.5081458189894
 20
433.0699441249125
 30
0.0
 10
116.9083915028834
 20
433.0309670471959
 30
0.0
 10
116.0116224301413
 20
432.9726874535298
 30
0.0
 10
114.9082453205092
 20
432.5251232542693
 30
0.0
 10
114.1779395707875
 20
432.0449722973056
 30
0.0
 10
113.592694757943
 20
431.421369594998
 30
0.0
 10
113.0201505878465
 20
430.4412791828678
 30
0.0
 10
112.9263091244434
 20
429.6134415587566
 30
0.0
 10
112.8632239439894
 20
429.0569254515921
 30
0.0
  0
LINE
  5
1CF
330
1F
100
AcDbEntity
  8
0
  6
Continuous
 62
     7
370
    25
100
AcDbLine
 10
205.508145819
 20
433.0699441249
 30
0.0
 11
117.508145819
 21
433.0699441249
 31
0.0
  0
SPLINE
  5
1D0
330
1F
100
AcDbEntity
  8
0
  6
Continuous
 62
     7
370
    25
100
AcDbSpline
210
0.0
220
0.0
230
1.0
 70
     8
 71
     3
 72
    12
 73
     8
 74
     0
 42
0.00000001
 43
0.00000001
 40
0.0
 40
0.0
 40
0.0
 40
0.0
 40
0.2580127862592401
 40
0.3856104124010658
 40
0.5116644726551591
 40
0.7562319794511135
 40
1.0
 40
1.0
 40
1.0
 40
1.0
 10
298.1385911945703
 20
429.4542297052889
 30
0.0
 10
298.0071580201578
 20
429.9829833983443
 30
0.0
 10
297.8107258924202
 20
430.7732269075664
 30
0.0
 10
297.1537168519697
 20
431.6522215944145
 30
0.0
 10
296.3546232938451
 20
432.3690664471774
 30
0.0
 10
295.0982622045573
 20
432.9653000901956
 30
0.0
 10
294.0376057906934
 20
433.0351008718255
 30
0.0
 10
293.5081458189894
 20
433.0699441249125
 30
0.0
  0
SPLINE
  5
1D1
330
1F
100
AcDbEntity
  8
0
  6
Continuous
 62
     7
370
    25
100
AcDbSpline
210
0.0
220
0.0
230
1.0
 70
     8
 71
     3
 72
     9
 73
     5
 74
     0
 42
0.00000001
 43
0.00000001
 40
0.0
 40
0.0
 40
0.0
 40
0.0
 40
0.4662472983389416
 40
1.0
 40
1.0
 40
1.0
 40
1.0
 10
128.0081458189893
 20
435.5741657657738
 30
0.0
 10
126.9465426279946
 20
435.5597648846464
 30
0.0
 10
124.6696325101735
 20
435.5288780973584
 30
0.0
 10
122.3689912422672
 20
435.5049040480551
 30
0.0
 10
121.1410177499693
 20
435.4921078344697
 30
0.0
  0
SPLINE
  5
1D2
330
1F
100
AcDbEntity
  8
0
  6
Continuous
 62
     7
370
    25
100
AcDbSpline
210
0.0
220
0.0
230
1.0
 70
     8
 71
     3
 72
     9
 73
     5
 74
     0
 42
0.00000001
 43
0.00000001
 40
0.0
 40
0.0
 40
0.0
 40
0.0
 40
0.5337527016610584
 40
1.0
 40
1.0
 40
1.0
 40
1.0
 10
289.8752738880094
 20
435.4921078344697
 30
0.0
 10
288.6473003957115
 20
435.5049040480551
 30
0.0
 10
286.3466591278052
 20
435.5288780973584
 30
0.0
 10
284.069749009984
 20
435.5597648846464
 30
0.0
 10
283.0081458189894
 20
435.5741657657738
 30
0.0
  0
LINE
  5
1D3
330
1F
100
AcDbEntity
  8
0
  6
Continuous
 62
     7
370
    25
100
AcDbLine
 10
283.008145819
 20
435.5742225188
 30
0.0
 11
128.008145819
 21
435.5742225188
 31
0.0
  0
SPLINE
  5
1D4
330
1F
100
AcDbEntity
  8
0
  6
Continuous
 62
     7
370
    25
100
AcDbSpline
210
0.0
220
0.0
230
1.0
 70
     8
 71
     3
 72
    10
 73
     6
 74
     0
 42
0.00000001
 43
0.00000001
 40
0.0
 40
0.0
 40
0.0
 40
0.0
 40
0.0544050999841153
 40
0.5778015059956606
 40
1.0
 40
1.0
 40
1.0
 40
1.0
 10
115.8070706424451
 20
338.7936267257334
 30
0.0
 10
115.8312457137077
 20
338.7823418316183
 30
0.0
 10
116.087993566155
 20
338.6624922436818
 30
0.0
 10
116.5862355797045
 20
338.5595342474368
 30
0.0
 10
117.0576251625494
 20
338.5459845012608
 30
0.0
 10
117.2680958111993
 20
338.5399346775683
 30
0.0
  0
LINE
  5
1D5
330
1F
100
AcDbEntity
  8
0
  6
Continuous
 62
     7
370
    25
100
AcDbLine
 10
117.268145819
 20
338.5281566203
 30
0.0
 11
293.748145819
 21
338.5281566203
 31
0.0
  0
LINE
  5
1D6
330
1F
100
AcDbEntity
  8
0
  6
Continuous
 62
     7
370
    25
100
AcDbLine
 10
164.758145819
 20
445.4480380116
 30
0.0
 11
164.758145819
 21
435.5742225188
 31
0.0
  0
LWPOLYLINE
  5
1D7
330
1F
100
AcDbEntity
  8
0
  6
Continuous
 62
     7
370
    25
100
AcDbPolyline
 90
       11
 70
   128
 43
0.0
 10
172.758145819
 20
452.0012543659
 10
171.5066700987
 20
451.9205733981
 10
170.286009864
 20
451.680517128
 10
169.1262218211
 20
451.2869965377
 10
168.0558638006
 20
450.74970141
 10
167.1012915695
 20
450.0818617343
 10
166.286009864
 20
449.2999219397
 10
165.6300936255
 20
448.4231359792
 10
165.1496936886
 20
447.4730932329
 10
164.8566390942
 20
446.4731869063
 10
164.758145819
 20
445.4480380116
  0
LWPOLYLINE
  5
1D8
330
1F
100
AcDbEntity
  8
0
  6
Continuous
 62
     7
370
    25
100
AcDbPolyline
 90
       11
 70
   128
 43
0.0
 10
246.258145819
 20
445.4480380116
 10
246.1596525438
 20
446.4731869063
 10
245.8665979494
 20
447.4730932329
 10
245.3861980125
 20
448.4231359792
 10
244.730281774
 20
449.2999219397
 10
243.9150000685
 20
450.0818617343
 10
242.9604278373
 20
450.74970141
 10
241.8900698169
 20
451.2869965377
 10
240.730281774
 20
451.680517128
 10
239.5096215393
 20
451.9205733981
 10
238.258145819
 20
452.0012543659
  0
LINE
  5
1D9
330
1F
100
AcDbEntity
  8
0
  6
Continuous
 62
     7
370
    25
100
AcDbLine
 10
246.258145819
 20
445.4480380116
 30
0.0
 11
246.258145819
 21
435.5742225188
 31
0.0
  0
LINE
  5
1DA
330
1F
100
AcDbEntity
  8
0
  6
Continuous
 62
     7
370
    25
100
AcDbLine
 10
238.258145819
 20
452.0012543659
 30
0.0
 11
172.758145819
 21
452.0012543659
 31
0.0
  0
SPLINE
  5
1DB
330
1F
100
AcDbEntity
  8
0
  6
Continuous
 62
     7
370
    25
100
AcDbSpline
210
0.0
220
0.0
230
1.0
 70
     8
 71
     3
 72
     9
 73
     5
 74
     0
 42
0.00000001
 43
0.00000001
 40
0.0
 40
0.0
 40
0.0
 40
0.0
 40
0.594876807672249
 40
0.9999999999999999
 40
0.9999999999999999
 40
0.9999999999999999
 40
0.9999999999999999
 10
163.479753082012
 20
435.5742225188311
 30
0.0
 10
163.6410346579846
 20
436.1975745294983
 30
0.0
 10
163.9121522640042
 20
437.2454419242727
 30
0.0
 10
164.5142301171096
 20
438.1402170114802
 30
0.0
 10
164.7581458189894
 20
438.502711151225
 30
0.0
  0
SPLINE
  5
1DC
330
1F
100
AcDbEntity
  8
0
  6
Continuous
 62
     7
370
    25
100
AcDbSpline
210
0.0
220
0.0
230
1.0
 70
     8
 71
     3
 72
    10
 73
     6
 74
     0
 42
0.00000001
 43
0.00000001
 40
0.0
 40
0.0
 40
0.0
 40
0.0
 40
0.3410104618541516
 40
0.9971863043624154
 40
0.9999999999999999
 40
0.9999999999999999
 40
0.9999999999999999
 40
0.9999999999999999
 10
246.2581458189895
 20
438.4841604811589
 30
0.0
 10
246.4637661375406
 20
438.1845239796212
 30
0.0
 10
247.0650431905759
 20
437.3083238360954
 30
0.0
 10
247.4680781447362
 20
436.2765379697019
 30
0.0
 10
247.5445616359606
 20
435.5772084545586
 30
0.0
 10
247.5448881984523
 20
435.5742225188312
 30
0.0
  0
LINE
  5
1DD
330
1F
100
AcDbEntity
  8
0
  6
Continuous
 62
     7
370
    25
100
AcDbLine
 10
130.258145819
 20
435.5742225188
 30
0.0
 11
130.258145819
 21
444.6312084882
 31
0.0
  0
SPLINE
  5
1DE
330
1F
100
AcDbEntity
  8
0
  6
Continuous
 62
     7
370
    25
100
AcDbSpline
210
0.0
220
0.0
230
1.0
 70
     8
 71
     3
 72
    15
 73
    11
 74
     0
 42
0.00000001
 43
0.00000001
 40
0.0
 40
0.0
 40
0.0
 40
0.0
 40
0.1249999999999969
 40
0.2499999999999972
 40
0.3749999999999978
 40
0.4999999999999983
 40
0.6249999999999992
 40
0.7499999999999992
 40
0.8749999999999994
 40
1.0
 40
1.0
 40
1.0
 40
1.0
 10
130.2581458189895
 20
444.6312084882188
 30
0.0
 10
130.3028063597678
 20
445.4166025097957
 30
0.0
 10
130.3921274413244
 20
446.9873905529493
 30
0.0
 10
131.1056791406153
 20
449.25298341446
 30
0.0
 10
132.2147045693355
 20
451.3411338488133
 30
0.0
 10
133.7185654101928
 20
453.1707888970161
 30
0.0
 10
135.5482204583953
 20
454.6746497378737
 30
0.0
 10
137.6363708927484
 20
455.7836751665941
 30
0.0
 10
139.9019637542592
 20
456.4972268658853
 30
0.0
 10
141.4727517974127
 20
456.5865479474421
 30
0.0
 10
142.2581458189895
 20
456.6312084882206
 30
0.0
  0
LINE
  5
1DF
330
1F
100
AcDbEntity
  8
0
  6
Continuous
 62
     7
370
    25
100
AcDbLine
 10
142.258145819
 20
456.6312084882
 30
0.0
 11
268.7581458188
 21
456.6312084882
 31
0.0
  0
SPLINE
  5
1E0
330
1F
100
AcDbEntity
  8
0
  6
Continuous
 62
     7
370
    25
100
AcDbSpline
210
0.0
220
0.0
230
1.0
 70
     8
 71
     3
 72
    15
 73
    11
 74
     0
 42
0.00000001
 43
0.00000001
 40
0.0
 40
0.0
 40
0.0
 40
0.0
 40
0.1250000000000016
 40
0.2500000000000018
 40
0.3750000000000011
 40
0.5000000000000012
 40
0.625000000000001
 40
0.7499999999999998
 40
0.875
 40
1.0
 40
1.0
 40
1.0
 40
1.0
 10
268.7581458188261
 20
456.6312084882206
 30
0.0
 10
269.5435398404102
 20
456.5865479474521
 30
0.0
 10
271.1143278835785
 20
456.4972268659151
 30
0.0
 10
273.3799207451169
 20
455.7836751666425
 30
0.0
 10
275.4680711794985
 20
454.6746497379323
 30
0.0
 10
277.2977262277284
 20
453.1707888970758
 30
0.0
 10
278.8015870686098
 20
451.3411338488663
 30
0.0
 10
279.9106124973486
 20
449.2529834144997
 30
0.0
 10
280.624164196652
 20
446.9873905529711
 30
0.0
 10
280.7134852782104
 20
445.4166025098041
 30
0.0
 10
280.7581458189895
 20
444.6312084882206
 30
0.0
  0
LINE
  5
1E1
330
1F
100
AcDbEntity
  8
0
  6
Continuous
 62
     7
370
    25
100
AcDbLine
 10
280.758145819
 20
444.6312084882
 30
0.0
 11
280.758145819
 21
435.5742225188
 31
0.0
  0
ARC
  5
1E2
330
1F
100
AcDbEntity
  8
0
  6
Continuous
 62
     7
370
    25
100
AcDbCircle
 10
116.9749928742
 20
428.4787786462
 30
0.0
 40
3.290643853005827
100
AcDbArc
 50
84.8889262044
 51
173.7564536149
  0
ARC
  5
1E3
330
1F
100
AcDbEntity
  8
0
  6
Continuous
 62
     7
370
    25
100
AcDbCircle
 10
294.0412987638
 20
428.4787786463
 30
0.0
 40
3.290643852911168
100
AcDbArc
 50
6.2435463833
 51
95.1110737964
  0
LINE
  5
1E4
330
1F
100
AcDbEntity
  8
0
  6
Continuous
 62
     7
370
    25
100
AcDbLine
 10
117.268145819
 20
431.7563384577
 30
0.0
 11
293.748145819
 21
431.7563384577
 31
0.0
  0
SPLINE
  5
1E5
330
1F
100
AcDbEntity
  8
0
  6
Continuous
 62
     7
370
    25
100
AcDbSpline
210
0.0
220
0.0
230
1.0
 70
     8
 71
     3
 72
    12
 73
     8
 74
     0
 42
0.00000001
 43
0.00000001
 40
0.0
 40
0.0
 40
0.0
 40
0.0
 40
0.1888045511790598
 40
0.3741006348802766
 40
0.5601229132647
 40
0.7782950916834096
 40
1.0
 40
1.0
 40
1.0
 40
1.0
 10
117.5081458189894
 20
432.5258254041905
 30
0.0
 10
117.035789322051
 20
432.5036272911686
 30
0.0
 10
116.0998539100553
 20
432.459643562372
 30
0.0
 10
114.7778046138224
 20
432.0191072584574
 30
0.0
 10
113.653219560452
 20
431.2113226377963
 30
0.0
 10
112.9193146378135
 20
430.0341023094621
 30
0.0
 10
112.8453999658213
 20
429.1309923120113
 30
0.0
 10
112.8081458189894
 20
428.6758107960322
 30
0.0
  0
LINE
  5
1E6
330
1F
100
AcDbEntity
  8
0
  6
Continuous
 62
     7
370
    25
100
AcDbLine
 10
205.508145819
 20
432.5258254042
 30
0.0
 11
117.508145819
 21
432.5258254042
 31
0.0
  0
LINE
  5
1E7
330
1F
100
AcDbEntity
  8
0
  6
Continuous
 62
     7
370
    25
100
AcDbLine
 10
205.508145819
 20
432.5258254042
 30
0.0
 11
293.508145819
 21
432.5258254042
 31
0.0
  0
SPLINE
  5
1E8
330
1F
100
AcDbEntity
  8
0
  6
Continuous
 62
     7
370
    25
100
AcDbSpline
210
0.0
220
0.0
230
1.0
 70
     8
 71
     3
 72
    12
 73
     8
 74
     0
 42
0.00000001
 43
0.00000001
 40
0.0
 40
0.0
 40
0.0
 40
0.0
 40
0.1888045511790598
 40
0.3741006348802766
 40
0.5601229132647
 40
0.7782950916834096
 40
1.0
 40
1.0
 40
1.0
 40
1.0
 10
293.5081458189894
 20
432.5258254041905
 30
0.0
 10
293.9805023159277
 20
432.5036272911686
 30
0.0
 10
294.9164377279235
 20
432.459643562372
 30
0.0
 10
296.2384870241563
 20
432.0191072584574
 30
0.0
 10
297.3630720775267
 20
431.2113226377963
 30
0.0
 10
298.0969770001652
 20
430.0341023094621
 30
0.0
 10
298.1708916721574
 20
429.1309923120113
 30
0.0
 10
298.2081458189894
 20
428.6758107960322
 30
0.0
  0
LINE
  5
1E9
330
1F
100
AcDbEntity
  8
0
  6
Continuous
 62
     7
370
    25
100
AcDbLine
 10
298.208145819
 20
428.675810796
 30
0.0
 11
298.208145819
 21
385.1788372443
 31
0.0
  0
LINE
  5
1EA
330
1F
100
AcDbEntity
  8
0
  6
Continuous
 62
     7
370
    25
100
AcDbLine
 10
298.208145819
 20
341.6818636925
 30
0.0
 11
298.208145819
 21
385.1788372443
 31
0.0
  0
SPLINE
  5
1EB
330
1F
100
AcDbEntity
  8
0
  6
Continuous
 62
     7
370
    25
100
AcDbSpline
210
0.0
220
0.0
230
1.0
 70
     8
 71
     3
 72
    12
 73
     8
 74
     0
 42
0.00000001
 43
0.00000001
 40
0.0
 40
0.0
 40
0.0
 40
0.0
 40
0.1888045511790598
 40
0.3741006348802778
 40
0.5601229132647016
 40
0.7782950916834109
 40
1.0
 40
1.0
 40
1.0
 40
1.0
 10
293.5081458189894
 20
337.8318490843831
 30
0.0
 10
293.9805023159277
 20
337.854047197405
 30
0.0
 10
294.9164377279235
 20
337.8980309262016
 30
0.0
 10
296.2384870241563
 20
338.3385672301162
 30
0.0
 10
297.3630720775267
 20
339.1463518507774
 30
0.0
 10
298.0969770001652
 20
340.3235721791115
 30
0.0
 10
298.1708916721574
 20
341.2266821765623
 30
0.0
 10
298.2081458189894
 20
341.6818636925414
 30
0.0
  0
LINE
  5
1EC
330
1F
100
AcDbEntity
  8
0
  6
Continuous
 62
     7
370
    25
100
AcDbLine
 10
205.508145819
 20
337.8318490844
 30
0.0
 11
293.508145819
 21
337.8318490844
 31
0.0
  0
LINE
  5
1ED
330
1F
100
AcDbEntity
  8
0
  6
Continuous
 62
     7
370
    25
100
AcDbLine
 10
205.508145819
 20
337.8318490844
 30
0.0
 11
117.508145819
 21
337.8318490844
 31
0.0
  0
SPLINE
  5
1EE
330
1F
100
AcDbEntity
  8
0
  6
Continuous
 62
     7
370
    25
100
AcDbSpline
210
0.0
220
0.0
230
1.0
 70
     8
 71
     3
 72
    12
 73
     8
 74
     0
 42
0.00000001
 43
0.00000001
 40
0.0
 40
0.0
 40
0.0
 40
0.0
 40
0.1888045511790598
 40
0.3741006348802778
 40
0.5601229132647016
 40
0.7782950916834109
 40
1.0
 40
1.0
 40
1.0
 40
1.0
 10
117.5081458189894
 20
337.8318490843831
 30
0.0
 10
117.0357893220511
 20
337.854047197405
 30
0.0
 10
116.0998539100553
 20
337.8980309262016
 30
0.0
 10
114.7778046138224
 20
338.3385672301162
 30
0.0
 10
113.653219560452
 20
339.1463518507774
 30
0.0
 10
112.9193146378135
 20
340.3235721791115
 30
0.0
 10
112.8453999658213
 20
341.2266821765623
 30
0.0
 10
112.8081458189894
 20
341.6818636925414
 30
0.0
  0
LINE
  5
1EF
330
1F
100
AcDbEntity
  8
0
  6
Continuous
 62
     7
370
    25
100
AcDbLine
 10
112.808145819
 20
341.6818636925
 30
0.0
 11
112.808145819
 21
385.1788372443
 31
0.0
  0
LINE
  5
1F0
330
1F
100
AcDbEntity
  8
0
  6
Continuous
 62
     7
370
    25
100
AcDbLine
 10
112.808145819
 20
428.675810796
 30
0.0
 11
112.808145819
 21
385.1788372443
 31
0.0
  0
ARC
  5
1F1
330
1F
100
AcDbEntity
  8
0
  6
Continuous
 62
     7
370
    25
100
AcDbCircle
 10
294.0412987638
 20
428.5145336322
 30
0.0
 40
3.290643853007827
100
AcDbArc
 50
6.243546385
 51
95.1110737956
  0
LINE
  5
1F2
330
1F
100
AcDbEntity
  8
0
  6
Continuous
 62
     7
370
    25
100
AcDbLine
 10
117.268145819
 20
431.7920934438
 30
0.0
 11
293.748145819
 21
431.7920934438
 31
0.0
  0
ARC
  5
1F3
330
1F
100
AcDbEntity
  8
0
  6
Continuous
 62
     7
370
    25
100
AcDbCircle
 10
116.9749928742
 20
428.5145336322
 30
0.0
 40
3.290643853004447
100
AcDbArc
 50
84.8889262044
 51
173.7564536149
  0
SPLINE
  5
1F4
330
1F
100
AcDbEntity
  8
0
  6
Continuous
 62
     7
370
    25
100
AcDbSpline
210
0.0
220
0.0
230
1.0
 70
     8
 71
     3
 72
     9
 73
     5
 74
     0
 42
0.00000001
 43
0.00000001
 40
0.0
 40
0.0
 40
0.0
 40
0.0
 40
0.1079033733804689
 40
1.0
 40
1.0
 40
1.0
 40
1.0
 10
112.8686488675339
 20
429.0562320391752
 30
0.0
 10
112.8626115911907
 20
429.0429035204928
 30
0.0
 10
112.8066608256669
 20
428.9193807958095
 30
0.0
 10
112.8074456657758
 20
428.7906505838581
 30
0.0
 10
112.8081458189894
 20
428.6758107960322
 30
0.0
  0
LINE
  5
1F5
330
1F
100
AcDbEntity
  8
0
  6
Continuous
 62
     7
370
    25
100
AcDbLine
 10
297.3124244732
 20
428.8724072978
 30
0.0
 11
297.3124244731
 21
428.8366523117
 31
0.0
  0
LINE
  5
1F6
330
1F
100
AcDbEntity
  8
0
  6
Continuous
 62
     7
370
    25
100
AcDbLine
 10
113.7038671648
 20
428.8724072978
 30
0.0
 11
113.7038671648
 21
428.8366523117
 31
0.0
  0
LINE
  5
1F7
330
1F
100
AcDbEntity
  8
0
  6
Continuous
 62
     7
370
    25
100
AcDbLine
 10
129.748145819
 20
345.8676116351
 30
0.0
 11
281.268145819
 21
345.8676116351
 31
0.0
  0
LINE
  5
1F8
330
1F
100
AcDbEntity
  8
0
  6
Continuous
 62
     7
370
    25
100
AcDbLine
 10
281.268145819
 20
345.8676116351
 30
0.0
 11
281.268145819
 21
423.6870558426
 31
0.0
  0
LINE
  5
1F9
330
1F
100
AcDbEntity
  8
0
  6
Continuous
 62
     7
370
    25
100
AcDbLine
 10
281.268145819
 20
423.6870558426
 30
0.0
 11
129.748145819
 21
423.6870558426
 31
0.0
  0
LINE
  5
1FA
330
1F
100
AcDbEntity
  8
0
  6
Continuous
 62
     7
370
    25
100
AcDbLine
 10
129.748145819
 20
423.6870558426
 30
0.0
 11
129.748145819
 21
345.8676116351
 31
0.0
  0
LINE
  5
1FB
330
1F
100
AcDbEntity
  8
0
  6
Continuous
 62
     7
370
    25
100
AcDbLine
 10
297.3124244731
 20
428.8366523117
 30
0.0
 11
297.3124244732
 21
341.4495122269
 31
0.0
  0
LINE
  5
1FC
330
1F
100
AcDbEntity
  8
0
  6
Continuous
 62
     7
370
    25
100
AcDbLine
 10
113.7038671648
 20
341.449512227
 30
0.0
 11
113.7038671648
 21
428.8366523117
 31
0.0
  0
LINE
  5
1FD
330
1F
100
AcDbEntity
  8
0
  6
Continuous
 62
     7
370
    25
100
AcDbLine
 10
128.008145819
 20
435.4921078345
 30
0.0
 11
118.008145819
 21
435.4921078345
 31
0.0
  0
LINE
  5
1FE
330
1F
100
AcDbEntity
  8
0
  6
Continuous
 62
     7
370
    25
100
AcDbLine
 10
283.008145819
 20
435.4921078345
 30
0.0
 11
128.008145819
 21
435.4921078345
 31
0.0
  0
LINE
  5
1FF
330
1F
100
AcDbEntity
  8
0
  6
Continuous
 62
     7
370
    25
100
AcDbLine
 10
283.008145819
 20
435.4921078345
 30
0.0
 11
293.008145819
 21
435.4921078345
 31
0.0
  0
LINE
  5
200
330
1F
100
AcDbEntity
  8
0
  6
Continuous
 62
     7
370
    25
100
AcDbLine
 10
293.008145819
 20
434.6317431799
 30
0.0
 11
118.008145819
 21
434.6317431799
 31
0.0
  0
LINE
  5
201
330
1F
100
AcDbEntity
  8
0
  6
Continuous
 62
     7
370
    25
100
AcDbLine
 10
113.008145819
 20
431.396347613
 30
0.0
 11
113.008145819
 21
430.5359829585
 31
0.0
  0
SPLINE
  5
202
330
1F
100
AcDbEntity
  8
0
  6
Continuous
 62
     7
370
    25
100
AcDbSpline
210
0.0
220
0.0
230
1.0
 70
     8
 71
     3
 72
    15
 73
    11
 74
     0
 42
0.00000001
 43
0.00000001
 40
0.0
 40
0.0
 40
0.0
 40
0.0
 40
0.1250000000000001
 40
0.2499999999999992
 40
0.3750000000000004
 40
0.4999999999999993
 40
0.6250000000000003
 40
0.7500000000000004
 40
0.8750000000000011
 40
1.0
 40
1.0
 40
1.0
 40
1.0
 10
118.0081458189894
 20
435.4921078344697
 30
0.0
 10
117.6808983099991
 20
435.476864595604
 30
0.0
 10
117.0264032920185
 20
435.4463781178725
 30
0.0
 10
116.0824062663891
 20
435.2028333957142
 30
0.0
 10
115.2123435854087
 20
434.8243082094205
 30
0.0
 10
114.4499873153243
 20
434.3110204252062
 30
0.0
 10
113.8233786316338
 20
433.6865347280901
 30
0.0
 10
113.3612847030004
 20
432.9738211043054
 30
0.0
 10
113.0639714949624
 20
432.2005440109584
 30
0.0
 10
113.0267543776471
 20
431.6644130790026
 30
0.0
 10
113.0081458189894
 20
431.3963476130247
 30
0.0
  0
ARC
  5
203
330
1F
100
AcDbEntity
  8
0
  6
Continuous
 62
     7
370
    25
100
AcDbCircle
 10
117.5969084086
 20
430.0339547779
 30
0.0
 40
4.616142805159357
100
AcDbArc
 50
84.8889262044
 51
173.7564536149
  0
SPLINE
  5
204
330
1F
100
AcDbEntity
  8
0
  6
Continuous
 62
     7
370
    25
100
AcDbSpline
210
0.0
220
0.0
230
1.0
 70
     8
 71
     3
 72
    15
 73
    11
 74
     0
 42
0.00000001
 43
0.00000001
 40
0.0
 40
0.0
 40
0.0
 40
0.0
 40
0.1250000000000002
 40
0.2499999999999994
 40
0.3750000000000007
 40
0.4999999999999997
 40
0.6249999999999986
 40
0.7500000000000001
 40
0.8750000000000008
 40
1.0
 40
1.0
 40
1.0
 40
1.0
 10
293.0081458189894
 20
435.4921078344697
 30
0.0
 10
293.3353933279797
 20
435.476864595604
 30
0.0
 10
293.9898883459603
 20
435.4463781178725
 30
0.0
 10
294.9338853715896
 20
435.2028333957142
 30
0.0
 10
295.80394805257
 20
434.8243082094205
 30
0.0
 10
296.5663043226544
 20
434.3110204252062
 30
0.0
 10
297.192913006345
 20
433.6865347280901
 30
0.0
 10
297.6550069349784
 20
432.9738211043054
 30
0.0
 10
297.9523201430163
 20
432.2005440109584
 30
0.0
 10
297.9895372603316
 20
431.6644130790026
 30
0.0
 10
298.0081458189894
 20
431.3963476130247
 30
0.0
  0
LINE
  5
205
330
1F
100
AcDbEntity
  8
0
  6
Continuous
 62
     7
370
    25
100
AcDbLine
 10
298.008145819
 20
431.396347613
 30
0.0
 11
298.008145819
 21
430.5359829585
 31
0.0
  0
ARC
  5
206
330
1F
100
AcDbEntity
  8
0
  6
Continuous
 62
     7
370
    25
100
AcDbCircle
 10
293.4193832294
 20
430.0339547779
 30
0.0
 40
4.616142805159354
100
AcDbArc
 50
6.2435463851
 51
95.1110737956
  0
LINE
  5
207
330
1F
100
AcDbEntity
  8
0
  6
Continuous
 62
     7
370
    25
100
AcDbLine
 10
298.008145819
 20
430.5359829585
 30
0.0
 11
298.008145819
 21
429.8319648901
 31
0.0
  0
LINE
  5
208
330
1F
100
AcDbEntity
  8
0
  6
Continuous
 62
     7
370
    25
100
AcDbLine
 10
129.748145819
 20
345.8962904569
 30
0.0
 11
281.268145819
 21
345.8962904569
 31
0.0
  0
ARC
  5
209
330
1F
100
AcDbEntity
  8
0
  6
Continuous
 62
     7
370
    25
100
AcDbCircle
 10
294.0412987638
 20
341.8073858925
 30
0.0
 40
3.290643852958457
100
AcDbArc
 50
264.8889262039
 51
353.7564536151
  0
ARC
  5
20A
330
1F
100
AcDbEntity
  8
0
  6
Continuous
 62
     7
370
    25
100
AcDbCircle
 10
116.6686008992
 20
341.6292863275
 30
0.0
 40
2.970179261049455
100
AcDbArc
 50
183.4700251378
 51
253.0159677956
  0
MTEXT
  5
20B
330
1F
100
AcDbEntity
  8
SLD-0
 62
     7
100
AcDbMText
 10
186.9637272844
 20
318.7266643413
 30
0.0
 40
4.7625
 41
0.0
 71
     1
 72
     1
  1
TOP VIEW
  7
SLDTEXTSTYLE0
 73
     1
 44
1.0
  0
LINE
  5
20C
330
1F
100
AcDbEntity
  8
0
  6
Continuous
 62
     7
370
    25
100
AcDbLine
 10
767.455773581
 20
385.0095342424
 30
0.0
 11
767.455773581
 21
387.0508862721
 31
0.0
  0
LINE
  5
20D
330
1F
100
AcDbEntity
  8
0
  6
Continuous
 62
     7
370
    25
100
AcDbLine
 10
603.9359148397
 20
409.4514406636
 30
0.0
 11
603.9359148397
 21
407.7420603447
 31
0.0
  0
SPLINE
  5
20E
330
1F
100
AcDbEntity
  8
0
  6
Continuous
 62
     7
370
    25
100
AcDbSpline
210
0.0
220
0.0
230
1.0
 70
     8
 71
     3
 72
    13
 73
     9
 74
     0
 42
0.00000001
 43
0.00000001
 40
0.0
 40
0.0
 40
0.0
 40
0.0
 40
0.2574940723862952
 40
0.3828014514874248
 40
0.5070931741946431
 40
0.6302276936436534
 40
0.7523476198907697
 40
1.0
 40
1.0
 40
1.0
 40
1.0
 10
697.8536929981682
 20
355.9567137289589
 30
0.0
 10
698.350449955801
 20
355.7295079853474
 30
0.0
 10
699.0889496138943
 20
355.3917344294951
 30
0.0
 10
700.2261635197032
 20
355.3540976419224
 30
0.0
 10
701.0748733993124
 20
355.5035852777356
 30
0.0
 10
701.8876714445826
 20
355.8384358949792
 30
0.0
 10
702.8878244982025
 20
356.4846429673931
 30
0.0
 10
703.4464378154667
 20
357.1632022844677
 30
0.0
 10
703.820565123551
 20
357.6176625753823
 30
0.0
  0
LINE
  5
20F
330
1F
100
AcDbEntity
  8
0
  6
Continuous
 62
     7
370
    25
100
AcDbLine
 10
703.8205651236
 20
357.6176625754
 30
0.0
 11
734.5775700831
 21
400.2426126139
 31
0.0
  0
LINE
  5
210
330
1F
100
AcDbEntity
  8
0
  6
Continuous
 62
     7
370
    25
100
AcDbLine
 10
635.6282962538
 20
391.8786706492
 30
0.0
 11
697.8536929982
 21
355.956713729
 31
0.0
  0
LINE
  5
211
330
1F
100
AcDbEntity
  8
0
  6
Continuous
 62
     7
370
    25
100
AcDbLine
 10
734.5775700831
 20
400.2426126139
 30
0.0
 11
765.3345750426
 21
442.8675626523
 31
0.0
  0
SPLINE
  5
212
330
1F
100
AcDbEntity
  8
0
  6
Continuous
 62
     7
370
    25
100
AcDbSpline
210
0.0
220
0.0
230
1.0
 70
     8
 71
     3
 72
    11
 73
     7
 74
     0
 42
0.00000001
 43
0.00000001
 40
0.0
 40
0.0
 40
0.0
 40
0.0
 40
0.2436354600166104
 40
0.4882022857027415
 40
0.7410716282105592
 40
1.0
 40
1.0
 40
1.0
 40
1.0
 10
765.3345750426131
 20
442.86756265233
 30
0.0
 10
765.5948724003318
 20
443.2789452569718
 30
0.0
 10
766.1164621762699
 20
444.1032830929782
 30
0.0
 10
766.4392459875041
 20
445.5600482638263
 30
0.0
 10
766.2493543832787
 20
447.0475545395125
 30
0.0
 10
765.6781951600489
 20
447.8449281768857
 30
0.0
 10
765.3892346516838
 20
448.2483349367544
 30
0.0
  0
LINE
  5
213
330
1F
100
AcDbEntity
  8
0
  6
Continuous
 62
     7
370
    25
100
AcDbLine
 10
764.5894180284
 20
447.8048233488
 30
0.0
 11
764.5641354353
 21
447.8319233785
 31
0.0
  0
LINE
  5
214
330
1F
100
AcDbEntity
  8
0
  6
Continuous
 62
     7
370
    25
100
AcDbLine
 10
766.9006540197
 20
445.977482123
 30
0.0
 11
766.2922843382
 21
446.6295843944
 31
0.0
  0
LINE
  5
215
330
1F
100
AcDbEntity
  8
0
  6
Continuous
 62
     7
370
    25
100
AcDbLine
 10
573.4028995093
 20
427.8006275694
 30
0.0
 11
635.6282962538
 21
391.8786706492
 31
0.0
  0
LINE
  5
216
330
1F
100
AcDbEntity
  8
0
  6
Continuous
 62
     7
370
    25
100
AcDbLine
 10
571.9949549618
 20
428.9031154013
 30
0.0
 11
573.4028995093
 21
427.8006275694
 31
0.0
  0
LINE
  5
217
330
1F
100
AcDbEntity
  8
0
  6
Continuous
 62
     7
370
    25
100
AcDbLine
 10
572.7694890077
 20
429.3737270407
 30
0.0
 11
572.7947716009
 21
429.346627011
 31
0.0
  0
LINE
  5
218
330
1F
100
AcDbEntity
  8
0
  6
Continuous
 62
     7
370
    25
100
AcDbLine
 10
634.6522640734
 20
518.9064336531
 30
0.0
 11
572.8602247309
 21
433.2712232933
 31
0.0
  0
LINE
  5
219
330
1F
100
AcDbEntity
  8
0
  6
Continuous
 62
     7
370
    25
100
AcDbLine
 10
574.4176595341
 20
426.9570401932
 30
0.0
 11
575.0260292156
 21
426.3049379218
 31
0.0
  0
SPLINE
  5
21A
330
1F
100
AcDbEntity
  8
0
  6
Continuous
 62
     7
370
    25
100
AcDbSpline
210
0.0
220
0.0
230
1.0
 70
     8
 71
     3
 72
    10
 73
     6
 74
     0
 42
0.00000001
 43
0.00000001
 40
0.0
 40
0.0
 40
0.0
 40
0.0
 40
0.3523472275622181
 40
0.7613798280102579
 40
1.0
 40
1.0
 40
1.0
 40
1.0
 10
636.4993442773401
 20
520.355802186176
 30
0.0
 10
636.2482344509809
 20
520.2387049737337
 30
0.0
 10
635.7056164269147
 20
519.9856720320909
 30
0.0
 10
635.0769603650741
 20
519.4674261169496
 30
0.0
 10
634.7837992929617
 20
519.0466821911281
 30
0.0
 10
634.6757874872145
 20
518.8916639588039
 30
0.0
  0
LINE
  5
21B
330
1F
100
AcDbEntity
  8
0
  6
Continuous
 62
     7
370
    25
100
AcDbLine
 10
713.8702040341
 20
351.205798601
 30
0.0
 11
713.8702040341
 21
353.2471506307
 31
0.0
  0
ARC
  5
21C
330
1F
100
AcDbEntity
  8
0
  6
Continuous
 62
     7
370
    25
100
AcDbCircle
 10
705.3849226598
 20
367.4304647931
 30
0.0
 40
18.30955469271436
100
AcDbArc
 50
242.3910402157
 51
297.6089597842
  0
LINE
  5
21D
330
1F
100
AcDbEntity
  8
0
  6
Continuous
 62
     7
370
    25
100
AcDbLine
 10
696.8996412856
 20
351.205798601
 30
0.0
 11
696.8996412856
 21
353.2471506307
 31
0.0
  0
SPLINE
  5
21E
330
1F
100
AcDbEntity
  8
0
  6
Continuous
 62
     7
370
    25
100
AcDbSpline
210
0.0
220
0.0
230
1.0
 70
     8
 71
     3
 72
    15
 73
    11
 74
     0
 42
0.00000001
 43
0.00000001
 40
0.0
 40
0.0
 40
0.0
 40
0.0
 40
0.1249999999999966
 40
0.2499999999999971
 40
0.3749999999999963
 40
0.4999999999999966
 40
0.6249999999999967
 40
0.7499999999999972
 40
0.8749999999999979
 40
1.0
 40
1.0
 40
1.0
 40
1.0
 10
713.8702040340743
 20
353.2471506307313
 30
0.0
 10
713.283266824278
 20
352.94478021952
 30
0.0
 10
712.1093924046853
 20
352.3400393970973
 30
0.0
 10
710.0028190836065
 20
351.7064898997378
 30
0.0
 10
707.7420743501806
 20
351.3068071011945
 30
0.0
 10
705.3849226598323
 20
351.173816584364
 30
0.0
 10
703.0277709694842
 20
351.3068071011952
 30
0.0
 10
700.7670262360585
 20
351.7064898997394
 30
0.0
 10
698.6604529149805
 20
352.3400393970996
 30
0.0
 10
697.4865784953884
 20
352.9447802195227
 30
0.0
 10
696.8996412855922
 20
353.2471506307342
 30
0.0
  0
LINE
  5
21F
330
1F
100
AcDbEntity
  8
0
  6
Continuous
 62
     7
370
    25
100
AcDbLine
 10
696.8996412856
 20
353.2471506307
 30
0.0
 11
607.4506334657
 21
404.8849637034
 31
0.0
  0
SPLINE
  5
220
330
1F
100
AcDbEntity
  8
0
  6
Continuous
 62
     7
370
    25
100
AcDbSpline
210
0.0
220
0.0
230
1.0
 70
     8
 71
     3
 72
    11
 73
     7
 74
     0
 42
0.00000001
 43
0.00000001
 40
0.0
 40
0.0
 40
0.0
 40
0.0
 40
0.2682743112005975
 40
0.5365486224011957
 40
0.8048229336017939
 40
1.0
 40
1.0
 40
1.0
 40
1.0
 10
607.4506334657011
 20
404.8849637034012
 30
0.0
 10
606.9260281507685
 20
405.2237601119962
 30
0.0
 10
605.8768175209033
 20
405.9013529291861
 30
0.0
 10
604.791773403952
 20
407.1179802780039
 30
0.0
 10
604.1194178990986
 20
408.3027202597208
 30
0.0
 10
604.0345018937563
 20
409.0855096678655
 30
0.0
 10
603.998740522415
 20
409.415172168991
 30
0.0
  0
LINE
  5
221
330
1F
100
AcDbEntity
  8
0
  6
Continuous
 62
     7
370
    25
100
AcDbLine
 10
741.2012310521
 20
405.0767558573
 30
0.0
 11
763.9410549551
 21
391.9493349431
 31
0.0
  0
SPLINE
  5
222
330
1F
100
AcDbEntity
  8
0
  6
Continuous
 62
     7
370
    25
100
AcDbSpline
210
0.0
220
0.0
230
1.0
 70
     8
 71
     3
 72
    15
 73
    11
 74
     0
 42
0.00000001
 43
0.00000001
 40
0.0
 40
0.0
 40
0.0
 40
0.0
 40
0.1250000000000016
 40
0.2500000000000018
 40
0.3750000000000011
 40
0.5000000000000012
 40
0.625000000000001
 40
0.7499999999999998
 40
0.875
 40
1.0
 40
1.0
 40
1.0
 40
1.0
 10
763.9410549551044
 20
391.9493349431148
 30
0.0
 10
764.4648326224411
 20
391.6105033041347
 30
0.0
 10
765.5123879571144
 20
390.9328400261745
 30
0.0
 10
766.6098467876333
 20
389.7167411333052
 30
0.0
 10
767.3021927187726
 20
388.4116409785292
 30
0.0
 10
767.5325640120778
 20
387.0508862721592
 30
0.0
 10
767.3021927188047
 20
385.6901315657874
 30
0.0
 10
766.609846787696
 20
384.3850314110059
 30
0.0
 10
765.512387957206
 20
383.168932518128
 30
0.0
 10
764.4648326225486
 20
382.4912692401596
 30
0.0
 10
763.9410549552199
 20
382.1524376011755
 30
0.0
  0
LINE
  5
223
330
1F
100
AcDbEntity
  8
0
  6
Continuous
 62
     7
370
    25
100
AcDbLine
 10
763.9410549552
 20
382.1524376012
 30
0.0
 11
713.8702040341
 21
353.2471506307
 31
0.0
  0
LINE
  5
224
330
1F
100
AcDbEntity
  8
0
  6
Continuous
 62
     7
370
    25
100
AcDbLine
 10
763.9410549552
 20
380.1110855715
 30
0.0
 11
763.9410549552
 21
382.1524376012
 31
0.0
  0
LINE
  5
225
330
1F
100
AcDbEntity
  8
0
  6
Continuous
 62
     7
370
    25
100
AcDbLine
 10
763.9410549552
 20
380.1110855715
 30
0.0
 11
713.8702040341
 21
351.205798601
 31
0.0
  0
LINE
  5
226
330
1F
100
AcDbEntity
  8
0
  6
Continuous
 62
     7
370
    25
100
AcDbLine
 10
607.4506334657
 20
402.8436116737
 30
0.0
 11
607.4506334657
 21
404.8849637034
 31
0.0
  0
LINE
  5
227
330
1F
100
AcDbEntity
  8
0
  6
Continuous
 62
     7
370
    25
100
AcDbLine
 10
696.8996412856
 20
351.205798601
 30
0.0
 11
607.4506334657
 21
402.8436116737
 31
0.0
  0
ARC
  5
228
330
1F
100
AcDbEntity
  8
0
  6
Continuous
 62
     7
370
    25
100
AcDbCircle
 10
761.3645929861
 20
385.6698989633
 30
0.0
 40
6.12687217131514
100
AcDbArc
 50
294.8673152799
 51
353.812543763
  0
ARC
  5
229
330
1F
100
AcDbEntity
  8
0
  6
Continuous
 62
     7
370
    25
100
AcDbCircle
 10
609.890398294
 20
408.3043425872
 30
0.0
 40
5.980972707471457
100
AcDbArc
 50
185.3944478053
 51
245.9256931534
  0
LINE
  5
22A
330
1F
100
AcDbEntity
  8
0
  6
Continuous
 62
     7
370
    25
100
AcDbLine
 10
633.9003011503
 20
519.0411911905
 30
0.0
 11
634.4306312362
 21
518.7350381485
 31
0.0
  0
SPLINE
  5
22B
330
1F
100
AcDbEntity
  8
0
  6
Continuous
 62
     7
370
    25
100
AcDbSpline
210
0.0
220
0.0
230
1.0
 70
     8
 71
     3
 72
    12
 73
     8
 74
     0
 42
0.00000001
 43
0.00000001
 40
0.0
 40
0.0
 40
0.0
 40
0.0
 40
0.1888045511790598
 40
0.3741006348802766
 40
0.5601229132647
 40
0.7782950916834096
 40
1.0
 40
1.0
 40
1.0
 40
1.0
 10
639.9460744589376
 20
520.895461980443
 30
0.0
 10
639.5963715405676
 20
521.0665267311316
 30
0.0
 10
638.9034640710988
 20
521.4054774155225
 30
0.0
 10
637.6571278408129
 20
521.513438829653
 30
0.0
 10
636.2907361405458
 20
521.1809087842679
 30
0.0
 10
634.9393665158864
 20
520.3268722319676
 30
0.0
 10
634.2485057467366
 20
519.472039973487
 30
0.0
 10
633.9003011502649
 20
519.04119119048
 30
0.0
  0
LINE
  5
22C
330
1F
100
AcDbEntity
  8
0
  6
Continuous
 62
     7
370
    25
100
AcDbLine
 10
639.9460744589
 20
520.8954619804
 30
0.0
 11
639.5116534849
 21
520.2934146635
 31
0.0
  0
LINE
  5
22D
330
1F
100
AcDbEntity
  8
0
  6
Continuous
 62
     7
370
    25
100
AcDbLine
 10
702.1714712034
 20
484.9735050602
 30
0.0
 11
639.9460744589
 21
520.8954619804
 31
0.0
  0
LINE
  5
22E
330
1F
100
AcDbEntity
  8
0
  6
Continuous
 62
     7
370
    25
100
AcDbLine
 10
702.1714712034
 20
484.9735050602
 30
0.0
 11
764.3968679478
 21
449.05154814
 31
0.0
  0
LINE
  5
22F
330
1F
100
AcDbEntity
  8
0
  6
Continuous
 62
     7
370
    25
100
AcDbLine
 10
764.3968679478
 20
449.05154814
 30
0.0
 11
763.9624469738
 21
448.4495008231
 31
0.0
  0
SPLINE
  5
230
330
1F
100
AcDbEntity
  8
0
  6
Continuous
 62
     7
370
    25
100
AcDbSpline
210
0.0
220
0.0
230
1.0
 70
     8
 71
     3
 72
    12
 73
     8
 74
     0
 42
0.00000001
 43
0.00000001
 40
0.0
 40
0.0
 40
0.0
 40
0.0
 40
0.1888045511790598
 40
0.3741006348802766
 40
0.5601229132647
 40
0.7782950916834096
 40
1.0
 40
1.0
 40
1.0
 40
1.0
 10
764.3968679477697
 20
449.0515481400445
 30
0.0
 10
764.7151779936449
 20
448.8369772149605
 30
0.0
 10
765.3458830773259
 20
448.4118226368559
 30
0.0
 10
765.9692068918981
 20
447.4404522813123
 30
0.0
 10
766.1932186261497
 20
446.1898018759211
 30
0.0
 10
765.8797472965779
 20
444.7365993914721
 30
0.0
 10
765.2934176590178
 20
443.8214225951943
 30
0.0
 10
764.9978983822505
 20
443.3601592245149
 30
0.0
  0
LINE
  5
231
330
1F
100
AcDbEntity
  8
0
  6
Continuous
 62
     7
370
    25
100
AcDbLine
 10
764.9978983823
 20
443.3601592245
 30
0.0
 11
764.4675682964
 21
443.6663122664
 31
0.0
  0
LINE
  5
232
330
1F
100
AcDbEntity
  8
0
  6
Continuous
 62
     7
370
    25
100
AcDbLine
 10
764.9978983823
 20
443.3601592245
 30
0.0
 11
734.2408934227
 21
400.735209186
 31
0.0
  0
LINE
  5
233
330
1F
100
AcDbEntity
  8
0
  6
Continuous
 62
     7
370
    25
100
AcDbLine
 10
703.4838884632
 20
358.1102591476
 30
0.0
 11
734.2408934227
 21
400.735209186
 31
0.0
  0
LINE
  5
234
330
1F
100
AcDbEntity
  8
0
  6
Continuous
 62
     7
370
    25
100
AcDbLine
 10
703.4838884632
 20
358.1102591476
 30
0.0
 11
702.9535583773
 21
358.4164121895
 31
0.0
  0
SPLINE
  5
235
330
1F
100
AcDbEntity
  8
0
  6
Continuous
 62
     7
370
    25
100
AcDbSpline
210
0.0
220
0.0
230
1.0
 70
     8
 71
     3
 72
    12
 73
     8
 74
     0
 42
0.00000001
 43
0.00000001
 40
0.0
 40
0.0
 40
0.0
 40
0.0
 40
0.1888045511790598
 40
0.3741006348802778
 40
0.5601229132647016
 40
0.7782950916834109
 40
1.0
 40
1.0
 40
1.0
 40
1.0
 10
697.4381151545155
 20
356.2559883576042
 30
0.0
 10
697.7878180728853
 20
356.0849236069157
 30
0.0
 10
698.4807255423542
 20
355.7459729225247
 30
0.0
 10
699.7270617726402
 20
355.6380115083943
 30
0.0
 10
701.0934534729072
 20
355.9705415537794
 30
0.0
 10
702.4448230975668
 20
356.8245781060796
 30
0.0
 10
703.1356838667165
 20
357.6794103645602
 30
0.0
 10
703.4838884631882
 20
358.1102591475671
 30
0.0
  0
LINE
  5
236
330
1F
100
AcDbEntity
  8
0
  6
Continuous
 62
     7
370
    25
100
AcDbLine
 10
697.4381151545
 20
356.2559883576
 30
0.0
 11
697.8725361285
 21
356.8580356745
 31
0.0
  0
LINE
  5
237
330
1F
100
AcDbEntity
  8
0
  6
Continuous
 62
     7
370
    25
100
AcDbLine
 10
635.2127184101
 20
392.1779452778
 30
0.0
 11
697.4381151545
 21
356.2559883576
 31
0.0
  0
LINE
  5
238
330
1F
100
AcDbEntity
  8
0
  6
Continuous
 62
     7
370
    25
100
AcDbLine
 10
635.2127184101
 20
392.1779452778
 30
0.0
 11
572.9873216657
 21
428.099902198
 31
0.0
  0
LINE
  5
239
330
1F
100
AcDbEntity
  8
0
  6
Continuous
 62
     7
370
    25
100
AcDbLine
 10
572.9873216657
 20
428.099902198
 30
0.0
 11
573.4217426397
 21
428.7019495149
 31
0.0
  0
SPLINE
  5
23A
330
1F
100
AcDbEntity
  8
0
  6
Continuous
 62
     7
370
    25
100
AcDbSpline
210
0.0
220
0.0
230
1.0
 70
     8
 71
     3
 72
    12
 73
     8
 74
     0
 42
0.00000001
 43
0.00000001
 40
0.0
 40
0.0
 40
0.0
 40
0.0
 40
0.1888045511790598
 40
0.3741006348802778
 40
0.5601229132647016
 40
0.7782950916834109
 40
1.0
 40
1.0
 40
1.0
 40
1.0
 10
572.9873216656833
 20
428.0999021980028
 30
0.0
 10
572.669011619808
 20
428.3144731230867
 30
0.0
 10
572.0383065361272
 20
428.7396277011914
 30
0.0
 10
571.4149827215549
 20
429.7109980567349
 30
0.0
 10
571.1909709873033
 20
430.9616484621262
 30
0.0
 10
571.5044423168752
 20
432.4148509465751
 30
0.0
 10
572.0907719544351
 20
433.3300277428528
 30
0.0
 10
572.3862912312026
 20
433.7912911135325
 30
0.0
  0
LINE
  5
23B
330
1F
100
AcDbEntity
  8
0
  6
Continuous
 62
     7
370
    25
100
AcDbLine
 10
572.3862912312
 20
433.7912911135
 30
0.0
 11
572.9166213171
 21
433.4851380716
 31
0.0
  0
LINE
  5
23C
330
1F
100
AcDbEntity
  8
0
  6
Continuous
 62
     7
370
    25
100
AcDbLine
 10
572.3862912312
 20
433.7912911135
 30
0.0
 11
603.1432961907
 21
476.416241152
 31
0.0
  0
LINE
  5
23D
330
1F
100
AcDbEntity
  8
0
  6
Continuous
 62
     7
370
    25
100
AcDbLine
 10
633.9003011503
 20
519.0411911905
 30
0.0
 11
603.1432961907
 21
476.416241152
 31
0.0
  0
LWPOLYLINE
  5
23E
330
1F
100
AcDbEntity
  8
0
  6
Continuous
 62
     7
370
    25
100
AcDbPolyline
 90
        3
 70
   128
 43
0.0
 10
573.3364428987
 20
428.9168933596
 10
572.8844211272
 20
429.2557168532
 10
572.7947716009
 20
429.346627011
  0
LINE
  5
23F
330
1F
100
AcDbEntity
  8
0
  6
Continuous
 62
     7
370
    25
100
AcDbLine
 10
698.1266476426
 20
356.8770415724
 30
0.0
 11
573.3364428987
 21
428.9168933596
 31
0.0
  0
ARC
  5
240
330
1F
100
AcDbEntity
  8
0
  6
Continuous
 62
     7
370
    25
100
AcDbCircle
 10
699.6030499766
 20
360.2407584618
 30
0.0
 40
3.673466368960618
100
AcDbArc
 50
246.3023728797
 51
327.7997367974
  0
LINE
  5
241
330
1F
100
AcDbEntity
  8
0
  6
Continuous
 62
     7
370
    25
100
AcDbLine
 10
764.5035424641
 20
443.9184514632
 30
0.0
 11
702.7115031217
 21
358.2832411034
 31
0.0
  0
ARC
  5
242
330
1F
100
AcDbEntity
  8
0
  6
Continuous
 62
     7
370
    25
100
AcDbCircle
 10
762.1169001004
 20
445.9153228412
 30
0.0
 40
3.111841427948035
100
AcDbArc
 50
320.0812330382
 51
37.3870963048
  0
ARC
  5
243
330
1F
100
AcDbEntity
  8
0
  6
Continuous
 62
     7
370
    25
100
AcDbCircle
 10
699.5777673834
 20
360.2678584916
 30
0.0
 40
3.673466369054972
100
AcDbArc
 50
246.3023728812
 51
327.7997367966
  0
ARC
  5
244
330
1F
100
AcDbEntity
  8
0
  6
Continuous
 62
     7
370
    25
100
AcDbCircle
 10
700.1199898514
 20
356.8883743464
 30
0.0
 40
2.018686379195309
100
AcDbArc
 50
142.8335073595
 51
179.5524780883
  0
SPLINE
  5
245
330
1F
100
AcDbEntity
  8
0
  6
Continuous
 62
     7
370
    25
100
AcDbSpline
210
0.0
220
0.0
230
1.0
 70
     8
 71
     3
 72
    11
 73
     7
 74
     0
 42
0.00000001
 43
0.00000001
 40
0.0
 40
0.0
 40
0.0
 40
0.0
 40
0.2702613318128883
 40
0.5624293896420959
 40
0.78973642185953
 40
1.0
 40
1.0
 40
1.0
 40
1.0
 10
701.611399006584
 20
359.0587367249757
 30
0.0
 10
701.3835439861298
 20
358.8019392777244
 30
0.0
 10
700.90936457163
 20
358.2675290069306
 30
0.0
 10
699.9801713761725
 20
357.8847370977214
 30
0.0
 10
699.1343707870999
 20
357.8379992901259
 30
0.0
 10
698.7135480670935
 20
358.0203200981408
 30
0.0
 10
698.511332267456
 20
358.1079297879947
 30
0.0
  0
ARC
  5
246
330
1F
100
AcDbEntity
  8
0
  6
Continuous
 62
     7
370
    25
100
AcDbCircle
 10
697.1691848708
 20
351.5329628535
 30
0.0
 40
8.739023903895333
100
AcDbArc
 50
50.8531408349
 51
59.4480590056
  0
LINE
  5
247
330
1F
100
AcDbEntity
  8
0
  6
Continuous
 62
     7
370
    25
100
AcDbLine
 10
764.478259871
 20
443.9455514928
 30
0.0
 11
702.6862205286
 21
358.310341133
 31
0.0
  0
LINE
  5
248
330
1F
100
AcDbEntity
  8
0
  6
Continuous
 62
     7
370
    25
100
AcDbLine
 10
763.403438349
 20
444.6939470848
 30
0.0
 11
701.6113990066
 21
359.058736725
 31
0.0
  0
ARC
  5
249
330
1F
100
AcDbEntity
  8
0
  6
Continuous
 62
     7
370
    25
100
AcDbCircle
 10
758.9612242128
 20
437.1681732128
 30
0.0
 40
8.739023904513354
100
AcDbArc
 50
50.8531408352
 51
59.4480590052
  0
LINE
  5
24A
330
1F
100
AcDbEntity
  8
0
  6
Continuous
 62
     7
370
    25
100
AcDbLine
 10
698.1266476426
 20
356.8770415724
 30
0.0
 11
698.1013650494
 21
356.904141602
 31
0.0
  0
LINE
  5
24B
330
1F
100
AcDbEntity
  8
0
  6
Continuous
 62
     7
370
    25
100
AcDbLine
 10
702.7115031217
 20
358.2832411034
 30
0.0
 11
702.6862205286
 21
358.310341133
 31
0.0
  0
SPLINE
  5
24C
330
1F
100
AcDbEntity
  8
0
  6
Continuous
 62
     7
370
    25
100
AcDbSpline
210
0.0
220
0.0
230
1.0
 70
     8
 71
     3
 72
    11
 73
     7
 74
     0
 42
0.00000001
 43
0.00000001
 40
0.0
 40
0.0
 40
0.0
 40
0.0
 40
0.270261331813079
 40
0.5624293896420336
 40
0.7897364218593345
 40
1.0
 40
1.0
 40
1.0
 40
1.0
 10
635.2049789198876
 20
518.7013424215261
 30
0.0
 10
635.4328339403417
 20
518.9581398687777
 30
0.0
 10
635.9070133548407
 20
519.4925501395717
 30
0.0
 10
636.8362065502972
 20
519.8753420487824
 30
0.0
 10
637.6820071393694
 20
519.9220798563795
 30
0.0
 10
638.1028298593768
 20
519.7397590483663
 30
0.0
 10
638.3050456590148
 20
519.6521493585132
 30
0.0
  0
LINE
  5
24D
330
1F
100
AcDbEntity
  8
0
  6
Continuous
 62
     7
370
    25
100
AcDbLine
 10
638.305045659
 20
519.6521493585
 30
0.0
 11
763.0952504028
 21
447.6122975713
 31
0.0
  0
SPLINE
  5
24E
330
1F
100
AcDbEntity
  8
0
  6
Continuous
 62
     7
370
    25
100
AcDbSpline
210
0.0
220
0.0
230
1.0
 70
     8
 71
     3
 72
    11
 73
     7
 74
     0
 42
0.00000001
 43
0.00000001
 40
0.0
 40
0.0
 40
0.0
 40
0.0
 40
0.2702613318128854
 40
0.5624293896420856
 40
0.7897364218595307
 40
0.9999999999999999
 40
0.9999999999999999
 40
0.9999999999999999
 40
0.9999999999999999
 10
763.0952504028413
 20
447.6122975712629
 30
0.0
 10
763.3121253705466
 20
447.4387863183913
 30
0.0
 10
763.7634546631868
 20
447.0776994126396
 30
0.0
 10
763.957457292689
 20
446.2244196470787
 30
0.0
 10
763.8205498964413
 20
445.381560666461
 30
0.0
 10
763.5388176914614
 20
444.917121617142
 30
0.0
 10
763.4034383490325
 20
444.6939470847892
 30
0.0
  0
LINE
  5
24F
330
1F
100
AcDbEntity
  8
0
  6
Continuous
 62
     7
370
    25
100
AcDbLine
 10
698.5113322675
 20
358.107929788
 30
0.0
 11
573.7211275242
 21
430.1477815749
 31
0.0
  0
SPLINE
  5
250
330
1F
100
AcDbEntity
  8
0
  6
Continuous
 62
     7
370
    25
100
AcDbSpline
210
0.0
220
0.0
230
1.0
 70
     8
 71
     3
 72
    11
 73
     7
 74
     0
 42
0.00000001
 43
0.00000001
 40
0.0
 40
0.0
 40
0.0
 40
0.0
 40
0.2702613317598164
 40
0.5624293894595803
 40
0.789736421680318
 40
0.9999999999999999
 40
0.9999999999999999
 40
0.9999999999999999
 40
0.9999999999999999
 10
573.7211275242342
 20
430.147781574896
 30
0.0
 10
573.5042525566412
 20
430.3212928275711
 30
0.0
 10
573.0529232642923
 20
430.6823797328674
 30
0.0
 10
572.8589206342865
 20
431.535659497436
 30
0.0
 10
572.9958280296803
 20
432.378518477536
 30
0.0
 10
573.277560233861
 20
432.8429575271014
 30
0.0
 10
573.412939575965
 20
433.0661320596697
 30
0.0
  0
LINE
  5
251
330
1F
100
AcDbEntity
  8
0
  6
Continuous
 62
     7
370
    25
100
AcDbLine
 10
573.412939576
 20
433.0661320597
 30
0.0
 11
635.2049789199
 21
518.7013424215
 31
0.0
  0
LINE
  5
252
330
1F
100
AcDbEntity
  8
0
  6
Continuous
 62
     7
370
    25
100
AcDbLine
 10
587.324450859
 20
431.6759154328
 30
0.0
 11
694.4652703444
 21
369.8248368811
 31
0.0
  0
LINE
  5
253
330
1F
100
AcDbEntity
  8
0
  6
Continuous
 62
     7
370
    25
100
AcDbLine
 10
694.4652703444
 20
369.8248368811
 30
0.0
 11
749.4919270517
 21
446.0841636919
 31
0.0
  0
LINE
  5
254
330
1F
100
AcDbEntity
  8
0
  6
Continuous
 62
     7
370
    25
100
AcDbLine
 10
749.4919270517
 20
446.0841636919
 30
0.0
 11
642.3511075663
 21
507.9352422436
 31
0.0
  0
LINE
  5
255
330
1F
100
AcDbEntity
  8
0
  6
Continuous
 62
     7
370
    25
100
AcDbLine
 10
642.3511075663
 20
507.9352422436
 30
0.0
 11
587.324450859
 21
431.6759154328
 31
0.0
  0
LINE
  5
256
330
1F
100
AcDbEntity
  8
0
  6
Continuous
 62
     7
370
    25
100
AcDbLine
 10
764.5035424641
 20
443.9184514632
 30
0.0
 11
764.478259871
 21
443.9455514928
 31
0.0
  0
LINE
  5
257
330
1F
100
AcDbEntity
  8
0
  6
Continuous
 62
     7
370
    25
100
AcDbLine
 10
698.1013650494
 20
356.904141602
 30
0.0
 11
573.3111603056
 21
428.9439933893
 31
0.0
  0
ARC
  5
258
330
1F
100
AcDbEntity
  8
0
  6
Continuous
 62
     7
370
    25
100
AcDbCircle
 10
575.3297850994
 20
428.9282261353
 30
0.0
 40
2.018686371005555
100
AcDbArc
 50
142.8335072532
 51
179.552478133
  0
ARC
  5
259
330
1F
100
AcDbEntity
  8
0
  6
Continuous
 62
     7
370
    25
100
AcDbCircle
 10
701.0088174688
 20
359.6230466812
 30
0.0
 40
5.050106053774196
100
AcDbArc
 50
246.302372882
 51
327.7997367961
  0
LINE
  5
25A
330
1F
100
AcDbEntity
  8
0
  6
Continuous
 62
     7
370
    25
100
AcDbLine
 10
573.3364428987
 20
428.9168933596
 30
0.0
 11
573.3111603056
 21
428.9439933893
 31
0.0
  0
LINE
  5
25B
330
1F
100
AcDbEntity
  8
0
  6
Continuous
 62
     7
370
    25
100
AcDbLine
 10
705.2821703375
 20
356.9319453427
 30
0.0
 11
766.1011066981
 21
441.2185697126
 31
0.0
  0
LINE
  5
25C
330
1F
100
AcDbEntity
  8
0
  6
Continuous
 62
     7
370
    25
100
AcDbLine
 10
705.9612506971
 20
356.2390226657
 30
0.0
 11
705.3528810156
 21
356.8911249371
 31
0.0
  0
SPLINE
  5
25D
330
1F
100
AcDbEntity
  8
0
  6
Continuous
 62
     7
370
    25
100
AcDbSpline
210
0.0
220
0.0
230
1.0
 70
     8
 71
     3
 72
    11
 73
     7
 74
     0
 42
0.00000001
 43
0.00000001
 40
0.0
 40
0.0
 40
0.0
 40
0.0
 40
0.2499999999999991
 40
0.5000000000000006
 40
0.7500000000000014
 40
1.0
 40
1.0
 40
1.0
 40
1.0
 10
699.5295769644908
 20
354.2663941657266
 30
0.0
 10
700.0363964124082
 20
354.0592763557169
 30
0.0
 10
701.0500353082432
 20
353.6450407356977
 30
0.0
 10
702.8884181967999
 20
353.8985449377911
 30
0.0
 10
704.6633119873541
 20
354.7532518875313
 30
0.0
 10
705.5286044605324
 20
355.7437657396353
 30
0.0
 10
705.9612506971215
 20
356.2390226656871
 30
0.0
  0
LINE
  5
25E
330
1F
100
AcDbEntity
  8
0
  6
Continuous
 62
     7
370
    25
100
AcDbLine
 10
699.5295769645
 20
354.2663941657
 30
0.0
 11
698.921207283
 21
354.9184964371
 31
0.0
  0
ARC
  5
25F
330
1F
100
AcDbEntity
  8
0
  6
Continuous
 62
     7
370
    25
100
AcDbCircle
 10
700.9923168639
 20
359.6371467111
 30
0.0
 40
5.153169442626439
100
AcDbArc
 50
246.302372882
 51
327.7997367962
  0
LINE
  5
260
330
1F
100
AcDbEntity
  8
0
  6
Continuous
 62
     7
370
    25
100
AcDbLine
 10
575.2354433719
 20
426.4344791972
 30
0.0
 11
698.9791300795
 21
354.9987694127
 31
0.0
  0
LINE
  5
261
330
1F
100
AcDbEntity
  8
0
  6
Continuous
 62
     7
370
    25
100
AcDbLine
 10
766.1718173763
 20
441.177749307
 30
0.0
 11
705.3528810156
 21
356.8911249371
 31
0.0
  0
LINE
  5
262
330
1F
100
AcDbEntity
  8
0
  6
Continuous
 62
     7
370
    25
100
AcDbLine
 10
698.921207283
 20
354.9184964371
 30
0.0
 11
575.1775205753
 21
426.3542062216
 31
0.0
  0
LWPOLYLINE
  5
263
330
1F
100
AcDbEntity
  8
0
  6
Continuous
 62
     7
370
    25
100
AcDbPolyline
 90
        3
 70
   128
 43
0.0
 10
575.1775205753
 20
426.3542062216
 10
574.5434206418
 20
426.8295106611
 10
574.0828970222
 20
427.3820765477
  0
ARC
  5
264
330
1F
100
AcDbEntity
  8
0
  6
Continuous
 62
     7
370
    25
100
AcDbCircle
 10
762.8238154447
 20
443.9789772295
 30
0.0
 40
4.365317263135291
100
AcDbArc
 50
320.0812330382
 51
37.387096305
  0
LINE
  5
265
330
1F
100
AcDbEntity
  8
0
  6
Continuous
 62
     7
370
    25
100
AcDbLine
 10
766.7801870578
 20
440.5256470356
 30
0.0
 11
766.1718173763
 21
441.177749307
 31
0.0
  0
LINE
  5
266
330
1F
100
AcDbEntity
  8
0
  6
Continuous
 62
     7
370
    25
100
AcDbLine
 10
766.7801870578
 20
440.5256470356
 30
0.0
 11
763.2468964692
 21
435.6289955245
 31
0.0
  0
LINE
  5
267
330
1F
100
AcDbEntity
  8
0
  6
Continuous
 62
     7
370
    25
100
AcDbLine
 10
763.2468964692
 20
435.6289955245
 30
0.0
 11
709.4945412857
 21
361.1356741767
 31
0.0
  0
LINE
  5
268
330
1F
100
AcDbEntity
  8
0
  6
Continuous
 62
     7
370
    25
100
AcDbLine
 10
705.9612506971
 20
356.2390226657
 30
0.0
 11
709.4945412857
 21
361.1356741767
 31
0.0
  0
LINE
  5
269
330
1F
100
AcDbEntity
  8
0
  6
Continuous
 62
     7
370
    25
100
AcDbLine
 10
692.4585091526
 20
358.3484347248
 30
0.0
 11
582.8569580687
 21
421.6200633911
 31
0.0
  0
LINE
  5
26A
330
1F
100
AcDbEntity
  8
0
  6
Continuous
 62
     7
370
    25
100
AcDbLine
 10
582.8569580687
 20
421.6200633911
 30
0.0
 11
575.7858902568
 21
425.7021039502
 31
0.0
  0
LINE
  5
26B
330
1F
100
AcDbEntity
  8
0
  6
Continuous
 62
     7
370
    25
100
AcDbLine
 10
575.7858902568
 20
425.7021039502
 30
0.0
 11
575.1775205753
 21
426.3542062216
 31
0.0
  0
LINE
  5
26C
330
1F
100
AcDbEntity
  8
0
  6
Continuous
 62
     7
370
    25
100
AcDbLine
 10
692.4585091526
 20
358.3484347248
 30
0.0
 11
699.5295769645
 21
354.2663941657
 31
0.0
  0
LINE
  5
26D
330
1F
100
AcDbEntity
  8
0
  6
Continuous
 62
     7
370
    25
100
AcDbLine
 10
642.3713865557
 20
507.9135055012
 30
0.0
 11
587.349838951
 21
431.6612591992
 31
0.0
  0
LINE
  5
26E
330
1F
100
AcDbEntity
  8
0
  6
Continuous
 62
     7
370
    25
100
AcDbLine
 10
749.4868179491
 20
446.0770831831
 30
0.0
 11
642.3713865557
 21
507.9135055012
 31
0.0
  0
ARC
  5
26F
330
1F
100
AcDbEntity
  8
0
  6
Continuous
 62
     7
370
    25
100
AcDbCircle
 10
762.335871847
 20
445.9014274521
 30
0.0
 40
2.900909721748481
100
AcDbArc
 50
317.6057339432
 51
54.4508464505
  0
ARC
  5
270
330
1F
100
AcDbEntity
  8
0
  6
Continuous
 62
     7
370
    25
100
AcDbCircle
 10
764.3173790538
 20
446.8538917976
 30
0.0
 40
1.438324635507371
100
AcDbArc
 50
101.8318745305
 51
148.1778616584
  0
LINE
  5
271
330
1F
100
AcDbEntity
  8
0
  6
Continuous
 62
     7
370
    25
100
AcDbLine
 10
639.2322593936
 20
520.3015088171
 30
0.0
 11
764.0224641374
 21
448.2616570299
 31
0.0
  0
ARC
  5
272
330
1F
100
AcDbEntity
  8
0
  6
Continuous
 62
     7
370
    25
100
AcDbCircle
 10
639.52717431
 20
518.8937435848
 30
0.0
 40
1.438324635539918
100
AcDbArc
 50
101.8318745308
 51
148.1778616577
  0
SPLINE
  5
273
330
1F
100
AcDbEntity
  8
0
  6
Continuous
 62
     7
370
    25
100
AcDbSpline
210
0.0
220
0.0
230
1.0
 70
     8
 71
     3
 72
    11
 73
     7
 74
     0
 42
0.00000001
 43
0.00000001
 40
0.0
 40
0.0
 40
0.0
 40
0.0
 40
0.1139631014214497
 40
0.4093087342809665
 40
0.7046543671404835
 40
1.0
 40
1.0
 40
1.0
 40
1.0
 10
766.8363238885332
 20
445.9130043053221
 30
0.0
 10
766.9913648181717
 20
445.7808827774901
 30
0.0
 10
767.5482082690837
 20
445.3063564206813
 30
0.0
 10
767.8824037837007
 20
443.9806727202555
 30
0.0
 10
767.7634002299174
 20
442.1988710780056
 30
0.0
 10
767.1079247818232
 20
441.0833883830356
 30
0.0
 10
766.7801870577762
 20
440.5256470355507
 30
0.0
  0
LINE
  5
274
330
1F
100
AcDbEntity
  8
0
  6
Continuous
 62
     7
370
    25
100
AcDbLine
 10
642.3511075663
 20
507.9352422436
 30
0.0
 11
642.3713865557
 21
507.9135055012
 31
0.0
  0
SPLINE
  5
275
330
1F
100
AcDbEntity
  8
0
  6
Continuous
 62
     7
370
    25
100
AcDbSpline
210
0.0
220
0.0
230
1.0
 70
     8
 71
     3
 72
     9
 73
     5
 74
     0
 42
0.00000001
 43
0.00000001
 40
0.0
 40
0.0
 40
0.0
 40
0.0
 40
0.3281042989978565
 40
1.0
 40
1.0
 40
1.0
 40
1.0
 10
573.4080725088613
 20
427.810493864228
 30
0.0
 10
573.3549713720262
 20
427.8301307307936
 30
0.0
 10
573.1931291255294
 20
427.8899801952036
 30
0.0
 10
573.0700308606539
 20
428.0155394646445
 30
0.0
 10
572.9873216656833
 20
428.0999021980028
 30
0.0
  0
ARC
  5
276
330
1F
100
AcDbEntity
  8
0
  6
Continuous
 62
     7
370
    25
100
AcDbCircle
 10
574.9977525961
 20
431.304222967
 30
0.0
 40
2.900909721824032
100
AcDbArc
 50
137.6057339453
 51
234.4508464496
  0
LINE
  5
277
330
1F
100
AcDbEntity
  8
0
  6
Continuous
 62
     7
370
    25
100
AcDbLine
 10
572.855364572
 20
433.2600989263
 30
0.0
 11
572.8602247309
 21
433.2712232933
 31
0.0
  0
LINE
  5
278
330
1F
100
AcDbEntity
  8
0
  6
Continuous
 62
     7
370
    25
100
AcDbLine
 10
575.7858902568
 20
425.7021039502
 30
0.0
 11
575.0903593469
 21
426.3694157395
 31
0.0
  0
ARC
  5
279
330
1F
100
AcDbEntity
  8
0
  6
Continuous
 62
     7
370
    25
100
AcDbCircle
 10
637.7980282292
 20
517.537467766
 30
0.0
 40
3.11399132388621
100
AcDbArc
 50
62.5756870038
 51
114.5463982623
  0
SPLINE
  5
27A
330
1F
100
AcDbEntity
  8
0
  6
Continuous
 62
     8
370
    25
100
AcDbSpline
210
0.0
220
0.0
230
1.0
 70
     8
 71
     3
 72
    11
 73
     7
 74
     0
 42
0.00000001
 43
0.00000001
 40
0.0
 40
0.0
 40
0.0
 40
0.0
 40
0.0483429336924501
 40
0.305933372393201
 40
0.6173824958593456
 40
1.0
 40
1.0
 40
1.0
 40
1.0
 10
703.8151924003264
 20
357.6216001862391
 30
0.0
 10
703.8186977267468
 20
357.6234492012842
 30
0.0
 10
703.8408808308994
 20
357.6351505062145
 30
0.0
 10
703.8046678868641
 20
357.7168068132904
 30
0.0
 10
703.6984289680046
 20
357.8740359775967
 30
0.0
 10
703.560128977996
 20
358.0263133392756
 30
0.0
 10
703.4838884631882
 20
358.1102591475671
 30
0.0
  0
SPLINE
  5
27B
330
1F
100
AcDbEntity
  8
0
  6
Continuous
 62
     8
370
    25
100
AcDbSpline
210
0.0
220
0.0
230
1.0
 70
     8
 71
     3
 72
     9
 73
     5
 74
     0
 42
0.00000001
 43
0.00000001
 40
0.0
 40
0.0
 40
0.0
 40
0.0
 40
0.3282896310838422
 40
1.0
 40
1.0
 40
1.0
 40
1.0
 10
697.8589964523263
 20
355.9665245359608
 30
0.0
 10
697.8058498755034
 20
355.9861765826151
 30
0.0
 10
697.6439605808357
 20
356.046038499635
 30
0.0
 10
697.5208259576691
 20
356.1716283517249
 30
0.0
 10
697.4381151545155
 20
356.2559883576042
 30
0.0
  0
SPLINE
  5
27C
330
1F
100
AcDbEntity
  8
0
  6
Continuous
 62
     8
370
    25
100
AcDbSpline
210
0.0
220
0.0
230
1.0
 70
     8
 71
     3
 72
    11
 73
     7
 74
     0
 42
0.00000001
 43
0.00000001
 40
0.0
 40
0.0
 40
0.0
 40
0.0
 40
0.0483357816794408
 40
0.3059281562562869
 40
0.6173796203641027
 40
1.0
 40
1.0
 40
1.0
 40
1.0
 10
734.57219883888
 20
400.2465511986888
 30
0.0
 10
734.5757035775869
 20
400.248399956957
 30
0.0
 10
734.5978858660172
 20
400.2601011685383
 30
0.0
 10
734.5616725915495
 20
400.341757034428
 30
0.0
 10
734.4554340146275
 20
400.4989859536465
 30
0.0
 10
734.3171339684768
 20
400.651263355566
 30
0.0
 10
734.2408934227194
 20
400.735209186041
 30
0.0
  0
ARC
  5
27D
330
1F
100
AcDbEntity
  8
0
  6
Continuous
 62
     8
370
    25
100
AcDbCircle
 10
709.7216732348
 20
364.4825893711
 30
0.0
 40
8.759075934024967
100
AcDbArc
 50
229.111225827
 51
239.5460269449
  0
LWPOLYLINE
  5
27E
330
1F
100
AcDbEntity
  8
0
  6
Continuous
 62
     8
370
    25
100
AcDbPolyline
 90
        3
 70
   128
 43
0.0
 10
699.2442088516
 20
355.470343507
 10
699.1264222153
 20
355.2297107734
 10
698.9791300795
 20
354.9987694127
  0
SPLINE
  5
27F
330
1F
100
AcDbEntity
  8
0
  6
Continuous
 62
     8
370
    25
100
AcDbSpline
210
0.0
220
0.0
230
1.0
 70
     8
 71
     3
 72
     9
 73
     5
 74
     0
 42
0.00000001
 43
0.00000001
 40
0.0
 40
0.0
 40
0.0
 40
0.0
 40
0.3281042989978565
 40
1.0
 40
1.0
 40
1.0
 40
1.0
 10
635.6334692532773
 20
391.8885369440287
 30
0.0
 10
635.5803681164423
 20
391.9081738105943
 30
0.0
 10
635.4185258699454
 20
391.9680232750043
 30
0.0
 10
635.29542760507
 20
392.0935825444452
 30
0.0
 10
635.2127184100995
 20
392.1779452778035
 30
0.0
  0
ARC
  5
280
330
1F
100
AcDbEntity
  8
0
  6
Continuous
 62
     8
370
    25
100
AcDbCircle
 10
770.5406095954
 20
448.7692137409
 30
0.0
 40
8.759075934028276
100
AcDbArc
 50
229.111225827
 51
239.5460269449
  0
LWPOLYLINE
  5
281
330
1F
100
AcDbEntity
  8
0
  6
Continuous
 62
     8
370
    25
100
AcDbPolyline
 90
        3
 70
   128
 43
0.0
 10
574.3297971887
 20
427.211855815
 10
574.614025437
 20
426.9002775479
 10
575.2354433719
 20
426.4344791972
  0
ARC
  5
282
330
1F
100
AcDbEntity
  8
0
  6
Continuous
 62
     8
370
    25
100
AcDbCircle
 10
762.9767187642
 20
443.9644902096
 30
0.0
 40
4.159552780993072
100
AcDbArc
 50
318.6888380346
 51
37.6737642319
  0
LINE
  5
283
330
1F
100
AcDbEntity
  8
0
  6
Continuous
 62
     8
370
    25
100
AcDbLine
 10
575.3795966809
 20
426.6598395387
 30
0.0
 11
575.2354433719
 21
426.4344791972
 31
0.0
  0
SPLINE
  5
284
330
1F
100
AcDbEntity
  8
0
  6
Continuous
 62
     8
370
    25
100
AcDbSpline
210
0.0
220
0.0
230
1.0
 70
     8
 71
     3
 72
    11
 73
     7
 74
     0
 42
0.00000001
 43
0.00000001
 40
0.0
 40
0.0
 40
0.0
 40
0.0
 40
0.0483357816794448
 40
0.3059281562562931
 40
0.6173796203641072
 40
0.9999999999999999
 40
0.9999999999999999
 40
0.9999999999999999
 40
0.9999999999999999
 10
765.3292037984112
 20
442.8715012371626
 30
0.0
 10
765.332708537118
 20
442.8733499954309
 30
0.0
 10
765.3548908255484
 20
442.8850512070122
 30
0.0
 10
765.3186775510807
 20
442.9667070729019
 30
0.0
 10
765.2124389741587
 20
443.1239359921203
 30
0.0
 10
765.0741389280079
 20
443.2762133940398
 30
0.0
 10
764.9978983822505
 20
443.3601592245149
 30
0.0
  0
ARC
  5
285
330
1F
100
AcDbEntity
  8
0
  6
Continuous
 62
     8
370
    25
100
AcDbCircle
 10
572.8795954936
 20
432.4761061834
 30
0.0
 40
0.7953530316268818
100
AcDbArc
 50
47.8885192247
 51
91.3955723479
  0
ARC
  5
286
330
1F
100
AcDbEntity
  8
0
  6
Continuous
 62
     8
370
    25
100
AcDbCircle
 10
634.6716348318
 20
518.1113165221
 30
0.0
 40
0.7953530525776936
100
AcDbArc
 50
47.8885200369
 51
91.3955720076
  0
MTEXT
  5
287
330
1F
100
AcDbEntity
  8
SLD-0
100
AcDbMText
 10
641.376287885
 20
349.4005155281
 30
0.0
 40
4.7625
 41
0.0
 71
     2
 72
     1
  1
ISOMETRIC VIEW
  7
SLDTEXTSTYLE0
 73
     1
 44
1.0
  0
LINE
  5
288
330
1F
100
AcDbEntity
  8
0
  6
Continuous
 62
     7
370
    25
100
AcDbLine
 10
608.3407695663
 20
168.2002649652
 30
0.0
 11
575.3482477381
 21
160.2020778553
 31
0.0
  0
LINE
  5
289
330
1F
100
AcDbEntity
  8
0
  6
Continuous
 62
     7
370
    25
100
AcDbLine
 10
725.8407695663
 20
160.2002649652
 30
0.0
 11
692.8407695663
 21
168.2002649652
 31
0.0
  0
SPLINE
  5
28A
330
1F
100
AcDbEntity
  8
0
  6
Continuous
 62
     7
370
    25
100
AcDbSpline
210
0.0
220
0.0
230
1.0
 70
     8
 71
     3
 72
     9
 73
     5
 74
     0
 42
0.00000001
 43
0.00000001
 40
0.0
 40
0.0
 40
0.0
 40
0.0
 40
0.5006466808963153
 40
1.0
 40
1.0
 40
1.0
 40
1.0
 10
572.4502618655509
 20
181.3156798874039
 30
0.0
 10
572.6262434057057
 20
181.3007797750291
 30
0.0
 10
572.9777518584132
 20
181.2710180429668
 30
0.0
 10
573.3211051381575
 20
181.2412813310646
 30
0.0
 10
573.4925597380229
 20
181.226432205277
 30
0.0
  0
SPLINE
  5
28B
330
1F
100
AcDbEntity
  8
0
  6
Continuous
 62
     7
370
    25
100
AcDbSpline
210
0.0
220
0.0
230
1.0
 70
     8
 71
     3
 72
     9
 73
     5
 74
     0
 42
0.00000001
 43
0.00000001
 40
0.0
 40
0.0
 40
0.0
 40
0.0
 40
0.4996530685770298
 40
1.0
 40
1.0
 40
1.0
 40
1.0
 10
727.6889793946021
 20
181.226432205277
 30
0.0
 10
727.8618460893662
 20
181.2414025744197
 30
0.0
 10
728.2078195370153
 20
181.2713641018958
 30
0.0
 10
728.5567106628602
 20
181.3009011273532
 30
0.0
 10
728.7312772670774
 20
181.3156798874041
 30
0.0
  0
SPLINE
  5
28C
330
1F
100
AcDbEntity
  8
0
  6
Continuous
 62
     7
370
    25
100
AcDbSpline
210
0.0
220
0.0
230
1.0
 70
     8
 71
     3
 72
    17
 73
    13
 74
     0
 42
0.00000001
 43
0.00000001
 40
0.0
 40
0.0
 40
0.0
 40
0.0
 40
0.1523331091711975
 40
0.2660539307742388
 40
0.3433083917405602
 40
0.406202400114016
 40
0.4724090660749255
 40
0.5416255023528116
 40
0.6240440620510193
 40
0.7412677625163689
 40
0.8810528984710705
 40
1.0
 40
1.0
 40
1.0
 40
1.0
 10
560.1745856929513
 20
184.3736654655719
 30
0.0
 10
560.6713058607357
 20
184.174423489032
 30
0.0
 10
561.5388411841656
 20
183.826441941737
 30
0.0
 10
562.6874602918297
 20
183.4203721732253
 30
0.0
 10
563.5624518577777
 20
183.1378094200665
 30
0.0
 10
564.3084706315635
 20
182.9169827834927
 30
0.0
 10
565.0396388102772
 20
182.7198013668972
 30
0.0
 10
565.8416957884824
 20
182.5256051735537
 30
0.0
 10
566.8828116187492
 20
182.3055276061928
 30
0.0
 10
568.2620190771465
 20
182.0824430454737
 30
0.0
 10
569.7961947387491
 20
181.8166684216821
 30
0.0
 10
570.7663334075907
 20
181.6377540586972
 30
0.0
 10
571.212335745228
 20
181.5555016687131
 30
0.0
  0
SPLINE
  5
28D
330
1F
100
AcDbEntity
  8
0
  6
Continuous
 62
     7
370
    25
100
AcDbSpline
210
0.0
220
0.0
230
1.0
 70
     8
 71
     3
 72
    17
 73
    13
 74
     0
 42
0.00000001
 43
0.00000001
 40
0.0
 40
0.0
 40
0.0
 40
0.0
 40
0.1189471015289292
 40
0.2587322374836301
 40
0.3759559379489785
 40
0.4583744976471834
 40
0.5275909339250726
 40
0.5937975998859798
 40
0.6566916082594351
 40
0.7339460692257528
 40
0.8476668908287972
 40
0.9999999999999999
 40
0.9999999999999999
 40
0.9999999999999999
 40
0.9999999999999999
 10
729.9692033873971
 20
181.5555016687131
 30
0.0
 10
730.4152057250345
 20
181.6377540586972
 30
0.0
 10
731.385344393876
 20
181.8166684216821
 30
0.0
 10
732.9195200554786
 20
182.0824430454737
 30
0.0
 10
734.298727513876
 20
182.3055276061928
 30
0.0
 10
735.3398433441428
 20
182.5256051735537
 30
0.0
 10
736.141900322348
 20
182.7198013668972
 30
0.0
 10
736.8730685010618
 20
182.9169827834927
 30
0.0
 10
737.6190872748475
 20
183.1378094200665
 30
0.0
 10
738.4940788407955
 20
183.4203721732253
 30
0.0
 10
739.6426979484596
 20
183.826441941737
 30
0.0
 10
740.5102332718894
 20
184.174423489032
 30
0.0
 10
741.0069534396739
 20
184.3736654655719
 30
0.0
  0
LINE
  5
28E
330
1F
100
AcDbEntity
  8
0
  6
Continuous
 62
     7
370
    25
100
AcDbLine
 10
557.9603241907
 20
190.4011594984
 30
0.0
 11
558.0907695663
 21
189.7258999835
 31
0.0
  0
LINE
  5
28F
330
1F
100
AcDbEntity
  8
0
  6
Continuous
 62
     7
370
    25
100
AcDbLine
 10
743.0907695663
 20
189.8504180344
 30
0.0
 11
743.2356914413
 21
190.4019261509
 31
0.0
  0
LINE
  5
290
330
1F
100
AcDbEntity
  8
0
  6
Continuous
 62
     7
370
    25
100
AcDbLine
 10
587.3407695665
 20
157.7002649652
 30
0.0
 11
587.3407695665
 21
160.2002649652
 31
0.0
  0
LINE
  5
291
330
1F
100
AcDbEntity
  8
0
  6
Continuous
 62
     7
370
    25
100
AcDbLine
 10
587.3407695665
 20
157.7002649652
 30
0.0
 11
575.3407695663
 21
157.7002649652
 31
0.0
  0
LINE
  5
292
330
1F
100
AcDbEntity
  8
0
  6
Continuous
 62
     7
370
    25
100
AcDbLine
 10
575.3407695663
 20
157.7002649652
 30
0.0
 11
575.3407695663
 21
160.2002649652
 31
0.0
  0
SPLINE
  5
293
330
1F
100
AcDbEntity
  8
0
  6
Continuous
 62
     7
370
    25
100
AcDbSpline
210
0.0
220
0.0
230
1.0
 70
    24
 71
     3
 72
    15
 73
    11
 74
     0
 42
0.00000001
 43
0.00000001
 40
0.0
 40
0.0
 40
0.0
 40
0.0
 40
0.1250000000000016
 40
0.2500000000000018
 40
0.3750000000000011
 40
0.5000000000000012
 40
0.625000000000001
 40
0.7499999999999998
 40
0.875
 40
1.0
 40
1.0
 40
1.0
 40
1.0
 10
587.3407695664758
 20
160.2002649652201
 30
0.0
 10
586.5553755448917
 20
160.2002649652201
 30
0.0
 10
584.9845875017235
 20
160.2002649652201
 30
0.0
 10
582.7189946401851
 20
160.2002649652201
 30
0.0
 10
580.6308442058034
 20
160.2002649652201
 30
0.0
 10
578.8011891575735
 20
160.2002649652201
 30
0.0
 10
577.2973283166921
 20
160.2002649652202
 30
0.0
 10
576.1883028879533
 20
160.2002649652201
 30
0.0
 10
575.47475118865
 20
160.2002649652202
 30
0.0
 10
575.3854301070916
 20
160.2002649652201
 30
0.0
 10
575.3407695663124
 20
160.2002649652201
 30
0.0
  0
LINE
  5
294
330
1F
100
AcDbEntity
  8
0
  6
Continuous
 62
     7
370
    25
100
AcDbLine
 10
713.8407695663
 20
157.7002649652
 30
0.0
 11
713.8407695663
 21
160.2002649652
 31
0.0
  0
LINE
  5
295
330
1F
100
AcDbEntity
  8
0
  6
Continuous
 62
     7
370
    25
100
AcDbLine
 10
713.8407695663
 20
157.7002649652
 30
0.0
 11
587.3407695665
 21
157.7002649652
 31
0.0
  0
LINE
  5
296
330
1F
100
AcDbEntity
  8
0
  6
Continuous
 62
     7
370
    25
100
AcDbLine
 10
713.8407695663
 20
160.2002649652
 30
0.0
 11
587.3407695665
 21
160.2002649652
 31
0.0
  0
LINE
  5
297
330
1F
100
AcDbEntity
  8
0
  6
Continuous
 62
     7
370
    25
100
AcDbLine
 10
725.8407695663
 20
157.7002649652
 30
0.0
 11
725.8407695663
 21
160.2002649652
 31
0.0
  0
LINE
  5
298
330
1F
100
AcDbEntity
  8
0
  6
Continuous
 62
     7
370
    25
100
AcDbLine
 10
725.8407695663
 20
157.7002649652
 30
0.0
 11
713.8407695663
 21
157.7002649652
 31
0.0
  0
SPLINE
  5
299
330
1F
100
AcDbEntity
  8
0
  6
Continuous
 62
     7
370
    25
100
AcDbSpline
210
0.0
220
0.0
230
1.0
 70
    24
 71
     3
 72
    15
 73
    11
 74
     0
 42
0.00000001
 43
0.00000001
 40
0.0
 40
0.0
 40
0.0
 40
0.0
 40
0.1249999999999969
 40
0.2499999999999972
 40
0.3749999999999978
 40
0.4999999999999983
 40
0.6249999999999992
 40
0.7499999999999992
 40
0.8749999999999994
 40
1.0
 40
1.0
 40
1.0
 40
1.0
 10
725.8407695663124
 20
160.2002649652201
 30
0.0
 10
725.7961090255342
 20
160.2002649652201
 30
0.0
 10
725.7067879439776
 20
160.2002649652202
 30
0.0
 10
724.9932362446866
 20
160.2002649652202
 30
0.0
 10
723.8842108159664
 20
160.2002649652202
 30
0.0
 10
722.3803499751091
 20
160.2002649652202
 30
0.0
 10
720.5506949269067
 20
160.2002649652201
 30
0.0
 10
718.4625444925535
 20
160.2002649652202
 30
0.0
 10
716.1969516310428
 20
160.2002649652202
 30
0.0
 10
714.6261635878892
 20
160.2002649652201
 30
0.0
 10
713.8407695663125
 20
160.20026496522
 30
0.0
  0
LINE
  5
29A
330
1F
100
AcDbEntity
  8
0
  6
Continuous
 62
     7
370
    25
100
AcDbLine
 10
683.8407695663
 20
168.2002649652
 30
0.0
 11
617.3407695663
 21
168.2002649652
 31
0.0
  0
SPLINE
  5
29B
330
1F
100
AcDbEntity
  8
0
  6
Continuous
 62
     7
370
    25
100
AcDbSpline
210
0.0
220
0.0
230
1.0
 70
    24
 71
     3
 72
    14
 73
    10
 74
     0
 42
0.00000001
 43
0.00000001
 40
0.0
 40
0.0
 40
0.0
 40
0.0
 40
0.1326627182034154
 40
0.2743449827632135
 40
0.4220599231896425
 40
0.5711838746874514
 40
0.7233859469229955
 40
0.8670906159940729
 40
1.0
 40
1.0
 40
1.0
 40
1.0
 10
692.8407695663125
 20
168.2002649652202
 30
0.0
 10
692.8028784138694
 20
168.2002649652201
 30
0.0
 10
692.724519944326
 20
168.2002649652201
 30
0.0
 10
692.0716379815176
 20
168.2002649652201
 30
0.0
 10
690.9964481613433
 20
168.2002649652201
 30
0.0
 10
689.495843542864
 20
168.2002649652201
 30
0.0
 10
687.6994755332942
 20
168.2002649652201
 30
0.0
 10
685.7698629523543
 20
168.2002649652202
 30
0.0
 10
684.4668500061892
 20
168.2002649652202
 30
0.0
 10
683.8407695663125
 20
168.2002649652202
 30
0.0
  0
SPLINE
  5
29C
330
1F
100
AcDbEntity
  8
0
  6
Continuous
 62
     7
370
    25
100
AcDbSpline
210
0.0
220
0.0
230
1.0
 70
    24
 71
     3
 72
    14
 73
    10
 74
     0
 42
0.00000001
 43
0.00000001
 40
0.0
 40
0.0
 40
0.0
 40
0.0
 40
0.1266453710958634
 40
0.2631942331383681
 40
0.40778266726838
 40
0.5566857848067088
 40
0.7118345976452335
 40
0.8608013323893402
 40
1.0
 40
1.0
 40
1.0
 40
1.0
 10
617.3407695663125
 20
168.2002649652202
 30
0.0
 10
616.7442971620478
 20
168.2002649652202
 30
0.0
 10
615.504709045481
 20
168.2002649652203
 30
0.0
 10
613.6620155794583
 20
168.2002649652201
 30
0.0
 10
611.8993769845594
 20
168.2002649652202
 30
0.0
 10
610.3504187604434
 20
168.2002649652201
 30
0.0
 10
609.1885598579656
 20
168.2002649652202
 30
0.0
 10
608.4689651019819
 20
168.2002649652202
 30
0.0
 10
608.3825247090887
 20
168.2002649652202
 30
0.0
 10
608.3407695663125
 20
168.2002649652202
 30
0.0
  0
LWPOLYLINE
  5
29D
330
1F
100
AcDbEntity
  8
0
  6
Continuous
 62
     7
370
    25
100
AcDbPolyline
 90
        2
 70
   128
 43
0.0
 10
725.8407695663
 20
160.2002649652
 10
725.8407695663
 20
160.2002649652
  0
LWPOLYLINE
  5
29E
330
1F
100
AcDbEntity
  8
0
  6
Continuous
 62
     7
370
    25
100
AcDbPolyline
 90
        2
 70
   128
 43
0.0
 10
575.3407695663
 20
160.2002649652
 10
575.3407695663
 20
160.2002649652
  0
LWPOLYLINE
  5
29F
330
1F
100
AcDbEntity
  8
0
  6
Continuous
 62
     7
370
    25
100
AcDbPolyline
 90
       11
 70
   128
 43
0.0
 10
617.8407695663
 20
178.9577700701
 10
616.6434843343
 20
178.9037228852
 10
615.4756802382
 20
178.7429121516
 10
614.3661124907
 20
178.4792975632
 10
613.3421023322
 20
178.1193701861
 10
612.4288642911
 20
177.6719926269
 10
611.648885319
 20
177.1481808058
 10
611.0213710868
 20
176.5608327082
 10
610.5617730774
 20
175.9244107937
 10
610.2814081191
 20
175.2545858819
 10
610.1871797278
 20
174.5678512853
  0
LINE
  5
2A0
330
1F
100
AcDbEntity
  8
0
  6
Continuous
 62
     7
370
    25
100
AcDbLine
 10
610.1871797278
 20
174.5678512853
 30
0.0
 11
609.8407695663
 21
174.7316816941
 31
0.0
  0
LWPOLYLINE
  5
2A1
330
1F
100
AcDbEntity
  8
0
  6
Continuous
 62
     7
370
    25
100
AcDbPolyline
 90
       11
 70
   128
 43
0.0
 10
609.8407695663
 20
174.7316816941
 10
609.9392628416
 20
175.449498678
 10
610.232317436
 20
176.1496406254
 10
610.7127173728
 20
176.8148677179
 10
611.3686336113
 20
177.4287998569
 10
612.1839153168
 20
177.9763199955
 10
613.138487548
 20
178.4439463708
 10
614.2088455684
 20
178.8201644694
 10
615.3686336113
 20
179.0957105532
 10
616.589293846
 20
179.2637997631
 10
617.8407695663
 20
179.3202931849
  0
LINE
  5
2A2
330
1F
100
AcDbEntity
  8
0
  6
Continuous
 62
     7
370
    25
100
AcDbLine
 10
617.8407695663
 20
178.9577700701
 30
0.0
 11
617.8407695663
 21
179.3202931849
 31
0.0
  0
LINE
  5
2A3
330
1F
100
AcDbEntity
  8
0
  6
Continuous
 62
     7
370
    25
100
AcDbLine
 10
617.8407695663
 20
179.3202931849
 30
0.0
 11
683.3407695663
 21
179.3202931849
 31
0.0
  0
LINE
  5
2A4
330
1F
100
AcDbEntity
  8
0
  6
Continuous
 62
     7
370
    25
100
AcDbLine
 10
683.3407695663
 20
179.3202931849
 30
0.0
 11
683.3407695663
 21
178.9577700701
 31
0.0
  0
LINE
  5
2A5
330
1F
100
AcDbEntity
  8
0
  6
Continuous
 62
     7
370
    25
100
AcDbLine
 10
683.3407695663
 20
178.9577700701
 30
0.0
 11
617.8407695663
 21
178.9577700701
 31
0.0
  0
LWPOLYLINE
  5
2A6
330
1F
100
AcDbEntity
  8
0
  6
Continuous
 62
     7
370
    25
100
AcDbPolyline
 90
       11
 70
   128
 43
0.0
 10
683.3407695663
 20
179.3202931849
 10
684.5922452866
 20
179.2637997631
 10
685.8129055213
 20
179.0957105532
 10
686.9726935642
 20
178.8201644694
 10
688.0430515847
 20
178.4439463708
 10
688.9976238158
 20
177.9763199955
 10
689.8129055213
 20
177.4287998569
 10
690.4688217598
 20
176.8148677179
 10
690.9492216967
 20
176.1496406254
 10
691.2422762911
 20
175.449498678
 10
691.3407695663
 20
174.7316816941
  0
LINE
  5
2A7
330
1F
100
AcDbEntity
  8
0
  6
Continuous
 62
     7
370
    25
100
AcDbLine
 10
691.3407695663
 20
174.7316816941
 30
0.0
 11
690.9943594048
 21
174.5678512853
 31
0.0
  0
LWPOLYLINE
  5
2A8
330
1F
100
AcDbEntity
  8
0
  6
Continuous
 62
     7
370
    25
100
AcDbPolyline
 90
       11
 70
   128
 43
0.0
 10
690.9943594048
 20
174.5678512853
 10
690.9001310135
 20
175.2545858819
 10
690.6197660553
 20
175.9244107937
 10
690.1601680459
 20
176.5608327082
 10
689.5326538136
 20
177.1481808058
 10
688.7526748415
 20
177.6719926269
 10
687.8394368005
 20
178.1193701861
 10
686.8154266419
 20
178.4792975632
 10
685.7058588944
 20
178.7429121516
 10
684.5380547983
 20
178.9037228852
 10
683.3407695663
 20
178.9577700701
  0
LWPOLYLINE
  5
2A9
330
1F
100
AcDbEntity
  8
0
  6
Continuous
 62
     7
370
    25
100
AcDbPolyline
 90
       11
 70
   128
 43
0.0
 10
617.8407695663
 20
223.3906731677
 10
616.589293846
 20
223.3341797459
 10
615.3686336113
 20
223.1660905359
 10
614.2088455684
 20
222.8905444521
 10
613.138487548
 20
222.5143263535
 10
612.1839153168
 20
222.0466999782
 10
611.3686336113
 20
221.4991798397
 10
610.7127173728
 20
220.8852477007
 10
610.232317436
 20
220.2200206081
 10
609.9392628416
 20
219.5198786607
 10
609.8407695663
 20
218.8020616769
  0
LINE
  5
2AA
330
1F
100
AcDbEntity
  8
0
  6
Continuous
 62
     7
370
    25
100
AcDbLine
 10
617.8407695663
 20
179.3202931849
 30
0.0
 11
617.8407695663
 21
223.3906731677
 31
0.0
  0
LINE
  5
2AB
330
1F
100
AcDbEntity
  8
0
  6
Continuous
 62
     7
370
    25
100
AcDbLine
 10
609.8407695663
 20
174.7316816941
 30
0.0
 11
609.8407695663
 21
218.8020616769
 31
0.0
  0
LINE
  5
2AC
330
1F
100
AcDbEntity
  8
0
  6
Continuous
 62
     7
370
    25
100
AcDbLine
 10
683.3407695663
 20
223.3906731677
 30
0.0
 11
617.8407695663
 21
223.3906731677
 31
0.0
  0
LINE
  5
2AD
330
1F
100
AcDbEntity
  8
0
  6
Continuous
 62
     7
370
    25
100
AcDbLine
 10
683.3407695663
 20
179.3202931849
 30
0.0
 11
683.3407695663
 21
223.3906731677
 31
0.0
  0
LWPOLYLINE
  5
2AE
330
1F
100
AcDbEntity
  8
0
  6
Continuous
 62
     7
370
    25
100
AcDbPolyline
 90
       11
 70
   128
 43
0.0
 10
691.3407695663
 20
218.8020616769
 10
691.2422762911
 20
219.5198786607
 10
690.9492216967
 20
220.2200206081
 10
690.4688217598
 20
220.8852477007
 10
689.8129055213
 20
221.4991798397
 10
688.9976238158
 20
222.0466999782
 10
688.0430515847
 20
222.5143263535
 10
686.9726935642
 20
222.8905444521
 10
685.8129055213
 20
223.1660905359
 10
684.5922452866
 20
223.3341797459
 10
683.3407695663
 20
223.3906731677
  0
LINE
  5
2AF
330
1F
100
AcDbEntity
  8
0
  6
Continuous
 62
     7
370
    25
100
AcDbLine
 10
691.3407695663
 20
174.7316816941
 30
0.0
 11
691.3407695663
 21
218.8020616769
 31
0.0
  0
LWPOLYLINE
  5
2B0
330
1F
100
AcDbEntity
  8
0
  6
Continuous
 62
     7
370
    25
100
AcDbPolyline
 90
        9
 70
   128
 43
0.0
 10
654.8407695663
 20
174.2237054234
 10
654.8119474869
 20
174.3915542409
 10
654.7265888651
 20
174.5529527225
 10
654.5879739848
 20
174.701698415
 10
654.4014297381
 20
174.832075105
 10
654.1741249158
 20
174.9390724892
 10
653.9147947149
 20
175.0185787183
 10
653.6334050493
 20
175.0675384124
 10
653.3407695663
 20
175.084070078
  0
LINE
  5
2B1
330
1F
100
AcDbEntity
  8
0
  6
Continuous
 62
     7
370
    25
100
AcDbLine
 10
653.3407695663
 20
175.084070078
 30
0.0
 11
647.8407695663
 21
175.084070078
 31
0.0
  0
LWPOLYLINE
  5
2B2
330
1F
100
AcDbEntity
  8
0
  6
Continuous
 62
     7
370
    25
100
AcDbPolyline
 90
        9
 70
   128
 43
0.0
 10
647.8407695663
 20
175.084070078
 10
647.5481340833
 20
175.0675384124
 10
647.2667444178
 20
175.0185787183
 10
647.0074142168
 20
174.9390724892
 10
646.7801093945
 20
174.832075105
 10
646.5935651479
 20
174.701698415
 10
646.4549502675
 20
174.5529527225
 10
646.3695916457
 20
174.3915542409
 10
646.3407695663
 20
174.2237054234
  0
LINE
  5
2B3
330
1F
100
AcDbEntity
  8
0
  6
Continuous
 62
     7
370
    25
100
AcDbLine
 10
646.3407695663
 20
174.2237054234
 30
0.0
 11
646.3407695663
 21
169.8278965666
 31
0.0
  0
LINE
  5
2B4
330
1F
100
AcDbEntity
  8
0
  6
Continuous
 62
     7
370
    25
100
AcDbLine
 10
610.1871797278
 20
169.8278965666
 30
0.0
 11
646.3407695663
 21
169.8278965666
 31
0.0
  0
LINE
  5
2B5
330
1F
100
AcDbEntity
  8
0
  6
Continuous
 62
     7
370
    25
100
AcDbLine
 10
610.1871797278
 20
174.5678512853
 30
0.0
 11
610.1871797278
 21
169.8278965666
 31
0.0
  0
LINE
  5
2B6
330
1F
100
AcDbEntity
  8
0
  6
Continuous
 62
     7
370
    25
100
AcDbLine
 10
690.9943594048
 20
169.8278965666
 30
0.0
 11
690.9943594048
 21
174.5678512853
 31
0.0
  0
LINE
  5
2B7
330
1F
100
AcDbEntity
  8
0
  6
Continuous
 62
     7
370
    25
100
AcDbLine
 10
654.8407695663
 20
169.8278965666
 30
0.0
 11
690.9943594048
 21
169.8278965666
 31
0.0
  0
LINE
  5
2B8
330
1F
100
AcDbEntity
  8
0
  6
Continuous
 62
     7
370
    25
100
AcDbLine
 10
654.8407695663
 20
169.8278965666
 30
0.0
 11
654.8407695663
 21
174.2237054234
 31
0.0
  0
LINE
  5
2B9
330
1F
100
AcDbEntity
  8
0
  6
Continuous
 62
     7
370
    25
100
AcDbLine
 10
599.0907695663
 20
156.0002649652
 30
0.0
 11
599.0907695663
 21
157.7002649652
 31
0.0
  0
LINE
  5
2BA
330
1F
100
AcDbEntity
  8
0
  6
Continuous
 62
     7
370
    25
100
AcDbLine
 10
599.0907695663
 20
156.0002649652
 30
0.0
 11
588.9407695663
 21
156.0002649652
 31
0.0
  0
LINE
  5
2BB
330
1F
100
AcDbEntity
  8
0
  6
Continuous
 62
     7
370
    25
100
AcDbLine
 10
588.9407695663
 20
156.0002649652
 30
0.0
 11
588.9407695663
 21
157.7002649652
 31
0.0
  0
LINE
  5
2BC
330
1F
100
AcDbEntity
  8
0
  6
Continuous
 62
     7
370
    25
100
AcDbLine
 10
702.0907695663
 20
156.0002649652
 30
0.0
 11
599.0907695663
 21
156.0002649652
 31
0.0
  0
LINE
  5
2BD
330
1F
100
AcDbEntity
  8
0
  6
Continuous
 62
     7
370
    25
100
AcDbLine
 10
702.0907695663
 20
156.0002649652
 30
0.0
 11
702.0907695663
 21
157.7002649652
 31
0.0
  0
LINE
  5
2BE
330
1F
100
AcDbEntity
  8
0
  6
Continuous
 62
     7
370
    25
100
AcDbLine
 10
712.2407695663
 20
156.0002649652
 30
0.0
 11
712.2407695663
 21
157.7002649652
 31
0.0
  0
LINE
  5
2BF
330
1F
100
AcDbEntity
  8
0
  6
Continuous
 62
     7
370
    25
100
AcDbLine
 10
712.2407695663
 20
156.0002649652
 30
0.0
 11
702.0907695663
 21
156.0002649652
 31
0.0
  0
LINE
  5
2C0
330
1F
100
AcDbEntity
  8
0
  6
Continuous
 62
     7
370
    25
100
AcDbLine
 10
646.3407695663
 20
170.6470486109
 30
0.0
 11
654.8407695663
 21
170.6470486109
 31
0.0
  0
LINE
  5
2C1
330
1F
100
AcDbEntity
  8
0
  6
Continuous
 62
     7
370
    25
100
AcDbLine
 10
610.1871797278
 20
169.8278965666
 30
0.0
 11
609.8407695663
 21
169.9917269755
 31
0.0
  0
LINE
  5
2C2
330
1F
100
AcDbEntity
  8
0
  6
Continuous
 62
     7
370
    25
100
AcDbLine
 10
609.8407695663
 20
169.9917269755
 30
0.0
 11
609.8407695663
 21
174.7316816941
 31
0.0
  0
LINE
  5
2C3
330
1F
100
AcDbEntity
  8
0
  6
Continuous
 62
     7
370
    25
100
AcDbLine
 10
691.3407695663
 20
174.7316816941
 30
0.0
 11
691.3407695663
 21
169.9917269755
 31
0.0
  0
LINE
  5
2C4
330
1F
100
AcDbEntity
  8
0
  6
Continuous
 62
     7
370
    25
100
AcDbLine
 10
691.3407695663
 20
169.9917269755
 30
0.0
 11
690.9943594048
 21
169.8278965666
 31
0.0
  0
LINE
  5
2C5
330
1F
100
AcDbEntity
  8
0
  6
Continuous
 62
     7
370
    25
100
AcDbLine
 10
646.3407695663
 20
169.8278965666
 30
0.0
 11
654.8407695663
 21
169.8278965666
 31
0.0
  0
LINE
  5
2C6
330
1F
100
AcDbEntity
  8
0
  6
Continuous
 62
     7
370
    25
100
AcDbLine
 10
690.9943594048
 20
168.2002649652
 30
0.0
 11
690.9943594048
 21
169.8278965666
 31
0.0
  0
LINE
  5
2C7
330
1F
100
AcDbEntity
  8
0
  6
Continuous
 62
     7
370
    25
100
AcDbLine
 10
610.1871797278
 20
169.8278965666
 30
0.0
 11
610.1871797278
 21
168.2002649652
 31
0.0
  0
LINE
  5
2C8
330
1F
100
AcDbEntity
  8
0
  6
Continuous
 62
     7
370
    25
100
AcDbLine
 10
610.1871797278
 20
168.2002649652
 30
0.0
 11
609.8407695663
 21
168.4002649652
 31
0.0
  0
LINE
  5
2C9
330
1F
100
AcDbEntity
  8
0
  6
Continuous
 62
     7
370
    25
100
AcDbLine
 10
609.8407695663
 20
168.4002649652
 30
0.0
 11
609.8407695663
 21
169.9917269755
 31
0.0
  0
LINE
  5
2CA
330
1F
100
AcDbEntity
  8
0
  6
Continuous
 62
     7
370
    25
100
AcDbLine
 10
691.3407695663
 20
168.4002649652
 30
0.0
 11
690.9943594048
 21
168.2002649652
 31
0.0
  0
LINE
  5
2CB
330
1F
100
AcDbEntity
  8
0
  6
Continuous
 62
     7
370
    25
100
AcDbLine
 10
691.3407695663
 20
169.9917269755
 30
0.0
 11
691.3407695663
 21
168.4002649652
 31
0.0
  0
LWPOLYLINE
  5
2CC
330
1F
100
AcDbEntity
  8
0
  6
Continuous
 62
     7
370
    25
100
AcDbPolyline
 90
       12
 70
   128
 43
0.0
 10
617.8407695663
 20
226.1761301289
 10
616.4176211836
 20
226.117748318
 10
615.0234439979
 20
225.9437913705
 10
613.6866194363
 20
225.6578005483
 10
612.4343613918
 20
225.2655977997
 10
611.2921622269
 20
224.7751672418
 10
610.2832738228
 20
224.1964926263
 10
609.428234238
 20
223.5413540997
 10
608.7444496128
 20
222.8230883931
 10
608.2458398302
 20
222.056317325
 10
607.9425551475
 20
221.2566501432
 10
607.8407695663
 20
220.4403657654
  0
LINE
  5
2CD
330
1F
100
AcDbEntity
  8
0
  6
Continuous
 62
     7
370
    25
100
AcDbLine
 10
617.8407695663
 20
226.1761301289
 30
0.0
 11
617.8407695663
 21
223.3906731677
 31
0.0
  0
ARC
  5
2CE
330
1F
100
AcDbEntity
  8
0
  6
Continuous
 62
     7
370
    25
100
AcDbCircle
 10
608.0052645305
 20
218.6012504046
 30
0.0
 40
1.846457122063464
100
AcDbArc
 50
6.2435463851
 51
95.1110737956
  0
LINE
  5
2CF
330
1F
100
AcDbEntity
  8
0
  6
Continuous
 62
     7
370
    25
100
AcDbLine
 10
683.3407695663
 20
226.1761301289
 30
0.0
 11
617.8407695663
 21
226.1761301289
 31
0.0
  0
LINE
  5
2D0
330
1F
100
AcDbEntity
  8
0
  6
Continuous
 62
     7
370
    25
100
AcDbLine
 10
683.3407695663
 20
226.1761301289
 30
0.0
 11
683.3407695663
 21
223.3906731677
 31
0.0
  0
LWPOLYLINE
  5
2D1
330
1F
100
AcDbEntity
  8
0
  6
Continuous
 62
     7
370
    25
100
AcDbPolyline
 90
       12
 70
   128
 43
0.0
 10
693.3407695663
 20
220.4403657654
 10
693.2389839851
 20
221.2566501432
 10
692.9356993025
 20
222.056317325
 10
692.4370895199
 20
222.8230883931
 10
691.7533048946
 20
223.5413540997
 10
690.8982653099
 20
224.1964926263
 10
689.8893769058
 20
224.7751672418
 10
688.7471777409
 20
225.2655977997
 10
687.4949196963
 20
225.6578005483
 10
686.1580951347
 20
225.9437913705
 10
684.763917949
 20
226.117748318
 10
683.3407695663
 20
226.1761301289
  0
ARC
  5
2D2
330
1F
100
AcDbEntity
  8
0
  6
Continuous
 62
     7
370
    25
100
AcDbCircle
 10
693.1762746021
 20
218.6012504046
 30
0.0
 40
1.846457122063596
100
AcDbArc
 50
84.8889262044
 51
173.7564536149
  0
LINE
  5
2D3
330
1F
100
AcDbEntity
  8
0
  6
Continuous
 62
     7
370
    25
100
AcDbLine
 10
617.8407695663
 20
226.1761301289
 30
0.0
 11
617.8407695663
 21
227.8144342175
 31
0.0
  0
LINE
  5
2D4
330
1F
100
AcDbEntity
  8
0
  6
Continuous
 62
     7
370
    25
100
AcDbLine
 10
607.8407695663
 20
220.4403657654
 30
0.0
 11
607.8407695663
 21
222.078669854
 31
0.0
  0
LWPOLYLINE
  5
2D5
330
1F
100
AcDbEntity
  8
0
  6
Continuous
 62
     7
370
    25
100
AcDbPolyline
 90
       12
 70
   128
 43
0.0
 10
617.8407695663
 20
227.8144342175
 10
616.4176211836
 20
227.7560524066
 10
615.0234439979
 20
227.5820954591
 10
613.6866194363
 20
227.2961046369
 10
612.4343613918
 20
226.9039018883
 10
611.2921622269
 20
226.4134713303
 10
610.2832738228
 20
225.8347967148
 10
609.428234238
 20
225.1796581882
 10
608.7444496128
 20
224.4613924817
 10
608.2458398302
 20
223.6946214136
 10
607.9425551475
 20
222.8949542318
 10
607.8407695663
 20
222.078669854
  0
LINE
  5
2D6
330
1F
100
AcDbEntity
  8
0
  6
Continuous
 62
     7
370
    25
100
AcDbLine
 10
683.3407695663
 20
226.1761301289
 30
0.0
 11
683.3407695663
 21
227.8144342175
 31
0.0
  0
LINE
  5
2D7
330
1F
100
AcDbEntity
  8
0
  6
Continuous
 62
     7
370
    25
100
AcDbLine
 10
683.3407695663
 20
227.8144342175
 30
0.0
 11
617.8407695663
 21
227.8144342175
 31
0.0
  0
LINE
  5
2D8
330
1F
100
AcDbEntity
  8
0
  6
Continuous
 62
     7
370
    25
100
AcDbLine
 10
693.3407695663
 20
220.4403657654
 30
0.0
 11
693.3407695663
 21
222.078669854
 31
0.0
  0
LWPOLYLINE
  5
2D9
330
1F
100
AcDbEntity
  8
0
  6
Continuous
 62
     7
370
    25
100
AcDbPolyline
 90
       12
 70
   128
 43
0.0
 10
693.3407695663
 20
222.078669854
 10
693.2389839851
 20
222.8949542318
 10
692.9356993025
 20
223.6946214136
 10
692.4370895199
 20
224.4613924817
 10
691.7533048946
 20
225.1796581882
 10
690.8982653099
 20
225.8347967148
 10
689.8893769058
 20
226.4134713303
 10
688.7471777409
 20
226.9039018883
 10
687.4949196963
 20
227.2961046369
 10
686.1580951347
 20
227.5820954591
 10
684.763917949
 20
227.7560524066
 10
683.3407695663
 20
227.8144342175
  0
LINE
  5
2DA
330
1F
100
AcDbEntity
  8
0
  6
Continuous
 62
     7
370
    25
100
AcDbLine
 10
607.8407695663
 20
220.4403657654
 30
0.0
 11
607.8407695663
 21
194.6294261296
 31
0.0
  0
ARC
  5
2DB
330
1F
100
AcDbEntity
  8
0
  6
Continuous
 62
     7
370
    25
100
AcDbCircle
 10
608.0052645305
 20
192.7903107688
 30
0.0
 40
1.846457122063567
100
AcDbArc
 50
6.2435463851
 51
95.1110737956
  0
LINE
  5
2DC
330
1F
100
AcDbEntity
  8
0
  6
Continuous
 62
     7
370
    25
100
AcDbLine
 10
693.3407695663
 20
194.6294261296
 30
0.0
 11
693.3407695663
 21
220.4403657654
 31
0.0
  0
ARC
  5
2DD
330
1F
100
AcDbEntity
  8
0
  6
Continuous
 62
     7
370
    25
100
AcDbCircle
 10
693.1762746021
 20
192.7903107688
 30
0.0
 40
1.846457122063905
100
AcDbArc
 50
84.8889262044
 51
173.7564536149
  0
ARC
  5
2DE
330
1F
100
AcDbEntity
  8
0
  6
Continuous
 62
     7
370
    25
100
AcDbCircle
 10
612.4311701638
 20
194.9952542928
 30
0.0
 40
4.604954711014877
100
AcDbArc
 50
184.5565094716
 51
235.7694245385
  0
ARC
  5
2DF
330
1F
100
AcDbEntity
  8
0
  6
Continuous
 62
     7
370
    25
100
AcDbCircle
 10
688.845405934
 20
194.940023662
 30
0.0
 40
4.506080893002181
100
AcDbArc
 50
303.626513849
 51
356.0475521409
  0
SPLINE
  5
2E0
330
1F
100
AcDbEntity
  8
0
  6
Continuous
 62
     7
370
    25
100
AcDbSpline
210
0.0
220
0.0
230
1.0
 70
     8
 71
     3
 72
    12
 73
     8
 74
     0
 42
0.00000001
 43
0.00000001
 40
0.0
 40
0.0
 40
0.0
 40
0.0
 40
0.1911402034931748
 40
0.3740560894572669
 40
0.5535335623345254
 40
0.7747568674384558
 40
1.0
 40
1.0
 40
1.0
 40
1.0
 10
733.0907695663126
 20
237.4500083321765
 30
0.0
 10
733.047245278115
 20
237.7368192633424
 30
0.0
 10
732.9620694504135
 20
238.2981003196815
 30
0.0
 10
732.3095995868615
 20
239.0570273410316
 30
0.0
 10
731.291202974677
 20
239.7127595628247
 30
0.0
 10
729.8503837149871
 20
240.2139190245719
 30
0.0
 10
728.6808177367044
 20
240.2830259459718
 30
0.0
 10
728.0907695663126
 20
240.3178905139316
 30
0.0
  0
LINE
  5
2E1
330
1F
100
AcDbEntity
  8
0
  6
Continuous
 62
     7
370
    25
100
AcDbLine
 10
728.0907695663
 20
240.3178905139
 30
0.0
 11
728.0907695663
 21
249.796516699
 31
0.0
  0
LINE
  5
2E2
330
1F
100
AcDbEntity
  8
0
  6
Continuous
 62
     7
370
    25
100
AcDbLine
 10
728.0907695663
 20
249.796516699
 30
0.0
 11
738.0907695663
 21
249.796516699
 31
0.0
  0
SPLINE
  5
2E3
330
1F
100
AcDbEntity
  8
0
  6
Continuous
 62
     7
370
    25
100
AcDbSpline
210
0.0
220
0.0
230
1.0
 70
     8
 71
     3
 72
    15
 73
    11
 74
     0
 42
0.00000001
 43
0.00000001
 40
0.0
 40
0.0
 40
0.0
 40
0.0
 40
0.1250000000000001
 40
0.2499999999999992
 40
0.3750000000000004
 40
0.4999999999999993
 40
0.6250000000000003
 40
0.7500000000000004
 40
0.8750000000000011
 40
1.0
 40
1.0
 40
1.0
 40
1.0
 10
738.0907695663126
 20
249.7965166989827
 30
0.0
 10
738.4180170753028
 20
249.7858432682222
 30
0.0
 10
739.0725120932835
 20
249.7644964067012
 30
0.0
 10
740.0165091189128
 20
249.5939645563547
 30
0.0
 10
740.8865717998932
 20
249.3289183675097
 30
0.0
 10
741.6489280699776
 20
248.9695103917318
 30
0.0
 10
742.2755367536682
 20
248.532240799107
 30
0.0
 10
742.7376306823016
 20
248.0331933471482
 30
0.0
 10
743.0349438903395
 20
247.4917388972617
 30
0.0
 10
743.0721610076549
 20
247.1163359772389
 30
0.0
 10
743.0907695663126
 20
246.9286345172275
 30
0.0
  0
LINE
  5
2E4
330
1F
100
AcDbEntity
  8
0
  6
Continuous
 62
     7
370
    25
100
AcDbLine
 10
743.0907695663
 20
246.9286345172
 30
0.0
 11
743.0907695663
 21
243.4298182555
 31
0.0
  0
ARC
  5
2E5
330
1F
100
AcDbEntity
  8
0
  6
Continuous
 62
     7
370
    25
100
AcDbCircle
 10
724.9398998416
 20
262.4320332664
 30
0.0
 40
26.27809443404574
100
AcDbArc
 50
288.0699188157
 51
313.6873241513
  0
SPLINE
  5
2E6
330
1F
100
AcDbEntity
  8
0
  6
Continuous
 62
     7
370
    25
100
AcDbSpline
210
0.0
220
0.0
230
1.0
 70
     8
 71
     3
 72
    15
 73
    11
 74
     0
 42
0.00000001
 43
0.00000001
 40
0.0
 40
0.0
 40
0.0
 40
0.0
 40
0.1250000000000002
 40
0.2499999999999994
 40
0.3750000000000007
 40
0.4999999999999997
 40
0.6249999999999986
 40
0.7500000000000001
 40
0.8750000000000008
 40
1.0
 40
1.0
 40
1.0
 40
1.0
 10
563.0907695663126
 20
249.7965166989827
 30
0.0
 10
562.7635220573222
 20
249.7858432682222
 30
0.0
 10
562.1090270393418
 20
249.7644964067012
 30
0.0
 10
561.1650300137123
 20
249.5939645563546
 30
0.0
 10
560.2949673327319
 20
249.3289183675097
 30
0.0
 10
559.5326110626476
 20
248.9695103917318
 30
0.0
 10
558.906002378957
 20
248.532240799107
 30
0.0
 10
558.4439084503235
 20
248.0331933471482
 30
0.0
 10
558.1465952422856
 20
247.4917388972617
 30
0.0
 10
558.1093781249702
 20
247.1163359772389
 30
0.0
 10
558.0907695663126
 20
246.9286345172275
 30
0.0
  0
LINE
  5
2E7
330
1F
100
AcDbEntity
  8
0
  6
Continuous
 62
     7
370
    25
100
AcDbLine
 10
573.0907695663
 20
249.796516699
 30
0.0
 11
563.0907695663
 21
249.796516699
 31
0.0
  0
LINE
  5
2E8
330
1F
100
AcDbEntity
  8
0
  6
Continuous
 62
     7
370
    25
100
AcDbLine
 10
573.0907695663
 20
240.3178905139
 30
0.0
 11
573.0907695663
 21
249.796516699
 31
0.0
  0
SPLINE
  5
2E9
330
1F
100
AcDbEntity
  8
0
  6
Continuous
 62
     7
370
    25
100
AcDbSpline
210
0.0
220
0.0
230
1.0
 70
     8
 71
     3
 72
    12
 73
     8
 74
     0
 42
0.00000001
 43
0.00000001
 40
0.0
 40
0.0
 40
0.0
 40
0.0
 40
0.1911402034931748
 40
0.3740560894572669
 40
0.5535335623345254
 40
0.7747568674384558
 40
1.0
 40
1.0
 40
1.0
 40
1.0
 10
568.0907695663126
 20
237.4500083321765
 30
0.0
 10
568.1342938545101
 20
237.7368192633424
 30
0.0
 10
568.2194696822116
 20
238.2981003196815
 30
0.0
 10
568.8719395457638
 20
239.0570273410316
 30
0.0
 10
569.890336157948
 20
239.7127595628247
 30
0.0
 10
571.331155417638
 20
240.2139190245719
 30
0.0
 10
572.5007213959208
 20
240.2830259459718
 30
0.0
 10
573.0907695663126
 20
240.3178905139316
 30
0.0
  0
ARC
  5
2EA
330
1F
100
AcDbEntity
  8
0
  6
Continuous
 62
     7
370
    25
100
AcDbCircle
 10
576.241639291
 20
262.4320332664
 30
0.0
 40
26.27809443404498
100
AcDbArc
 50
226.3126758487
 51
251.9300811843
  0
LINE
  5
2EB
330
1F
100
AcDbEntity
  8
0
  6
Continuous
 62
     7
370
    25
100
AcDbLine
 10
558.0907695663
 20
246.9286345172
 30
0.0
 11
558.0907695663
 21
243.4298182555
 31
0.0
  0
LINE
  5
2EC
330
1F
100
AcDbEntity
  8
0
  6
Continuous
 62
     7
370
    25
100
AcDbLine
 10
728.0907695663
 20
240.3178905139
 30
0.0
 11
573.0907695663
 21
240.3178905139
 31
0.0
  0
LINE
  5
2ED
330
1F
100
AcDbEntity
  8
0
  6
Continuous
 62
     7
370
    25
100
AcDbLine
 10
573.0907695663
 20
249.796516699
 30
0.0
 11
728.0907695663
 21
249.796516699
 31
0.0
  0
LINE
  5
2EE
330
1F
100
AcDbEntity
  8
0
  6
Continuous
 62
     7
370
    25
100
AcDbLine
 10
738.0907695663
 20
249.796516699
 30
0.0
 11
738.0907695663
 21
251.0252447654
 31
0.0
  0
LINE
  5
2EF
330
1F
100
AcDbEntity
  8
0
  6
Continuous
 62
     7
370
    25
100
AcDbLine
 10
563.0907695663
 20
249.796516699
 30
0.0
 11
563.0907695663
 21
251.0252447654
 31
0.0
  0
LINE
  5
2F0
330
1F
100
AcDbEntity
  8
0
  6
Continuous
 62
     7
370
    25
100
AcDbLine
 10
563.0907695663
 20
251.0252447654
 30
0.0
 11
738.0907695663
 21
251.0252447654
 31
0.0
  0
LINE
  5
2F1
330
1F
100
AcDbEntity
  8
0
  6
Continuous
 62
     7
370
    25
100
AcDbLine
 10
743.0907695663
 20
246.9286345172
 30
0.0
 11
743.0907695663
 21
248.1573625837
 31
0.0
  0
LWPOLYLINE
  5
2F2
330
1F
100
AcDbEntity
  8
0
  6
Continuous
 62
     7
370
    25
100
AcDbPolyline
 90
        9
 70
   128
 43
0.0
 10
738.0907695663
 20
251.0252447654
 10
739.0662211764
 20
250.9701392135
 10
740.0041867281
 20
250.806940233
 10
740.8686207314
 20
250.5419194695
 10
741.6263034722
 20
250.185261522
 10
742.2481176278
 20
249.7506725557
 10
742.7101672289
 20
249.2548535806
 10
742.9946959683
 20
248.716858642
 10
743.0907695663
 20
248.1573625837
  0
LINE
  5
2F3
330
1F
100
AcDbEntity
  8
0
  6
Continuous
 62
     7
370
    25
100
AcDbLine
 10
558.0907695663
 20
246.9286345172
 30
0.0
 11
558.0907695663
 21
248.1573625837
 31
0.0
  0
LWPOLYLINE
  5
2F4
330
1F
100
AcDbEntity
  8
0
  6
Continuous
 62
     7
370
    25
100
AcDbPolyline
 90
        9
 70
   128
 43
0.0
 10
563.0907695663
 20
251.0252447654
 10
562.1153179562
 20
250.9701392135
 10
561.1773524045
 20
250.806940233
 10
560.3129184012
 20
250.5419194695
 10
559.5552356604
 20
250.185261522
 10
558.9334215048
 20
249.7506725557
 10
558.4713719038
 20
249.2548535806
 10
558.1868431643
 20
248.716858642
 10
558.0907695663
 20
248.1573625837
  0
LINE
  5
2F5
330
1F
100
AcDbEntity
  8
0
  6
Continuous
 62
     7
370
    25
100
AcDbLine
 10
573.0907695658
 20
239.5641686314
 30
0.0
 11
573.9407695663
 21
237.1882876908
 31
0.0
  0
LINE
  5
2F6
330
1F
100
AcDbEntity
  8
0
  6
Continuous
 62
     7
370
    25
100
AcDbLine
 10
728.0907695713
 20
239.56416863
 30
0.0
 11
573.0907695613
 21
239.56416863
 31
0.0
  0
LINE
  5
2F7
330
1F
100
AcDbEntity
  8
0
  6
Continuous
 62
     7
370
    25
100
AcDbLine
 10
728.0907695668
 20
239.5641686314
 30
0.0
 11
727.2407695663
 21
237.1882876908
 31
0.0
  0
LINE
  5
2F8
330
1F
100
AcDbEntity
  8
0
  6
Continuous
 62
     7
370
    25
100
AcDbLine
 10
573.9407695663
 20
237.1882876908
 30
0.0
 11
727.2407695663
 21
237.1882876908
 31
0.0
  0
SPLINE
  5
2F9
330
1F
100
AcDbEntity
  8
0
  6
Continuous
 62
     7
370
    25
100
AcDbSpline
210
0.0
220
0.0
230
1.0
 70
     8
 71
     3
 72
    11
 73
     7
 74
     0
 42
0.00000001
 43
0.00000001
 40
0.0
 40
0.0
 40
0.0
 40
0.0
 40
0.2499999999999973
 40
0.4999999999999995
 40
0.749999999999998
 40
1.0
 40
1.0
 40
1.0
 40
1.0
 10
732.4907695663126
 20
237.0404323098877
 30
0.0
 10
732.4246306472111
 20
237.3711352566642
 30
0.0
 10
732.2923528090082
 20
238.0325411502175
 30
0.0
 10
731.2748562726679
 20
238.866749413957
 30
0.0
 10
729.8204585495849
 20
239.4503614522508
 30
0.0
 10
728.6673325640563
 20
239.5262329040679
 30
0.0
 10
728.090769571292
 20
239.5641686299765
 30
0.0
  0
LINE
  5
2FA
330
1F
100
AcDbEntity
  8
0
  6
Continuous
 62
     7
370
    25
100
AcDbLine
 10
732.4907695663
 20
210.4264856633
 30
0.0
 11
732.4907695663
 21
237.04043231
 31
0.0
  0
LINE
  5
2FB
330
1F
100
AcDbEntity
  8
0
  6
Continuous
 62
     7
370
    25
100
AcDbLine
 10
730.2407695663
 20
209.1977575969
 30
0.0
 11
732.4907695663
 21
210.4264856633
 31
0.0
  0
LINE
  5
2FC
330
1F
100
AcDbEntity
  8
0
  6
Continuous
 62
     7
370
    25
100
AcDbLine
 10
730.2407695663
 20
209.1977575969
 30
0.0
 11
730.2407695663
 21
235.4675583818
 31
0.0
  0
SPLINE
  5
2FD
330
1F
100
AcDbEntity
  8
0
  6
Continuous
 62
     7
370
    25
100
AcDbSpline
210
0.0
220
0.0
230
1.0
 70
     8
 71
     3
 72
    12
 73
     8
 74
     0
 42
0.00000001
 43
0.00000001
 40
0.0
 40
0.0
 40
0.0
 40
0.0
 40
0.2024911945559899
 40
0.3826585686624205
 40
0.5558886093477826
 40
0.7646708085115395
 40
1.0
 40
1.0
 40
1.0
 40
1.0
 10
730.2407695663126
 20
235.4675583817559
 30
0.0
 10
730.2114501473701
 20
235.6499431453397
 30
0.0
 10
730.1560436547019
 20
235.9946055032849
 30
0.0
 10
729.7507954740182
 20
236.448297041707
 30
0.0
 10
729.1564980011259
 20
236.8238044261131
 30
0.0
 10
728.3093640706433
 20
237.1224619675977
 30
0.0
 10
727.6108850515267
 20
237.1654884724293
 30
0.0
 10
727.2407695663126
 20
237.188287690841
 30
0.0
  0
LINE
  5
2FE
330
1F
100
AcDbEntity
  8
0
  6
Continuous
 62
     7
370
    25
100
AcDbLine
 10
570.9407695663
 20
209.1977575969
 30
0.0
 11
570.9407695663
 21
235.4675583818
 31
0.0
  0
LINE
  5
2FF
330
1F
100
AcDbEntity
  8
0
  6
Continuous
 62
     7
370
    25
100
AcDbLine
 10
570.9407695663
 20
209.1977575969
 30
0.0
 11
568.6907695663
 21
210.4264856633
 31
0.0
  0
LINE
  5
300
330
1F
100
AcDbEntity
  8
0
  6
Continuous
 62
     7
370
    25
100
AcDbLine
 10
568.6907695663
 20
210.4264856633
 30
0.0
 11
568.6907695663
 21
237.04043231
 31
0.0
  0
SPLINE
  5
301
330
1F
100
AcDbEntity
  8
0
  6
Continuous
 62
     7
370
    25
100
AcDbSpline
210
0.0
220
0.0
230
1.0
 70
     8
 71
     3
 72
    11
 73
     7
 74
     0
 42
0.00000001
 43
0.00000001
 40
0.0
 40
0.0
 40
0.0
 40
0.0
 40
0.2499999999999973
 40
0.4999999999999982
 40
0.749999999999996
 40
0.9999999999999999
 40
0.9999999999999999
 40
0.9999999999999999
 40
0.9999999999999999
 10
568.6907695663126
 20
237.0404323098877
 30
0.0
 10
568.7569084854141
 20
237.3711352566643
 30
0.0
 10
568.889186323617
 20
238.0325411502175
 30
0.0
 10
569.9066828599574
 20
238.866749413957
 30
0.0
 10
571.3610805830401
 20
239.4503614522508
 30
0.0
 10
572.5142065685689
 20
239.5262329040679
 30
0.0
 10
573.0907695613332
 20
239.5641686299765
 30
0.0
  0
SPLINE
  5
302
330
1F
100
AcDbEntity
  8
0
  6
Continuous
 62
     7
370
    25
100
AcDbSpline
210
0.0
220
0.0
230
1.0
 70
     8
 71
     3
 72
    12
 73
     8
 74
     0
 42
0.00000001
 43
0.00000001
 40
0.0
 40
0.0
 40
0.0
 40
0.0
 40
0.2024911945560341
 40
0.3826585686624532
 40
0.5558886093477988
 40
0.7646708085115432
 40
0.9999999999999999
 40
0.9999999999999999
 40
0.9999999999999999
 40
0.9999999999999999
 10
570.9407695663126
 20
235.4675583817559
 30
0.0
 10
570.9700889852554
 20
235.6499431453395
 30
0.0
 10
571.0254954779242
 20
235.9946055032843
 30
0.0
 10
571.4307436586078
 20
236.4482970417063
 30
0.0
 10
572.0250411314998
 20
236.8238044261123
 30
0.0
 10
572.8721750619823
 20
237.1224619675967
 30
0.0
 10
573.5706540810986
 20
237.1654884724289
 30
0.0
 10
573.9407695663126
 20
237.188287690841
 30
0.0
  0
LWPOLYLINE
  5
303
330
1F
100
AcDbEntity
  8
0
  6
Continuous
 62
     7
370
    25
100
AcDbPolyline
 90
        9
 70
   128
 43
0.0
 10
732.4907695663
 20
237.4500083322
 10
732.4062248017
 20
237.9423648639
 10
732.155839512
 20
238.4158004104
 10
731.7492358635
 20
238.8521211089
 10
731.2020394065
 20
239.2345593996
 10
730.535278594
 20
239.5484183934
 10
729.7745766703
 20
239.7816366652
 10
728.9491669839
 20
239.9252517673
 10
728.0907695663
 20
239.9737446521
  0
LINE
  5
304
330
1F
100
AcDbEntity
  8
0
  6
Continuous
 62
     7
370
    25
100
AcDbLine
 10
728.0907695663
 20
239.9737446521
 30
0.0
 11
573.0907695663
 21
239.9737446521
 31
0.0
  0
LWPOLYLINE
  5
305
330
1F
100
AcDbEntity
  8
0
  6
Continuous
 62
     7
370
    25
100
AcDbPolyline
 90
        9
 70
   128
 43
0.0
 10
568.6907695663
 20
237.4500083322
 10
568.7753143309
 20
237.9423648639
 10
569.0256996206
 20
238.4158004104
 10
569.4323032691
 20
238.8521211089
 10
569.9794997262
 20
239.2345593996
 10
570.6462605387
 20
239.5484183934
 10
571.4069624624
 20
239.7816366652
 10
572.2323721488
 20
239.9252517673
 10
573.0907695663
 20
239.9737446521
  0
LINE
  5
306
330
1F
100
AcDbEntity
  8
0
  6
Continuous
 62
     7
370
    25
100
AcDbLine
 10
568.0907695663
 20
184.2221150388
 30
0.0
 11
568.0907695663
 21
237.4500083322
 31
0.0
  0
LINE
  5
307
330
1F
100
AcDbEntity
  8
0
  6
Continuous
 62
     7
370
    25
100
AcDbLine
 10
733.0907695663
 20
184.2221150388
 30
0.0
 11
733.0907695663
 21
237.4500083322
 31
0.0
  0
SPLINE
  5
308
330
1F
100
AcDbEntity
  8
0
  6
Continuous
 62
     7
370
    25
100
AcDbSpline
210
0.0
220
0.0
230
1.0
 70
     8
 71
     3
 72
    11
 73
     7
 74
     0
 42
0.00000001
 43
0.00000001
 40
0.0
 40
0.0
 40
0.0
 40
0.0
 40
0.2822198418337908
 40
0.5522964215498893
 40
0.8172961603932084
 40
1.0
 40
1.0
 40
1.0
 40
1.0
 10
733.0907695663126
 20
184.2221150387993
 30
0.0
 10
733.0478474394156
 20
183.9346334347578
 30
0.0
 10
732.9638500247173
 20
183.3720398901586
 30
0.0
 10
732.3028860980456
 20
182.6225733534548
 30
0.0
 10
731.4827617896062
 20
182.0449973090983
 30
0.0
 10
730.7729985901283
 20
181.8373062309768
 30
0.0
 10
730.4833505551378
 20
181.7525493533207
 30
0.0
  0
SPLINE
  5
309
330
1F
100
AcDbEntity
  8
0
  6
Continuous
 62
     7
370
    25
100
AcDbSpline
210
0.0
220
0.0
230
1.0
 70
     8
 71
     3
 72
    11
 73
     7
 74
     0
 42
0.00000001
 43
0.00000001
 40
0.0
 40
0.0
 40
0.0
 40
0.0
 40
0.2822198418337901
 40
0.5522964215498878
 40
0.8172961603932062
 40
1.0
 40
1.0
 40
1.0
 40
1.0
 10
568.0907695663126
 20
184.2221150387993
 30
0.0
 10
568.1336916932096
 20
183.9346334347578
 30
0.0
 10
568.2176891079079
 20
183.3720398901586
 30
0.0
 10
568.8786530345795
 20
182.6225733534548
 30
0.0
 10
569.6987773430188
 20
182.0449973090984
 30
0.0
 10
570.4085405424969
 20
181.8373062309768
 30
0.0
 10
570.6981885774874
 20
181.7525493533207
 30
0.0
  0
LINE
  5
30A
330
1F
100
AcDbEntity
  8
0
  6
Continuous
 62
     7
370
    25
100
AcDbLine
 10
563.0907695663
 20
251.3116929729
 30
0.0
 11
738.0907695663
 21
251.3116929729
 31
0.0
  0
LINE
  5
30B
330
1F
100
AcDbEntity
  8
0
  6
Continuous
 62
     7
370
    25
100
AcDbLine
 10
732.4907695663
 20
237.0404323099
 30
0.0
 11
732.4907695663
 21
237.4500083322
 31
0.0
  0
LINE
  5
30C
330
1F
100
AcDbEntity
  8
0
  6
Continuous
 62
     7
370
    25
100
AcDbLine
 10
728.0907695663
 20
239.56416863
 30
0.0
 11
728.0907695663
 21
239.9737446521
 31
0.0
  0
LINE
  5
30D
330
1F
100
AcDbEntity
  8
0
  6
Continuous
 62
     7
370
    25
100
AcDbLine
 10
573.0907695663
 20
239.56416863
 30
0.0
 11
573.0907695663
 21
239.9737446521
 31
0.0
  0
LINE
  5
30E
330
1F
100
AcDbEntity
  8
0
  6
Continuous
 62
     7
370
    25
100
AcDbLine
 10
568.6907695663
 20
237.0404323099
 30
0.0
 11
568.6907695663
 21
237.4500083322
 31
0.0
  0
SPLINE
  5
30F
330
1F
100
AcDbEntity
  8
0
  6
Continuous
 62
     7
370
    25
100
AcDbSpline
210
0.0
220
0.0
230
1.0
 70
    24
 71
     3
 72
    14
 73
    10
 74
     0
 42
0.00000001
 43
0.00000001
 40
0.0
 40
0.0
 40
0.0
 40
0.0
 40
0.0910401110645659
 40
0.2240766723264988
 40
0.387918409410514
 40
0.5025399764495371
 40
0.6371903145168417
 40
0.7999942212806334
 40
1.0
 40
1.0
 40
1.0
 40
1.0
 10
562.5907695663126
 20
251.9178994867378
 30
0.0
 10
562.5907695663126
 20
251.9733206290167
 30
0.0
 10
562.5907695663126
 20
252.1097284715948
 30
0.0
 10
562.5907695663126
 20
252.4162527398839
 30
0.0
 10
562.5907695663126
 20
252.8054686858456
 30
0.0
 10
562.5907695663126
 20
253.2181847016714
 30
0.0
 10
562.5907695663126
 20
253.6237597864995
 30
0.0
 10
562.5907695663126
 20
254.0867797814983
 30
0.0
 10
562.5907695663126
 20
254.3891523924984
 30
0.0
 10
562.5907695663126
 20
254.5558410779064
 30
0.0
  0
SPLINE
  5
310
330
1F
100
AcDbEntity
  8
0
  6
Continuous
 62
     7
370
    25
100
AcDbSpline
210
0.0
220
0.0
230
1.0
 70
     8
 71
     3
 72
    12
 73
     8
 74
     0
 42
0.00000001
 43
0.00000001
 40
0.0
 40
0.0
 40
0.0
 40
0.0
 40
0.2070285502624553
 40
0.3865889856367035
 40
0.553792677353133
 40
0.759494984421315
 40
1.0
 40
1.0
 40
1.0
 40
1.0
 10
562.5907695663126
 20
251.9178994867378
 30
0.0
 10
562.2459492183013
 20
251.9074736372065
 30
0.0
 10
561.6020585645944
 20
251.8880052180459
 30
0.0
 10
560.7288390025212
 20
251.6906361223831
 30
0.0
 10
560.0249223128216
 20
251.3381939052087
 30
0.0
 10
559.5594901815571
 20
250.7972132464602
 30
0.0
 10
559.5148373625642
 20
250.3700518348145
 30
0.0
 10
559.4907695663126
 20
250.1398125340496
 30
0.0
  0
SPLINE
  5
311
330
1F
100
AcDbEntity
  8
0
  6
Continuous
 62
     7
370
    25
100
AcDbSpline
210
0.0
220
0.0
230
1.0
 70
     8
 71
     3
 72
    14
 73
    10
 74
     0
 42
0.00000001
 43
0.00000001
 40
0.0
 40
0.0
 40
0.0
 40
0.0
 40
0.091040111064565
 40
0.2240766723265023
 40
0.3879184094105146
 40
0.5025399764495379
 40
0.6371903145168409
 40
0.7999942212806354
 40
0.9999999999999999
 40
0.9999999999999999
 40
0.9999999999999999
 40
0.9999999999999999
 10
559.4907695663126
 20
250.1398125340496
 30
0.0
 10
559.4004308973789
 20
250.1434175445368
 30
0.0
 10
559.1780806818492
 20
250.1522905428696
 30
0.0
 10
558.8046280471272
 20
250.2446111797888
 30
0.0
 10
558.4593419275011
 20
250.4357791437338
 30
0.0
 10
558.202707667478
 20
250.7012957952501
 30
0.0
 10
558.0278593011552
 20
251.0065819772209
 30
0.0
 10
557.9103009845654
 20
251.4021732919268
 30
0.0
 10
557.8977103786491
 20
251.6973242280538
 30
0.0
 10
557.8907695663125
 20
251.8600318270564
 30
0.0
  0
SPLINE
  5
312
330
1F
100
AcDbEntity
  8
0
  6
Continuous
 62
     7
370
    25
100
AcDbSpline
210
0.0
220
0.0
230
1.0
 70
     8
 71
     3
 72
    12
 73
     8
 74
     0
 42
0.00000001
 43
0.00000001
 40
0.0
 40
0.0
 40
0.0
 40
0.0
 40
0.1888045511790598
 40
0.3741006348802766
 40
0.5601229132647
 40
0.7782950916834096
 40
1.0
 40
1.0
 40
1.0
 40
1.0
 10
562.5907695663126
 20
254.5558410779064
 30
0.0
 10
562.1184130693742
 20
254.5402977918344
 30
0.0
 10
561.1824776573785
 20
254.5095000533725
 30
0.0
 10
559.8604283611456
 20
254.2010332125164
 30
0.0
 10
558.7358433077752
 20
253.6354163318796
 30
0.0
 10
558.0019383851367
 20
252.8111177838462
 30
0.0
 10
557.9280237131445
 20
252.1787533557987
 30
0.0
 10
557.8907695663125
 20
251.8600318270564
 30
0.0
  0
LINE
  5
313
330
1F
100
AcDbEntity
  8
0
  6
Continuous
 62
     7
370
    25
100
AcDbLine
 10
650.5907695663
 20
254.5558410779
 30
0.0
 11
562.5907695663
 21
254.5558410779
 31
0.0
  0
SPLINE
  5
314
330
1F
100
AcDbEntity
  8
0
  6
Continuous
 62
     7
370
    25
100
AcDbSpline
210
0.0
220
0.0
230
1.0
 70
    24
 71
     3
 72
    14
 73
    10
 74
     0
 42
0.00000001
 43
0.00000001
 40
0.0
 40
0.0
 40
0.0
 40
0.0
 40
0.0910401110645659
 40
0.2240766723264988
 40
0.387918409410514
 40
0.5025399764495371
 40
0.6371903145168417
 40
0.7999942212806334
 40
1.0
 40
1.0
 40
1.0
 40
1.0
 10
650.5907695663126
 20
251.9178994867378
 30
0.0
 10
650.5907695663126
 20
251.9733206290167
 30
0.0
 10
650.5907695663126
 20
252.1097284715948
 30
0.0
 10
650.5907695663126
 20
252.4162527398839
 30
0.0
 10
650.5907695663126
 20
252.8054686858456
 30
0.0
 10
650.5907695663126
 20
253.2181847016714
 30
0.0
 10
650.5907695663126
 20
253.6237597864995
 30
0.0
 10
650.5907695663126
 20
254.0867797814983
 30
0.0
 10
650.5907695663126
 20
254.3891523924984
 30
0.0
 10
650.5907695663126
 20
254.5558410779064
 30
0.0
  0
LINE
  5
315
330
1F
100
AcDbEntity
  8
0
  6
Continuous
 62
     7
370
    25
100
AcDbLine
 10
650.5907695663
 20
251.9178994867
 30
0.0
 11
562.5907695663
 21
251.9178994867
 31
0.0
  0
LINE
  5
316
330
1F
100
AcDbEntity
  8
0
  6
Continuous
 62
     7
370
    25
100
AcDbLine
 10
650.5907695663
 20
254.5558410779
 30
0.0
 11
738.5907695663
 21
254.5558410779
 31
0.0
  0
SPLINE
  5
317
330
1F
100
AcDbEntity
  8
0
  6
Continuous
 62
     7
370
    25
100
AcDbSpline
210
0.0
220
0.0
230
1.0
 70
    24
 71
     3
 72
    14
 73
    10
 74
     0
 42
0.00000001
 43
0.00000001
 40
0.0
 40
0.0
 40
0.0
 40
0.0
 40
0.0910401110645659
 40
0.2240766723264988
 40
0.387918409410514
 40
0.5025399764495371
 40
0.6371903145168417
 40
0.7999942212806334
 40
1.0
 40
1.0
 40
1.0
 40
1.0
 10
738.5907695663126
 20
251.9178994867378
 30
0.0
 10
738.5907695663126
 20
251.9733206290167
 30
0.0
 10
738.5907695663126
 20
252.1097284715948
 30
0.0
 10
738.5907695663126
 20
252.4162527398839
 30
0.0
 10
738.5907695663126
 20
252.8054686858456
 30
0.0
 10
738.5907695663126
 20
253.2181847016714
 30
0.0
 10
738.5907695663126
 20
253.6237597864995
 30
0.0
 10
738.5907695663126
 20
254.0867797814983
 30
0.0
 10
738.5907695663126
 20
254.3891523924984
 30
0.0
 10
738.5907695663126
 20
254.5558410779064
 30
0.0
  0
LINE
  5
318
330
1F
100
AcDbEntity
  8
0
  6
Continuous
 62
     7
370
    25
100
AcDbLine
 10
650.5907695663
 20
251.9178994867
 30
0.0
 11
738.5907695663
 21
251.9178994867
 31
0.0
  0
SPLINE
  5
319
330
1F
100
AcDbEntity
  8
0
  6
Continuous
 62
     7
370
    25
100
AcDbSpline
210
0.0
220
0.0
230
1.0
 70
     8
 71
     3
 72
    14
 73
    10
 74
     0
 42
0.00000001
 43
0.00000001
 40
0.0
 40
0.0
 40
0.0
 40
0.0
 40
0.091040111064565
 40
0.2240766723265023
 40
0.3879184094105146
 40
0.5025399764495379
 40
0.6371903145168409
 40
0.7999942212806354
 40
0.9999999999999999
 40
0.9999999999999999
 40
0.9999999999999999
 40
0.9999999999999999
 10
741.6907695663126
 20
250.1398125340496
 30
0.0
 10
741.7811082352463
 20
250.1434175445368
 30
0.0
 10
742.0034584507758
 20
250.1522905428696
 30
0.0
 10
742.3769110854981
 20
250.2446111797888
 30
0.0
 10
742.7221972051241
 20
250.4357791437338
 30
0.0
 10
742.9788314651473
 20
250.7012957952501
 30
0.0
 10
743.15367983147
 20
251.0065819772209
 30
0.0
 10
743.2712381480598
 20
251.4021732919268
 30
0.0
 10
743.2838287539761
 20
251.6973242280538
 30
0.0
 10
743.2907695663125
 20
251.8600318270564
 30
0.0
  0
SPLINE
  5
31A
330
1F
100
AcDbEntity
  8
0
  6
Continuous
 62
     7
370
    25
100
AcDbSpline
210
0.0
220
0.0
230
1.0
 70
     8
 71
     3
 72
    12
 73
     8
 74
     0
 42
0.00000001
 43
0.00000001
 40
0.0
 40
0.0
 40
0.0
 40
0.0
 40
0.2070285502624553
 40
0.3865889856367035
 40
0.553792677353133
 40
0.759494984421315
 40
1.0
 40
1.0
 40
1.0
 40
1.0
 10
738.5907695663126
 20
251.9178994867378
 30
0.0
 10
738.9355899143237
 20
251.9074736372065
 30
0.0
 10
739.5794805680308
 20
251.8880052180459
 30
0.0
 10
740.4527001301038
 20
251.6906361223831
 30
0.0
 10
741.1566168198036
 20
251.3381939052087
 30
0.0
 10
741.6220489510681
 20
250.7972132464602
 30
0.0
 10
741.6667017700609
 20
250.3700518348145
 30
0.0
 10
741.6907695663126
 20
250.1398125340496
 30
0.0
  0
SPLINE
  5
31B
330
1F
100
AcDbEntity
  8
0
  6
Continuous
 62
     7
370
    25
100
AcDbSpline
210
0.0
220
0.0
230
1.0
 70
     8
 71
     3
 72
    12
 73
     8
 74
     0
 42
0.00000001
 43
0.00000001
 40
0.0
 40
0.0
 40
0.0
 40
0.0
 40
0.1888045511790598
 40
0.3741006348802766
 40
0.5601229132647
 40
0.7782950916834096
 40
1.0
 40
1.0
 40
1.0
 40
1.0
 10
738.5907695663126
 20
254.5558410779064
 30
0.0
 10
739.0631260632508
 20
254.5402977918344
 30
0.0
 10
739.9990614752468
 20
254.5095000533725
 30
0.0
 10
741.3211107714795
 20
254.2010332125164
 30
0.0
 10
742.44569582485
 20
253.6354163318796
 30
0.0
 10
743.1796007474885
 20
252.8111177838462
 30
0.0
 10
743.2535154194806
 20
252.1787533557987
 30
0.0
 10
743.2907695663125
 20
251.8600318270564
 30
0.0
  0
LINE
  5
31C
330
1F
100
AcDbEntity
  8
0
  6
Continuous
 62
     7
370
    25
100
AcDbLine
 10
730.2407695663
 20
209.1977575969
 30
0.0
 11
730.2407695663
 21
182.9279568121
 31
0.0
  0
SPLINE
  5
31D
330
1F
100
AcDbEntity
  8
0
  6
Continuous
 62
     7
370
    25
100
AcDbSpline
210
0.0
220
0.0
230
1.0
 70
     8
 71
     3
 72
    12
 73
     8
 74
     0
 42
0.00000001
 43
0.00000001
 40
0.0
 40
0.0
 40
0.0
 40
0.0
 40
0.2024911945560325
 40
0.3826585686624536
 40
0.5558886093478006
 40
0.7646708085115459
 40
1.0
 40
1.0
 40
1.0
 40
1.0
 10
730.2407695663126
 20
182.9279568120639
 30
0.0
 10
730.2114501473698
 20
182.745572048482
 30
0.0
 10
730.1560436547009
 20
182.4009096905404
 30
0.0
 10
729.7507954740174
 20
181.9472181521173
 30
0.0
 10
729.1564980011252
 20
181.5717107677114
 30
0.0
 10
728.3093640706428
 20
181.2730532262281
 30
0.0
 10
727.6108850515266
 20
181.2300267213925
 30
0.0
 10
727.2407695663126
 20
181.2072275029788
 30
0.0
  0
LINE
  5
31E
330
1F
100
AcDbEntity
  8
0
  6
Continuous
 62
     7
370
    25
100
AcDbLine
 10
727.2407695663
 20
181.207227503
 30
0.0
 11
691.3407695663
 21
181.207227503
 31
0.0
  0
LINE
  5
31F
330
1F
100
AcDbEntity
  8
0
  6
Continuous
 62
     7
370
    25
100
AcDbLine
 10
609.8407695663
 20
181.207227503
 30
0.0
 11
573.9407695663
 21
181.207227503
 31
0.0
  0
SPLINE
  5
320
330
1F
100
AcDbEntity
  8
0
  6
Continuous
 62
     7
370
    25
100
AcDbSpline
210
0.0
220
0.0
230
1.0
 70
     8
 71
     3
 72
    12
 73
     8
 74
     0
 42
0.00000001
 43
0.00000001
 40
0.0
 40
0.0
 40
0.0
 40
0.0
 40
0.2024911943446276
 40
0.3826585684241606
 40
0.5558886091118682
 40
0.7646708082864637
 40
1.0
 40
1.0
 40
1.0
 40
1.0
 10
573.9407695663126
 20
181.2072275029788
 30
0.0
 10
573.6227914350105
 20
181.22404443078
 30
0.0
 10
573.0218909518657
 20
181.255824289349
 30
0.0
 10
572.2309038932118
 20
181.4882650964076
 30
0.0
 10
571.5762267469413
 20
181.8291401228982
 30
0.0
 10
571.0555332127572
 20
182.315036183944
 30
0.0
 10
570.9805187906708
 20
182.7156672908114
 30
0.0
 10
570.9407695663126
 20
182.9279568120639
 30
0.0
  0
LINE
  5
321
330
1F
100
AcDbEntity
  8
0
  6
Continuous
 62
     7
370
    25
100
AcDbLine
 10
570.9407695663
 20
209.1977575969
 30
0.0
 11
570.9407695663
 21
182.9279568121
 31
0.0
  0
ARC
  5
322
330
1F
100
AcDbEntity
  8
0
  6
Continuous
 62
     7
370
    25
100
AcDbCircle
 10
562.5992981041
 20
248.3608045763
 30
0.0
 40
3.477286538156634
100
AcDbArc
 50
81.87474308
 51
146.9603846792
  0
LINE
  5
323
330
1F
100
AcDbEntity
  8
0
  6
Continuous
 62
     7
370
    25
100
AcDbLine
 10
563.0907695663
 20
251.8031841995
 30
0.0
 11
563.0907695663
 21
251.3116929729
 31
0.0
  0
LINE
  5
324
330
1F
100
AcDbEntity
  8
0
  6
Continuous
 62
     7
370
    25
100
AcDbLine
 10
738.0907695663
 20
251.8031841995
 30
0.0
 11
738.0907695663
 21
251.3116929729
 31
0.0
  0
LINE
  5
325
330
1F
100
AcDbEntity
  8
0
  6
Continuous
 62
     7
370
    25
100
AcDbLine
 10
563.0907695663
 20
251.8031841995
 30
0.0
 11
738.0907695663
 21
251.8031841995
 31
0.0
  0
ARC
  5
326
330
1F
100
AcDbEntity
  8
0
  6
Continuous
 62
     7
370
    25
100
AcDbCircle
 10
738.5822410284
 20
248.3608045759
 30
0.0
 40
3.477286538484268
100
AcDbArc
 50
33.0396153313
 51
98.1252569179
  0
ARC
  5
327
330
1F
100
AcDbEntity
  8
0
  6
Continuous
 62
     7
370
    25
100
AcDbCircle
 10
576.241639291
 20
209.2041399731
 30
0.0
 40
26.27809443404592
100
AcDbArc
 50
226.3126758487
 51
251.9300811843
  0
LINE
  5
328
330
1F
100
AcDbEntity
  8
0
  6
Continuous
 62
     7
370
    25
100
AcDbLine
 10
558.0907695663
 20
243.4298182555
 30
0.0
 11
558.0907695663
 21
190.2019249621
 31
0.0
  0
ARC
  5
329
330
1F
100
AcDbEntity
  8
0
  6
Continuous
 62
     7
370
    25
100
AcDbCircle
 10
724.9398998416
 20
209.2041399731
 30
0.0
 40
26.27809443404672
100
AcDbArc
 50
288.0699188157
 51
313.6873241513
  0
LINE
  5
32A
330
1F
100
AcDbEntity
  8
0
  6
Continuous
 62
     7
370
    25
100
AcDbLine
 10
743.0907695663
 20
243.4298182555
 30
0.0
 11
743.0907695663
 21
190.2019249621
 31
0.0
  0
LINE
  5
32B
330
1F
100
AcDbEntity
  8
0
  6
Continuous
 62
     7
370
    25
100
AcDbLine
 10
557.8907695663
 20
251.8600318271
 30
0.0
 11
557.8907695663
 21
221.4031230568
 31
0.0
  0
LINE
  5
32C
330
1F
100
AcDbEntity
  8
0
  6
Continuous
 62
     7
370
    25
100
AcDbLine
 10
743.2907695663
 20
251.8600318271
 30
0.0
 11
743.2907695663
 21
221.4031230568
 31
0.0
  0
SPLINE
  5
32D
330
1F
100
AcDbEntity
  8
0
  6
Continuous
 62
     7
370
    25
100
AcDbSpline
210
0.0
220
0.0
230
1.0
 70
     8
 71
     3
 72
    11
 73
     7
 74
     0
 42
0.00000001
 43
0.00000001
 40
0.0
 40
0.0
 40
0.0
 40
0.0
 40
0.2748742727357808
 40
0.5497485454715675
 40
0.8246228182073496
 40
1.0
 40
1.0
 40
1.0
 40
1.0
 10
568.6907695663126
 20
183.8125390165105
 30
0.0
 10
568.7566632083857
 20
183.4814174863925
 30
0.0
 10
568.8884504925319
 20
182.8191744261563
 30
0.0
 10
569.9096261842973
 20
181.9912449129714
 30
0.0
 10
571.1762457255685
 20
181.457069710361
 30
0.0
 10
572.1154484059282
 20
181.3860165100643
 30
0.0
 10
572.4812766948921
 20
181.3583406194035
 30
0.0
  0
LINE
  5
32E
330
1F
100
AcDbEntity
  8
0
  6
Continuous
 62
     7
370
    25
100
AcDbLine
 10
568.6907695663
 20
210.4264856633
 30
0.0
 11
568.6907695663
 21
183.8125390167
 31
0.0
  0
SPLINE
  5
32F
330
1F
100
AcDbEntity
  8
0
  6
Continuous
 62
     7
370
    25
100
AcDbSpline
210
0.0
220
0.0
230
1.0
 70
     8
 71
     3
 72
    11
 73
     7
 74
     0
 42
0.00000001
 43
0.00000001
 40
0.0
 40
0.0
 40
0.0
 40
0.0
 40
0.2499999999999968
 40
0.4999999999999969
 40
0.7499999999999958
 40
1.0
 40
1.0
 40
1.0
 40
1.0
 10
732.4907695663126
 20
183.8125390165105
 30
0.0
 10
732.4246306472111
 20
183.4818360697579
 30
0.0
 10
732.2923528090083
 20
182.8204301762528
 30
0.0
 10
731.2748562726678
 20
181.9862219125855
 30
0.0
 10
729.8204585495849
 20
181.4026098743638
 30
0.0
 10
728.6673325640563
 20
181.3267384225947
 30
0.0
 10
728.090769571292
 20
181.2888026967101
 30
0.0
  0
LINE
  5
330
330
1F
100
AcDbEntity
  8
0
  6
Continuous
 62
     7
370
    25
100
AcDbLine
 10
728.0907695668
 20
181.2888026968
 30
0.0
 11
727.2407695663
 21
181.207227503
 31
0.0
  0
LINE
  5
331
330
1F
100
AcDbEntity
  8
0
  6
Continuous
 62
     7
370
    25
100
AcDbLine
 10
732.4907695663
 20
210.4264856633
 30
0.0
 11
732.4907695663
 21
183.8125390167
 31
0.0
  0
LINE
  5
332
330
1F
100
AcDbEntity
  8
0
  6
Continuous
 62
     7
370
    25
100
AcDbLine
 10
557.8907695663
 20
190.9462142866
 30
0.0
 11
557.8907695663
 21
221.4031230568
 31
0.0
  0
SPLINE
  5
333
330
1F
100
AcDbEntity
  8
0
  6
Continuous
 62
     7
370
    25
100
AcDbSpline
210
0.0
220
0.0
230
1.0
 70
     8
 71
     3
 72
     9
 73
     5
 74
     0
 42
0.00000001
 43
0.00000001
 40
0.0
 40
0.0
 40
0.0
 40
0.0
 40
0.10807352740043
 40
1.0
 40
1.0
 40
1.0
 40
1.0
 10
743.2302356642535
 20
190.4028153321692
 30
0.0
 10
743.2362839622394
 20
190.4218840376953
 30
0.0
 10
743.2922486201107
 20
190.5983260025758
 30
0.0
 10
743.2914668488213
 20
190.7822064487971
 30
0.0
 10
743.2907695663125
 20
190.9462142865752
 30
0.0
  0
LINE
  5
334
330
1F
100
AcDbEntity
  8
0
  6
Continuous
 62
     7
370
    25
100
AcDbLine
 10
743.2907695663
 20
190.9462142866
 30
0.0
 11
743.2907695663
 21
221.4031230568
 31
0.0
  0
SPLINE
  5
335
330
1F
100
AcDbEntity
  8
0
  6
Continuous
 62
     7
370
    25
100
AcDbSpline
210
0.0
220
0.0
230
1.0
 70
     8
 71
     3
 72
    12
 73
     8
 74
     0
 42
0.00000001
 43
0.00000001
 40
0.0
 40
0.0
 40
0.0
 40
0.0
 40
0.1721663069359268
 40
0.3791247302019452
 40
0.5860831534679654
 40
0.793041576733985
 40
1.0
 40
1.0
 40
1.0
 40
1.0
 10
560.185543126295
 20
184.3785101608024
 30
0.0
 10
559.9684854952195
 20
184.4730518263169
 30
0.0
 10
559.4905062826525
 20
184.6812405484249
 30
0.0
 10
558.9080182949366
 20
185.1010870496434
 30
0.0
 10
558.443370872729
 20
185.5981273021387
 30
0.0
 10
558.1467296366842
 20
186.1401099624103
 30
0.0
 10
558.1094229231031
 20
186.5154424543818
 30
0.0
 10
558.0907695663126
 20
186.7031087003675
 30
0.0
  0
LINE
  5
336
330
1F
100
AcDbEntity
  8
0
  6
Continuous
 62
     7
370
    25
100
AcDbLine
 10
558.0907695663
 20
186.7031087004
 30
0.0
 11
558.0907695663
 21
190.2019249621
 31
0.0
  0
SPLINE
  5
337
330
1F
100
AcDbEntity
  8
0
  6
Continuous
 62
     7
370
    25
100
AcDbSpline
210
0.0
220
0.0
230
1.0
 70
     8
 71
     3
 72
    12
 73
     8
 74
     0
 42
0.00000001
 43
0.00000001
 40
0.0
 40
0.0
 40
0.0
 40
0.0
 40
0.172166306935917
 40
0.3791247302019348
 40
0.5860831534679541
 40
0.7930415767339763
 40
1.0
 40
1.0
 40
1.0
 40
1.0
 10
740.9959960063302
 20
184.3785101608024
 30
0.0
 10
741.2130536374058
 20
184.4730518263169
 30
0.0
 10
741.6910328499727
 20
184.6812405484249
 30
0.0
 10
742.2735208376885
 20
185.1010870496434
 30
0.0
 10
742.7381682598962
 20
185.5981273021387
 30
0.0
 10
743.0348094959409
 20
186.1401099624103
 30
0.0
 10
743.0721162095219
 20
186.5154424543818
 30
0.0
 10
743.0907695663126
 20
186.7031087003675
 30
0.0
  0
LINE
  5
338
330
1F
100
AcDbEntity
  8
0
  6
Continuous
 62
     7
370
    25
100
AcDbLine
 10
743.0907695663
 20
186.7031087004
 30
0.0
 11
743.0907695663
 21
190.2019249621
 31
0.0
  0
LINE
  5
339
330
1F
100
AcDbEntity
  8
0
  6
Continuous
 62
     7
370
    25
100
AcDbLine
 10
558.0202979834
 20
190.4011301603
 30
0.0
 11
557.8907695663
 21
190.9462142866
 31
0.0
  0
ARC
  5
33A
330
1F
100
AcDbEntity
  8
0
  6
Continuous
 62
     8
370
    25
100
AcDbCircle
 10
562.9104789142
 20
246.6313357224
 30
0.0
 40
4.683828424683388
100
AcDbArc
 50
87.7940169681
 51
122.9986256299
  0
LINE
  5
33B
330
1F
100
AcDbEntity
  8
0
  6
Continuous
 62
     8
370
    25
100
AcDbLine
 10
563.0907695663
 20
251.3116929729
 30
0.0
 11
563.0907695663
 21
251.0252447654
 31
0.0
  0
LINE
  5
33C
330
1F
100
AcDbEntity
  8
0
  6
Continuous
 62
     8
370
    25
100
AcDbLine
 10
738.0907695663
 20
251.3116929729
 30
0.0
 11
738.0907695663
 21
251.0252447654
 31
0.0
  0
ARC
  5
33D
330
1F
100
AcDbEntity
  8
0
  6
Continuous
 62
     8
370
    25
100
AcDbCircle
 10
738.2710602182
 20
246.6313357211
 30
0.0
 40
4.683828425938719
100
AcDbArc
 50
57.0013743998
 51
92.2059830288
  0
SPLINE
  5
33E
330
1F
100
AcDbEntity
  8
0
  6
Continuous
 62
     8
370
    25
100
AcDbSpline
210
0.0
220
0.0
230
1.0
 70
     8
 71
     3
 72
    10
 73
     6
 74
     0
 42
0.00000001
 43
0.00000001
 40
0.0
 40
0.0
 40
0.0
 40
0.0
 40
0.0776060380507462
 40
0.4915126855006071
 40
0.9999999999999999
 40
0.9999999999999999
 40
0.9999999999999999
 40
0.9999999999999999
 10
558.0907695663127
 20
220.4651528942302
 30
0.0
 10
558.077193624545
 20
220.4873409742654
 30
0.0
 10
557.9912112994066
 20
220.6278677048926
 30
0.0
 10
557.9160230902219
 20
220.9474543286011
 30
0.0
 10
557.8997438234824
 20
221.2411936418987
 30
0.0
 10
557.8907695663125
 20
221.4031230568158
 30
0.0
  0
SPLINE
  5
33F
330
1F
100
AcDbEntity
  8
0
  6
Continuous
 62
     8
370
    25
100
AcDbSpline
210
0.0
220
0.0
230
1.0
 70
     8
 71
     3
 72
    10
 73
     6
 74
     0
 42
0.00000001
 43
0.00000001
 40
0.0
 40
0.0
 40
0.0
 40
0.0
 40
0.0776060380505467
 40
0.4915126855004971
 40
1.0
 40
1.0
 40
1.0
 40
1.0
 10
743.0907695663126
 20
220.4651528942304
 30
0.0
 10
743.1043455080801
 20
220.4873409742655
 30
0.0
 10
743.1903278332186
 20
220.6278677048927
 30
0.0
 10
743.2655160424033
 20
220.9474543286011
 30
0.0
 10
743.2817953091428
 20
221.2411936418987
 30
0.0
 10
743.2907695663125
 20
221.4031230568158
 30
0.0
  0
SPLINE
  5
340
330
1F
100
AcDbEntity
  8
0
  6
Continuous
 62
     8
370
    25
100
AcDbSpline
210
0.0
220
0.0
230
1.0
 70
     8
 71
     3
 72
    10
 73
     6
 74
     0
 42
0.00000001
 43
0.00000001
 40
0.0
 40
0.0
 40
0.0
 40
0.0
 40
0.0776060380507465
 40
0.4915126855006047
 40
1.0
 40
1.0
 40
1.0
 40
1.0
 10
558.0907695663127
 20
190.0082441239896
 30
0.0
 10
558.077193624545
 20
190.0304322040248
 30
0.0
 10
557.9912112994066
 20
190.170958934652
 30
0.0
 10
557.9160230902219
 20
190.4905455583605
 30
0.0
 10
557.8997438234824
 20
190.7842848716581
 30
0.0
 10
557.8907695663125
 20
190.9462142865752
 30
0.0
  0
SPLINE
  5
341
330
1F
100
AcDbEntity
  8
0
  6
Continuous
 62
     8
370
    25
100
AcDbSpline
210
0.0
220
0.0
230
1.0
 70
     8
 71
     3
 72
     9
 73
     5
 74
     0
 42
0.00000001
 43
0.00000001
 40
0.0
 40
0.0
 40
0.0
 40
0.0
 40
0.1805211552044449
 40
1.0
 40
1.0
 40
1.0
 40
1.0
 10
743.0907695663126
 20
190.0082441239898
 30
0.0
 10
743.1044641842136
 20
190.0304136759592
 30
0.0
 10
743.1803257522689
 20
190.1532222849794
 30
0.0
 10
743.2077566356384
 20
190.2904006027728
 30
0.0
 10
743.2302356642535
 20
190.4028153321692
 30
0.0
  0
LINE
  5
342
330
1F
100
AcDbEntity
  8
0
  6
Continuous
 62
     7
370
    25
100
AcDbLine
 10
437.5882138728
 20
168.2002649652
 30
0.0
 11
415.5932117545
 21
160.2020823767
 31
0.0
  0
LINE
  5
343
330
1F
100
AcDbEntity
  8
0
  6
Continuous
 62
     7
370
    25
100
AcDbLine
 10
510.392409386
 20
160.2040826447
 30
0.0
 11
496.3990903251
 21
168.2002649652
 31
0.0
  0
SPLINE
  5
344
330
1F
100
AcDbEntity
  8
0
  6
Continuous
 62
     7
370
    25
100
AcDbSpline
210
0.0
220
0.0
230
1.0
 70
    24
 71
     3
 72
    14
 73
    10
 74
     0
 42
0.00000001
 43
0.00000001
 40
0.0
 40
0.0
 40
0.0
 40
0.0
 40
0.0910401110645648
 40
0.2240766723265021
 40
0.3879184094105139
 40
0.5025399764495356
 40
0.6371903145168392
 40
0.7999942212806329
 40
1.0
 40
1.0
 40
1.0
 40
1.0
 10
396.6542560457113
 20
189.2259949935683
 30
0.0
 10
396.6517317901928
 20
189.2296000040556
 30
0.0
 10
396.6455188498738
 20
189.2384730023883
 30
0.0
 10
396.5808752439706
 20
189.3307936393076
 30
0.0
 10
396.4470179945521
 20
189.5219616032527
 30
0.0
 10
396.2611012336402
 20
189.7874782547689
 30
0.0
 10
396.0473375477129
 20
190.0927644367397
 30
0.0
 10
395.7703415271056
 20
190.4883557514456
 30
0.0
 10
395.5636746167198
 20
190.7835066875727
 30
0.0
 10
395.4497455293742
 20
190.9462142865752
 30
0.0
  0
SPLINE
  5
345
330
1F
100
AcDbEntity
  8
0
  6
Continuous
 62
     7
370
    25
100
AcDbSpline
210
0.0
220
0.0
230
1.0
 70
    24
 71
     3
 72
    12
 73
     8
 74
     0
 42
0.00000001
 43
0.00000001
 40
0.0
 40
0.0
 40
0.0
 40
0.0
 40
0.2070285502624555
 40
0.3865889856367057
 40
0.5537926773531361
 40
0.7594949844213137
 40
1.0
 40
1.0
 40
1.0
 40
1.0
 10
394.1148847084155
 20
187.4479080408801
 30
0.0
 10
394.1297743646422
 20
187.4583338904114
 30
0.0
 10
394.1575781486608
 20
187.477802309572
 30
0.0
 10
394.4394504292241
 20
187.6751714052348
 30
0.0
 10
394.9427900791736
 20
188.0276136224091
 30
0.0
 10
395.7153905286513
 20
188.5685942811577
 30
0.0
 10
396.3254402472501
 20
188.9957556928034
 30
0.0
 10
396.6542560457113
 20
189.2259949935683
 30
0.0
  0
SPLINE
  5
346
330
1F
100
AcDbEntity
  8
0
  6
Continuous
 62
     7
370
    25
100
AcDbSpline
210
0.0
220
0.0
230
1.0
 70
     8
 71
     3
 72
    14
 73
    10
 74
     0
 42
0.00000001
 43
0.00000001
 40
0.0
 40
0.0
 40
0.0
 40
0.0
 40
0.0910401110645635
 40
0.2240766723265005
 40
0.38791840941051
 40
0.5025399764495387
 40
0.6371903145168347
 40
0.7999942212806309
 40
1.0
 40
1.0
 40
1.0
 40
1.0
 10
394.1148847084155
 20
187.4479080408801
 30
0.0
 10
394.0383593475617
 20
187.3996969195757
 30
0.0
 10
393.8500077736434
 20
187.281035073663
 30
0.0
 10
393.4794496785622
 20
187.1591520792125
 30
0.0
 10
393.0627505983877
 20
187.1522720611409
 30
0.0
 10
392.6666113587431
 20
187.2705893483475
 30
0.0
 10
392.3096202761021
 20
187.4755866274611
 30
0.0
 10
391.9363261201369
 20
187.803749261874
 30
0.0
 10
391.719345589176
 20
188.0916785231281
 30
0.0
 10
391.5997309212159
 20
188.2504050357253
 30
0.0
  0
SPLINE
  5
347
330
1F
100
AcDbEntity
  8
0
  6
Continuous
 62
     7
370
    25
100
AcDbSpline
210
0.0
220
0.0
230
1.0
 70
    24
 71
     3
 72
    12
 73
     8
 74
     0
 42
0.00000001
 43
0.00000001
 40
0.0
 40
0.0
 40
0.0
 40
0.0
 40
0.1888045511790598
 40
0.3741006348802778
 40
0.5601229132647016
 40
0.7782950916834109
 40
1.0
 40
1.0
 40
1.0
 40
1.0
 10
391.5997309212159
 20
188.2504050357253
 30
0.0
 10
391.6219290342378
 20
188.2659483217973
 30
0.0
 10
391.6659127630344
 20
188.2967460602592
 30
0.0
 10
392.106449066949
 20
188.6052129011153
 30
0.0
 10
392.9142336876102
 20
189.1708297817521
 30
0.0
 10
394.0914540159443
 20
189.9951283297854
 30
0.0
 10
394.9945640133951
 20
190.627492757833
 30
0.0
 10
395.4497455293742
 20
190.9462142865752
 30
0.0
  0
SPLINE
  5
348
330
1F
100
AcDbEntity
  8
0
  6
Continuous
 62
     7
370
    25
100
AcDbSpline
210
0.0
220
0.0
230
1.0
 70
    24
 71
     3
 72
    14
 73
    10
 74
     0
 42
0.00000001
 43
0.00000001
 40
0.0
 40
0.0
 40
0.0
 40
0.0
 40
0.0910401110645651
 40
0.2240766723265031
 40
0.3879184094105135
 40
0.5025399764495365
 40
0.6371903145168382
 40
0.7999942212806334
 40
1.0
 40
1.0
 40
1.0
 40
1.0
 10
440.1512295974568
 20
219.682903763809
 30
0.0
 10
440.1487053419383
 20
219.6865087742962
 30
0.0
 10
440.1424924016193
 20
219.6953817726289
 30
0.0
 10
440.077848795716
 20
219.7877024095482
 30
0.0
 10
439.9439915462975
 20
219.9788703734933
 30
0.0
 10
439.7580747853856
 20
220.2443870250095
 30
0.0
 10
439.5443110994584
 20
220.5496732069803
 30
0.0
 10
439.2673150788511
 20
220.9452645216862
 30
0.0
 10
439.0606481684653
 20
221.2404154578132
 30
0.0
 10
438.9467190811196
 20
221.4031230568158
 30
0.0
  0
LINE
  5
349
330
1F
100
AcDbEntity
  8
0
  6
Continuous
 62
     7
370
    25
100
AcDbLine
 10
396.6542560457
 20
189.2259949936
 30
0.0
 11
440.1512295975
 21
219.6829037638
 31
0.0
  0
LINE
  5
34A
330
1F
100
AcDbEntity
  8
0
  6
Continuous
 62
     7
370
    25
100
AcDbLine
 10
395.4497455294
 20
190.9462142866
 30
0.0
 11
438.9467190811
 21
221.4031230568
 31
0.0
  0
SPLINE
  5
34B
330
1F
100
AcDbEntity
  8
0
  6
Continuous
 62
     7
370
    25
100
AcDbSpline
210
0.0
220
0.0
230
1.0
 70
    24
 71
     3
 72
    14
 73
    10
 74
     0
 42
0.00000001
 43
0.00000001
 40
0.0
 40
0.0
 40
0.0
 40
0.0
 40
0.091040111064565
 40
0.2240766723265023
 40
0.3879184094105146
 40
0.5025399764495379
 40
0.6371903145168409
 40
0.7999942212806354
 40
0.9999999999999999
 40
0.9999999999999999
 40
0.9999999999999999
 40
0.9999999999999999
 10
483.6482031492023
 20
250.1398125340496
 30
0.0
 10
483.6456788936837
 20
250.1434175445368
 30
0.0
 10
483.6394659533647
 20
250.1522905428696
 30
0.0
 10
483.5748223474615
 20
250.2446111797888
 30
0.0
 10
483.440965098043
 20
250.4357791437338
 30
0.0
 10
483.255048337131
 20
250.7012957952501
 30
0.0
 10
483.0412846512039
 20
251.0065819772209
 30
0.0
 10
482.7642886305965
 20
251.4021732919268
 30
0.0
 10
482.5576217202106
 20
251.6973242280538
 30
0.0
 10
482.4436926328651
 20
251.8600318270564
 30
0.0
  0
LINE
  5
34C
330
1F
100
AcDbEntity
  8
0
  6
Continuous
 62
     7
370
    25
100
AcDbLine
 10
483.6482031492
 20
250.139812534
 30
0.0
 11
440.1512295975
 21
219.6829037638
 31
0.0
  0
LINE
  5
34D
330
1F
100
AcDbEntity
  8
0
  6
Continuous
 62
     7
370
    25
100
AcDbLine
 10
482.4436926329
 20
251.8600318271
 30
0.0
 11
438.9467190811
 21
221.4031230568
 31
0.0
  0
SPLINE
  5
34E
330
1F
100
AcDbEntity
  8
0
  6
Continuous
 62
     7
370
    25
100
AcDbSpline
210
0.0
220
0.0
230
1.0
 70
     8
 71
     3
 72
    14
 73
    10
 74
     0
 42
0.00000001
 43
0.00000001
 40
0.0
 40
0.0
 40
0.0
 40
0.0
 40
0.0910401110645659
 40
0.2240766723264988
 40
0.387918409410514
 40
0.5025399764495371
 40
0.6371903145168417
 40
0.7999942212806334
 40
1.0
 40
1.0
 40
1.0
 40
1.0
 10
486.1875744864981
 20
251.9178994867378
 30
0.0
 10
486.2590513363149
 20
251.9733206290167
 30
0.0
 10
486.4349770295951
 20
252.1097284715948
 30
0.0
 10
486.6762479128695
 20
252.4162527398839
 30
0.0
 10
486.8252324942073
 20
252.8054686858456
 30
0.0
 10
486.8495382120281
 20
253.2181847016714
 30
0.0
 10
486.7790019228146
 20
253.6237597864995
 30
0.0
 10
486.5983040375651
 20
254.0867797814983
 30
0.0
 10
486.4019507477543
 20
254.3891523924984
 30
0.0
 10
486.2937072410233
 20
254.5558410779064
 30
0.0
  0
SPLINE
  5
34F
330
1F
100
AcDbEntity
  8
0
  6
Continuous
 62
     7
370
    25
100
AcDbSpline
210
0.0
220
0.0
230
1.0
 70
    24
 71
     3
 72
    12
 73
     8
 74
     0
 42
0.00000001
 43
0.00000001
 40
0.0
 40
0.0
 40
0.0
 40
0.0
 40
0.2070285502624553
 40
0.3865889856367035
 40
0.553792677353133
 40
0.759494984421315
 40
1.0
 40
1.0
 40
1.0
 40
1.0
 10
486.1875744864981
 20
251.9178994867378
 30
0.0
 10
486.1726848302714
 20
251.9074736372065
 30
0.0
 10
486.1448810462529
 20
251.8880052180459
 30
0.0
 10
485.8630087656894
 20
251.6906361223831
 30
0.0
 10
485.3596691157401
 20
251.3381939052087
 30
0.0
 10
484.5870686662623
 20
250.7972132464602
 30
0.0
 10
483.9770189476635
 20
250.3700518348145
 30
0.0
 10
483.6482031492023
 20
250.1398125340496
 30
0.0
  0
SPLINE
  5
350
330
1F
100
AcDbEntity
  8
0
  6
Continuous
 62
     7
370
    25
100
AcDbSpline
210
0.0
220
0.0
230
1.0
 70
    24
 71
     3
 72
    12
 73
     8
 74
     0
 42
0.00000001
 43
0.00000001
 40
0.0
 40
0.0
 40
0.0
 40
0.0
 40
0.1888045511790598
 40
0.3741006348802766
 40
0.5601229132647
 40
0.7782950916834096
 40
1.0
 40
1.0
 40
1.0
 40
1.0
 10
486.2937072410233
 20
254.5558410779064
 30
0.0
 10
486.2715091280014
 20
254.5402977918344
 30
0.0
 10
486.2275253992048
 20
254.5095000533725
 30
0.0
 10
485.7869890952902
 20
254.2010332125164
 30
0.0
 10
484.9792044746291
 20
253.6354163318796
 30
0.0
 10
483.801984146295
 20
252.8111177838462
 30
0.0
 10
482.8988741488441
 20
252.1787533557987
 30
0.0
 10
482.4436926328651
 20
251.8600318270564
 30
0.0
  0
LINE
  5
351
330
1F
100
AcDbEntity
  8
0
  6
Continuous
 62
     7
370
    25
100
AcDbLine
 10
399.1532647995
 20
186.7031087004
 30
0.0
 11
398.292900145
 21
187.9318367668
 31
0.0
  0
SPLINE
  5
352
330
1F
100
AcDbEntity
  8
0
  6
Continuous
 62
     7
370
    25
100
AcDbSpline
210
0.0
220
0.0
230
1.0
 70
    24
 71
     3
 72
    15
 73
    11
 74
     0
 42
0.00000001
 43
0.00000001
 40
0.0
 40
0.0
 40
0.0
 40
0.0
 40
0.1249999999999998
 40
0.2499999999999991
 40
0.375000000000001
 40
0.5000000000000004
 40
0.6250000000000003
 40
0.7500000000000013
 40
0.875000000000002
 40
1.0
 40
1.0
 40
1.0
 40
1.0
 10
395.0575045780684
 20
183.8352265186123
 30
0.0
 10
395.0727478169341
 20
183.8458999493728
 30
0.0
 10
395.1032342946655
 20
183.8672468108938
 30
0.0
 10
395.346779016824
 20
184.0377786612403
 30
0.0
 10
395.7253042031176
 20
184.3028248500853
 30
0.0
 10
396.238591987332
 20
184.6622328258631
 30
0.0
 10
396.8630776844481
 20
185.099502418488
 30
0.0
 10
397.5757913082329
 20
185.5985498704468
 30
0.0
 10
398.3490684015799
 20
186.1400043203332
 30
0.0
 10
398.8851993335356
 20
186.5154072403561
 30
0.0
 10
399.1532647995135
 20
186.7031087003675
 30
0.0
  0
LINE
  5
353
330
1F
100
AcDbEntity
  8
0
  6
Continuous
 62
     7
370
    25
100
AcDbLine
 10
395.0575045781
 20
183.8352265186
 30
0.0
 11
394.1971399235
 21
185.063954585
 31
0.0
  0
LINE
  5
354
330
1F
100
AcDbEntity
  8
0
  6
Continuous
 62
     7
370
    25
100
AcDbLine
 10
394.1971399235
 20
185.063954585
 30
0.0
 11
398.292900145
 21
187.9318367668
 31
0.0
  0
LINE
  5
355
330
1F
100
AcDbEntity
  8
0
  6
Continuous
 62
     7
370
    25
100
AcDbLine
 10
485.1642294499
 20
246.9286345172
 30
0.0
 11
484.3038647953
 21
248.1573625837
 31
0.0
  0
LINE
  5
356
330
1F
100
AcDbEntity
  8
0
  6
Continuous
 62
     7
370
    25
100
AcDbLine
 10
485.1642294499
 20
246.9286345172
 30
0.0
 11
480.1674019797
 21
243.4298182555
 31
0.0
  0
LINE
  5
357
330
1F
100
AcDbEntity
  8
0
  6
Continuous
 62
     7
370
    25
100
AcDbLine
 10
480.1674019797
 20
243.4298182555
 30
0.0
 11
404.1500922697
 21
190.2019249621
 31
0.0
  0
LINE
  5
358
330
1F
100
AcDbEntity
  8
0
  6
Continuous
 62
     7
370
    25
100
AcDbLine
 10
399.1532647995
 20
186.7031087004
 30
0.0
 11
404.1500922697
 21
190.2019249621
 31
0.0
  0
LINE
  5
359
330
1F
100
AcDbEntity
  8
0
  6
Continuous
 62
     7
370
    25
100
AcDbLine
 10
484.3038647953
 20
248.1573625837
 30
0.0
 11
398.292900145
 21
187.9318367668
 31
0.0
  0
LINE
  5
35A
330
1F
100
AcDbEntity
  8
0
  6
Continuous
 62
     7
370
    25
100
AcDbLine
 10
489.2599896713
 20
249.796516699
 30
0.0
 11
488.3996250168
 21
251.0252447654
 31
0.0
  0
SPLINE
  5
35B
330
1F
100
AcDbEntity
  8
0
  6
Continuous
 62
     7
370
    25
100
AcDbSpline
210
0.0
220
0.0
230
1.0
 70
    24
 71
     3
 72
    15
 73
    11
 74
     0
 42
0.00000001
 43
0.00000001
 40
0.0
 40
0.0
 40
0.0
 40
0.0
 40
0.1250000000000002
 40
0.2499999999999994
 40
0.3750000000000007
 40
0.4999999999999997
 40
0.6249999999999986
 40
0.7500000000000001
 40
0.8750000000000008
 40
1.0
 40
1.0
 40
1.0
 40
1.0
 10
489.2599896713025
 20
249.7965166989827
 30
0.0
 10
489.2447464324368
 20
249.7858432682222
 30
0.0
 10
489.2142599547054
 20
249.7644964067012
 30
0.0
 10
488.9707152325469
 20
249.5939645563546
 30
0.0
 10
488.5921900462533
 20
249.3289183675097
 30
0.0
 10
488.078902262039
 20
248.9695103917318
 30
0.0
 10
487.4544165649229
 20
248.532240799107
 30
0.0
 10
486.7417029411382
 20
248.0331933471482
 30
0.0
 10
485.9684258477912
 20
247.4917388972617
 30
0.0
 10
485.4322949158354
 20
247.1163359772389
 30
0.0
 10
485.1642294498575
 20
246.9286345172275
 30
0.0
  0
LINE
  5
35C
330
1F
100
AcDbEntity
  8
0
  6
Continuous
 62
     7
370
    25
100
AcDbLine
 10
488.3996250168
 20
251.0252447654
 30
0.0
 11
484.3038647953
 21
248.1573625837
 31
0.0
  0
SPLINE
  5
35D
330
1F
100
AcDbEntity
  8
0
  6
Continuous
 62
     7
370
    25
100
AcDbSpline
210
0.0
220
0.0
230
1.0
 70
    24
 71
     3
 72
    12
 73
     8
 74
     0
 42
0.00000001
 43
0.00000001
 40
0.0
 40
0.0
 40
0.0
 40
0.0
 40
0.1911402034931717
 40
0.3740560894572676
 40
0.5535335623345297
 40
0.7747568674384606
 40
1.0
 40
1.0
 40
1.0
 40
1.0
 10
408.3372002550389
 20
184.2221150387993
 30
0.0
 10
407.9275917953823
 20
183.9353041076333
 30
0.0
 10
407.1259993735493
 20
183.3740230512941
 30
0.0
 10
406.0421392607458
 20
182.6150960299442
 30
0.0
 10
405.1056565952351
 20
181.9593638081509
 30
0.0
 10
404.3899267088811
 20
181.4582043464039
 30
0.0
 10
404.2912317968317
 20
181.3890974250039
 30
0.0
 10
404.2414400335938
 20
181.354232857044
 30
0.0
  0
ARC
  5
35E
330
1F
100
AcDbEntity
  8
0
  6
Continuous
 62
     7
370
    25
100
AcDbCircle
 10
407.3743923471
 20
211.1901945443
 30
0.0
 40
29.99999999999998
100
AcDbArc
 50
245.7597981856
 51
264.0055721145
  0
LINE
  5
35F
330
1F
100
AcDbEntity
  8
0
  6
Continuous
 62
     7
370
    25
100
AcDbLine
 10
408.337200255
 20
184.2221150388
 30
0.0
 11
404.1500922697
 21
190.2019249621
 31
0.0
  0
ARC
  5
360
330
1F
100
AcDbEntity
  8
0
  6
Continuous
 62
     7
370
    25
100
AcDbCircle
 10
459.3421043557
 20
247.5783782361
 30
0.0
 40
30.00000000000003
100
AcDbArc
 50
345.9944278855
 51
4.2402018144
  0
SPLINE
  5
361
330
1F
100
AcDbEntity
  8
0
  6
Continuous
 62
     7
370
    25
100
AcDbSpline
210
0.0
220
0.0
230
1.0
 70
    24
 71
     3
 72
    12
 73
     8
 74
     0
 42
0.00000001
 43
0.00000001
 40
0.0
 40
0.0
 40
0.0
 40
0.0
 40
0.1911402034931748
 40
0.3740560894572669
 40
0.5535335623345254
 40
0.7747568674384558
 40
1.0
 40
1.0
 40
1.0
 40
1.0
 10
484.3545099650572
 20
237.4500083321765
 30
0.0
 10
484.7641184247137
 20
237.7368192633424
 30
0.0
 10
485.5657108465466
 20
238.2981003196815
 30
0.0
 10
486.6495709593502
 20
239.0570273410316
 30
0.0
 10
487.5860536248608
 20
239.7127595628247
 30
0.0
 10
488.3017835112149
 20
240.2139190245719
 30
0.0
 10
488.4004784232643
 20
240.2830259459718
 30
0.0
 10
488.4502701865021
 20
240.3178905139316
 30
0.0
  0
LINE
  5
362
330
1F
100
AcDbEntity
  8
0
  6
Continuous
 62
     7
370
    25
100
AcDbLine
 10
484.3545099651
 20
237.4500083322
 30
0.0
 11
480.1674019797
 21
243.4298182555
 31
0.0
  0
LINE
  5
363
330
1F
100
AcDbEntity
  8
0
  6
Continuous
 62
     7
370
    25
100
AcDbLine
 10
408.337200255
 20
184.2221150388
 30
0.0
 11
484.3545099651
 21
237.4500083322
 31
0.0
  0
LINE
  5
364
330
1F
100
AcDbEntity
  8
0
  6
Continuous
 62
     7
370
    25
100
AcDbLine
 10
394.6228609791
 20
187.0711321016
 30
0.0
 11
397.4898931341
 21
189.0786496288
 31
0.0
  0
LINE
  5
365
330
1F
100
AcDbEntity
  8
0
  6
Continuous
 62
     7
370
    25
100
AcDbLine
 10
397.4898931341
 20
189.0786496288
 30
0.0
 11
398.292900145
 21
187.9318367668
 31
0.0
  0
ARC
  5
366
330
1F
100
AcDbEntity
  8
0
  6
Continuous
 62
     7
370
    25
100
AcDbCircle
 10
393.4760481171
 20
186.2681250907
 30
0.0
 40
1.400000000000004
100
AcDbArc
 50
305.0
 51
35.0
  0
LINE
  5
367
330
1F
100
AcDbEntity
  8
0
  6
Continuous
 62
     7
370
    25
100
AcDbLine
 10
483.5008577844
 20
249.3041754457
 30
0.0
 11
484.3038647953
 21
248.1573625837
 31
0.0
  0
LINE
  5
368
330
1F
100
AcDbEntity
  8
0
  6
Continuous
 62
     7
370
    25
100
AcDbLine
 10
483.5008577844
 20
249.3041754457
 30
0.0
 11
397.4898931341
 21
189.0786496288
 31
0.0
  0
LINE
  5
369
330
1F
100
AcDbEntity
  8
0
  6
Continuous
 62
     7
370
    25
100
AcDbLine
 10
486.3678899395
 20
251.3116929729
 30
0.0
 11
483.5008577844
 21
249.3041754457
 31
0.0
  0
ARC
  5
36A
330
1F
100
AcDbEntity
  8
0
  6
Continuous
 62
     7
370
    25
100
AcDbCircle
 10
487.5147028015
 20
252.1146999838
 30
0.0
 40
1.40000000000002
100
AcDbArc
 50
215.0
 51
305.0
  0
LINE
  5
36B
330
1F
100
AcDbEntity
  8
0
  6
Continuous
 62
     7
370
    25
100
AcDbLine
 10
482.6045341486
 20
252.0487535917
 30
0.0
 11
395.2173940638
 21
190.8596193617
 31
0.0
  0
LINE
  5
36C
330
1F
100
AcDbEntity
  8
0
  6
Continuous
 62
     7
370
    25
100
AcDbLine
 10
483.6570357714
 20
252.7857231619
 30
0.0
 11
482.6045341486
 21
252.0487535917
 31
0.0
  0
LINE
  5
36D
330
1F
100
AcDbEntity
  8
0
  6
Continuous
 62
     7
370
    25
100
AcDbLine
 10
482.6045341486
 20
252.0487535917
 30
0.0
 11
482.2387856292
 21
252.5710966106
 31
0.0
  0
SPLINE
  5
36E
330
1F
100
AcDbEntity
  8
0
  6
Continuous
 62
     7
370
    25
100
AcDbSpline
210
0.0
220
0.0
230
1.0
 70
    24
 71
     3
 72
    11
 73
     7
 74
     0
 42
0.00000001
 43
0.00000001
 40
0.0
 40
0.0
 40
0.0
 40
0.0
 40
0.2702613318128854
 40
0.5624293896420856
 40
0.7897364218595307
 40
0.9999999999999999
 40
0.9999999999999999
 40
0.9999999999999999
 40
0.9999999999999999
 10
484.2129420559327
 20
253.9534158221969
 30
0.0
 10
484.1781390554341
 20
253.9290464988955
 30
0.0
 10
484.1057120078916
 20
253.8783325342359
 30
0.0
 10
483.5717054878934
 20
253.5044171434801
 30
0.0
 10
482.9075914813811
 20
253.0393995098894
 30
0.0
 10
482.4558558518834
 20
252.7230908168372
 30
0.0
 10
482.2387856291962
 20
252.5710966105908
 30
0.0
  0
ARC
  5
36F
330
1F
100
AcDbEntity
  8
0
  6
Continuous
 62
     7
370
    25
100
AcDbCircle
 10
484.9950432957
 20
252.8364594955
 30
0.0
 40
1.363551900398982
100
AcDbArc
 50
67.1644701898
 51
125.0
  0
ARC
  5
370
330
1F
100
AcDbEntity
  8
0
  6
Continuous
 62
     7
370
    25
100
AcDbCircle
 10
393.6595903575
 20
188.8826868423
 30
0.0
 40
1.363551900399037
100
AcDbArc
 50
125.0
 51
182.8355298079
  0
SPLINE
  5
371
330
1F
100
AcDbEntity
  8
0
  6
Continuous
 62
     7
370
    25
100
AcDbSpline
210
0.0
220
0.0
230
1.0
 70
    24
 71
     3
 72
    11
 73
     7
 74
     0
 42
0.00000001
 43
0.00000001
 40
0.0
 40
0.0
 40
0.0
 40
0.0
 40
0.2702613318128883
 40
0.5624293896420959
 40
0.78973642185953
 40
1.0
 40
1.0
 40
1.0
 40
1.0
 10
394.8516455444139
 20
191.3819623806382
 30
0.0
 10
394.5718965028541
 20
191.1860799929311
 30
0.0
 10
393.9897226430494
 20
190.7784374677473
 30
0.0
 10
393.3275466138152
 20
190.3147768204556
 30
0.0
 10
392.9421374528765
 20
190.0449104206713
 30
0.0
 10
392.8984716322176
 20
190.0143352838838
 30
0.0
 10
392.8774891176774
 20
189.9996431690322
 30
0.0
  0
LINE
  5
372
330
1F
100
AcDbEntity
  8
0
  6
Continuous
 62
     7
370
    25
100
AcDbLine
 10
395.2173940638
 20
190.8596193617
 30
0.0
 11
394.8516455444
 21
191.3819623806
 31
0.0
  0
LINE
  5
373
330
1F
100
AcDbEntity
  8
0
  6
Continuous
 62
     7
370
    25
100
AcDbLine
 10
482.2387856292
 20
252.5710966106
 30
0.0
 11
394.8516455444
 21
191.3819623806
 31
0.0
  0
LINE
  5
374
330
1F
100
AcDbEntity
  8
0
  6
Continuous
 62
     7
370
    25
100
AcDbLine
 10
397.1457472723
 20
189.5701408554
 30
0.0
 11
397.4898931341
 21
189.0786496288
 31
0.0
  0
LINE
  5
375
330
1F
100
AcDbEntity
  8
0
  6
Continuous
 62
     7
370
    25
100
AcDbLine
 10
394.2787151173
 20
187.5626233282
 30
0.0
 11
394.6228609791
 21
187.0711321016
 31
0.0
  0
LINE
  5
376
330
1F
100
AcDbEntity
  8
0
  6
Continuous
 62
     7
370
    25
100
AcDbLine
 10
483.1567119226
 20
249.7956666722
 30
0.0
 11
483.5008577844
 21
249.3041754457
 31
0.0
  0
LINE
  5
377
330
1F
100
AcDbEntity
  8
0
  6
Continuous
 62
     7
370
    25
100
AcDbLine
 10
486.0237440776
 20
251.8031841995
 30
0.0
 11
486.3678899395
 21
251.3116929729
 31
0.0
  0
LINE
  5
378
330
1F
100
AcDbEntity
  8
0
  6
Continuous
 62
     7
370
    25
100
AcDbLine
 10
405.0197194768
 20
181.2888026968
 30
0.0
 11
407.5183882214
 21
181.207227503
 31
0.0
  0
SPLINE
  5
379
330
1F
100
AcDbEntity
  8
0
  6
Continuous
 62
     7
370
    25
100
AcDbSpline
210
0.0
220
0.0
230
1.0
 70
    24
 71
     3
 72
    11
 73
     7
 74
     0
 42
0.00000001
 43
0.00000001
 40
0.0
 40
0.0
 40
0.0
 40
0.0
 40
0.2499999999999972
 40
0.4999999999999997
 40
0.749999999999998
 40
1.0
 40
1.0
 40
1.0
 40
1.0
 10
408.6239884733154
 20
183.8125390165105
 30
0.0
 10
408.1516957190614
 20
183.4818360697579
 30
0.0
 10
407.2071102105533
 20
182.8204301762528
 30
0.0
 10
406.0157373415122
 20
181.9862219125855
 30
0.0
 10
405.1822529723386
 20
181.4026098743638
 30
0.0
 10
405.0738973096747
 20
181.3267384225947
 30
0.0
 10
405.0197194783428
 20
181.2888026967101
 30
0.0
  0
LINE
  5
37A
330
1F
100
AcDbEntity
  8
0
  6
Continuous
 62
     7
370
    25
100
AcDbLine
 10
446.6326433282
 20
210.4264856633
 30
0.0
 11
408.6239884732
 21
183.8125390167
 31
0.0
  0
LINE
  5
37B
330
1F
100
AcDbEntity
  8
0
  6
Continuous
 62
     7
370
    25
100
AcDbLine
 10
447.4930079828
 20
209.1977575969
 30
0.0
 11
446.6326433282
 21
210.4264856633
 31
0.0
  0
LINE
  5
37C
330
1F
100
AcDbEntity
  8
0
  6
Continuous
 62
     7
370
    25
100
AcDbLine
 10
447.4930079828
 20
209.1977575969
 30
0.0
 11
409.9758443544
 21
182.9279568121
 31
0.0
  0
SPLINE
  5
37D
330
1F
100
AcDbEntity
  8
0
  6
Continuous
 62
     7
370
    25
100
AcDbSpline
210
0.0
220
0.0
230
1.0
 70
    24
 71
     3
 72
    12
 73
     8
 74
     0
 42
0.00000001
 43
0.00000001
 40
0.0
 40
0.0
 40
0.0
 40
0.0
 40
0.2024911943446276
 40
0.3826585684241606
 40
0.5558886091118682
 40
0.7646708082864637
 40
1.0
 40
1.0
 40
1.0
 40
1.0
 10
407.5183882214473
 20
181.2072275029788
 30
0.0
 10
407.5424052833663
 20
181.22404443078
 30
0.0
 10
407.587791625036
 20
181.255824289349
 30
0.0
 10
407.9197515003223
 20
181.4882650964076
 30
0.0
 10
408.406571489953
 20
181.8291401228982
 30
0.0
 10
409.1005029810194
 20
182.315036183944
 30
0.0
 10
409.672663497731
 20
182.7156672908114
 30
0.0
 10
409.97584435436
 20
182.9279568120639
 30
0.0
  0
LINE
  5
37E
330
1F
100
AcDbEntity
  8
0
  6
Continuous
 62
     7
370
    25
100
AcDbLine
 10
408.6239884733
 20
183.8125390165
 30
0.0
 11
408.337200255
 21
184.2221150388
 31
0.0
  0
LINE
  5
37F
330
1F
100
AcDbEntity
  8
0
  6
Continuous
 62
     7
370
    25
100
AcDbLine
 10
405.0197194783
 20
181.2888026967
 30
0.0
 11
404.7329312602
 21
181.6983787189
 31
0.0
  0
LINE
  5
380
330
1F
100
AcDbEntity
  8
0
  6
Continuous
 62
     7
370
    25
100
AcDbLine
 10
484.6412981833
 20
237.0404323099
 30
0.0
 11
484.3545099651
 21
237.4500083322
 31
0.0
  0
LINE
  5
381
330
1F
100
AcDbEntity
  8
0
  6
Continuous
 62
     7
370
    25
100
AcDbLine
 10
446.6326433282
 20
210.4264856633
 30
0.0
 11
484.6412981832
 21
237.04043231
 31
0.0
  0
LINE
  5
382
330
1F
100
AcDbEntity
  8
0
  6
Continuous
 62
     7
370
    25
100
AcDbLine
 10
447.4930079828
 20
209.1977575969
 30
0.0
 11
485.0101716111
 21
235.4675583818
 31
0.0
  0
SPLINE
  5
383
330
1F
100
AcDbEntity
  8
0
  6
Continuous
 62
     7
370
    25
100
AcDbSpline
210
0.0
220
0.0
230
1.0
 70
    24
 71
     3
 72
    11
 73
     7
 74
     0
 42
0.00000001
 43
0.00000001
 40
0.0
 40
0.0
 40
0.0
 40
0.0
 40
0.2499999999999973
 40
0.4999999999999982
 40
0.749999999999996
 40
0.9999999999999999
 40
0.9999999999999999
 40
0.9999999999999999
 40
0.9999999999999999
 10
484.6412981833337
 20
237.0404323098877
 30
0.0
 10
485.1135909375709
 20
237.3711352566643
 30
0.0
 10
486.0581764460453
 20
238.0325411502175
 30
0.0
 10
487.2495493150358
 20
238.866749413957
 30
0.0
 10
488.083033684159
 20
239.4503614522508
 30
0.0
 10
488.1913893467892
 20
239.5262329040679
 30
0.0
 10
488.2455671781042
 20
239.5641686299765
 30
0.0
  0
LINE
  5
384
330
1F
100
AcDbEntity
  8
0
  6
Continuous
 62
     7
370
    25
100
AcDbLine
 10
488.2455671786
 20
239.5641686314
 30
0.0
 11
487.4676277441
 21
237.1882876908
 31
0.0
  0
SPLINE
  5
385
330
1F
100
AcDbEntity
  8
0
  6
Continuous
 62
     7
370
    25
100
AcDbSpline
210
0.0
220
0.0
230
1.0
 70
    24
 71
     3
 72
    12
 73
     8
 74
     0
 42
0.00000001
 43
0.00000001
 40
0.0
 40
0.0
 40
0.0
 40
0.0
 40
0.2024911945560341
 40
0.3826585686624532
 40
0.5558886093477988
 40
0.7646708085115432
 40
0.9999999999999999
 40
0.9999999999999999
 40
0.9999999999999999
 40
0.9999999999999999
 10
485.0101716111403
 20
235.4675583817559
 30
0.0
 10
485.2706440477104
 20
235.6499431453395
 30
0.0
 10
485.762872907205
 20
235.9946055032843
 30
0.0
 10
486.4108115734792
 20
236.4482970417063
 30
0.0
 10
486.9470916960356
 20
236.8238044261123
 30
0.0
 10
487.3736188686037
 20
237.1224619675967
 30
0.0
 10
487.4350670857206
 20
237.1654884724289
 30
0.0
 10
487.4676277440528
 20
237.188287690841
 30
0.0
  0
LINE
  5
386
330
1F
100
AcDbEntity
  8
0
  6
Continuous
 62
     7
370
    25
100
AcDbLine
 10
488.2455671781
 20
239.56416863
 30
0.0
 11
487.9587789599
 21
239.9737446521
 31
0.0
  0
ARC
  5
387
330
1F
100
AcDbEntity
  8
0
  6
Continuous
 62
     7
370
    25
100
AcDbCircle
 10
425.1721329585
 20
192.3477380567
 30
0.0
 40
0.9999999999999789
100
AcDbArc
 50
99.1580672368
 51
125.0
  0
ARC
  5
388
330
1F
100
AcDbEntity
  8
0
  6
Continuous
 62
     7
370
    25
100
AcDbCircle
 10
470.9610358797
 20
224.4094730485
 30
0.0
 40
1.000000000000028
100
AcDbArc
 50
125.0
 51
150.8419327632
  0
LWPOLYLINE
  5
389
330
1F
100
AcDbEntity
  8
0
  6
Continuous
 62
     7
370
    25
100
AcDbPolyline
 90
        2
 70
   128
 43
0.0
 10
437.5882138728
 20
168.2002649652
 10
437.5882138728
 20
168.2002649652
  0
SPLINE
  5
38A
330
1F
100
AcDbEntity
  8
0
  6
Continuous
 62
     7
370
    25
100
AcDbSpline
210
0.0
220
0.0
230
1.0
 70
    24
 71
     3
 72
    14
 73
    10
 74
     0
 42
0.00000001
 43
0.00000001
 40
0.0
 40
0.0
 40
0.0
 40
0.0
 40
0.1326627182286196
 40
0.2743449827971052
 40
0.4220599232186129
 40
0.5711838747092529
 40
0.7233859469369198
 40
0.8670906160005563
 40
1.0
 40
1.0
 40
1.0
 40
1.0
 10
446.5882138728077
 20
168.2002649652202
 30
0.0
 10
445.9632946146671
 20
168.2002649652201
 30
0.0
 10
444.6709687418572
 20
168.20026496522
 30
0.0
 10
442.7709451015314
 20
168.2002649652201
 30
0.0
 10
440.9941698155334
 20
168.2002649652201
 30
0.0
 10
439.4774737120513
 20
168.2002649652201
 30
0.0
 10
438.3729497757732
 20
168.2002649652201
 30
0.0
 10
437.7055310777611
 20
168.20026496522
 30
0.0
 10
437.6262887570066
 20
168.2002649652201
 30
0.0
 10
437.5882138728076
 20
168.2002649652202
 30
0.0
  0
LINE
  5
38B
330
1F
100
AcDbEntity
  8
0
  6
Continuous
 62
     7
370
    25
100
AcDbLine
 10
487.3990903251
 20
168.2002649652
 30
0.0
 11
446.5882138728
 21
168.2002649652
 31
0.0
  0
SPLINE
  5
38C
330
1F
100
AcDbEntity
  8
0
  6
Continuous
 62
     7
370
    25
100
AcDbSpline
210
0.0
220
0.0
230
1.0
 70
    24
 71
     3
 72
    14
 73
    10
 74
     0
 42
0.00000001
 43
0.00000001
 40
0.0
 40
0.0
 40
0.0
 40
0.0
 40
0.1266453710958642
 40
0.2631942331383691
 40
0.4077826672683809
 40
0.5566857848067099
 40
0.7118345976452358
 40
0.860801332389341
 40
1.0
 40
1.0
 40
1.0
 40
1.0
 10
496.3990903250524
 20
168.2002649652202
 30
0.0
 10
496.3645509036734
 20
168.2002649652202
 30
0.0
 10
496.292771126456
 20
168.2002649652203
 30
0.0
 10
495.6882602200154
 20
168.2002649652201
 30
0.0
 10
494.669171109404
 20
168.2002649652203
 30
0.0
 10
493.2047800501733
 20
168.2002649652201
 30
0.0
 10
491.3991237642923
 20
168.2002649652202
 30
0.0
 10
489.4125626139905
 20
168.2002649652202
 30
0.0
 10
488.0549074130773
 20
168.2002649652202
 30
0.0
 10
487.3990903250525
 20
168.2002649652202
 30
0.0
  0
SPLINE
  5
38D
330
1F
100
AcDbEntity
  8
0
  6
Continuous
 62
     7
370
    25
100
AcDbSpline
210
0.0
220
0.0
230
1.0
 70
    24
 71
     3
 72
    15
 73
    11
 74
     0
 42
0.00000001
 43
0.00000001
 40
0.0
 40
0.0
 40
0.0
 40
0.0
 40
0.1249999999999999
 40
0.249999999999999
 40
0.3749999999999992
 40
0.4999999999999983
 40
0.6249999999999989
 40
0.7499999999999987
 40
0.8749999999999986
 40
1.0
 40
1.0
 40
1.0
 40
1.0
 10
427.588213872808
 20
160.2002649652202
 30
0.0
 10
426.802819851231
 20
160.2002649652202
 30
0.0
 10
425.232031808077
 20
160.2002649652201
 30
0.0
 10
422.9664389465657
 20
160.2002649652201
 30
0.0
 10
420.8782885122121
 20
160.2002649652201
 30
0.0
 10
419.0486334640094
 20
160.2002649652201
 30
0.0
 10
417.544772623152
 20
160.2002649652201
 30
0.0
 10
416.4357471944322
 20
160.2002649652201
 30
0.0
 10
415.7221954951418
 20
160.2002649652201
 30
0.0
 10
415.6328744135859
 20
160.2002649652202
 30
0.0
 10
415.5882138728078
 20
160.2002649652202
 30
0.0
  0
LWPOLYLINE
  5
38E
330
1F
100
AcDbEntity
  8
0
  6
Continuous
 62
     7
370
    25
100
AcDbPolyline
 90
        2
 70
   128
 43
0.0
 10
415.5882138728
 20
160.2002649652
 10
415.5882138728
 20
160.2002649652
  0
SPLINE
  5
38F
330
1F
100
AcDbEntity
  8
0
  6
Continuous
 62
     7
370
    25
100
AcDbSpline
210
0.0
220
0.0
230
1.0
 70
    24
 71
     3
 72
    15
 73
    11
 74
     0
 42
0.00000001
 43
0.00000001
 40
0.0
 40
0.0
 40
0.0
 40
0.0
 40
0.1250000000000021
 40
0.2500000000000013
 40
0.3750000000000004
 40
0.5000000000000002
 40
0.6249999999999997
 40
0.7499999999999986
 40
0.8749999999999988
 40
1.0
 40
1.0
 40
1.0
 40
1.0
 10
510.3990903250528
 20
160.2002649652202
 30
0.0
 10
510.3544297842844
 20
160.2002649652202
 30
0.0
 10
510.2651087027473
 20
160.2002649652202
 30
0.0
 10
509.5515570034748
 20
160.2002649652202
 30
0.0
 10
508.4425315747645
 20
160.2002649652202
 30
0.0
 10
506.9386707339081
 20
160.2002649652202
 30
0.0
 10
505.1090156856985
 20
160.2002649652202
 30
0.0
 10
503.0208652513321
 20
160.2002649652202
 30
0.0
 10
500.7552723898035
 20
160.2002649652202
 30
0.0
 10
499.1844843466365
 20
160.2002649652202
 30
0.0
 10
498.3990903250528
 20
160.2002649652201
 30
0.0
  0
LINE
  5
390
330
1F
100
AcDbEntity
  8
0
  6
Continuous
 62
     7
370
    25
100
AcDbLine
 10
498.3990903251
 20
160.2002649652
 30
0.0
 11
427.5882138728
 21
160.2002649652
 31
0.0
  0
LINE
  5
391
330
1F
100
AcDbEntity
  8
0
  6
Continuous
 62
     7
370
    25
100
AcDbLine
 10
498.3990903251
 20
157.7002649652
 30
0.0
 11
498.3990903251
 21
160.2002649652
 31
0.0
  0
LINE
  5
392
330
1F
100
AcDbEntity
  8
0
  6
Continuous
 62
     7
370
    25
100
AcDbLine
 10
498.3990903251
 20
157.7002649652
 30
0.0
 11
427.5882138728
 21
157.7002649652
 31
0.0
  0
LINE
  5
393
330
1F
100
AcDbEntity
  8
0
  6
Continuous
 62
     7
370
    25
100
AcDbLine
 10
427.5882138728
 20
157.7002649652
 30
0.0
 11
427.5882138728
 21
160.2002649652
 31
0.0
  0
LINE
  5
394
330
1F
100
AcDbEntity
  8
0
  6
Continuous
 62
     7
370
    25
100
AcDbLine
 10
510.3990903251
 20
157.7002649652
 30
0.0
 11
510.3990903251
 21
160.2002649652
 31
0.0
  0
LINE
  5
395
330
1F
100
AcDbEntity
  8
0
  6
Continuous
 62
     7
370
    25
100
AcDbLine
 10
510.3990903251
 20
157.7002649652
 30
0.0
 11
498.3990903251
 21
157.7002649652
 31
0.0
  0
LINE
  5
396
330
1F
100
AcDbEntity
  8
0
  6
Continuous
 62
     7
370
    25
100
AcDbLine
 10
427.5882138728
 20
157.7002649652
 30
0.0
 11
415.5882138728
 21
157.7002649652
 31
0.0
  0
LINE
  5
397
330
1F
100
AcDbEntity
  8
0
  6
Continuous
 62
     7
370
    25
100
AcDbLine
 10
415.5882138728
 20
157.7002649652
 30
0.0
 11
415.5882138728
 21
160.2002649652
 31
0.0
  0
LINE
  5
398
330
1F
100
AcDbEntity
  8
0
  6
Continuous
 62
     7
370
    25
100
AcDbLine
 10
435.4041292622
 20
156.0002649652
 30
0.0
 11
435.4041292622
 21
157.7002649652
 31
0.0
  0
LINE
  5
399
330
1F
100
AcDbEntity
  8
0
  6
Continuous
 62
     7
370
    25
100
AcDbLine
 10
435.4041292622
 20
156.0002649652
 30
0.0
 11
425.2541292622
 21
156.0002649652
 31
0.0
  0
LINE
  5
39A
330
1F
100
AcDbEntity
  8
0
  6
Continuous
 62
     7
370
    25
100
AcDbLine
 10
425.2541292622
 20
156.0002649652
 30
0.0
 11
425.2541292622
 21
157.7002649652
 31
0.0
  0
LINE
  5
39B
330
1F
100
AcDbEntity
  8
0
  6
Continuous
 62
     7
370
    25
100
AcDbLine
 10
493.6041292622
 20
156.0002649652
 30
0.0
 11
493.6041292622
 21
157.7002649652
 31
0.0
  0
LINE
  5
39C
330
1F
100
AcDbEntity
  8
0
  6
Continuous
 62
     7
370
    25
100
AcDbLine
 10
493.6041292622
 20
156.0002649652
 30
0.0
 11
435.4041292622
 21
156.0002649652
 31
0.0
  0
LINE
  5
39D
330
1F
100
AcDbEntity
  8
0
  6
Continuous
 62
     7
370
    25
100
AcDbLine
 10
503.7541292622
 20
156.0002649652
 30
0.0
 11
503.7541292622
 21
157.7002649652
 31
0.0
  0
LINE
  5
39E
330
1F
100
AcDbEntity
  8
0
  6
Continuous
 62
     7
370
    25
100
AcDbLine
 10
503.7541292622
 20
156.0002649652
 30
0.0
 11
493.6041292622
 21
156.0002649652
 31
0.0
  0
LINE
  5
39F
330
1F
100
AcDbEntity
  8
0
  6
Continuous
 62
     7
370
    25
100
AcDbLine
 10
430.348512707
 20
194.6294261296
 30
0.0
 11
429.2013598343
 21
196.2677302182
 31
0.0
  0
LINE
  5
3A0
330
1F
100
AcDbEntity
  8
0
  6
Continuous
 62
     7
370
    25
100
AcDbLine
 10
430.348512707
 20
194.6294261296
 30
0.0
 11
422.1569922641
 21
188.8936617661
 31
0.0
  0
LINE
  5
3A1
330
1F
100
AcDbEntity
  8
0
  6
Continuous
 62
     7
370
    25
100
AcDbLine
 10
422.1569922641
 20
188.8936617661
 30
0.0
 11
421.0098393914
 21
190.5319658547
 31
0.0
  0
LINE
  5
3A2
330
1F
100
AcDbEntity
  8
0
  6
Continuous
 62
     7
370
    25
100
AcDbLine
 10
429.2013598343
 20
196.2677302182
 30
0.0
 11
421.0098393914
 21
190.5319658547
 31
0.0
  0
LINE
  5
3A3
330
1F
100
AcDbEntity
  8
0
  6
Continuous
 62
     7
370
    25
100
AcDbLine
 10
431.4956655797
 20
192.9911220411
 30
0.0
 11
424.9424492254
 21
188.4025105503
 31
0.0
  0
ARC
  5
3A4
330
1F
100
AcDbEntity
  8
0
  6
Continuous
 62
     7
370
    25
100
AcDbCircle
 10
423.3041451368
 20
187.2553576776
 30
0.0
 40
2.000000000000035
100
AcDbArc
 50
35.0
 51
125.0
  0
LINE
  5
3A5
330
1F
100
AcDbEntity
  8
0
  6
Continuous
 62
     7
370
    25
100
AcDbLine
 10
430.348512707
 20
194.6294261296
 30
0.0
 11
431.4956655797
 21
192.9911220411
 31
0.0
  0
LINE
  5
3A6
330
1F
100
AcDbEntity
  8
0
  6
Continuous
 62
     7
370
    25
100
AcDbLine
 10
467.2103547
 20
220.4403657654
 30
0.0
 11
466.0632018273
 21
222.078669854
 31
0.0
  0
LINE
  5
3A7
330
1F
100
AcDbEntity
  8
0
  6
Continuous
 62
     7
370
    25
100
AcDbLine
 10
467.2103547
 20
220.4403657654
 30
0.0
 11
430.348512707
 21
194.6294261296
 31
0.0
  0
LINE
  5
3A8
330
1F
100
AcDbEntity
  8
0
  6
Continuous
 62
     7
370
    25
100
AcDbLine
 10
466.0632018273
 20
222.078669854
 30
0.0
 11
429.2013598343
 21
196.2677302182
 31
0.0
  0
LINE
  5
3A9
330
1F
100
AcDbEntity
  8
0
  6
Continuous
 62
     7
370
    25
100
AcDbLine
 10
467.2103547
 20
220.4403657654
 30
0.0
 11
468.3575075727
 21
218.8020616769
 31
0.0
  0
LINE
  5
3AA
330
1F
100
AcDbEntity
  8
0
  6
Continuous
 62
     7
370
    25
100
AcDbLine
 10
468.3575075727
 20
218.8020616769
 30
0.0
 11
431.4956655797
 21
192.9911220411
 31
0.0
  0
LINE
  5
3AB
330
1F
100
AcDbEntity
  8
0
  6
Continuous
 62
     7
370
    25
100
AcDbLine
 10
475.4018751429
 20
226.1761301289
 30
0.0
 11
474.2547222702
 21
227.8144342175
 31
0.0
  0
LINE
  5
3AC
330
1F
100
AcDbEntity
  8
0
  6
Continuous
 62
     7
370
    25
100
AcDbLine
 10
475.4018751429
 20
226.1761301289
 30
0.0
 11
467.2103547
 21
220.4403657654
 31
0.0
  0
LINE
  5
3AD
330
1F
100
AcDbEntity
  8
0
  6
Continuous
 62
     7
370
    25
100
AcDbLine
 10
474.2547222702
 20
227.8144342175
 30
0.0
 11
466.0632018273
 21
222.078669854
 31
0.0
  0
ARC
  5
3AE
330
1F
100
AcDbEntity
  8
0
  6
Continuous
 62
     7
370
    25
100
AcDbCircle
 10
476.5490280156
 20
224.5378260404
 30
0.0
 40
2.000000000000051
100
AcDbArc
 50
125.0
 51
215.0
  0
LINE
  5
3AF
330
1F
100
AcDbEntity
  8
0
  6
Continuous
 62
     7
370
    25
100
AcDbLine
 10
474.910723927
 20
223.3906731677
 30
0.0
 11
468.3575075727
 21
218.8020616769
 31
0.0
  0
LINE
  5
3B0
330
1F
100
AcDbEntity
  8
0
  6
Continuous
 62
     7
370
    25
100
AcDbLine
 10
439.0872984957
 20
168.2015722593
 30
0.0
 11
424.9424492254
 21
188.4025105503
 31
0.0
  0
LINE
  5
3B1
330
1F
100
AcDbEntity
  8
0
  6
Continuous
 62
     7
370
    25
100
AcDbLine
 10
448.7143690753
 20
168.4002649652
 30
0.0
 11
431.4956655797
 21
192.9911220411
 31
0.0
  0
SPLINE
  5
3B2
330
1F
100
AcDbEntity
  8
0
  6
Continuous
 62
     7
370
    25
100
AcDbSpline
210
0.0
220
0.0
230
1.0
 70
     8
 71
     3
 72
    20
 73
    16
 74
     0
 42
0.00000001
 43
0.00000001
 40
0.0
 40
0.0
 40
0.0
 40
0.0
 40
0.112620954173241
 40
0.1701734753413323
 40
0.228788549010201
 40
0.3447857886150379
 40
0.4063762239509956
 40
0.4704860249520184
 40
0.5538611972108745
 40
0.6396161202834217
 40
0.7294533540068281
 40
0.7927756967500437
 40
0.8639371662372061
 40
0.9205718167999509
 40
1.0
 40
1.0
 40
1.0
 40
1.0
 10
439.0872984956638
 20
168.2015722592633
 30
0.0
 10
439.1216565649394
 20
168.2021317809019
 30
0.0
 10
439.1735725880058
 20
168.2029772340634
 30
0.0
 10
439.4880147384125
 20
168.2096555885773
 30
0.0
 10
439.9105427782325
 20
168.2187514482263
 30
0.0
 10
440.5085465189287
 20
168.2303288106263
 30
0.0
 10
441.2504760357007
 20
168.2459875347634
 30
0.0
 10
441.9633112226187
 20
168.2610194013043
 30
0.0
 10
442.8370035489252
 20
168.278907827303
 30
0.0
 10
443.8850787624282
 20
168.3005192042063
 30
0.0
 10
444.9089838886205
 20
168.3218111339982
 30
0.0
 10
445.9028319247358
 20
168.3420342186278
 30
0.0
 10
446.7681812719894
 20
168.3602761435904
 30
0.0
 10
447.7182985554837
 20
168.3792146221128
 30
0.0
 10
448.3472258279897
 20
168.3925059851368
 30
0.0
 10
448.7143690752574
 20
168.4002649652201
 30
0.0
  0
LINE
  5
3B3
330
1F
100
AcDbEntity
  8
0
  6
Continuous
 62
     7
370
    25
100
AcDbLine
 10
499.2159198484
 20
174.7316816941
 30
0.0
 11
468.3575075727
 21
218.8020616769
 31
0.0
  0
LINE
  5
3B4
330
1F
100
AcDbEntity
  8
0
  6
Continuous
 62
     7
370
    25
100
AcDbLine
 10
492.4465629649
 20
169.9917269755
 30
0.0
 11
499.2159198484
 21
174.7316816941
 31
0.0
  0
ARC
  5
3B5
330
1F
100
AcDbEntity
  8
0
  6
Continuous
 62
     7
370
    25
100
AcDbCircle
 10
487.3990903251
 20
177.2002649652
 30
0.0
 40
8.800000000000068
100
AcDbArc
 50
270.0
 51
305.0
  0
LINE
  5
3B6
330
1F
100
AcDbEntity
  8
0
  6
Continuous
 62
     7
370
    25
100
AcDbLine
 10
448.7143690753
 20
168.4002649652
 30
0.0
 11
487.3990903251
 21
168.4002649652
 31
0.0
  0
LINE
  5
3B7
330
1F
100
AcDbEntity
  8
0
  6
Continuous
 62
     7
370
    25
100
AcDbLine
 10
448.7143690753
 20
168.2002649652
 30
0.0
 11
448.7143690753
 21
168.4002649652
 31
0.0
  0
LINE
  5
3B8
330
1F
100
AcDbEntity
  8
0
  6
Continuous
 62
     7
370
    25
100
AcDbLine
 10
487.3990903251
 20
168.2002649652
 30
0.0
 11
487.3990903251
 21
168.4002649652
 31
0.0
  0
LINE
  5
3B9
330
1F
100
AcDbEntity
  8
0
  6
Continuous
 62
     7
370
    25
100
AcDbLine
 10
505.7691362027
 20
179.3202931849
 30
0.0
 11
474.910723927
 21
223.3906731677
 31
0.0
  0
LINE
  5
3BA
330
1F
100
AcDbEntity
  8
0
  6
Continuous
 62
     7
370
    25
100
AcDbLine
 10
499.2159198484
 20
174.7316816941
 30
0.0
 11
505.7691362027
 21
179.3202931849
 31
0.0
  0
ARC
  5
3BB
330
1F
100
AcDbEntity
  8
0
  6
Continuous
 62
     7
370
    25
100
AcDbCircle
 10
487.3990903251
 20
177.2002649652
 30
0.0
 40
9.00000000000008
100
AcDbArc
 50
270.0
 51
305.0
  0
LINE
  5
3BC
330
1F
100
AcDbEntity
  8
0
  6
Continuous
 62
     7
370
    25
100
AcDbLine
 10
492.5612782522
 20
169.8278965666
 30
0.0
 11
492.4465629649
 21
169.9917269755
 31
0.0
  0
LINE
  5
3BD
330
1F
100
AcDbEntity
  8
0
  6
Continuous
 62
     7
370
    25
100
AcDbLine
 10
499.3306351357
 20
174.5678512853
 30
0.0
 11
492.5612782522
 21
169.8278965666
 31
0.0
  0
LINE
  5
3BE
330
1F
100
AcDbEntity
  8
0
  6
Continuous
 62
     7
370
    25
100
AcDbLine
 10
499.3306351357
 20
174.5678512853
 30
0.0
 11
499.2159198484
 21
174.7316816941
 31
0.0
  0
LINE
  5
3BF
330
1F
100
AcDbEntity
  8
0
  6
Continuous
 62
     7
370
    25
100
AcDbLine
 10
505.600088898
 20
178.9577700701
 30
0.0
 11
499.3306351357
 21
174.5678512853
 31
0.0
  0
LINE
  5
3C0
330
1F
100
AcDbEntity
  8
0
  6
Continuous
 62
     7
370
    25
100
AcDbLine
 10
505.600088898
 20
178.9577700701
 30
0.0
 11
505.7691362027
 21
179.3202931849
 31
0.0
  0
LINE
  5
3C1
330
1F
100
AcDbEntity
  8
0
  6
Continuous
 62
     8
370
    25
100
AcDbLine
 10
433.5674232298
 20
199.4469581789
 30
0.0
 11
433.6247808735
 21
199.3650429745
 31
0.0
  0
LINE
  5
3C2
330
1F
100
AcDbEntity
  8
0
  6
Continuous
 62
     8
370
    25
100
AcDbLine
 10
461.4185927357
 20
218.9485570149
 30
0.0
 11
461.4759503793
 21
218.8666418104
 31
0.0
  0
LINE
  5
3C3
330
1F
100
AcDbEntity
  8
SLD-0
  6
HIDDEN
 62
     7
100
AcDbLine
 10
391.5997309212
 20
188.2504050357
 30
0.0
 11
378.7712011073
 21
188.2504050357
 31
0.0
  0
DIMENSION
  5
3C4
330
1F
100
AcDbEntity
  8
SLD-0
 62
     7
100
AcDbDimension
  2
_D_4
 10
378.7712011073
 20
188.2504050357
 30
0.0
 11
381.1617253123
 21
210.8521213851
 31
0.0
 70
   162
  1
<>
 71
     1
 42
-1.0
  3
SLDDIMSTYLE2
100
AcDb2LineAngularDimension
 13
394.8516455444
 23
191.3819623806
 33
0.0
 14
482.2387856292
 24
252.5710966106
 34
0.0
 15
391.5997309212
 25
188.2504050357
 35
0.0
 16
400.4476883534
 26
210.4861762537
 36
0.0
  0
DIMENSION
  5
3CF
330
1F
100
AcDbEntity
  8
SLD-0
 62
     7
100
AcDbDimension
  2
_D_5
 10
510.3990903251
 20
128.8263864885
 30
0.0
 11
455.477710502
 21
128.8263864885
 31
0.0
 70
   160
  1
<>
 71
     2
 42
-1.0
  3
SLDDIMSTYLE0
100
AcDbAlignedDimension
 13
391.5997309212
 23
188.2504050357
 33
0.0
 14
510.3990903251
 24
157.7002649652
 34
0.0
 50
0.0
100
AcDbRotatedDimension
  0
ENDSEC
  0
SECTION
  2
OBJECTS
  0
DICTIONARY
  5
C
330
0
100
AcDbDictionary
281
     1
  3
ACAD_GROUP
350
D
  3
ACAD_LAYOUT
350
1A
  3
ACAD_MLINESTYLE
350
17
  3
ACAD_PLOTSETTINGS
350
19
  3
ACAD_PLOTSTYLENAME
350
E
  3
ACAD_SCALELIST
350
47
  3
DWGPROPS
350
3E3
  0
DICTIONARY
  5
D
102
{ACAD_REACTORS
330
C
102
}
330
C
100
AcDbDictionary
281
     1
  0
DICTIONARY
  5
1A
102
{ACAD_REACTORS
330
C
102
}
330
C
100
AcDbDictionary
281
     1
  3
Layout1
350
1E
  3
Layout2
350
26
  3
Model
350
22
  0
DICTIONARY
  5
17
102
{ACAD_REACTORS
330
C
102
}
330
C
100
AcDbDictionary
281
     1
  3
Standard
350
18
  0
DICTIONARY
  5
19
102
{ACAD_REACTORS
330
C
102
}
330
C
100
AcDbDictionary
281
     1
  0
ACDBDICTIONARYWDFLT
  5
E
102
{ACAD_REACTORS
330
C
102
}
330
C
100
AcDbDictionary
281
     1
  3
Normal
350
F
100
AcDbDictionaryWithDefault
340
F
  0
DICTIONARY
  5
47
102
{ACAD_REACTORS
330
C
102
}
330
C
100
AcDbDictionary
281
     1
  3
A0
350
48
  3
A1
350
49
  3
A2
350
4A
  3
A3
350
4B
  3
A4
350
4C
  3
A5
350
4D
  3
A6
350
4E
  3
A7
350
4F
  3
A8
350
50
  3
A9
350
51
  3
B0
350
52
  3
B1
350
53
  3
B2
350
54
  3
B3
350
55
  3
B4
350
56
  3
B5
350
57
  3
B6
350
58
  3
B7
350
59
  3
B8
350
5A
  3
B9
350
5B
  3
C0
350
5C
  3
C1
350
5D
  3
C2
350
5E
  3
C3
350
5F
  3
C4
350
60
  3
C5
350
61
  3
C6
350
62
  3
C7
350
63
  3
C8
350
64
  3
C9
350
65
  3
D0
350
66
  3
D1
350
67
  3
D2
350
68
  0
XRECORD
  5
3E3
102
{ACAD_REACTORS
330
C
102
}
330
C
100
AcDbXrecord
280
     1
  1
DWGPROPS COOKIE
  2

  3

  4

  6

  7

  8
Suzanne.Stasiak
  9

300
=
301
=
302
=
303
=
304
=
305
=
306
=
307
=
308
=
309
=
 40
0.0
 41
2459564.799406157
 42
2459564.799408183
  1

 90
        0
  0
LAYOUT
  5
1E
102
{ACAD_REACTORS
330
1A
102
}
330
1A
100
AcDbPlotSettings
  1

  2
none_device
  4

  6

 40
0.0
 41
0.0
 42
0.0
 43
0.0
 44
0.0
 45
0.0
 46
0.0
 47
0.0
 48
0.0
 49
0.0
140
0.0
141
0.0
142
1.0
143
1.0
 70
   688
 72
     1
 73
     0
 74
     5
  7

 75
    16
147
1.0
148
0.0
149
0.0
100
AcDbLayout
  1
Layout1
 70
     1
 71
     1
 10
0.0
 20
0.0
 11
420.0
 21
297.0
 12
0.0
 22
0.0
 32
0.0
 14
1.0000000000E+20
 24
1.0000000000E+20
 34
1.0000000000E+20
 15
-1.0000000000E+20
 25
-1.0000000000E+20
 35
-1.0000000000E+20
146
0.0
 13
0.0
 23
0.0
 33
0.0
 16
1.0
 26
0.0
 36
0.0
 17
0.0
 27
1.0
 37
0.0
 76
     0
330
1B
  0
LAYOUT
  5
26
102
{ACAD_REACTORS
330
1A
102
}
330
1A
100
AcDbPlotSettings
  1

  2
none_device
  4

  6

 40
0.0
 41
0.0
 42
0.0
 43
0.0
 44
0.0
 45
0.0
 46
0.0
 47
0.0
 48
0.0
 49
0.0
140
0.0
141
0.0
142
1.0
143
1.0
 70
   688
 72
     1
 73
     0
 74
     5
  7

 75
    16
147
1.0
148
0.0
149
0.0
100
AcDbLayout
  1
Layout2
 70
     1
 71
     2
 10
0.0
 20
0.0
 11
0.0
 21
0.0
 12
0.0
 22
0.0
 32
0.0
 14
0.0
 24
0.0
 34
0.0
 15
0.0
 25
0.0
 35
0.0
146
0.0
 13
0.0
 23
0.0
 33
0.0
 16
1.0
 26
0.0
 36
0.0
 17
0.0
 27
1.0
 37
0.0
 76
     0
330
23
  0
LAYOUT
  5
22
102
{ACAD_REACTORS
330
1A
102
}
330
1A
100
AcDbPlotSettings
  1

  2
none_device
  4
Letter_(8.50_x_11.00_Inches)
  6

 40
6.35
 41
6.35
 42
6.35000508
 43
6.35000508
 44
215.9
 45
279.4
 46
0.0
 47
0.0
 48
0.0
 49
0.0
140
0.0
141
0.0
142
1.0
143
1.0
 70
  1712
 72
     1
 73
     0
 74
     0
  7

 75
     0
147
1.0
148
0.0
149
0.0
100
AcDbLayout
  1
Model
 70
     1
 71
     0
 10
0.0
 20
0.0
 11
863.6
 21
558.8
 12
0.0
 22
0.0
 32
0.0
 14
0.0
 24
0.0
 34
0.0
 15
863.6
 25
558.8
 35
0.0
146
0.0
 13
0.0
 23
0.0
 33
0.0
 16
1.0
 26
0.0
 36
0.0
 17
0.0
 27
1.0
 37
0.0
 76
     0
330
1F
331
29
  0
MLINESTYLE
  5
18
102
{ACAD_REACTORS
330
17
102
}
330
17
100
AcDbMlineStyle
  2
Standard
 70
     0
  3

 62
   256
 51
90.0
 52
90.0
 71
     2
 49
0.5
 62
   256
  6
BYLAYER
 49
-0.5
 62
   256
  6
BYLAYER
  0
ACDBPLACEHOLDER
  5
F
102
{ACAD_REACTORS
330
E
102
}
330
E
  0
SCALE
  5
48
102
{ACAD_REACTORS
330
47
102
}
330
47
100
AcDbScale
 70
     0
300
1:1
140
1.0
141
1.0
290
     1
  0
SCALE
  5
49
102
{ACAD_REACTORS
330
47
102
}
330
47
100
AcDbScale
 70
     0
300
1:2
140
1.0
141
2.0
290
     0
  0
SCALE
  5
4A
102
{ACAD_REACTORS
330
47
102
}
330
47
100
AcDbScale
 70
     0
300
1:4
140
1.0
141
4.0
290
     0
  0
SCALE
  5
4B
102
{ACAD_REACTORS
330
47
102
}
330
47
100
AcDbScale
 70
     0
300
1:5
140
1.0
141
5.0
290
     0
  0
SCALE
  5
4C
102
{ACAD_REACTORS
330
47
102
}
330
47
100
AcDbScale
 70
     0
300
1:8
140
1.0
141
8.0
290
     0
  0
SCALE
  5
4D
102
{ACAD_REACTORS
330
47
102
}
330
47
100
AcDbScale
 70
     0
300
1:10
140
1.0
141
10.0
290
     0
  0
SCALE
  5
4E
102
{ACAD_REACTORS
330
47
102
}
330
47
100
AcDbScale
 70
     0
300
1:16
140
1.0
141
16.0
290
     0
  0
SCALE
  5
4F
102
{ACAD_REACTORS
330
47
102
}
330
47
100
AcDbScale
 70
     0
300
1:20
140
1.0
141
20.0
290
     0
  0
SCALE
  5
50
102
{ACAD_REACTORS
330
47
102
}
330
47
100
AcDbScale
 70
     0
300
1:30
140
1.0
141
30.0
290
     0
  0
SCALE
  5
51
102
{ACAD_REACTORS
330
47
102
}
330
47
100
AcDbScale
 70
     0
300
1:40
140
1.0
141
40.0
290
     0
  0
SCALE
  5
52
102
{ACAD_REACTORS
330
47
102
}
330
47
100
AcDbScale
 70
     0
300
1:50
140
1.0
141
50.0
290
     0
  0
SCALE
  5
53
102
{ACAD_REACTORS
330
47
102
}
330
47
100
AcDbScale
 70
     0
300
1:100
140
1.0
141
100.0
290
     0
  0
SCALE
  5
54
102
{ACAD_REACTORS
330
47
102
}
330
47
100
AcDbScale
 70
     0
300
2:1
140
2.0
141
1.0
290
     0
  0
SCALE
  5
55
102
{ACAD_REACTORS
330
47
102
}
330
47
100
AcDbScale
 70
     0
300
4:1
140
4.0
141
1.0
290
     0
  0
SCALE
  5
56
102
{ACAD_REACTORS
330
47
102
}
330
47
100
AcDbScale
 70
     0
300
8:1
140
8.0
141
1.0
290
     0
  0
SCALE
  5
57
102
{ACAD_REACTORS
330
47
102
}
330
47
100
AcDbScale
 70
     0
300
10:1
140
10.0
141
1.0
290
     0
  0
SCALE
  5
58
102
{ACAD_REACTORS
330
47
102
}
330
47
100
AcDbScale
 70
     0
300
100:1
140
100.0
141
1.0
290
     0
  0
SCALE
  5
59
102
{ACAD_REACTORS
330
47
102
}
330
47
100
AcDbScale
 70
     0
300
1/128" = 1'-0"
140
0.0078125
141
12.0
290
     0
  0
SCALE
  5
5A
102
{ACAD_REACTORS
330
47
102
}
330
47
100
AcDbScale
 70
     0
300
1/64" = 1'-0"
140
0.015625
141
12.0
290
     0
  0
SCALE
  5
5B
102
{ACAD_REACTORS
330
47
102
}
330
47
100
AcDbScale
 70
     0
300
1/32" = 1'-0"
140
0.03125
141
12.0
290
     0
  0
SCALE
  5
5C
102
{ACAD_REACTORS
330
47
102
}
330
47
100
AcDbScale
 70
     0
300
1/16" = 1'-0"
140
0.0625
141
12.0
290
     0
  0
SCALE
  5
5D
102
{ACAD_REACTORS
330
47
102
}
330
47
100
AcDbScale
 70
     0
300
3/32" = 1'-0"
140
0.09375
141
12.0
290
     0
  0
SCALE
  5
5E
102
{ACAD_REACTORS
330
47
102
}
330
47
100
AcDbScale
 70
     0
300
1/8" = 1'-0"
140
0.125
141
12.0
290
     0
  0
SCALE
  5
5F
102
{ACAD_REACTORS
330
47
102
}
330
47
100
AcDbScale
 70
     0
300
3/16" = 1'-0"
140
0.1875
141
12.0
290
     0
  0
SCALE
  5
60
102
{ACAD_REACTORS
330
47
102
}
330
47
100
AcDbScale
 70
     0
300
1/4" = 1'-0"
140
0.25
141
12.0
290
     0
  0
SCALE
  5
61
102
{ACAD_REACTORS
330
47
102
}
330
47
100
AcDbScale
 70
     0
300
3/8" = 1'-0"
140
0.375
141
12.0
290
     0
  0
SCALE
  5
62
102
{ACAD_REACTORS
330
47
102
}
330
47
100
AcDbScale
 70
     0
300
1/2" = 1'-0"
140
0.5
141
12.0
290
     0
  0
SCALE
  5
63
102
{ACAD_REACTORS
330
47
102
}
330
47
100
AcDbScale
 70
     0
300
3/4" = 1'-0"
140
0.75
141
12.0
290
     0
  0
SCALE
  5
64
102
{ACAD_REACTORS
330
47
102
}
330
47
100
AcDbScale
 70
     0
300
1" = 1'-0"
140
1.0
141
12.0
290
     0
  0
SCALE
  5
65
102
{ACAD_REACTORS
330
47
102
}
330
47
100
AcDbScale
 70
     0
300
1-1/2" = 1'-0"
140
1.5
141
12.0
290
     0
  0
SCALE
  5
66
102
{ACAD_REACTORS
330
47
102
}
330
47
100
AcDbScale
 70
     0
300
3" = 1'-0"
140
3.0
141
12.0
290
     0
  0
SCALE
  5
67
102
{ACAD_REACTORS
330
47
102
}
330
47
100
AcDbScale
 70
     0
300
6" = 1'-0"
140
6.0
141
12.0
290
     0
  0
SCALE
  5
68
102
{ACAD_REACTORS
330
47
102
}
330
47
100
AcDbScale
 70
     0
300
1'-0" = 1'-0"
140
12.0
141
12.0
290
     0
  0
ENDSEC
  0
EOF
