  0
SECTION
  2
HEADER
  9
$ACADVER
  1
AC1015
  9
$ACADMAINTVER
 70
     6
  9
$DWGCODEPAGE
  3
ANSI_1252
  9
$INSBASE
 10
0.0
 20
0.0
 30
0.0
  9
$EXTMIN
 10
0.0
 20
0.0
 30
0.0
  9
$EXTMAX
 10
863.6
 20
558.8
 30
0.0
  9
$LIMMIN
 10
0.0
 20
0.0
  9
$LIMMAX
 10
863.6
 20
558.8
  9
$ORTHOMODE
 70
     0
  9
$REGENMODE
 70
     1
  9
$FILLMODE
 70
     1
  9
$QTEXTMODE
 70
     0
  9
$MIRRTEXT
 70
     1
  9
$LTSCALE
 40
2.0
  9
$ATTMODE
 70
     1
  9
$TEXTSIZE
 40
6.35
  9
$TRACEWID
 40
1.0
  9
$TEXTSTYLE
  7
STANDARD
  9
$CLAYER
  8
0
  9
$CELTYPE
  6
ByLayer
  9
$CECOLOR
 62
   256
  9
$CELTSCALE
 40
1.0
  9
$DISPSILH
 70
     0
  9
$DIMSCALE
 40
1.0
  9
$DIMASZ
 40
4.0
  9
$DIMEXO
 40
1.524
  9
$DIMDLI
 40
3.75
  9
$DIMRND
 40
0.0
  9
$DIMDLE
 40
0.0
  9
$DIMEXE
 40
1.524
  9
$DIMTP
 40
0.0
  9
$DIMTM
 40
0.0
  9
$DIMTXT
 40
6.35
  9
$DIMCEN
 40
2.5
  9
$DIMTSZ
 40
0.0
  9
$DIMTOL
 70
     0
  9
$DIMLIM
 70
     0
  9
$DIMTIH
 70
     1
  9
$DIMTOH
 70
     1
  9
$DIMSE1
 70
     0
  9
$DIMSE2
 70
     0
  9
$DIMTAD
 70
     0
  9
$DIMZIN
 70
     1
  9
$DIMBLK
  1

  9
$DIMASO
 70
     1
  9
$DIMSHO
 70
     1
  9
$DIMPOST
  1

  9
$DIMAPOST
  1

  9
$DIMALT
 70
     0
  9
$DIMALTD
 70
     3
  9
$DIMALTF
 40
0.0393700787
  9
$DIMLFAC
 40
1.0
  9
$DIMTOFL
 70
     1
  9
$DIMTVP
 40
0.0
  9
$DIMTIX
 70
     0
  9
$DIMSOXD
 70
     0
  9
$DIMSAH
 70
     0
  9
$DIMBLK1
  1

  9
$DIMBLK2
  1

  9
$DIMSTYLE
  2
ISO-25
  9
$DIMCLRD
 70
     0
  9
$DIMCLRE
 70
     0
  9
$DIMCLRT
 70
     0
  9
$DIMTFAC
 40
1.0
  9
$DIMGAP
 40
3.048
  9
$DIMJUST
 70
     0
  9
$DIMSD1
 70
     0
  9
$DIMSD2
 70
     0
  9
$DIMTOLJ
 70
     0
  9
$DIMTZIN
 70
     1
  9
$DIMALTZ
 70
     0
  9
$DIMALTTZ
 70
     0
  9
$DIMUPT
 70
     0
  9
$DIMDEC
 70
     1
  9
$DIMTDEC
 70
     1
  9
$DIMALTU
 70
     2
  9
$DIMALTTD
 70
     3
  9
$DIMTXSTY
  7
STANDARD
  9
$DIMAUNIT
 70
     0
  9
$DIMADEC
 70
     0
  9
$DIMALTRND
 40
0.0
  9
$DIMAZIN
 70
     0
  9
$DIMDSEP
 70
    44
  9
$DIMATFIT
 70
     3
  9
$DIMFRAC
 70
     0
  9
$DIMLDRBLK
  1

  9
$DIMLUNIT
 70
     2
  9
$DIMLWD
 70
    -2
  9
$DIMLWE
 70
    -2
  9
$DIMTMOVE
 70
     0
  9
$LUNITS
 70
     2
  9
$LUPREC
 70
     2
  9
$SKETCHINC
 40
1.0
  9
$FILLETRAD
 40
10.0
  9
$AUNITS
 70
     0
  9
$AUPREC
 70
     0
  9
$MENU
  1
.
  9
$ELEVATION
 40
0.0
  9
$PELEVATION
 40
0.0
  9
$THICKNESS
 40
0.0
  9
$LIMCHECK
 70
     0
  9
$CHAMFERA
 40
0.0
  9
$CHAMFERB
 40
0.0
  9
$CHAMFERC
 40
0.0
  9
$CHAMFERD
 40
0.0
  9
$SKPOLY
 70
     0
  9
$TDCREATE
 40
2459556.535004965
  9
$TDUCREATE
 40
2459556.868338299
  9
$TDUPDATE
 40
2459556.535008623
  9
$TDUUPDATE
 40
2459556.868341956
  9
$TDINDWG
 40
0.0000000116
  9
$TDUSRTIMER
 40
0.0000000116
  9
$USRTIMER
 70
     1
  9
$ANGBASE
 50
0.0
  9
$ANGDIR
 70
     0
  9
$PDMODE
 70
     0
  9
$PDSIZE
 40
-1.0
  9
$PLINEWID
 40
0.0
  9
$SPLFRAME
 70
     0
  9
$SPLINETYPE
 70
     6
  9
$SPLINESEGS
 70
     8
  9
$HANDSEED
  5
443
  9
$SURFTAB1
 70
     6
  9
$SURFTAB2
 70
     6
  9
$SURFTYPE
 70
     6
  9
$SURFU
 70
     6
  9
$SURFV
 70
     6
  9
$UCSBASE
  2

  9
$UCSNAME
  2

  9
$UCSORG
 10
0.0
 20
0.0
 30
0.0
  9
$UCSXDIR
 10
1.0
 20
0.0
 30
0.0
  9
$UCSYDIR
 10
0.0
 20
1.0
 30
0.0
  9
$UCSORTHOREF
  2

  9
$UCSORTHOVIEW
 70
     0
  9
$UCSORGTOP
 10
0.0
 20
0.0
 30
0.0
  9
$UCSORGBOTTOM
 10
0.0
 20
0.0
 30
0.0
  9
$UCSORGLEFT
 10
0.0
 20
0.0
 30
0.0
  9
$UCSORGRIGHT
 10
0.0
 20
0.0
 30
0.0
  9
$UCSORGFRONT
 10
0.0
 20
0.0
 30
0.0
  9
$UCSORGBACK
 10
0.0
 20
0.0
 30
0.0
  9
$PUCSBASE
  2

  9
$PUCSNAME
  2

  9
$PUCSORG
 10
0.0
 20
0.0
 30
0.0
  9
$PUCSXDIR
 10
1.0
 20
0.0
 30
0.0
  9
$PUCSYDIR
 10
0.0
 20
1.0
 30
0.0
  9
$PUCSORTHOREF
  2

  9
$PUCSORTHOVIEW
 70
     0
  9
$PUCSORGTOP
 10
0.0
 20
0.0
 30
0.0
  9
$PUCSORGBOTTOM
 10
0.0
 20
0.0
 30
0.0
  9
$PUCSORGLEFT
 10
0.0
 20
0.0
 30
0.0
  9
$PUCSORGRIGHT
 10
0.0
 20
0.0
 30
0.0
  9
$PUCSORGFRONT
 10
0.0
 20
0.0
 30
0.0
  9
$PUCSORGBACK
 10
0.0
 20
0.0
 30
0.0
  9
$USERI1
 70
     0
  9
$USERI2
 70
     0
  9
$USERI3
 70
     0
  9
$USERI4
 70
     0
  9
$USERI5
 70
     0
  9
$USERR1
 40
0.0
  9
$USERR2
 40
0.0
  9
$USERR3
 40
0.0
  9
$USERR4
 40
0.0
  9
$USERR5
 40
0.0
  9
$WORLDVIEW
 70
     1
  9
$SHADEDGE
 70
     3
  9
$SHADEDIF
 70
    70
  9
$TILEMODE
 70
     1
  9
$MAXACTVP
 70
    64
  9
$PINSBASE
 10
0.0
 20
0.0
 30
0.0
  9
$PLIMCHECK
 70
     0
  9
$PEXTMIN
 10
1.0000000000E+20
 20
1.0000000000E+20
 30
1.0000000000E+20
  9
$PEXTMAX
 10
-1.0000000000E+20
 20
-1.0000000000E+20
 30
-1.0000000000E+20
  9
$PLIMMIN
 10
0.0
 20
0.0
  9
$PLIMMAX
 10
420.0
 20
297.0
  9
$UNITMODE
 70
     0
  9
$VISRETAIN
 70
     1
  9
$PLINEGEN
 70
     0
  9
$PSLTSCALE
 70
     1
  9
$TREEDEPTH
 70
  3020
  9
$CMLSTYLE
  2
Standard
  9
$CMLJUST
 70
     0
  9
$CMLSCALE
 40
20.0
  9
$PROXYGRAPHICS
 70
     1
  9
$MEASUREMENT
 70
     1
  9
$CELWEIGHT
370
    -1
  9
$ENDCAPS
280
     0
  9
$JOINSTYLE
280
     0
  9
$LWDISPLAY
290
     1
  9
$INSUNITS
 70
     4
  9
$HYPERLINKBASE
  1

  9
$STYLESHEET
  1

  9
$XEDIT
290
     1
  9
$CEPSNTYPE
380
     0
  9
$PSTYLEMODE
290
     1
  9
$FINGERPRINTGUID
  2
{4c3bba76-8bac-4cc5-81b2-74b038ce8682}
  9
$VERSIONGUID
  2
{FAEB1C32-E019-11D5-929B-00C0DF256EC4}
  9
$EXTNAMES
290
     1
  9
$PSVPSCALE
 40
0.0
  9
$OLESTARTUP
290
     0
  0
ENDSEC
  0
SECTION
  2
CLASSES
  0
CLASS
  1
ACDBDICTIONARYWDFLT
  2
AcDbDictionaryWithDefault
  3
ObjectDBX Classes
 90
        0
280
     0
281
     0
  0
CLASS
  1
VISUALSTYLE
  2
AcDbVisualStyle
  3
ObjectDBX Classes
 90
     4095
280
     0
281
     0
  0
CLASS
  1
MATERIAL
  2
AcDbMaterial
  3
ObjectDBX Classes
 90
     1153
280
     0
281
     0
  0
CLASS
  1
SCALE
  2
AcDbScale
  3
ObjectDBX Classes
 90
     1153
280
     0
281
     0
  0
CLASS
  1
TABLESTYLE
  2
AcDbTableStyle
  3
ObjectDBX Classes
 90
     4095
280
     0
281
     0
  0
CLASS
  1
MLEADERSTYLE
  2
AcDbMLeaderStyle
  3
ACDB_MLEADERSTYLE_CLASS
 90
     4095
280
     0
281
     0
  0
CLASS
  1
SUN
  2
AcDbSun
  3
SCENEOE
 90
     1153
280
     0
281
     0
  0
CLASS
  1
ACDBPLACEHOLDER
  2
AcDbPlaceHolder
  3
ObjectDBX Classes
 90
        0
280
     0
281
     0
  0
CLASS
  1
LAYOUT
  2
AcDbLayout
  3
ObjectDBX Classes
 90
        0
280
     0
281
     0
  0
ENDSEC
  0
SECTION
  2
TABLES
  0
TABLE
  2
VPORT
  5
8
330
0
100
AcDbSymbolTable
 70
     1
  0
VPORT
  5
29
330
8
100
AcDbSymbolTableRecord
100
AcDbViewportTableRecord
  2
*Active
 70
     0
 10
0.0
 20
0.0
 11
1.0
 21
1.0
 12
431.8
 22
279.4
 13
0.0
 23
0.0
 14
10.0
 24
10.0
 15
10.0
 25
10.0
 16
0.0
 26
0.0
 36
1.0
 17
0.0
 27
0.0
 37
0.0
 40
558.8
 41
1.5454545455
 42
50.0
 43
0.0
 44
0.0
 50
0.0
 51
0.0
 71
     0
 72
  2000
 73
     1
 74
     3
 75
     0
 76
     0
 77
     0
 78
     0
281
     0
 65
     1
110
0.0
120
0.0
130
0.0
111
1.0
121
0.0
131
0.0
112
0.0
122
1.0
132
0.0
 79
     0
146
0.0
  0
ENDTAB
  0
TABLE
  2
LTYPE
  5
5
330
0
100
AcDbSymbolTable
 70
     6
  0
LTYPE
  5
14
330
5
100
AcDbSymbolTableRecord
100
AcDbLinetypeTableRecord
  2
ByBlock
 70
     0
  3

 72
    65
 73
     0
 40
0.0
  0
LTYPE
  5
15
330
5
100
AcDbSymbolTableRecord
100
AcDbLinetypeTableRecord
  2
ByLayer
 70
     0
  3

 72
    65
 73
     0
 40
0.0
  0
LTYPE
  5
16
330
5
100
AcDbSymbolTableRecord
100
AcDbLinetypeTableRecord
  2
Continuous
 70
     0
  3
Solid line
 72
    65
 73
     0
 40
0.0
  0
LTYPE
  5
6E
330
5
100
AcDbSymbolTableRecord
100
AcDbLinetypeTableRecord
  2
HIDDEN
 70
     0
  3
Hidden __ __ __ __ __ __ __ __ __ __ __ __ __ __
 72
    65
 73
     2
 40
1.905
 49
1.27
 74
     0
 49
-0.635
 74
     0
  0
LTYPE
  5
6F
330
5
100
AcDbSymbolTableRecord
100
AcDbLinetypeTableRecord
  2
PHANTOM
 70
     0
  3
Phantom ______  __  __  ______  __  __  ______
 72
    65
 73
     6
 40
12.7
 49
6.35
 74
     0
 49
-1.27
 74
     0
 49
1.27
 74
     0
 49
-1.27
 74
     0
 49
1.27
 74
     0
 49
-1.27
 74
     0
  0
LTYPE
  5
70
330
5
100
AcDbSymbolTableRecord
100
AcDbLinetypeTableRecord
  2
CENTER
 70
     0
  3
Center ____ _ ____ _ ____ _ ____ _ ____ _ ____
 72
    65
 73
     4
 40
10.16
 49
6.35
 74
     0
 49
-1.27
 74
     0
 49
1.27
 74
     0
 49
-1.27
 74
     0
  0
LTYPE
  5
71
330
5
100
AcDbSymbolTableRecord
100
AcDbLinetypeTableRecord
  2
CENTERX2
 70
     0
  3
Center (2x) ________  __  ________  __  _____
 72
    65
 73
     4
 40
20.32
 49
12.7
 74
     0
 49
-2.54
 74
     0
 49
2.54
 74
     0
 49
-2.54
 74
     0
  0
LTYPE
  5
72
330
5
100
AcDbSymbolTableRecord
100
AcDbLinetypeTableRecord
  2
DOT2
 70
     0
  3
Dot (.5x) ........................................
 72
    65
 73
     2
 40
0.635
 49
0.0
 74
     0
 49
-0.635
 74
     0
  0
ENDTAB
  0
TABLE
  2
LAYER
  5
2
330
0
100
AcDbSymbolTable
 70
     6
  0
LAYER
  5
10
330
2
100
AcDbSymbolTableRecord
100
AcDbLayerTableRecord
  2
0
 70
     0
 62
     7
  6
Continuous
370
    -3
390
F
  0
LAYER
  5
73
330
2
100
AcDbSymbolTableRecord
100
AcDbLayerTableRecord
  2
SLD-0
 70
     0
 62
   179
  6
Continuous
370
    -3
390
F
  0
LAYER
  5
74
330
2
100
AcDbSymbolTableRecord
100
AcDbLayerTableRecord
  2
WIRE_BOND
 70
     0
 62
     6
  6
Continuous
370
   100
390
F
  0
LAYER
  5
75
330
2
100
AcDbSymbolTableRecord
100
AcDbLayerTableRecord
  2
HIGHLIGHT-BLUE
 70
     0
 62
     5
  6
Continuous
370
    70
390
F
  0
LAYER
  5
76
330
2
100
AcDbSymbolTableRecord
100
AcDbLayerTableRecord
  2
MANUAL_DIM
 70
     0
 62
   114
  6
Continuous
370
    -3
390
F
  0
LAYER
  5
77
330
2
100
AcDbSymbolTableRecord
100
AcDbLayerTableRecord
  2
TORQUE_9-10
 70
     0
 62
   155
  6
Continuous
370
    -3
390
F
  0
ENDTAB
  0
TABLE
  2
STYLE
  5
3
330
0
100
AcDbSymbolTable
 70
     5
  0
STYLE
  5
11
330
3
100
AcDbSymbolTableRecord
100
AcDbTextStyleTableRecord
  2
STANDARD
 70
     0
 40
0.0
 41
1.0
 50
0.0
 71
     0
 42
6.35
  3
GOTHIC.TTF
  4

1001
ACAD
1000
CENTURY GOTHIC
1071
       34
  0
STYLE
  5
109
330
3
100
AcDbSymbolTableRecord
100
AcDbTextStyleTableRecord
  2
SLDTEXTSTYLE0
 70
     0
 40
0.0
 41
0.913
 50
0.0
 71
     0
 42
6.35
  3
GOTHIC.TTF
  4

1001
ACAD
1000
Century Gothic
1071
      290
  0
STYLE
  5
115
330
3
100
AcDbSymbolTableRecord
100
AcDbTextStyleTableRecord
  2
SLDTEXTSTYLE1
 70
     0
 40
0.0
 41
0.9412371134
 50
0.0
 71
     0
 42
6.35
  3
GOTHIC.TTF
  4

1001
ACAD
1000
Century Gothic
1071
      290
  0
STYLE
  5
11B
330
3
100
AcDbSymbolTableRecord
100
AcDbTextStyleTableRecord
  2
SLDTEXTSTYLE2
 70
     0
 40
0.0
 41
0.9412371134
 50
0.0
 71
     0
 42
6.35
  3
GOTHIC.TTF
  4
bigfont
1001
ACAD
1000
Century Gothic
1071
      290
  0
STYLE
  5
121
330
3
100
AcDbSymbolTableRecord
100
AcDbTextStyleTableRecord
  2
SLDTEXTSTYLE3
 70
     0
 40
0.0
 41
0.948
 50
0.0
 71
     0
 42
6.35
  3
ARIAL.TTF
  4

1001
ACAD
1000
Arial
1071
      290
  0
ENDTAB
  0
TABLE
  2
VIEW
  5
6
330
0
100
AcDbSymbolTable
 70
     0
  0
ENDTAB
  0
TABLE
  2
UCS
  5
7
330
0
100
AcDbSymbolTable
 70
     0
  0
ENDTAB
  0
TABLE
  2
APPID
  5
9
330
0
100
AcDbSymbolTable
 70
     1
  0
APPID
  5
12
330
9
100
AcDbSymbolTableRecord
100
AcDbRegAppTableRecord
  2
ACAD
 70
     0
  0
ENDTAB
  0
TABLE
  2
DIMSTYLE
  5
A
330
0
100
AcDbSymbolTable
 70
     4
100
AcDbDimStyleTable
  0
DIMSTYLE
105
27
330
A
100
AcDbSymbolTableRecord
100
AcDbDimStyleTableRecord
  2
ISO-25
 70
     0
 41
2.5
 42
0.625
 43
3.75
 44
1.25
 73
     0
 74
     0
 77
     1
 78
     8
140
2.5
141
2.5
143
0.0393700787
147
0.625
171
     3
172
     1
178
     0
271
     2
272
     2
274
     3
278
    44
283
     0
284
     8
340
11
  0
DIMSTYLE
105
1BB
102
{ACAD_REACTORS
330
1BA
330
1CF
330
22B
330
23F
330
253
330
269
330
27D
330
393
330
3A7
102
}
330
A
100
AcDbSymbolTableRecord
100
AcDbDimStyleTableRecord
  2
SLDDIMSTYLE0
 70
     0
 41
4.0
 44
0.0
 45
0.000000001
 78
    12
 79
     3
140
4.7625
143
0.0393700787
147
1.190625
148
0.000000001
170
     1
173
     1
178
     0
271
     1
272
     1
276
     2
284
    12
340
109
  0
DIMSTYLE
105
297
330
A
100
AcDbSymbolTableRecord
100
AcDbDimStyleTableRecord
  2
SLDDIMSTYLE1
 70
     0
 41
1.0
 44
0.0
 45
0.000000001
147
0.0
173
     1
178
     0
271
     0
272
     0
276
     2
340
11
341
298
343
298
344
298
  0
DIMSTYLE
105
2A7
330
A
100
AcDbSymbolTableRecord
100
AcDbDimStyleTableRecord
  2
SLDDIMSTYLE2
 70
     0
 41
4.0
 44
0.0
 45
0.000000001
146
4.0
147
0.0
173
     1
178
     0
271
     0
272
     0
276
     2
340
11
  0
ENDTAB
  0
TABLE
  2
BLOCK_RECORD
  5
1
330
0
100
AcDbSymbolTable
 70
    22
  0
BLOCK_RECORD
  5
1F
330
1
100
AcDbSymbolTableRecord
100
AcDbBlockTableRecord
  2
*Model_Space
340
22
  0
BLOCK_RECORD
  5
1B
330
1
100
AcDbSymbolTableRecord
100
AcDbBlockTableRecord
  2
*Paper_Space
340
1E
  0
BLOCK_RECORD
  5
23
330
1
100
AcDbSymbolTableRecord
100
AcDbBlockTableRecord
  2
*Paper_Space0
340
26
  0
BLOCK_RECORD
  5
78
330
1
100
AcDbSymbolTableRecord
100
AcDbBlockTableRecord
  2
QSC Logo
340
0
102
{BLKREFS
331
101
102
}
  0
BLOCK_RECORD
  5
102
330
1
100
AcDbSymbolTableRecord
100
AcDbBlockTableRecord
  2
SW_NOTE_0
340
0
102
{BLKREFS
331
110
102
}
  0
BLOCK_RECORD
  5
112
330
1
100
AcDbSymbolTableRecord
100
AcDbBlockTableRecord
  2
SW_NOTE_0_1
340
0
102
{BLKREFS
331
11D
102
}
  0
BLOCK_RECORD
  5
123
330
1
100
AcDbSymbolTableRecord
100
AcDbBlockTableRecord
  2
SW_NOTE_0_2
340
0
102
{BLKREFS
331
128
102
}
  0
BLOCK_RECORD
  5
146
330
1
100
AcDbSymbolTableRecord
100
AcDbBlockTableRecord
  2
SW_NOTE_0_3
340
0
102
{BLKREFS
331
14C
102
}
  0
BLOCK_RECORD
  5
14D
330
1
100
AcDbSymbolTableRecord
100
AcDbBlockTableRecord
  2
SW_NOTE_0_4
340
0
102
{BLKREFS
331
155
102
}
  0
BLOCK_RECORD
  5
157
330
1
100
AcDbSymbolTableRecord
100
AcDbBlockTableRecord
  2
SW_NOTE_0_5
340
0
102
{BLKREFS
331
15C
102
}
  0
BLOCK_RECORD
  5
179
330
1
100
AcDbSymbolTableRecord
100
AcDbBlockTableRecord
  2
SW_TABLEANNOTATION_0
340
0
102
{BLKREFS
331
1A1
102
}
  0
BLOCK_RECORD
  5
1BC
330
1
100
AcDbSymbolTableRecord
100
AcDbBlockTableRecord
  2
_D
340
0
  0
BLOCK_RECORD
  5
1D0
330
1
100
AcDbSymbolTableRecord
100
AcDbBlockTableRecord
  2
_D_1
340
0
  0
BLOCK_RECORD
  5
22C
330
1
100
AcDbSymbolTableRecord
100
AcDbBlockTableRecord
  2
_D_2
340
0
  0
BLOCK_RECORD
  5
240
330
1
100
AcDbSymbolTableRecord
100
AcDbBlockTableRecord
  2
_D_3
340
0
  0
BLOCK_RECORD
  5
254
330
1
100
AcDbSymbolTableRecord
100
AcDbBlockTableRecord
  2
_D_4
340
0
  0
BLOCK_RECORD
  5
26A
330
1
100
AcDbSymbolTableRecord
100
AcDbBlockTableRecord
  2
_D_5
340
0
  0
BLOCK_RECORD
  5
27E
330
1
100
AcDbSymbolTableRecord
100
AcDbBlockTableRecord
  2
_D_6
340
0
  0
BLOCK_RECORD
  5
291
330
1
100
AcDbSymbolTableRecord
100
AcDbBlockTableRecord
  2
SW_NOTE_0_6
340
0
102
{BLKREFS
331
296
102
}
  0
BLOCK_RECORD
  5
298
330
1
100
AcDbSymbolTableRecord
100
AcDbBlockTableRecord
  2
_Dot
340
0
  0
BLOCK_RECORD
  5
29E
330
1
100
AcDbSymbolTableRecord
100
AcDbBlockTableRecord
  2
SW_NOTE_0_7
340
0
102
{BLKREFS
331
2A6
102
}
  0
BLOCK_RECORD
  5
2AA
330
1
100
AcDbSymbolTableRecord
100
AcDbBlockTableRecord
  2
SW_CENTERMARKSYMBOL_0
340
0
102
{BLKREFS
331
2B1
102
}
  0
BLOCK_RECORD
  5
394
330
1
100
AcDbSymbolTableRecord
100
AcDbBlockTableRecord
  2
_D_7
340
0
  0
BLOCK_RECORD
  5
3A8
330
1
100
AcDbSymbolTableRecord
100
AcDbBlockTableRecord
  2
_D_8
340
0
  0
ENDTAB
  0
ENDSEC
  0
SECTION
  2
BLOCKS
  0
BLOCK
  5
20
330
1F
100
AcDbEntity
  8
0
100
AcDbBlockBegin
  2
*Model_Space
 70
     0
 10
0.0
 20
0.0
 30
0.0
  3
*Model_Space
  1

  0
ENDBLK
  5
21
330
1F
100
AcDbEntity
  8
0
100
AcDbBlockEnd
  0
BLOCK
  5
1C
330
1B
100
AcDbEntity
 67
     1
  8
0
100
AcDbBlockBegin
  2
*Paper_Space
 70
     0
 10
0.0
 20
0.0
 30
0.0
  3
*Paper_Space
  1

  0
ENDBLK
  5
1D
330
1B
100
AcDbEntity
 67
     1
  8
0
100
AcDbBlockEnd
  0
BLOCK
  5
24
330
23
100
AcDbEntity
  8
0
100
AcDbBlockBegin
  2
*Paper_Space0
 70
     0
 10
0.0
 20
0.0
 30
0.0
  3
*Paper_Space0
  1

  0
ENDBLK
  5
25
330
23
100
AcDbEntity
  8
0
100
AcDbBlockEnd
  0
BLOCK
  5
79
330
78
100
AcDbEntity
  8
0
100
AcDbBlockBegin
  2
QSC Logo
 70
     0
 10
0.0
 20
0.0
 30
0.0
  3
QSC Logo
  1

  0
ARC
  5
7B
330
78
100
AcDbEntity
  8
SLD-0
  6
Continuous
370
    25
100
AcDbCircle
 10
60.1992795138
 20
10.8757345045
 30
0.0
 40
0.565625588076033
100
AcDbArc
 50
270.0
 51
0.0
  0
ARC
  5
7C
330
78
100
AcDbEntity
  8
SLD-0
  6
Continuous
370
    25
100
AcDbCircle
 10
60.1992795161
 20
12.0073744142
 30
0.0
 40
0.5656255857900288
100
AcDbArc
 50
0.000000539
 51
89.9999999245
  0
ARC
  5
7D
330
78
100
AcDbEntity
  8
SLD-0
  6
Continuous
370
    25
100
AcDbCircle
 10
60.1992795169
 20
1.857339148
 30
0.0
 40
0.5656255850413672
100
AcDbArc
 50
270.1250535673
 51
0.0
  0
ARC
  5
7E
330
78
100
AcDbEntity
  8
SLD-0
  6
Continuous
370
    25
100
AcDbCircle
 10
60.1992795161
 20
2.99686688
 30
0.0
 40
0.5656255857900412
100
AcDbArc
 50
0.0
 51
90.0
  0
ARC
  5
7F
330
78
100
AcDbEntity
  8
SLD-0
  6
Continuous
370
    25
100
AcDbCircle
 10
47.1655159553
 20
9.7444833261
 30
0.0
 40
0.565625590361968
100
AcDbArc
 50
90.0
 51
180.0
  0
ARC
  5
80
330
78
100
AcDbEntity
  8
SLD-0
  6
Continuous
370
    25
100
AcDbCircle
 10
34.7887755437
 20
5.2340677561
 30
0.0
 40
0.5656255880763794
100
AcDbArc
 50
0.0
 51
89.9999995368
  0
ARC
  5
81
330
78
100
AcDbEntity
  8
SLD-0
  6
Continuous
370
    25
100
AcDbCircle
 10
22.1252435498
 20
2.9478675597
 30
0.0
 40
0.5656255880759771
100
AcDbArc
 50
90.0
 51
180.0
  0
ARC
  5
82
330
78
100
AcDbEntity
  8
SLD-0
  6
Continuous
370
    25
100
AcDbCircle
 10
22.1252435498
 20
1.8762124218
 30
0.0
 40
0.5656255880760186
100
AcDbArc
 50
180.0
 51
270.0
  0
ARC
  5
83
330
78
100
AcDbEntity
  8
SLD-0
  6
Continuous
370
    25
100
AcDbCircle
 10
27.1275598492
 20
9.7219160751
 30
0.0
 40
0.565625585790027
100
AcDbArc
 50
90.0
 51
180.0
  0
ARC
  5
84
330
78
100
AcDbEntity
  8
SLD-0
  6
Continuous
370
    25
100
AcDbCircle
 10
39.808280732
 20
10.8531672489
 30
0.0
 40
0.5656255880761591
100
AcDbArc
 50
270.0
 51
0.0
  0
ARC
  5
85
330
78
100
AcDbEntity
  8
SLD-0
  6
Continuous
370
    25
100
AcDbCircle
 10
39.808280732
 20
12.0073744096
 30
0.0
 40
0.5656255880761591
100
AcDbArc
 50
359.9999995369
 51
90.0
  0
ARC
  5
86
330
78
100
AcDbEntity
  8
SLD-0
  6
Continuous
370
    25
100
AcDbCircle
 10
12.0321031895
 20
0.217548301
 30
0.0
 40
0.2175483009960733
100
AcDbArc
 50
180.0
 51
270.0
  0
ARC
  5
87
330
78
100
AcDbEntity
  8
SLD-0
  6
Continuous
370
    25
100
AcDbCircle
 10
15.4195515276
 20
0.217548301
 30
0.0
 40
0.2175483009960455
100
AcDbArc
 50
270.0
 51
0.0
  0
ARC
  5
88
330
78
100
AcDbEntity
  8
SLD-0
  6
Continuous
370
    25
100
AcDbCircle
 10
5.2684984251
 20
4.2067791851
 30
0.0
 40
0.5656255880762124
100
AcDbArc
 50
180.0
 51
270.0
  0
ARC
  5
89
330
78
100
AcDbEntity
  8
SLD-0
  6
Continuous
370
    25
100
AcDbCircle
 10
11.9826252409
 20
4.7308054208
 30
0.0
 40
0.2175483032820367
100
AcDbArc
 50
90.0000000001
 51
180.0
  0
ARC
  5
8A
330
78
100
AcDbEntity
  8
SLD-0
  6
Continuous
370
    25
100
AcDbCircle
 10
15.35281037
 20
4.7308054276
 30
0.0
 40
0.2175482964241411
100
AcDbArc
 50
360.0
 51
89.9999987958
  0
ARC
  5
8B
330
78
100
AcDbEntity
  8
SLD-0
  6
Continuous
370
    25
100
AcDbCircle
 10
16.5694959544
 20
4.2067791942
 30
0.0
 40
0.5656255857899861
100
AcDbArc
 50
270.0
 51
0.0
  0
ARC
  5
8C
330
78
100
AcDbEntity
  8
SLD-0
  6
Continuous
370
    25
100
AcDbCircle
 10
5.2684984274
 20
9.8469354674
 30
0.0
 40
0.5656255903621616
100
AcDbArc
 50
90.0
 51
180.0
  0
ARC
  5
8D
330
78
100
AcDbEntity
  8
SLD-0
  6
Continuous
370
    25
100
AcDbCircle
 10
16.5694959544
 20
9.846935472
 30
0.0
 40
0.5656255857899861
100
AcDbArc
 50
0.0000004631
 51
90.0000004631
  0
ARC
  5
8E
330
78
100
AcDbEntity
  8
SLD-0
  6
Continuous
370
    25
100
AcDbCircle
 10
27.1275598515
 20
8.6516957222
 30
0.0
 40
0.5656255880759762
100
AcDbArc
 50
180.0
 51
270.0
  0
ARC
  5
8F
330
78
100
AcDbEntity
  8
SLD-0
  6
Continuous
370
    25
100
AcDbCircle
 10
34.788775546
 20
4.0791187335
 30
0.0
 40
0.5656255857899879
100
AcDbArc
 50
270.0
 51
0.0
  0
ARC
  5
90
330
78
100
AcDbEntity
  8
SLD-0
  6
Continuous
370
    25
100
AcDbCircle
 10
47.165515953
 20
4.1281180539
 30
0.0
 40
0.5656255880759771
100
AcDbArc
 50
180.0
 51
270.0
  0
LINE
  5
91
330
78
100
AcDbEntity
  8
SLD-0
  6
Continuous
370
    25
100
AcDbLine
 10
60.7649051019
 20
10.8757345045
 30
0.0
 11
60.7649051019
 21
12.0073744195
 31
0.0
  0
LINE
  5
92
330
78
100
AcDbEntity
  8
SLD-0
  6
Continuous
370
    25
100
AcDbLine
 10
60.1992795169
 20
12.573
 30
0.0
 11
44.9931123687
 21
12.573
 31
0.0
  0
LINE
  5
93
330
78
100
AcDbEntity
  8
SLD-0
  6
Continuous
370
    25
100
AcDbLine
 10
41.7982576378
 20
6.9614311124
 30
0.0
 11
41.7992503698
 21
6.8753664631
 31
0.0
  0
LINE
  5
94
330
78
100
AcDbEntity
  8
SLD-0
  6
Continuous
370
    25
100
AcDbLine
 10
44.9931123687
 20
1.3105925442
 30
0.0
 11
60.2005140483
 21
1.2917149102
 31
0.0
  0
LINE
  5
95
330
78
100
AcDbEntity
  8
SLD-0
  6
Continuous
370
    25
100
AcDbLine
 10
60.7649051019
 20
1.857339148
 30
0.0
 11
60.7649051019
 21
2.99686688
 31
0.0
  0
LINE
  5
96
330
78
100
AcDbEntity
  8
SLD-0
  6
Continuous
370
    25
100
AcDbLine
 10
60.1992795161
 20
3.5624924658
 30
0.0
 11
47.165515953
 21
3.5624924658
 31
0.0
  0
LINE
  5
97
330
78
100
AcDbEntity
  8
SLD-0
  6
Continuous
370
    25
100
AcDbLine
 10
46.5998903649
 20
4.1281180539
 30
0.0
 11
46.5998903649
 21
9.7444833261
 31
0.0
  0
LINE
  5
98
330
78
100
AcDbEntity
  8
SLD-0
  6
Continuous
370
    25
100
AcDbLine
 10
47.1655159553
 20
10.3101089164
 30
0.0
 11
60.1992795138
 21
10.3101089164
 31
0.0
  0
LINE
  5
99
330
78
100
AcDbEntity
  8
SLD-0
  6
Continuous
370
    25
100
AcDbLine
 10
23.9251579121
 20
5.7996933442
 30
0.0
 11
34.7887755483
 21
5.7996933442
 31
0.0
  0
LINE
  5
9A
330
78
100
AcDbEntity
  8
SLD-0
  6
Continuous
370
    25
100
AcDbLine
 10
35.3544011318
 20
5.2340677561
 30
0.0
 11
35.3544011318
 21
4.0791187335
 31
0.0
  0
LINE
  5
9B
330
78
100
AcDbEntity
  8
SLD-0
  6
Continuous
370
    25
100
AcDbLine
 10
34.788775546
 20
3.5134931478
 30
0.0
 11
22.1252435498
 21
3.5134931478
 31
0.0
  0
LINE
  5
9C
330
78
100
AcDbEntity
  8
SLD-0
  6
Continuous
370
    25
100
AcDbLine
 10
21.5596179617
 20
2.9478675597
 30
0.0
 11
21.5596179617
 21
1.8762124218
 31
0.0
  0
LINE
  5
9D
330
78
100
AcDbEntity
  8
SLD-0
  6
Continuous
370
    25
100
AcDbLine
 10
22.1252435498
 20
1.3105868337
 30
0.0
 11
37.846372651
 21
1.3105868337
 31
0.0
  0
LINE
  5
9E
330
78
100
AcDbEntity
  8
SLD-0
  6
Continuous
370
    25
100
AcDbLine
 10
37.846372651
 20
8.0860701342
 30
0.0
 11
27.1275598515
 21
8.0860701342
 31
0.0
  0
LINE
  5
9F
330
78
100
AcDbEntity
  8
SLD-0
  6
Continuous
370
    25
100
AcDbLine
 10
26.5619342634
 20
8.6516957222
 30
0.0
 11
26.5619342634
 21
9.7219160751
 31
0.0
  0
LINE
  5
A0
330
78
100
AcDbEntity
  8
SLD-0
  6
Continuous
370
    25
100
AcDbLine
 10
27.1275598492
 20
10.2875416608
 30
0.0
 11
39.808280732
 21
10.2875416608
 31
0.0
  0
LINE
  5
A1
330
78
100
AcDbEntity
  8
SLD-0
  6
Continuous
370
    25
100
AcDbLine
 10
40.3739063201
 20
10.8531672489
 30
0.0
 11
40.3739063201
 21
12.0073744051
 31
0.0
  0
LINE
  5
A2
330
78
100
AcDbEntity
  8
SLD-0
  6
Continuous
370
    25
100
AcDbLine
 10
39.808280732
 20
12.5729999977
 30
0.0
 11
23.9251579121
 21
12.5729999977
 31
0.0
  0
LINE
  5
A3
330
78
100
AcDbEntity
  8
SLD-0
  6
Continuous
370
    25
100
AcDbLine
 10
3.0259137302
 20
1.3105868383
 30
0.0
 11
11.8145548885
 21
1.3105868383
 31
0.0
  0
LINE
  5
A4
330
78
100
AcDbEntity
  8
SLD-0
  6
Continuous
370
    25
100
AcDbLine
 10
11.8145548885
 20
1.3105868383
 30
0.0
 11
11.8145548885
 21
0.217548301
 31
0.0
  0
LINE
  5
A5
330
78
100
AcDbEntity
  8
SLD-0
  6
Continuous
370
    25
100
AcDbLine
 10
12.0321031895
 20
0.0
 30
0.0
 11
15.4195515276
 21
0.0
 31
0.0
  0
LINE
  5
A6
330
78
100
AcDbEntity
  8
SLD-0
  6
Continuous
370
    25
100
AcDbLine
 10
15.6370998286
 20
0.217548301
 30
0.0
 11
15.6370998286
 21
1.3105868383
 31
0.0
  0
LINE
  5
A7
330
78
100
AcDbEntity
  8
SLD-0
  6
Continuous
370
    25
100
AcDbLine
 10
15.6370998286
 20
1.3105868383
 30
0.0
 11
17.3652756133
 21
1.3105868383
 31
0.0
  0
LINE
  5
A8
330
78
100
AcDbEntity
  8
SLD-0
  6
Continuous
370
    25
100
AcDbLine
 10
20.0316643354
 20
3.4154941383
 30
0.0
 11
20.0316643354
 21
10.4548832319
 31
0.0
  0
LINE
  5
A9
330
78
100
AcDbEntity
  8
SLD-0
  6
Continuous
370
    25
100
AcDbLine
 10
17.3652756133
 20
12.5597905365
 30
0.0
 11
3.0259137302
 21
12.5597905365
 31
0.0
  0
LINE
  5
AA
330
78
100
AcDbEntity
  8
SLD-0
  6
Continuous
370
    25
100
AcDbLine
 10
17.1351215402
 20
4.2067791942
 30
0.0
 11
17.1351215402
 21
9.8469354765
 31
0.0
  0
LINE
  5
AB
330
78
100
AcDbEntity
  8
SLD-0
  6
Continuous
370
    25
100
AcDbLine
 10
5.2684984251
 20
3.641153597
 30
0.0
 11
11.7650769377
 21
3.641153597
 31
0.0
  0
LINE
  5
AC
330
78
100
AcDbEntity
  8
SLD-0
  6
Continuous
370
    25
100
AcDbLine
 10
11.7650769377
 20
3.641153597
 30
0.0
 11
11.7650769377
 21
4.7308054208
 31
0.0
  0
LINE
  5
AD
330
78
100
AcDbEntity
  8
SLD-0
  6
Continuous
370
    25
100
AcDbLine
 10
11.9826252409
 20
4.948353724
 30
0.0
 11
15.3528103746
 21
4.948353724
 31
0.0
  0
LINE
  5
AE
330
78
100
AcDbEntity
  8
SLD-0
  6
Continuous
370
    25
100
AcDbLine
 10
15.5703586664
 20
3.6411536085
 30
0.0
 11
16.5694959544
 21
3.6411536085
 31
0.0
  0
LINE
  5
AF
330
78
100
AcDbEntity
  8
SLD-0
  6
Continuous
370
    25
100
AcDbLine
 10
15.5703586664
 20
3.6411536085
 30
0.0
 11
15.5703586664
 21
4.7308054276
 31
0.0
  0
LINE
  5
B0
330
78
100
AcDbEntity
  8
SLD-0
  6
Continuous
370
    25
100
AcDbLine
 10
4.7028728371
 20
4.2067791851
 30
0.0
 11
4.7028728371
 21
9.8469354674
 31
0.0
  0
LINE
  5
B1
330
78
100
AcDbEntity
  8
SLD-0
  6
Continuous
370
    25
100
AcDbLine
 10
5.2684984274
 20
10.4125610577
 30
0.0
 11
16.5694959498
 21
10.4125610577
 31
0.0
  0
SPLINE
  5
B2
330
78
100
AcDbEntity
  8
SLD-0
  6
Continuous
370
    25
100
AcDbSpline
210
0.0
220
0.0
230
1.0
 70
     8
 71
     3
 72
    13
 73
     9
 74
     0
 42
0.00000001
 43
0.00000001
 40
0.0
 40
0.0
 40
0.0
 40
0.0
 40
0.1310616762
 40
0.2699656353
 40
0.4157607805
 40
0.5899807757
 40
0.76586761
 40
0.9948829976
 40
0.9948829976
 40
0.9948829976
 40
0.9948829976
 10
44.99311236868792
 20
12.57299999999997
 30
0.0
 10
44.67346489317598
 20
12.54919244385597
 30
0.0
 10
44.01504335048406
 20
12.500152774092
 30
0.0
 10
43.12275103245616
 20
11.94723759747601
 30
0.0
 10
42.48219163082384
 20
11.01899259392404
 30
0.0
 10
42.065666812872
 20
9.883953287171995
 30
0.0
 10
41.83105460086806
 20
8.496463401756
 30
0.0
 10
41.80945316274004
 20
7.516038683411982
 30
0.0
 10
41.79825763775996
 20
6.961431112415998
 30
0.0
  0
SPLINE
  5
B3
330
78
100
AcDbEntity
  8
SLD-0
  6
Continuous
370
    25
100
AcDbSpline
210
0.0
220
0.0
230
1.0
 70
     8
 71
     3
 72
    13
 73
     9
 74
     0
 42
0.00000001
 43
0.00000001
 40
0.0
 40
0.0
 40
0.0
 40
0.0
 40
0.2222860645
 40
0.3981728988
 40
0.572392894
 40
0.7181880393
 40
0.8570919984
 40
0.9881536746
 40
0.9881536746
 40
0.9881536746
 40
0.9881536746
 10
41.79925036983584
 20
6.875366463107991
 30
0.0
 10
41.81022525009598
 20
6.337062442944019
 30
0.0
 10
41.83377594213616
 20
5.373111111516005
 30
0.0
 10
42.06566662084826
 20
4.001704744860016
 30
0.0
 10
42.48219642685186
 20
2.866792384260047
 30
0.0
 10
43.12273584884402
 20
1.938153438900053
 30
0.0
 10
44.01509626681205
 20
1.386559958904049
 30
0.0
 10
44.673357286584
 20
1.334408105879981
 30
0.0
 10
44.99311236868792
 20
1.310592544163991
 30
0.0
  0
SPLINE
  5
B4
330
78
100
AcDbEntity
  8
SLD-0
  6
Continuous
370
    25
100
AcDbSpline
210
0.0
220
0.0
230
1.0
 70
     8
 71
     3
 72
    13
 73
     9
 74
     0
 42
0.00000001
 43
0.00000001
 40
0.0
 40
0.0
 40
0.0
 40
0.0
 40
0.1604571392
 40
0.3334692485
 40
0.4767982758
 40
0.6242014838
 40
0.7505998515
 40
1.0
 40
1.0
 40
1.0
 40
1.0
 10
37.84637265102003
 20
1.310586833736069
 30
0.0
 10
38.111432851404
 20
1.323349009380026
 30
0.0
 10
38.66229287744388
 20
1.349871922044041
 30
0.0
 10
39.40304357628016
 20
1.671471906732017
 30
0.0
 10
39.96122363492422
 20
2.212054639128047
 30
0.0
 10
40.27578005127624
 20
2.831811856812
 30
0.0
 10
40.51694576350801
 20
3.663222513012002
 30
0.0
 10
40.52673227581188
 20
4.285410804828055
 30
0.0
 10
40.53322713099633
 20
4.698328483943998
 30
0.0
  0
SPLINE
  5
B5
330
78
100
AcDbEntity
  8
SLD-0
  6
Continuous
370
    25
100
AcDbSpline
210
0.0
220
0.0
230
1.0
 70
     8
 71
     3
 72
    13
 73
     9
 74
     0
 42
0.00000001
 43
0.00000001
 40
0.0
 40
0.0
 40
0.0
 40
0.0
 40
0.2494001485
 40
0.3757985162
 40
0.5232017242
 40
0.6665307515
 40
0.8395428608
 40
1.0
 40
1.0
 40
1.0
 40
1.0
 10
40.53322713099633
 20
4.698328483943998
 30
0.0
 10
40.52673227581188
 20
5.111246167632019
 30
0.0
 10
40.51694576350801
 20
5.733434454875994
 30
0.0
 10
40.27578005127624
 20
6.564845120219973
 30
0.0
 10
39.96122363492422
 20
7.184602337903994
 30
0.0
 10
39.40304357628016
 20
7.725185061155979
 30
0.0
 10
38.66229287744388
 20
8.04678504584401
 30
0.0
 10
38.111432851404
 20
8.073307967652003
 30
0.0
 10
37.84637265102003
 20
8.086070134152024
 30
0.0
  0
SPLINE
  5
B6
330
78
100
AcDbEntity
  8
SLD-0
  6
Continuous
370
    25
100
AcDbSpline
210
0.0
220
0.0
230
1.0
 70
     8
 71
     3
 72
    13
 73
     9
 74
     0
 42
0.00000001
 43
0.00000001
 40
0.0
 40
0.0
 40
0.0
 40
0.0
 40
0.1133740464
 40
0.2392044088
 40
0.3655787964
 40
0.4912154373
 40
0.7445390876
 40
1.0
 40
1.0
 40
1.0
 40
1.0
 10
23.92515791209809
 20
12.57299999771398
 30
0.0
 10
23.74371232680589
 20
12.564062953866
 30
0.0
 10
23.36088587833812
 20
12.54520695601803
 30
0.0
 10
22.79223505729805
 20
12.37531107940203
 30
0.0
 10
22.28352147833418
 20
12.03223838581805
 30
0.0
 10
21.76386602437802
 20
11.40028540385406
 30
0.0
 10
21.43686584932197
 20
10.40820330166212
 30
0.0
 10
21.40140262840212
 20
9.594771217074124
 30
0.0
 10
21.38359654463401
 20
9.186346670958107
 30
0.0
  0
SPLINE
  5
B7
330
78
100
AcDbEntity
  8
SLD-0
  6
Continuous
370
    25
100
AcDbSpline
210
0.0
220
0.0
230
1.0
 70
     8
 71
     3
 72
    13
 73
     9
 74
     0
 42
0.00000001
 43
0.00000001
 40
0.0
 40
0.0
 40
0.0
 40
0.0
 40
0.2554609124
 40
0.5087845627
 40
0.6344212036
 40
0.7607955912
 40
0.8866259536
 40
1.0
 40
1.0
 40
1.0
 40
1.0
 10
21.38359654463401
 20
9.186346670958107
 30
0.0
 10
21.40140262840212
 20
8.777922120270093
 30
0.0
 10
21.43686584932197
 20
7.964490031110036
 30
0.0
 10
21.76386602437791
 20
6.972407933490049
 30
0.0
 10
22.28352147833418
 20
6.340454951526089
 30
0.0
 10
22.79223505729805
 20
5.99738226251409
 30
0.0
 10
23.36088587833812
 20
5.827486381326144
 30
0.0
 10
23.74371232680589
 20
5.808630383478161
 30
0.0
 10
23.92515791209809
 20
5.799693344202134
 30
0.0
  0
SPLINE
  5
B8
330
78
100
AcDbEntity
  8
SLD-0
  6
Continuous
370
    25
100
AcDbSpline
210
0.0
220
0.0
230
1.0
 70
     8
 71
     3
 72
    12
 73
     8
 74
     0
 42
0.00000001
 43
0.00000001
 40
0.0
 40
0.0
 40
0.0
 40
0.0
 40
0.2415790084
 40
0.4893269843
 40
0.7378634303
 40
0.8656387112
 40
1.0
 40
1.0
 40
1.0
 40
1.0
 10
17.36527561329587
 20
1.310586838308064
 30
0.0
 10
17.67515455360796
 20
1.32022062295202
 30
0.0
 10
18.30282552838786
 20
1.339734211560001
 30
0.0
 10
19.22135649955209
 20
1.667306782728029
 30
0.0
 10
19.77919844050796
 20
2.285677111644041
 30
0.0
 10
20.02496508435619
 20
2.903543459855995
 30
0.0
 10
20.02939415906419
 20
3.242009337660015
 30
0.0
 10
20.03166433537234
 20
3.415494138264058
 30
0.0
  0
SPLINE
  5
B9
330
78
100
AcDbEntity
  8
SLD-0
  6
Continuous
370
    25
100
AcDbSpline
210
0.0
220
0.0
230
1.0
 70
     8
 71
     3
 72
    12
 73
     8
 74
     0
 42
0.00000001
 43
0.00000001
 40
0.0
 40
0.0
 40
0.0
 40
0.0
 40
0.1343612888
 40
0.2621365697
 40
0.5106730157
 40
0.7584209916
 40
1.0
 40
1.0
 40
1.0
 40
1.0
 10
20.03166433537234
 20
10.45488323192401
 30
0.0
 10
20.02939415906419
 20
10.62836804167197
 30
0.0
 10
20.02496508435619
 20
10.966833919476
 30
0.0
 10
19.77919844050796
 20
11.58470026768804
 30
0.0
 10
19.22135649955209
 20
12.203070596604
 30
0.0
 10
18.30282552838786
 20
12.5306431632
 30
0.0
 10
17.67515455360796
 20
12.55015674723599
 30
0.0
 10
17.36527561329587
 20
12.55979053645198
 30
0.0
  0
SPLINE
  5
BA
330
78
100
AcDbEntity
  8
SLD-0
  6
Continuous
370
    25
100
AcDbSpline
210
0.0
220
0.0
230
1.0
 70
     8
 71
     3
 72
    12
 73
     8
 74
     0
 42
0.00000001
 43
0.00000001
 40
0.0
 40
0.0
 40
0.0
 40
0.0
 40
0.1341799809
 40
0.290831959
 40
0.5815217441
 40
0.760783857
 40
1.0
 40
1.0
 40
1.0
 40
1.0
 10
3.02591373022798
 20
12.55979053645198
 30
0.0
 10
2.713146790103982
 20
12.50633569543196
 30
0.0
 10
2.035231793891812
 20
12.39047358019199
 30
0.0
 10
0.8940706934400522
 20
11.53791477223201
 30
0.0
 10
0.3535588864800321
 20
10.10357019413996
 30
0.0
 10
0.0373102586279095
 20
8.477608423463984
 30
0.0
 10
0.0135704640958911
 20
7.494152629139994
 30
0.0
 10
0.0
 20
6.931976464188041
 30
0.0
  0
SPLINE
  5
BB
330
78
100
AcDbEntity
  8
SLD-0
  6
Continuous
370
    25
100
AcDbSpline
210
0.0
220
0.0
230
1.0
 70
     8
 71
     3
 72
    12
 73
     8
 74
     0
 42
0.00000001
 43
0.00000001
 40
0.0
 40
0.0
 40
0.0
 40
0.0
 40
0.2392679579
 40
0.4185688994
 40
0.7093216488
 40
0.8660075581
 40
1.0
 40
1.0
 40
1.0
 40
1.0
 10
0.0
 20
6.931976464188041
 30
0.0
 10
0.0135758864880375
 20
6.369822208260004
 30
0.0
 10
0.0373251542040709
 20
5.386404745583995
 30
0.0
 10
0.353505540384047
 20
3.760167054707997
 30
0.0
 10
0.8943475920479838
 20
2.327157829800044
 30
0.0
 10
2.034320580575899
 20
1.471830593544013
 30
0.0
 10
2.713045524875946
 20
1.361462586696033
 30
0.0
 10
3.02591373022798
 20
1.310586838308064
 30
0.0
  0
ENDBLK
  5
7A
330
78
100
AcDbEntity
  8
0
100
AcDbBlockEnd
  0
BLOCK
  5
103
330
102
100
AcDbEntity
  8
0
100
AcDbBlockBegin
  2
SW_NOTE_0
 70
     0
 10
0.0
 20
0.0
 30
0.0
  3
SW_NOTE_0
  1

  0
LINE
  5
105
330
102
100
AcDbEntity
  8
0
  6
Continuous
 62
     0
370
     0
100
AcDbLine
 10
-22.1034371061
 20
-17.0415623579
 30
0.0
 11
-22.1034371061
 21
-9.3157289084
 31
0.0
  0
LINE
  5
106
330
102
100
AcDbEntity
  8
0
  6
Continuous
 62
     0
370
     0
100
AcDbLine
 10
-22.1034371061
 20
-9.3157289084
 30
0.0
 11
-14.3776036566
 21
-9.3157289084
 31
0.0
  0
LINE
  5
107
330
102
100
AcDbEntity
  8
0
  6
Continuous
 62
     0
370
     0
100
AcDbLine
 10
-14.3776036566
 20
-9.3157289084
 30
0.0
 11
-14.3776036566
 21
-17.0415623579
 31
0.0
  0
LINE
  5
108
330
102
100
AcDbEntity
  8
0
  6
Continuous
 62
     0
370
     0
100
AcDbLine
 10
-14.3776036566
 20
-17.0415623579
 30
0.0
 11
-22.1034371061
 21
-17.0415623579
 31
0.0
  0
MTEXT
  5
10A
330
102
100
AcDbEntity
  8
0
  6
Continuous
 62
     0
370
     0
100
AcDbMText
 10
0.0
 20
6.0833496094
 30
0.0
 40
4.7625
 41
0.0
 71
     1
 72
     1
  1
NET WEIGHT APPROXIMATELY 0.53 KG [1.2 LBS], (0.59KG [1.3 LBS] WITH MOUNTING BRACKET)
  7
SLDTEXTSTYLE0
 73
     1
 44
1.0
  0
MTEXT
  5
10B
330
102
100
AcDbEntity
  8
0
  6
Continuous
 62
     0
370
     0
100
AcDbMText
 10
-19.999999553
 20
6.0833496094
 30
0.0
 40
4.7625
 41
0.0
 71
     1
 72
     1
  1
1.
  7
SLDTEXTSTYLE0
 73
     1
 44
1.0
  0
MTEXT
  5
10C
330
102
100
AcDbEntity
  8
0
  6
Continuous
 62
     0
370
     0
100
AcDbMText
 10
0.0
 20
-2.266650176
 30
0.0
 40
4.7625
 41
0.0
 71
     1
 72
     1
  1
PARTS ARE SYMMETRICAL ABOUT CENTER LINES UNLESS OTHERWISE NOTED.
  7
SLDTEXTSTYLE0
 73
     1
 44
1.0
  0
MTEXT
  5
10D
330
102
100
AcDbEntity
  8
0
  6
Continuous
 62
     0
370
     0
100
AcDbMText
 10
-19.999999553
 20
-2.266650176
 30
0.0
 40
4.7625
 41
0.0
 71
     1
 72
     1
  1
2.
  7
SLDTEXTSTYLE0
 73
     1
 44
1.0
  0
MTEXT
  5
10E
330
102
100
AcDbEntity
  8
0
  6
Continuous
 62
     0
370
     0
100
AcDbMText
 10
0.0
 20
-10.2702962182
 30
0.0
 40
4.7625
 41
0.0
 71
     1
 72
     1
  1
M2.5 SECURITY SCREW LOCATION WHEN USED WITH MOUNTING BRACKET.
  7
SLDTEXTSTYLE0
 73
     1
 44
1.0
  0
MTEXT
  5
10F
330
102
100
AcDbEntity
  8
0
  6
Continuous
 62
     0
370
     0
100
AcDbMText
 10
-19.999999553
 20
-10.2702962182
 30
0.0
 40
4.7625
 41
0.0
 71
     1
 72
     1
  1
3
  7
SLDTEXTSTYLE0
 73
     1
 44
1.0
  0
ENDBLK
  5
104
330
102
100
AcDbEntity
  8
0
100
AcDbBlockEnd
  0
BLOCK
  5
113
330
112
100
AcDbEntity
  8
0
100
AcDbBlockBegin
  2
SW_NOTE_0_1
 70
     0
 10
0.0
 20
0.0
 30
0.0
  3
SW_NOTE_0_1
  1

  0
MTEXT
  5
116
330
112
100
AcDbEntity
  8
0
  6
Continuous
 62
     0
370
     0
100
AcDbMText
 10
0.0
 20
3.3796386719
 30
0.0
 40
2.6458333333
 41
0.0
 71
     1
 72
     1
  1
THIS DOCUMENT CONTAINS CONFIDENTIAL OR PROPRIETARY 
  7
SLDTEXTSTYLE1
 73
     1
 44
1.0
  0
MTEXT
  5
117
330
112
100
AcDbEntity
  8
0
  6
Continuous
 62
     0
370
     0
100
AcDbMText
 10
0.0
 20
-0.1481390633
 30
0.0
 40
2.6458333333
 41
0.0
 71
     1
 72
     1
  1
INFORMATION WHICH IS THE PROPERTY OF QSC, LLC THAT MAY NOT BE 
  7
SLDTEXTSTYLE1
 73
     1
 44
1.0
  0
MTEXT
  5
118
330
112
100
AcDbEntity
  8
0
  6
Continuous
 62
     0
370
     0
100
AcDbMText
 10
0.0
 20
-3.6759167984
 30
0.0
 40
2.6458333333
 41
0.0
 71
     1
 72
     1
  1
DISCLOSED, REPRODUCED OR USED WITHOUT EXPRESS WRITTEN CONSENT 
  7
SLDTEXTSTYLE1
 73
     1
 44
1.0
  0
MTEXT
  5
119
330
112
100
AcDbEntity
  8
0
  6
Continuous
 62
     0
370
     0
100
AcDbMText
 10
0.0
 20
-7.2036945336
 30
0.0
 40
2.6458333333
 41
0.0
 71
     1
 72
     1
  1
FROM QSC, LLC. NO PORTION OF THIS DOCUMENT MAY BE REPRODUCED, 
  7
SLDTEXTSTYLE1
 73
     1
 44
1.0
  0
MTEXT
  5
11A
330
112
100
AcDbEntity
  8
0
  6
Continuous
 62
     0
370
     0
100
AcDbMText
 10
0.0
 20
-10.7314722687
 30
0.0
 40
2.6458333333
 41
0.0
 71
     1
 72
     1
  1
REDISTRIBUTED, OR OTHERWISE DISCLOSED TO ANY THIRD PARTY WITHOUT 
  7
SLDTEXTSTYLE1
 73
     1
 44
1.0
  0
MTEXT
  5
11C
330
112
100
AcDbEntity
  8
0
  6
Continuous
 62
     0
370
     0
100
AcDbMText
 10
0.0
 20
-14.2592500038
 30
0.0
 40
2.6458333333
 41
0.0
 71
     1
 72
     1
  1
QSC\U+2019S WRITTEN PERMISSION.
  7
SLDTEXTSTYLE2
 73
     1
 44
1.0
  0
ENDBLK
  5
114
330
112
100
AcDbEntity
  8
0
100
AcDbBlockEnd
  0
BLOCK
  5
124
330
123
100
AcDbEntity
  8
0
100
AcDbBlockBegin
  2
SW_NOTE_0_2
 70
     0
 10
0.0
 20
0.0
 30
0.0
  3
SW_NOTE_0_2
  1

  0
MTEXT
  5
126
330
123
100
AcDbEntity
  8
0
  6
Continuous
 62
     0
370
     0
100
AcDbMText
 10
0.0
 20
3.89334375
 30
0.0
 40
3.048
 41
0.0
 71
     1
 72
     1
  1
1675 MACARTHUR BOULEVARD
  7
SLDTEXTSTYLE0
 73
     1
 44
1.0
  0
MTEXT
  5
127
330
123
100
AcDbEntity
  8
0
  6
Continuous
 62
     0
370
     0
100
AcDbMText
 10
0.0
 20
-1.1546560381
 30
0.0
 40
3.048
 41
0.0
 71
     1
 72
     1
  1
COSTA MESA, CA 92626 USA
  7
SLDTEXTSTYLE0
 73
     1
 44
1.0
  0
ENDBLK
  5
125
330
123
100
AcDbEntity
  8
0
100
AcDbBlockEnd
  0
BLOCK
  5
147
330
146
100
AcDbEntity
  8
0
100
AcDbBlockBegin
  2
SW_NOTE_0_3
 70
     0
 10
0.0
 20
0.0
 30
0.0
  3
SW_NOTE_0_3
  1

  0
MTEXT
  5
149
330
146
100
AcDbEntity
  8
0
  6
Continuous
 62
     0
370
     0
100
AcDbMText
 10
0.0
 20
4.0555664063
 30
0.0
 40
3.175
 41
0.0
 71
     1
 72
     1
  1
%%p
  7
SLDTEXTSTYLE0
 73
     1
 44
1.0
  0
MTEXT
  5
14A
330
146
100
AcDbEntity
  8
0
  6
Continuous
 62
     0
370
     0
100
AcDbMText
 10
3.0268332921
 20
4.0555664063
 30
0.0
 40
3.175
 41
0.0
 71
     1
 72
     1
  1
1
  7
SLDTEXTSTYLE0
 73
     1
 44
1.0
  0
MTEXT
  5
14B
330
146
100
AcDbEntity
  8
0
  6
Continuous
 62
     0
370
     0
100
AcDbMText
 10
5.3728055209
 20
4.0555664063
 30
0.0
 40
3.175
 41
0.0
 71
     1
 72
     1
  1
%%d
  7
SLDTEXTSTYLE0
 73
     1
 44
1.0
  0
ENDBLK
  5
148
330
146
100
AcDbEntity
  8
0
100
AcDbBlockEnd
  0
BLOCK
  5
14E
330
14D
100
AcDbEntity
  8
0
100
AcDbBlockBegin
  2
SW_NOTE_0_4
 70
     0
 10
0.0
 20
0.0
 30
0.0
  3
SW_NOTE_0_4
  1

  0
MTEXT
  5
150
330
14D
100
AcDbEntity
  8
0
  6
Continuous
 62
     0
370
     0
100
AcDbMText
 10
0.0
 20
4.0555664063
 30
0.0
 40
3.175
 41
0.0
 71
     1
 72
     1
  1
.X 
  7
SLDTEXTSTYLE0
 73
     1
 44
1.0
  0
MTEXT
  5
151
330
14D
100
AcDbEntity
  8
0
  6
Continuous
 62
     0
370
     0
100
AcDbMText
 10
4.9153706059
 20
4.0555664063
 30
0.0
 40
3.175
 41
0.0
 71
     1
 72
     1
  1
%%p
  7
SLDTEXTSTYLE0
 73
     1
 44
1.0
  0
MTEXT
  5
152
330
14D
100
AcDbEntity
  8
0
  6
Continuous
 62
     0
370
     0
100
AcDbMText
 10
7.9422034323
 20
4.0555664063
 30
0.0
 40
3.175
 41
0.0
 71
     1
 72
     1
  1
 3.0 (.12)
  7
SLDTEXTSTYLE0
 73
     1
 44
1.0
  0
MTEXT
  5
153
330
14D
100
AcDbEntity
  8
0
  6
Continuous
 62
     0
370
     0
100
AcDbMText
 10
0.0
 20
-0.1777668759
 30
0.0
 40
3.175
 41
0.0
 71
     1
 72
     1
  1
.XX 
  7
SLDTEXTSTYLE0
 73
     1
 44
1.0
  0
MTEXT
  5
154
330
14D
100
AcDbEntity
  8
0
  6
Continuous
 62
     0
370
     0
100
AcDbMText
 10
7.4906479567
 20
-0.1777668759
 30
0.0
 40
3.175
 41
0.0
 71
     1
 72
     1
  1
%%p
  7
SLDTEXTSTYLE0
 73
     1
 44
1.0
  0
ENDBLK
  5
14F
330
14D
100
AcDbEntity
  8
0
100
AcDbBlockEnd
  0
BLOCK
  5
158
330
157
100
AcDbEntity
  8
0
100
AcDbBlockBegin
  2
SW_NOTE_0_5
 70
     0
 10
0.0
 20
0.0
 30
0.0
  3
SW_NOTE_0_5
  1

  0
MTEXT
  5
15A
330
157
100
AcDbEntity
  8
0
  6
Continuous
 62
     0
370
     0
100
AcDbMText
 10
54.5703125
 20
8.1111328125
 30
0.0
 40
6.35
 41
0.0
 71
     2
 72
     1
  1
CONTROL, TSC-70-G3,         
  7
SLDTEXTSTYLE0
 73
     1
 44
1.0
  0
MTEXT
  5
15B
330
157
100
AcDbEntity
  8
0
  6
Continuous
 62
     0
370
     0
100
AcDbMText
 10
44.4977687001
 20
-0.3555337518
 30
0.0
 40
6.35
 41
0.0
 71
     2
 72
     1
  1
7 INCH TOUCHSCREEN
  7
SLDTEXTSTYLE0
 73
     1
 44
1.0
  0
ENDBLK
  5
159
330
157
100
AcDbEntity
  8
0
100
AcDbBlockEnd
  0
BLOCK
  5
17A
330
179
100
AcDbEntity
  8
0
100
AcDbBlockBegin
  2
SW_TABLEANNOTATION_0
 70
     0
 10
0.0
 20
0.0
 30
0.0
  3
SW_TABLEANNOTATION_0
  1

  0
LINE
  5
17C
330
179
100
AcDbEntity
  8
SLD-0
 62
     0
100
AcDbLine
 10
0.0
 20
0.0
 30
0.0
 11
0.0
 21
-11.575361408
 31
0.0
  0
LINE
  5
17D
330
179
100
AcDbEntity
  8
SLD-0
 62
     0
100
AcDbLine
 10
0.0
 20
-11.575361408
 30
0.0
 11
0.0
 21
-23.0844684809
 31
0.0
  0
LINE
  5
17E
330
179
100
AcDbEntity
  8
SLD-0
 62
     0
100
AcDbLine
 10
18.1778195311
 20
-11.575361408
 30
0.0
 11
18.1778195311
 21
-23.0844684809
 31
0.0
  0
LINE
  5
17F
330
179
100
AcDbEntity
  8
SLD-0
 62
     0
100
AcDbLine
 10
222.8345361832
 20
-11.575361408
 30
0.0
 11
222.8345361832
 21
-23.0844684809
 31
0.0
  0
LINE
  5
180
330
179
100
AcDbEntity
  8
SLD-0
 62
     0
100
AcDbLine
 10
245.4117937222
 20
-11.575361408
 30
0.0
 11
245.4117937222
 21
-23.0844684809
 31
0.0
  0
LINE
  5
181
330
179
100
AcDbEntity
  8
SLD-0
 62
     0
100
AcDbLine
 10
285.8115490213
 20
0.0
 30
0.0
 11
285.8115490213
 21
-11.575361408
 31
0.0
  0
LINE
  5
182
330
179
100
AcDbEntity
  8
SLD-0
 62
     0
100
AcDbLine
 10
285.8115490213
 20
-11.575361408
 30
0.0
 11
285.8115490213
 21
-23.0844684809
 31
0.0
  0
LINE
  5
183
330
179
100
AcDbEntity
  8
SLD-0
 62
     0
100
AcDbLine
 10
0.0
 20
0.0
 30
0.0
 11
18.1778195311
 21
0.0
 31
0.0
  0
LINE
  5
184
330
179
100
AcDbEntity
  8
SLD-0
 62
     0
100
AcDbLine
 10
0.0
 20
-11.575361408
 30
0.0
 11
18.1778195311
 21
-11.575361408
 31
0.0
  0
LINE
  5
185
330
179
100
AcDbEntity
  8
SLD-0
 62
     0
100
AcDbLine
 10
18.1778195311
 20
0.0
 30
0.0
 11
222.8345361832
 21
0.0
 31
0.0
  0
LINE
  5
186
330
179
100
AcDbEntity
  8
SLD-0
 62
     0
100
AcDbLine
 10
18.1778195311
 20
-11.575361408
 30
0.0
 11
222.8345361832
 21
-11.575361408
 31
0.0
  0
LINE
  5
187
330
179
100
AcDbEntity
  8
SLD-0
 62
     0
100
AcDbLine
 10
222.8345361832
 20
0.0
 30
0.0
 11
245.4117937222
 21
0.0
 31
0.0
  0
LINE
  5
188
330
179
100
AcDbEntity
  8
SLD-0
 62
     0
100
AcDbLine
 10
222.8345361832
 20
-11.575361408
 30
0.0
 11
245.4117937222
 21
-11.575361408
 31
0.0
  0
LINE
  5
189
330
179
100
AcDbEntity
  8
SLD-0
 62
     0
100
AcDbLine
 10
245.4117937222
 20
0.0
 30
0.0
 11
285.8115490213
 21
0.0
 31
0.0
  0
LINE
  5
18A
330
179
100
AcDbEntity
  8
SLD-0
 62
     0
100
AcDbLine
 10
245.4117937222
 20
-11.575361408
 30
0.0
 11
285.8115490213
 21
-11.575361408
 31
0.0
  0
LINE
  5
18B
330
179
100
AcDbEntity
  8
SLD-0
 62
     0
100
AcDbLine
 10
0.0
 20
-23.0844684809
 30
0.0
 11
18.1778195311
 21
-23.0844684809
 31
0.0
  0
LINE
  5
18C
330
179
100
AcDbEntity
  8
SLD-0
 62
     0
100
AcDbLine
 10
18.1778195311
 20
-23.0844684809
 30
0.0
 11
222.8345361832
 21
-23.0844684809
 31
0.0
  0
LINE
  5
18D
330
179
100
AcDbEntity
  8
SLD-0
 62
     0
100
AcDbLine
 10
222.8345361832
 20
-23.0844684809
 30
0.0
 11
245.4117937222
 21
-23.0844684809
 31
0.0
  0
LINE
  5
18E
330
179
100
AcDbEntity
  8
SLD-0
 62
     0
100
AcDbLine
 10
245.4117937222
 20
-23.0844684809
 30
0.0
 11
285.8115490213
 21
-23.0844684809
 31
0.0
  0
LINE
  5
18F
330
179
100
AcDbEntity
  8
SLD-0
 62
     0
100
AcDbLine
 10
0.0
 20
-23.0844684809
 30
0.0
 11
0.0
 21
-33.9916931848
 31
0.0
  0
LINE
  5
190
330
179
100
AcDbEntity
  8
SLD-0
 62
     0
100
AcDbLine
 10
18.1778195311
 20
-23.0844684809
 30
0.0
 11
18.1778195311
 21
-33.9916931848
 31
0.0
  0
LINE
  5
191
330
179
100
AcDbEntity
  8
SLD-0
 62
     0
100
AcDbLine
 10
222.8345361832
 20
-23.0844684809
 30
0.0
 11
222.8345361832
 21
-33.9916931848
 31
0.0
  0
LINE
  5
192
330
179
100
AcDbEntity
  8
SLD-0
 62
     0
100
AcDbLine
 10
245.4117937222
 20
-23.0844684809
 30
0.0
 11
245.4117937222
 21
-33.9916931848
 31
0.0
  0
LINE
  5
193
330
179
100
AcDbEntity
  8
SLD-0
 62
     0
100
AcDbLine
 10
285.8115490213
 20
-23.0844684809
 30
0.0
 11
285.8115490213
 21
-33.9916931848
 31
0.0
  0
LINE
  5
194
330
179
100
AcDbEntity
  8
SLD-0
 62
     0
100
AcDbLine
 10
0.0
 20
-33.9916931848
 30
0.0
 11
18.1778195311
 21
-33.9916931848
 31
0.0
  0
LINE
  5
195
330
179
100
AcDbEntity
  8
SLD-0
 62
     0
100
AcDbLine
 10
18.1778195311
 20
-33.9916931848
 30
0.0
 11
222.8345361832
 21
-33.9916931848
 31
0.0
  0
LINE
  5
196
330
179
100
AcDbEntity
  8
SLD-0
 62
     0
100
AcDbLine
 10
222.8345361832
 20
-33.9916931848
 30
0.0
 11
245.4117937222
 21
-33.9916931848
 31
0.0
  0
LINE
  5
197
330
179
100
AcDbEntity
  8
SLD-0
 62
     0
100
AcDbLine
 10
245.4117937222
 20
-33.9916931848
 30
0.0
 11
285.8115490213
 21
-33.9916931848
 31
0.0
  0
MTEXT
  5
198
330
179
100
AcDbEntity
  8
SLD-0
 62
     0
100
AcDbMText
 10
129.0612062283
 20
-3.725146377
 30
0.0
 40
4.2333333333
 41
0.0
 71
     1
 72
     1
  1
REVISIONS
  7
SLDTEXTSTYLE0
 73
     1
 44
1.0
  0
MTEXT
  5
199
330
179
100
AcDbEntity
  8
SLD-0
 62
     0
100
AcDbMText
 10
3.8795578758
 20
-15.2673806174
 30
0.0
 40
4.2333333333
 41
0.0
 71
     1
 72
     1
  1
REV
  7
SLDTEXTSTYLE0
 73
     1
 44
1.0
  0
MTEXT
  5
19A
330
179
100
AcDbEntity
  8
SLD-0
 62
     0
100
AcDbMText
 10
102.78497377
 20
-15.2673806174
 30
0.0
 40
4.2333333333
 41
0.0
 71
     1
 72
     1
  1
DESCRIPTION
  7
SLDTEXTSTYLE0
 73
     1
 44
1.0
  0
MTEXT
  5
19B
330
179
100
AcDbEntity
  8
SLD-0
 62
     0
100
AcDbMText
 10
230.8344921814
 20
-15.2673806174
 30
0.0
 40
4.2333333333
 41
0.0
 71
     1
 72
     1
  1
BY
  7
SLDTEXTSTYLE0
 73
     1
 44
1.0
  0
MTEXT
  5
19C
330
179
100
AcDbEntity
  8
SLD-0
 62
     0
100
AcDbMText
 10
258.7050665118
 20
-15.2673806174
 30
0.0
 40
4.2333333333
 41
0.0
 71
     1
 72
     1
  1
DATE
  7
SLDTEXTSTYLE0
 73
     1
 44
1.0
  0
MTEXT
  5
19D
330
179
100
AcDbEntity
  8
SLD-0
 62
     0
100
AcDbMText
 10
6.9996812845
 20
-26.4755465058
 30
0.0
 40
4.2333333333
 41
0.0
 71
     1
 72
     1
  1
A
  7
SLDTEXTSTYLE0
 73
     1
 44
1.0
  0
MTEXT
  5
19E
330
179
100
AcDbEntity
  8
SLD-0
 62
     0
100
AcDbMText
 10
19.1778195311
 20
-26.4755465058
 30
0.0
 40
4.2333333333
 41
0.0
 71
     1
 72
     1
  1
INITIAL RELEASE
  7
SLDTEXTSTYLE0
 73
     1
 44
1.0
  0
MTEXT
  5
19F
330
179
100
AcDbEntity
  8
SLD-0
 62
     0
100
AcDbMText
 10
231.3087821724
 20
-26.4755465058
 30
0.0
 40
4.2333333333
 41
0.0
 71
     1
 72
     1
  1
SS
  7
SLDTEXTSTYLE0
 73
     1
 44
1.0
  0
MTEXT
  5
1A0
330
179
100
AcDbEntity
  8
SLD-0
 62
     0
100
AcDbMText
 10
248.4470722214
 20
-26.4755465058
 30
0.0
 40
4.2333333333
 41
0.0
 71
     1
 72
     1
  1
06-DEC-2021
  7
SLDTEXTSTYLE0
 73
     1
 44
1.0
  0
ENDBLK
  5
17B
330
179
100
AcDbEntity
  8
0
100
AcDbBlockEnd
  0
BLOCK
  5
1BD
330
1BC
100
AcDbEntity
  8
0
100
AcDbBlockBegin
  2
_D
 70
     0
 10
0.0
 20
0.0
 30
0.0
  3
_D
  1

  0
SOLID
  5
1BF
330
1BC
100
AcDbEntity
  8
SLD-0
 62
     7
100
AcDbTrace
 10
109.3173999835
 20
266.0445523765
 30
0.0
 11
108.8173999835
 21
262.0445523765
 31
0.0
 12
109.8173999835
 22
262.0445523765
 32
0.0
 13
109.8173999835
 23
262.0445523765
 33
0.0
  0
SOLID
  5
1C0
330
1BC
100
AcDbEntity
  8
SLD-0
 62
     7
100
AcDbTrace
 10
109.3173999835
 20
150.4445523765
 30
0.0
 11
109.8173999835
 21
154.4445523765
 31
0.0
 12
108.8173999835
 22
154.4445523765
 32
0.0
 13
108.8173999835
 23
154.4445523765
 33
0.0
  0
LINE
  5
1C1
330
1BC
100
AcDbEntity
  8
SLD-0
 62
     7
100
AcDbLine
 10
103.1614276145
 20
210.0993077887
 30
0.0
 11
101.7128338136
 21
210.0993077887
 31
0.0
  0
LINE
  5
1C2
330
1BC
100
AcDbEntity
  8
SLD-0
 62
     7
100
AcDbLine
 10
101.7128338136
 20
210.0993077887
 30
0.0
 11
101.7128338136
 21
202.5322243256
 31
0.0
  0
LINE
  5
1C3
330
1BC
100
AcDbEntity
  8
SLD-0
 62
     7
100
AcDbLine
 10
101.7128338136
 20
202.5322243256
 30
0.0
 11
103.1614276145
 21
202.5322243256
 31
0.0
  0
LINE
  5
1C4
330
1BC
100
AcDbEntity
  8
SLD-0
 62
     7
100
AcDbLine
 10
115.4733723525
 20
210.0993077887
 30
0.0
 11
116.9219661534
 21
210.0993077887
 31
0.0
  0
LINE
  5
1C5
330
1BC
100
AcDbEntity
  8
SLD-0
 62
     7
100
AcDbLine
 10
116.9219661534
 20
210.0993077887
 30
0.0
 11
116.9219661534
 21
202.5322243256
 31
0.0
  0
LINE
  5
1C6
330
1BC
100
AcDbEntity
  8
SLD-0
 62
     7
100
AcDbLine
 10
116.9219661534
 20
202.5322243256
 30
0.0
 11
115.4733723525
 21
202.5322243256
 31
0.0
  0
LINE
  5
1C7
330
1BC
100
AcDbEntity
  8
SLD-0
 62
     7
100
AcDbLine
 10
132.4934249835
 20
266.0445523765
 30
0.0
 11
107.7933999835
 21
266.0445523765
 31
0.0
  0
LINE
  5
1C8
330
1BC
100
AcDbEntity
  8
SLD-0
 62
     7
100
AcDbLine
 10
132.4934249835
 20
150.4445523765
 30
0.0
 11
107.7933999835
 21
150.4445523765
 31
0.0
  0
LINE
  5
1C9
330
1BC
100
AcDbEntity
  8
SLD-0
 62
     7
100
AcDbLine
 10
109.3173999835
 20
266.0445523765
 30
0.0
 11
109.3173999835
 21
218.6321196763
 31
0.0
  0
LINE
  5
1CA
330
1BC
100
AcDbEntity
  8
SLD-0
 62
     7
100
AcDbLine
 10
109.3173999835
 20
150.4445523765
 30
0.0
 11
109.3173999835
 21
201.5664940385
 31
0.0
  0
MTEXT
  5
1CB
330
1BC
100
AcDbEntity
  8
SLD-0
 62
     7
100
AcDbMText
 10
98.5091705371
 20
217.1483860554
 30
0.0
 40
4.7625
 41
0.0
 71
     1
 72
     1
  1
 
  7
SLDTEXTSTYLE0
 73
     1
 44
1.0
  0
MTEXT
  5
1CC
330
1BC
100
AcDbEntity
  8
SLD-0
 62
     7
100
AcDbMText
 10
101.4019483265
 20
217.1483865211
 30
0.0
 40
4.7625
 41
0.0
 71
     1
 72
     1
  1
115.6
  7
SLDTEXTSTYLE0
 73
     1
 44
1.0
  0
MTEXT
  5
1CD
330
1BC
100
AcDbEntity
  8
SLD-0
 62
     7
100
AcDbMText
 10
103.1614276145
 20
208.6155741678
 30
0.0
 40
4.7625
 41
0.0
 71
     1
 72
     1
  1
4.55
  7
SLDTEXTSTYLE0
 73
     1
 44
1.0
  0
MTEXT
  5
1CE
330
1BC
100
AcDbEntity
  8
SLD-0
 62
     7
100
AcDbMText
 10
118.3705594886
 20
217.1483860554
 30
0.0
 40
4.7625
 41
0.0
 71
     1
 72
     1
  1
 
  7
SLDTEXTSTYLE0
 73
     1
 44
1.0
  0
ENDBLK
  5
1BE
330
1BC
100
AcDbEntity
  8
0
100
AcDbBlockEnd
  0
BLOCK
  5
1D1
330
1D0
100
AcDbEntity
  8
0
100
AcDbBlockBegin
  2
_D_1
 70
     0
 10
0.0
 20
0.0
 30
0.0
  3
_D_1
  1

  0
SOLID
  5
1D3
330
1D0
100
AcDbEntity
  8
SLD-0
 62
     7
100
AcDbTrace
 10
129.3174249835
 20
286.0445773765
 30
0.0
 11
133.3174249835
 21
285.5445773765
 31
0.0
 12
133.3174249835
 22
286.5445773765
 32
0.0
 13
133.3174249835
 23
286.5445773765
 33
0.0
  0
SOLID
  5
1D4
330
1D0
100
AcDbEntity
  8
SLD-0
 62
     7
100
AcDbTrace
 10
314.7174249835
 20
286.0445773765
 30
0.0
 11
310.7174249835
 21
286.5445773765
 31
0.0
 12
310.7174249835
 22
285.5445773765
 32
0.0
 13
310.7174249835
 23
285.5445773765
 33
0.0
  0
LINE
  5
1D5
330
1D0
100
AcDbEntity
  8
SLD-0
 62
     7
100
AcDbLine
 10
216.6611504368
 20
286.0445783079
 30
0.0
 11
215.2125566359
 21
286.0445783079
 31
0.0
  0
LINE
  5
1D6
330
1D0
100
AcDbEntity
  8
SLD-0
 62
     7
100
AcDbLine
 10
215.2125566359
 20
286.0445783079
 30
0.0
 11
215.2125566359
 21
278.4774948448
 31
0.0
  0
LINE
  5
1D7
330
1D0
100
AcDbEntity
  8
SLD-0
 62
     7
100
AcDbLine
 10
215.2125566359
 20
278.4774948448
 30
0.0
 11
216.6611504368
 21
278.4774948448
 31
0.0
  0
LINE
  5
1D8
330
1D0
100
AcDbEntity
  8
SLD-0
 62
     7
100
AcDbLine
 10
228.9730951749
 20
286.0445783079
 30
0.0
 11
230.4216889757
 21
286.0445783079
 31
0.0
  0
LINE
  5
1D9
330
1D0
100
AcDbEntity
  8
SLD-0
 62
     7
100
AcDbLine
 10
230.4216889757
 20
286.0445783079
 30
0.0
 11
230.4216889757
 21
278.4774948448
 31
0.0
  0
LINE
  5
1DA
330
1D0
100
AcDbEntity
  8
SLD-0
 62
     7
100
AcDbLine
 10
230.4216889757
 20
278.4774948448
 30
0.0
 11
228.9730951749
 21
278.4774948448
 31
0.0
  0
LINE
  5
1DB
330
1D0
100
AcDbEntity
  8
SLD-0
 62
     7
100
AcDbLine
 10
129.3174249835
 20
262.8685523765
 30
0.0
 11
129.3174249835
 21
287.5685773765
 31
0.0
  0
LINE
  5
1DC
330
1D0
100
AcDbEntity
  8
SLD-0
 62
     7
100
AcDbLine
 10
314.7174249835
 20
262.8685523765
 30
0.0
 11
314.7174249835
 21
287.5685773765
 31
0.0
  0
LINE
  5
1DD
330
1D0
100
AcDbEntity
  8
SLD-0
 62
     7
100
AcDbLine
 10
129.3174249835
 20
286.0445773765
 30
0.0
 11
211.0432357428
 21
286.0445773765
 31
0.0
  0
LINE
  5
1DE
330
1D0
100
AcDbEntity
  8
SLD-0
 62
     7
100
AcDbLine
 10
314.7174249835
 20
286.0445773765
 30
0.0
 11
234.5910098689
 21
286.0445773765
 31
0.0
  0
MTEXT
  5
1DF
330
1D0
100
AcDbEntity
  8
SLD-0
 62
     7
100
AcDbMText
 10
212.0088933594
 20
293.0936565745
 30
0.0
 40
4.7625
 41
0.0
 71
     1
 72
     1
  1
 
  7
SLDTEXTSTYLE0
 73
     1
 44
1.0
  0
MTEXT
  5
1E0
330
1D0
100
AcDbEntity
  8
SLD-0
 62
     7
100
AcDbMText
 10
214.9016711488
 20
293.0936570402
 30
0.0
 40
4.7625
 41
0.0
 71
     1
 72
     1
  1
185.4
  7
SLDTEXTSTYLE0
 73
     1
 44
1.0
  0
MTEXT
  5
1E1
330
1D0
100
AcDbEntity
  8
SLD-0
 62
     7
100
AcDbMText
 10
216.6611504368
 20
284.560844687
 30
0.0
 40
4.7625
 41
0.0
 71
     1
 72
     1
  1
7.30
  7
SLDTEXTSTYLE0
 73
     1
 44
1.0
  0
MTEXT
  5
1E2
330
1D0
100
AcDbEntity
  8
SLD-0
 62
     7
100
AcDbMText
 10
231.870282311
 20
293.0936565745
 30
0.0
 40
4.7625
 41
0.0
 71
     1
 72
     1
  1
 
  7
SLDTEXTSTYLE0
 73
     1
 44
1.0
  0
ENDBLK
  5
1D2
330
1D0
100
AcDbEntity
  8
0
100
AcDbBlockEnd
  0
BLOCK
  5
22D
330
22C
100
AcDbEntity
  8
0
100
AcDbBlockBegin
  2
_D_2
 70
     0
 10
0.0
 20
0.0
 30
0.0
  3
_D_2
  1

  0
SOLID
  5
22F
330
22C
100
AcDbEntity
  8
SLD-0
 62
     7
100
AcDbTrace
 10
424.621817294
 20
130.4445273765
 30
0.0
 11
420.621817294
 21
130.9445273765
 31
0.0
 12
420.621817294
 22
129.9445273765
 32
0.0
 13
420.621817294
 23
129.9445273765
 33
0.0
  0
SOLID
  5
230
330
22C
100
AcDbEntity
  8
SLD-0
 62
     7
100
AcDbTrace
 10
405.521817294
 20
130.4445273765
 30
0.0
 11
409.521817294
 21
129.9445273765
 31
0.0
 12
409.521817294
 22
130.9445273765
 32
0.0
 13
409.521817294
 23
130.9445273765
 33
0.0
  0
LINE
  5
231
330
22C
100
AcDbEntity
  8
SLD-0
 62
     7
100
AcDbLine
 10
379.6183877727
 20
130.4445283079
 30
0.0
 11
378.1697939718
 21
130.4445283079
 31
0.0
  0
LINE
  5
232
330
22C
100
AcDbEntity
  8
SLD-0
 62
     7
100
AcDbLine
 10
378.1697939718
 20
130.4445283079
 30
0.0
 11
378.1697939718
 21
122.8774448448
 31
0.0
  0
LINE
  5
233
330
22C
100
AcDbEntity
  8
SLD-0
 62
     7
100
AcDbLine
 10
378.1697939718
 20
122.8774448448
 30
0.0
 11
379.6183877727
 21
122.8774448448
 31
0.0
  0
LINE
  5
234
330
22C
100
AcDbEntity
  8
SLD-0
 62
     7
100
AcDbLine
 10
388.4113739347
 20
130.4445283079
 30
0.0
 11
389.8599677356
 21
130.4445283079
 31
0.0
  0
LINE
  5
235
330
22C
100
AcDbEntity
  8
SLD-0
 62
     7
100
AcDbLine
 10
389.8599677356
 20
130.4445283079
 30
0.0
 11
389.8599677356
 21
122.8774448448
 31
0.0
  0
LINE
  5
236
330
22C
100
AcDbEntity
  8
SLD-0
 62
     7
100
AcDbLine
 10
389.8599677356
 20
122.8774448448
 30
0.0
 11
388.4113739347
 21
122.8774448448
 31
0.0
  0
LINE
  5
237
330
22C
100
AcDbEntity
  8
SLD-0
 62
     7
100
AcDbLine
 10
424.621817294
 20
217.5205523765
 30
0.0
 11
424.621817294
 21
128.9205273765
 31
0.0
  0
LINE
  5
238
330
22C
100
AcDbEntity
  8
SLD-0
 62
     7
100
AcDbLine
 10
405.521817294
 20
153.3805523901
 30
0.0
 11
405.521817294
 21
128.9205273765
 31
0.0
  0
LINE
  5
239
330
22C
100
AcDbEntity
  8
SLD-0
 62
     7
100
AcDbLine
 10
424.621817294
 20
130.4445273765
 30
0.0
 11
405.521817294
 21
130.4445273765
 31
0.0
  0
LINE
  5
23A
330
22C
100
AcDbEntity
  8
SLD-0
 62
     7
100
AcDbLine
 10
405.521817294
 20
130.4445273765
 30
0.0
 11
394.02928956
 21
130.4445273765
 31
0.0
  0
MTEXT
  5
23B
330
22C
100
AcDbEntity
  8
SLD-0
 62
     7
100
AcDbMText
 10
374.9661306953
 20
137.4936065745
 30
0.0
 40
4.7625
 41
0.0
 71
     1
 72
     1
  1
 
  7
SLDTEXTSTYLE0
 73
     1
 44
1.0
  0
MTEXT
  5
23C
330
22C
100
AcDbEntity
  8
SLD-0
 62
     7
100
AcDbMText
 10
377.8589084847
 20
137.4936070402
 30
0.0
 40
4.7625
 41
0.0
 71
     1
 72
     1
  1
19.1
  7
SLDTEXTSTYLE0
 73
     1
 44
1.0
  0
MTEXT
  5
23D
330
22C
100
AcDbEntity
  8
SLD-0
 62
     7
100
AcDbMText
 10
379.6183877727
 20
128.960794687
 30
0.0
 40
4.7625
 41
0.0
 71
     1
 72
     1
  1
.75
  7
SLDTEXTSTYLE0
 73
     1
 44
1.0
  0
MTEXT
  5
23E
330
22C
100
AcDbEntity
  8
SLD-0
 62
     7
100
AcDbMText
 10
391.3085620021
 20
137.4936065745
 30
0.0
 40
4.7625
 41
0.0
 71
     1
 72
     1
  1
 
  7
SLDTEXTSTYLE0
 73
     1
 44
1.0
  0
ENDBLK
  5
22E
330
22C
100
AcDbEntity
  8
0
100
AcDbBlockEnd
  0
BLOCK
  5
241
330
240
100
AcDbEntity
  8
0
100
AcDbBlockBegin
  2
_D_3
 70
     0
 10
0.0
 20
0.0
 30
0.0
  3
_D_3
  1

  0
SOLID
  5
243
330
240
100
AcDbEntity
  8
SLD-0
 62
     7
100
AcDbTrace
 10
385.521817294
 20
150.4445523765
 30
0.0
 11
386.021817294
 21
154.4445523765
 31
0.0
 12
385.021817294
 22
154.4445523765
 32
0.0
 13
385.021817294
 23
154.4445523765
 33
0.0
  0
SOLID
  5
244
330
240
100
AcDbEntity
  8
SLD-0
 62
     7
100
AcDbTrace
 10
385.521817294
 20
221.0445523765
 30
0.0
 11
385.021817294
 21
217.0445523765
 31
0.0
 12
386.021817294
 22
217.0445523765
 32
0.0
 13
386.021817294
 23
217.0445523765
 33
0.0
  0
LINE
  5
245
330
240
100
AcDbEntity
  8
SLD-0
 62
     7
100
AcDbLine
 10
379.365844925
 20
195.2525878008
 30
0.0
 11
377.9172511241
 21
195.2525878008
 31
0.0
  0
LINE
  5
246
330
240
100
AcDbEntity
  8
SLD-0
 62
     7
100
AcDbLine
 10
377.9172511241
 20
195.2525878008
 30
0.0
 11
377.9172511241
 21
187.6855043377
 31
0.0
  0
LINE
  5
247
330
240
100
AcDbEntity
  8
SLD-0
 62
     7
100
AcDbLine
 10
377.9172511241
 20
187.6855043377
 30
0.0
 11
379.365844925
 21
187.6855043377
 31
0.0
  0
LINE
  5
248
330
240
100
AcDbEntity
  8
SLD-0
 62
     7
100
AcDbLine
 10
391.6777896631
 20
195.2525878008
 30
0.0
 11
393.1263834639
 21
195.2525878008
 31
0.0
  0
LINE
  5
249
330
240
100
AcDbEntity
  8
SLD-0
 62
     7
100
AcDbLine
 10
393.1263834639
 20
195.2525878008
 30
0.0
 11
393.1263834639
 21
187.6855043377
 31
0.0
  0
LINE
  5
24A
330
240
100
AcDbEntity
  8
SLD-0
 62
     7
100
AcDbLine
 10
393.1263834639
 20
187.6855043377
 30
0.0
 11
391.6777896631
 21
187.6855043377
 31
0.0
  0
LINE
  5
24B
330
240
100
AcDbEntity
  8
SLD-0
 62
     7
100
AcDbLine
 10
404.697817294
 20
150.4445523765
 30
0.0
 11
383.997817294
 21
150.4445523765
 31
0.0
  0
LINE
  5
24C
330
240
100
AcDbEntity
  8
SLD-0
 62
     7
100
AcDbLine
 10
421.097817294
 20
221.0445523765
 30
0.0
 11
383.997817294
 21
221.0445523765
 31
0.0
  0
LINE
  5
24D
330
240
100
AcDbEntity
  8
SLD-0
 62
     7
100
AcDbLine
 10
385.521817294
 20
150.4445523765
 30
0.0
 11
385.521817294
 21
186.7197740506
 31
0.0
  0
LINE
  5
24E
330
240
100
AcDbEntity
  8
SLD-0
 62
     7
100
AcDbLine
 10
385.521817294
 20
221.0445523765
 30
0.0
 11
385.521817294
 21
203.7853996883
 31
0.0
  0
MTEXT
  5
24F
330
240
100
AcDbEntity
  8
SLD-0
 62
     7
100
AcDbMText
 10
374.7135878476
 20
202.3016660675
 30
0.0
 40
4.7625
 41
0.0
 71
     1
 72
     1
  1
 
  7
SLDTEXTSTYLE0
 73
     1
 44
1.0
  0
MTEXT
  5
250
330
240
100
AcDbEntity
  8
SLD-0
 62
     7
100
AcDbMText
 10
379.3658444594
 20
202.3016665331
 30
0.0
 40
4.7625
 41
0.0
 71
     1
 72
     1
  1
70.6
  7
SLDTEXTSTYLE0
 73
     1
 44
1.0
  0
MTEXT
  5
251
330
240
100
AcDbEntity
  8
SLD-0
 62
     7
100
AcDbMText
 10
379.365844925
 20
193.7688541799
 30
0.0
 40
4.7625
 41
0.0
 71
     1
 72
     1
  1
2.78
  7
SLDTEXTSTYLE0
 73
     1
 44
1.0
  0
MTEXT
  5
252
330
240
100
AcDbEntity
  8
SLD-0
 62
     7
100
AcDbMText
 10
394.5749767992
 20
202.3016660675
 30
0.0
 40
4.7625
 41
0.0
 71
     1
 72
     1
  1
 
  7
SLDTEXTSTYLE0
 73
     1
 44
1.0
  0
ENDBLK
  5
242
330
240
100
AcDbEntity
  8
0
100
AcDbBlockEnd
  0
BLOCK
  5
255
330
254
100
AcDbEntity
  8
0
100
AcDbBlockBegin
  2
_D_4
 70
     0
 10
0.0
 20
0.0
 30
0.0
  3
_D_4
  1

  0
ARC
  5
257
330
254
100
AcDbEntity
  8
SLD-0
 62
     7
100
AcDbCircle
 10
484.6411920749
 20
277.2968972867
 30
0.0
 40
19.07994950230812
100
AcDbArc
 50
153.4349488229
 51
206.5650511771
  0
ARC
  5
258
330
254
100
AcDbEntity
  8
SLD-0
 62
     7
100
AcDbCircle
 10
468.6074420475
 20
277.2968972867
 30
0.0
 40
19.07994950230812
100
AcDbArc
 50
333.4349488229
 51
26.5650511771
  0
SOLID
  5
259
330
254
100
AcDbEntity
  8
SLD-0
 62
     7
100
AcDbTrace
 10
444.621817294
 20
277.7797619646
 30
0.0
 11
440.621817294
 21
278.2797619646
 31
0.0
 12
440.621817294
 22
277.2797619646
 32
0.0
 13
440.621817294
 23
277.2797619646
 33
0.0
  0
SOLID
  5
25A
330
254
100
AcDbEntity
  8
SLD-0
 62
     7
100
AcDbTrace
 10
421.121817294
 20
277.7797619646
 30
0.0
 11
425.121817294
 21
277.2797619646
 31
0.0
 12
425.121817294
 22
278.2797619646
 32
0.0
 13
425.121817294
 23
278.2797619646
 33
0.0
  0
LINE
  5
25B
330
254
100
AcDbEntity
  8
SLD-0
 62
     7
100
AcDbLine
 10
472.2278235145
 20
277.296898218
 30
0.0
 11
470.7792297137
 21
277.296898218
 31
0.0
  0
LINE
  5
25C
330
254
100
AcDbEntity
  8
SLD-0
 62
     7
100
AcDbLine
 10
470.7792297137
 20
277.296898218
 30
0.0
 11
470.7792297137
 21
269.7298147549
 31
0.0
  0
LINE
  5
25D
330
254
100
AcDbEntity
  8
SLD-0
 62
     7
100
AcDbLine
 10
470.7792297137
 20
269.7298147549
 30
0.0
 11
472.2278235145
 21
269.7298147549
 31
0.0
  0
LINE
  5
25E
330
254
100
AcDbEntity
  8
SLD-0
 62
     7
100
AcDbLine
 10
481.0208096766
 20
277.296898218
 30
0.0
 11
482.4694034774
 21
277.296898218
 31
0.0
  0
LINE
  5
25F
330
254
100
AcDbEntity
  8
SLD-0
 62
     7
100
AcDbLine
 10
482.4694034774
 20
277.296898218
 30
0.0
 11
482.4694034774
 21
269.7298147549
 31
0.0
  0
LINE
  5
260
330
254
100
AcDbEntity
  8
SLD-0
 62
     7
100
AcDbLine
 10
482.4694034774
 20
269.7298147549
 30
0.0
 11
481.0208096766
 21
269.7298147549
 31
0.0
  0
LINE
  5
261
330
254
100
AcDbEntity
  8
SLD-0
 62
     7
100
AcDbLine
 10
444.621817294
 20
235.008592312
 30
0.0
 11
444.621817294
 21
279.3037619646
 31
0.0
  0
LINE
  5
262
330
254
100
AcDbEntity
  8
SLD-0
 62
     7
100
AcDbLine
 10
421.121817294
 20
255.5685523765
 30
0.0
 11
421.121817294
 21
279.3037619646
 31
0.0
  0
LINE
  5
263
330
254
100
AcDbEntity
  8
SLD-0
 62
     7
100
AcDbLine
 10
444.621817294
 20
277.7797619646
 30
0.0
 11
459.7672969012
 21
277.7797619646
 31
0.0
  0
LINE
  5
264
330
254
100
AcDbEntity
  8
SLD-0
 62
     7
100
AcDbLine
 10
421.121817294
 20
277.7797619646
 30
0.0
 11
444.621817294
 21
277.7797619646
 31
0.0
  0
MTEXT
  5
265
330
254
100
AcDbEntity
  8
SLD-0
 62
     7
100
AcDbMText
 10
467.5755664371
 20
284.3459764847
 30
0.0
 40
4.7625
 41
0.0
 71
     1
 72
     1
  1
 
  7
SLDTEXTSTYLE0
 73
     1
 44
1.0
  0
MTEXT
  5
266
330
254
100
AcDbEntity
  8
SLD-0
 62
     7
100
AcDbMText
 10
470.4683442265
 20
284.3459769504
 30
0.0
 40
4.7625
 41
0.0
 71
     1
 72
     1
  1
23.5
  7
SLDTEXTSTYLE0
 73
     1
 44
1.0
  0
MTEXT
  5
267
330
254
100
AcDbEntity
  8
SLD-0
 62
     7
100
AcDbMText
 10
472.2278235145
 20
275.8131645971
 30
0.0
 40
4.7625
 41
0.0
 71
     1
 72
     1
  1
.93
  7
SLDTEXTSTYLE0
 73
     1
 44
1.0
  0
MTEXT
  5
268
330
254
100
AcDbEntity
  8
SLD-0
 62
     7
100
AcDbMText
 10
483.917997744
 20
284.3459764847
 30
0.0
 40
4.7625
 41
0.0
 71
     1
 72
     1
  1
 
  7
SLDTEXTSTYLE0
 73
     1
 44
1.0
  0
ENDBLK
  5
256
330
254
100
AcDbEntity
  8
0
100
AcDbBlockEnd
  0
BLOCK
  5
26B
330
26A
100
AcDbEntity
  8
0
100
AcDbBlockBegin
  2
_D_5
 70
     0
 10
0.0
 20
0.0
 30
0.0
  3
_D_5
  1

  0
SOLID
  5
26D
330
26A
100
AcDbEntity
  8
SLD-0
 62
     7
100
AcDbTrace
 10
444.621817294
 20
302.8489577911
 30
0.0
 11
440.621817294
 21
303.3489577911
 31
0.0
 12
440.621817294
 22
302.3489577911
 32
0.0
 13
440.621817294
 23
302.3489577911
 33
0.0
  0
SOLID
  5
26E
330
26A
100
AcDbEntity
  8
SLD-0
 62
     7
100
AcDbTrace
 10
405.521817294
 20
302.8489577911
 30
0.0
 11
409.521817294
 21
302.3489577911
 31
0.0
 12
409.521817294
 22
303.3489577911
 32
0.0
 13
409.521817294
 23
303.3489577911
 33
0.0
  0
LINE
  5
26F
330
26A
100
AcDbEntity
  8
SLD-0
 62
     7
100
AcDbLine
 10
420.3041004127
 20
302.8489587224
 30
0.0
 11
418.8555066118
 21
302.8489587224
 31
0.0
  0
LINE
  5
270
330
26A
100
AcDbEntity
  8
SLD-0
 62
     7
100
AcDbLine
 10
418.8555066118
 20
302.8489587224
 30
0.0
 11
418.8555066118
 21
295.2818752594
 31
0.0
  0
LINE
  5
271
330
26A
100
AcDbEntity
  8
SLD-0
 62
     7
100
AcDbLine
 10
418.8555066118
 20
295.2818752594
 30
0.0
 11
420.3041004127
 21
295.2818752594
 31
0.0
  0
LINE
  5
272
330
26A
100
AcDbEntity
  8
SLD-0
 62
     7
100
AcDbLine
 10
432.6160451508
 20
302.8489587224
 30
0.0
 11
434.0646389516
 21
302.8489587224
 31
0.0
  0
LINE
  5
273
330
26A
100
AcDbEntity
  8
SLD-0
 62
     7
100
AcDbLine
 10
434.0646389516
 20
302.8489587224
 30
0.0
 11
434.0646389516
 21
295.2818752594
 31
0.0
  0
LINE
  5
274
330
26A
100
AcDbEntity
  8
SLD-0
 62
     7
100
AcDbLine
 10
434.0646389516
 20
295.2818752594
 30
0.0
 11
432.6160451508
 21
295.2818752594
 31
0.0
  0
LINE
  5
275
330
26A
100
AcDbEntity
  8
SLD-0
 62
     7
100
AcDbLine
 10
444.621817294
 20
235.008592312
 30
0.0
 11
444.621817294
 21
304.3729577911
 31
0.0
  0
LINE
  5
276
330
26A
100
AcDbEntity
  8
SLD-0
 62
     7
100
AcDbLine
 10
405.521817294
 20
263.1085523901
 30
0.0
 11
405.521817294
 21
304.3729577911
 31
0.0
  0
LINE
  5
277
330
26A
100
AcDbEntity
  8
SLD-0
 62
     7
100
AcDbLine
 10
444.621817294
 20
302.8489577911
 30
0.0
 11
438.2339598448
 21
302.8489577911
 31
0.0
  0
LINE
  5
278
330
26A
100
AcDbEntity
  8
SLD-0
 62
     7
100
AcDbLine
 10
405.521817294
 20
302.8489577911
 30
0.0
 11
414.6861857187
 21
302.8489577911
 31
0.0
  0
MTEXT
  5
279
330
26A
100
AcDbEntity
  8
SLD-0
 62
     7
100
AcDbMText
 10
415.6518433353
 20
309.8980369891
 30
0.0
 40
4.7625
 41
0.0
 71
     1
 72
     1
  1
 
  7
SLDTEXTSTYLE0
 73
     1
 44
1.0
  0
MTEXT
  5
27A
330
26A
100
AcDbEntity
  8
SLD-0
 62
     7
100
AcDbMText
 10
420.3040999471
 20
309.8980374548
 30
0.0
 40
4.7625
 41
0.0
 71
     1
 72
     1
  1
39.1
  7
SLDTEXTSTYLE0
 73
     1
 44
1.0
  0
MTEXT
  5
27B
330
26A
100
AcDbEntity
  8
SLD-0
 62
     7
100
AcDbMText
 10
420.3041004127
 20
301.3652251016
 30
0.0
 40
4.7625
 41
0.0
 71
     1
 72
     1
  1
1.54
  7
SLDTEXTSTYLE0
 73
     1
 44
1.0
  0
MTEXT
  5
27C
330
26A
100
AcDbEntity
  8
SLD-0
 62
     7
100
AcDbMText
 10
435.5132322869
 20
309.8980369891
 30
0.0
 40
4.7625
 41
0.0
 71
     1
 72
     1
  1
 
  7
SLDTEXTSTYLE0
 73
     1
 44
1.0
  0
ENDBLK
  5
26C
330
26A
100
AcDbEntity
  8
0
100
AcDbBlockEnd
  0
BLOCK
  5
27F
330
27E
100
AcDbEntity
  8
0
100
AcDbBlockBegin
  2
_D_6
 70
     0
 10
0.0
 20
0.0
 30
0.0
  3
_D_6
  1

  0
SOLID
  5
281
330
27E
100
AcDbEntity
  8
SLD-0
 62
     7
100
AcDbTrace
 10
421.121817294
 20
277.7797619646
 30
0.0
 11
417.121817294
 21
278.2797619646
 31
0.0
 12
417.121817294
 22
277.2797619646
 32
0.0
 13
417.121817294
 23
277.2797619646
 33
0.0
  0
SOLID
  5
282
330
27E
100
AcDbEntity
  8
SLD-0
 62
     7
100
AcDbTrace
 10
405.521817294
 20
277.7797619646
 30
0.0
 11
409.521817294
 21
277.2797619646
 31
0.0
 12
409.521817294
 22
278.2797619646
 32
0.0
 13
409.521817294
 23
278.2797619646
 33
0.0
  0
LINE
  5
283
330
27E
100
AcDbEntity
  8
SLD-0
 62
     7
100
AcDbLine
 10
382.9043425592
 20
277.7797628959
 30
0.0
 11
381.4557487584
 21
277.7797628959
 31
0.0
  0
LINE
  5
284
330
27E
100
AcDbEntity
  8
SLD-0
 62
     7
100
AcDbLine
 10
381.4557487584
 20
277.7797628959
 30
0.0
 11
381.4557487584
 21
270.2126794328
 31
0.0
  0
LINE
  5
285
330
27E
100
AcDbEntity
  8
SLD-0
 62
     7
100
AcDbLine
 10
381.4557487584
 20
270.2126794328
 30
0.0
 11
382.9043425592
 21
270.2126794328
 31
0.0
  0
LINE
  5
286
330
27E
100
AcDbEntity
  8
SLD-0
 62
     7
100
AcDbLine
 10
391.6973287213
 20
277.7797628959
 30
0.0
 11
393.1459225221
 21
277.7797628959
 31
0.0
  0
LINE
  5
287
330
27E
100
AcDbEntity
  8
SLD-0
 62
     7
100
AcDbLine
 10
393.1459225221
 20
277.7797628959
 30
0.0
 11
393.1459225221
 21
270.2126794328
 31
0.0
  0
LINE
  5
288
330
27E
100
AcDbEntity
  8
SLD-0
 62
     7
100
AcDbLine
 10
393.1459225221
 20
270.2126794328
 30
0.0
 11
391.6973287213
 21
270.2126794328
 31
0.0
  0
LINE
  5
289
330
27E
100
AcDbEntity
  8
SLD-0
 62
     7
100
AcDbLine
 10
421.121817294
 20
258.5685523765
 30
0.0
 11
421.121817294
 21
279.3037619646
 31
0.0
  0
LINE
  5
28A
330
27E
100
AcDbEntity
  8
SLD-0
 62
     7
100
AcDbLine
 10
405.521817294
 20
263.1085523901
 30
0.0
 11
405.521817294
 21
279.3037619646
 31
0.0
  0
LINE
  5
28B
330
27E
100
AcDbEntity
  8
SLD-0
 62
     7
100
AcDbLine
 10
421.121817294
 20
277.7797619646
 30
0.0
 11
405.521817294
 21
277.7797619646
 31
0.0
  0
LINE
  5
28C
330
27E
100
AcDbEntity
  8
SLD-0
 62
     7
100
AcDbLine
 10
405.521817294
 20
277.7797619646
 30
0.0
 11
397.3152443466
 21
277.7797619646
 31
0.0
  0
MTEXT
  5
28D
330
27E
100
AcDbEntity
  8
SLD-0
 62
     7
100
AcDbMText
 10
378.2520854819
 20
284.8288411626
 30
0.0
 40
4.7625
 41
0.0
 71
     1
 72
     1
  1
 
  7
SLDTEXTSTYLE0
 73
     1
 44
1.0
  0
MTEXT
  5
28E
330
27E
100
AcDbEntity
  8
SLD-0
 62
     7
100
AcDbMText
 10
381.1448632712
 20
284.8288416283
 30
0.0
 40
4.7625
 41
0.0
 71
     1
 72
     1
  1
15.6
  7
SLDTEXTSTYLE0
 73
     1
 44
1.0
  0
MTEXT
  5
28F
330
27E
100
AcDbEntity
  8
SLD-0
 62
     7
100
AcDbMText
 10
382.9043425592
 20
276.296029275
 30
0.0
 40
4.7625
 41
0.0
 71
     1
 72
     1
  1
.61
  7
SLDTEXTSTYLE0
 73
     1
 44
1.0
  0
MTEXT
  5
290
330
27E
100
AcDbEntity
  8
SLD-0
 62
     7
100
AcDbMText
 10
394.5945167887
 20
284.8288411626
 30
0.0
 40
4.7625
 41
0.0
 71
     1
 72
     1
  1
 
  7
SLDTEXTSTYLE0
 73
     1
 44
1.0
  0
ENDBLK
  5
280
330
27E
100
AcDbEntity
  8
0
100
AcDbBlockEnd
  0
BLOCK
  5
292
330
291
100
AcDbEntity
  8
0
100
AcDbBlockBegin
  2
SW_NOTE_0_6
 70
     0
 10
0.0
 20
0.0
 30
0.0
  3
SW_NOTE_0_6
  1

  0
MTEXT
  5
294
330
291
100
AcDbEntity
  8
SLD-0
 62
     0
100
AcDbMText
 10
-0.9479912588
 20
9.6833861546
 30
0.0
 40
4.7625
 41
0.0
 71
     3
 72
     1
  1
VENTING
  7
SLDTEXTSTYLE0
 73
     1
 44
1.0
  0
MTEXT
  5
295
330
291
100
AcDbEntity
  8
SLD-0
 62
     0
100
AcDbMText
 10
-1.6689827302
 20
1.3333863692
 30
0.0
 40
4.7625
 41
0.0
 71
     3
 72
     1
  1
AREA
  7
SLDTEXTSTYLE0
 73
     1
 44
1.0
  0
ENDBLK
  5
293
330
291
100
AcDbEntity
  8
0
100
AcDbBlockEnd
  0
BLOCK
  5
299
330
298
100
AcDbEntity
  8
0
100
AcDbBlockBegin
  2
_Dot
 70
     0
 10
0.0
 20
0.0
 30
0.0
  3
_Dot
  1

  0
LWPOLYLINE
  5
29B
330
298
100
AcDbEntity
  8
0
  6
ByBlock
 62
     0
100
AcDbPolyline
 90
        2
 70
     1
 43
0.5
 10
-0.25
 20
0.0
 42
1.0
 10
0.25
 20
0.0
 42
1.0
  0
LINE
  5
29C
330
298
100
AcDbEntity
  8
0
  6
ByBlock
 62
     0
370
    -2
100
AcDbLine
 10
-0.5
 20
0.0
 30
0.0
 11
-1.0
 21
0.0
 31
0.0
  0
ENDBLK
  5
29A
330
298
100
AcDbEntity
  8
0
100
AcDbBlockEnd
  0
BLOCK
  5
29F
330
29E
100
AcDbEntity
  8
0
100
AcDbBlockBegin
  2
SW_NOTE_0_7
 70
     0
 10
0.0
 20
0.0
 30
0.0
  3
SW_NOTE_0_7
  1

  0
LINE
  5
2A1
330
29E
100
AcDbEntity
  8
SLD-0
 62
     0
100
AcDbLine
 10
0.0
 20
-6.0744110855
 30
0.0
 11
0.0
 21
5.4729330254
 31
0.0
  0
LINE
  5
2A2
330
29E
100
AcDbEntity
  8
SLD-0
 62
     0
100
AcDbLine
 10
0.0
 20
5.4729330254
 30
0.0
 11
11.5473441109
 21
5.4729330254
 31
0.0
  0
LINE
  5
2A3
330
29E
100
AcDbEntity
  8
SLD-0
 62
     0
100
AcDbLine
 10
11.5473441109
 20
5.4729330254
 30
0.0
 11
11.5473441109
 21
-6.0744110855
 31
0.0
  0
LINE
  5
2A4
330
29E
100
AcDbEntity
  8
SLD-0
 62
     0
100
AcDbLine
 10
11.5473441109
 20
-6.0744110855
 30
0.0
 11
0.0
 21
-6.0744110855
 31
0.0
  0
MTEXT
  5
2A5
330
29E
100
AcDbEntity
  8
SLD-0
 62
     0
100
AcDbMText
 10
5.7257163213
 20
2.0428182755
 30
0.0
 40
4.7625
 41
0.0
 71
     2
 72
     1
  1
3
  7
SLDTEXTSTYLE0
 73
     1
 44
1.0
  0
ENDBLK
  5
2A0
330
29E
100
AcDbEntity
  8
0
100
AcDbBlockEnd
  0
BLOCK
  5
2AB
330
2AA
100
AcDbEntity
  8
0
100
AcDbBlockBegin
  2
SW_CENTERMARKSYMBOL_0
 70
     0
 10
0.0
 20
0.0
 30
0.0
  3
SW_CENTERMARKSYMBOL_0
  1

  0
LINE
  5
2AD
330
2AA
100
AcDbEntity
  8
SLD-0
 62
     0
100
AcDbLine
 10
0.0
 20
0.0
 30
0.0
 11
0.0
 21
2.0
 31
0.0
  0
LINE
  5
2AE
330
2AA
100
AcDbEntity
  8
SLD-0
 62
     0
100
AcDbLine
 10
0.0
 20
0.0
 30
0.0
 11
-2.0
 21
0.0
 31
0.0
  0
LINE
  5
2AF
330
2AA
100
AcDbEntity
  8
SLD-0
 62
     0
100
AcDbLine
 10
0.0
 20
0.0
 30
0.0
 11
0.0
 21
-2.0
 31
0.0
  0
LINE
  5
2B0
330
2AA
100
AcDbEntity
  8
SLD-0
 62
     0
100
AcDbLine
 10
0.0
 20
0.0
 30
0.0
 11
2.0
 21
0.0
 31
0.0
  0
ENDBLK
  5
2AC
330
2AA
100
AcDbEntity
  8
0
100
AcDbBlockEnd
  0
BLOCK
  5
395
330
394
100
AcDbEntity
  8
0
100
AcDbBlockBegin
  2
_D_7
 70
     0
 10
0.0
 20
0.0
 30
0.0
  3
_D_7
  1

  0
SOLID
  5
397
330
394
100
AcDbEntity
  8
SLD-0
 62
     7
100
AcDbTrace
 10
750.1613342457
 20
150.4445523765
 30
0.0
 11
750.6613342457
 21
154.4445523765
 31
0.0
 12
749.6613342457
 22
154.4445523765
 32
0.0
 13
749.6613342457
 23
154.4445523765
 33
0.0
  0
SOLID
  5
398
330
394
100
AcDbEntity
  8
SLD-0
 62
     7
100
AcDbTrace
 10
750.1613342457
 20
214.9770523765
 30
0.0
 11
749.6613342457
 21
210.9770523765
 31
0.0
 12
750.6613342457
 22
210.9770523765
 32
0.0
 13
750.6613342457
 23
210.9770523765
 33
0.0
  0
LINE
  5
399
330
394
100
AcDbEntity
  8
SLD-0
 62
     7
100
AcDbLine
 10
744.0053618767
 20
187.6201675186
 30
0.0
 11
742.5567680758
 21
187.6201675186
 31
0.0
  0
LINE
  5
39A
330
394
100
AcDbEntity
  8
SLD-0
 62
     7
100
AcDbLine
 10
742.5567680758
 20
187.6201675186
 30
0.0
 11
742.5567680758
 21
180.0530840555
 31
0.0
  0
LINE
  5
39B
330
394
100
AcDbEntity
  8
SLD-0
 62
     7
100
AcDbLine
 10
742.5567680758
 20
180.0530840555
 30
0.0
 11
744.0053618767
 21
180.0530840555
 31
0.0
  0
LINE
  5
39C
330
394
100
AcDbEntity
  8
SLD-0
 62
     7
100
AcDbLine
 10
756.3173066147
 20
187.6201675186
 30
0.0
 11
757.7659004156
 21
187.6201675186
 31
0.0
  0
LINE
  5
39D
330
394
100
AcDbEntity
  8
SLD-0
 62
     7
100
AcDbLine
 10
757.7659004156
 20
187.6201675186
 30
0.0
 11
757.7659004156
 21
180.0530840555
 31
0.0
  0
LINE
  5
39E
330
394
100
AcDbEntity
  8
SLD-0
 62
     7
100
AcDbLine
 10
757.7659004156
 20
180.0530840555
 30
0.0
 11
756.3173066147
 21
180.0530840555
 31
0.0
  0
LINE
  5
39F
330
394
100
AcDbEntity
  8
SLD-0
 62
     7
100
AcDbLine
 10
726.9853092457
 20
150.4445523765
 30
0.0
 11
751.6853342457
 21
150.4445523765
 31
0.0
  0
LINE
  5
3A0
330
394
100
AcDbEntity
  8
SLD-0
 62
     7
100
AcDbLine
 10
652.0353092456
 20
214.9770523765
 30
0.0
 11
751.6853342457
 21
214.9770523765
 31
0.0
  0
LINE
  5
3A1
330
394
100
AcDbEntity
  8
SLD-0
 62
     7
100
AcDbLine
 10
750.1613342457
 20
150.4445523765
 30
0.0
 11
750.1613342457
 21
179.0873537684
 31
0.0
  0
LINE
  5
3A2
330
394
100
AcDbEntity
  8
SLD-0
 62
     7
100
AcDbLine
 10
750.1613342457
 20
214.9770523765
 30
0.0
 11
750.1613342457
 21
196.1529794062
 31
0.0
  0
MTEXT
  5
3A3
330
394
100
AcDbEntity
  8
SLD-0
 62
     7
100
AcDbMText
 10
739.3531047993
 20
194.6692457853
 30
0.0
 40
4.7625
 41
0.0
 71
     1
 72
     1
  1
 
  7
SLDTEXTSTYLE0
 73
     1
 44
1.0
  0
MTEXT
  5
3A4
330
394
100
AcDbEntity
  8
SLD-0
 62
     7
100
AcDbMText
 10
744.005361411
 20
194.669246251
 30
0.0
 40
4.7625
 41
0.0
 71
     1
 72
     1
  1
64.5
  7
SLDTEXTSTYLE0
 73
     1
 44
1.0
  0
MTEXT
  5
3A5
330
394
100
AcDbEntity
  8
SLD-0
 62
     7
100
AcDbMText
 10
744.0053618767
 20
186.1364338977
 30
0.0
 40
4.7625
 41
0.0
 71
     1
 72
     1
  1
2.54
  7
SLDTEXTSTYLE0
 73
     1
 44
1.0
  0
MTEXT
  5
3A6
330
394
100
AcDbEntity
  8
SLD-0
 62
     7
100
AcDbMText
 10
759.2144937508
 20
194.6692457853
 30
0.0
 40
4.7625
 41
0.0
 71
     1
 72
     1
  1
 
  7
SLDTEXTSTYLE0
 73
     1
 44
1.0
  0
ENDBLK
  5
396
330
394
100
AcDbEntity
  8
0
100
AcDbBlockEnd
  0
BLOCK
  5
3A9
330
3A8
100
AcDbEntity
  8
0
100
AcDbBlockBegin
  2
_D_8
 70
     0
 10
0.0
 20
0.0
 30
0.0
  3
_D_8
  1

  0
SOLID
  5
3AB
330
3A8
100
AcDbEntity
  8
SLD-0
 62
     7
100
AcDbTrace
 10
645.0613092456
 20
286.0445773765
 30
0.0
 11
649.0613092456
 21
285.5445773765
 31
0.0
 12
649.0613092456
 22
286.5445773765
 32
0.0
 13
649.0613092456
 23
286.5445773765
 33
0.0
  0
SOLID
  5
3AC
330
3A8
100
AcDbEntity
  8
SLD-0
 62
     7
100
AcDbTrace
 10
730.1613092457
 20
286.0445773765
 30
0.0
 11
726.1613092457
 21
286.5445773765
 31
0.0
 12
726.1613092457
 22
285.5445773765
 32
0.0
 13
726.1613092457
 23
285.5445773765
 33
0.0
  0
LINE
  5
3AD
330
3A8
100
AcDbEntity
  8
SLD-0
 62
     7
100
AcDbLine
 10
686.7615967154
 20
286.0445783079
 30
0.0
 11
685.3130029145
 21
286.0445783079
 31
0.0
  0
LINE
  5
3AE
330
3A8
100
AcDbEntity
  8
SLD-0
 62
     7
100
AcDbLine
 10
685.3130029145
 20
286.0445783079
 30
0.0
 11
685.3130029145
 21
278.4774948448
 31
0.0
  0
LINE
  5
3AF
330
3A8
100
AcDbEntity
  8
SLD-0
 62
     7
100
AcDbLine
 10
685.3130029145
 20
278.4774948448
 30
0.0
 11
686.7615967154
 21
278.4774948448
 31
0.0
  0
LINE
  5
3B0
330
3A8
100
AcDbEntity
  8
SLD-0
 62
     7
100
AcDbLine
 10
699.0735414534
 20
286.0445783079
 30
0.0
 11
700.5221352543
 21
286.0445783079
 31
0.0
  0
LINE
  5
3B1
330
3A8
100
AcDbEntity
  8
SLD-0
 62
     7
100
AcDbLine
 10
700.5221352543
 20
286.0445783079
 30
0.0
 11
700.5221352543
 21
278.4774948448
 31
0.0
  0
LINE
  5
3B2
330
3A8
100
AcDbEntity
  8
SLD-0
 62
     7
100
AcDbLine
 10
700.5221352543
 20
278.4774948448
 30
0.0
 11
699.0735414534
 21
278.4774948448
 31
0.0
  0
LINE
  5
3B3
330
3A8
100
AcDbEntity
  8
SLD-0
 62
     7
100
AcDbLine
 10
645.0613092456
 20
224.0335523765
 30
0.0
 11
645.0613092456
 21
287.5685773765
 31
0.0
  0
LINE
  5
3B4
330
3A8
100
AcDbEntity
  8
SLD-0
 62
     7
100
AcDbLine
 10
730.1613092457
 20
262.8685523765
 30
0.0
 11
730.1613092457
 21
287.5685773765
 31
0.0
  0
LINE
  5
3B5
330
3A8
100
AcDbEntity
  8
SLD-0
 62
     7
100
AcDbLine
 10
645.0613092456
 20
286.0445773765
 30
0.0
 11
681.1436820214
 21
286.0445773765
 31
0.0
  0
LINE
  5
3B6
330
3A8
100
AcDbEntity
  8
SLD-0
 62
     7
100
AcDbLine
 10
730.1613092457
 20
286.0445773765
 30
0.0
 11
704.6914561475
 21
286.0445773765
 31
0.0
  0
MTEXT
  5
3B7
330
3A8
100
AcDbEntity
  8
SLD-0
 62
     7
100
AcDbMText
 10
682.109339638
 20
293.0936565745
 30
0.0
 40
4.7625
 41
0.0
 71
     1
 72
     1
  1
 
  7
SLDTEXTSTYLE0
 73
     1
 44
1.0
  0
MTEXT
  5
3B8
330
3A8
100
AcDbEntity
  8
SLD-0
 62
     7
100
AcDbMText
 10
686.7615962497
 20
293.0936570402
 30
0.0
 40
4.7625
 41
0.0
 71
     1
 72
     1
  1
85.1
  7
SLDTEXTSTYLE0
 73
     1
 44
1.0
  0
MTEXT
  5
3B9
330
3A8
100
AcDbEntity
  8
SLD-0
 62
     7
100
AcDbMText
 10
686.7615967154
 20
284.560844687
 30
0.0
 40
4.7625
 41
0.0
 71
     1
 72
     1
  1
3.35
  7
SLDTEXTSTYLE0
 73
     1
 44
1.0
  0
MTEXT
  5
3BA
330
3A8
100
AcDbEntity
  8
SLD-0
 62
     7
100
AcDbMText
 10
701.9707285895
 20
293.0936565745
 30
0.0
 40
4.7625
 41
0.0
 71
     1
 72
     1
  1
 
  7
SLDTEXTSTYLE0
 73
     1
 44
1.0
  0
ENDBLK
  5
3AA
330
3A8
100
AcDbEntity
  8
0
100
AcDbBlockEnd
  0
ENDSEC
  0
SECTION
  2
ENTITIES
  0
LINE
  5
BC
330
1F
100
AcDbEntity
  8
0
  6
Continuous
 62
     7
370
    18
100
AcDbLine
 10
17.7770582316
 20
541.0189283994
 30
0.0
 11
845.8170582316
 21
541.0189283994
 31
0.0
  0
LINE
  5
BD
330
1F
100
AcDbEntity
  8
0
  6
Continuous
 62
     7
370
    18
100
AcDbLine
 10
17.7770582316
 20
541.0189283994
 30
0.0
 11
17.7770582316
 21
17.7789283994
 31
0.0
  0
LINE
  5
BE
330
1F
100
AcDbEntity
  8
0
  6
Continuous
 62
     7
370
    18
100
AcDbLine
 10
845.8170582316
 20
17.7789283994
 30
0.0
 11
17.7770582316
 21
17.7789283994
 31
0.0
  0
LINE
  5
BF
330
1F
100
AcDbEntity
  8
0
  6
Continuous
 62
     7
370
    18
100
AcDbLine
 10
845.8170582316
 20
17.7789283994
 30
0.0
 11
845.8170582316
 21
541.0189283994
 31
0.0
  0
LINE
  5
C0
330
1F
100
AcDbEntity
  8
0
  6
Continuous
 62
     7
370
    18
100
AcDbLine
 10
591.8170582316
 20
17.7789283994
 30
0.0
 11
591.8170582316
 21
93.9789283994
 31
0.0
  0
LINE
  5
C1
330
1F
100
AcDbEntity
  8
0
  6
Continuous
 62
     7
370
    18
100
AcDbLine
 10
591.8170582316
 20
93.9789283994
 30
0.0
 11
845.8170582316
 21
93.9789283994
 31
0.0
  0
LINE
  5
C2
330
1F
100
AcDbEntity
  8
0
  6
Continuous
 62
     7
370
    18
100
AcDbLine
 10
658.7200825955
 20
93.9789283994
 30
0.0
 11
658.7200825955
 21
17.7789283994
 31
0.0
  0
LINE
  5
C3
330
1F
100
AcDbEntity
  8
0
  6
Continuous
 62
     7
370
    18
100
AcDbLine
 10
728.0448273613
 20
93.9789283994
 30
0.0
 11
728.0448273613
 21
17.7789283994
 31
0.0
  0
LINE
  5
C4
330
1F
100
AcDbEntity
  8
0
  6
Continuous
 62
     7
370
    18
100
AcDbLine
 10
728.0448273613
 20
24.1289283994
 30
0.0
 11
845.8170582316
 21
24.1289283994
 31
0.0
  0
LINE
  5
C5
330
1F
100
AcDbEntity
  8
0
  6
Continuous
 62
     7
370
    18
100
AcDbLine
 10
728.0448273613
 20
36.8289283994
 30
0.0
 11
845.8170582316
 21
36.8289283994
 31
0.0
  0
LINE
  5
C6
330
1F
100
AcDbEntity
  8
0
  6
Continuous
 62
     7
370
    18
100
AcDbLine
 10
728.0448273613
 20
74.9289283994
 30
0.0
 11
845.8170582316
 21
74.9289283994
 31
0.0
  0
LINE
  5
C7
330
1F
100
AcDbEntity
  8
0
  6
Continuous
 62
     7
370
    18
100
AcDbLine
 10
737.2248385306
 20
36.8289283994
 30
0.0
 11
737.2248385306
 21
24.1289283994
 31
0.0
  0
LINE
  5
C8
330
1F
100
AcDbEntity
  8
0
  6
Continuous
 62
     7
370
    18
100
AcDbLine
 10
811.2044175569
 20
24.1289283994
 30
0.0
 11
811.2044175569
 21
17.7789283994
 31
0.0
  0
LINE
  5
C9
330
1F
100
AcDbEntity
  8
0
  6
Continuous
 62
     7
370
    18
100
AcDbLine
 10
761.3548385306
 20
36.8289283994
 30
0.0
 11
761.3548385306
 21
24.1289283994
 31
0.0
  0
LINE
  5
CA
330
1F
100
AcDbEntity
  8
0
  6
Continuous
 62
     7
370
    18
100
AcDbLine
 10
751.7322172939
 20
24.1289283994
 30
0.0
 11
751.7322172939
 21
17.7789283994
 31
0.0
  0
LINE
  5
CB
330
1F
100
AcDbEntity
  8
0
  6
Continuous
 62
     7
370
    18
100
AcDbLine
 10
638.8070582316
 20
17.7789283994
 30
0.0
 11
638.8070582316
 21
26.9229283994
 31
0.0
  0
LINE
  5
CC
330
1F
100
AcDbEntity
  8
0
  6
Continuous
 62
     7
370
    18
100
AcDbLine
 10
658.6478221355
 20
31.2789283994
 30
0.0
 11
727.9725669014
 21
31.2789283994
 31
0.0
  0
LINE
  5
CD
330
1F
100
AcDbEntity
  8
0
  6
Continuous
 62
     7
370
    18
100
AcDbLine
 10
658.7200825955
 20
44.7789283994
 30
0.0
 11
728.0448273613
 21
44.7789283994
 31
0.0
  0
LINE
  5
CE
330
1F
100
AcDbEntity
  8
0
  6
Continuous
 62
     7
370
    18
100
AcDbLine
 10
658.7200825955
 20
58.2789283994
 30
0.0
 11
728.0448273613
 21
58.2789283994
 31
0.0
  0
LINE
  5
CF
330
1F
100
AcDbEntity
  8
0
  6
Continuous
 62
     7
370
    18
100
AcDbLine
 10
658.7200825955
 20
76.5625228009
 30
0.0
 11
728.0448273613
 21
76.5625228009
 31
0.0
  0
LINE
  5
D0
330
1F
100
AcDbEntity
  8
0
  6
Continuous
 62
     7
370
    18
100
AcDbLine
 10
658.7200825955
 20
71.2285228009
 30
0.0
 11
728.0448273613
 21
71.2285228009
 31
0.0
  0
LINE
  5
D1
330
1F
100
AcDbEntity
  8
0
  6
Continuous
 62
     7
370
    18
100
AcDbLine
 10
658.7200825955
 20
54.4891628938
 30
0.0
 11
591.8170582316
 21
54.4891628938
 31
0.0
  0
LINE
  5
D2
330
1F
100
AcDbEntity
  8
0
  6
CENTER
 62
     7
370
    18
100
AcDbLine
 10
647.9842335774
 20
22.5236503539
 30
0.0
 11
657.3272635762
 21
22.5236503539
 31
0.0
  0
LINE
  5
D3
330
1F
100
AcDbEntity
  8
0
  6
Continuous
 62
     7
370
    18
100
AcDbLine
 10
845.8170582316
 20
148.5889283994
 30
0.0
 11
852.1670582316
 21
148.5889283994
 31
0.0
  0
LINE
  5
D4
330
1F
100
AcDbEntity
  8
0
  6
Continuous
 62
     7
370
    18
100
AcDbLine
 10
848.9920582316
 20
277.5658412947
 30
0.0
 11
845.8170582316
 21
279.3989283994
 31
0.0
  0
LINE
  5
D5
330
1F
100
AcDbEntity
  8
0
  6
Continuous
 62
     7
370
    18
100
AcDbLine
 10
848.9920582316
 20
281.232015504
 30
0.0
 11
848.9920582316
 21
277.5658412947
 31
0.0
  0
LINE
  5
D6
330
1F
100
AcDbEntity
  8
0
  6
Continuous
 62
     7
370
    18
100
AcDbLine
 10
845.8170582316
 20
279.3989283994
 30
0.0
 11
848.9920582316
 21
281.232015504
 31
0.0
  0
LINE
  5
D7
330
1F
100
AcDbEntity
  8
0
  6
Continuous
 62
     7
370
    18
100
AcDbLine
 10
845.8170582316
 20
279.3989283994
 30
0.0
 11
852.1670582316
 21
279.3989283994
 31
0.0
  0
LINE
  5
D8
330
1F
100
AcDbEntity
  8
0
  6
Continuous
 62
     7
370
    18
100
AcDbLine
 10
845.8170582316
 20
410.2089283994
 30
0.0
 11
852.1670582316
 21
410.2089283994
 31
0.0
  0
LINE
  5
D9
330
1F
100
AcDbEntity
  8
0
  6
Continuous
 62
     7
370
    18
100
AcDbLine
 10
742.3120582316
 20
541.0189283994
 30
0.0
 11
742.3120582316
 21
547.3689283994
 31
0.0
  0
LINE
  5
DA
330
1F
100
AcDbEntity
  8
0
  6
Continuous
 62
     7
370
    18
100
AcDbLine
 10
535.3020582316
 20
17.7789283994
 30
0.0
 11
535.3020582316
 21
11.4289283994
 31
0.0
  0
LINE
  5
DB
330
1F
100
AcDbEntity
  8
0
  6
Continuous
 62
     7
370
    18
100
AcDbLine
 10
742.3120582316
 20
17.7789283994
 30
0.0
 11
742.3120582316
 21
11.4289283994
 31
0.0
  0
LINE
  5
DC
330
1F
100
AcDbEntity
  8
0
  6
Continuous
 62
     7
370
    18
100
AcDbLine
 10
638.8070582316
 20
17.7789283994
 30
0.0
 11
638.8070582316
 21
11.4289283994
 31
0.0
  0
LINE
  5
DD
330
1F
100
AcDbEntity
  8
0
  6
Continuous
 62
     7
370
    18
100
AcDbLine
 10
328.2920582316
 20
17.7789283994
 30
0.0
 11
328.2920582316
 21
11.4289283994
 31
0.0
  0
LINE
  5
DE
330
1F
100
AcDbEntity
  8
0
  6
Continuous
 62
     7
370
    18
100
AcDbLine
 10
224.7870582316
 20
17.7789283994
 30
0.0
 11
224.7870582316
 21
11.4289283994
 31
0.0
  0
LINE
  5
DF
330
1F
100
AcDbEntity
  8
0
  6
Continuous
 62
     7
370
    18
100
AcDbLine
 10
121.2820582316
 20
17.7789283994
 30
0.0
 11
121.2820582316
 21
11.4289283994
 31
0.0
  0
LINE
  5
E0
330
1F
100
AcDbEntity
  8
0
  6
Continuous
 62
     7
370
    18
100
AcDbLine
 10
638.8070582316
 20
541.0189283994
 30
0.0
 11
638.8070582316
 21
547.3689283994
 31
0.0
  0
LINE
  5
E1
330
1F
100
AcDbEntity
  8
0
  6
Continuous
 62
     7
370
    18
100
AcDbLine
 10
535.3020582316
 20
541.0189283994
 30
0.0
 11
535.3020582316
 21
547.3689283994
 31
0.0
  0
LINE
  5
E2
330
1F
100
AcDbEntity
  8
0
  6
Continuous
 62
     7
370
    18
100
AcDbLine
 10
433.6301453363
 20
544.1939283994
 30
0.0
 11
429.963971127
 21
544.1939283994
 31
0.0
  0
LINE
  5
E3
330
1F
100
AcDbEntity
  8
0
  6
Continuous
 62
     7
370
    18
100
AcDbLine
 10
431.7970582316
 20
541.0189283994
 30
0.0
 11
429.963971127
 21
544.1939283994
 31
0.0
  0
LINE
  5
E4
330
1F
100
AcDbEntity
  8
0
  6
Continuous
 62
     7
370
    18
100
AcDbLine
 10
431.7970582316
 20
541.0189283994
 30
0.0
 11
433.6301453363
 21
544.1939283994
 31
0.0
  0
LINE
  5
E5
330
1F
100
AcDbEntity
  8
0
  6
Continuous
 62
     7
370
    18
100
AcDbLine
 10
17.7770582316
 20
148.5889283994
 30
0.0
 11
11.4270582316
 21
148.5889283994
 31
0.0
  0
LINE
  5
E6
330
1F
100
AcDbEntity
  8
0
  6
Continuous
 62
     7
370
    18
100
AcDbLine
 10
17.7770582316
 20
279.3989283994
 30
0.0
 11
11.4270582316
 21
279.3989283994
 31
0.0
  0
LINE
  5
E7
330
1F
100
AcDbEntity
  8
0
  6
Continuous
 62
     7
370
    18
100
AcDbLine
 10
17.7770582316
 20
410.2089283994
 30
0.0
 11
11.4270582316
 21
410.2089283994
 31
0.0
  0
LINE
  5
E8
330
1F
100
AcDbEntity
  8
0
  6
Continuous
 62
     7
370
    18
100
AcDbLine
 10
17.7770582316
 20
279.3989283994
 30
0.0
 11
14.6020582316
 21
281.232015504
 31
0.0
  0
LINE
  5
E9
330
1F
100
AcDbEntity
  8
0
  6
Continuous
 62
     7
370
    18
100
AcDbLine
 10
14.6020582316
 20
281.232015504
 30
0.0
 11
14.6020582316
 21
277.5658412947
 31
0.0
  0
LINE
  5
EA
330
1F
100
AcDbEntity
  8
0
  6
Continuous
 62
     7
370
    18
100
AcDbLine
 10
14.6020582316
 20
277.5658412947
 30
0.0
 11
17.7770582316
 21
279.3989283994
 31
0.0
  0
LINE
  5
EB
330
1F
100
AcDbEntity
  8
0
  6
Continuous
 62
     7
370
    18
100
AcDbLine
 10
431.7970582316
 20
541.0189283994
 30
0.0
 11
431.7970582316
 21
547.3689283994
 31
0.0
  0
LINE
  5
EC
330
1F
100
AcDbEntity
  8
0
  6
Continuous
 62
     7
370
    18
100
AcDbLine
 10
328.2920582316
 20
541.0189283994
 30
0.0
 11
328.2920582316
 21
547.3689283994
 31
0.0
  0
LINE
  5
ED
330
1F
100
AcDbEntity
  8
0
  6
Continuous
 62
     7
370
    18
100
AcDbLine
 10
224.7870582316
 20
541.0189283994
 30
0.0
 11
224.7870582316
 21
547.3689283994
 31
0.0
  0
LINE
  5
EE
330
1F
100
AcDbEntity
  8
0
  6
Continuous
 62
     7
370
    18
100
AcDbLine
 10
121.2820582316
 20
541.0189283994
 30
0.0
 11
121.2820582316
 21
547.3689283994
 31
0.0
  0
LINE
  5
EF
330
1F
100
AcDbEntity
  8
0
  6
Continuous
 62
     7
370
    18
100
AcDbLine
 10
648.9300065611
 20
21.2536503539
 30
0.0
 11
656.5500065611
 21
19.9836503539
 31
0.0
  0
LINE
  5
F0
330
1F
100
AcDbEntity
  8
0
  6
Continuous
 62
     7
370
    18
100
AcDbLine
 10
648.9300065611
 20
23.7936503539
 30
0.0
 11
656.5500065611
 21
25.0636503539
 31
0.0
  0
LINE
  5
F1
330
1F
100
AcDbEntity
  8
0
  6
CENTER
 62
     7
370
    18
100
AcDbLine
 10
640.5581665611
 20
22.5236503539
 30
0.0
 11
647.1418465611
 21
22.5236503539
 31
0.0
  0
LINE
  5
F2
330
1F
100
AcDbEntity
  8
0
  6
CENTER
 62
     7
370
    18
100
AcDbLine
 10
643.8500065611
 20
19.2318103539
 30
0.0
 11
643.8500065611
 21
25.8154903539
 31
0.0
  0
LINE
  5
F3
330
1F
100
AcDbEntity
  8
0
  6
Continuous
 62
     7
370
    18
100
AcDbLine
 10
591.8170582316
 20
26.9229283994
 30
0.0
 11
658.7200825955
 21
26.9229283994
 31
0.0
  0
LINE
  5
F4
330
1F
100
AcDbEntity
  8
0
  6
Continuous
 62
     7
370
    18
100
AcDbLine
 10
591.8170582316
 20
36.0669283994
 30
0.0
 11
658.7200825955
 21
36.0669283994
 31
0.0
  0
LINE
  5
F5
330
1F
100
AcDbEntity
  8
0
  6
Continuous
 62
     7
370
    18
100
AcDbLine
 10
431.7970582316
 20
17.7789283994
 30
0.0
 11
431.7970582316
 21
11.4289283994
 31
0.0
  0
LINE
  5
F6
330
1F
100
AcDbEntity
  8
0
  6
Continuous
 62
     7
370
    18
100
AcDbLine
 10
431.7970582316
 20
17.7789283994
 30
0.0
 11
433.6301453363
 21
14.6039283994
 31
0.0
  0
LINE
  5
F7
330
1F
100
AcDbEntity
  8
0
  6
Continuous
 62
     7
370
    18
100
AcDbLine
 10
431.7970582316
 20
17.7789283994
 30
0.0
 11
429.963971127
 21
14.6039283994
 31
0.0
  0
LINE
  5
F8
330
1F
100
AcDbEntity
  8
0
  6
Continuous
 62
     7
370
    18
100
AcDbLine
 10
433.6301453363
 20
14.6039283994
 30
0.0
 11
429.963971127
 21
14.6039283994
 31
0.0
  0
LINE
  5
F9
330
1F
100
AcDbEntity
  8
0
  6
Continuous
 62
     7
370
    18
100
AcDbLine
 10
591.8170582316
 20
45.2109283994
 30
0.0
 11
658.7200825955
 21
45.2109283994
 31
0.0
  0
LINE
  5
FA
330
1F
100
AcDbEntity
  8
0
  6
Continuous
 62
     7
370
    18
100
AcDbLine
 10
648.9300065611
 20
23.7936503539
 30
0.0
 11
648.9300065611
 21
21.2536503539
 31
0.0
  0
LINE
  5
FB
330
1F
100
AcDbEntity
  8
0
  6
Continuous
 62
     7
370
    18
100
AcDbLine
 10
17.7770582316
 20
517.5004279921
 30
0.0
 11
149.8753518325
 21
517.5004279921
 31
0.0
  0
LINE
  5
FC
330
1F
100
AcDbEntity
  8
0
  6
Continuous
 62
     7
370
    18
100
AcDbLine
 10
149.8753518325
 20
541.0189283994
 30
0.0
 11
149.8753518325
 21
517.5004279921
 31
0.0
  0
LINE
  5
FD
330
1F
100
AcDbEntity
  8
0
  6
Continuous
 62
     7
370
    18
100
AcDbLine
 10
656.5500065611
 20
25.0636503539
 30
0.0
 11
656.5500065611
 21
19.9836503539
 31
0.0
  0
LINE
  5
FE
330
1F
100
AcDbEntity
  8
0
  6
Continuous
 62
     7
370
    18
100
AcDbLine
 10
824.7215725591
 20
36.8289283994
 30
0.0
 11
824.7215725591
 21
24.1289283994
 31
0.0
  0
CIRCLE
  5
FF
330
1F
100
AcDbEntity
  8
0
  6
Continuous
 62
     7
370
    18
100
AcDbCircle
 10
643.8500065611
 20
22.5236503539
 30
0.0
 40
2.539999999999736
  0
CIRCLE
  5
100
330
1F
100
AcDbEntity
  8
0
  6
Continuous
 62
     7
370
    18
100
AcDbCircle
 10
643.8500065611
 20
22.5236503539
 30
0.0
 40
1.269999999999868
  0
INSERT
  5
101
330
1F
100
AcDbEntity
  8
0
  6
Continuous
 62
     7
100
AcDbBlockReference
  2
QSC Logo
 10
731.1249168009
 20
79.6579217153
 30
0.0
 41
0.8
 42
0.8
 43
0.8
  0
INSERT
  5
110
330
1F
100
AcDbEntity
  8
0
  6
Continuous
 62
     7
370
     0
100
AcDbBlockReference
  2
SW_NOTE_0
 10
51.4652010995
 20
495.3703591105
 30
0.0
  0
MTEXT
  5
111
330
1F
100
AcDbEntity
  8
SLD-0
100
AcDbMText
 10
414.4431847792
 20
40.9077062878
 30
0.0
 40
10.5833333333
 41
0.0
 71
     2
 72
     1
  1
TOUCHSCREEN CONTROLLER
  7
SLDTEXTSTYLE0
 73
     1
 44
1.0
  0
INSERT
  5
11D
330
1F
100
AcDbEntity
  8
0
  6
Continuous
 62
     7
370
     0
100
AcDbBlockReference
  2
SW_NOTE_0_1
 10
19.7731701097
 20
536.0083426113
 30
0.0
  0
MTEXT
  5
11E
330
1F
100
AcDbEntity
  8
0
  6
Continuous
 62
     7
370
     0
100
AcDbMText
 10
832.1383823192
 20
36.1262826977
 30
0.0
 40
2.6458333333
 41
0.0
 71
     1
 72
     1
  1
REV
  7
SLDTEXTSTYLE0
 73
     1
 44
1.0
  0
MTEXT
  5
11F
330
1F
100
AcDbEntity
  8
0
  6
Continuous
 62
     7
370
     0
100
AcDbMText
 10
845.4050977242
 20
13.9900278999
 30
0.0
 40
2.0
 41
0.0
 71
     3
 72
     1
  1
Form: QMS100206 Rev D
  7
SLDTEXTSTYLE0
 73
     1
 44
1.0
  0
MTEXT
  5
120
330
1F
100
AcDbEntity
  8
0
  6
Continuous
 62
     7
370
     0
100
AcDbMText
 10
28.2143331634
 20
514.3100768614
 30
0.0
 40
4.7625
 41
0.0
 71
     1
 72
     1
  1
NOTES: UNLESS OTHERWISE SPECIFIED
  7
SLDTEXTSTYLE0
 73
     1
 44
1.0
  0
MTEXT
  5
122
330
1F
100
AcDbEntity
  8
0
  6
Continuous
 62
     7
370
     0
100
AcDbMText
 10
783.6845070818
 20
92.1745689395
 30
0.0
 40
5.08
 41
0.0
 71
     1
 72
     1
  1
QSC, LLC
  7
SLDTEXTSTYLE3
 73
     1
 44
1.0
  0
INSERT
  5
128
330
1F
100
AcDbEntity
  8
0
  6
Continuous
 62
     7
370
     0
100
AcDbBlockReference
  2
SW_NOTE_0_2
 10
783.6845070818
 20
81.095747344
 30
0.0
  0
MTEXT
  5
129
330
1F
100
AcDbEntity
  8
0
  6
Continuous
 62
     7
370
     0
100
AcDbMText
 10
741.3571915747
 20
30.4677761734
 30
0.0
 40
3.7041666667
 41
0.0
 71
     1
 72
     1
  1
00PW4
  7
SLDTEXTSTYLE0
 73
     1
 44
1.0
  0
MTEXT
  5
12A
330
1F
100
AcDbEntity
  8
0
  6
Continuous
 62
     7
370
     0
100
AcDbMText
 10
738.5219100019
 20
35.7710989182
 30
0.0
 40
2.6458333333
 41
0.0
 71
     1
 72
     1
  1
CAGE CODE
  7
SLDTEXTSTYLE0
 73
     1
 44
1.0
  0
MTEXT
  5
12B
330
1F
100
AcDbEntity
  8
0
  6
Continuous
 62
     7
370
     0
100
AcDbMText
 10
274.9044892463
 20
546.7165399178
 30
0.0
 40
4.7625
 41
0.0
 71
     1
 72
     1
  1
6
  7
SLDTEXTSTYLE0
 73
     1
 44
1.0
  0
MTEXT
  5
12C
330
1F
100
AcDbEntity
  8
0
  6
Continuous
 62
     7
370
     0
100
AcDbMText
 10
660.9163968145
 20
50.378017964
 30
0.0
 40
3.175
 41
0.0
 71
     1
 72
     1
  1
T.GOSSARD
  7
SLDTEXTSTYLE0
 73
     1
 44
1.0
  0
MTEXT
  5
12D
330
1F
100
AcDbEntity
  8
0
  6
Continuous
 62
     7
370
     0
100
AcDbMText
 10
611.4579743728
 20
43.0576026341
 30
0.0
 40
4.572
 41
0.0
 71
     1
 72
     1
  1
SEE NOTES
  7
SLDTEXTSTYLE0
 73
     1
 44
1.0
  0
MTEXT
  5
12E
330
1F
100
AcDbEntity
  8
0
  6
Continuous
 62
     7
370
     0
100
AcDbMText
 10
769.6293302907
 20
21.8437228263
 30
0.0
 40
2.54
 41
0.0
 71
     1
 72
     1
  1
 FG-901372-2D
  7
SLDTEXTSTYLE0
 73
     1
 44
1.0
  0
MTEXT
  5
12F
330
1F
100
AcDbEntity
  8
0
  6
Continuous
 62
     7
370
     0
100
AcDbMText
 10
611.4579743728
 20
52.4912053254
 30
0.0
 40
4.572
 41
0.0
 71
     1
 72
     1
  1
SEE NOTES
  7
SLDTEXTSTYLE0
 73
     1
 44
1.0
  0
MTEXT
  5
130
330
1F
100
AcDbEntity
  8
0
  6
Continuous
 62
     7
370
     0
100
AcDbMText
 10
663.8567271759
 20
92.0594469861
 30
0.0
 40
3.175
 41
0.0
 71
     1
 72
     1
  1
CAD GENERATED DRAWING
  7
SLDTEXTSTYLE0
 73
     1
 44
1.0
  0
MTEXT
  5
131
330
1F
100
AcDbEntity
  8
0
  6
Continuous
 62
     7
370
     0
100
AcDbMText
 10
664.1936149874
 20
86.0966599894
 30
0.0
 40
3.175
 41
0.0
 71
     1
 72
     1
  1
DO  NOT  MANUALLY  UPDATE
  7
SLDTEXTSTYLE0
 73
     1
 44
1.0
  0
MTEXT
  5
132
330
1F
100
AcDbEntity
  8
0
  6
Continuous
 62
     7
370
     0
100
AcDbMText
 10
595.2190951974
 20
92.0594469861
 30
0.0
 40
3.175
 41
0.0
 71
     1
 72
     1
  1
UNLESS  OTHERWISE  SPECIFIED
  7
SLDTEXTSTYLE0
 73
     1
 44
1.0
  0
MTEXT
  5
133
330
1F
100
AcDbEntity
  8
0
  6
Continuous
 62
     7
370
     0
100
AcDbMText
 10
595.5635604058
 20
86.0966599894
 30
0.0
 40
3.175
 41
0.0
 71
     1
 72
     1
  1
DIMENSIONS  ARE  IN  MM [IN]
  7
SLDTEXTSTYLE0
 73
     1
 44
1.0
  0
MTEXT
  5
134
330
1F
100
AcDbEntity
  8
0
  6
Continuous
 62
     7
370
     0
100
AcDbMText
 10
847.5215828392
 20
85.9414361542
 30
0.0
 40
4.7625
 41
0.0
 71
     1
 72
     1
  1
A
  7
SLDTEXTSTYLE0
 73
     1
 44
1.0
  0
MTEXT
  5
135
330
1F
100
AcDbEntity
  8
0
  6
Continuous
 62
     7
370
     0
100
AcDbMText
 10
848.5673279065
 20
216.6712265686
 30
0.0
 40
4.7625
 41
0.0
 71
     1
 72
     1
  1
B
  7
SLDTEXTSTYLE0
 73
     1
 44
1.0
  0
MTEXT
  5
136
330
1F
100
AcDbEntity
  8
0
  6
Continuous
 62
     7
370
     0
100
AcDbMText
 10
847.1136724834
 20
347.601157245
 30
0.0
 40
4.7625
 41
0.0
 71
     1
 72
     1
  1
C
  7
SLDTEXTSTYLE0
 73
     1
 44
1.0
  0
MTEXT
  5
137
330
1F
100
AcDbEntity
  8
0
  6
Continuous
 62
     7
370
     0
100
AcDbMText
 10
847.6406414995
 20
478.3100785054
 30
0.0
 40
4.7625
 41
0.0
 71
     1
 72
     1
  1
D
  7
SLDTEXTSTYLE0
 73
     1
 44
1.0
  0
MTEXT
  5
138
330
1F
100
AcDbEntity
  8
0
  6
Continuous
 62
     7
370
     0
100
AcDbMText
 10
792.5830446789
 20
546.7940520172
 30
0.0
 40
4.7625
 41
0.0
 71
     1
 72
     1
  1
1
  7
SLDTEXTSTYLE0
 73
     1
 44
1.0
  0
MTEXT
  5
139
330
1F
100
AcDbEntity
  8
0
  6
Continuous
 62
     7
370
     0
100
AcDbMText
 10
688.894906649
 20
546.7526281102
 30
0.0
 40
4.7625
 41
0.0
 71
     1
 72
     1
  1
2
  7
SLDTEXTSTYLE0
 73
     1
 44
1.0
  0
MTEXT
  5
13A
330
1F
100
AcDbEntity
  8
0
  6
Continuous
 62
     7
370
     0
100
AcDbMText
 10
585.3611054217
 20
546.6471015398
 30
0.0
 40
4.7625
 41
0.0
 71
     1
 72
     1
  1
3
  7
SLDTEXTSTYLE0
 73
     1
 44
1.0
  0
MTEXT
  5
13B
330
1F
100
AcDbEntity
  8
0
  6
Continuous
 62
     7
370
     0
100
AcDbMText
 10
481.9144239716
 20
546.6593937128
 30
0.0
 40
4.7625
 41
0.0
 71
     1
 72
     1
  1
4
  7
SLDTEXTSTYLE0
 73
     1
 44
1.0
  0
MTEXT
  5
13C
330
1F
100
AcDbEntity
  8
0
  6
Continuous
 62
     7
370
     0
100
AcDbMText
 10
378.4264775994
 20
546.6423769039
 30
0.0
 40
4.7625
 41
0.0
 71
     1
 72
     1
  1
5
  7
SLDTEXTSTYLE0
 73
     1
 44
1.0
  0
MTEXT
  5
13D
330
1F
100
AcDbEntity
  8
0
  6
Continuous
 62
     7
370
     0
100
AcDbMText
 10
171.5249301416
 20
546.8422076892
 30
0.0
 40
4.7625
 41
0.0
 71
     1
 72
     1
  1
7
  7
SLDTEXTSTYLE0
 73
     1
 44
1.0
  0
MTEXT
  5
13E
330
1F
100
AcDbEntity
  8
0
  6
Continuous
 62
     7
370
     0
100
AcDbMText
 10
660.9163968145
 20
36.291216444
 30
0.0
 40
3.175
 41
0.0
 71
     1
 72
     1
  1
D.HOCH
  7
SLDTEXTSTYLE0
 73
     1
 44
1.0
  0
MTEXT
  5
13F
330
1F
100
AcDbEntity
  8
0
  6
Continuous
 62
     7
370
     0
100
AcDbMText
 10
660.9163968145
 20
22.9772361569
 30
0.0
 40
3.175
 41
0.0
 71
     1
 72
     1
  1
T.MORGAN
  7
SLDTEXTSTYLE0
 73
     1
 44
1.0
  0
MTEXT
  5
140
330
1F
100
AcDbEntity
  8
0
  6
Continuous
 62
     7
370
     0
100
AcDbMText
 10
660.9163968145
 20
63.6534242981
 30
0.0
 40
3.175
 41
0.0
 71
     1
 72
     1
  1
S. STASIAK
  7
SLDTEXTSTYLE0
 73
     1
 44
1.0
  0
MTEXT
  5
141
330
1F
100
AcDbEntity
  8
0
  6
Continuous
 62
     7
370
     0
100
AcDbMText
 10
793.1702789326
 20
32.047807006
 30
0.0
 40
6.35
 41
0.0
 71
     2
 72
     1
  1
FG-901372-2D
  7
SLDTEXTSTYLE0
 73
     1
 44
1.0
  0
MTEXT
  5
142
330
1F
100
AcDbEntity
  8
0
  6
Continuous
 62
     7
370
     0
100
AcDbMText
 10
823.5592003829
 20
23.0161842784
 30
0.0
 40
3.7041666667
 41
0.0
 71
     1
 72
     1
  1
1  OF  2
  7
SLDTEXTSTYLE0
 73
     1
 44
1.0
  0
MTEXT
  5
143
330
1F
100
AcDbEntity
  8
0
  6
Continuous
 62
     7
370
     0
100
AcDbMText
 10
746.7323009597
 20
22.8437594925
 30
0.0
 40
3.556
 41
0.0
 71
     2
 72
     1
  1
1:2
  7
SLDTEXTSTYLE0
 73
     1
 44
1.0
  0
MTEXT
  5
144
330
1F
100
AcDbEntity
  8
0
  6
Continuous
 62
     7
370
     0
100
AcDbMText
 10
682.1772990516
 20
75.3103156625
 30
0.0
 40
2.6458333333
 41
0.0
 71
     1
 72
     1
  1
APPROVALS
  7
SLDTEXTSTYLE0
 73
     1
 44
1.0
  0
MTEXT
  5
145
330
1F
100
AcDbEntity
  8
0
  6
Continuous
 62
     7
370
     0
100
AcDbMText
 10
592.7354064203
 20
24.8393822778
 30
0.0
 40
3.175
 41
0.0
 71
     1
 72
     1
  1
PROJECTION SYMBOL
  7
SLDTEXTSTYLE0
 73
     1
 44
1.0
  0
INSERT
  5
14C
330
1F
100
AcDbEntity
  8
0
  6
Continuous
 62
     7
370
     0
100
AcDbBlockReference
  2
SW_NOTE_0_3
 10
638.2468476512
 20
61.8160885603
 30
0.0
  0
INSERT
  5
155
330
1F
100
AcDbEntity
  8
0
  6
Continuous
 62
     7
370
     0
100
AcDbBlockReference
  2
SW_NOTE_0_4
 10
597.9698078925
 20
61.8160885603
 30
0.0
  0
MTEXT
  5
156
330
1F
100
AcDbEntity
  8
0
  6
Continuous
 62
     7
370
     0
100
AcDbMText
 10
67.944147644
 20
546.6480712239
 30
0.0
 40
4.7625
 41
0.0
 71
     1
 72
     1
  1
8
  7
SLDTEXTSTYLE0
 73
     1
 44
1.0
  0
INSERT
  5
15C
330
1F
100
AcDbEntity
  8
0
  6
Continuous
 62
     7
370
     0
100
AcDbBlockReference
  2
SW_NOTE_0_5
 10
744.3108063886
 20
62.0873525553
 30
0.0
  0
MTEXT
  5
15D
330
1F
100
AcDbEntity
  8
0
  6
Continuous
 62
     7
370
     0
100
AcDbMText
 10
835.0890379196
 20
32.1777370848
 30
0.0
 40
6.35
 41
0.0
 71
     2
 72
     1
  1
A
  7
SLDTEXTSTYLE0
 73
     1
 44
1.0
  0
MTEXT
  5
15E
330
1F
100
AcDbEntity
  8
0
  6
Continuous
 62
     7
370
     0
100
AcDbMText
 10
67.7761843366
 20
16.7592836782
 30
0.0
 40
4.7625
 41
0.0
 71
     1
 72
     1
  1
8
  7
SLDTEXTSTYLE0
 73
     1
 44
1.0
  0
MTEXT
  5
15F
330
1F
100
AcDbEntity
  8
0
  6
Continuous
 62
     7
370
     0
100
AcDbMText
 10
171.3588469983
 20
16.8315671061
 30
0.0
 40
4.7625
 41
0.0
 71
     1
 72
     1
  1
7
  7
SLDTEXTSTYLE0
 73
     1
 44
1.0
  0
MTEXT
  5
160
330
1F
100
AcDbEntity
  8
0
  6
Continuous
 62
     7
370
     0
100
AcDbMText
 10
274.8985307608
 20
16.9129951712
 30
0.0
 40
4.7625
 41
0.0
 71
     1
 72
     1
  1
6
  7
SLDTEXTSTYLE0
 73
     1
 44
1.0
  0
MTEXT
  5
161
330
1F
100
AcDbEntity
  8
0
  6
Continuous
 62
     7
370
     0
100
AcDbMText
 10
378.4160175024
 20
16.7716636708
 30
0.0
 40
4.7625
 41
0.0
 71
     1
 72
     1
  1
5
  7
SLDTEXTSTYLE0
 73
     1
 44
1.0
  0
MTEXT
  5
162
330
1F
100
AcDbEntity
  8
0
  6
Continuous
 62
     7
370
     0
100
AcDbMText
 10
481.8362164345
 20
16.8241970873
 30
0.0
 40
4.7625
 41
0.0
 71
     1
 72
     1
  1
4
  7
SLDTEXTSTYLE0
 73
     1
 44
1.0
  0
MTEXT
  5
163
330
1F
100
AcDbEntity
  8
0
  6
Continuous
 62
     7
370
     0
100
AcDbMText
 10
585.2668238139
 20
16.7624653566
 30
0.0
 40
4.7625
 41
0.0
 71
     1
 72
     1
  1
3
  7
SLDTEXTSTYLE0
 73
     1
 44
1.0
  0
MTEXT
  5
164
330
1F
100
AcDbEntity
  8
0
  6
Continuous
 62
     7
370
     0
100
AcDbMText
 10
688.8634389669
 20
16.8679362557
 30
0.0
 40
4.7625
 41
0.0
 71
     1
 72
     1
  1
2
  7
SLDTEXTSTYLE0
 73
     1
 44
1.0
  0
MTEXT
  5
165
330
1F
100
AcDbEntity
  8
0
  6
Continuous
 62
     7
370
     0
100
AcDbMText
 10
792.3915769235
 20
16.7025094057
 30
0.0
 40
4.7625
 41
0.0
 71
     1
 72
     1
  1
1
  7
SLDTEXTSTYLE0
 73
     1
 44
1.0
  0
MTEXT
  5
166
330
1F
100
AcDbEntity
  8
0
  6
Continuous
 62
     7
370
     0
100
AcDbMText
 10
596.3851348475
 20
33.1835015171
 30
0.0
 40
3.175
 41
0.0
 71
     1
 72
     1
  1
DO  NOT  SCALE  DRAWING
  7
SLDTEXTSTYLE0
 73
     1
 44
1.0
  0
MTEXT
  5
167
330
1F
100
AcDbEntity
  8
0
  6
Continuous
 62
     7
370
     0
100
AcDbMText
 10
592.8448218548
 20
44.0912828052
 30
0.0
 40
2.6458333333
 41
0.0
 71
     1
 72
     1
  1
FINISH
  7
SLDTEXTSTYLE0
 73
     1
 44
1.0
  0
MTEXT
  5
168
330
1F
100
AcDbEntity
  8
0
  6
Continuous
 62
     7
370
     0
100
AcDbMText
 10
592.6633205219
 20
53.1953724323
 30
0.0
 40
2.6458333333
 41
0.0
 71
     1
 72
     1
  1
MATERIAL
  7
SLDTEXTSTYLE0
 73
     1
 44
1.0
  0
MTEXT
  5
169
330
1F
100
AcDbEntity
  8
0
  6
Continuous
 62
     7
370
     0
100
AcDbMText
 10
601.6886717457
 20
71.6714992177
 30
0.0
 40
2.6458333333
 41
0.0
 71
     1
 72
     1
  1
DECIMALS                 ANGLES
  7
SLDTEXTSTYLE0
 73
     1
 44
1.0
  0
MTEXT
  5
16A
330
1F
100
AcDbEntity
  8
0
  6
Continuous
 62
     7
370
     0
100
AcDbMText
 10
595.7579078884
 20
79.9530029733
 30
0.0
 40
3.175
 41
0.0
 71
     1
 72
     1
  1
TOLERANCES  ARE:
  7
SLDTEXTSTYLE0
 73
     1
 44
1.0
  0
MTEXT
  5
16B
330
1F
100
AcDbEntity
  8
0
  6
Continuous
 62
     7
370
     0
100
AcDbMText
 10
660.9163968145
 20
29.5712043791
 30
0.0
 40
2.6458333333
 41
0.0
 71
     1
 72
     1
  1
MFG ENGINEER
  7
SLDTEXTSTYLE0
 73
     1
 44
1.0
  0
MTEXT
  5
16C
330
1F
100
AcDbEntity
  8
0
  6
Continuous
 62
     7
370
     0
100
AcDbMText
 10
660.9163968145
 20
43.2161066649
 30
0.0
 40
2.6458333333
 41
0.0
 71
     1
 72
     1
  1
TECH DIRECTOR
  7
SLDTEXTSTYLE0
 73
     1
 44
1.0
  0
MTEXT
  5
16D
330
1F
100
AcDbEntity
  8
0
  6
Continuous
 62
     7
370
     0
100
AcDbMText
 10
660.9163968145
 20
56.6450739991
 30
0.0
 40
2.6458333333
 41
0.0
 71
     1
 72
     1
  1
MECH ENGINEER
  7
SLDTEXTSTYLE0
 73
     1
 44
1.0
  0
MTEXT
  5
16E
330
1F
100
AcDbEntity
  8
0
  6
Continuous
 62
     7
370
     0
100
AcDbMText
 10
660.9163968145
 20
70.3327149453
 30
0.0
 40
2.6458333333
 41
0.0
 71
     1
 72
     1
  1
DRAWN BY
  7
SLDTEXTSTYLE0
 73
     1
 44
1.0
  0
MTEXT
  5
16F
330
1F
100
AcDbEntity
  8
0
  6
Continuous
 62
     7
370
     0
100
AcDbMText
 10
811.8237811206
 20
23.008513856
 30
0.0
 40
2.6458333333
 41
0.0
 71
     1
 72
     1
  1
SHEET:
  7
SLDTEXTSTYLE0
 73
     1
 44
1.0
  0
MTEXT
  5
170
330
1F
100
AcDbEntity
  8
0
  6
Continuous
 62
     7
370
     0
100
AcDbMText
 10
731.1971915747
 20
30.4677761734
 30
0.0
 40
3.7041666667
 41
0.0
 71
     1
 72
     1
  1
B
  7
SLDTEXTSTYLE0
 73
     1
 44
1.0
  0
MTEXT
  5
171
330
1F
100
AcDbEntity
  8
0
  6
Continuous
 62
     7
370
     0
100
AcDbMText
 10
762.8747160102
 20
35.7710989182
 30
0.0
 40
2.6458333333
 41
0.0
 71
     1
 72
     1
  1
DWG.  NO.
  7
SLDTEXTSTYLE0
 73
     1
 44
1.0
  0
MTEXT
  5
172
330
1F
100
AcDbEntity
  8
0
  6
Continuous
 62
     7
370
     0
100
AcDbMText
 10
752.8418251795
 20
23.008513856
 30
0.0
 40
2.6458333333
 41
0.0
 71
     1
 72
     1
  1
CAD FILE:
  7
SLDTEXTSTYLE0
 73
     1
 44
1.0
  0
MTEXT
  5
173
330
1F
100
AcDbEntity
  8
0
  6
Continuous
 62
     7
370
     0
100
AcDbMText
 10
729.3779100019
 20
35.7710989182
 30
0.0
 40
2.6458333333
 41
0.0
 71
     1
 72
     1
  1
SIZE
  7
SLDTEXTSTYLE0
 73
     1
 44
1.0
  0
MTEXT
  5
174
330
1F
100
AcDbEntity
  8
0
  6
Continuous
 62
     7
370
     0
100
AcDbMText
 10
729.6544009966
 20
23.008513856
 30
0.0
 40
2.6458333333
 41
0.0
 71
     1
 72
     1
  1
SCALE:  
  7
SLDTEXTSTYLE0
 73
     1
 44
1.0
  0
MTEXT
  5
175
330
1F
100
AcDbEntity
  8
0
  6
Continuous
 62
     7
370
     0
100
AcDbMText
 10
11.4696716321
 20
478.4508072522
 30
0.0
 40
4.7625
 41
0.0
 71
     1
 72
     1
  1
D
  7
SLDTEXTSTYLE0
 73
     1
 44
1.0
  0
MTEXT
  5
176
330
1F
100
AcDbEntity
  8
0
  6
Continuous
 62
     7
370
     0
100
AcDbMText
 10
11.4794853763
 20
347.6322123788
 30
0.0
 40
4.7625
 41
0.0
 71
     1
 72
     1
  1
C
  7
SLDTEXTSTYLE0
 73
     1
 44
1.0
  0
MTEXT
  5
177
330
1F
100
AcDbEntity
  8
0
  6
Continuous
 62
     7
370
     0
100
AcDbMText
 10
11.4785739269
 20
216.8638453104
 30
0.0
 40
4.7625
 41
0.0
 71
     1
 72
     1
  1
B
  7
SLDTEXTSTYLE0
 73
     1
 44
1.0
  0
MTEXT
  5
178
330
1F
100
AcDbEntity
  8
0
  6
Continuous
 62
     7
370
     0
100
AcDbMText
 10
11.4973888207
 20
86.1195570852
 30
0.0
 40
4.7625
 41
0.0
 71
     1
 72
     1
  1
A
  7
SLDTEXTSTYLE0
 73
     1
 44
1.0
  0
INSERT
  5
1A1
330
1F
100
AcDbEntity
  8
SLD-0
100
AcDbBlockReference
  2
SW_TABLEANNOTATION_0
 10
560.0055092103
 20
541.0189283994
 30
0.0
  0
ARC
  5
1A2
330
1F
100
AcDbEntity
  8
0
  6
Continuous
 62
     7
370
    25
100
AcDbCircle
 10
133.7774249835
 20
154.9045523901
 30
0.0
 40
3.564278654170693
100
AcDbArc
 50
179.9999999992
 51
270.0
  0
LINE
  5
1A3
330
1F
100
AcDbEntity
  8
0
  6
Continuous
 62
     7
370
    25
100
AcDbLine
 10
130.2131463293
 20
154.9045523901
 30
0.0
 11
130.2131463293
 21
261.5845523901
 31
0.0
  0
LINE
  5
1A4
330
1F
100
AcDbEntity
  8
0
  6
Continuous
 62
     7
370
    25
100
AcDbLine
 10
310.2574249835
 20
151.340273736
 30
0.0
 11
133.7774249835
 21
151.340273736
 31
0.0
  0
LINE
  5
1A5
330
1F
100
AcDbEntity
  8
0
  6
Continuous
 62
     7
370
    25
100
AcDbLine
 10
313.8217036377
 20
261.5845523901
 30
0.0
 11
313.8217036377
 21
154.9045523901
 31
0.0
  0
LINE
  5
1A6
330
1F
100
AcDbEntity
  8
0
  6
Continuous
 62
     7
370
    25
100
AcDbLine
 10
133.7774249835
 20
265.1488310443
 30
0.0
 11
310.2574249835
 21
265.1488310443
 31
0.0
  0
ARC
  5
1A7
330
1F
100
AcDbEntity
  8
0
  6
Continuous
 62
     7
370
    25
100
AcDbCircle
 10
310.2574249835
 20
154.9045523901
 30
0.0
 40
3.564278654150257
100
AcDbArc
 50
270.0
 51
0.0000000001
  0
LINE
  5
1A8
330
1F
100
AcDbEntity
  8
0
  6
Continuous
 62
     7
370
    25
100
AcDbLine
 10
146.2574249835
 20
160.7445523765
 30
0.0
 11
297.7774249835
 21
160.7445523765
 31
0.0
  0
LINE
  5
1A9
330
1F
100
AcDbEntity
  8
0
  6
Continuous
 62
     7
370
    25
100
AcDbLine
 10
297.7774249835
 20
160.7445523765
 30
0.0
 11
297.7774249835
 21
255.7445523765
 31
0.0
  0
LINE
  5
1AA
330
1F
100
AcDbEntity
  8
0
  6
Continuous
 62
     7
370
    25
100
AcDbLine
 10
297.7774249835
 20
255.7445523765
 30
0.0
 11
146.2574249835
 21
255.7445523765
 31
0.0
  0
LINE
  5
1AB
330
1F
100
AcDbEntity
  8
0
  6
Continuous
 62
     7
370
    25
100
AcDbLine
 10
146.2574249835
 20
255.7445523765
 30
0.0
 11
146.2574249835
 21
160.7445523765
 31
0.0
  0
ARC
  5
1AC
330
1F
100
AcDbEntity
  8
0
  6
Continuous
 62
     7
370
    25
100
AcDbCircle
 10
310.2574249835
 20
261.5845523901
 30
0.0
 40
3.564278654170835
100
AcDbArc
 50
0.000000001
 51
90.0
  0
ARC
  5
1AD
330
1F
100
AcDbEntity
  8
0
  6
Continuous
 62
     7
370
    25
100
AcDbCircle
 10
133.7774249835
 20
261.5845523901
 30
0.0
 40
3.564278654171432
100
AcDbArc
 50
90.0
 51
180.0
  0
SPLINE
  5
1AE
330
1F
100
AcDbEntity
  8
0
  6
Continuous
 62
     7
370
    25
100
AcDbSpline
210
0.0
220
0.0
230
1.0
 70
     8
 71
     3
 72
    18
 73
    14
 74
     0
 42
0.00000001
 43
0.00000001
 40
0.0
 40
0.0
 40
0.0
 40
0.0
 40
0.2500000000000002
 40
0.2500000000000002
 40
0.3749999999999999
 40
0.3749999999999999
 40
0.4999999999999996
 40
0.4999999999999996
 40
0.6249999999999992
 40
0.6249999999999992
 40
0.7499999999999989
 40
0.7499999999999989
 40
1.0
 40
1.0
 40
1.0
 40
1.0
 10
134.017424983516
 20
266.0445523765311
 30
0.0
 10
133.3721945904674
 20
266.0445523765311
 30
0.0
 10
132.7473042059606
 20
265.9566601416697
 30
0.0
 10
131.8682773540277
 20
265.6493580578397
 30
0.0
 10
131.5854025490683
 20
265.517320037272
 30
0.0
 10
131.0546375396116
 20
265.1911873119319
 30
0.0
 10
130.8070954631447
 20
264.9969645559563
 30
0.0
 10
130.3650128040906
 20
264.5548818969034
 30
0.0
 10
130.1707900481199
 20
264.3073398204384
 30
0.0
 10
129.8446573227706
 20
263.7765748109765
 30
0.0
 10
129.7126193022039
 20
263.4937000060154
 30
0.0
 10
129.4053172183846
 20
262.6146731540953
 30
0.0
 10
129.317424983516
 20
261.9897827695735
 30
0.0
 10
129.317424983516
 20
261.3445523765312
 30
0.0
  0
LINE
  5
1AF
330
1F
100
AcDbEntity
  8
0
  6
Continuous
 62
     7
370
    25
100
AcDbLine
 10
222.0174249835
 20
266.0445523765
 30
0.0
 11
134.0174249835
 21
266.0445523765
 31
0.0
  0
LINE
  5
1B0
330
1F
100
AcDbEntity
  8
0
  6
Continuous
 62
     7
370
    25
100
AcDbLine
 10
222.0174249835
 20
266.0445523765
 30
0.0
 11
310.0174249835
 21
266.0445523765
 31
0.0
  0
SPLINE
  5
1B1
330
1F
100
AcDbEntity
  8
0
  6
Continuous
 62
     7
370
    25
100
AcDbSpline
210
0.0
220
0.0
230
1.0
 70
     8
 71
     3
 72
    18
 73
    14
 74
     0
 42
0.00000001
 43
0.00000001
 40
0.0
 40
0.0
 40
0.0
 40
0.0
 40
0.2500000000000002
 40
0.2500000000000002
 40
0.3749999999999999
 40
0.3749999999999999
 40
0.4999999999999996
 40
0.4999999999999996
 40
0.6249999999999992
 40
0.6249999999999992
 40
0.7499999999999989
 40
0.7499999999999989
 40
1.0
 40
1.0
 40
1.0
 40
1.0
 10
310.017424983516
 20
266.0445523765311
 30
0.0
 10
310.6626553765646
 20
266.0445523765311
 30
0.0
 10
311.2875457610714
 20
265.9566601416697
 30
0.0
 10
312.1665726130043
 20
265.6493580578397
 30
0.0
 10
312.4494474179637
 20
265.517320037272
 30
0.0
 10
312.9802124274204
 20
265.1911873119319
 30
0.0
 10
313.2277545038873
 20
264.9969645559563
 30
0.0
 10
313.6698371629414
 20
264.5548818969034
 30
0.0
 10
313.8640599189121
 20
264.3073398204384
 30
0.0
 10
314.1901926442615
 20
263.7765748109765
 30
0.0
 10
314.3222306648281
 20
263.4937000060154
 30
0.0
 10
314.6295327486474
 20
262.6146731540953
 30
0.0
 10
314.717424983516
 20
261.9897827695735
 30
0.0
 10
314.717424983516
 20
261.3445523765312
 30
0.0
  0
LINE
  5
1B2
330
1F
100
AcDbEntity
  8
0
  6
Continuous
 62
     7
370
    25
100
AcDbLine
 10
314.7174249835
 20
261.3445523765
 30
0.0
 11
314.7174249835
 21
208.2445523765
 31
0.0
  0
LINE
  5
1B3
330
1F
100
AcDbEntity
  8
0
  6
Continuous
 62
     7
370
    25
100
AcDbLine
 10
314.7174249835
 20
155.1445523765
 30
0.0
 11
314.7174249835
 21
208.2445523765
 31
0.0
  0
SPLINE
  5
1B4
330
1F
100
AcDbEntity
  8
0
  6
Continuous
 62
     7
370
    25
100
AcDbSpline
210
0.0
220
0.0
230
1.0
 70
     8
 71
     3
 72
    18
 73
    14
 74
     0
 42
0.00000001
 43
0.00000001
 40
0.0
 40
0.0
 40
0.0
 40
0.0
 40
0.2500000000000002
 40
0.2500000000000002
 40
0.3749999999999999
 40
0.3749999999999999
 40
0.4999999999999996
 40
0.4999999999999996
 40
0.6249999999999992
 40
0.6249999999999992
 40
0.7499999999999989
 40
0.7499999999999989
 40
1.0
 40
1.0
 40
1.0
 40
1.0
 10
310.017424983516
 20
150.4445523765311
 30
0.0
 10
310.6626553765646
 20
150.4445523765311
 30
0.0
 10
311.2875457610714
 20
150.5324446113926
 30
0.0
 10
312.1665726130043
 20
150.8397466952225
 30
0.0
 10
312.4494474179637
 20
150.9717847157903
 30
0.0
 10
312.9802124274204
 20
151.2979174411303
 30
0.0
 10
313.2277545038873
 20
151.4921401971061
 30
0.0
 10
313.6698371629414
 20
151.9342228561588
 30
0.0
 10
313.8640599189121
 20
152.1817649326239
 30
0.0
 10
314.1901926442615
 20
152.7125299420858
 30
0.0
 10
314.3222306648281
 20
152.9954047470469
 30
0.0
 10
314.6295327486474
 20
153.874431598967
 30
0.0
 10
314.717424983516
 20
154.4993219834888
 30
0.0
 10
314.717424983516
 20
155.1445523765311
 30
0.0
  0
LINE
  5
1B5
330
1F
100
AcDbEntity
  8
0
  6
Continuous
 62
     7
370
    25
100
AcDbLine
 10
222.0174249835
 20
150.4445523765
 30
0.0
 11
310.0174249835
 21
150.4445523765
 31
0.0
  0
LINE
  5
1B6
330
1F
100
AcDbEntity
  8
0
  6
Continuous
 62
     7
370
    25
100
AcDbLine
 10
222.0174249835
 20
150.4445523765
 30
0.0
 11
134.0174249835
 21
150.4445523765
 31
0.0
  0
SPLINE
  5
1B7
330
1F
100
AcDbEntity
  8
0
  6
Continuous
 62
     7
370
    25
100
AcDbSpline
210
0.0
220
0.0
230
1.0
 70
     8
 71
     3
 72
    18
 73
    14
 74
     0
 42
0.00000001
 43
0.00000001
 40
0.0
 40
0.0
 40
0.0
 40
0.0
 40
0.2500000000000002
 40
0.2500000000000002
 40
0.3749999999999999
 40
0.3749999999999999
 40
0.4999999999999996
 40
0.4999999999999996
 40
0.6249999999999992
 40
0.6249999999999992
 40
0.7499999999999989
 40
0.7499999999999989
 40
1.0
 40
1.0
 40
1.0
 40
1.0
 10
134.017424983516
 20
150.4445523765311
 30
0.0
 10
133.3721945904674
 20
150.4445523765311
 30
0.0
 10
132.7473042059606
 20
150.5324446113926
 30
0.0
 10
131.8682773540277
 20
150.8397466952225
 30
0.0
 10
131.5854025490683
 20
150.9717847157903
 30
0.0
 10
131.0546375396116
 20
151.2979174411303
 30
0.0
 10
130.8070954631447
 20
151.4921401971061
 30
0.0
 10
130.3650128040906
 20
151.9342228561588
 30
0.0
 10
130.1707900481199
 20
152.1817649326239
 30
0.0
 10
129.8446573227706
 20
152.7125299420858
 30
0.0
 10
129.7126193022039
 20
152.9954047470469
 30
0.0
 10
129.4053172183846
 20
153.874431598967
 30
0.0
 10
129.317424983516
 20
154.4993219834888
 30
0.0
 10
129.317424983516
 20
155.1445523765311
 30
0.0
  0
LINE
  5
1B8
330
1F
100
AcDbEntity
  8
0
  6
Continuous
 62
     7
370
    25
100
AcDbLine
 10
129.3174249835
 20
155.1445523765
 30
0.0
 11
129.3174249835
 21
208.2445523765
 31
0.0
  0
LINE
  5
1B9
330
1F
100
AcDbEntity
  8
0
  6
Continuous
 62
     7
370
    25
100
AcDbLine
 10
129.3174249835
 20
261.3445523765
 30
0.0
 11
129.3174249835
 21
208.2445523765
 31
0.0
  0
DIMENSION
  5
1BA
330
1F
100
AcDbEntity
  8
SLD-0
 62
     7
100
AcDbDimension
  2
_D
 10
109.3173999835
 20
150.4445523765
 30
0.0
 11
109.3173999835
 21
210.0993068574
 31
0.0
 70
   160
  1
<>
 71
     2
 42
-1.0
  3
SLDDIMSTYLE0
100
AcDbAlignedDimension
 13
134.0174249835
 23
266.0445523765
 33
0.0
 14
134.0174249835
 24
150.4445523765
 34
0.0
 50
90.0
100
AcDbRotatedDimension
  0
DIMENSION
  5
1CF
330
1F
100
AcDbEntity
  8
SLD-0
 62
     7
100
AcDbDimension
  2
_D_1
 10
314.7174249835
 20
286.0445773765
 30
0.0
 11
222.8171228058
 21
286.0445773765
 31
0.0
 70
   160
  1
<>
 71
     2
 42
-1.0
  3
SLDDIMSTYLE0
100
AcDbAlignedDimension
 13
129.3174249835
 23
261.3445523765
 33
0.0
 14
314.7174249835
 24
261.3445523765
 34
0.0
100
AcDbRotatedDimension
  0
LINE
  5
1E3
330
1F
100
AcDbEntity
  8
SLD-0
  6
CENTERX2
 62
     7
370
    18
100
AcDbLine
 10
312.6674249835
 20
150.9045523901
 30
0.0
 11
312.6674249835
 21
265.5845523901
 31
0.0
  0
LINE
  5
1E4
330
1F
100
AcDbEntity
  8
SLD-0
  6
CENTERX2
 62
     7
370
    18
100
AcDbLine
 10
129.7774249835
 20
152.4945523901
 30
0.0
 11
314.2574249835
 21
152.4945523901
 31
0.0
  0
LINE
  5
1E5
330
1F
100
AcDbEntity
  8
SLD-0
  6
CENTERX2
 62
     7
370
    18
100
AcDbLine
 10
131.3674249835
 20
265.5845523901
 30
0.0
 11
131.3674249835
 21
150.9045523901
 31
0.0
  0
LINE
  5
1E6
330
1F
100
AcDbEntity
  8
SLD-0
  6
CENTERX2
 62
     7
370
    18
100
AcDbLine
 10
314.2574249835
 20
263.9945523901
 30
0.0
 11
129.7774249835
 21
263.9945523901
 31
0.0
  0
LINE
  5
1E7
330
1F
100
AcDbEntity
  8
SLD-0
  6
CENTERX2
 62
     7
370
    18
100
AcDbLine
 10
222.0174249835
 20
259.7445523765
 30
0.0
 11
222.0174249835
 21
156.7445523765
 31
0.0
  0
LINE
  5
1E8
330
1F
100
AcDbEntity
  8
SLD-0
  6
CENTERX2
 62
     7
370
    18
100
AcDbLine
 10
142.2574249835
 20
208.2445523765
 30
0.0
 11
301.7774249835
 21
208.2445523765
 31
0.0
  0
SPLINE
  5
1E9
330
1F
100
AcDbEntity
  8
0
  6
Continuous
 62
     7
370
    25
100
AcDbSpline
210
0.0
220
0.0
230
1.0
 70
     8
 71
     3
 72
     8
 73
     4
 74
     0
 42
0.00000001
 43
0.00000001
 40
0.0
 40
0.0
 40
0.0
 40
0.0
 40
1.0
 40
1.0
 40
1.0
 40
1.0
 10
408.3218172940405
 20
264.4445523765311
 30
0.0
 10
408.3218172940405
 20
264.7778857098644
 30
0.0
 10
408.2218172940405
 20
266.0445523765311
 30
0.0
 10
406.2218172940405
 20
266.0445523765311
 30
0.0
  0
SPLINE
  5
1EA
330
1F
100
AcDbEntity
  8
0
  6
Continuous
 62
     7
370
    25
100
AcDbSpline
210
0.0
220
0.0
230
1.0
 70
    24
 71
     3
 72
     8
 73
     4
 74
     0
 42
0.00000001
 43
0.00000001
 40
0.0
 40
0.0
 40
0.0
 40
0.0
 40
1.0
 40
1.0
 40
1.0
 40
1.0
 10
408.3218172940405
 20
264.4445523765311
 30
0.0
 10
408.3218172940405
 20
264.4445523765311
 30
0.0
 10
408.3218172940405
 20
263.3445523765312
 30
0.0
 10
408.3218172940405
 20
261.3445523765312
 30
0.0
  0
SPLINE
  5
1EB
330
1F
100
AcDbEntity
  8
0
  6
Continuous
 62
     7
370
    25
100
AcDbSpline
210
0.0
220
0.0
230
1.0
 70
    24
 71
     3
 72
    18
 73
    14
 74
     0
 42
0.00000001
 43
0.00000001
 40
0.0
 40
0.0
 40
0.0
 40
0.0
 40
0.2500000000000002
 40
0.2500000000000002
 40
0.3749999999999999
 40
0.3749999999999999
 40
0.4999999999999996
 40
0.4999999999999996
 40
0.6249999999999992
 40
0.6249999999999992
 40
0.7499999999999989
 40
0.7499999999999989
 40
1.0
 40
1.0
 40
1.0
 40
1.0
 10
406.2218172940405
 20
266.0445523765311
 30
0.0
 10
406.2218172940405
 20
266.0445523765311
 30
0.0
 10
406.2218172940405
 20
265.9566601416697
 30
0.0
 10
406.2218172940405
 20
265.6493580578397
 30
0.0
 10
406.2218172940405
 20
265.517320037272
 30
0.0
 10
406.2218172940405
 20
265.1911873119319
 30
0.0
 10
406.2218172940405
 20
264.9969645559563
 30
0.0
 10
406.2218172940405
 20
264.5548818969034
 30
0.0
 10
406.2218172940405
 20
264.3073398204384
 30
0.0
 10
406.2218172940405
 20
263.7765748109765
 30
0.0
 10
406.2218172940405
 20
263.4937000060154
 30
0.0
 10
406.2218172940405
 20
262.6146731540953
 30
0.0
 10
406.2218172940405
 20
261.9897827695735
 30
0.0
 10
406.2218172940405
 20
261.3445523765312
 30
0.0
  0
LINE
  5
1EC
330
1F
100
AcDbEntity
  8
0
  6
Continuous
 62
     7
370
    25
100
AcDbLine
 10
408.321817294
 20
155.1445523765
 30
0.0
 11
408.321817294
 21
208.2445523765
 31
0.0
  0
LINE
  5
1ED
330
1F
100
AcDbEntity
  8
0
  6
Continuous
 62
     7
370
    25
100
AcDbLine
 10
406.221817294
 20
155.1445523765
 30
0.0
 11
406.221817294
 21
208.2445523765
 31
0.0
  0
SPLINE
  5
1EE
330
1F
100
AcDbEntity
  8
0
  6
Continuous
 62
     7
370
    25
100
AcDbSpline
210
0.0
220
0.0
230
1.0
 70
    24
 71
     3
 72
     8
 73
     4
 74
     0
 42
0.00000001
 43
0.00000001
 40
0.0
 40
0.0
 40
0.0
 40
0.0
 40
1.0
 40
1.0
 40
1.0
 40
1.0
 10
408.3218172940405
 20
152.0445523765311
 30
0.0
 10
408.3218172940405
 20
152.0445523765311
 30
0.0
 10
408.3218172940405
 20
153.1445523765311
 30
0.0
 10
408.3218172940405
 20
155.1445523765311
 30
0.0
  0
SPLINE
  5
1EF
330
1F
100
AcDbEntity
  8
0
  6
Continuous
 62
     7
370
    25
100
AcDbSpline
210
0.0
220
0.0
230
1.0
 70
     8
 71
     3
 72
     8
 73
     4
 74
     0
 42
0.00000001
 43
0.00000001
 40
0.0
 40
0.0
 40
0.0
 40
0.0
 40
1.0
 40
1.0
 40
1.0
 40
1.0
 10
408.3218172940405
 20
152.0445523765311
 30
0.0
 10
408.3218172940405
 20
151.7112190431978
 30
0.0
 10
408.2218172940405
 20
150.4445523765311
 30
0.0
 10
406.2218172940405
 20
150.4445523765311
 30
0.0
  0
SPLINE
  5
1F0
330
1F
100
AcDbEntity
  8
0
  6
Continuous
 62
     7
370
    25
100
AcDbSpline
210
0.0
220
0.0
230
1.0
 70
    24
 71
     3
 72
    18
 73
    14
 74
     0
 42
0.00000001
 43
0.00000001
 40
0.0
 40
0.0
 40
0.0
 40
0.0
 40
0.2500000000000002
 40
0.2500000000000002
 40
0.3749999999999999
 40
0.3749999999999999
 40
0.4999999999999996
 40
0.4999999999999996
 40
0.6249999999999992
 40
0.6249999999999992
 40
0.7499999999999989
 40
0.7499999999999989
 40
1.0
 40
1.0
 40
1.0
 40
1.0
 10
406.2218172940405
 20
150.4445523765311
 30
0.0
 10
406.2218172940405
 20
150.4445523765311
 30
0.0
 10
406.2218172940405
 20
150.5324446113926
 30
0.0
 10
406.2218172940405
 20
150.8397466952225
 30
0.0
 10
406.2218172940405
 20
150.9717847157903
 30
0.0
 10
406.2218172940405
 20
151.2979174411303
 30
0.0
 10
406.2218172940405
 20
151.4921401971061
 30
0.0
 10
406.2218172940405
 20
151.9342228561588
 30
0.0
 10
406.2218172940405
 20
152.1817649326239
 30
0.0
 10
406.2218172940405
 20
152.7125299420858
 30
0.0
 10
406.2218172940405
 20
152.9954047470469
 30
0.0
 10
406.2218172940405
 20
153.874431598967
 30
0.0
 10
406.2218172940405
 20
154.4993219834888
 30
0.0
 10
406.2218172940405
 20
155.1445523765311
 30
0.0
  0
LINE
  5
1F1
330
1F
100
AcDbEntity
  8
0
  6
Continuous
 62
     7
370
    25
100
AcDbLine
 10
408.321817294
 20
261.3445523765
 30
0.0
 11
408.321817294
 21
208.2445523765
 31
0.0
  0
LINE
  5
1F2
330
1F
100
AcDbEntity
  8
0
  6
Continuous
 62
     7
370
    25
100
AcDbLine
 10
406.221817294
 20
261.3445523765
 30
0.0
 11
406.221817294
 21
208.2445523765
 31
0.0
  0
LINE
  5
1F3
330
1F
100
AcDbEntity
  8
0
  6
Continuous
 62
     7
370
    25
100
AcDbLine
 10
411.821817294
 20
260.7445523765
 30
0.0
 11
411.821817294
 21
254.6445523765
 31
0.0
  0
LINE
  5
1F4
330
1F
100
AcDbEntity
  8
0
  6
Continuous
 62
     7
370
    25
100
AcDbLine
 10
411.821817294
 20
254.6445523765
 30
0.0
 11
411.821817294
 21
161.8445523765
 31
0.0
  0
LINE
  5
1F5
330
1F
100
AcDbEntity
  8
0
  6
Continuous
 62
     7
370
    25
100
AcDbLine
 10
411.821817294
 20
155.7445523765
 30
0.0
 11
411.821817294
 21
161.8445523765
 31
0.0
  0
LINE
  5
1F6
330
1F
100
AcDbEntity
  8
0
  6
Continuous
 62
     7
370
    25
100
AcDbLine
 10
410.321817294
 20
260.7445523765
 30
0.0
 11
410.321817294
 21
155.7445523765
 31
0.0
  0
SPLINE
  5
1F7
330
1F
100
AcDbEntity
  8
0
  6
Continuous
 62
     7
370
    25
100
AcDbSpline
210
0.0
220
0.0
230
1.0
 70
    24
 71
     3
 72
    14
 73
    10
 74
     0
 42
0.00000001
 43
0.00000001
 40
0.0
 40
0.0
 40
0.0
 40
0.0
 40
0.25
 40
0.25
 40
0.5
 40
0.5
 40
0.75
 40
0.75
 40
1.0
 40
1.0
 40
1.0
 40
1.0
 10
411.8218172940405
 20
150.7445523765311
 30
0.0
 10
411.8218172940405
 20
150.7445523765311
 30
0.0
 10
411.8218172940405
 20
150.8746889931896
 30
0.0
 10
411.8218172940405
 20
151.3756204347599
 30
0.0
 10
411.8218172940405
 20
151.7462181645402
 30
0.0
 10
411.8218172940405
 20
152.6718187766566
 30
0.0
 10
411.8218172940405
 20
153.2264574746766
 30
0.0
 10
411.8218172940405
 20
154.4358129547347
 30
0.0
 10
411.8218172940405
 20
155.0900539070333
 30
0.0
 10
411.8218172940405
 20
155.7445523765311
 30
0.0
  0
LINE
  5
1F8
330
1F
100
AcDbEntity
  8
0
  6
Continuous
 62
     7
370
    25
100
AcDbLine
 10
411.821817294
 20
150.7445523765
 30
0.0
 11
410.321817294
 21
150.7445523765
 31
0.0
  0
LINE
  5
1F9
330
1F
100
AcDbEntity
  8
0
  6
Continuous
 62
     7
370
    25
100
AcDbLine
 10
410.321817294
 20
150.7445523765
 30
0.0
 11
410.321817294
 21
155.7445523765
 31
0.0
  0
LINE
  5
1FA
330
1F
100
AcDbEntity
  8
0
  6
Continuous
 62
     7
370
    25
100
AcDbLine
 10
411.821817294
 20
265.7445523765
 30
0.0
 11
410.321817294
 21
265.7445523765
 31
0.0
  0
SPLINE
  5
1FB
330
1F
100
AcDbEntity
  8
0
  6
Continuous
 62
     7
370
    25
100
AcDbSpline
210
0.0
220
0.0
230
1.0
 70
    24
 71
     3
 72
    11
 73
     7
 74
     0
 42
0.00000001
 43
0.00000001
 40
0.0
 40
0.0
 40
0.0
 40
0.0
 40
0.25
 40
0.5
 40
0.75
 40
1.0
 40
1.0
 40
1.0
 40
1.0
 10
411.821817294056
 20
265.744552376519
 30
0.0
 10
411.821817294056
 20
265.7445523765173
 30
0.0
 10
411.8218172940561
 20
265.498175546113
 30
0.0
 10
411.8218172940563
 20
264.3808121435306
 30
0.0
 10
411.8218172940565
 20
262.6881578506989
 30
0.0
 10
411.8218172940566
 20
261.3840234536913
 30
0.0
 10
411.8218172940567
 20
260.7445523765311
 30
0.0
  0
LINE
  5
1FC
330
1F
100
AcDbEntity
  8
0
  6
Continuous
 62
     7
370
    25
100
AcDbLine
 10
410.321817294
 20
265.7445523765
 30
0.0
 11
410.321817294
 21
260.7445523765
 31
0.0
  0
SPLINE
  5
1FD
330
1F
100
AcDbEntity
  8
0
  6
Continuous
 62
     7
370
    25
100
AcDbSpline
210
0.0
220
0.0
230
1.0
 70
    24
 71
     3
 72
    20
 73
    16
 74
     0
 42
0.00000001
 43
0.00000001
 40
0.0
 40
0.0
 40
0.0
 40
0.0
 40
0.1249999999999995
 40
0.1249999999999995
 40
0.2499999999999991
 40
0.2499999999999991
 40
0.3749999999999986
 40
0.3749999999999986
 40
0.4999999999999981
 40
0.4999999999999981
 40
0.6249999999999977
 40
0.6249999999999977
 40
0.7499999999999971
 40
0.7499999999999971
 40
1.0
 40
1.0
 40
1.0
 40
1.0
 10
419.1218172940405
 20
161.8445523765311
 30
0.0
 10
419.1218172940405
 20
161.5072009918792
 30
0.0
 10
419.1218172940405
 20
161.1697144875952
 30
0.0
 10
419.1218172940405
 20
160.5151197423683
 30
0.0
 10
419.1218172940405
 20
160.198206916902
 30
0.0
 10
419.1218172940405
 20
159.6009317994521
 30
0.0
 10
419.1218172940405
 20
159.3233375988592
 30
0.0
 10
419.1218172940405
 20
158.8047364260798
 30
0.0
 10
419.1218172940405
 20
158.5633119681059
 30
0.0
 10
419.1218172940405
 20
158.1137489485932
 30
0.0
 10
419.1218172940405
 20
157.9036751782465
 30
0.0
 10
419.1218172940405
 20
157.5334773784914
 30
0.0
 10
419.1218172940405
 20
157.373500889182
 30
0.0
 10
419.1218172940405
 20
156.9830949454771
 30
0.0
 10
419.1218172940405
 20
156.8445523765312
 30
0.0
 10
419.1218172940405
 20
156.8445523765311
 30
0.0
  0
ARC
  5
1FE
330
1F
100
AcDbEntity
  8
0
  6
Continuous
 62
     7
370
    25
100
AcDbCircle
 10
396.4786159079
 20
176.5241212485
 30
0.0
 40
30.00000000000001
100
AcDbArc
 50
300.7597981856
 51
319.0055721145
  0
ARC
  5
1FF
330
1F
100
AcDbEntity
  8
0
  6
Continuous
 62
     7
370
    25
100
AcDbCircle
 10
396.4786159079
 20
239.9649835046
 30
0.0
 40
30.00000000000003
100
AcDbArc
 50
40.9944278855
 51
59.2402018144
  0
SPLINE
  5
200
330
1F
100
AcDbEntity
  8
0
  6
Continuous
 62
     7
370
    25
100
AcDbSpline
210
0.0
220
0.0
230
1.0
 70
    24
 71
     3
 72
    20
 73
    16
 74
     0
 42
0.00000001
 43
0.00000001
 40
0.0
 40
0.0
 40
0.0
 40
0.0
 40
0.1249999999999995
 40
0.1249999999999995
 40
0.2499999999999991
 40
0.2499999999999991
 40
0.3749999999999986
 40
0.3749999999999986
 40
0.4999999999999981
 40
0.4999999999999981
 40
0.6249999999999977
 40
0.6249999999999977
 40
0.7499999999999971
 40
0.7499999999999971
 40
1.0
 40
1.0
 40
1.0
 40
1.0
 10
419.1218172940405
 20
254.6445523765312
 30
0.0
 10
419.1218172940405
 20
254.9819037611831
 30
0.0
 10
419.1218172940405
 20
255.3193902654671
 30
0.0
 10
419.1218172940405
 20
255.973985010694
 30
0.0
 10
419.1218172940405
 20
256.2908978361603
 30
0.0
 10
419.1218172940405
 20
256.8881729536102
 30
0.0
 10
419.1218172940405
 20
257.1657671542031
 30
0.0
 10
419.1218172940405
 20
257.6843683269825
 30
0.0
 10
419.1218172940405
 20
257.9257927849563
 30
0.0
 10
419.1218172940405
 20
258.375355804469
 30
0.0
 10
419.1218172940405
 20
258.5854295748156
 30
0.0
 10
419.1218172940405
 20
258.9556273745709
 30
0.0
 10
419.1218172940405
 20
259.1156038638803
 30
0.0
 10
419.1218172940405
 20
259.5060098075851
 30
0.0
 10
419.1218172940405
 20
259.6445523765311
 30
0.0
 10
419.1218172940405
 20
259.6445523765312
 30
0.0
  0
LINE
  5
201
330
1F
100
AcDbEntity
  8
0
  6
Continuous
 62
     7
370
    25
100
AcDbLine
 10
419.121817294
 20
161.8445523765
 30
0.0
 11
419.121817294
 21
254.6445523765
 31
0.0
  0
ARC
  5
202
330
1F
100
AcDbEntity
  8
0
  6
Continuous
 62
     7
370
    25
100
AcDbCircle
 10
408.921817294
 20
265.6445523765
 30
0.0
 40
1.399999999999977
100
AcDbArc
 50
270.0
 51
0.0
  0
ARC
  5
203
330
1F
100
AcDbEntity
  8
0
  6
Continuous
 62
     7
370
    25
100
AcDbCircle
 10
408.921817294
 20
150.8445523765
 30
0.0
 40
1.400000000000006
100
AcDbArc
 50
0.0
 51
90.0
  0
LINE
  5
204
330
1F
100
AcDbEntity
  8
0
  6
Continuous
 62
     7
370
    25
100
AcDbLine
 10
406.1594803782
 20
262.8694196259
 30
0.0
 11
406.1594803781
 21
261.5845523901
 31
0.0
  0
LINE
  5
205
330
1F
100
AcDbEntity
  8
0
  6
Continuous
 62
     7
370
    25
100
AcDbLine
 10
406.1594803781
 20
261.5845523901
 30
0.0
 11
406.1594803781
 21
154.9045523901
 31
0.0
  0
SPLINE
  5
206
330
1F
100
AcDbEntity
  8
0
  6
Continuous
 62
     7
370
    25
100
AcDbSpline
210
0.0
220
0.0
230
1.0
 70
    24
 71
     3
 72
    14
 73
    10
 74
     0
 42
0.00000001
 43
0.00000001
 40
0.0
 40
0.0
 40
0.0
 40
0.0
 40
0.25
 40
0.25
 40
0.5
 40
0.5
 40
0.75
 40
0.75
 40
1.0
 40
1.0
 40
1.0
 40
1.0
 10
405.5218172940387
 20
263.9945523901411
 30
0.0
 10
405.5218172940387
 20
263.9945523901411
 30
0.0
 10
405.5218172940387
 20
263.9427886296007
 30
0.0
 10
405.5218172940387
 20
263.7078957618027
 30
0.0
 10
405.5218172940387
 20
263.5239706185809
 30
0.0
 10
405.5218172940387
 20
263.0533888470206
 30
0.0
 10
405.5218172940387
 20
262.7683242906105
 30
0.0
 10
405.5218172940387
 20
262.1749969897601
 30
0.0
 10
405.5218172940387
 20
261.8685736139178
 30
0.0
 10
405.5218172940387
 20
261.5845523901411
 30
0.0
  0
ARC
  5
207
330
1F
100
AcDbEntity
  8
0
  6
Continuous
 62
     7
370
    25
100
AcDbCircle
 10
406.8853691944
 20
263.9945523901
 30
0.0
 40
1.363551900398988
100
AcDbArc
 50
122.1644701898
 51
180.0
  0
ARC
  5
208
330
1F
100
AcDbEntity
  8
0
  6
Continuous
 62
     7
370
    25
100
AcDbCircle
 10
406.8853691944
 20
152.4945523901
 30
0.0
 40
1.363551900398988
100
AcDbArc
 50
180.0
 51
237.8355298079
  0
SPLINE
  5
209
330
1F
100
AcDbEntity
  8
0
  6
Continuous
 62
     7
370
    25
100
AcDbSpline
210
0.0
220
0.0
230
1.0
 70
    24
 71
     3
 72
    14
 73
    10
 74
     0
 42
0.00000001
 43
0.00000001
 40
0.0
 40
0.0
 40
0.0
 40
0.0
 40
0.25
 40
0.25
 40
0.5
 40
0.5
 40
0.75
 40
0.75
 40
1.0
 40
1.0
 40
1.0
 40
1.0
 10
405.5218172940387
 20
154.9045523901011
 30
0.0
 10
405.5218172940387
 20
154.6205311663245
 30
0.0
 10
405.5218172940387
 20
154.3141077904822
 30
0.0
 10
405.5218172940387
 20
153.7207804896319
 30
0.0
 10
405.5218172940387
 20
153.4357159332217
 30
0.0
 10
405.5218172940387
 20
152.9651341616614
 30
0.0
 10
405.5218172940387
 20
152.7812090184397
 30
0.0
 10
405.5218172940387
 20
152.5463161506416
 30
0.0
 10
405.5218172940387
 20
152.4945523901011
 30
0.0
 10
405.5218172940387
 20
152.4945523901011
 30
0.0
  0
LINE
  5
20A
330
1F
100
AcDbEntity
  8
0
  6
Continuous
 62
     7
370
    25
100
AcDbLine
 10
405.521817294
 20
261.5845523901
 30
0.0
 11
405.521817294
 21
154.9045523901
 31
0.0
  0
LINE
  5
20B
330
1F
100
AcDbEntity
  8
0
  6
Continuous
 62
     7
370
    25
100
AcDbLine
 10
408.321817294
 20
264.2445523765
 30
0.0
 11
408.921817294
 21
264.2445523765
 31
0.0
  0
LINE
  5
20C
330
1F
100
AcDbEntity
  8
0
  6
Continuous
 62
     7
370
    25
100
AcDbLine
 10
408.321817294
 20
152.2445523765
 30
0.0
 11
408.921817294
 21
152.2445523765
 31
0.0
  0
SPLINE
  5
20D
330
1F
100
AcDbEntity
  8
0
  6
Continuous
 62
     7
370
    25
100
AcDbSpline
210
0.0
220
0.0
230
1.0
 70
    24
 71
     3
 72
    15
 73
    11
 74
     0
 42
0.00000001
 43
0.00000001
 40
0.0
 40
0.0
 40
0.0
 40
0.0
 40
0.125
 40
0.25
 40
0.375
 40
0.5
 40
0.625
 40
0.75
 40
0.875
 40
1.0
 40
1.0
 40
1.0
 40
1.0
 10
419.6218172941931
 20
161.8445523764728
 30
0.0
 10
419.6218172941931
 20
161.5964732916917
 30
0.0
 10
419.6218172941931
 20
161.0776600387727
 30
0.0
 10
419.6218172941931
 20
160.2579067258481
 30
0.0
 10
419.6218172941931
 20
159.4455566493687
 30
0.0
 10
419.6218172941931
 20
158.7091815263969
 30
0.0
 10
419.6218172941931
 20
158.1171258009484
 30
0.0
 10
419.6218172941931
 20
157.709216724061
 30
0.0
 10
419.6218172941931
 20
157.4864955151375
 30
0.0
 10
419.6218172941931
 20
157.4445523761731
 30
0.0
 10
419.6218172941931
 20
157.4445523767346
 30
0.0
  0
LINE
  5
20E
330
1F
100
AcDbEntity
  8
0
  6
Continuous
 62
     7
370
    25
100
AcDbLine
 10
419.621817294
 20
157.4445523765
 30
0.0
 11
419.121817294
 21
157.4445523765
 31
0.0
  0
LINE
  5
20F
330
1F
100
AcDbEntity
  8
0
  6
Continuous
 62
     7
370
    25
100
AcDbLine
 10
419.6218172931
 20
157.4445523753
 30
0.0
 11
421.121817294
 21
159.4445523765
 31
0.0
  0
LINE
  5
210
330
1F
100
AcDbEntity
  8
0
  6
Continuous
 62
     7
370
    25
100
AcDbLine
 10
419.621817294
 20
208.2445523765
 30
0.0
 11
419.621817294
 21
161.8445523765
 31
0.0
  0
LINE
  5
211
330
1F
100
AcDbEntity
  8
0
  6
Continuous
 62
     7
370
    25
100
AcDbLine
 10
421.121817294
 20
208.2445523765
 30
0.0
 11
421.121817294
 21
162.4445523766
 31
0.0
  0
SPLINE
  5
212
330
1F
100
AcDbEntity
  8
0
  6
Continuous
 62
     7
370
    25
100
AcDbSpline
210
0.0
220
0.0
230
1.0
 70
    24
 71
     3
 72
    13
 73
     9
 74
     0
 42
0.00000001
 43
0.00000001
 40
0.0
 40
0.0
 40
0.0
 40
0.0
 40
0.1250000000000002
 40
0.2500000000000003
 40
0.4999999999999988
 40
0.7499999999999973
 40
0.8749999999999987
 40
1.0
 40
1.0
 40
1.0
 40
1.0
 10
421.1218172940405
 20
159.4445523765311
 30
0.0
 10
421.1218172940405
 20
159.4445523765311
 30
0.0
 10
421.1218172940405
 20
159.4978554346397
 30
0.0
 10
421.1218172940405
 20
159.7497016885509
 30
0.0
 10
421.1218172940405
 20
160.2782318907497
 30
0.0
 10
421.1218172940405
 20
161.0326405457344
 30
0.0
 10
421.1218172940405
 20
161.7794617730767
 30
0.0
 10
421.1218172940405
 20
162.2094986588335
 30
0.0
 10
421.1218172940405
 20
162.4445523765868
 30
0.0
  0
LINE
  5
213
330
1F
100
AcDbEntity
  8
0
  6
Continuous
 62
     7
370
    25
100
AcDbLine
 10
419.621817294
 20
208.2445523765
 30
0.0
 11
419.621817294
 21
254.6445523765
 31
0.0
  0
LINE
  5
214
330
1F
100
AcDbEntity
  8
0
  6
Continuous
 62
     7
370
    25
100
AcDbLine
 10
421.121817294
 20
208.2445523765
 30
0.0
 11
421.121817294
 21
254.0445523765
 31
0.0
  0
SPLINE
  5
215
330
1F
100
AcDbEntity
  8
0
  6
Continuous
 62
     7
370
    25
100
AcDbSpline
210
0.0
220
0.0
230
1.0
 70
    24
 71
     3
 72
    14
 73
    10
 74
     0
 42
0.00000001
 43
0.00000001
 40
0.0
 40
0.0
 40
0.0
 40
0.0
 40
0.25
 40
0.25
 40
0.5
 40
0.5
 40
0.75
 40
0.75
 40
1.0
 40
1.0
 40
1.0
 40
1.0
 10
419.6218172942166
 20
254.6445523765311
 30
0.0
 10
419.6218172942019
 20
255.2205110296305
 30
0.0
 10
419.6218172941873
 20
255.7962430678517
 30
0.0
 10
419.6218172941579
 20
256.8604758908178
 30
0.0
 10
419.6218172941432
 20
257.3485579453882
 30
0.0
 10
419.6218172941139
 20
258.1630864844284
 30
0.0
 10
419.6218172940992
 20
258.4892124866973
 30
0.0
 10
419.6218172940699
 20
258.9300321549331
 30
0.0
 10
419.6218172940552
 20
259.0445523771829
 30
0.0
 10
419.6218172940405
 20
259.0445523765312
 30
0.0
  0
LINE
  5
216
330
1F
100
AcDbEntity
  8
0
  6
Continuous
 62
     7
370
    25
100
AcDbLine
 10
419.6218172931
 20
259.0445523777
 30
0.0
 11
421.121817294
 21
257.0445523765
 31
0.0
  0
SPLINE
  5
217
330
1F
100
AcDbEntity
  8
0
  6
Continuous
 62
     7
370
    25
100
AcDbSpline
210
0.0
220
0.0
230
1.0
 70
    24
 71
     3
 72
    13
 73
     9
 74
     0
 42
0.00000001
 43
0.00000001
 40
0.0
 40
0.0
 40
0.0
 40
0.0
 40
0.1249999999999992
 40
0.2499999999999984
 40
0.4999999999999968
 40
0.7499999999999951
 40
0.8749999999999976
 40
1.0
 40
1.0
 40
1.0
 40
1.0
 10
421.1218172940405
 20
254.0445523764755
 30
0.0
 10
421.1218172940381
 20
254.2796060942295
 30
0.0
 10
421.1218172940381
 20
254.7096429799925
 30
0.0
 10
421.121817294038
 20
255.456464207329
 30
0.0
 10
421.121817294038
 20
256.2108728623832
 30
0.0
 10
421.121817294038
 20
256.7394030645146
 30
0.0
 10
421.121817294038
 20
256.991249318427
 30
0.0
 10
421.121817294038
 20
257.0445523765345
 30
0.0
 10
421.1218172940405
 20
257.0445523765311
 30
0.0
  0
LINE
  5
218
330
1F
100
AcDbEntity
  8
0
  6
Continuous
 62
     7
370
    25
100
AcDbLine
 10
419.621817294
 20
259.0445523765
 30
0.0
 11
419.121817294
 21
259.0445523765
 31
0.0
  0
ARC
  5
219
330
1F
100
AcDbEntity
  8
0
  6
Continuous
 62
     7
370
    25
100
AcDbCircle
 10
422.121817294
 20
180.2955878098
 30
0.0
 40
1.0
100
AcDbArc
 50
93.0
 51
180.0
  0
ARC
  5
21A
330
1F
100
AcDbEntity
  8
0
  6
Continuous
 62
     7
370
    25
100
AcDbCircle
 10
422.121817294
 20
236.1935169432
 30
0.0
 40
1.000000000000024
100
AcDbArc
 50
180.0
 51
267.0
  0
LINE
  5
21B
330
1F
100
AcDbEntity
  8
0
  6
Continuous
 62
     7
370
    25
100
AcDbLine
 10
444.1225025267
 20
225.2445523765
 30
0.0
 11
444.1225025267
 21
197.0829336545
 31
0.0
  0
SPLINE
  5
21C
330
1F
100
AcDbEntity
  8
0
  6
Continuous
 62
     7
370
    25
100
AcDbSpline
210
0.0
220
0.0
230
1.0
 70
     8
 71
     3
 72
    10
 73
     6
 74
     0
 42
0.00000001
 43
0.00000001
 40
0.0
 40
0.0
 40
0.0
 40
0.0
 40
0.5
 40
0.5
 40
1.0
 40
1.0
 40
1.0
 40
1.0
 10
444.1225025266633
 20
197.0829336545394
 30
0.0
 10
444.1225165379061
 20
196.7092866742015
 30
0.0
 10
444.0616616793072
 20
196.3357098615168
 30
0.0
 10
443.8245418257143
 20
195.6270333207158
 30
0.0
 10
443.6483185385754
 20
195.2920582442389
 30
0.0
 10
443.4234409825765
 20
194.9936589296956
 30
0.0
  0
LINE
  5
21D
330
1F
100
AcDbEntity
  8
0
  6
Continuous
 62
     7
370
    25
100
AcDbLine
 10
443.4234409826
 20
194.9936589297
 30
0.0
 11
440.5982865552
 21
191.2445523765
 31
0.0
  0
CIRCLE
  5
21E
330
1F
100
AcDbEntity
  8
0
  6
Continuous
 62
     7
370
    25
100
AcDbCircle
 10
424.621817294
 20
221.0445523765
 30
0.0
 40
1.25
  0
SPLINE
  5
21F
330
1F
100
AcDbEntity
  8
0
  6
Continuous
 62
     7
370
    25
100
AcDbSpline
210
0.0
220
0.0
230
1.0
 70
     8
 71
     3
 72
    14
 73
    10
 74
     0
 42
0.00000001
 43
0.00000001
 40
0.0
 40
0.0
 40
0.0
 40
0.0
 40
0.2499999999999999
 40
0.2499999999999999
 40
0.4999999999999998
 40
0.4999999999999998
 40
0.7499999999999999
 40
0.7499999999999999
 40
1.0
 40
1.0
 40
1.0
 40
1.0
 10
440.5982865551726
 20
191.2445523765311
 30
0.0
 10
439.7457043083783
 20
190.0386622202535
 30
0.0
 10
438.8866255656285
 20
188.8248303696369
 30
0.0
 10
437.2913807244612
 20
186.5727737367079
 30
0.0
 10
436.5559118738844
 20
185.5355078936836
 30
0.0
 10
435.3256443952005
 20
183.8013897501464
 30
0.0
 10
434.8313815724771
 20
183.1052590685736
 30
0.0
 10
434.1627981429349
 20
182.1638106000974
 30
0.0
 10
433.9887609528018
 20
181.9188699394542
 30
0.0
 10
433.9887687172064
 20
181.918880726762
 30
0.0
  0
LINE
  5
220
330
1F
100
AcDbEntity
  8
0
  6
Continuous
 62
     7
370
    25
100
AcDbLine
 10
433.9887687172
 20
181.9188807268
 30
0.0
 11
422.0694813378
 21
181.2942173446
 31
0.0
  0
LINE
  5
221
330
1F
100
AcDbEntity
  8
0
  6
Continuous
 62
     7
370
    25
100
AcDbLine
 10
444.1225025267
 20
234.0391375415
 30
0.0
 11
422.0694813378
 21
235.1948874085
 31
0.0
  0
LINE
  5
222
330
1F
100
AcDbEntity
  8
0
  6
Continuous
 62
     7
370
    25
100
AcDbLine
 10
444.1225025267
 20
234.0391375415
 30
0.0
 11
444.1225025267
 21
225.2445523765
 31
0.0
  0
SPLINE
  5
223
330
1F
100
AcDbEntity
  8
0
  6
Continuous
 62
     7
370
    25
100
AcDbSpline
210
0.0
220
0.0
230
1.0
 70
    24
 71
     3
 72
    14
 73
    10
 74
     0
 42
0.00000001
 43
0.00000001
 40
0.0
 40
0.0
 40
0.0
 40
0.0
 40
0.2500000000000002
 40
0.2500000000000002
 40
0.5000000000000003
 40
0.5000000000000003
 40
0.7500000000000001
 40
0.7500000000000001
 40
1.0
 40
1.0
 40
1.0
 40
1.0
 10
434.3816870688596
 20
182.155440588486
 30
0.0
 10
434.3816793044556
 20
182.1554302847736
 30
0.0
 10
434.5557164945875
 20
182.3863854367077
 30
0.0
 10
435.2242999241313
 20
183.2736256147051
 30
0.0
 10
435.7185627468536
 20
183.9295345341183
 30
0.0
 10
436.948830225538
 20
185.5621546209142
 30
0.0
 10
437.6842990761152
 20
186.5381547505357
 30
0.0
 10
439.2795439172813
 20
188.655116156222
 30
0.0
 10
440.138622660032
 20
189.795152153153
 30
0.0
 10
440.9912049068258
 20
190.9265670087669
 30
0.0
  0
LINE
  5
224
330
1F
100
AcDbEntity
  8
0
  6
Continuous
 62
     7
370
    25
100
AcDbLine
 10
433.9887687172
 20
181.9188807268
 30
0.0
 11
434.3816870689
 21
182.1554405885
 31
0.0
  0
LINE
  5
225
330
1F
100
AcDbEntity
  8
0
  6
Continuous
 62
     7
370
    25
100
AcDbLine
 10
440.5982865552
 20
191.2445523765
 30
0.0
 11
440.9912049068
 21
190.9265670088
 31
0.0
  0
LINE
  5
226
330
1F
100
AcDbEntity
  8
0
  6
Continuous
 62
     7
370
    25
100
AcDbLine
 10
440.9912049068
 20
190.9265670088
 30
0.0
 11
443.8163593342
 21
194.6756735619
 31
0.0
  0
SPLINE
  5
227
330
1F
100
AcDbEntity
  8
0
  6
Continuous
 62
     7
370
    25
100
AcDbSpline
210
0.0
220
0.0
230
1.0
 70
     8
 71
     3
 72
    10
 73
     6
 74
     0
 42
0.00000001
 43
0.00000001
 40
0.0
 40
0.0
 40
0.0
 40
0.0
 40
0.5
 40
0.5
 40
1.0
 40
1.0
 40
1.0
 40
1.0
 10
443.8163593342297
 20
194.6756735619312
 30
0.0
 10
444.0754630125745
 20
195.0194889314564
 30
0.0
 10
444.2785072946277
 20
195.4054468545734
 30
0.0
 10
444.5517165351031
 20
196.2219832032647
 30
0.0
 10
444.6218334377797
 20
196.6524180053549
 30
0.0
 10
444.6218172940406
 20
197.0829336545394
 30
0.0
  0
LINE
  5
228
330
1F
100
AcDbEntity
  8
0
  6
Continuous
 62
     7
370
    25
100
AcDbLine
 10
444.621817294
 20
225.2445523765
 30
0.0
 11
444.621817294
 21
233.484592312
 31
0.0
  0
LINE
  5
229
330
1F
100
AcDbEntity
  8
0
  6
Continuous
 62
     7
370
    25
100
AcDbLine
 10
444.1225025267
 20
234.0391375415
 30
0.0
 11
444.621817294
 21
233.484592312
 31
0.0
  0
LINE
  5
22A
330
1F
100
AcDbEntity
  8
0
  6
Continuous
 62
     7
370
    25
100
AcDbLine
 10
444.621817294
 20
197.0829336545
 30
0.0
 11
444.621817294
 21
225.2445523765
 31
0.0
  0
DIMENSION
  5
22B
330
1F
100
AcDbEntity
  8
SLD-0
 62
     7
100
AcDbDimension
  2
_D_2
 10
405.521817294
 20
130.4445273765
 30
0.0
 11
384.0148813194
 21
130.4445273765
 31
0.0
 70
   160
  1
<>
 71
     2
 42
-1.0
  3
SLDDIMSTYLE0
100
AcDbAlignedDimension
 13
424.621817294
 23
219.0445523765
 33
0.0
 14
405.521817294
 24
154.9045523901
 34
0.0
100
AcDbRotatedDimension
  0
DIMENSION
  5
23F
330
1F
100
AcDbEntity
  8
SLD-0
 62
     7
100
AcDbDimension
  2
_D_3
 10
385.521817294
 20
221.0445523765
 30
0.0
 11
385.521817294
 21
195.2525868694
 31
0.0
 70
   160
  1
<>
 71
     2
 42
-1.0
  3
SLDDIMSTYLE0
100
AcDbAlignedDimension
 13
406.221817294
 23
150.4445523765
 33
0.0
 14
422.621817294
 24
221.0445523765
 34
0.0
 50
90.0
100
AcDbRotatedDimension
  0
DIMENSION
  5
253
330
1F
100
AcDbEntity
  8
SLD-0
 62
     7
100
AcDbDimension
  2
_D_4
 10
421.121817294
 20
277.7797619646
 30
0.0
 11
476.624317294
 21
277.7797619646
 31
0.0
 70
   160
  1
(<>)
 71
     2
 42
-1.0
  3
SLDDIMSTYLE0
100
AcDbAlignedDimension
 13
444.621817294
 23
233.484592312
 33
0.0
 14
421.121817294
 24
254.0445523765
 34
0.0
100
AcDbRotatedDimension
  0
DIMENSION
  5
269
330
1F
100
AcDbEntity
  8
SLD-0
 62
     7
100
AcDbDimension
  2
_D_5
 10
405.521817294
 20
302.8489577911
 30
0.0
 11
426.4600727817
 21
302.8489577911
 31
0.0
 70
   160
  1
<>
 71
     2
 42
-1.0
  3
SLDDIMSTYLE0
100
AcDbAlignedDimension
 13
444.621817294
 23
233.484592312
 33
0.0
 14
405.521817294
 24
261.5845523901
 34
0.0
100
AcDbRotatedDimension
  0
DIMENSION
  5
27D
330
1F
100
AcDbEntity
  8
SLD-0
 62
     7
100
AcDbDimension
  2
_D_6
 10
405.521817294
 20
277.7797619646
 30
0.0
 11
387.3008361059
 21
277.7797619646
 31
0.0
 70
   160
  1
<>
 71
     2
 42
-1.0
  3
SLDDIMSTYLE0
100
AcDbAlignedDimension
 13
421.121817294
 23
257.0445523765
 33
0.0
 14
405.521817294
 24
261.5845523901
 34
0.0
100
AcDbRotatedDimension
  0
INSERT
  5
296
102
{ACAD_REACTORS
330
29D
102
}
330
1F
100
AcDbEntity
  8
SLD-0
100
AcDbBlockReference
  2
SW_NOTE_0_6
 10
384.6027713626
 20
247.2985479041
 30
0.0
  0
LEADER
  5
29D
330
1F
100
AcDbEntity
  8
SLD-0
100
AcDbLeader
  3
SLDDIMSTYLE1
 73
     2
 76
     3
 10
409.316249749
 20
235.3007689363
 30
0.0
 10
388.6027713626
 20
247.2985479041
 30
0.0
 10
384.6027713626
 20
247.2985479041
 30
0.0
340
296
  0
INSERT
  5
2A6
102
{ACAD_REACTORS
330
2A8
102
}
330
1F
100
AcDbEntity
  8
SLD-0
100
AcDbBlockReference
  2
SW_NOTE_0_7
 10
466.5127020785
 20
207.3903002309
 30
0.0
  0
LEADER
  5
2A8
330
1F
100
AcDbEntity
  8
SLD-0
100
AcDbLeader
  3
SLDDIMSTYLE2
 73
     2
 76
     3
 10
425.7376694315
 20
220.4811928045
 30
0.0
 10
462.5127020785
 20
207.3903002309
 30
0.0
 10
466.5127020785
 20
207.3903002309
 30
0.0
340
2A6
  0
MTEXT
  5
2A9
330
1F
100
AcDbEntity
  8
SLD-0
100
AcDbMText
 10
417.4863560529
 20
105.8805773989
 30
0.0
 40
4.7625
 41
0.0
 71
     2
 72
     1
  1
TYPICAL VIEW BOTH SIDES
  7
SLDTEXTSTYLE0
 73
     1
 44
1.0
  0
INSERT
  5
2B1
330
1F
100
AcDbEntity
  8
SLD-0
 62
     7
100
AcDbBlockReference
  2
SW_CENTERMARKSYMBOL_0
 10
424.621817294
 20
221.0445523765
 30
0.0
  0
LINE
  5
2B2
330
1F
100
AcDbEntity
  8
0
  6
Continuous
 62
     7
370
    25
100
AcDbLine
 10
672.2013491812
 20
197.0829336545
 30
0.0
 11
672.2013491812
 21
225.2445523765
 31
0.0
  0
LINE
  5
2B3
330
1F
100
AcDbEntity
  8
0
  6
Continuous
 62
     7
370
    25
100
AcDbLine
 10
672.7558944106
 20
225.2445523765
 30
0.0
 11
672.2013491812
 21
225.2445523765
 31
0.0
  0
LINE
  5
2B4
330
1F
100
AcDbEntity
  8
0
  6
Continuous
 62
     7
370
    25
100
AcDbLine
 10
672.7558944106
 20
225.2445523765
 30
0.0
 11
672.7558944106
 21
197.0829336545
 31
0.0
  0
LINE
  5
2B5
330
1F
100
AcDbEntity
  8
0
  6
Continuous
 62
     7
370
    25
100
AcDbLine
 10
672.7558944106
 20
197.0829336545
 30
0.0
 11
672.2013491812
 21
197.0829336545
 31
0.0
  0
SPLINE
  5
2B6
330
1F
100
AcDbEntity
  8
0
  6
Continuous
 62
     7
370
    25
100
AcDbSpline
210
0.0
220
0.0
230
1.0
 70
     8
 71
     3
 72
    10
 73
     6
 74
     0
 42
0.00000001
 43
0.00000001
 40
0.0
 40
0.0
 40
0.0
 40
0.0
 40
0.5
 40
0.5
 40
1.0
 40
1.0
 40
1.0
 40
1.0
 10
672.755894410649
 20
197.0829336545394
 30
0.0
 10
672.755893676351
 20
196.7092866742015
 30
0.0
 10
672.7590829443487
 20
196.3357098615168
 30
0.0
 10
672.7715098692995
 20
195.6270333207158
 30
0.0
 10
672.7807453404364
 20
195.2920582442389
 30
0.0
 10
672.7925306737568
 20
194.9936589296956
 30
0.0
  0
LINE
  5
2B7
330
1F
100
AcDbEntity
  8
0
  6
Continuous
 62
     7
370
    25
100
AcDbLine
 10
672.7925306738
 20
194.9936589297
 30
0.0
 11
672.2379854443
 21
194.6756735619
 31
0.0
  0
SPLINE
  5
2B8
330
1F
100
AcDbEntity
  8
0
  6
Continuous
 62
     7
370
    25
100
AcDbSpline
210
0.0
220
0.0
230
1.0
 70
     8
 71
     3
 72
    20
 73
    16
 74
     0
 42
0.00000001
 43
0.00000001
 40
0.0
 40
0.0
 40
0.0
 40
0.0
 40
0.07952196979304
 40
0.1586096062887425
 40
0.2372632190418482
 40
0.3154831227935392
 40
0.3932696375831428
 40
0.4706230888627531
 40
0.5475438076148578
 40
0.6240321304730501
 40
0.7000883998459418
 40
0.7757129640443357
 40
0.8509061774118045
 40
0.9256684004587392
 40
1.0
 40
1.0
 40
1.0
 40
1.0
 10
672.2379854442685
 20
194.6756735619313
 30
0.0
 10
672.2361527493247
 20
194.7309551691613
 30
0.0
 10
672.2324973692548
 20
194.8412164463981
 30
0.0
 10
672.2275385798844
 20
195.0137159308936
 30
0.0
 10
672.2229837528342
 20
195.1901763821519
 30
0.0
 10
672.2188688538611
 20
195.3706307936751
 30
0.0
 10
672.2151843291027
 20
195.5543910248128
 30
0.0
 10
672.2119327026763
 20
195.7409660563536
 30
0.0
 10
672.2091133572877
 20
195.9298199307007
 30
0.0
 10
672.2067262584953
 20
196.1204379219331
 30
0.0
 10
672.204772149079
 20
196.3123106917912
 30
0.0
 10
672.203248116182
 20
196.5049401297157
 30
0.0
 10
672.2021649808992
 20
196.6978393106511
 30
0.0
 10
672.2014826921351
 20
196.8905339370286
 30
0.0
 10
672.2013935990439
 20
197.0189240238646
 30
0.0
 10
672.2013491811607
 20
197.0829336545394
 30
0.0
  0
SPLINE
  5
2B9
330
1F
100
AcDbEntity
  8
0
  6
Continuous
 62
     7
370
    25
100
AcDbSpline
210
0.0
220
0.0
230
1.0
 70
     8
 71
     3
 72
    10
 73
     6
 74
     0
 42
0.00000001
 43
0.00000001
 40
0.0
 40
0.0
 40
0.0
 40
0.0
 40
0.5
 40
0.5
 40
1.0
 40
1.0
 40
1.0
 40
1.0
 10
602.6846330470895
 20
194.6756735619312
 30
0.0
 10
602.6964183804103
 20
195.0194889314564
 30
0.0
 10
602.705653851547
 20
195.4054468545734
 30
0.0
 10
602.7180807764977
 20
196.2219832032647
 30
0.0
 10
602.7212700444956
 20
196.6524180053549
 30
0.0
 10
602.7212693101973
 20
197.0829336545394
 30
0.0
  0
LINE
  5
2BA
330
1F
100
AcDbEntity
  8
0
  6
Continuous
 62
     7
370
    25
100
AcDbLine
 10
602.7212693102
 20
197.0829336545
 30
0.0
 11
672.2013491812
 21
197.0829336545
 31
0.0
  0
LINE
  5
2BB
330
1F
100
AcDbEntity
  8
0
  6
Continuous
 62
     7
370
    25
100
AcDbLine
 10
672.2379854443
 20
194.6756735619
 30
0.0
 11
602.6846330471
 21
194.6756735619
 31
0.0
  0
LINE
  5
2BC
330
1F
100
AcDbEntity
  8
0
  6
Continuous
 62
     7
370
    25
100
AcDbLine
 10
665.7613092457
 20
207.5945523765
 30
0.0
 11
665.7613092457
 21
215.1945523765
 31
0.0
  0
ARC
  5
2BD
330
1F
100
AcDbEntity
  8
0
  6
Continuous
 62
     7
370
    25
100
AcDbCircle
 10
664.7613092457
 20
215.1945523765
 30
0.0
 40
1.0
100
AcDbArc
 50
0.0
 51
90.0
  0
LINE
  5
2BE
330
1F
100
AcDbEntity
  8
0
  6
Continuous
 62
     7
370
    25
100
AcDbLine
 10
664.7613092457
 20
216.1945523765
 30
0.0
 11
662.9613092457
 21
216.1945523765
 31
0.0
  0
ARC
  5
2BF
330
1F
100
AcDbEntity
  8
0
  6
Continuous
 62
     7
370
    25
100
AcDbCircle
 10
662.9613092457
 20
215.1945523765
 30
0.0
 40
1.0
100
AcDbArc
 50
90.0
 51
180.0
  0
LINE
  5
2C0
330
1F
100
AcDbEntity
  8
0
  6
Continuous
 62
     7
370
    25
100
AcDbLine
 10
661.9613092457
 20
215.1945523765
 30
0.0
 11
661.9613092457
 21
207.5945523765
 31
0.0
  0
ARC
  5
2C1
330
1F
100
AcDbEntity
  8
0
  6
Continuous
 62
     7
370
    25
100
AcDbCircle
 10
662.9613092457
 20
207.5945523765
 30
0.0
 40
1.000000000000028
100
AcDbArc
 50
180.0
 51
270.0
  0
LINE
  5
2C2
330
1F
100
AcDbEntity
  8
0
  6
Continuous
 62
     7
370
    25
100
AcDbLine
 10
662.9613092457
 20
206.5945523765
 30
0.0
 11
664.7613092457
 21
206.5945523765
 31
0.0
  0
ARC
  5
2C3
330
1F
100
AcDbEntity
  8
0
  6
Continuous
 62
     7
370
    25
100
AcDbCircle
 10
664.7613092457
 20
207.5945523765
 30
0.0
 40
1.000000000000028
100
AcDbArc
 50
270.0
 51
0.0
  0
LINE
  5
2C4
330
1F
100
AcDbEntity
  8
0
  6
Continuous
 62
     7
370
    25
100
AcDbLine
 10
602.7212693102
 20
197.0829336545
 30
0.0
 11
602.7212693102
 21
225.2445523765
 31
0.0
  0
ARC
  5
2C5
330
1F
100
AcDbEntity
  8
0
  6
Continuous
 62
     7
370
    25
100
AcDbCircle
 10
610.9613092457
 20
225.2445523765
 30
0.0
 40
8.240039935481747
100
AcDbArc
 50
90.0
 51
180.0
  0
LINE
  5
2C6
330
1F
100
AcDbEntity
  8
0
  6
Continuous
 62
     7
370
    25
100
AcDbLine
 10
663.9613092457
 20
233.484592312
 30
0.0
 11
610.9613092457
 21
233.484592312
 31
0.0
  0
ARC
  5
2C7
330
1F
100
AcDbEntity
  8
0
  6
Continuous
 62
     7
370
    25
100
AcDbCircle
 10
663.9613092457
 20
225.2445523765
 30
0.0
 40
8.240039935481747
100
AcDbArc
 50
0.0
 51
90.0
  0
ARC
  5
2C8
330
1F
100
AcDbEntity
  8
0
  6
Continuous
 62
     7
370
    25
100
AcDbCircle
 10
635.9613092457
 20
221.7445523765
 30
0.0
 40
0.8000000000000682
100
AcDbArc
 50
90.0
 51
180.0
  0
LINE
  5
2C9
330
1F
100
AcDbEntity
  8
0
  6
Continuous
 62
     7
370
    25
100
AcDbLine
 10
635.1613092457
 20
221.7445523765
 30
0.0
 11
635.1613092457
 21
201.0445523765
 31
0.0
  0
ARC
  5
2CA
330
1F
100
AcDbEntity
  8
0
  6
Continuous
 62
     7
370
    25
100
AcDbCircle
 10
635.9613092457
 20
201.0445523765
 30
0.0
 40
0.8000000000000682
100
AcDbArc
 50
180.0
 51
270.0
  0
LINE
  5
2CB
330
1F
100
AcDbEntity
  8
0
  6
Continuous
 62
     7
370
    25
100
AcDbLine
 10
635.9613092457
 20
200.2445523765
 30
0.0
 11
654.1613092456
 21
200.2445523765
 31
0.0
  0
ARC
  5
2CC
330
1F
100
AcDbEntity
  8
0
  6
Continuous
 62
     7
370
    25
100
AcDbCircle
 10
654.1613092456
 20
201.0445523765
 30
0.0
 40
0.8000000000000398
100
AcDbArc
 50
270.0
 51
0.0
  0
LINE
  5
2CD
330
1F
100
AcDbEntity
  8
0
  6
Continuous
 62
     7
370
    25
100
AcDbLine
 10
654.9613092456
 20
201.0445523765
 30
0.0
 11
654.9613092456
 21
221.7445523765
 31
0.0
  0
ARC
  5
2CE
330
1F
100
AcDbEntity
  8
0
  6
Continuous
 62
     7
370
    25
100
AcDbCircle
 10
654.1613092456
 20
221.7445523765
 30
0.0
 40
0.8000000000000114
100
AcDbArc
 50
0.0
 51
90.0
  0
LINE
  5
2CF
330
1F
100
AcDbEntity
  8
0
  6
Continuous
 62
     7
370
    25
100
AcDbLine
 10
654.1613092456
 20
222.5445523765
 30
0.0
 11
635.9613092457
 21
222.5445523765
 31
0.0
  0
LINE
  5
2D0
330
1F
100
AcDbEntity
  8
0
  6
Continuous
 62
     7
370
    25
100
AcDbLine
 10
602.1300878176
 20
194.9936589297
 30
0.0
 11
602.6846330471
 21
194.6756735619
 31
0.0
  0
SPLINE
  5
2D1
330
1F
100
AcDbEntity
  8
0
  6
Continuous
 62
     7
370
    25
100
AcDbSpline
210
0.0
220
0.0
230
1.0
 70
     8
 71
     3
 72
    10
 73
     6
 74
     0
 42
0.00000001
 43
0.00000001
 40
0.0
 40
0.0
 40
0.0
 40
0.0
 40
0.5
 40
0.5
 40
1.0
 40
1.0
 40
1.0
 40
1.0
 10
602.1667240807091
 20
197.0829336545394
 30
0.0
 10
602.166724815007
 20
196.7092866742015
 30
0.0
 10
602.1635355470094
 20
196.3357098615168
 30
0.0
 10
602.1511086220586
 20
195.6270333207158
 30
0.0
 10
602.1418731509217
 20
195.2920582442389
 30
0.0
 10
602.1300878176013
 20
194.9936589296956
 30
0.0
  0
LINE
  5
2D2
330
1F
100
AcDbEntity
  8
0
  6
Continuous
 62
     7
370
    25
100
AcDbLine
 10
602.1667240807
 20
197.0829336545
 30
0.0
 11
602.7212693102
 21
197.0829336545
 31
0.0
  0
ARC
  5
2D3
330
1F
100
AcDbEntity
  8
0
  6
Continuous
 62
     7
370
    25
100
AcDbCircle
 10
663.9613092457
 20
225.2445523765
 30
0.0
 40
8.794585164970016
100
AcDbArc
 50
0.0
 51
90.0
  0
LINE
  5
2D4
330
1F
100
AcDbEntity
  8
0
  6
Continuous
 62
     7
370
    25
100
AcDbLine
 10
663.9613092457
 20
234.0391375415
 30
0.0
 11
663.9613092457
 21
233.484592312
 31
0.0
  0
LINE
  5
2D5
330
1F
100
AcDbEntity
  8
0
  6
Continuous
 62
     7
370
    25
100
AcDbLine
 10
610.9613092457
 20
234.0391375415
 30
0.0
 11
610.9613092457
 21
233.484592312
 31
0.0
  0
LINE
  5
2D6
330
1F
100
AcDbEntity
  8
0
  6
Continuous
 62
     7
370
    25
100
AcDbLine
 10
610.9613092457
 20
234.0391375415
 30
0.0
 11
663.9613092457
 21
234.0391375415
 31
0.0
  0
LINE
  5
2D7
330
1F
100
AcDbEntity
  8
0
  6
Continuous
 62
     7
370
    25
100
AcDbLine
 10
641.0113092456
 20
219.2595523765
 30
0.0
 11
641.0113092456
 21
220.3595523765
 31
0.0
  0
ARC
  5
2D8
330
1F
100
AcDbEntity
  8
0
  6
Continuous
 62
     7
370
    25
100
AcDbCircle
 10
640.8613092456
 20
220.3595523765
 30
0.0
 40
0.1499999999999773
100
AcDbArc
 50
360.0
 51
90.0
  0
LINE
  5
2D9
330
1F
100
AcDbEntity
  8
0
  6
Continuous
 62
     7
370
    25
100
AcDbLine
 10
640.8613092456
 20
220.5095523765
 30
0.0
 11
638.5613092456
 21
220.5095523765
 31
0.0
  0
ARC
  5
2DA
330
1F
100
AcDbEntity
  8
0
  6
Continuous
 62
     7
370
    25
100
AcDbCircle
 10
638.5613092456
 20
220.3595523765
 30
0.0
 40
0.1500000000000057
100
AcDbArc
 50
90.0
 51
180.0
  0
LINE
  5
2DB
330
1F
100
AcDbEntity
  8
0
  6
Continuous
 62
     7
370
    25
100
AcDbLine
 10
638.4113092456
 20
220.3595523765
 30
0.0
 11
638.4113092456
 21
219.2595523765
 31
0.0
  0
ARC
  5
2DC
330
1F
100
AcDbEntity
  8
0
  6
Continuous
 62
     7
370
    25
100
AcDbCircle
 10
638.5613092456
 20
219.2595523765
 30
0.0
 40
0.1500000000000057
100
AcDbArc
 50
180.0
 51
270.0
  0
LINE
  5
2DD
330
1F
100
AcDbEntity
  8
0
  6
Continuous
 62
     7
370
    25
100
AcDbLine
 10
638.5613092456
 20
219.1095523765
 30
0.0
 11
640.8613092456
 21
219.1095523765
 31
0.0
  0
ARC
  5
2DE
330
1F
100
AcDbEntity
  8
0
  6
Continuous
 62
     7
370
    25
100
AcDbCircle
 10
640.8613092456
 20
219.2595523765
 30
0.0
 40
0.1499999999999773
100
AcDbArc
 50
270.0
 51
0.0
  0
LINE
  5
2DF
330
1F
100
AcDbEntity
  8
0
  6
Continuous
 62
     7
370
    25
100
AcDbLine
 10
649.2613092456
 20
219.1095523765
 30
0.0
 11
651.5613092456
 21
219.1095523765
 31
0.0
  0
ARC
  5
2E0
330
1F
100
AcDbEntity
  8
0
  6
Continuous
 62
     7
370
    25
100
AcDbCircle
 10
651.5613092456
 20
219.2595523765
 30
0.0
 40
0.1500000000000057
100
AcDbArc
 50
270.0
 51
0.0
  0
LINE
  5
2E1
330
1F
100
AcDbEntity
  8
0
  6
Continuous
 62
     7
370
    25
100
AcDbLine
 10
651.7113092456
 20
219.2595523765
 30
0.0
 11
651.7113092456
 21
220.3595523765
 31
0.0
  0
ARC
  5
2E2
330
1F
100
AcDbEntity
  8
0
  6
Continuous
 62
     7
370
    25
100
AcDbCircle
 10
651.5613092456
 20
220.3595523765
 30
0.0
 40
0.1499999999999773
100
AcDbArc
 50
0.0
 51
90.0
  0
LINE
  5
2E3
330
1F
100
AcDbEntity
  8
0
  6
Continuous
 62
     7
370
    25
100
AcDbLine
 10
651.5613092456
 20
220.5095523765
 30
0.0
 11
649.2613092456
 21
220.5095523765
 31
0.0
  0
ARC
  5
2E4
330
1F
100
AcDbEntity
  8
0
  6
Continuous
 62
     7
370
    25
100
AcDbCircle
 10
649.2613092456
 20
220.3595523765
 30
0.0
 40
0.1499999999999773
100
AcDbArc
 50
90.0
 51
180.0
  0
LINE
  5
2E5
330
1F
100
AcDbEntity
  8
0
  6
Continuous
 62
     7
370
    25
100
AcDbLine
 10
649.1113092456
 20
220.3595523765
 30
0.0
 11
649.1113092456
 21
219.2595523765
 31
0.0
  0
ARC
  5
2E6
330
1F
100
AcDbEntity
  8
0
  6
Continuous
 62
     7
370
    25
100
AcDbCircle
 10
649.2613092456
 20
219.2595523765
 30
0.0
 40
0.1499999999999773
100
AcDbArc
 50
180.0
 51
270.0
  0
LINE
  5
2E7
330
1F
100
AcDbEntity
  8
0
  6
Continuous
 62
     7
370
    25
100
AcDbLine
 10
654.4613092456
 20
221.7445523765
 30
0.0
 11
654.4613092456
 21
201.0445523765
 31
0.0
  0
ARC
  5
2E8
330
1F
100
AcDbEntity
  8
0
  6
Continuous
 62
     7
370
    25
100
AcDbCircle
 10
635.9613092457
 20
201.0445523765
 30
0.0
 40
0.3000000000000682
100
AcDbArc
 50
180.0
 51
270.0
  0
LINE
  5
2E9
330
1F
100
AcDbEntity
  8
0
  6
Continuous
 62
     7
370
    25
100
AcDbLine
 10
635.6613092457
 20
221.7445523765
 30
0.0
 11
635.6613092457
 21
201.0445523765
 31
0.0
  0
ARC
  5
2EA
330
1F
100
AcDbEntity
  8
0
  6
Continuous
 62
     7
370
    25
100
AcDbCircle
 10
635.9613092457
 20
221.7445523765
 30
0.0
 40
0.3000000000000682
100
AcDbArc
 50
90.0
 51
180.0
  0
LINE
  5
2EB
330
1F
100
AcDbEntity
  8
0
  6
Continuous
 62
     7
370
    25
100
AcDbLine
 10
642.8313092456
 20
222.0445523765
 30
0.0
 11
635.9613092457
 21
222.0445523765
 31
0.0
  0
LINE
  5
2EC
330
1F
100
AcDbEntity
  8
0
  6
Continuous
 62
     7
370
    25
100
AcDbLine
 10
642.8313092456
 20
222.0445523765
 30
0.0
 11
642.8313092456
 21
220.4095523765
 31
0.0
  0
ARC
  5
2ED
330
1F
100
AcDbEntity
  8
0
  6
Continuous
 62
     7
370
    25
100
AcDbCircle
 10
642.7313092456
 20
220.4095523765
 30
0.0
 40
0.1000000000000227
100
AcDbArc
 50
270.0
 51
0.0
  0
LINE
  5
2EE
330
1F
100
AcDbEntity
  8
0
  6
Continuous
 62
     7
370
    25
100
AcDbLine
 10
642.7313092456
 20
220.3095523765
 30
0.0
 11
641.9113092456
 21
220.3095523765
 31
0.0
  0
ARC
  5
2EF
330
1F
100
AcDbEntity
  8
0
  6
Continuous
 62
     7
370
    25
100
AcDbCircle
 10
641.9113092456
 20
220.1595523765
 30
0.0
 40
0.1500000000000909
100
AcDbArc
 50
90.0
 51
180.0
  0
LINE
  5
2F0
330
1F
100
AcDbEntity
  8
0
  6
Continuous
 62
     7
370
    25
100
AcDbLine
 10
641.7613092456
 20
220.1595523765
 30
0.0
 11
641.7613092456
 21
218.8095523765
 31
0.0
  0
ARC
  5
2F1
330
1F
100
AcDbEntity
  8
0
  6
Continuous
 62
     7
370
    25
100
AcDbCircle
 10
641.6113092456
 20
218.8095523765
 30
0.0
 40
0.1500000000000341
100
AcDbArc
 50
270.0
 51
0.0
  0
LINE
  5
2F2
330
1F
100
AcDbEntity
  8
0
  6
Continuous
 62
     7
370
    25
100
AcDbLine
 10
641.6113092456
 20
218.6595523765
 30
0.0
 11
638.8613092456
 21
218.6595523765
 31
0.0
  0
ARC
  5
2F3
330
1F
100
AcDbEntity
  8
0
  6
Continuous
 62
     7
370
    25
100
AcDbCircle
 10
638.8613092456
 20
218.5095523765
 30
0.0
 40
0.1500000000000341
100
AcDbArc
 50
90.0
 51
180.0
  0
LINE
  5
2F4
330
1F
100
AcDbEntity
  8
0
  6
Continuous
 62
     7
370
    25
100
AcDbLine
 10
638.7113092456
 20
218.5095523765
 30
0.0
 11
638.7113092456
 21
211.2945523765
 31
0.0
  0
LINE
  5
2F5
330
1F
100
AcDbEntity
  8
0
  6
Continuous
 62
     7
370
    25
100
AcDbLine
 10
638.7113092456
 20
211.2945523765
 30
0.0
 11
651.4113092456
 21
211.2945523765
 31
0.0
  0
LINE
  5
2F6
330
1F
100
AcDbEntity
  8
0
  6
Continuous
 62
     7
370
    25
100
AcDbLine
 10
651.4113092456
 20
211.2945523765
 30
0.0
 11
651.4113092456
 21
218.5095523765
 31
0.0
  0
ARC
  5
2F7
330
1F
100
AcDbEntity
  8
0
  6
Continuous
 62
     7
370
    25
100
AcDbCircle
 10
651.2613092456
 20
218.5095523765
 30
0.0
 40
0.1500000000000057
100
AcDbArc
 50
0.0
 51
90.0
  0
LINE
  5
2F8
330
1F
100
AcDbEntity
  8
0
  6
Continuous
 62
     7
370
    25
100
AcDbLine
 10
651.2613092456
 20
218.6595523765
 30
0.0
 11
648.5113092456
 21
218.6595523765
 31
0.0
  0
ARC
  5
2F9
330
1F
100
AcDbEntity
  8
0
  6
Continuous
 62
     7
370
    25
100
AcDbCircle
 10
648.5113092456
 20
218.8095523765
 30
0.0
 40
0.1500000000000057
100
AcDbArc
 50
180.0
 51
270.0
  0
LINE
  5
2FA
330
1F
100
AcDbEntity
  8
0
  6
Continuous
 62
     7
370
    25
100
AcDbLine
 10
648.3613092456
 20
218.8095523765
 30
0.0
 11
648.3613092456
 21
220.1595523765
 31
0.0
  0
ARC
  5
2FB
330
1F
100
AcDbEntity
  8
0
  6
Continuous
 62
     7
370
    25
100
AcDbCircle
 10
648.2113092456
 20
220.1595523765
 30
0.0
 40
0.1500000000000909
100
AcDbArc
 50
0.0
 51
90.0
  0
LINE
  5
2FC
330
1F
100
AcDbEntity
  8
0
  6
Continuous
 62
     7
370
    25
100
AcDbLine
 10
648.2113092456
 20
220.3095523765
 30
0.0
 11
647.3913092456
 21
220.3095523765
 31
0.0
  0
ARC
  5
2FD
330
1F
100
AcDbEntity
  8
0
  6
Continuous
 62
     7
370
    25
100
AcDbCircle
 10
647.3913092456
 20
220.4095523765
 30
0.0
 40
0.1000000000000227
100
AcDbArc
 50
180.0
 51
270.0
  0
LINE
  5
2FE
330
1F
100
AcDbEntity
  8
0
  6
Continuous
 62
     7
370
    25
100
AcDbLine
 10
647.2913092456
 20
220.4095523765
 30
0.0
 11
647.2913092456
 21
222.0445523765
 31
0.0
  0
ARC
  5
2FF
330
1F
100
AcDbEntity
  8
0
  6
Continuous
 62
     7
370
    25
100
AcDbCircle
 10
654.1613092456
 20
201.0445523765
 30
0.0
 40
0.3000000000000682
100
AcDbArc
 50
270.0
 51
0.0
  0
LINE
  5
300
330
1F
100
AcDbEntity
  8
0
  6
Continuous
 62
     7
370
    25
100
AcDbLine
 10
635.9613092457
 20
200.7445523765
 30
0.0
 11
654.1613092456
 21
200.7445523765
 31
0.0
  0
ARC
  5
301
330
1F
100
AcDbEntity
  8
0
  6
Continuous
 62
     7
370
    25
100
AcDbCircle
 10
654.1613092456
 20
221.7445523765
 30
0.0
 40
0.3000000000000682
100
AcDbArc
 50
0.0
 51
90.0
  0
LINE
  5
302
330
1F
100
AcDbEntity
  8
0
  6
Continuous
 62
     7
370
    25
100
AcDbLine
 10
654.1613092456
 20
222.0445523765
 30
0.0
 11
647.2913092456
 21
222.0445523765
 31
0.0
  0
LINE
  5
303
330
1F
100
AcDbEntity
  8
0
  6
Continuous
 62
     7
370
    25
100
AcDbLine
 10
602.1667240807
 20
225.2445523765
 30
0.0
 11
602.7212693102
 21
225.2445523765
 31
0.0
  0
ARC
  5
304
330
1F
100
AcDbEntity
  8
0
  6
Continuous
 62
     7
370
    25
100
AcDbCircle
 10
610.9613092457
 20
225.2445523765
 30
0.0
 40
8.794585164970016
100
AcDbArc
 50
90.0
 51
180.0
  0
LINE
  5
305
330
1F
100
AcDbEntity
  8
0
  6
Continuous
 62
     7
370
    25
100
AcDbLine
 10
602.1667240807
 20
225.2445523765
 30
0.0
 11
602.1667240807
 21
197.0829336545
 31
0.0
  0
LINE
  5
306
330
1F
100
AcDbEntity
  8
0
  6
Continuous
 62
     7
370
    25
100
AcDbLine
 10
672.7558944106
 20
225.2445523765
 30
0.0
 11
673.9116442776
 21
225.2445523765
 31
0.0
  0
LINE
  5
307
330
1F
100
AcDbEntity
  8
0
  6
Continuous
 62
     7
370
    25
100
AcDbLine
 10
673.9116442776
 20
191.2445523765
 30
0.0
 11
673.9116442776
 21
225.2445523765
 31
0.0
  0
LINE
  5
308
330
1F
100
AcDbEntity
  8
0
  6
Continuous
 62
     7
370
    25
100
AcDbLine
 10
672.9405907434
 20
191.2445523765
 30
0.0
 11
673.9116442776
 21
191.2445523765
 31
0.0
  0
LINE
  5
309
330
1F
100
AcDbEntity
  8
0
  6
Continuous
 62
     7
370
    25
100
AcDbLine
 10
672.7925306738
 20
194.9936589297
 30
0.0
 11
672.9405907434
 21
191.2445523765
 31
0.0
  0
ELLIPSE
  5
30A
330
1F
100
AcDbEntity
  8
0
  6
Continuous
 62
     7
370
    25
100
AcDbEllipse
 10
673.7778820182
 20
221.0445523765
 30
0.0
 11
0.0
 21
1.25
 31
0.0
210
0.0
220
0.0
230
1.0
 40
0.0524077793
 41
0.0
 42
6.283185307179586
  0
LINE
  5
30B
330
1F
100
AcDbEntity
  8
0
  6
Continuous
 62
     7
370
    25
100
AcDbLine
 10
602.1300878176
 20
194.9936589297
 30
0.0
 11
601.9820277479
 21
191.2445523765
 31
0.0
  0
LINE
  5
30C
330
1F
100
AcDbEntity
  8
0
  6
Continuous
 62
     7
370
    25
100
AcDbLine
 10
601.9820277479
 20
191.2445523765
 30
0.0
 11
601.0109742137
 21
191.2445523765
 31
0.0
  0
LINE
  5
30D
330
1F
100
AcDbEntity
  8
0
  6
Continuous
 62
     7
370
    25
100
AcDbLine
 10
601.0109742137
 20
225.2445523765
 30
0.0
 11
601.0109742137
 21
191.2445523765
 31
0.0
  0
LINE
  5
30E
330
1F
100
AcDbEntity
  8
0
  6
Continuous
 62
     7
370
    25
100
AcDbLine
 10
602.1667240807
 20
225.2445523765
 30
0.0
 11
601.0109742137
 21
225.2445523765
 31
0.0
  0
ELLIPSE
  5
30F
330
1F
100
AcDbEntity
  8
0
  6
Continuous
 62
     7
370
    25
100
AcDbEllipse
 10
601.1447364732
 20
221.0445523765
 30
0.0
 11
0.0
 21
1.25
 31
0.0
210
0.0
220
0.0
230
1.0
 40
0.0524077793
 41
0.0
 42
6.283185307179586
  0
LINE
  5
310
330
1F
100
AcDbEntity
  8
0
  6
Continuous
 62
     7
370
    25
100
AcDbLine
 10
663.9613092457
 20
234.0391375415
 30
0.0
 11
663.9613092457
 21
235.1948874085
 31
0.0
  0
ARC
  5
311
330
1F
100
AcDbEntity
  8
0
  6
Continuous
 62
     7
370
    25
100
AcDbCircle
 10
663.9613092457
 20
225.2445523765
 30
0.0
 40
9.950335031960321
100
AcDbArc
 50
0.0
 51
90.0
  0
LINE
  5
312
330
1F
100
AcDbEntity
  8
0
  6
Continuous
 62
     7
370
    25
100
AcDbLine
 10
610.9613092457
 20
234.0391375415
 30
0.0
 11
610.9613092457
 21
235.1948874085
 31
0.0
  0
LINE
  5
313
330
1F
100
AcDbEntity
  8
0
  6
Continuous
 62
     7
370
    25
100
AcDbLine
 10
663.9613092457
 20
235.1948874085
 30
0.0
 11
610.9613092457
 21
235.1948874085
 31
0.0
  0
ARC
  5
314
330
1F
100
AcDbEntity
  8
0
  6
Continuous
 62
     7
370
    25
100
AcDbCircle
 10
610.9613092457
 20
225.2445523765
 30
0.0
 40
9.950335031960321
100
AcDbArc
 50
90.0
 51
180.0
  0
LINE
  5
315
330
1F
100
AcDbEntity
  8
0
  6
Continuous
 62
     7
370
    25
100
AcDbLine
 10
647.2913092456
 20
222.0445523765
 30
0.0
 11
642.8313092456
 21
222.0445523765
 31
0.0
  0
LINE
  5
316
330
1F
100
AcDbEntity
  8
0
  6
Continuous
 62
     7
370
    25
100
AcDbLine
 10
672.3860455139
 20
190.9265670088
 30
0.0
 11
672.2379854443
 21
194.6756735619
 31
0.0
  0
LINE
  5
317
330
1F
100
AcDbEntity
  8
0
  6
Continuous
 62
     7
370
    25
100
AcDbLine
 10
672.9405907434
 20
191.2445523765
 30
0.0
 11
672.3860455139
 21
190.9265670088
 31
0.0
  0
SPLINE
  5
318
330
1F
100
AcDbEntity
  8
0
  6
Continuous
 62
     7
370
    25
100
AcDbSpline
210
0.0
220
0.0
230
1.0
 70
     8
 71
     3
 72
    14
 73
    10
 74
     0
 42
0.00000001
 43
0.00000001
 40
0.0
 40
0.0
 40
0.0
 40
0.0
 40
0.2500000000000004
 40
0.2500000000000004
 40
0.5000000000000008
 40
0.5000000000000008
 40
0.7500000000000003
 40
0.7500000000000003
 40
1.0
 40
1.0
 40
1.0
 40
1.0
 10
663.9613092456791
 20
182.1554405884859
 30
0.0
 10
665.092720799892
 20
182.1554302847737
 30
0.0
 10
666.223639602464
 20
182.3863854367077
 30
0.0
 10
668.3055620353974
 20
183.2736256147051
 30
0.0
 10
669.2556589480704
 20
183.9295345341182
 30
0.0
 10
670.8238034483843
 20
185.5621546209142
 30
0.0
 10
671.4411680786184
 20
186.5381547505356
 30
0.0
 10
672.2448050170547
 20
188.655116156222
 30
0.0
 10
672.4308096270099
 20
189.7951521531529
 30
0.0
 10
672.3860455139404
 20
190.9265670087669
 30
0.0
  0
LINE
  5
319
330
1F
100
AcDbEntity
  8
0
  6
Continuous
 62
     7
370
    25
100
AcDbLine
 10
610.9613092457
 20
182.1554405885
 30
0.0
 11
663.9613092457
 21
182.1554405885
 31
0.0
  0
SPLINE
  5
31A
330
1F
100
AcDbEntity
  8
0
  6
Continuous
 62
     7
370
    25
100
AcDbSpline
210
0.0
220
0.0
230
1.0
 70
     8
 71
     3
 72
    14
 73
    10
 74
     0
 42
0.00000001
 43
0.00000001
 40
0.0
 40
0.0
 40
0.0
 40
0.0
 40
0.2500000000000002
 40
0.2500000000000002
 40
0.5000000000000003
 40
0.5000000000000003
 40
0.7500000000000001
 40
0.7500000000000001
 40
1.0
 40
1.0
 40
1.0
 40
1.0
 10
610.961309245679
 20
182.155440588486
 30
0.0
 10
609.829897691466
 20
182.1554302847736
 30
0.0
 10
608.698978888894
 20
182.3863854367077
 30
0.0
 10
606.6170564559607
 20
183.2736256147051
 30
0.0
 10
605.6669595432877
 20
183.9295345341183
 30
0.0
 10
604.0988150429737
 20
185.5621546209142
 30
0.0
 10
603.4814504127396
 20
186.5381547505357
 30
0.0
 10
602.6778134743035
 20
188.655116156222
 30
0.0
 10
602.4918088643482
 20
189.795152153153
 30
0.0
 10
602.5365729774177
 20
190.9265670087669
 30
0.0
  0
LINE
  5
31B
330
1F
100
AcDbEntity
  8
0
  6
Continuous
 62
     7
370
    25
100
AcDbLine
 10
602.5365729774
 20
190.9265670088
 30
0.0
 11
602.6846330471
 21
194.6756735619
 31
0.0
  0
LINE
  5
31C
330
1F
100
AcDbEntity
  8
0
  6
Continuous
 62
     7
370
    25
100
AcDbLine
 10
601.9820277479
 20
191.2445523765
 30
0.0
 11
602.5365729774
 21
190.9265670088
 31
0.0
  0
SPLINE
  5
31D
330
1F
100
AcDbEntity
  8
0
  6
Continuous
 62
     7
370
    25
100
AcDbSpline
210
0.0
220
0.0
230
1.0
 70
     8
 71
     3
 72
    25
 73
    21
 74
     0
 42
0.00000001
 43
0.00000001
 40
0.0
 40
0.0
 40
0.0
 40
0.0
 40
0.0140809232774492
 40
0.0350317683339512
 40
0.0628677861098652
 40
0.0980984362788453
 40
0.1256819590935738
 40
0.1928874782932543
 40
0.2500457781827911
 40
0.3748017487827965
 40
0.4994685707019388
 40
0.6245770375351104
 40
0.6883545293568006
 40
0.7494279855200623
 40
0.8128504141461942
 40
0.8744287250076884
 40
0.9060947528955767
 40
0.9375486833605677
 40
0.9688352608641722
 40
1.0
 40
1.0
 40
1.0
 40
1.0
 10
672.9405907434287
 20
191.2445523765311
 30
0.0
 10
672.9425039282531
 20
191.1826823393118
 30
0.0
 10
672.9472637189454
 20
191.0287565797595
 30
0.0
 10
672.9471804139465
 20
190.7523927634335
 30
0.0
 10
672.9345214233454
 20
190.3831759065417
 30
0.0
 10
672.9022203771513
 20
189.9854887364869
 30
0.0
 10
672.8296766398423
 20
189.4171585154514
 30
0.0
 10
672.6982064141207
 20
188.7570901013038
 30
0.0
 10
672.382386675981
 20
187.6929506815338
 30
0.0
 10
671.8102695714222
 20
186.4226850379267
 30
0.0
 10
670.8012137698432
 20
184.9894113710009
 30
0.0
 10
669.6934628371141
 20
183.9371097672382
 30
0.0
 10
668.6626843348926
 20
183.2284996888143
 30
0.0
 10
667.8169370114259
 20
182.7697802811591
 30
0.0
 10
666.920013215595
 20
182.401268170363
 30
0.0
 10
666.1222894525852
 20
182.1718838225742
 30
0.0
 10
665.4697800979493
 20
182.0415906036879
 30
0.0
 10
664.968620338918
 20
181.9711389189519
 30
0.0
 10
664.4653854919364
 20
181.927050720243
 30
0.0
 10
664.1291159812768
 20
181.9216005135921
 30
0.0
 10
663.9613092456791
 20
181.918880726762
 30
0.0
  0
LINE
  5
31E
330
1F
100
AcDbEntity
  8
0
  6
Continuous
 62
     7
370
    25
100
AcDbLine
 10
663.9613092457
 20
181.9188807268
 30
0.0
 11
663.9613092457
 21
182.1554405885
 31
0.0
  0
LINE
  5
31F
330
1F
100
AcDbEntity
  8
0
  6
Continuous
 62
     7
370
    25
100
AcDbLine
 10
610.9613092457
 20
181.9188807268
 30
0.0
 11
610.9613092457
 21
182.1554405885
 31
0.0
  0
SPLINE
  5
320
330
1F
100
AcDbEntity
  8
0
  6
Continuous
 62
     7
370
    25
100
AcDbSpline
210
0.0
220
0.0
230
1.0
 70
     8
 71
     3
 72
    14
 73
    10
 74
     0
 42
0.00000001
 43
0.00000001
 40
0.0
 40
0.0
 40
0.0
 40
0.0
 40
0.2499999999999999
 40
0.2499999999999999
 40
0.4999999999999998
 40
0.4999999999999998
 40
0.7499999999999999
 40
0.7499999999999999
 40
1.0
 40
1.0
 40
1.0
 40
1.0
 10
601.9820277479294
 20
191.2445523765311
 30
0.0
 10
601.9372585439729
 20
190.0386622202535
 30
0.0
 10
602.138449772901
 20
188.8248303696369
 30
0.0
 10
602.9991631542935
 20
186.5727737367079
 30
0.0
 10
603.6583749321735
 20
185.5355078936836
 30
0.0
 10
605.3297257408453
 20
183.8013897501464
 30
0.0
 10
606.3411392109823
 20
183.1052590685736
 30
0.0
 10
608.555929372013
 20
182.1638106000974
 30
0.0
 10
609.7583654021764
 20
181.9188699394542
 30
0.0
 10
610.961309245679
 20
181.918880726762
 30
0.0
  0
ARC
  5
321
330
1F
100
AcDbEntity
  8
0
  6
Continuous
 62
     7
370
    25
100
AcDbCircle
 10
663.9613092457
 20
191.2445523765
 30
0.0
 40
9.950335031960321
100
AcDbArc
 50
270.0
 51
0.0
  0
LINE
  5
322
330
1F
100
AcDbEntity
  8
0
  6
Continuous
 62
     7
370
    25
100
AcDbLine
 10
663.9613092457
 20
181.9188807268
 30
0.0
 11
663.9613092457
 21
181.2942173446
 31
0.0
  0
LINE
  5
323
330
1F
100
AcDbEntity
  8
0
  6
Continuous
 62
     7
370
    25
100
AcDbLine
 10
610.9613092457
 20
181.9188807268
 30
0.0
 11
610.9613092457
 21
181.2942173446
 31
0.0
  0
ARC
  5
324
330
1F
100
AcDbEntity
  8
0
  6
Continuous
 62
     7
370
    25
100
AcDbCircle
 10
610.9613092457
 20
191.2445523765
 30
0.0
 40
9.950335031960293
100
AcDbArc
 50
180.0
 51
270.0
  0
LINE
  5
325
330
1F
100
AcDbEntity
  8
0
  6
Continuous
 62
     7
370
    25
100
AcDbLine
 10
663.9613092457
 20
181.9188807268
 30
0.0
 11
610.9613092457
 21
181.9188807268
 31
0.0
  0
LINE
  5
326
330
1F
100
AcDbEntity
  8
0
  6
Continuous
 62
     7
370
    25
100
AcDbLine
 10
610.9613092457
 20
181.2942173446
 30
0.0
 11
663.9613092457
 21
181.2942173446
 31
0.0
  0
LINE
  5
327
330
1F
100
AcDbEntity
  8
0
  6
Continuous
 62
     7
370
    25
100
AcDbLine
 10
673.9116442776
 20
225.2445523765
 30
0.0
 11
674.9102738124
 21
225.2445523765
 31
0.0
  0
LINE
  5
328
330
1F
100
AcDbEntity
  8
0
  6
Continuous
 62
     7
370
    25
100
AcDbLine
 10
674.9102738124
 20
225.2445523765
 30
0.0
 11
674.9102738124
 21
191.2445523765
 31
0.0
  0
LINE
  5
329
330
1F
100
AcDbEntity
  8
0
  6
Continuous
 62
     7
370
    25
100
AcDbLine
 10
673.9116442776
 20
191.2445523765
 30
0.0
 11
674.9102738124
 21
191.2445523765
 31
0.0
  0
LINE
  5
32A
330
1F
100
AcDbEntity
  8
0
  6
Continuous
 62
     7
370
    25
100
AcDbLine
 10
663.9613092457
 20
235.1948874085
 30
0.0
 11
663.9613092457
 21
236.1935169432
 31
0.0
  0
ARC
  5
32B
330
1F
100
AcDbEntity
  8
0
  6
Continuous
 62
     7
370
    25
100
AcDbCircle
 10
663.9613092457
 20
225.2445523765
 30
0.0
 40
10.94896456671492
100
AcDbArc
 50
0.0
 51
90.0
  0
ARC
  5
32C
330
1F
100
AcDbEntity
  8
0
  6
Continuous
 62
     7
370
    25
100
AcDbCircle
 10
663.9613092457
 20
191.2445523765
 30
0.0
 40
10.94896456671484
100
AcDbArc
 50
270.0
 51
0.0
  0
LINE
  5
32D
330
1F
100
AcDbEntity
  8
0
  6
Continuous
 62
     7
370
    25
100
AcDbLine
 10
663.9613092457
 20
180.2955878098
 30
0.0
 11
663.9613092457
 21
181.2942173446
 31
0.0
  0
LINE
  5
32E
330
1F
100
AcDbEntity
  8
0
  6
Continuous
 62
     7
370
    25
100
AcDbLine
 10
663.9613092457
 20
180.2955878098
 30
0.0
 11
610.9613092457
 21
180.2955878098
 31
0.0
  0
LINE
  5
32F
330
1F
100
AcDbEntity
  8
0
  6
Continuous
 62
     7
370
    25
100
AcDbLine
 10
610.9613092457
 20
180.2955878098
 30
0.0
 11
610.9613092457
 21
181.2942173446
 31
0.0
  0
LINE
  5
330
330
1F
100
AcDbEntity
  8
0
  6
Continuous
 62
     7
370
    25
100
AcDbLine
 10
610.9613092457
 20
235.1948874085
 30
0.0
 11
610.9613092457
 21
236.1935169432
 31
0.0
  0
LINE
  5
331
330
1F
100
AcDbEntity
  8
0
  6
Continuous
 62
     7
370
    25
100
AcDbLine
 10
610.9613092457
 20
236.1935169432
 30
0.0
 11
663.9613092457
 21
236.1935169432
 31
0.0
  0
ARC
  5
332
330
1F
100
AcDbEntity
  8
0
  6
Continuous
 62
     7
370
    25
100
AcDbCircle
 10
610.9613092457
 20
191.2445523765
 30
0.0
 40
10.94896456671489
100
AcDbArc
 50
180.0
 51
270.0
  0
LINE
  5
333
330
1F
100
AcDbEntity
  8
0
  6
Continuous
 62
     7
370
    25
100
AcDbLine
 10
600.012344679
 20
191.2445523765
 30
0.0
 11
601.0109742137
 21
191.2445523765
 31
0.0
  0
LINE
  5
334
330
1F
100
AcDbEntity
  8
0
  6
Continuous
 62
     7
370
    25
100
AcDbLine
 10
600.012344679
 20
225.2445523765
 30
0.0
 11
601.0109742137
 21
225.2445523765
 31
0.0
  0
ARC
  5
335
330
1F
100
AcDbEntity
  8
0
  6
Continuous
 62
     7
370
    25
100
AcDbCircle
 10
610.9613092457
 20
225.2445523765
 30
0.0
 40
10.94896456671492
100
AcDbArc
 50
90.0
 51
180.0
  0
LINE
  5
336
330
1F
100
AcDbEntity
  8
0
  6
Continuous
 62
     7
370
    25
100
AcDbLine
 10
600.012344679
 20
191.2445523765
 30
0.0
 11
600.012344679
 21
225.2445523765
 31
0.0
  0
LINE
  5
337
330
1F
100
AcDbEntity
  8
0
  6
Continuous
 62
     7
370
    25
100
AcDbLine
 10
717.1113092457
 20
208.2445523765
 30
0.0
 11
717.1113092457
 21
162.4445523766
 31
0.0
  0
LINE
  5
338
330
1F
100
AcDbEntity
  8
0
  6
Continuous
 62
     7
370
    25
100
AcDbLine
 10
717.1113092457
 20
208.2445523765
 30
0.0
 11
719.3613092457
 21
208.2445523765
 31
0.0
  0
LINE
  5
339
330
1F
100
AcDbEntity
  8
0
  6
Continuous
 62
     7
370
    25
100
AcDbLine
 10
719.3613092457
 20
208.2445523765
 30
0.0
 11
719.3613092457
 21
161.8445523765
 31
0.0
  0
SPLINE
  5
33A
330
1F
100
AcDbEntity
  8
0
  6
Continuous
 62
     7
370
    25
100
AcDbSpline
210
0.0
220
0.0
230
1.0
 70
     8
 71
     3
 72
    14
 73
    10
 74
     0
 42
0.00000001
 43
0.00000001
 40
0.0
 40
0.0
 40
0.0
 40
0.0
 40
0.25
 40
0.25
 40
0.5
 40
0.5
 40
0.75
 40
0.75
 40
1.0
 40
1.0
 40
1.0
 40
1.0
 10
719.3613092456791
 20
161.8445523765311
 30
0.0
 10
719.3613092469826
 20
161.2685937234318
 30
0.0
 10
719.2467890253844
 20
160.6928616852105
 30
0.0
 10
718.805969358353
 20
159.6286288622444
 30
0.0
 10
718.4798433566364
 20
159.1405468076741
 30
0.0
 10
717.665314818518
 20
158.3260182686339
 30
0.0
 10
717.1772327643166
 20
157.999892266365
 30
0.0
 10
716.1129999418495
 20
157.5590725981291
 30
0.0
 10
715.5372679037579
 20
157.4445523758793
 30
0.0
 10
714.9613092506585
 20
157.4445523765311
 30
0.0
  0
LINE
  5
33B
330
1F
100
AcDbEntity
  8
0
  6
Continuous
 62
     7
370
    25
100
AcDbLine
 10
714.9613092462
 20
157.4445523753
 30
0.0
 11
714.1113092457
 21
159.4445523765
 31
0.0
  0
SPLINE
  5
33C
330
1F
100
AcDbEntity
  8
0
  6
Continuous
 62
     7
370
    25
100
AcDbSpline
210
0.0
220
0.0
230
1.0
 70
     8
 71
     3
 72
    13
 73
     9
 74
     0
 42
0.00000001
 43
0.00000001
 40
0.0
 40
0.0
 40
0.0
 40
0.0
 40
0.1249999999999987
 40
0.2499999999999974
 40
0.4999999999999949
 40
0.7499999999999923
 40
0.8749999999999961
 40
1.0
 40
1.0
 40
1.0
 40
1.0
 10
717.111309245679
 20
162.4445523765868
 30
0.0
 10
717.1113092456827
 20
162.2094986588328
 30
0.0
 10
717.0580061874266
 20
161.7794617730697
 30
0.0
 10
716.8061599331163
 20
161.0326405457333
 30
0.0
 10
716.2776297307727
 20
160.2782318906791
 30
0.0
 10
715.523221075406
 20
159.7497016885477
 30
0.0
 10
714.7763998483308
 20
159.4978554346353
 30
0.0
 10
714.3463629629169
 20
159.4445523765278
 30
0.0
 10
714.111309245679
 20
159.4445523765311
 30
0.0
  0
LINE
  5
33D
330
1F
100
AcDbEntity
  8
0
  6
Continuous
 62
     7
370
    25
100
AcDbLine
 10
714.9613092462
 20
259.0445523777
 30
0.0
 11
714.1113092457
 21
257.0445523765
 31
0.0
  0
SPLINE
  5
33E
330
1F
100
AcDbEntity
  8
0
  6
Continuous
 62
     7
370
    25
100
AcDbSpline
210
0.0
220
0.0
230
1.0
 70
     8
 71
     3
 72
    15
 73
    11
 74
     0
 42
0.00000001
 43
0.00000001
 40
0.0
 40
0.0
 40
0.0
 40
0.0
 40
0.125
 40
0.25
 40
0.375
 40
0.5
 40
0.625
 40
0.75
 40
0.875
 40
1.0
 40
1.0
 40
1.0
 40
1.0
 10
719.3613092459784
 20
254.6445523765895
 30
0.0
 10
719.3613092459193
 20
254.8926314613706
 30
0.0
 10
719.319366106745
 20
255.4114447142896
 30
0.0
 10
719.0966448974369
 20
256.2311980272142
 30
0.0
 10
718.6887358201301
 20
257.0435481036936
 30
0.0
 10
718.0966800943062
 20
257.7799232266653
 30
0.0
 10
717.3603049710865
 20
258.3719789521139
 30
0.0
 10
716.5479548945207
 20
258.7798880290013
 30
0.0
 10
715.7282015816427
 20
259.0026092379248
 30
0.0
 10
715.2093883288051
 20
259.0445523768892
 30
0.0
 10
714.9613092455926
 20
259.0445523763277
 30
0.0
  0
LINE
  5
33F
330
1F
100
AcDbEntity
  8
0
  6
Continuous
 62
     7
370
    25
100
AcDbLine
 10
719.3613092457
 20
208.2445523765
 30
0.0
 11
719.3613092457
 21
254.6445523765
 31
0.0
  0
LINE
  5
340
330
1F
100
AcDbEntity
  8
0
  6
Continuous
 62
     7
370
    25
100
AcDbLine
 10
717.1113092457
 20
208.2445523765
 30
0.0
 11
717.1113092457
 21
254.0445523765
 31
0.0
  0
SPLINE
  5
341
330
1F
100
AcDbEntity
  8
0
  6
Continuous
 62
     7
370
    25
100
AcDbSpline
210
0.0
220
0.0
230
1.0
 70
     8
 71
     3
 72
    13
 73
     9
 74
     0
 42
0.00000001
 43
0.00000001
 40
0.0
 40
0.0
 40
0.0
 40
0.0
 40
0.1250000000000016
 40
0.2500000000000032
 40
0.5000000000000021
 40
0.7500000000000011
 40
0.8750000000000007
 40
1.0
 40
1.0
 40
1.0
 40
1.0
 10
717.111309245679
 20
254.0445523764755
 30
0.0
 10
717.1113092456835
 20
254.2796060942296
 30
0.0
 10
717.0580061874273
 20
254.7096429799927
 30
0.0
 10
716.8061599331171
 20
255.4564642073292
 30
0.0
 10
716.2776297307735
 20
256.2108728623838
 30
0.0
 10
715.5232210754066
 20
256.7394030645152
 30
0.0
 10
714.7763998483304
 20
256.9912493184266
 30
0.0
 10
714.3463629629173
 20
257.0445523765351
 30
0.0
 10
714.111309245679
 20
257.0445523765311
 30
0.0
  0
LINE
  5
342
330
1F
100
AcDbEntity
  8
0
  6
Continuous
 62
     7
370
    25
100
AcDbLine
 10
559.9613092452
 20
259.0445523777
 30
0.0
 11
560.8113092457
 21
257.0445523765
 31
0.0
  0
LINE
  5
343
330
1F
100
AcDbEntity
  8
0
  6
Continuous
 62
     7
370
    25
100
AcDbLine
 10
714.9613092507
 20
259.0445523765
 30
0.0
 11
559.9613092407
 21
259.0445523765
 31
0.0
  0
LINE
  5
344
330
1F
100
AcDbEntity
  8
0
  6
Continuous
 62
     7
370
    25
100
AcDbLine
 10
560.8113092457
 20
257.0445523765
 30
0.0
 11
714.1113092457
 21
257.0445523765
 31
0.0
  0
LINE
  5
345
330
1F
100
AcDbEntity
  8
0
  6
Continuous
 62
     7
370
    25
100
AcDbLine
 10
714.9613092507
 20
157.4445523765
 30
0.0
 11
559.9613092407
 21
157.4445523765
 31
0.0
  0
LINE
  5
346
330
1F
100
AcDbEntity
  8
0
  6
Continuous
 62
     7
370
    25
100
AcDbLine
 10
559.9613092452
 20
157.4445523753
 30
0.0
 11
560.8113092457
 21
159.4445523765
 31
0.0
  0
LINE
  5
347
330
1F
100
AcDbEntity
  8
0
  6
Continuous
 62
     7
370
    25
100
AcDbLine
 10
714.1113092457
 20
159.4445523765
 30
0.0
 11
560.8113092457
 21
159.4445523765
 31
0.0
  0
LINE
  5
348
330
1F
100
AcDbEntity
  8
0
  6
Continuous
 62
     7
370
    25
100
AcDbLine
 10
557.8113092457
 20
208.2445523765
 30
0.0
 11
557.8113092457
 21
254.0445523765
 31
0.0
  0
LINE
  5
349
330
1F
100
AcDbEntity
  8
0
  6
Continuous
 62
     7
370
    25
100
AcDbLine
 10
557.8113092457
 20
208.2445523765
 30
0.0
 11
555.5613092457
 21
208.2445523765
 31
0.0
  0
LINE
  5
34A
330
1F
100
AcDbEntity
  8
0
  6
Continuous
 62
     7
370
    25
100
AcDbLine
 10
555.5613092457
 20
208.2445523765
 30
0.0
 11
555.5613092457
 21
254.6445523765
 31
0.0
  0
SPLINE
  5
34B
330
1F
100
AcDbEntity
  8
0
  6
Continuous
 62
     7
370
    25
100
AcDbSpline
210
0.0
220
0.0
230
1.0
 70
     8
 71
     3
 72
    14
 73
    10
 74
     0
 42
0.00000001
 43
0.00000001
 40
0.0
 40
0.0
 40
0.0
 40
0.0
 40
0.25
 40
0.25
 40
0.5
 40
0.5
 40
0.75
 40
0.75
 40
1.0
 40
1.0
 40
1.0
 40
1.0
 10
555.561309245679
 20
254.6445523765311
 30
0.0
 10
555.5613092443754
 20
255.2205110296305
 30
0.0
 10
555.6758294659736
 20
255.7962430678517
 30
0.0
 10
556.1166491330051
 20
256.8604758908178
 30
0.0
 10
556.4427751347216
 20
257.3485579453882
 30
0.0
 10
557.2573036728401
 20
258.1630864844284
 30
0.0
 10
557.7453857270414
 20
258.4892124866973
 30
0.0
 10
558.8096185495086
 20
258.9300321549331
 30
0.0
 10
559.3853505876002
 20
259.0445523771829
 30
0.0
 10
559.9613092406996
 20
259.0445523765312
 30
0.0
  0
SPLINE
  5
34C
330
1F
100
AcDbEntity
  8
0
  6
Continuous
 62
     7
370
    25
100
AcDbSpline
210
0.0
220
0.0
230
1.0
 70
     8
 71
     3
 72
    13
 73
     9
 74
     0
 42
0.00000001
 43
0.00000001
 40
0.0
 40
0.0
 40
0.0
 40
0.0
 40
0.1249999999999992
 40
0.2499999999999984
 40
0.4999999999999968
 40
0.7499999999999951
 40
0.8749999999999976
 40
1.0
 40
1.0
 40
1.0
 40
1.0
 10
557.811309245679
 20
254.0445523764755
 30
0.0
 10
557.8113092456753
 20
254.2796060942295
 30
0.0
 10
557.8646123039316
 20
254.7096429799925
 30
0.0
 10
558.1164585582418
 20
255.456464207329
 30
0.0
 10
558.6449887605854
 20
256.2108728623832
 30
0.0
 10
559.3993974159519
 20
256.7394030645146
 30
0.0
 10
560.1462186430272
 20
256.991249318427
 30
0.0
 10
560.576255528441
 20
257.0445523765345
 30
0.0
 10
560.811309245679
 20
257.0445523765311
 30
0.0
  0
SPLINE
  5
34D
330
1F
100
AcDbEntity
  8
0
  6
Continuous
 62
     7
370
    25
100
AcDbSpline
210
0.0
220
0.0
230
1.0
 70
     8
 71
     3
 72
    15
 73
    11
 74
     0
 42
0.00000001
 43
0.00000001
 40
0.0
 40
0.0
 40
0.0
 40
0.0
 40
0.125
 40
0.25
 40
0.375
 40
0.5
 40
0.625
 40
0.75
 40
0.875
 40
1.0
 40
1.0
 40
1.0
 40
1.0
 10
555.5613092453796
 20
161.8445523764728
 30
0.0
 10
555.5613092454388
 20
161.5964732916917
 30
0.0
 10
555.6032523846131
 20
161.0776600387727
 30
0.0
 10
555.8259735939212
 20
160.2579067258481
 30
0.0
 10
556.2338826712281
 20
159.4455566493687
 30
0.0
 10
556.8259383970518
 20
158.7091815263969
 30
0.0
 10
557.5623135202717
 20
158.1171258009484
 30
0.0
 10
558.3746635968373
 20
157.709216724061
 30
0.0
 10
559.1944169097154
 20
157.4864955151375
 30
0.0
 10
559.7132301625529
 20
157.4445523761731
 30
0.0
 10
559.9613092457655
 20
157.4445523767346
 30
0.0
  0
LINE
  5
34E
330
1F
100
AcDbEntity
  8
0
  6
Continuous
 62
     7
370
    25
100
AcDbLine
 10
555.5613092457
 20
208.2445523765
 30
0.0
 11
555.5613092457
 21
161.8445523765
 31
0.0
  0
LINE
  5
34F
330
1F
100
AcDbEntity
  8
0
  6
Continuous
 62
     7
370
    25
100
AcDbLine
 10
557.8113092457
 20
208.2445523765
 30
0.0
 11
557.8113092457
 21
162.4445523766
 31
0.0
  0
SPLINE
  5
350
330
1F
100
AcDbEntity
  8
0
  6
Continuous
 62
     7
370
    25
100
AcDbSpline
210
0.0
220
0.0
230
1.0
 70
     8
 71
     3
 72
    13
 73
     9
 74
     0
 42
0.00000001
 43
0.00000001
 40
0.0
 40
0.0
 40
0.0
 40
0.0
 40
0.1250000000000002
 40
0.2500000000000003
 40
0.4999999999999988
 40
0.7499999999999973
 40
0.8749999999999987
 40
1.0
 40
1.0
 40
1.0
 40
1.0
 10
560.811309245679
 20
159.4445523765311
 30
0.0
 10
560.5762555284425
 20
159.4445523765311
 30
0.0
 10
560.1462186430298
 20
159.4978554346397
 30
0.0
 10
559.3993974159544
 20
159.7497016885509
 30
0.0
 10
558.6449887605753
 20
160.2782318907497
 30
0.0
 10
558.1164585582457
 20
161.0326405457344
 30
0.0
 10
557.8646123039433
 20
161.7794617730767
 30
0.0
 10
557.811309245679
 20
162.2094986588335
 30
0.0
 10
557.811309245679
 20
162.4445523765868
 30
0.0
  0
SPLINE
  5
351
330
1F
100
AcDbEntity
  8
0
  6
Continuous
 62
     7
370
    25
100
AcDbSpline
210
0.0
220
0.0
230
1.0
 70
     8
 71
     3
 72
    20
 73
    16
 74
     0
 42
0.00000001
 43
0.00000001
 40
0.0
 40
0.0
 40
0.0
 40
0.0
 40
0.1249999999999995
 40
0.1249999999999995
 40
0.2499999999999991
 40
0.2499999999999991
 40
0.3749999999999986
 40
0.3749999999999986
 40
0.4999999999999981
 40
0.4999999999999981
 40
0.6249999999999977
 40
0.6249999999999977
 40
0.7499999999999971
 40
0.7499999999999971
 40
1.0
 40
1.0
 40
1.0
 40
1.0
 10
719.961309245679
 20
254.6445523765312
 30
0.0
 10
719.961309245679
 20
254.9819037611831
 30
0.0
 10
719.9268066052178
 20
255.3193902654671
 30
0.0
 10
719.7929018233065
 20
255.973985010694
 30
0.0
 10
719.6936015555011
 20
256.2908978361603
 30
0.0
 10
719.4414077487544
 20
256.8881729536102
 30
0.0
 10
719.2903687036289
 20
257.1657671542031
 30
0.0
 10
718.9433925583547
 20
257.6843683269825
 30
0.0
 10
718.7471470697518
 20
257.9257927849563
 30
0.0
 10
718.3050485010302
 20
258.375355804469
 30
0.0
 10
718.0559397246332
 20
258.5854295748156
 30
0.0
 10
717.5151230107025
 20
258.9556273745709
 30
0.0
 10
717.2240655957198
 20
259.1156038638803
 30
0.0
 10
716.3061675386182
 20
259.5060098075851
 30
0.0
 10
715.6339668856308
 20
259.6445523765311
 30
0.0
 10
714.961309245679
 20
259.6445523765312
 30
0.0
  0
LINE
  5
352
330
1F
100
AcDbEntity
  8
0
  6
Continuous
 62
     7
370
    25
100
AcDbLine
 10
714.9613092457
 20
259.6445523765
 30
0.0
 11
714.9613092457
 21
265.7445523765
 31
0.0
  0
LINE
  5
353
330
1F
100
AcDbEntity
  8
0
  6
Continuous
 62
     7
370
    25
100
AcDbLine
 10
714.9613092457
 20
265.7445523765
 30
0.0
 11
724.9613092457
 21
265.7445523765
 31
0.0
  0
SPLINE
  5
354
330
1F
100
AcDbEntity
  8
0
  6
Continuous
 62
     7
370
    25
100
AcDbSpline
210
0.0
220
0.0
230
1.0
 70
     8
 71
     3
 72
    14
 73
    10
 74
     0
 42
0.00000001
 43
0.00000001
 40
0.0
 40
0.0
 40
0.0
 40
0.0
 40
0.25
 40
0.25
 40
0.5
 40
0.5
 40
0.75
 40
0.75
 40
1.0
 40
1.0
 40
1.0
 40
1.0
 10
724.961309245679
 20
265.7445523765311
 30
0.0
 10
725.6158077151769
 20
265.7445523765311
 30
0.0
 10
726.2700486674755
 20
265.6144157598727
 30
0.0
 10
727.4794041475335
 20
265.1134843183024
 30
0.0
 10
728.0340428455536
 20
264.742886588522
 30
0.0
 10
728.9596434576699
 20
263.8172859764057
 30
0.0
 10
729.3302411874503
 20
263.2626472783857
 30
0.0
 10
729.8311726290207
 20
262.0532917983276
 30
0.0
 10
729.961309245679
 20
261.399050846029
 30
0.0
 10
729.961309245679
 20
260.7445523765311
 30
0.0
  0
LINE
  5
355
330
1F
100
AcDbEntity
  8
0
  6
Continuous
 62
     7
370
    25
100
AcDbLine
 10
729.9613092457
 20
260.7445523765
 30
0.0
 11
729.9613092457
 21
254.6445523765
 31
0.0
  0
LINE
  5
356
330
1F
100
AcDbEntity
  8
0
  6
Continuous
 62
     7
370
    25
100
AcDbLine
 10
719.9613092457
 20
254.6445523765
 30
0.0
 11
729.9613092457
 21
254.6445523765
 31
0.0
  0
SPLINE
  5
357
330
1F
100
AcDbEntity
  8
0
  6
Continuous
 62
     7
370
    25
100
AcDbSpline
210
0.0
220
0.0
230
1.0
 70
     8
 71
     3
 72
    20
 73
    16
 74
     0
 42
0.00000001
 43
0.00000001
 40
0.0
 40
0.0
 40
0.0
 40
0.0
 40
0.1249999999999995
 40
0.1249999999999995
 40
0.2499999999999991
 40
0.2499999999999991
 40
0.3749999999999986
 40
0.3749999999999986
 40
0.4999999999999981
 40
0.4999999999999981
 40
0.6249999999999977
 40
0.6249999999999977
 40
0.7499999999999971
 40
0.7499999999999971
 40
1.0
 40
1.0
 40
1.0
 40
1.0
 10
554.961309245679
 20
161.8445523765311
 30
0.0
 10
554.9613092456791
 20
161.5072009918792
 30
0.0
 10
554.9958118861404
 20
161.1697144875952
 30
0.0
 10
555.1297166680516
 20
160.5151197423683
 30
0.0
 10
555.2290169358567
 20
160.198206916902
 30
0.0
 10
555.4812107426035
 20
159.6009317994521
 30
0.0
 10
555.632249787729
 20
159.3233375988592
 30
0.0
 10
555.9792259330034
 20
158.8047364260798
 30
0.0
 10
556.1754714216061
 20
158.5633119681059
 30
0.0
 10
556.6175699903279
 20
158.1137489485932
 30
0.0
 10
556.8666787667247
 20
157.9036751782465
 30
0.0
 10
557.4074954806555
 20
157.5334773784914
 30
0.0
 10
557.6985528956382
 20
157.373500889182
 30
0.0
 10
558.6164509527399
 20
156.9830949454771
 30
0.0
 10
559.2886516057274
 20
156.8445523765312
 30
0.0
 10
559.961309245679
 20
156.8445523765311
 30
0.0
  0
LINE
  5
358
330
1F
100
AcDbEntity
  8
0
  6
Continuous
 62
     7
370
    25
100
AcDbLine
 10
559.9613092457
 20
156.8445523765
 30
0.0
 11
559.9613092457
 21
150.7445523765
 31
0.0
  0
LINE
  5
359
330
1F
100
AcDbEntity
  8
0
  6
Continuous
 62
     7
370
    25
100
AcDbLine
 10
559.9613092457
 20
150.7445523765
 30
0.0
 11
549.9613092457
 21
150.7445523765
 31
0.0
  0
SPLINE
  5
35A
330
1F
100
AcDbEntity
  8
0
  6
Continuous
 62
     7
370
    25
100
AcDbSpline
210
0.0
220
0.0
230
1.0
 70
     8
 71
     3
 72
    14
 73
    10
 74
     0
 42
0.00000001
 43
0.00000001
 40
0.0
 40
0.0
 40
0.0
 40
0.0
 40
0.25
 40
0.25
 40
0.5
 40
0.5
 40
0.75
 40
0.75
 40
1.0
 40
1.0
 40
1.0
 40
1.0
 10
549.9613092456791
 20
150.7445523765311
 30
0.0
 10
549.3068107761811
 20
150.7445523765311
 30
0.0
 10
548.6525698238827
 20
150.8746889931896
 30
0.0
 10
547.4432143438246
 20
151.3756204347599
 30
0.0
 10
546.8885756458044
 20
151.7462181645402
 30
0.0
 10
545.9629750336882
 20
152.6718187766566
 30
0.0
 10
545.5923773039077
 20
153.2264574746766
 30
0.0
 10
545.0914458623375
 20
154.4358129547347
 30
0.0
 10
544.9613092456791
 20
155.0900539070333
 30
0.0
 10
544.9613092456791
 20
155.7445523765311
 30
0.0
  0
LINE
  5
35B
330
1F
100
AcDbEntity
  8
0
  6
Continuous
 62
     7
370
    25
100
AcDbLine
 10
544.9613092457
 20
155.7445523765
 30
0.0
 11
544.9613092457
 21
161.8445523765
 31
0.0
  0
LINE
  5
35C
330
1F
100
AcDbEntity
  8
0
  6
Continuous
 62
     7
370
    25
100
AcDbLine
 10
554.9613092457
 20
161.8445523765
 30
0.0
 11
544.9613092457
 21
161.8445523765
 31
0.0
  0
SPLINE
  5
35D
330
1F
100
AcDbEntity
  8
0
  6
Continuous
 62
     7
370
    25
100
AcDbSpline
210
0.0
220
0.0
230
1.0
 70
     8
 71
     3
 72
    11
 73
     7
 74
     0
 42
0.00000001
 43
0.00000001
 40
0.0
 40
0.0
 40
0.0
 40
0.0
 40
0.25
 40
0.5
 40
0.75
 40
1.0
 40
1.0
 40
1.0
 40
1.0
 10
549.961309245679
 20
265.744552376519
 30
0.0
 10
549.3259353470468
 20
265.7445523765173
 30
0.0
 10
548.02827713992
 20
265.498175546113
 30
0.0
 10
546.335454551363
 20
264.3808121435306
 30
0.0
 10
545.210959059168
 20
262.6881578506989
 30
0.0
 10
544.9613092456956
 20
261.3840234536913
 30
0.0
 10
544.9613092456952
 20
260.7445523765311
 30
0.0
  0
LINE
  5
35E
330
1F
100
AcDbEntity
  8
0
  6
Continuous
 62
     7
370
    25
100
AcDbLine
 10
559.9613092457
 20
265.7445523765
 30
0.0
 11
549.9613092457
 21
265.7445523765
 31
0.0
  0
LINE
  5
35F
330
1F
100
AcDbEntity
  8
0
  6
Continuous
 62
     7
370
    25
100
AcDbLine
 10
559.9613092457
 20
259.6445523765
 30
0.0
 11
559.9613092457
 21
265.7445523765
 31
0.0
  0
SPLINE
  5
360
330
1F
100
AcDbEntity
  8
0
  6
Continuous
 62
     7
370
    25
100
AcDbSpline
210
0.0
220
0.0
230
1.0
 70
     8
 71
     3
 72
    20
 73
    16
 74
     0
 42
0.00000001
 43
0.00000001
 40
0.0
 40
0.0
 40
0.0
 40
0.0
 40
0.1249999999999995
 40
0.1249999999999995
 40
0.2499999999999991
 40
0.2499999999999991
 40
0.3749999999999986
 40
0.3749999999999986
 40
0.4999999999999981
 40
0.4999999999999981
 40
0.6249999999999977
 40
0.6249999999999977
 40
0.7499999999999971
 40
0.7499999999999971
 40
1.0
 40
1.0
 40
1.0
 40
1.0
 10
554.961309245679
 20
254.6445523765312
 30
0.0
 10
554.961309245679
 20
254.9819037611831
 30
0.0
 10
554.9958118861404
 20
255.3193902654671
 30
0.0
 10
555.1297166680516
 20
255.973985010694
 30
0.0
 10
555.2290169358569
 20
256.2908978361603
 30
0.0
 10
555.4812107426036
 20
256.8881729536102
 30
0.0
 10
555.632249787729
 20
257.1657671542031
 30
0.0
 10
555.9792259330034
 20
257.6843683269825
 30
0.0
 10
556.1754714216063
 20
257.9257927849563
 30
0.0
 10
556.6175699903279
 20
258.375355804469
 30
0.0
 10
556.8666787667248
 20
258.5854295748156
 30
0.0
 10
557.4074954806556
 20
258.9556273745709
 30
0.0
 10
557.6985528956382
 20
259.1156038638803
 30
0.0
 10
558.6164509527399
 20
259.5060098075851
 30
0.0
 10
559.2886516057273
 20
259.6445523765311
 30
0.0
 10
559.961309245679
 20
259.6445523765312
 30
0.0
  0
LINE
  5
361
330
1F
100
AcDbEntity
  8
0
  6
Continuous
 62
     7
370
    25
100
AcDbLine
 10
554.9613092457
 20
254.6445523765
 30
0.0
 11
544.9613092457
 21
254.6445523765
 31
0.0
  0
LINE
  5
362
330
1F
100
AcDbEntity
  8
0
  6
Continuous
 62
     7
370
    25
100
AcDbLine
 10
544.9613092457
 20
260.7445523765
 30
0.0
 11
544.9613092457
 21
254.6445523765
 31
0.0
  0
SPLINE
  5
363
330
1F
100
AcDbEntity
  8
0
  6
Continuous
 62
     7
370
    25
100
AcDbSpline
210
0.0
220
0.0
230
1.0
 70
     8
 71
     3
 72
    11
 73
     7
 74
     0
 42
0.00000001
 43
0.00000001
 40
0.0
 40
0.0
 40
0.0
 40
0.0
 40
0.25
 40
0.5
 40
0.75
 40
1.0
 40
1.0
 40
1.0
 40
1.0
 10
724.961309245679
 20
150.7445523765338
 30
0.0
 10
725.5966831443129
 20
150.7445523765341
 30
0.0
 10
726.8943413514439
 20
150.9909292069368
 30
0.0
 10
728.5871639400065
 20
152.108292609521
 30
0.0
 10
729.7116594322052
 20
153.8009469023577
 30
0.0
 10
729.9613092456755
 20
155.1050812993693
 30
0.0
 10
729.9613092456756
 20
155.7445523765311
 30
0.0
  0
LINE
  5
364
330
1F
100
AcDbEntity
  8
0
  6
Continuous
 62
     7
370
    25
100
AcDbLine
 10
714.9613092457
 20
150.7445523765
 30
0.0
 11
724.9613092457
 21
150.7445523765
 31
0.0
  0
LINE
  5
365
330
1F
100
AcDbEntity
  8
0
  6
Continuous
 62
     7
370
    25
100
AcDbLine
 10
714.9613092457
 20
156.8445523765
 30
0.0
 11
714.9613092457
 21
150.7445523765
 31
0.0
  0
SPLINE
  5
366
330
1F
100
AcDbEntity
  8
0
  6
Continuous
 62
     7
370
    25
100
AcDbSpline
210
0.0
220
0.0
230
1.0
 70
     8
 71
     3
 72
    20
 73
    16
 74
     0
 42
0.00000001
 43
0.00000001
 40
0.0
 40
0.0
 40
0.0
 40
0.0
 40
0.1249999999999995
 40
0.1249999999999995
 40
0.2499999999999991
 40
0.2499999999999991
 40
0.3749999999999986
 40
0.3749999999999986
 40
0.4999999999999981
 40
0.4999999999999981
 40
0.6249999999999977
 40
0.6249999999999977
 40
0.7499999999999971
 40
0.7499999999999971
 40
1.0
 40
1.0
 40
1.0
 40
1.0
 10
719.961309245679
 20
161.8445523765311
 30
0.0
 10
719.961309245679
 20
161.5072009918792
 30
0.0
 10
719.9268066052178
 20
161.1697144875952
 30
0.0
 10
719.7929018233064
 20
160.5151197423683
 30
0.0
 10
719.6936015555012
 20
160.198206916902
 30
0.0
 10
719.4414077487545
 20
159.6009317994521
 30
0.0
 10
719.290368703629
 20
159.3233375988592
 30
0.0
 10
718.9433925583546
 20
158.8047364260798
 30
0.0
 10
718.7471470697519
 20
158.5633119681059
 30
0.0
 10
718.3050485010301
 20
158.1137489485932
 30
0.0
 10
718.0559397246333
 20
157.9036751782465
 30
0.0
 10
717.5151230107025
 20
157.5334773784914
 30
0.0
 10
717.2240655957198
 20
157.373500889182
 30
0.0
 10
716.3061675386181
 20
156.9830949454771
 30
0.0
 10
715.6339668856308
 20
156.8445523765312
 30
0.0
 10
714.961309245679
 20
156.8445523765311
 30
0.0
  0
LINE
  5
367
330
1F
100
AcDbEntity
  8
0
  6
Continuous
 62
     7
370
    25
100
AcDbLine
 10
719.9613092457
 20
161.8445523765
 30
0.0
 11
729.9613092457
 21
161.8445523765
 31
0.0
  0
LINE
  5
368
330
1F
100
AcDbEntity
  8
0
  6
Continuous
 62
     7
370
    25
100
AcDbLine
 10
729.9613092457
 20
155.7445523765
 30
0.0
 11
729.9613092457
 21
161.8445523765
 31
0.0
  0
LINE
  5
369
330
1F
100
AcDbEntity
  8
0
  6
Continuous
 62
     7
370
    25
100
AcDbLine
 10
719.9613092457
 20
161.8445523765
 30
0.0
 11
719.9613092457
 21
254.6445523765
 31
0.0
  0
LINE
  5
36A
330
1F
100
AcDbEntity
  8
0
  6
Continuous
 62
     7
370
    25
100
AcDbLine
 10
729.9613092457
 20
254.6445523765
 30
0.0
 11
729.9613092457
 21
161.8445523765
 31
0.0
  0
LINE
  5
36B
330
1F
100
AcDbEntity
  8
0
  6
Continuous
 62
     7
370
    25
100
AcDbLine
 10
554.9613092457
 20
161.8445523765
 30
0.0
 11
554.9613092457
 21
254.6445523765
 31
0.0
  0
LINE
  5
36C
330
1F
100
AcDbEntity
  8
0
  6
Continuous
 62
     7
370
    25
100
AcDbLine
 10
714.9613092457
 20
259.6445523765
 30
0.0
 11
559.9613092457
 21
259.6445523765
 31
0.0
  0
LINE
  5
36D
330
1F
100
AcDbEntity
  8
0
  6
Continuous
 62
     7
370
    25
100
AcDbLine
 10
714.9613092457
 20
156.8445523765
 30
0.0
 11
559.9613092457
 21
156.8445523765
 31
0.0
  0
LINE
  5
36E
330
1F
100
AcDbEntity
  8
0
  6
Continuous
 62
     7
370
    25
100
AcDbLine
 10
559.9613092457
 20
150.7445523765
 30
0.0
 11
714.9613092457
 21
150.7445523765
 31
0.0
  0
LINE
  5
36F
330
1F
100
AcDbEntity
  8
0
  6
Continuous
 62
     7
370
    25
100
AcDbLine
 10
559.9613092457
 20
265.7445523765
 30
0.0
 11
714.9613092457
 21
265.7445523765
 31
0.0
  0
LINE
  5
370
330
1F
100
AcDbEntity
  8
0
  6
Continuous
 62
     7
370
    25
100
AcDbLine
 10
544.9613092457
 20
254.6445523765
 30
0.0
 11
544.9613092457
 21
161.8445523765
 31
0.0
  0
SPLINE
  5
371
330
1F
100
AcDbEntity
  8
0
  6
Continuous
 62
     7
370
    25
100
AcDbSpline
210
0.0
220
0.0
230
1.0
 70
     8
 71
     3
 72
    18
 73
    14
 74
     0
 42
0.00000001
 43
0.00000001
 40
0.0
 40
0.0
 40
0.0
 40
0.0
 40
0.2500000000000002
 40
0.2500000000000002
 40
0.3749999999999999
 40
0.3749999999999999
 40
0.4999999999999996
 40
0.4999999999999996
 40
0.6249999999999992
 40
0.6249999999999992
 40
0.7499999999999989
 40
0.7499999999999989
 40
1.0
 40
1.0
 40
1.0
 40
1.0
 10
725.461309245679
 20
150.4445523765311
 30
0.0
 10
726.1065396387277
 20
150.4445523765311
 30
0.0
 10
726.7314300232343
 20
150.5324446113926
 30
0.0
 10
727.6104568751673
 20
150.8397466952225
 30
0.0
 10
727.8933316801267
 20
150.9717847157903
 30
0.0
 10
728.4240966895834
 20
151.2979174411303
 30
0.0
 10
728.6716387660504
 20
151.4921401971061
 30
0.0
 10
729.1137214251045
 20
151.9342228561588
 30
0.0
 10
729.3079441810752
 20
152.1817649326239
 30
0.0
 10
729.6340769064244
 20
152.7125299420858
 30
0.0
 10
729.7661149269911
 20
152.9954047470469
 30
0.0
 10
730.0734170108104
 20
153.874431598967
 30
0.0
 10
730.161309245679
 20
154.4993219834888
 30
0.0
 10
730.161309245679
 20
155.1445523765311
 30
0.0
  0
LINE
  5
372
330
1F
100
AcDbEntity
  8
0
  6
Continuous
 62
     7
370
    25
100
AcDbLine
 10
730.1613092457
 20
261.3445523765
 30
0.0
 11
730.1613092457
 21
208.2445523765
 31
0.0
  0
SPLINE
  5
373
330
1F
100
AcDbEntity
  8
0
  6
Continuous
 62
     7
370
    25
100
AcDbSpline
210
0.0
220
0.0
230
1.0
 70
     8
 71
     3
 72
    18
 73
    14
 74
     0
 42
0.00000001
 43
0.00000001
 40
0.0
 40
0.0
 40
0.0
 40
0.0
 40
0.2500000000000002
 40
0.2500000000000002
 40
0.3749999999999999
 40
0.3749999999999999
 40
0.4999999999999996
 40
0.4999999999999996
 40
0.6249999999999992
 40
0.6249999999999992
 40
0.7499999999999989
 40
0.7499999999999989
 40
1.0
 40
1.0
 40
1.0
 40
1.0
 10
725.461309245679
 20
266.0445523765311
 30
0.0
 10
726.1065396387277
 20
266.0445523765311
 30
0.0
 10
726.7314300232343
 20
265.9566601416697
 30
0.0
 10
727.6104568751673
 20
265.6493580578397
 30
0.0
 10
727.8933316801267
 20
265.517320037272
 30
0.0
 10
728.4240966895834
 20
265.1911873119319
 30
0.0
 10
728.6716387660504
 20
264.9969645559563
 30
0.0
 10
729.1137214251045
 20
264.5548818969034
 30
0.0
 10
729.3079441810752
 20
264.3073398204384
 30
0.0
 10
729.6340769064244
 20
263.7765748109765
 30
0.0
 10
729.7661149269911
 20
263.4937000060154
 30
0.0
 10
730.0734170108104
 20
262.6146731540953
 30
0.0
 10
730.161309245679
 20
261.9897827695735
 30
0.0
 10
730.161309245679
 20
261.3445523765312
 30
0.0
  0
LINE
  5
374
330
1F
100
AcDbEntity
  8
0
  6
Continuous
 62
     7
370
    25
100
AcDbLine
 10
730.1613092457
 20
155.1445523765
 30
0.0
 11
730.1613092457
 21
208.2445523765
 31
0.0
  0
LINE
  5
375
330
1F
100
AcDbEntity
  8
0
  6
Continuous
 62
     7
370
    25
100
AcDbLine
 10
637.4613092457
 20
150.4445523765
 30
0.0
 11
725.4613092457
 21
150.4445523765
 31
0.0
  0
LINE
  5
376
330
1F
100
AcDbEntity
  8
0
  6
Continuous
 62
     7
370
    25
100
AcDbLine
 10
637.4613092457
 20
266.0445523765
 30
0.0
 11
725.4613092457
 21
266.0445523765
 31
0.0
  0
LINE
  5
377
330
1F
100
AcDbEntity
  8
0
  6
Continuous
 62
     7
370
    25
100
AcDbLine
 10
637.4613092457
 20
150.4445523765
 30
0.0
 11
549.4613092457
 21
150.4445523765
 31
0.0
  0
LINE
  5
378
330
1F
100
AcDbEntity
  8
0
  6
Continuous
 62
     7
370
    25
100
AcDbLine
 10
637.4613092457
 20
266.0445523765
 30
0.0
 11
549.4613092457
 21
266.0445523765
 31
0.0
  0
SPLINE
  5
379
330
1F
100
AcDbEntity
  8
0
  6
Continuous
 62
     7
370
    25
100
AcDbSpline
210
0.0
220
0.0
230
1.0
 70
     8
 71
     3
 72
    18
 73
    14
 74
     0
 42
0.00000001
 43
0.00000001
 40
0.0
 40
0.0
 40
0.0
 40
0.0
 40
0.2500000000000002
 40
0.2500000000000002
 40
0.3749999999999999
 40
0.3749999999999999
 40
0.4999999999999996
 40
0.4999999999999996
 40
0.6249999999999992
 40
0.6249999999999992
 40
0.7499999999999989
 40
0.7499999999999989
 40
1.0
 40
1.0
 40
1.0
 40
1.0
 10
549.461309245679
 20
150.4445523765311
 30
0.0
 10
548.8160788526304
 20
150.4445523765311
 30
0.0
 10
548.1911884681236
 20
150.5324446113926
 30
0.0
 10
547.3121616161907
 20
150.8397466952225
 30
0.0
 10
547.0292868112313
 20
150.9717847157903
 30
0.0
 10
546.4985218017746
 20
151.2979174411303
 30
0.0
 10
546.2509797253076
 20
151.4921401971061
 30
0.0
 10
545.8088970662537
 20
151.9342228561588
 30
0.0
 10
545.614674310283
 20
152.1817649326239
 30
0.0
 10
545.2885415849336
 20
152.7125299420858
 30
0.0
 10
545.156503564367
 20
152.9954047470469
 30
0.0
 10
544.8492014805477
 20
153.874431598967
 30
0.0
 10
544.7613092456791
 20
154.4993219834888
 30
0.0
 10
544.7613092456791
 20
155.1445523765311
 30
0.0
  0
SPLINE
  5
37A
330
1F
100
AcDbEntity
  8
0
  6
Continuous
 62
     7
370
    25
100
AcDbSpline
210
0.0
220
0.0
230
1.0
 70
     8
 71
     3
 72
    18
 73
    14
 74
     0
 42
0.00000001
 43
0.00000001
 40
0.0
 40
0.0
 40
0.0
 40
0.0
 40
0.2500000000000002
 40
0.2500000000000002
 40
0.3749999999999999
 40
0.3749999999999999
 40
0.4999999999999996
 40
0.4999999999999996
 40
0.6249999999999992
 40
0.6249999999999992
 40
0.7499999999999989
 40
0.7499999999999989
 40
1.0
 40
1.0
 40
1.0
 40
1.0
 10
549.461309245679
 20
266.0445523765311
 30
0.0
 10
548.8160788526304
 20
266.0445523765311
 30
0.0
 10
548.1911884681236
 20
265.9566601416697
 30
0.0
 10
547.3121616161907
 20
265.6493580578397
 30
0.0
 10
547.0292868112313
 20
265.517320037272
 30
0.0
 10
546.4985218017746
 20
265.1911873119319
 30
0.0
 10
546.2509797253076
 20
264.9969645559563
 30
0.0
 10
545.8088970662537
 20
264.5548818969034
 30
0.0
 10
545.614674310283
 20
264.3073398204384
 30
0.0
 10
545.2885415849336
 20
263.7765748109765
 30
0.0
 10
545.156503564367
 20
263.4937000060154
 30
0.0
 10
544.8492014805477
 20
262.6146731540953
 30
0.0
 10
544.7613092456791
 20
261.9897827695735
 30
0.0
 10
544.7613092456791
 20
261.3445523765312
 30
0.0
  0
LINE
  5
37B
330
1F
100
AcDbEntity
  8
0
  6
Continuous
 62
     7
370
    25
100
AcDbLine
 10
544.7613092457
 20
261.3445523765
 30
0.0
 11
544.7613092457
 21
208.2445523765
 31
0.0
  0
LINE
  5
37C
330
1F
100
AcDbEntity
  8
0
  6
Continuous
 62
     7
370
    25
100
AcDbLine
 10
544.7613092457
 20
155.1445523765
 30
0.0
 11
544.7613092457
 21
208.2445523765
 31
0.0
  0
SPLINE
  5
37D
330
1F
100
AcDbEntity
  8
0
  6
Continuous
 62
     8
370
    25
100
AcDbSpline
210
0.0
220
0.0
230
1.0
 70
    24
 71
     3
 72
    11
 73
     7
 74
     0
 42
0.00000001
 43
0.00000001
 40
0.0
 40
0.0
 40
0.0
 40
0.0
 40
0.0153929186248021
 40
0.2819021255845873
 40
0.6041348114014387
 40
1.0
 40
1.0
 40
1.0
 40
1.0
 10
725.461309245679
 20
150.7937980782097
 30
0.0
 10
725.461309245679
 20
150.7889324705355
 30
0.0
 10
725.4613092456791
 20
150.6998249283556
 30
0.0
 10
725.461309245679
 20
150.587726069083
 30
0.0
 10
725.4613092456791
 20
150.4620046437896
 30
0.0
 10
725.461309245679
 20
150.4507543281928
 30
0.0
 10
725.461309245679
 20
150.4445523765311
 30
0.0
  0
SPLINE
  5
37E
330
1F
100
AcDbEntity
  8
0
  6
Continuous
 62
     8
370
    25
100
AcDbSpline
210
0.0
220
0.0
230
1.0
 70
    24
 71
     3
 72
    10
 73
     6
 74
     0
 42
0.00000001
 43
0.00000001
 40
0.0
 40
0.0
 40
0.0
 40
0.0
 40
0.1735471025428405
 40
0.5444020324025569
 40
1.0
 40
1.0
 40
1.0
 40
1.0
 10
729.9022144036646
 20
155.1445523765311
 30
0.0
 10
729.9370940874738
 20
155.1445523765311
 30
0.0
 10
730.0465085949882
 20
155.1445523765311
 30
0.0
 10
730.1383401249758
 20
155.1445523765311
 30
0.0
 10
730.1531467889504
 20
155.1445523765311
 30
0.0
 10
730.161309245679
 20
155.1445523765311
 30
0.0
  0
SPLINE
  5
37F
330
1F
100
AcDbEntity
  8
0
  6
Continuous
 62
     8
370
    25
100
AcDbSpline
210
0.0
220
0.0
230
1.0
 70
    24
 71
     3
 72
    10
 73
     6
 74
     0
 42
0.00000001
 43
0.00000001
 40
0.0
 40
0.0
 40
0.0
 40
0.0
 40
0.1735471025428313
 40
0.5444020324025519
 40
1.0
 40
1.0
 40
1.0
 40
1.0
 10
729.9022144036646
 20
261.3445523765312
 30
0.0
 10
729.9370940874738
 20
261.3445523765312
 30
0.0
 10
730.0465085949882
 20
261.3445523765312
 30
0.0
 10
730.1383401249758
 20
261.3445523765312
 30
0.0
 10
730.1531467889504
 20
261.3445523765312
 30
0.0
 10
730.161309245679
 20
261.3445523765312
 30
0.0
  0
SPLINE
  5
380
330
1F
100
AcDbEntity
  8
0
  6
Continuous
 62
     8
370
    25
100
AcDbSpline
210
0.0
220
0.0
230
1.0
 70
    24
 71
     3
 72
    10
 73
     6
 74
     0
 42
0.00000001
 43
0.00000001
 40
0.0
 40
0.0
 40
0.0
 40
0.0
 40
0.0776060380506981
 40
0.4915126855005805
 40
1.0
 40
1.0
 40
1.0
 40
1.0
 10
729.961309245679
 20
208.2445523765311
 30
0.0
 10
729.9748851874466
 20
208.2445523765311
 30
0.0
 10
730.060867512585
 20
208.2445523765311
 30
0.0
 10
730.1360557217697
 20
208.2445523765311
 30
0.0
 10
730.1523349885093
 20
208.2445523765311
 30
0.0
 10
730.161309245679
 20
208.2445523765311
 30
0.0
  0
SPLINE
  5
381
330
1F
100
AcDbEntity
  8
0
  6
Continuous
 62
     8
370
    25
100
AcDbSpline
210
0.0
220
0.0
230
1.0
 70
    24
 71
     3
 72
    11
 73
     7
 74
     0
 42
0.00000001
 43
0.00000001
 40
0.0
 40
0.0
 40
0.0
 40
0.0
 40
0.0153929186248021
 40
0.2819021255845873
 40
0.6041348114014387
 40
1.0
 40
1.0
 40
1.0
 40
1.0
 10
725.461309245679
 20
265.6953066748525
 30
0.0
 10
725.461309245679
 20
265.7001722825268
 30
0.0
 10
725.4613092456791
 20
265.7892798247067
 30
0.0
 10
725.461309245679
 20
265.9013786839793
 30
0.0
 10
725.4613092456791
 20
266.0271001092727
 30
0.0
 10
725.461309245679
 20
266.0383504248695
 30
0.0
 10
725.461309245679
 20
266.0445523765311
 30
0.0
  0
SPLINE
  5
382
330
1F
100
AcDbEntity
  8
0
  6
Continuous
 62
     8
370
    25
100
AcDbSpline
210
0.0
220
0.0
230
1.0
 70
    24
 71
     3
 72
    10
 73
     6
 74
     0
 42
0.00000001
 43
0.00000001
 40
0.0
 40
0.0
 40
0.0
 40
0.0
 40
0.2290532352995279
 40
0.5750008497712764
 40
1.0
 40
1.0
 40
1.0
 40
1.0
 10
637.461309245679
 20
150.7445523765311
 30
0.0
 10
637.461309245679
 20
150.6945258145044
 30
0.0
 10
637.461309245679
 20
150.5689422765164
 30
0.0
 10
637.461309245679
 20
150.4664244460964
 30
0.0
 10
637.461309245679
 20
150.4523249780033
 30
0.0
 10
637.461309245679
 20
150.4445523765311
 30
0.0
  0
SPLINE
  5
383
330
1F
100
AcDbEntity
  8
0
  6
Continuous
 62
     8
370
    25
100
AcDbSpline
210
0.0
220
0.0
230
1.0
 70
    24
 71
     3
 72
    10
 73
     6
 74
     0
 42
0.00000001
 43
0.00000001
 40
0.0
 40
0.0
 40
0.0
 40
0.0
 40
0.2290532352995279
 40
0.5750008497712764
 40
1.0
 40
1.0
 40
1.0
 40
1.0
 10
637.461309245679
 20
265.7445523765311
 30
0.0
 10
637.461309245679
 20
265.7945789385579
 30
0.0
 10
637.461309245679
 20
265.9201624765459
 30
0.0
 10
637.461309245679
 20
266.0226803069659
 30
0.0
 10
637.461309245679
 20
266.036779775059
 30
0.0
 10
637.461309245679
 20
266.0445523765311
 30
0.0
  0
SPLINE
  5
384
330
1F
100
AcDbEntity
  8
0
  6
Continuous
 62
     8
370
    25
100
AcDbSpline
210
0.0
220
0.0
230
1.0
 70
    24
 71
     3
 72
    11
 73
     7
 74
     0
 42
0.00000001
 43
0.00000001
 40
0.0
 40
0.0
 40
0.0
 40
0.0
 40
0.0153929186247983
 40
0.2819021255845846
 40
0.6041348114014372
 40
1.0
 40
1.0
 40
1.0
 40
1.0
 10
549.461309245679
 20
150.7937980782097
 30
0.0
 10
549.461309245679
 20
150.7889324705355
 30
0.0
 10
549.461309245679
 20
150.6998249283556
 30
0.0
 10
549.461309245679
 20
150.5877260690829
 30
0.0
 10
549.461309245679
 20
150.4620046437896
 30
0.0
 10
549.461309245679
 20
150.4507543281928
 30
0.0
 10
549.461309245679
 20
150.4445523765311
 30
0.0
  0
SPLINE
  5
385
330
1F
100
AcDbEntity
  8
0
  6
Continuous
 62
     8
370
    25
100
AcDbSpline
210
0.0
220
0.0
230
1.0
 70
    24
 71
     3
 72
    11
 73
     7
 74
     0
 42
0.00000001
 43
0.00000001
 40
0.0
 40
0.0
 40
0.0
 40
0.0
 40
0.0153929186247983
 40
0.2819021255845846
 40
0.6041348114014372
 40
1.0
 40
1.0
 40
1.0
 40
1.0
 10
549.461309245679
 20
265.6953066748525
 30
0.0
 10
549.461309245679
 20
265.7001722825268
 30
0.0
 10
549.461309245679
 20
265.7892798247067
 30
0.0
 10
549.461309245679
 20
265.9013786839793
 30
0.0
 10
549.461309245679
 20
266.0271001092727
 30
0.0
 10
549.461309245679
 20
266.0383504248695
 30
0.0
 10
549.461309245679
 20
266.0445523765311
 30
0.0
  0
SPLINE
  5
386
330
1F
100
AcDbEntity
  8
0
  6
Continuous
 62
     8
370
    25
100
AcDbSpline
210
0.0
220
0.0
230
1.0
 70
    24
 71
     3
 72
    10
 73
     6
 74
     0
 42
0.00000001
 43
0.00000001
 40
0.0
 40
0.0
 40
0.0
 40
0.0
 40
0.1735471025427449
 40
0.5444020324025043
 40
1.0
 40
1.0
 40
1.0
 40
1.0
 10
545.0204040876934
 20
155.1445523765311
 30
0.0
 10
544.9855244038841
 20
155.1445523765311
 30
0.0
 10
544.8761098963699
 20
155.1445523765312
 30
0.0
 10
544.7842783663823
 20
155.1445523765311
 30
0.0
 10
544.7694717024076
 20
155.1445523765311
 30
0.0
 10
544.7613092456791
 20
155.1445523765311
 30
0.0
  0
SPLINE
  5
387
330
1F
100
AcDbEntity
  8
0
  6
Continuous
 62
     8
370
    25
100
AcDbSpline
210
0.0
220
0.0
230
1.0
 70
    24
 71
     3
 72
    10
 73
     6
 74
     0
 42
0.00000001
 43
0.00000001
 40
0.0
 40
0.0
 40
0.0
 40
0.0
 40
0.1735471025427538
 40
0.5444020324025092
 40
1.0
 40
1.0
 40
1.0
 40
1.0
 10
545.0204040876934
 20
261.3445523765312
 30
0.0
 10
544.9855244038841
 20
261.3445523765312
 30
0.0
 10
544.8761098963699
 20
261.3445523765311
 30
0.0
 10
544.7842783663823
 20
261.3445523765312
 30
0.0
 10
544.7694717024076
 20
261.3445523765312
 30
0.0
 10
544.7613092456791
 20
261.3445523765312
 30
0.0
  0
SPLINE
  5
388
330
1F
100
AcDbEntity
  8
0
  6
Continuous
 62
     8
370
    25
100
AcDbSpline
210
0.0
220
0.0
230
1.0
 70
    24
 71
     3
 72
    10
 73
     6
 74
     0
 42
0.00000001
 43
0.00000001
 40
0.0
 40
0.0
 40
0.0
 40
0.0
 40
0.0776060380505877
 40
0.4915126855005196
 40
1.0
 40
1.0
 40
1.0
 40
1.0
 10
544.961309245679
 20
208.2445523765311
 30
0.0
 10
544.9477333039115
 20
208.2445523765311
 30
0.0
 10
544.861750978773
 20
208.2445523765311
 30
0.0
 10
544.7865627695884
 20
208.2445523765311
 30
0.0
 10
544.7702835028489
 20
208.2445523765311
 30
0.0
 10
544.7613092456791
 20
208.2445523765311
 30
0.0
  0
LINE
  5
389
330
1F
100
AcDbEntity
  8
SLD-0
  6
HIDDEN
100
AcDbLine
 10
609.3683260542
 20
219.976322496
 30
0.0
 11
626.639742103
 21
219.976322496
 31
0.0
  0
LINE
  5
38A
330
1F
100
AcDbEntity
  8
SLD-0
  6
HIDDEN
100
AcDbLine
 10
609.3683260542
 20
219.976322496
 30
0.0
 11
609.3683260542
 21
199.4151129141
 31
0.0
  0
LINE
  5
38B
330
1F
100
AcDbEntity
  8
SLD-0
  6
HIDDEN
100
AcDbLine
 10
609.3683260542
 20
199.4151129141
 30
0.0
 11
626.639742103
 21
199.4151129141
 31
0.0
  0
LINE
  5
38C
330
1F
100
AcDbEntity
  8
SLD-0
  6
HIDDEN
100
AcDbLine
 10
626.639742103
 20
219.976322496
 30
0.0
 11
626.639742103
 21
199.4151129141
 31
0.0
  0
LINE
  5
38D
330
1F
100
AcDbEntity
  8
SLD-0
  6
HIDDEN
100
AcDbLine
 10
671.7711293399
 20
193.8742118786
 30
0.0
 11
659.3266365322
 21
193.8742118786
 31
0.0
  0
LINE
  5
38E
330
1F
100
AcDbEntity
  8
SLD-0
  6
HIDDEN
100
AcDbLine
 10
659.3266365322
 20
193.8742118786
 30
0.0
 11
615.5959803575
 21
193.8742118786
 31
0.0
  0
LINE
  5
38F
330
1F
100
AcDbEntity
  8
SLD-0
  6
HIDDEN
100
AcDbLine
 10
615.5959803575
 20
193.8742118786
 30
0.0
 11
603.0822192554
 21
193.8742118786
 31
0.0
  0
LINE
  5
390
330
1F
100
AcDbEntity
  8
SLD-0
  6
HIDDEN
100
AcDbLine
 10
610.9134860445
 20
182.5890370408
 30
0.0
 11
663.9370583428
 21
182.5880747275
 31
0.0
  0
ARC
  5
391
330
1F
100
AcDbEntity
  8
SLD-0
  6
HIDDEN
 62
     7
100
AcDbCircle
 10
661.5988749313
 20
192.5730920484
 30
0.0
 40
10.25512908579171
100
AcDbArc
 50
283.1794321474
 51
7.289049429
  0
ARC
  5
392
330
1F
100
AcDbEntity
  8
SLD-0
  6
HIDDEN
 62
     7
100
AcDbCircle
 10
612.695020779
 20
192.1851337497
 30
0.0
 40
9.760068547834228
100
AcDbArc
 50
170.0342142071
 51
259.4826643662
  0
DIMENSION
  5
393
330
1F
100
AcDbEntity
  8
SLD-0
 62
     7
100
AcDbDimension
  2
_D_7
 10
750.1613342457
 20
214.9770523765
 30
0.0
 11
750.1613342457
 21
187.6201665873
 31
0.0
 70
   160
  1
<>
 71
     2
 42
-1.0
  3
SLDDIMSTYLE0
100
AcDbAlignedDimension
 13
725.4613092457
 23
150.4445523765
 33
0.0
 14
650.5113092456
 24
214.9770523765
 34
0.0
 50
90.0
100
AcDbRotatedDimension
  0
DIMENSION
  5
3A7
330
1F
100
AcDbEntity
  8
SLD-0
 62
     7
100
AcDbDimension
  2
_D_8
 10
730.1613092457
 20
286.0445773765
 30
0.0
 11
692.9175690844
 21
286.0445773765
 31
0.0
 70
   160
  1
<>
 71
     2
 42
-1.0
  3
SLDDIMSTYLE0
100
AcDbAlignedDimension
 13
645.0613092456
 23
222.5095523765
 33
0.0
 14
730.1613092457
 24
261.3445523765
 34
0.0
100
AcDbRotatedDimension
  0
MTEXT
  5
3BB
330
1F
100
AcDbEntity
  8
SLD-0
100
AcDbMText
 10
673.3477282111
 20
124.1005310473
 30
0.0
 40
4.7625
 41
0.0
 71
     1
 72
     1
  1
VENTING AREA
  7
SLDTEXTSTYLE0
 73
     1
 44
1.0
  0
LEADER
  5
3BC
330
1F
100
AcDbEntity
  8
SLD-0
100
AcDbLeader
  3
SLDDIMSTYLE1
 76
     3
 10
636.9592145865
 20
189.215161877
 30
0.0
 10
668.2101616628
 20
122.006515288
 30
0.0
 10
672.2101616628
 20
122.006515288
 30
0.0
  0
MTEXT
  5
3BD
330
1F
100
AcDbEntity
  8
SLD-0
100
AcDbMText
 10
496.8857762476
 20
121.7479899698
 30
0.0
 40
4.7625
 41
0.0
 71
     1
 72
     1
  1
MAGNETIC DOCKING AREA
  7
SLDTEXTSTYLE0
 73
     1
 44
1.0
  0
LEADER
  5
3BE
330
1F
100
AcDbEntity
  8
SLD-0
100
AcDbLeader
  3
SLDDIMSTYLE1
 76
     3
 10
617.4722619687
 20
210.3748142904
 30
0.0
 10
586.2570205221
 20
119.6970464658
 30
0.0
 10
582.2570205221
 20
119.6970464658
 30
0.0
  0
LINE
  5
3BF
330
1F
100
AcDbEntity
  8
SLD-0
  6
CENTERX2
 62
     7
370
    18
100
AcDbLine
 10
645.0613092456
 20
207.2945523765
 30
0.0
 11
645.0613092456
 21
222.5095523765
 31
0.0
  0
LINE
  5
3C0
330
1F
100
AcDbEntity
  8
SLD-0
  6
CENTERX2
 62
     7
370
    18
100
AcDbLine
 10
634.7863092456
 20
214.9770523765
 30
0.0
 11
650.5113092456
 21
214.9770523765
 31
0.0
  0
SPLINE
  5
3C1
330
1F
100
AcDbEntity
  8
0
  6
Continuous
 62
     7
370
    25
100
AcDbSpline
210
0.0
220
0.0
230
1.0
 70
     8
 71
     3
 72
    15
 73
    11
 74
     0
 42
0.00000001
 43
0.00000001
 40
0.0
 40
0.0
 40
0.0
 40
0.0
 40
0.1307791585534607
 40
0.2560573743409207
 40
0.3785151285126587
 40
0.4999978499765779
 40
0.6214809225395316
 40
0.7439396420797687
 40
0.8692192387547335
 40
1.0
 40
1.0
 40
1.0
 40
1.0
 10
676.4023193565055
 20
420.9288821065539
 30
0.0
 10
676.3944729502806
 20
421.1709407358704
 30
0.0
 10
676.3791101799569
 20
421.6448763212105
 30
0.0
 10
676.2356528858088
 20
422.3992923376383
 30
0.0
 10
675.9900205795863
 20
423.1529869414485
 30
0.0
 10
675.63205973705
 20
423.8860234867788
 30
0.0
 10
675.1762102839958
 20
424.5625370321
 30
0.0
 10
674.6463107774676
 20
425.1520889136229
 30
0.0
 10
674.0647024576779
 20
425.6535045399435
 30
0.0
 10
673.6619508971512
 20
425.9037485082058
 30
0.0
 10
673.4562487880617
 20
426.031558595375
 30
0.0
  0
LINE
  5
3C2
330
1F
100
AcDbEntity
  8
0
  6
Continuous
 62
     7
370
    25
100
AcDbLine
 10
676.4023193565
 20
377.5705649954
 30
0.0
 11
676.4023193565
 21
420.9288821066
 31
0.0
  0
LINE
  5
3C3
330
1F
100
AcDbEntity
  8
0
  6
Continuous
 62
     7
370
    25
100
AcDbLine
 10
673.4562487881
 20
426.0315585954
 30
0.0
 11
611.2308520436
 21
461.9535155156
 31
0.0
  0
SPLINE
  5
3C4
330
1F
100
AcDbEntity
  8
0
  6
Continuous
 62
     7
370
    25
100
AcDbSpline
210
0.0
220
0.0
230
1.0
 70
     8
 71
     3
 72
    23
 73
    19
 74
     0
 42
0.00000001
 43
0.00000001
 40
0.0
 40
0.0
 40
0.0
 40
0.0
 40
0.1087220665517903
 40
0.1959985587155957
 40
0.2596726167167351
 40
0.2828090925683579
 40
0.3018719765375097
 40
0.3392789240810931
 40
0.377774739097333
 40
0.4176515411367516
 40
0.4590468638669973
 40
0.5019703816748642
 40
0.5461872871403806
 40
0.5913793084697028
 40
0.647839889202312
 40
0.7479713836433253
 40
0.8681695942161648
 40
1.0
 40
1.0
 40
1.0
 40
1.0
 10
679.5079627896499
 20
418.4205569789406
 30
0.0
 10
679.4982913885298
 20
418.9520246030215
 30
0.0
 10
679.4808562832155
 20
419.9101271449211
 30
0.0
 10
679.4108530554704
 20
421.2866427322166
 30
0.0
 10
679.3645529373655
 20
422.2847215728998
 30
0.0
 10
679.3221944248731
 20
422.9604881782577
 30
0.0
 10
679.2417864440841
 20
423.4914920561412
 30
0.0
 10
679.0989958544786
 20
424.1020193932062
 30
0.0
 10
678.8711974855116
 20
424.7840065941126
 30
0.0
 10
678.6086117684068
 20
425.401602348351
 30
0.0
 10
678.3303388842264
 20
425.9492715670264
 30
0.0
 10
678.0017879203886
 20
426.4966858145264
 30
0.0
 10
677.6318448528634
 20
427.0161144718891
 30
0.0
 10
677.2070852359155
 20
427.5259232974036
 30
0.0
 10
676.5333014641658
 20
428.1775405215118
 30
0.0
 10
675.5494271093911
 20
428.9018840433414
 30
0.0
 10
674.2627746167274
 20
429.942319107298
 30
0.0
 10
673.3703539550503
 20
430.5114198253493
 30
0.0
 10
672.9035491149513
 20
430.8091033966719
 30
0.0
  0
LINE
  5
3C5
330
1F
100
AcDbEntity
  8
0
  6
Continuous
 62
     7
370
    25
100
AcDbLine
 10
679.5103807981
 20
342.4411232932
 30
0.0
 11
679.5103807981
 21
418.2161106362
 31
0.0
  0
LINE
  5
3C6
330
1F
100
AcDbEntity
  8
0
  6
Continuous
 62
     7
370
    25
100
AcDbLine
 10
672.9563718671
 20
430.778821556
 30
0.0
 11
563.3548207832
 21
494.0504502222
 31
0.0
  0
LINE
  5
3C7
330
1F
100
AcDbEntity
  8
0
  6
Continuous
 62
     7
370
    25
100
AcDbLine
 10
676.4023193565
 20
334.2122478843
 30
0.0
 11
676.4023193565
 21
377.5705649954
 31
0.0
  0
LINE
  5
3C8
330
1F
100
AcDbEntity
  8
0
  6
Continuous
 62
     7
370
    25
100
AcDbLine
 10
611.2308520436
 20
461.9535155156
 30
0.0
 11
549.0054552992
 21
497.8754724358
 31
0.0
  0
SPLINE
  5
3C9
330
1F
100
AcDbEntity
  8
0
  6
Continuous
 62
     7
370
    25
100
AcDbSpline
210
0.0
220
0.0
230
1.0
 70
     8
 71
     3
 72
     9
 73
     5
 74
     0
 42
0.00000001
 43
0.00000001
 40
0.0
 40
0.0
 40
0.0
 40
0.0
 40
0.4813418460609403
 40
1.0
 40
1.0
 40
1.0
 40
1.0
 10
679.4134743406308
 20
336.3518779735815
 30
0.0
 10
679.4233841551777
 20
337.3375704271369
 30
0.0
 10
679.4439720484347
 20
339.3853717176787
 30
0.0
 10
679.4876428284396
 20
341.3724423513052
 30
0.0
 10
679.510293034578
 20
342.4030527378884
 30
0.0
  0
SPLINE
  5
3CA
330
1F
100
AcDbEntity
  8
0
  6
Continuous
 62
     7
370
    25
100
AcDbSpline
210
0.0
220
0.0
230
1.0
 70
     8
 71
     3
 72
    11
 73
     7
 74
     0
 42
0.00000001
 43
0.00000001
 40
0.0
 40
0.0
 40
0.0
 40
0.0
 40
0.2713187785984454
 40
0.52505115498024
 40
0.7654236705577768
 40
1.0
 40
1.0
 40
1.0
 40
1.0
 10
674.6978703064634
 20
331.0264310728931
 30
0.0
 10
674.9801627991321
 20
331.2220797501051
 30
0.0
 10
675.5264500855617
 20
331.6006955041312
 30
0.0
 10
676.0531006084248
 20
332.4112830228405
 30
0.0
 10
676.3544279054317
 20
333.2917831535086
 30
0.0
 10
676.3864859495893
 20
333.907932765249
 30
0.0
 10
676.4023193565055
 20
334.2122478842873
 30
0.0
  0
SPLINE
  5
3CB
330
1F
100
AcDbEntity
  8
0
  6
Continuous
 62
     7
370
    25
100
AcDbSpline
210
0.0
220
0.0
230
1.0
 70
     8
 71
     3
 72
     9
 73
     5
 74
     0
 42
0.00000001
 43
0.00000001
 40
0.0
 40
0.0
 40
0.0
 40
0.0
 40
0.4399548179699238
 40
1.0
 40
1.0
 40
1.0
 40
1.0
 10
672.2325563366531
 20
332.0682120271788
 30
0.0
 10
672.3627676387708
 20
331.9927441432878
 30
0.0
 10
672.658732807918
 20
331.8212086109819
 30
0.0
 10
672.9808123089639
 20
331.7420034216148
 30
0.0
 10
673.1611913817553
 20
331.6976449369179
 30
0.0
  0
LINE
  5
3CC
330
1F
100
AcDbEntity
  8
0
  6
Continuous
 62
     7
370
    25
100
AcDbLine
 10
674.1793171195
 20
331.8228593103
 30
0.0
 11
674.2233959755
 21
331.8483054922
 31
0.0
  0
LINE
  5
3CD
330
1F
100
AcDbEntity
  8
0
  6
Continuous
 62
     7
370
    25
100
AcDbLine
 10
677.3170770945
 20
333.2665025555
 30
0.0
 11
678.3777372663
 21
333.8788086394
 31
0.0
  0
LINE
  5
3CE
330
1F
100
AcDbEntity
  8
0
  6
Continuous
 62
     7
370
    25
100
AcDbLine
 10
547.4386782387
 20
404.0970954014
 30
0.0
 11
672.2288829825
 21
332.0572436141
 31
0.0
  0
SPLINE
  5
3CF
330
1F
100
AcDbEntity
  8
0
  6
Continuous
 62
     7
370
    25
100
AcDbSpline
210
0.0
220
0.0
230
1.0
 70
     8
 71
     3
 72
    18
 73
    14
 74
     0
 42
0.00000001
 43
0.00000001
 40
0.0
 40
0.0
 40
0.0
 40
0.0
 40
0.1349063716205998
 40
0.2511896730553047
 40
0.3392460216169341
 40
0.4302341289754634
 40
0.4983444911045956
 40
0.539801278058852
 40
0.5878630328921803
 40
0.6458464101947575
 40
0.7304274190153263
 40
0.8475284519523918
 40
1.0
 40
1.0
 40
1.0
 40
1.0
 10
563.3554719248559
 20
494.0500757577553
 30
0.0
 10
562.8415448759177
 20
494.3348564373916
 30
0.0
 10
561.8846355331916
 20
494.8651054163759
 30
0.0
 10
560.5547709446299
 20
495.5192073157198
 30
0.0
 10
559.4042527015575
 20
496.0702917809098
 30
0.0
 10
558.4491822893611
 20
496.5205041437194
 30
0.0
 10
557.6765908567617
 20
496.8846220554258
 30
0.0
 10
557.0620396569665
 20
497.1753369361505
 30
0.0
 10
556.4824940134064
 20
497.4503544818473
 30
0.0
 10
555.730683835311
 20
497.8088324659363
 30
0.0
 10
554.7088474895863
 20
498.2931062684195
 30
0.0
 10
553.3277623303179
 20
498.9535766180597
 30
0.0
 10
552.2666652137251
 20
499.4291667785016
 30
0.0
 10
551.6665035822833
 20
499.698162860128
 30
0.0
  0
SPLINE
  5
3D0
330
1F
100
AcDbEntity
  8
0
  6
Continuous
 62
     7
370
    25
100
AcDbSpline
210
0.0
220
0.0
230
1.0
 70
     8
 71
     3
 72
    11
 73
     7
 74
     0
 42
0.00000001
 43
0.00000001
 40
0.0
 40
0.0
 40
0.0
 40
0.0
 40
0.2345764575216902
 40
0.4749496541596248
 40
0.7286817160645565
 40
1.0
 40
1.0
 40
1.0
 40
1.0
 10
549.0054552992295
 20
497.8754724357736
 30
0.0
 10
548.7340344535721
 20
498.0138814110249
 30
0.0
 10
548.1844855425747
 20
498.2941196566814
 30
0.0
 10
547.2714296447858
 20
498.4733606385273
 30
0.0
 10
546.3062576258909
 20
498.4225831002843
 30
0.0
 10
545.7052809214111
 20
498.1388847549639
 30
0.0
 10
545.3947279059977
 20
497.9922844359326
 30
0.0
  0
SPLINE
  5
3D1
330
1F
100
AcDbEntity
  8
0
  6
Continuous
 62
     7
370
    25
100
AcDbSpline
210
0.0
220
0.0
230
1.0
 70
     8
 71
     3
 72
    10
 73
     6
 74
     0
 42
0.00000001
 43
0.00000001
 40
0.0
 40
0.0
 40
0.0
 40
0.0
 40
0.3177435524451454
 40
0.9017737407943216
 40
1.0
 40
1.0
 40
1.0
 40
1.0
 10
545.2151824223896
 20
496.3147241772065
 30
0.0
 10
545.1815538318199
 20
496.2161108310082
 30
0.0
 10
545.0861140355366
 20
495.9362407111926
 30
0.0
 10
545.0419233123075
 20
495.6026569194426
 30
0.0
 10
545.0576155656656
 20
495.368762343205
 30
0.0
 10
545.0598748207469
 20
495.3350879245101
 30
0.0
  0
LINE
  5
3D2
330
1F
100
AcDbEntity
  8
0
  6
Continuous
 62
     7
370
    25
100
AcDbLine
 10
545.869202237
 20
497.1704100388
 30
0.0
 11
545.8251233811
 21
497.1449638569
 31
0.0
  0
LINE
  5
3D3
330
1F
100
AcDbEntity
  8
0
  6
Continuous
 62
     7
370
    25
100
AcDbLine
 10
549.6344568955
 20
499.7117922957
 30
0.0
 11
548.5737967237
 21
499.0994862118
 31
0.0
  0
LINE
  5
3D4
330
1F
100
AcDbEntity
  8
0
  6
Continuous
 62
     7
370
    25
100
AcDbLine
 10
545.0527195397
 20
495.3382069169
 30
0.0
 11
545.0527195397
 21
408.2296331049
 31
0.0
  0
SPLINE
  5
3D5
330
1F
100
AcDbEntity
  8
0
  6
Continuous
 62
     7
370
    25
100
AcDbSpline
210
0.0
220
0.0
230
1.0
 70
     8
 71
     3
 72
    15
 73
    11
 74
     0
 42
0.00000001
 43
0.00000001
 40
0.0
 40
0.0
 40
0.0
 40
0.0
 40
0.1130252509111875
 40
0.2524846049410183
 40
0.3927058579788704
 40
0.532708281603678
 40
0.6733599930131913
 40
0.8158117475914154
 40
0.9616276124587482
 40
1.0
 40
1.0
 40
1.0
 40
1.0
 10
545.0598748207468
 20
408.2265141125058
 30
0.0
 10
545.0645771030443
 20
408.0485609040629
 30
0.0
 10
545.0750814273309
 20
407.6510351726936
 30
0.0
 10
545.2220847423592
 20
407.0184999269773
 30
0.0
 10
545.4681025420161
 20
406.3523454340095
 30
0.0
 10
545.8090692633672
 20
405.7138372620797
 30
0.0
 10
546.2289124273633
 20
405.1224369030876
 30
0.0
 10
546.7241361867027
 20
404.6074841693351
 30
0.0
 10
547.1341281660143
 20
404.264023357589
 30
0.0
 10
547.3892098118496
 20
404.1349532951202
 30
0.0
 10
547.44235159283
 20
404.1080638144272
 30
0.0
  0
SPLINE
  5
3D6
330
1F
100
AcDbEntity
  8
0
  6
Continuous
 62
     7
370
    25
100
AcDbSpline
210
0.0
220
0.0
230
1.0
 70
     8
 71
     3
 72
    18
 73
    14
 74
     0
 42
0.00000001
 43
0.00000001
 40
0.0
 40
0.0
 40
0.0
 40
0.0
 40
0.2500000000000002
 40
0.2500000000000002
 40
0.3749999999999999
 40
0.3749999999999999
 40
0.4999999999999996
 40
0.4999999999999996
 40
0.6249999999999992
 40
0.6249999999999992
 40
0.7499999999999989
 40
0.7499999999999989
 40
1.0
 40
1.0
 40
1.0
 40
1.0
 10
547.8209023618144
 20
497.6273736016085
 30
0.0
 10
547.364655575462
 20
497.8907592650482
 30
0.0
 10
546.922791347079
 20
498.0740744576916
 30
0.0
 10
546.3012254992324
 20
498.181972090881
 30
0.0
 10
546.1012028064188
 20
498.1896283010663
 30
0.0
 10
545.7258952690154
 20
498.1399880503307
 30
0.0
 10
545.5508565881166
 20
498.0824449231021
 30
0.0
 10
545.2382569420545
 20
497.9019263242325
 30
0.0
 10
545.1009207142469
 20
497.7790806328774
 30
0.0
 10
544.8703100525854
 20
497.4788180423838
 30
0.0
 10
544.7769450728683
 20
497.3017376750087
 30
0.0
 10
544.5596496855269
 20
496.7094183326775
 30
0.0
 10
544.4975004902377
 20
496.235047797517
 30
0.0
 10
544.4975004902377
 20
495.7081908485288
 30
0.0
  0
LINE
  5
3D7
330
1F
100
AcDbEntity
  8
0
  6
Continuous
 62
     7
370
    25
100
AcDbLine
 10
610.0462991062
 20
461.7054166814
 30
0.0
 11
547.8209023618
 21
497.6273736016
 31
0.0
  0
LINE
  5
3D8
330
1F
100
AcDbEntity
  8
0
  6
Continuous
 62
     7
370
    25
100
AcDbLine
 10
610.0462991062
 20
461.7054166814
 30
0.0
 11
672.2716958506
 21
425.7834597612
 31
0.0
  0
SPLINE
  5
3D9
330
1F
100
AcDbEntity
  8
0
  6
Continuous
 62
     7
370
    25
100
AcDbSpline
210
0.0
220
0.0
230
1.0
 70
     8
 71
     3
 72
    18
 73
    14
 74
     0
 42
0.00000001
 43
0.00000001
 40
0.0
 40
0.0
 40
0.0
 40
0.0
 40
0.2500000000000002
 40
0.2500000000000002
 40
0.3749999999999999
 40
0.3749999999999999
 40
0.4999999999999996
 40
0.4999999999999996
 40
0.6249999999999992
 40
0.6249999999999992
 40
0.7499999999999989
 40
0.7499999999999989
 40
1.0
 40
1.0
 40
1.0
 40
1.0
 10
672.2716958506467
 20
425.7834597612099
 30
0.0
 10
672.7279426369989
 20
425.5200740977702
 30
0.0
 10
673.1698068653819
 20
425.1932237115023
 30
0.0
 10
673.7913727132288
 20
424.5834766922637
 30
0.0
 10
673.9913954060423
 20
424.3601916170499
 30
0.0
 10
674.3667029434458
 20
423.8772305071222
 30
0.0
 10
674.5417416243446
 20
423.6175920206485
 30
0.0
 10
674.8543412704066
 20
423.076153552831
 30
0.0
 10
674.9916774982144
 20
422.7947428280008
 30
0.0
 10
675.2222881598756
 20
422.2282228350012
 30
0.0
 10
675.3156531395929
 20
421.9433455565665
 30
0.0
 10
675.5329485269341
 20
421.1001423002252
 30
0.0
 10
675.5950977222234
 20
420.5540158315518
 30
0.0
 10
675.5950977222234
 20
420.0271588825635
 30
0.0
  0
LINE
  5
3DA
330
1F
100
AcDbEntity
  8
0
  6
Continuous
 62
     7
370
    25
100
AcDbLine
 10
675.5950977222
 20
420.0271588826
 30
0.0
 11
675.5950977222
 21
376.6688417714
 31
0.0
  0
LINE
  5
3DB
330
1F
100
AcDbEntity
  8
0
  6
Continuous
 62
     7
370
    25
100
AcDbLine
 10
675.5950977222
 20
333.3105246603
 30
0.0
 11
675.5950977222
 21
376.6688417714
 31
0.0
  0
SPLINE
  5
3DC
330
1F
100
AcDbEntity
  8
0
  6
Continuous
 62
     7
370
    25
100
AcDbSpline
210
0.0
220
0.0
230
1.0
 70
     8
 71
     3
 72
    18
 73
    14
 74
     0
 42
0.00000001
 43
0.00000001
 40
0.0
 40
0.0
 40
0.0
 40
0.0
 40
0.2500000000000002
 40
0.2500000000000002
 40
0.3749999999999999
 40
0.3749999999999999
 40
0.4999999999999996
 40
0.4999999999999996
 40
0.6249999999999992
 40
0.6249999999999992
 40
0.7499999999999989
 40
0.7499999999999989
 40
1.0
 40
1.0
 40
1.0
 40
1.0
 10
672.2716958506467
 20
331.3913419072172
 30
0.0
 10
672.7279426369989
 20
331.1279562437775
 30
0.0
 10
673.1698068653819
 20
330.9446410511341
 30
0.0
 10
673.7913727132288
 20
330.8367434179448
 30
0.0
 10
673.9913954060423
 20
330.8290872077594
 30
0.0
 10
674.3667029434458
 20
330.878727458495
 30
0.0
 10
674.5417416243446
 20
330.9362705857236
 30
0.0
 10
674.8543412704066
 20
331.1167891845932
 30
0.0
 10
674.9916774982144
 20
331.2396348759484
 30
0.0
 10
675.2222881598756
 20
331.539897466442
 30
0.0
 10
675.3156531395929
 20
331.7169778338171
 30
0.0
 10
675.5329485269341
 20
332.3092971761482
 30
0.0
 10
675.5950977222234
 20
332.7836677113087
 30
0.0
 10
675.5950977222234
 20
333.3105246602969
 30
0.0
  0
LINE
  5
3DD
330
1F
100
AcDbEntity
  8
0
  6
Continuous
 62
     7
370
    25
100
AcDbLine
 10
610.0462991062
 20
367.3132988274
 30
0.0
 11
672.2716958506
 21
331.3913419072
 31
0.0
  0
LINE
  5
3DE
330
1F
100
AcDbEntity
  8
0
  6
Continuous
 62
     7
370
    25
100
AcDbLine
 10
610.0462991062
 20
367.3132988274
 30
0.0
 11
547.8209023618
 21
403.2352557476
 31
0.0
  0
SPLINE
  5
3DF
330
1F
100
AcDbEntity
  8
0
  6
Continuous
 62
     7
370
    25
100
AcDbSpline
210
0.0
220
0.0
230
1.0
 70
     8
 71
     3
 72
    18
 73
    14
 74
     0
 42
0.00000001
 43
0.00000001
 40
0.0
 40
0.0
 40
0.0
 40
0.0
 40
0.2500000000000002
 40
0.2500000000000002
 40
0.3749999999999999
 40
0.3749999999999999
 40
0.4999999999999996
 40
0.4999999999999996
 40
0.6249999999999992
 40
0.6249999999999992
 40
0.7499999999999989
 40
0.7499999999999989
 40
1.0
 40
1.0
 40
1.0
 40
1.0
 10
547.8209023618144
 20
403.2352557476158
 30
0.0
 10
547.364655575462
 20
403.4986414110555
 30
0.0
 10
546.922791347079
 20
403.8254917973234
 30
0.0
 10
546.3012254992324
 20
404.435238816562
 30
0.0
 10
546.1012028064188
 20
404.6585238917759
 30
0.0
 10
545.7258952690154
 20
405.1414850017035
 30
0.0
 10
545.5508565881166
 20
405.4011234881772
 30
0.0
 10
545.2382569420545
 20
405.9425619559947
 30
0.0
 10
545.1009207142469
 20
406.2239726808249
 30
0.0
 10
544.8703100525854
 20
406.7904926738245
 30
0.0
 10
544.7769450728683
 20
407.0753699522592
 30
0.0
 10
544.5596496855269
 20
407.9185732086005
 30
0.0
 10
544.4975004902377
 20
408.4646996772739
 30
0.0
 10
544.4975004902377
 20
408.9915566262622
 30
0.0
  0
LINE
  5
3E0
330
1F
100
AcDbEntity
  8
0
  6
Continuous
 62
     7
370
    25
100
AcDbLine
 10
544.4975004902
 20
408.9915566263
 30
0.0
 11
544.4975004902
 21
452.3498737374
 31
0.0
  0
LINE
  5
3E1
330
1F
100
AcDbEntity
  8
0
  6
Continuous
 62
     7
370
    25
100
AcDbLine
 10
544.4975004902
 20
495.7081908485
 30
0.0
 11
544.4975004902
 21
452.3498737374
 31
0.0
  0
ARC
  5
3E2
330
1F
100
AcDbEntity
  8
0
  6
Continuous
 62
     7
370
    25
100
AcDbCircle
 10
673.2662512112
 20
333.2643248886
 30
0.0
 40
1.709162669474602
100
AcDbArc
 50
304.0563508369
 51
7.2558295565
  0
LINE
  5
3E3
330
1F
100
AcDbEntity
  8
0
  6
Continuous
 62
     7
370
    25
100
AcDbLine
 10
674.9617270846
 20
420.5887657748
 30
0.0
 11
674.9617270846
 21
333.4801919628
 31
0.0
  0
ARC
  5
3E4
330
1F
100
AcDbEntity
  8
0
  6
Continuous
 62
     7
370
    25
100
AcDbCircle
 10
669.4897891049
 20
420.3397622304
 30
0.0
 40
5.47760057125975
100
AcDbArc
 50
2.6054784856
 51
57.39452166
  0
LINE
  5
3E5
330
1F
100
AcDbEntity
  8
0
  6
Continuous
 62
     7
370
    25
100
AcDbLine
 10
547.6511967343
 20
496.9939495512
 30
0.0
 11
672.4414014782
 21
424.9540977639
 31
0.0
  0
ARC
  5
3E6
330
1F
100
AcDbEntity
  8
0
  6
Continuous
 62
     7
370
    25
100
AcDbCircle
 10
546.6071480354
 20
495.5365825577
 30
0.0
 40
1.792751025453028
100
AcDbArc
 50
54.3824225246
 51
114.3071190462
  0
ARC
  5
3E7
330
1F
100
AcDbEntity
  8
0
  6
Continuous
 62
     7
370
    25
100
AcDbCircle
 10
669.4457102492
 20
420.3143160487
 30
0.0
 40
5.477600570974303
100
AcDbArc
 50
2.6054784838
 51
57.3945216608
  0
LINE
  5
3E8
330
1F
100
AcDbEntity
  8
0
  6
Continuous
 62
     7
370
    25
100
AcDbLine
 10
555.9809146167
 20
406.3634656265
 30
0.0
 11
663.1217341021
 21
344.5123870748
 31
0.0
  0
LINE
  5
3E9
330
1F
100
AcDbEntity
  8
0
  6
Continuous
 62
     7
370
    25
100
AcDbLine
 10
663.1217341021
 20
344.5123870748
 30
0.0
 11
663.1217341021
 21
422.083764204
 31
0.0
  0
LINE
  5
3EA
330
1F
100
AcDbEntity
  8
0
  6
Continuous
 62
     7
370
    25
100
AcDbLine
 10
663.1217341021
 20
422.083764204
 30
0.0
 11
555.9809146167
 21
483.9348427557
 31
0.0
  0
LINE
  5
3EB
330
1F
100
AcDbEntity
  8
0
  6
Continuous
 62
     7
370
    25
100
AcDbLine
 10
555.9809146167
 20
483.9348427557
 30
0.0
 11
555.9809146167
 21
406.3634656265
 31
0.0
  0
SPLINE
  5
3EC
330
1F
100
AcDbEntity
  8
0
  6
Continuous
 62
     7
370
    25
100
AcDbSpline
210
0.0
220
0.0
230
1.0
 70
     8
 71
     3
 72
    11
 73
     7
 74
     0
 42
0.00000001
 43
0.00000001
 40
0.0
 40
0.0
 40
0.0
 40
0.0
 40
0.25
 40
0.5
 40
0.75
 40
1.0
 40
1.0
 40
1.0
 40
1.0
 10
675.877940434709
 20
428.0285422586999
 30
0.0
 10
676.3272176270208
 20
427.7691800562566
 30
0.0
 10
677.2448005449427
 20
427.0382939757927
 30
0.0
 10
678.4418068766571
 20
425.4349041092893
 30
0.0
 10
679.2369452646021
 20
423.5937591780107
 30
0.0
 10
679.4134743406304
 20
422.4269721522531
 30
0.0
 10
679.4134743406307
 20
421.9048179197313
 30
0.0
  0
ARC
  5
3ED
330
1F
100
AcDbEntity
  8
0
  6
Continuous
 62
     7
370
    25
100
AcDbCircle
 10
670.7091756694
 20
420.9619379763
 30
0.0
 40
7.650783527670698
100
AcDbArc
 50
2.4763980378
 51
57.5236021078
  0
LINE
  5
3EE
330
1F
100
AcDbEntity
  8
0
  6
Continuous
 62
     7
370
    25
100
AcDbLine
 10
678.3528141689
 20
421.2925118359
 30
0.0
 11
678.3528141689
 21
335.5557265878
 31
0.0
  0
ARC
  5
3EF
330
1F
100
AcDbEntity
  8
0
  6
Continuous
 62
     7
370
    25
100
AcDbCircle
 10
676.2063147277
 20
335.2104395892
 30
0.0
 40
2.17409359557684
100
AcDbArc
 50
271.2775831923
 51
9.1383434821
  0
LWPOLYLINE
  5
3F0
330
1F
100
AcDbEntity
  8
0
  6
Continuous
 62
     7
370
    25
100
AcDbPolyline
 90
        8
 70
   128
 43
0.0
 10
551.0735935553
 20
498.8519459593
 10
550.4596545354
 20
499.144339963
 10
549.864369742
 20
499.3037988259
 10
549.3058266023
 20
499.3254774713
 10
548.8009961669
 20
499.2087172043
 10
548.3652174532
 20
498.9570657268
 10
548.0117313768
 20
498.5781693413
 10
547.8699492313
 20
498.3456697332
  0
LINE
  5
3F1
330
1F
100
AcDbEntity
  8
0
  6
Continuous
 62
     7
370
    25
100
AcDbLine
 10
674.8172802629
 20
427.4162361748
 30
0.0
 11
551.0735935553
 21
498.8519459593
 31
0.0
  0
LINE
  5
3F2
330
1F
100
AcDbEntity
  8
0
  6
Continuous
 62
     7
370
    25
100
AcDbLine
 10
674.9176482286
 20
420.563319593
 30
0.0
 11
674.9176482286
 21
333.4547457809
 31
0.0
  0
LINE
  5
3F3
330
1F
100
AcDbEntity
  8
0
  6
Continuous
 62
     7
370
    25
100
AcDbLine
 10
547.6071178784
 20
496.9685033693
 30
0.0
 11
672.3973226222
 21
424.928651582
 31
0.0
  0
LINE
  5
3F4
330
1F
100
AcDbEntity
  8
0
  6
Continuous
 62
     7
370
    25
100
AcDbLine
 10
668.8068726228
 20
432.1105828178
 30
0.0
 11
675.8779404347
 21
428.0285422587
 31
0.0
  0
LINE
  5
3F5
330
1F
100
AcDbEntity
  8
0
  6
Continuous
 62
     7
370
    25
100
AcDbLine
 10
672.9563718671
 20
430.778821556
 30
0.0
 11
672.9030818736
 21
430.8093674184
 31
0.0
  0
LINE
  5
3F6
330
1F
100
AcDbEntity
  8
0
  6
Continuous
 62
     7
370
    25
100
AcDbLine
 10
679.5079618327
 20
418.4204546333
 30
0.0
 11
679.5103807981
 21
418.2161106362
 31
0.0
  0
LINE
  5
3F7
330
1F
100
AcDbEntity
  8
0
  6
Continuous
 62
     7
370
    25
100
AcDbLine
 10
679.4134743406
 20
421.9048179197
 30
0.0
 11
679.4134743406
 21
416.9239189672
 31
0.0
  0
LINE
  5
3F8
330
1F
100
AcDbEntity
  8
0
  6
Continuous
 62
     7
370
    25
100
AcDbLine
 10
679.4134743406
 20
416.9239189672
 30
0.0
 11
679.4134743406
 21
341.1489316242
 31
0.0
  0
LINE
  5
3F9
330
1F
100
AcDbEntity
  8
0
  6
Continuous
 62
     7
370
    25
100
AcDbLine
 10
679.4134743406
 20
336.1680326717
 30
0.0
 11
679.4134743406
 21
341.1489316242
 31
0.0
  0
LINE
  5
3FA
330
1F
100
AcDbEntity
  8
0
  6
Continuous
 62
     7
370
    25
100
AcDbLine
 10
559.2053215389
 20
495.3822114841
 30
0.0
 11
552.1342537271
 21
499.4642520432
 31
0.0
  0
LINE
  5
3FB
330
1F
100
AcDbEntity
  8
0
  6
Continuous
 62
     7
370
    25
100
AcDbLine
 10
668.8068726228
 20
432.1105828178
 30
0.0
 11
559.2053215389
 21
495.3822114841
 31
0.0
  0
LINE
  5
3FC
330
1F
100
AcDbEntity
  8
0
  6
Continuous
 62
     7
370
    25
100
AcDbLine
 10
556.0162699558
 20
483.9144325529
 30
0.0
 11
556.0162699558
 21
406.3838758293
 31
0.0
  0
LINE
  5
3FD
330
1F
100
AcDbEntity
  8
0
  6
Continuous
 62
     7
370
    25
100
AcDbLine
 10
556.0162699558
 20
406.3838758293
 30
0.0
 11
663.1217341021
 21
344.5532074804
 31
0.0
  0
SPLINE
  5
3FE
330
1F
100
AcDbEntity
  8
0
  6
Continuous
 62
     7
370
    25
100
AcDbSpline
210
0.0
220
0.0
230
1.0
 70
     8
 71
     3
 72
    12
 73
     8
 74
     0
 42
0.00000001
 43
0.00000001
 40
0.0
 40
0.0
 40
0.0
 40
0.0
 40
0.0001031257602251
 40
0.2500773443201698
 40
0.5000515628801142
 40
0.7500257814400583
 40
1.0
 40
1.0
 40
1.0
 40
1.0
 10
678.3777194082011
 20
333.8788440764307
 30
0.0
 10
678.3777930860701
 20
333.8788713616146
 30
0.0
 10
678.5564600437579
 20
333.9450372383034
 30
0.0
 10
678.83011229915
 20
334.2310828302024
 30
0.0
 10
679.1656088787564
 20
334.7362323404309
 30
0.0
 10
679.3735392671583
 20
335.3900651286038
 30
0.0
 10
679.4001626494733
 20
335.9087101573441
 30
0.0
 10
679.4134743406308
 20
336.1680326717142
 30
0.0
  0
LWPOLYLINE
  5
3FF
330
1F
100
AcDbEntity
  8
0
  6
Continuous
 62
     7
370
    25
100
AcDbPolyline
 90
        8
 70
   128
 43
0.0
 10
674.9176482286
 20
333.4547457809
 10
674.8692208788
 20
332.9149155213
 10
674.7257998652
 20
332.4517436638
 10
674.492896777
 20
332.0830296432
 10
674.1794619493
 20
331.8229429324
 10
673.7975405066
 20
331.6814785179
 10
673.3618094759
 20
331.6640727978
 10
673.1715838731
 20
331.6930861589
  0
LINE
  5
400
330
1F
100
AcDbEntity
  8
0
  6
Continuous
 62
     7
370
    25
100
AcDbLine
 10
555.9809146167
 20
406.3634656265
 30
0.0
 11
556.0162699558
 21
406.3838758293
 31
0.0
  0
SPLINE
  5
401
330
1F
100
AcDbEntity
  8
0
  6
Continuous
 62
     7
370
    25
100
AcDbSpline
210
0.0
220
0.0
230
1.0
 70
     8
 71
     3
 72
    11
 73
     7
 74
     0
 42
0.00000001
 43
0.00000001
 40
0.0
 40
0.0
 40
0.0
 40
0.0
 40
0.2500257867586144
 40
0.5000515735172271
 40
0.7500773602758448
 40
1.0
 40
1.0
 40
1.0
 40
1.0
 10
552.1342537270524
 20
499.4642520431907
 30
0.0
 10
551.9027594846857
 20
499.5828062751574
 30
0.0
 10
551.4397709999523
 20
499.8199147390908
 30
0.0
 10
550.7736939462087
 20
499.9600129988799
 30
0.0
 10
550.1531194254976
 20
499.9472711038931
 30
0.0
 10
549.807332530484
 20
499.7902508084669
 30
0.0
 10
549.6344747535493
 20
499.7117568586023
 30
0.0
  0
LWPOLYLINE
  5
402
330
1F
100
AcDbEntity
  8
0
  6
Continuous
 62
     7
370
    25
100
AcDbPolyline
 90
        8
 70
   128
 43
0.0
 10
545.2069326457
 20
496.3315777143
 10
545.2786406354
 20
496.5160795034
 10
545.5115437236
 20
496.884793524
 10
545.8249785513
 20
497.1448802349
 10
546.206899994
 20
497.2863446494
 10
546.6426310247
 20
497.3037503694
 10
547.1154267442
 20
497.196428503
 10
547.6071178784
 20
496.9685033693
  0
MTEXT
  5
403
330
1F
100
AcDbEntity
  8
SLD-0
100
AcDbMText
 10
608.3197486326
 20
343.5403536494
 30
0.0
 40
4.7625
 41
0.0
 71
     2
 72
     1
  1
FRONT ISOMETRIC VIEW
  7
SLDTEXTSTYLE0
 73
     1
 44
1.0
  0
SPLINE
  5
404
330
1F
100
AcDbEntity
  8
0
  6
Continuous
 62
     7
370
    25
100
AcDbSpline
210
0.0
220
0.0
230
1.0
 70
     8
 71
     3
 72
    24
 73
    20
 74
     0
 42
0.00000001
 43
0.00000001
 40
0.0
 40
0.0
 40
0.0
 40
0.0
 40
0.0982304164034074
 40
0.201488267414002
 40
0.2766307319621233
 40
0.3601802886295791
 40
0.4547768757367502
 40
0.5282117556798541
 40
0.5965592598363196
 40
0.6526269645295488
 40
0.6748794663921832
 40
0.6848884058932901
 40
0.6945745689929762
 40
0.7044595960379014
 40
0.7151420507395659
 40
0.7405069932183519
 40
0.8098009043173799
 40
0.8994134956477998
 40
1.0
 40
1.0
 40
1.0
 40
1.0
 10
139.517424983516
 20
365.1120128311971
 30
0.0
 10
139.1122451806616
 20
364.9386179324114
 30
0.0
 10
138.2811484648234
 20
364.582953780574
 30
0.0
 10
137.1985181032624
 20
364.0252975602277
 30
0.0
 10
136.251725803308
 20
363.4736503962449
 30
0.0
 10
135.4194814248976
 20
362.9247899668924
 30
0.0
 10
134.7028594631321
 20
362.387019112468
 30
0.0
 10
134.0735253300033
 20
361.8798702178994
 30
0.0
 10
133.5446119028657
 20
361.4412576655782
 30
0.0
 10
133.1153779271083
 20
361.084478356223
 30
0.0
 10
132.8126816339263
 20
360.8397286861015
 30
0.0
 10
132.6630546486213
 20
360.7216394935068
 30
0.0
 10
132.5593555411215
 20
360.6414008033614
 30
0.0
 10
132.461647901355
 20
360.5676812303452
 30
0.0
 10
132.3348450716553
 20
360.4751331413786
 30
0.0
 10
132.1253270182665
 20
360.3323856036204
 30
0.0
 10
131.9335864999406
 20
360.2251915134461
 30
0.0
 10
131.7672740241404
 20
360.1500493135511
 30
0.0
 10
131.7030052489284
 20
360.1037192789425
 30
0.0
 10
131.6690168042705
 20
360.0792177101466
 30
0.0
  0
SPLINE
  5
405
330
1F
100
AcDbEntity
  8
0
  6
Continuous
 62
     7
370
    25
100
AcDbSpline
210
0.0
220
0.0
230
1.0
 70
     8
 71
     3
 72
    21
 73
    17
 74
     0
 42
0.00000001
 43
0.00000001
 40
0.0
 40
0.0
 40
0.0
 40
0.0
 40
0.1187015370994459
 40
0.2263118593094461
 40
0.3138557926972694
 40
0.362377403685383
 40
0.3815275982898669
 40
0.3986353371422565
 40
0.4151560853874454
 40
0.4324134868177668
 40
0.4722493550161239
 40
0.5484896978143486
 40
0.6418300169310054
 40
0.7457143142696077
 40
0.8734757906369836
 40
0.9999999999999999
 40
0.9999999999999999
 40
0.9999999999999999
 40
0.9999999999999999
 10
312.3658331627615
 20
360.0792177101466
 30
0.0
 10
312.3243603973118
 20
360.1113077186461
 30
0.0
 10
312.2452899919153
 20
360.1724893146577
 30
0.0
 10
312.0671648082067
 20
360.2610013157392
 30
0.0
 10
311.8628516401455
 20
360.3742374225367
 30
0.0
 10
311.6453011441213
 20
360.5148983969706
 30
0.0
 10
311.4632541424098
 20
360.6441085312027
 30
0.0
 10
311.3251225454473
 20
360.7460616480397
 30
0.0
 10
311.1779856121183
 20
360.8580477348892
 30
0.0
 10
310.9645423414826
 20
361.0245393992473
 30
0.0
 10
310.6098818842776
 20
361.3098591934954
 30
0.0
 10
310.147237562411
 20
361.6932624993116
 30
0.0
 10
309.6011546070063
 20
362.1481018039708
 30
0.0
 10
308.9656240961791
 20
362.6625800667312
 30
0.0
 10
308.2395829347493
 20
363.2124189234491
 30
0.0
 10
307.6321318581716
 20
363.5747440125102
 30
0.0
 10
307.3298841442668
 20
363.7550250821826
 30
0.0
  0
LINE
  5
406
330
1F
100
AcDbEntity
  8
0
  6
Continuous
 62
     7
370
    25
100
AcDbLine
 10
142.3674249835
 20
367.1120128312
 30
0.0
 11
140.1174249817
 21
365.6120128303
 31
0.0
  0
SPLINE
  5
407
330
1F
100
AcDbEntity
  8
0
  6
Continuous
 62
     7
370
    25
100
AcDbSpline
210
0.0
220
0.0
230
1.0
 70
     8
 71
     3
 72
    17
 73
    13
 74
     0
 42
0.00000001
 43
0.00000001
 40
0.0
 40
0.0
 40
0.0
 40
0.0
 40
0.0000390788738882
 40
0.0107936014177504
 40
0.0214342665670065
 40
0.0444337941630441
 40
0.0722241118437291
 40
0.1059885461148424
 40
0.2428461187829154
 40
0.4236707515076337
 40
0.7052433597209671
 40
1.0
 40
1.0
 40
1.0
 40
1.0
 10
311.5998166532636
 20
360.5486961908353
 30
0.0
 10
311.5997777279178
 20
360.5487253990657
 30
0.0
 10
311.5890265310294
 20
360.5567927246103
 30
0.0
 10
311.5626203302618
 20
360.5778229242678
 30
0.0
 10
311.5109363803076
 20
360.6193379232682
 30
0.0
 10
311.4414976782957
 20
360.6777092385171
 30
0.0
 10
311.363494852144
 20
360.746170993294
 30
0.0
 10
311.2093500325459
 20
360.886668834024
 30
0.0
 10
311.0119404303383
 20
361.0810441115061
 30
0.0
 10
310.7286514982126
 20
361.3719909923723
 30
0.0
 10
310.4046928849242
 20
361.711567690949
 30
0.0
 10
310.110505915015
 20
361.9476193699036
 30
0.0
 10
309.9600475388505
 20
362.068345152957
 30
0.0
  0
SPLINE
  5
408
330
1F
100
AcDbEntity
  8
0
  6
Continuous
 62
     7
370
    25
100
AcDbSpline
210
0.0
220
0.0
230
1.0
 70
    24
 71
     3
 72
     8
 73
     4
 74
     0
 42
0.00000001
 43
0.00000001
 40
0.0
 40
0.0
 40
0.0
 40
0.0
 40
1.0
 40
1.0
 40
1.0
 40
1.0
 10
310.017424983516
 20
354.3120128311972
 30
0.0
 10
312.017424983516
 20
354.3120128311972
 30
0.0
 10
313.117424983516
 20
354.3120128311972
 30
0.0
 10
313.117424983516
 20
354.3120128311972
 30
0.0
  0
SPLINE
  5
409
330
1F
100
AcDbEntity
  8
0
  6
Continuous
 62
     7
370
    25
100
AcDbSpline
210
0.0
220
0.0
230
1.0
 70
     8
 71
     3
 72
     8
 73
     4
 74
     0
 42
0.00000001
 43
0.00000001
 40
0.0
 40
0.0
 40
0.0
 40
0.0
 40
1.0
 40
1.0
 40
1.0
 40
1.0
 10
313.117424983516
 20
354.3120128311972
 30
0.0
 10
313.4507583168493
 20
354.3120128311972
 30
0.0
 10
314.717424983516
 20
354.2120128311971
 30
0.0
 10
314.717424983516
 20
352.2120128311971
 30
0.0
  0
SPLINE
  5
40A
330
1F
100
AcDbEntity
  8
0
  6
Continuous
 62
     7
370
    25
100
AcDbSpline
210
0.0
220
0.0
230
1.0
 70
    24
 71
     3
 72
    18
 73
    14
 74
     0
 42
0.00000001
 43
0.00000001
 40
0.0
 40
0.0
 40
0.0
 40
0.0
 40
0.2500000000000002
 40
0.2500000000000002
 40
0.3749999999999999
 40
0.3749999999999999
 40
0.4999999999999996
 40
0.4999999999999996
 40
0.6249999999999992
 40
0.6249999999999992
 40
0.7499999999999989
 40
0.7499999999999989
 40
1.0
 40
1.0
 40
1.0
 40
1.0
 10
310.017424983516
 20
352.2120128311971
 30
0.0
 10
310.6626553765646
 20
352.2120128311971
 30
0.0
 10
311.2875457610714
 20
352.2120128311971
 30
0.0
 10
312.1665726130043
 20
352.2120128311971
 30
0.0
 10
312.4494474179637
 20
352.2120128311971
 30
0.0
 10
312.9802124274204
 20
352.2120128311971
 30
0.0
 10
313.2277545038873
 20
352.2120128311971
 30
0.0
 10
313.6698371629414
 20
352.2120128311971
 30
0.0
 10
313.8640599189121
 20
352.2120128311971
 30
0.0
 10
314.1901926442615
 20
352.2120128311971
 30
0.0
 10
314.3222306648281
 20
352.2120128311971
 30
0.0
 10
314.6295327486474
 20
352.2120128311971
 30
0.0
 10
314.717424983516
 20
352.2120128311971
 30
0.0
 10
314.717424983516
 20
352.2120128311971
 30
0.0
  0
LINE
  5
40B
330
1F
100
AcDbEntity
  8
0
  6
Continuous
 62
     7
370
    25
100
AcDbLine
 10
222.0174249835
 20
354.3120128312
 30
0.0
 11
310.0174249835
 21
354.3120128312
 31
0.0
  0
LINE
  5
40C
330
1F
100
AcDbEntity
  8
0
  6
Continuous
 62
     7
370
    25
100
AcDbLine
 10
222.0174249835
 20
352.2120128312
 30
0.0
 11
310.0174249835
 21
352.2120128312
 31
0.0
  0
LINE
  5
40D
330
1F
100
AcDbEntity
  8
0
  6
Continuous
 62
     7
370
    25
100
AcDbLine
 10
222.0174249835
 20
354.3120128312
 30
0.0
 11
134.0174249835
 21
354.3120128312
 31
0.0
  0
LINE
  5
40E
330
1F
100
AcDbEntity
  8
0
  6
Continuous
 62
     7
370
    25
100
AcDbLine
 10
222.0174249835
 20
352.2120128312
 30
0.0
 11
134.0174249835
 21
352.2120128312
 31
0.0
  0
SPLINE
  5
40F
330
1F
100
AcDbEntity
  8
0
  6
Continuous
 62
     7
370
    25
100
AcDbSpline
210
0.0
220
0.0
230
1.0
 70
     8
 71
     3
 72
     8
 73
     4
 74
     0
 42
0.00000001
 43
0.00000001
 40
0.0
 40
0.0
 40
0.0
 40
0.0
 40
1.0
 40
1.0
 40
1.0
 40
1.0
 10
130.917424983516
 20
354.3120128311972
 30
0.0
 10
130.5840916501827
 20
354.3120128311972
 30
0.0
 10
129.317424983516
 20
354.2120128311971
 30
0.0
 10
129.317424983516
 20
352.2120128311971
 30
0.0
  0
SPLINE
  5
410
330
1F
100
AcDbEntity
  8
0
  6
Continuous
 62
     7
370
    25
100
AcDbSpline
210
0.0
220
0.0
230
1.0
 70
    24
 71
     3
 72
     8
 73
     4
 74
     0
 42
0.00000001
 43
0.00000001
 40
0.0
 40
0.0
 40
0.0
 40
0.0
 40
1.0
 40
1.0
 40
1.0
 40
1.0
 10
134.017424983516
 20
354.3120128311972
 30
0.0
 10
132.017424983516
 20
354.3120128311972
 30
0.0
 10
130.917424983516
 20
354.3120128311972
 30
0.0
 10
130.917424983516
 20
354.3120128311972
 30
0.0
  0
SPLINE
  5
411
330
1F
100
AcDbEntity
  8
0
  6
Continuous
 62
     7
370
    25
100
AcDbSpline
210
0.0
220
0.0
230
1.0
 70
    24
 71
     3
 72
    18
 73
    14
 74
     0
 42
0.00000001
 43
0.00000001
 40
0.0
 40
0.0
 40
0.0
 40
0.0
 40
0.2500000000000002
 40
0.2500000000000002
 40
0.3749999999999999
 40
0.3749999999999999
 40
0.4999999999999996
 40
0.4999999999999996
 40
0.6249999999999992
 40
0.6249999999999992
 40
0.7499999999999989
 40
0.7499999999999989
 40
1.0
 40
1.0
 40
1.0
 40
1.0
 10
134.017424983516
 20
352.2120128311971
 30
0.0
 10
133.3721945904674
 20
352.2120128311971
 30
0.0
 10
132.7473042059606
 20
352.2120128311971
 30
0.0
 10
131.8682773540277
 20
352.2120128311971
 30
0.0
 10
131.5854025490683
 20
352.2120128311971
 30
0.0
 10
131.0546375396116
 20
352.2120128311971
 30
0.0
 10
130.8070954631447
 20
352.2120128311971
 30
0.0
 10
130.3650128040906
 20
352.2120128311971
 30
0.0
 10
130.1707900481199
 20
352.2120128311971
 30
0.0
 10
129.8446573227706
 20
352.2120128311971
 30
0.0
 10
129.7126193022039
 20
352.2120128311971
 30
0.0
 10
129.4053172183846
 20
352.2120128311971
 30
0.0
 10
129.317424983516
 20
352.2120128311971
 30
0.0
 10
129.317424983516
 20
352.2120128311971
 30
0.0
  0
LINE
  5
412
330
1F
100
AcDbEntity
  8
0
  6
Continuous
 62
     7
370
    25
100
AcDbLine
 10
144.5174249835
 20
357.8120128312
 30
0.0
 11
134.5174249835
 21
357.8120128312
 31
0.0
  0
LINE
  5
413
330
1F
100
AcDbEntity
  8
0
  6
Continuous
 62
     7
370
    25
100
AcDbLine
 10
299.5174249835
 20
357.8120128312
 30
0.0
 11
144.5174249835
 21
357.8120128312
 31
0.0
  0
LINE
  5
414
330
1F
100
AcDbEntity
  8
0
  6
Continuous
 62
     7
370
    25
100
AcDbLine
 10
299.5174249835
 20
357.8120128312
 30
0.0
 11
309.5174249835
 21
357.8120128312
 31
0.0
  0
LINE
  5
415
330
1F
100
AcDbEntity
  8
0
  6
Continuous
 62
     7
370
    25
100
AcDbLine
 10
309.5174249835
 20
356.3120128312
 30
0.0
 11
134.5174249835
 21
356.3120128312
 31
0.0
  0
LINE
  5
416
330
1F
100
AcDbEntity
  8
0
  6
Continuous
 62
     7
370
    25
100
AcDbLine
 10
129.5174249835
 20
357.8120128312
 30
0.0
 11
129.5174249835
 21
356.3120128312
 31
0.0
  0
SPLINE
  5
417
330
1F
100
AcDbEntity
  8
0
  6
Continuous
 62
     7
370
    25
100
AcDbSpline
210
0.0
220
0.0
230
1.0
 70
    24
 71
     3
 72
    14
 73
    10
 74
     0
 42
0.00000001
 43
0.00000001
 40
0.0
 40
0.0
 40
0.0
 40
0.0
 40
0.25
 40
0.25
 40
0.5
 40
0.5
 40
0.75
 40
0.75
 40
1.0
 40
1.0
 40
1.0
 40
1.0
 10
134.517424983516
 20
357.8120128311971
 30
0.0
 10
133.8629265140181
 20
357.8120128311971
 30
0.0
 10
133.2086855617196
 20
357.8120128311971
 30
0.0
 10
131.9993300816615
 20
357.8120128311971
 30
0.0
 10
131.4446913836414
 20
357.8120128311971
 30
0.0
 10
130.5190907715251
 20
357.8120128311971
 30
0.0
 10
130.1484930417447
 20
357.8120128311971
 30
0.0
 10
129.6475616001744
 20
357.8120128311971
 30
0.0
 10
129.517424983516
 20
357.8120128311971
 30
0.0
 10
129.517424983516
 20
357.8120128311971
 30
0.0
  0
LINE
  5
418
330
1F
100
AcDbEntity
  8
0
  6
Continuous
 62
     7
370
    25
100
AcDbLine
 10
134.5174249835
 20
356.3120128312
 30
0.0
 11
129.5174249835
 21
356.3120128312
 31
0.0
  0
SPLINE
  5
419
330
1F
100
AcDbEntity
  8
0
  6
Continuous
 62
     7
370
    25
100
AcDbSpline
210
0.0
220
0.0
230
1.0
 70
    24
 71
     3
 72
    11
 73
     7
 74
     0
 42
0.00000001
 43
0.00000001
 40
0.0
 40
0.0
 40
0.0
 40
0.0
 40
0.25
 40
0.5
 40
0.75
 40
1.0
 40
1.0
 40
1.0
 40
1.0
 10
309.517424983516
 20
357.8120128312126
 30
0.0
 10
310.1527988821483
 20
357.8120128312127
 30
0.0
 10
311.4504570892751
 20
357.8120128312128
 30
0.0
 10
313.1432796778321
 20
357.8120128312129
 30
0.0
 10
314.2677751700271
 20
357.8120128312132
 30
0.0
 10
314.5174249834994
 20
357.8120128312133
 30
0.0
 10
314.5174249834997
 20
357.8120128312133
 30
0.0
  0
LINE
  5
41A
330
1F
100
AcDbEntity
  8
0
  6
Continuous
 62
     7
370
    25
100
AcDbLine
 10
314.5174249835
 20
357.8120128312
 30
0.0
 11
314.5174249835
 21
356.3120128312
 31
0.0
  0
LINE
  5
41B
330
1F
100
AcDbEntity
  8
0
  6
Continuous
 62
     7
370
    25
100
AcDbLine
 10
309.5174249835
 20
356.3120128312
 30
0.0
 11
314.5174249835
 21
356.3120128312
 31
0.0
  0
SPLINE
  5
41C
330
1F
100
AcDbEntity
  8
0
  6
Continuous
 62
     7
370
    25
100
AcDbSpline
210
0.0
220
0.0
230
1.0
 70
    24
 71
     3
 72
    20
 73
    16
 74
     0
 42
0.00000001
 43
0.00000001
 40
0.0
 40
0.0
 40
0.0
 40
0.0
 40
0.1249999999999995
 40
0.1249999999999995
 40
0.2499999999999991
 40
0.2499999999999991
 40
0.3749999999999986
 40
0.3749999999999986
 40
0.4999999999999981
 40
0.4999999999999981
 40
0.6249999999999977
 40
0.6249999999999977
 40
0.7499999999999971
 40
0.7499999999999971
 40
1.0
 40
1.0
 40
1.0
 40
1.0
 10
139.517424983516
 20
365.1120128311971
 30
0.0
 10
139.517424983516
 20
365.1120128311971
 30
0.0
 10
139.5519276239773
 20
365.1120128311971
 30
0.0
 10
139.6858324058886
 20
365.1120128311971
 30
0.0
 10
139.7851326736939
 20
365.1120128311971
 30
0.0
 10
140.0373264804406
 20
365.1120128311971
 30
0.0
 10
140.1883655255661
 20
365.1120128311971
 30
0.0
 10
140.5353416708404
 20
365.1120128311971
 30
0.0
 10
140.7315871594432
 20
365.1120128311971
 30
0.0
 10
141.1736857281648
 20
365.1120128311971
 30
0.0
 10
141.4227945045618
 20
365.1120128311971
 30
0.0
 10
141.9636112184925
 20
365.1120128311971
 30
0.0
 10
142.2546686334752
 20
365.1120128311971
 30
0.0
 10
143.1725666905769
 20
365.1120128311971
 30
0.0
 10
143.8447673435643
 20
365.1120128311971
 30
0.0
 10
144.517424983516
 20
365.1120128311971
 30
0.0
  0
ARC
  5
41D
330
1F
100
AcDbEntity
  8
0
  6
Continuous
 62
     7
370
    25
100
AcDbCircle
 10
149.3457440196
 20
341.1492470283
 30
0.0
 40
25.90000000000002
100
AcDbArc
 50
133.0378324734
 51
139.9579211064
  0
SPLINE
  5
41E
330
1F
100
AcDbEntity
  8
0
  6
Continuous
 62
     7
370
    25
100
AcDbSpline
210
0.0
220
0.0
230
1.0
 70
    24
 71
     3
 72
    20
 73
    16
 74
     0
 42
0.00000001
 43
0.00000001
 40
0.0
 40
0.0
 40
0.0
 40
0.0
 40
0.1249999999999995
 40
0.1249999999999995
 40
0.2499999999999991
 40
0.2499999999999991
 40
0.3749999999999986
 40
0.3749999999999986
 40
0.4999999999999981
 40
0.4999999999999981
 40
0.6249999999999977
 40
0.6249999999999977
 40
0.7499999999999971
 40
0.7499999999999971
 40
1.0
 40
1.0
 40
1.0
 40
1.0
 10
304.517424983516
 20
365.1120128311971
 30
0.0
 10
304.517424983516
 20
365.1120128311971
 30
0.0
 10
304.4829223430547
 20
365.1120128311971
 30
0.0
 10
304.3490175611434
 20
365.1120128311971
 30
0.0
 10
304.2497172933382
 20
365.1120128311971
 30
0.0
 10
303.9975234865914
 20
365.1120128311971
 30
0.0
 10
303.846484441466
 20
365.1120128311971
 30
0.0
 10
303.4995082961917
 20
365.1120128311971
 30
0.0
 10
303.3032628075888
 20
365.1120128311971
 30
0.0
 10
302.8611642388672
 20
365.1120128311971
 30
0.0
 10
302.6120554624702
 20
365.1120128311971
 30
0.0
 10
302.0712387485395
 20
365.1120128311971
 30
0.0
 10
301.7801813335568
 20
365.1120128311971
 30
0.0
 10
300.8622832764552
 20
365.1120128311971
 30
0.0
 10
300.1900826234677
 20
365.1120128311971
 30
0.0
 10
299.517424983516
 20
365.1120128311971
 30
0.0
  0
LWPOLYLINE
  5
41F
330
1F
100
AcDbEntity
  8
0
  6
Continuous
 62
     7
370
    25
100
AcDbPolyline
 90
        4
 70
   128
 43
0.0
 10
304.5174249835
 20
365.1120128312
 10
305.9445304036
 20
364.4757431285
 10
307.3306707664
 20
363.7545746952
 10
307.3355154043
 20
363.7518647495
  0
ARC
  5
420
330
1F
100
AcDbEntity
  8
0
  6
Continuous
 62
     7
370
    25
100
AcDbCircle
 10
294.6891059474
 20
341.1492470283
 30
0.0
 40
25.9
100
AcDbArc
 50
40.0420788936
 51
46.9622581374
  0
LINE
  5
421
330
1F
100
AcDbEntity
  8
0
  6
Continuous
 62
     7
370
    25
100
AcDbLine
 10
144.5174249835
 20
365.1120128312
 30
0.0
 11
299.5174249835
 21
365.1120128312
 31
0.0
  0
ARC
  5
422
330
1F
100
AcDbEntity
  8
0
  6
Continuous
 62
     7
370
    25
100
AcDbCircle
 10
314.4174249835
 20
354.9120128312
 30
0.0
 40
1.400000000000034
100
AcDbArc
 50
90.0
 51
180.0
  0
ARC
  5
423
330
1F
100
AcDbEntity
  8
0
  6
Continuous
 62
     7
370
    25
100
AcDbCircle
 10
129.6174249835
 20
354.9120128312
 30
0.0
 40
1.400000000000034
100
AcDbArc
 50
0.0
 51
90.0
  0
LINE
  5
424
330
1F
100
AcDbEntity
  8
0
  6
Continuous
 62
     7
370
    25
100
AcDbLine
 10
313.582060078
 20
352.1496759153
 30
0.0
 11
313.8217036377
 21
352.1496759153
 31
0.0
  0
SPLINE
  5
425
330
1F
100
AcDbEntity
  8
0
  6
Continuous
 62
     7
370
    25
100
AcDbSpline
210
0.0
220
0.0
230
1.0
 70
    24
 71
     3
 72
    14
 73
    10
 74
     0
 42
0.00000001
 43
0.00000001
 40
0.0
 40
0.0
 40
0.0
 40
0.0
 40
0.25
 40
0.25
 40
0.5
 40
0.5
 40
0.75
 40
0.75
 40
1.0
 40
1.0
 40
1.0
 40
1.0
 10
131.367424983516
 20
351.5120128311953
 30
0.0
 10
131.367424983516
 20
351.5120128311953
 30
0.0
 10
131.4191887440563
 20
351.5120128311953
 30
0.0
 10
131.6540816118534
 20
351.5120128311953
 30
0.0
 10
131.8380067550742
 20
351.5120128311953
 30
0.0
 10
132.3085885266329
 20
351.5120128311953
 30
0.0
 10
132.5936530830423
 20
351.5120128311953
 30
0.0
 10
133.1869803838917
 20
351.5120128311953
 30
0.0
 10
133.493403759734
 20
351.5120128311953
 30
0.0
 10
133.777424983511
 20
351.5120128311953
 30
0.0
  0
ARC
  5
426
330
1F
100
AcDbEntity
  8
0
  6
Continuous
 62
     7
370
    25
100
AcDbCircle
 10
131.3674249835
 20
352.8755647316
 30
0.0
 40
1.363551900399169
100
AcDbArc
 50
212.1644701898
 51
270.0
  0
ARC
  5
427
330
1F
100
AcDbEntity
  8
0
  6
Continuous
 62
     7
370
    25
100
AcDbCircle
 10
312.6674249835
 20
352.8755647316
 30
0.0
 40
1.363551900398988
100
AcDbArc
 50
270.0
 51
327.8355298082
  0
SPLINE
  5
428
330
1F
100
AcDbEntity
  8
0
  6
Continuous
 62
     7
370
    25
100
AcDbSpline
210
0.0
220
0.0
230
1.0
 70
    24
 71
     3
 72
    14
 73
    10
 74
     0
 42
0.00000001
 43
0.00000001
 40
0.0
 40
0.0
 40
0.0
 40
0.0
 40
0.25
 40
0.25
 40
0.5
 40
0.5
 40
0.75
 40
0.75
 40
1.0
 40
1.0
 40
1.0
 40
1.0
 10
310.257424983546
 20
351.5120128311953
 30
0.0
 10
310.5414462073227
 20
351.5120128311953
 30
0.0
 10
310.847869583165
 20
351.5120128311953
 30
0.0
 10
311.4411968840153
 20
351.5120128311953
 30
0.0
 10
311.7262614404255
 20
351.5120128311953
 30
0.0
 10
312.1968432119857
 20
351.5120128311953
 30
0.0
 10
312.3807683552075
 20
351.5120128311953
 30
0.0
 10
312.6156612230055
 20
351.5120128311953
 30
0.0
 10
312.667424983546
 20
351.5120128311953
 30
0.0
 10
312.667424983546
 20
351.5120128311953
 30
0.0
  0
LINE
  5
429
330
1F
100
AcDbEntity
  8
0
  6
Continuous
 62
     7
370
    25
100
AcDbLine
 10
133.7774249835
 20
352.1496759153
 30
0.0
 11
310.2574249835
 21
352.1496759153
 31
0.0
  0
LINE
  5
42A
330
1F
100
AcDbEntity
  8
0
  6
Continuous
 62
     7
370
    25
100
AcDbLine
 10
133.7774249835
 20
351.5120128312
 30
0.0
 11
310.2574249835
 21
351.5120128312
 31
0.0
  0
LINE
  5
42B
330
1F
100
AcDbEntity
  8
0
  6
Continuous
 62
     7
370
    25
100
AcDbLine
 10
313.0174249835
 20
354.3120128312
 30
0.0
 11
313.0174249835
 21
354.9120128312
 31
0.0
  0
LINE
  5
42C
330
1F
100
AcDbEntity
  8
0
  6
Continuous
 62
     7
370
    25
100
AcDbLine
 10
131.0174249835
 20
354.3120128312
 30
0.0
 11
131.0174249835
 21
354.9120128312
 31
0.0
  0
SPLINE
  5
42D
330
1F
100
AcDbEntity
  8
0
  6
Continuous
 62
     7
370
    25
100
AcDbSpline
210
0.0
220
0.0
230
1.0
 70
    24
 71
     3
 72
    15
 73
    11
 74
     0
 42
0.00000001
 43
0.00000001
 40
0.0
 40
0.0
 40
0.0
 40
0.0
 40
0.125
 40
0.25
 40
0.375
 40
0.5
 40
0.625
 40
0.75
 40
0.875
 40
1.0
 40
1.0
 40
1.0
 40
1.0
 10
140.1174249832166
 20
365.6120128313498
 30
0.0
 10
140.1174249832757
 20
365.6120128313498
 30
0.0
 10
140.1593681224501
 20
365.6120128313498
 30
0.0
 10
140.3820893317581
 20
365.6120128313498
 30
0.0
 10
140.789998409065
 20
365.6120128313498
 30
0.0
 10
141.3820541348888
 20
365.6120128313498
 30
0.0
 10
142.1184292581086
 20
365.6120128313498
 30
0.0
 10
142.9307793346743
 20
365.6120128313498
 30
0.0
 10
143.7505326475524
 20
365.6120128313498
 30
0.0
 10
144.2693459003899
 20
365.6120128313498
 30
0.0
 10
144.5174249836025
 20
365.6120128313498
 30
0.0
  0
SPLINE
  5
42E
330
1F
100
AcDbEntity
  8
0
  6
Continuous
 62
     7
370
    25
100
AcDbSpline
210
0.0
220
0.0
230
1.0
 70
    24
 71
     3
 72
    13
 73
     9
 74
     0
 42
0.00000001
 43
0.00000001
 40
0.0
 40
0.0
 40
0.0
 40
0.0
 40
0.1250000000000016
 40
0.2500000000000032
 40
0.5000000000000021
 40
0.7500000000000011
 40
0.8750000000000007
 40
1.0
 40
1.0
 40
1.0
 40
1.0
 10
142.367424983516
 20
367.1120128311971
 30
0.0
 10
142.3674249835115
 20
367.1120128311941
 30
0.0
 10
142.4207280417677
 20
367.1120128311941
 30
0.0
 10
142.6725742960779
 20
367.1120128311941
 30
0.0
 10
143.2011044984216
 20
367.1120128311941
 30
0.0
 10
143.9555131537885
 20
367.1120128311941
 30
0.0
 10
144.7023343808648
 20
367.1120128311941
 30
0.0
 10
145.1323712662777
 20
367.1120128311941
 30
0.0
 10
145.367424983516
 20
367.1120128311971
 30
0.0
  0
LINE
  5
42F
330
1F
100
AcDbEntity
  8
0
  6
Continuous
 62
     7
370
    25
100
AcDbLine
 10
140.1174249835
 20
365.6120128314
 30
0.0
 11
140.1174249835
 21
365.1120128312
 31
0.0
  0
LINE
  5
430
330
1F
100
AcDbEntity
  8
0
  6
Continuous
 62
     7
370
    25
100
AcDbLine
 10
144.5174249785
 20
365.6120128312
 30
0.0
 11
299.5174249885
 21
365.6120128312
 31
0.0
  0
LINE
  5
431
330
1F
100
AcDbEntity
  8
0
  6
Continuous
 62
     7
370
    25
100
AcDbLine
 10
298.6674249835
 20
367.1120128312
 30
0.0
 11
145.3674249835
 21
367.1120128312
 31
0.0
  0
LINE
  5
432
330
1F
100
AcDbEntity
  8
0
  6
Continuous
 62
     7
370
    25
100
AcDbLine
 10
301.6674249835
 20
367.1120128312
 30
0.0
 11
303.9174249835
 21
365.6120128312
 31
0.0
  0
SPLINE
  5
433
330
1F
100
AcDbEntity
  8
0
  6
Continuous
 62
     7
370
    25
100
AcDbSpline
210
0.0
220
0.0
230
1.0
 70
    24
 71
     3
 72
    14
 73
    10
 74
     0
 42
0.00000001
 43
0.00000001
 40
0.0
 40
0.0
 40
0.0
 40
0.0
 40
0.25
 40
0.25
 40
0.5
 40
0.5
 40
0.75
 40
0.75
 40
1.0
 40
1.0
 40
1.0
 40
1.0
 10
303.917424983516
 20
365.6120128313732
 30
0.0
 10
303.9174249848197
 20
365.6120128313586
 30
0.0
 10
303.8029047632214
 20
365.6120128313439
 30
0.0
 10
303.36208509619
 20
365.6120128313146
 30
0.0
 10
303.0359590944734
 20
365.6120128312999
 30
0.0
 10
302.221430556355
 20
365.6120128312705
 30
0.0
 10
301.7333485021537
 20
365.6120128312558
 30
0.0
 10
300.6691156796865
 20
365.6120128312265
 30
0.0
 10
300.0933836415948
 20
365.6120128312118
 30
0.0
 10
299.5174249884954
 20
365.6120128311971
 30
0.0
  0
SPLINE
  5
434
330
1F
100
AcDbEntity
  8
0
  6
Continuous
 62
     7
370
    25
100
AcDbSpline
210
0.0
220
0.0
230
1.0
 70
    24
 71
     3
 72
    13
 73
     9
 74
     0
 42
0.00000001
 43
0.00000001
 40
0.0
 40
0.0
 40
0.0
 40
0.0
 40
0.1249999999999992
 40
0.2499999999999984
 40
0.4999999999999968
 40
0.7499999999999951
 40
0.8749999999999976
 40
1.0
 40
1.0
 40
1.0
 40
1.0
 10
301.667424983516
 20
367.1120128311971
 30
0.0
 10
301.6674249835198
 20
367.1120128311947
 30
0.0
 10
301.6141219252635
 20
367.1120128311947
 30
0.0
 10
301.3622756709532
 20
367.1120128311946
 30
0.0
 10
300.8337454686097
 20
367.1120128311946
 30
0.0
 10
300.0793368132431
 20
367.1120128311946
 30
0.0
 10
299.3325155861679
 20
367.1120128311946
 30
0.0
 10
298.902478700754
 20
367.1120128311946
 30
0.0
 10
298.667424983516
 20
367.1120128311971
 30
0.0
  0
LINE
  5
435
330
1F
100
AcDbEntity
  8
0
  6
Continuous
 62
     7
370
    25
100
AcDbLine
 10
303.9174249835
 20
365.6120128314
 30
0.0
 11
303.9174249835
 21
365.1120128312
 31
0.0
  0
ARC
  5
436
330
1F
100
AcDbEntity
  8
0
  6
Continuous
 62
     7
370
    25
100
AcDbCircle
 10
259.4663895502
 20
368.1120128312
 30
0.0
 40
1.0
100
AcDbArc
 50
183.0
 51
270.0
  0
ARC
  5
437
330
1F
100
AcDbEntity
  8
0
  6
Continuous
 62
     7
370
    25
100
AcDbCircle
 10
184.5684604168
 20
368.1120128312
 30
0.0
 40
1.000000000000024
100
AcDbArc
 50
270.0
 51
357.0
  0
LINE
  5
438
330
1F
100
AcDbEntity
  8
0
  6
Continuous
 62
     7
370
    25
100
AcDbLine
 10
248.5174249835
 20
390.1126980638
 30
0.0
 11
257.3120101485
 21
390.1126980638
 31
0.0
  0
LINE
  5
439
330
1F
100
AcDbEntity
  8
0
  6
Continuous
 62
     7
370
    25
100
AcDbLine
 10
257.3120101485
 20
390.1126980638
 30
0.0
 11
258.4677600155
 21
368.059676875
 31
0.0
  0
LINE
  5
43A
330
1F
100
AcDbEntity
  8
0
  6
Continuous
 62
     7
370
    25
100
AcDbLine
 10
186.7228398185
 20
390.1126980638
 30
0.0
 11
185.5670899516
 21
368.059676875
 31
0.0
  0
LINE
  5
43B
330
1F
100
AcDbEntity
  8
0
  6
Continuous
 62
     7
370
    25
100
AcDbLine
 10
195.5174249835
 20
390.1126980638
 30
0.0
 11
186.7228398185
 21
390.1126980638
 31
0.0
  0
LINE
  5
43C
330
1F
100
AcDbEntity
  8
0
  6
Continuous
 62
     7
370
    25
100
AcDbLine
 10
248.5174249835
 20
390.1126980638
 30
0.0
 11
195.5174249835
 21
390.1126980638
 31
0.0
  0
LINE
  5
43D
330
1F
100
AcDbEntity
  8
0
  6
Continuous
 62
     7
370
    25
100
AcDbLine
 10
256.757464919
 20
390.6120128312
 30
0.0
 11
248.5174249835
 21
390.6120128312
 31
0.0
  0
LINE
  5
43E
330
1F
100
AcDbEntity
  8
0
  6
Continuous
 62
     7
370
    25
100
AcDbLine
 10
257.3120101485
 20
390.1126980638
 30
0.0
 11
256.757464919
 21
390.6120128312
 31
0.0
  0
LINE
  5
43F
330
1F
100
AcDbEntity
  8
0
  6
Continuous
 62
     7
370
    25
100
AcDbLine
 10
186.7228398185
 20
390.1126980638
 30
0.0
 11
187.277385048
 21
390.6120128312
 31
0.0
  0
LINE
  5
440
330
1F
100
AcDbEntity
  8
0
  6
Continuous
 62
     7
370
    25
100
AcDbLine
 10
187.277385048
 20
390.6120128312
 30
0.0
 11
195.5174249835
 21
390.6120128312
 31
0.0
  0
LINE
  5
441
330
1F
100
AcDbEntity
  8
0
  6
Continuous
 62
     7
370
    25
100
AcDbLine
 10
195.5174249835
 20
390.6120128312
 30
0.0
 11
248.5174249835
 21
390.6120128312
 31
0.0
  0
ENDSEC
  0
SECTION
  2
OBJECTS
  0
DICTIONARY
  5
C
330
0
100
AcDbDictionary
281
     1
  3
ACAD_GROUP
350
D
  3
ACAD_LAYOUT
350
1A
  3
ACAD_MLINESTYLE
350
17
  3
ACAD_PLOTSETTINGS
350
19
  3
ACAD_PLOTSTYLENAME
350
E
  3
ACAD_SCALELIST
350
47
  3
DWGPROPS
350
442
  0
DICTIONARY
  5
D
102
{ACAD_REACTORS
330
C
102
}
330
C
100
AcDbDictionary
281
     1
  0
DICTIONARY
  5
1A
102
{ACAD_REACTORS
330
C
102
}
330
C
100
AcDbDictionary
281
     1
  3
Layout1
350
1E
  3
Layout2
350
26
  3
Model
350
22
  0
DICTIONARY
  5
17
102
{ACAD_REACTORS
330
C
102
}
330
C
100
AcDbDictionary
281
     1
  3
Standard
350
18
  0
DICTIONARY
  5
19
102
{ACAD_REACTORS
330
C
102
}
330
C
100
AcDbDictionary
281
     1
  0
ACDBDICTIONARYWDFLT
  5
E
102
{ACAD_REACTORS
330
C
102
}
330
C
100
AcDbDictionary
281
     1
  3
Normal
350
F
100
AcDbDictionaryWithDefault
340
F
  0
DICTIONARY
  5
47
102
{ACAD_REACTORS
330
C
102
}
330
C
100
AcDbDictionary
281
     1
  3
A0
350
48
  3
A1
350
49
  3
A2
350
4A
  3
A3
350
4B
  3
A4
350
4C
  3
A5
350
4D
  3
A6
350
4E
  3
A7
350
4F
  3
A8
350
50
  3
A9
350
51
  3
B0
350
52
  3
B1
350
53
  3
B2
350
54
  3
B3
350
55
  3
B4
350
56
  3
B5
350
57
  3
B6
350
58
  3
B7
350
59
  3
B8
350
5A
  3
B9
350
5B
  3
C0
350
5C
  3
C1
350
5D
  3
C2
350
5E
  3
C3
350
5F
  3
C4
350
60
  3
C5
350
61
  3
C6
350
62
  3
C7
350
63
  3
C8
350
64
  3
C9
350
65
  3
D0
350
66
  3
D1
350
67
  3
D2
350
68
  0
XRECORD
  5
442
102
{ACAD_REACTORS
330
C
102
}
330
C
100
AcDbXrecord
280
     1
  1
DWGPROPS COOKIE
  2

  3

  4

  6

  7

  8
Suzanne.Stasiak
  9

300
=
301
=
302
=
303
=
304
=
305
=
306
=
307
=
308
=
309
=
 40
0.0
 41
2459556.868338299
 42
2459556.868341956
  1

 90
        0
  0
LAYOUT
  5
1E
102
{ACAD_REACTORS
330
1A
102
}
330
1A
100
AcDbPlotSettings
  1

  2
none_device
  4

  6

 40
0.0
 41
0.0
 42
0.0
 43
0.0
 44
0.0
 45
0.0
 46
0.0
 47
0.0
 48
0.0
 49
0.0
140
0.0
141
0.0
142
1.0
143
1.0
 70
   688
 72
     1
 73
     0
 74
     5
  7

 75
    16
147
1.0
148
0.0
149
0.0
100
AcDbLayout
  1
Layout1
 70
     1
 71
     1
 10
0.0
 20
0.0
 11
420.0
 21
297.0
 12
0.0
 22
0.0
 32
0.0
 14
1.0000000000E+20
 24
1.0000000000E+20
 34
1.0000000000E+20
 15
-1.0000000000E+20
 25
-1.0000000000E+20
 35
-1.0000000000E+20
146
0.0
 13
0.0
 23
0.0
 33
0.0
 16
1.0
 26
0.0
 36
0.0
 17
0.0
 27
1.0
 37
0.0
 76
     0
330
1B
  0
LAYOUT
  5
26
102
{ACAD_REACTORS
330
1A
102
}
330
1A
100
AcDbPlotSettings
  1

  2
none_device
  4

  6

 40
0.0
 41
0.0
 42
0.0
 43
0.0
 44
0.0
 45
0.0
 46
0.0
 47
0.0
 48
0.0
 49
0.0
140
0.0
141
0.0
142
1.0
143
1.0
 70
   688
 72
     1
 73
     0
 74
     5
  7

 75
    16
147
1.0
148
0.0
149
0.0
100
AcDbLayout
  1
Layout2
 70
     1
 71
     2
 10
0.0
 20
0.0
 11
0.0
 21
0.0
 12
0.0
 22
0.0
 32
0.0
 14
0.0
 24
0.0
 34
0.0
 15
0.0
 25
0.0
 35
0.0
146
0.0
 13
0.0
 23
0.0
 33
0.0
 16
1.0
 26
0.0
 36
0.0
 17
0.0
 27
1.0
 37
0.0
 76
     0
330
23
  0
LAYOUT
  5
22
102
{ACAD_REACTORS
330
1A
102
}
330
1A
100
AcDbPlotSettings
  1

  2
none_device
  4
Letter_(8.50_x_11.00_Inches)
  6

 40
6.35
 41
6.35
 42
6.35000508
 43
6.35000508
 44
215.9
 45
279.4
 46
0.0
 47
0.0
 48
0.0
 49
0.0
140
0.0
141
0.0
142
1.0
143
1.0
 70
  1712
 72
     1
 73
     0
 74
     0
  7

 75
     0
147
1.0
148
0.0
149
0.0
100
AcDbLayout
  1
Model
 70
     1
 71
     0
 10
0.0
 20
0.0
 11
863.6
 21
558.8
 12
0.0
 22
0.0
 32
0.0
 14
0.0
 24
0.0
 34
0.0
 15
863.6
 25
558.8
 35
0.0
146
0.0
 13
0.0
 23
0.0
 33
0.0
 16
1.0
 26
0.0
 36
0.0
 17
0.0
 27
1.0
 37
0.0
 76
     0
330
1F
331
29
  0
MLINESTYLE
  5
18
102
{ACAD_REACTORS
330
17
102
}
330
17
100
AcDbMlineStyle
  2
Standard
 70
     0
  3

 62
   256
 51
90.0
 52
90.0
 71
     2
 49
0.5
 62
   256
  6
BYLAYER
 49
-0.5
 62
   256
  6
BYLAYER
  0
ACDBPLACEHOLDER
  5
F
102
{ACAD_REACTORS
330
E
102
}
330
E
  0
SCALE
  5
48
102
{ACAD_REACTORS
330
47
102
}
330
47
100
AcDbScale
 70
     0
300
1:1
140
1.0
141
1.0
290
     1
  0
SCALE
  5
49
102
{ACAD_REACTORS
330
47
102
}
330
47
100
AcDbScale
 70
     0
300
1:2
140
1.0
141
2.0
290
     0
  0
SCALE
  5
4A
102
{ACAD_REACTORS
330
47
102
}
330
47
100
AcDbScale
 70
     0
300
1:4
140
1.0
141
4.0
290
     0
  0
SCALE
  5
4B
102
{ACAD_REACTORS
330
47
102
}
330
47
100
AcDbScale
 70
     0
300
1:5
140
1.0
141
5.0
290
     0
  0
SCALE
  5
4C
102
{ACAD_REACTORS
330
47
102
}
330
47
100
AcDbScale
 70
     0
300
1:8
140
1.0
141
8.0
290
     0
  0
SCALE
  5
4D
102
{ACAD_REACTORS
330
47
102
}
330
47
100
AcDbScale
 70
     0
300
1:10
140
1.0
141
10.0
290
     0
  0
SCALE
  5
4E
102
{ACAD_REACTORS
330
47
102
}
330
47
100
AcDbScale
 70
     0
300
1:16
140
1.0
141
16.0
290
     0
  0
SCALE
  5
4F
102
{ACAD_REACTORS
330
47
102
}
330
47
100
AcDbScale
 70
     0
300
1:20
140
1.0
141
20.0
290
     0
  0
SCALE
  5
50
102
{ACAD_REACTORS
330
47
102
}
330
47
100
AcDbScale
 70
     0
300
1:30
140
1.0
141
30.0
290
     0
  0
SCALE
  5
51
102
{ACAD_REACTORS
330
47
102
}
330
47
100
AcDbScale
 70
     0
300
1:40
140
1.0
141
40.0
290
     0
  0
SCALE
  5
52
102
{ACAD_REACTORS
330
47
102
}
330
47
100
AcDbScale
 70
     0
300
1:50
140
1.0
141
50.0
290
     0
  0
SCALE
  5
53
102
{ACAD_REACTORS
330
47
102
}
330
47
100
AcDbScale
 70
     0
300
1:100
140
1.0
141
100.0
290
     0
  0
SCALE
  5
54
102
{ACAD_REACTORS
330
47
102
}
330
47
100
AcDbScale
 70
     0
300
2:1
140
2.0
141
1.0
290
     0
  0
SCALE
  5
55
102
{ACAD_REACTORS
330
47
102
}
330
47
100
AcDbScale
 70
     0
300
4:1
140
4.0
141
1.0
290
     0
  0
SCALE
  5
56
102
{ACAD_REACTORS
330
47
102
}
330
47
100
AcDbScale
 70
     0
300
8:1
140
8.0
141
1.0
290
     0
  0
SCALE
  5
57
102
{ACAD_REACTORS
330
47
102
}
330
47
100
AcDbScale
 70
     0
300
10:1
140
10.0
141
1.0
290
     0
  0
SCALE
  5
58
102
{ACAD_REACTORS
330
47
102
}
330
47
100
AcDbScale
 70
     0
300
100:1
140
100.0
141
1.0
290
     0
  0
SCALE
  5
59
102
{ACAD_REACTORS
330
47
102
}
330
47
100
AcDbScale
 70
     0
300
1/128" = 1'-0"
140
0.0078125
141
12.0
290
     0
  0
SCALE
  5
5A
102
{ACAD_REACTORS
330
47
102
}
330
47
100
AcDbScale
 70
     0
300
1/64" = 1'-0"
140
0.015625
141
12.0
290
     0
  0
SCALE
  5
5B
102
{ACAD_REACTORS
330
47
102
}
330
47
100
AcDbScale
 70
     0
300
1/32" = 1'-0"
140
0.03125
141
12.0
290
     0
  0
SCALE
  5
5C
102
{ACAD_REACTORS
330
47
102
}
330
47
100
AcDbScale
 70
     0
300
1/16" = 1'-0"
140
0.0625
141
12.0
290
     0
  0
SCALE
  5
5D
102
{ACAD_REACTORS
330
47
102
}
330
47
100
AcDbScale
 70
     0
300
3/32" = 1'-0"
140
0.09375
141
12.0
290
     0
  0
SCALE
  5
5E
102
{ACAD_REACTORS
330
47
102
}
330
47
100
AcDbScale
 70
     0
300
1/8" = 1'-0"
140
0.125
141
12.0
290
     0
  0
SCALE
  5
5F
102
{ACAD_REACTORS
330
47
102
}
330
47
100
AcDbScale
 70
     0
300
3/16" = 1'-0"
140
0.1875
141
12.0
290
     0
  0
SCALE
  5
60
102
{ACAD_REACTORS
330
47
102
}
330
47
100
AcDbScale
 70
     0
300
1/4" = 1'-0"
140
0.25
141
12.0
290
     0
  0
SCALE
  5
61
102
{ACAD_REACTORS
330
47
102
}
330
47
100
AcDbScale
 70
     0
300
3/8" = 1'-0"
140
0.375
141
12.0
290
     0
  0
SCALE
  5
62
102
{ACAD_REACTORS
330
47
102
}
330
47
100
AcDbScale
 70
     0
300
1/2" = 1'-0"
140
0.5
141
12.0
290
     0
  0
SCALE
  5
63
102
{ACAD_REACTORS
330
47
102
}
330
47
100
AcDbScale
 70
     0
300
3/4" = 1'-0"
140
0.75
141
12.0
290
     0
  0
SCALE
  5
64
102
{ACAD_REACTORS
330
47
102
}
330
47
100
AcDbScale
 70
     0
300
1" = 1'-0"
140
1.0
141
12.0
290
     0
  0
SCALE
  5
65
102
{ACAD_REACTORS
330
47
102
}
330
47
100
AcDbScale
 70
     0
300
1-1/2" = 1'-0"
140
1.5
141
12.0
290
     0
  0
SCALE
  5
66
102
{ACAD_REACTORS
330
47
102
}
330
47
100
AcDbScale
 70
     0
300
3" = 1'-0"
140
3.0
141
12.0
290
     0
  0
SCALE
  5
67
102
{ACAD_REACTORS
330
47
102
}
330
47
100
AcDbScale
 70
     0
300
6" = 1'-0"
140
6.0
141
12.0
290
     0
  0
SCALE
  5
68
102
{ACAD_REACTORS
330
47
102
}
330
47
100
AcDbScale
 70
     0
300
1'-0" = 1'-0"
140
12.0
141
12.0
290
     0
  0
ENDSEC
  0
EOF
