999
DXF file: Z:\PRODUCT DEVELOPMENT\USB BRIDGE\Sales and MArketing\ch-001456-2d-A.dxf
999
Pro/ENGINEER 2016130 by Parametric Technology Corporation
  0
SECTION
  2
HEADER
  9
$ACADVER
  1
AC1015
  9
$DWGCODEPAGE
  3
ANSI_1252
  9
$EXTMAX
 10
34.0
 20
22.0
 30
0.0
  9
$EXTMIN
 10
0.0
 20
0.0
 30
0.0
  9
$LIMMIN
 10
0.0
 20
0.0
  9
$LIMMAX
 10
34.0
 20
22.0
  9
$VIEWCTR
 10
17.0
 20
11.0
  9
$VIEWSIZE
 40
22.0
  9
$CLAYER
  8
0
  9
$LTSCALE
 40
1.87
  9
$CELTYPE
  6
BYLAYER
  9
$DIMSCALE
 40
1.0
  9
$DIMASZ
 40
0.1875
  9
$DIMEXO
 40
0.0625
  9
$DIMDLI
 40
1.292
  9
$DIMEXE
 40
0.125
  9
$DIMCEN
 40
0.306
  9
$DIMLFAC
 40
1.0
  9
$DIMBLK
  1
_FILLED
  9
$DIMALT
 70
0
  9
$DIMALTF
 40
25.4
  9
$DIMTXT
 40
0.15625
  9
$DIMTOL
 70
1
  9
$DIMLIM
 70
0
  9
$DIMTFAC
 40
1.0
  9
$DIMTP
 40
0.01
  9
$DIMTM
 40
0.01
  9
$DIMGAP
 40
0.09
  9
$DIMDSEP
 70
46
  9
$AUNITS
 70
0
  9
$PDMODE
 70
3
  9
$PDSIZE
 40
0.3125
  9
$HANDSEED
  5
591
  9
$TILEMODE
 70
1
  9
$MEASUREMENT
 70
0
  9
$INSUNITS
 70
1
  0
ENDSEC
  0
SECTION
  2
CLASSES
  0
CLASS
  1
ACDBDICTIONARYWDFLT
  2
AcDbDictionaryWithDefault
  3
AutoCAD 2000
 90
0
280
0
281
0
  0
CLASS
  1
ACDBPLACEHOLDER
  2
AcDbPlaceHolder
  3
AutoCAD 2000
 90
0
280
0
281
0
  0
CLASS
  1
LAYOUT
  2
AcDbLayout
  3
AutoCAD 2000
 90
0
280
0
281
0
  0
ENDSEC
  0
SECTION
  2
TABLES
  0
TABLE
  2
VPORT
  5
8
100
AcDbSymbolTable
 70
2
  0
VPORT
  5
1F4
100
AcDbSymbolTableRecord
100
AcDbViewportTableRecord
  2
*ACTIVE
 70
0
 10
0.0
 20
0.0
 11
1.0
 21
1.0
 12
17.0
 22
11.0
 13
0.0
 23
0.0
 14
1.0
 24
1.0
 15
0.0
 25
0.0
 16
0.0
 26
0.0
 36
1.0
 17
0.0
 27
0.0
 37
0.0
 40
22.0
 41
1.5454545455
 42
50.0
 43
0.0
 44
0.0
 50
0.0
 51
0.0
 71
0
 72
100
 73
1
 74
1
 75
0
 76
0
 77
0
 78
0
  0
ENDTAB
  0
TABLE
  2
LTYPE
  5
5
100
AcDbSymbolTable
 70
6
  0
LTYPE
  5
14
100
AcDbSymbolTableRecord
100
AcDbLinetypeTableRecord
  2
BYBLOCK
 70
0
  3

 72
65
 73
0
 40
0.0
  0
LTYPE
  5
15
100
AcDbSymbolTableRecord
100
AcDbLinetypeTableRecord
  2
BYLAYER
 70
0
  3

 72
65
 73
0
 40
0.0
  0
LTYPE
  5
16
100
AcDbSymbolTableRecord
100
AcDbLinetypeTableRecord
  2
CONTINUOUS
 70
64
  3
Solid line
 72
65
 73
0
 40
0.0
  0
LTYPE
  5
1F5
100
AcDbSymbolTableRecord
100
AcDbLinetypeTableRecord
  2
CENTER
 70
64
  3
____ _ ____ _ ____ _ ____ _ ____ _ ____ _ ____
 72
65
 73
4
 40
0.6
 49
0.375
 74
0
 49
-0.075
 74
0
 49
0.075
 74
0
 49
-0.075
 74
0
  0
LTYPE
  5
1F6
100
AcDbSymbolTableRecord
100
AcDbLinetypeTableRecord
  2
HIDDEN
 70
64
  3
- - - - - - - - - - - - - - - - - - - -
 72
65
 73
2
 40
0.2
 49
0.1
 74
0
 49
-0.1
 74
0
  0
LTYPE
  5
1F7
100
AcDbSymbolTableRecord
100
AcDbLinetypeTableRecord
  2
PHANTOM
 70
64
  3
_____ _ _ _____ _ _ _____ _ _ _____
 72
65
 73
6
 40
0.8
 49
0.45
 74
0
 49
-0.05
 74
0
 49
0.1
 74
0
 49
-0.05
 74
0
 49
0.1
 74
0
 49
-0.05
 74
0
  0
LTYPE
  5
1F8
100
AcDbSymbolTableRecord
100
AcDbLinetypeTableRecord
  2
DOT
 70
64
  3
. . . . . . . . . . . . . . . . . . . .
 72
65
 73
2
 40
0.2
 49
0.1
 74
0
 49
-0.1
 74
0
  0
LTYPE
  5
1F9
100
AcDbSymbolTableRecord
100
AcDbLinetypeTableRecord
  2
DASHED
 70
64
  3
- - - - - - - - - - - - - - - - - - - -
 72
65
 73
2
 40
0.2
 49
0.1
 74
0
 49
-0.1
 74
0
  0
ENDTAB
  0
TABLE
  2
LAYER
  5
2
100
AcDbSymbolTable
 70
36
  0
LAYER
  5
10
100
AcDbSymbolTableRecord
100
AcDbLayerTableRecord
  2
0
 70
0
 62
7
  6
CONTINUOUS
370
-3
390
F
  0
LAYER
  5
1FA
100
AcDbSymbolTableRecord
100
AcDbLayerTableRecord
  2
DEFAULT_1
 70
0
 62
7
  6
CENTER
370
-3
390
F
  0
LAYER
  5
1FB
100
AcDbSymbolTableRecord
100
AcDbLayerTableRecord
  2
DEFAULT_2
 70
0
 62
8
  6
HIDDEN
370
-3
390
F
  0
LAYER
  5
1FC
100
AcDbSymbolTableRecord
100
AcDbLayerTableRecord
  2
DEFAULT_3
 70
0
 62
7
  6
PHANTOM
370
-3
390
F
  0
LAYER
  5
1FD
100
AcDbSymbolTableRecord
100
AcDbLayerTableRecord
  2
1_ALL_PLANES
 70
0
 62
7
  6
CONTINUOUS
370
-3
390
F
  0
LAYER
  5
1FE
100
AcDbSymbolTableRecord
100
AcDbLayerTableRecord
  2
1__DEF_ASM_PLN
 70
0
 62
7
  6
CONTINUOUS
370
-3
390
F
  0
LAYER
  5
1FF
100
AcDbSymbolTableRecord
100
AcDbLayerTableRecord
  2
1__DEF_PLANES
 70
0
 62
7
  6
CONTINUOUS
370
-3
390
F
  0
LAYER
  5
200
100
AcDbSymbolTableRecord
100
AcDbLayerTableRecord
  2
2_ALL_CSYS
 70
0
 62
7
  6
CONTINUOUS
370
-3
390
F
  0
LAYER
  5
201
100
AcDbSymbolTableRecord
100
AcDbLayerTableRecord
  2
2__DEF_ASM_CSYS
 70
0
 62
7
  6
CONTINUOUS
370
-3
390
F
  0
LAYER
  5
202
100
AcDbSymbolTableRecord
100
AcDbLayerTableRecord
  2
2__DEF_CSYS
 70
0
 62
7
  6
CONTINUOUS
370
-3
390
F
  0
LAYER
  5
203
100
AcDbSymbolTableRecord
100
AcDbLayerTableRecord
  2
3_ALL_AXES
 70
0
 62
7
  6
CONTINUOUS
370
-3
390
F
  0
LAYER
  5
204
100
AcDbSymbolTableRecord
100
AcDbLayerTableRecord
  2
3_AXES_OTHER
 70
0
 62
7
  6
CONTINUOUS
370
-3
390
F
  0
LAYER
  5
205
100
AcDbSymbolTableRecord
100
AcDbLayerTableRecord
  2
3_HOLES
 70
0
 62
7
  6
CONTINUOUS
370
-3
390
F
  0
LAYER
  5
206
100
AcDbSymbolTableRecord
100
AcDbLayerTableRecord
  2
4_ALL_POINTS
 70
0
 62
7
  6
CONTINUOUS
370
-3
390
F
  0
LAYER
  5
207
100
AcDbSymbolTableRecord
100
AcDbLayerTableRecord
  2
5_ALL_CURVES
 70
0
 62
7
  6
CONTINUOUS
370
-3
390
F
  0
LAYER
  5
208
100
AcDbSymbolTableRecord
100
AcDbLayerTableRecord
  2
6_ALL_SURFS
 70
0
 62
7
  6
CONTINUOUS
370
-3
390
F
  0
LAYER
  5
209
100
AcDbSymbolTableRecord
100
AcDbLayerTableRecord
  2
6_COPYGEOM
 70
0
 62
7
  6
CONTINUOUS
370
-3
390
F
  0
LAYER
  5
20A
100
AcDbSymbolTableRecord
100
AcDbLayerTableRecord
  2
7_ALL_ROUNDS
 70
0
 62
7
  6
CONTINUOUS
370
-3
390
F
  0
LAYER
  5
20B
100
AcDbSymbolTableRecord
100
AcDbLayerTableRecord
  2
7_MERGES
 70
0
 62
7
  6
CONTINUOUS
370
-3
390
F
  0
LAYER
  5
20C
100
AcDbSymbolTableRecord
100
AcDbLayerTableRecord
  2
8_GDT
 70
0
 62
7
  6
CONTINUOUS
370
-3
390
F
  0
LAYER
  5
20D
100
AcDbSymbolTableRecord
100
AcDbLayerTableRecord
  2
8_SET_DATUMS
 70
0
 62
7
  6
CONTINUOUS
370
-3
390
F
  0
LAYER
  5
20E
100
AcDbSymbolTableRecord
100
AcDbLayerTableRecord
  2
9_COSMETICS
 70
0
 62
7
  6
CONTINUOUS
370
-3
390
F
  0
LAYER
  5
20F
100
AcDbSymbolTableRecord
100
AcDbLayerTableRecord
  2
9_THREADS
 70
0
 62
7
  6
CONTINUOUS
370
-3
390
F
  0
ENDTAB
  0
TABLE
  2
STYLE
  5
3
100
AcDbSymbolTable
 70
1
  0
STYLE
  5
11
100
AcDbSymbolTableRecord
100
AcDbTextStyleTableRecord
  2
STANDARD
 70
0
 40
0.0
 41
0.8
 50
0.0
 71
0
 42
0.2
  3
txt
  4

  0
STYLE
  5
210
100
AcDbSymbolTableRecord
100
AcDbTextStyleTableRecord
  2
TEXTSTYLE_1
 70
0
 40
0.0
 41
0.8
 50
0.0
 71
0
 42
0.2
  3
gdt
  4

  0
ENDTAB
  0
TABLE
  2
VIEW
  5
6
100
AcDbSymbolTable
 70
0
  0
ENDTAB
  0
TABLE
  2
UCS
  5
7
100
AcDbSymbolTable
 70
0
  0
ENDTAB
  0
TABLE
  2
APPID
  5
9
100
AcDbSymbolTable
 70
1
  0
APPID
  5
211
100
AcDbSymbolTableRecord
100
AcDbRegAppTableRecord
  2
ACAD
 70
0
  0
ENDTAB
  0
TABLE
  2
BLOCK_RECORD
  5
1
100
AcDbSymbolTable
 70
0
  0
BLOCK_RECORD
  5
212
100
AcDbSymbolTableRecord
100
AcDbBlockTableRecord
  2
*Model_Space
  0
BLOCK_RECORD
  5
213
100
AcDbSymbolTableRecord
100
AcDbBlockTableRecord
  2
*Paper_Space
  0
BLOCK_RECORD
  5
214
100
AcDbSymbolTableRecord
100
AcDbBlockTableRecord
  2
_FILLED
  0
BLOCK_RECORD
  5
215
100
AcDbSymbolTableRecord
100
AcDbBlockTableRecord
  2
*D0
  0
BLOCK_RECORD
  5
216
100
AcDbSymbolTableRecord
100
AcDbBlockTableRecord
  2
*D1
  0
BLOCK_RECORD
  5
217
100
AcDbSymbolTableRecord
100
AcDbBlockTableRecord
  2
*D2
  0
BLOCK_RECORD
  5
218
100
AcDbSymbolTableRecord
100
AcDbBlockTableRecord
  2
*D3
  0
BLOCK_RECORD
  5
219
100
AcDbSymbolTableRecord
100
AcDbBlockTableRecord
  2
*D4
  0
BLOCK_RECORD
  5
21A
100
AcDbSymbolTableRecord
100
AcDbBlockTableRecord
  2
*D5
  0
BLOCK_RECORD
  5
21B
100
AcDbSymbolTableRecord
100
AcDbBlockTableRecord
  2
*D6
  0
BLOCK_RECORD
  5
21C
100
AcDbSymbolTableRecord
100
AcDbBlockTableRecord
  2
*D7
  0
BLOCK_RECORD
  5
21D
100
AcDbSymbolTableRecord
100
AcDbBlockTableRecord
  2
*D8
  0
BLOCK_RECORD
  5
21E
100
AcDbSymbolTableRecord
100
AcDbBlockTableRecord
  2
*D9
  0
BLOCK_RECORD
  5
21F
100
AcDbSymbolTableRecord
100
AcDbBlockTableRecord
  2
*D10
  0
BLOCK_RECORD
  5
220
100
AcDbSymbolTableRecord
100
AcDbBlockTableRecord
  2
*D11
  0
BLOCK_RECORD
  5
221
100
AcDbSymbolTableRecord
100
AcDbBlockTableRecord
  2
*D12
  0
BLOCK_RECORD
  5
222
100
AcDbSymbolTableRecord
100
AcDbBlockTableRecord
  2
*D13
  0
BLOCK_RECORD
  5
223
100
AcDbSymbolTableRecord
100
AcDbBlockTableRecord
  2
*D14
  0
BLOCK_RECORD
  5
224
100
AcDbSymbolTableRecord
100
AcDbBlockTableRecord
  2
*D15
  0
BLOCK_RECORD
  5
225
100
AcDbSymbolTableRecord
100
AcDbBlockTableRecord
  2
*D16
  0
BLOCK_RECORD
  5
226
100
AcDbSymbolTableRecord
100
AcDbBlockTableRecord
  2
*D17
  0
BLOCK_RECORD
  5
227
100
AcDbSymbolTableRecord
100
AcDbBlockTableRecord
  2
*D18
  0
BLOCK_RECORD
  5
228
100
AcDbSymbolTableRecord
100
AcDbBlockTableRecord
  2
*D19
  0
BLOCK_RECORD
  5
229
100
AcDbSymbolTableRecord
100
AcDbBlockTableRecord
  2
*D20
  0
BLOCK_RECORD
  5
22A
100
AcDbSymbolTableRecord
100
AcDbBlockTableRecord
  2
*D21
  0
BLOCK_RECORD
  5
22B
100
AcDbSymbolTableRecord
100
AcDbBlockTableRecord
  2
*D22
  0
BLOCK_RECORD
  5
22C
100
AcDbSymbolTableRecord
100
AcDbBlockTableRecord
  2
*D23
  0
BLOCK_RECORD
  5
22D
100
AcDbSymbolTableRecord
100
AcDbBlockTableRecord
  2
*D24
  0
BLOCK_RECORD
  5
22E
100
AcDbSymbolTableRecord
100
AcDbBlockTableRecord
  2
*D25
  0
BLOCK_RECORD
  5
22F
100
AcDbSymbolTableRecord
100
AcDbBlockTableRecord
  2
RD010411_BL0
  0
ENDTAB
  0
TABLE
  2
DIMSTYLE
  5
A
100
AcDbSymbolTable
 70
1
100
AcDbDimStyleTable
 71
0
  0
DIMSTYLE
105
230
100
AcDbSymbolTableRecord
100
AcDbDimStyleTableRecord
  2
STANDARD
 70
0
  3

  4

 40
1.0
 41
0.1875
 42
0.0625
 43
0.38
 44
0.125
 45
0.0
 46
0.0
 47
0.01
 48
0.01
140
0.15625
141
0.09
142
0.0
143
25.4
144
1.0
145
0.0
146
1.0
147
0.09
 71
1.0
 72
0.0
 73
1
 74
1
 75
0
 76
0
 77
0
 78
0
170
0
171
2
172
0
173
0
174
0
175
0
176
0
177
0
178
0
270
2
271
3
272
3
273
2
274
2
275
0
280
0
281
0
282
0
283
1
284
0
285
0
286
0
287
3
288
0
340
11
278
46
341
214
342
214
343
214
344
214
  0
DIMSTYLE
105
231
100
AcDbSymbolTableRecord
100
AcDbDimStyleTableRecord
  2
DIMSTYLE_1
 70
0
  3

  4

 40
1.0
 41
0.1875
 42
0.0625
 43
0.38
 44
0.125
 45
0.0
 46
0.0
 47
0.1
 48
0.1
140
0.15625
141
0.09
142
0.0
143
25.4
144
1.0
145
0.0
146
1.0
147
0.078125
 71
0.0
 72
0.0
 73
1
 74
1
 75
0
 76
0
 77
0
 78
0
170
0
171
2
172
0
173
0
174
0
175
0
176
0
177
0
178
0
270
2
271
1
272
1
273
2
274
2
275
0
280
0
281
0
282
0
283
1
284
0
285
0
286
0
287
3
288
0
340
11
278
46
341
214
342
214
343
214
344
214
  0
DIMSTYLE
105
232
100
AcDbSymbolTableRecord
100
AcDbDimStyleTableRecord
  2
DIMSTYLE_2
 70
0
  3

  4

 40
1.0
 41
0.1875
 42
0.0625
 43
0.38
 44
0.125
 45
0.0
 46
0.0
 47
0.0
 48
0.0
140
0.15625
141
0.09
142
0.0
143
25.4
144
1.0
145
0.0
146
1.0
147
0.078125
 71
0.0
 72
0.0
 73
1
 74
1
 75
0
 76
0
 77
0
 78
0
170
0
171
2
172
0
173
0
174
0
175
0
176
0
177
0
178
0
270
2
271
1
272
1
273
2
274
2
275
0
280
0
281
0
282
0
283
1
284
0
285
0
286
0
287
3
288
0
340
11
278
46
341
214
342
214
343
214
344
214
  0
DIMSTYLE
105
233
100
AcDbSymbolTableRecord
100
AcDbDimStyleTableRecord
  2
DIMSTYLE_3
 70
0
  3
<>
  4

 40
1.0
 41
0.1875
 42
0.0625
 43
0.38
 44
0.125
 45
0.0
 46
0.0
 47
0.0
 48
0.0
140
0.15625
141
0.09
142
0.0
143
25.4
144
1.0
145
0.0
146
1.0
147
0.09
 71
0.0
 72
0.0
 73
1
 74
1
 75
0
 76
0
 77
0
 78
0
170
0
171
2
172
0
173
0
174
0
175
0
176
0
177
0
178
0
270
2
271
1
272
1
273
2
274
2
275
0
280
0
281
0
282
0
283
1
284
0
285
0
286
0
287
3
288
1
340
11
278
46
289
2
341
214
342
214
343
214
344
214
  0
DIMSTYLE
105
234
100
AcDbSymbolTableRecord
100
AcDbDimStyleTableRecord
  2
DIMSTYLE_4
 70
0
  3

  4

 40
1.0
 41
0.1875
 42
0.0625
 43
0.38
 44
0.125
 45
0.0
 46
0.0
 47
0.02
 48
0.02
140
0.15625
141
0.09
142
0.0
143
25.4
144
1.0
145
0.0
146
1.0
147
0.078125
 71
0.0
 72
0.0
 73
1
 74
1
 75
0
 76
0
 77
0
 78
0
170
0
171
2
172
0
173
0
174
0
175
0
176
0
177
0
178
0
270
2
271
2
272
2
273
2
274
2
275
0
280
0
281
0
282
0
283
1
284
0
285
0
286
0
287
3
288
0
340
11
278
46
341
214
342
214
343
214
344
214
  0
DIMSTYLE
105
235
100
AcDbSymbolTableRecord
100
AcDbDimStyleTableRecord
  2
DIMSTYLE_5
 70
0
  3

  4

 40
1.0
 41
0.1875
 42
0.0625
 43
0.38
 44
0.125
 45
0.0
 46
0.0
 47
0.01
 48
0.01
140
0.15625
141
0.09
142
0.0
143
25.4
144
1.0
145
0.0
146
1.0
147
0.078125
 71
0.0
 72
0.0
 73
1
 74
1
 75
0
 76
0
 77
0
 78
0
170
0
171
2
172
0
173
0
174
0
175
0
176
0
177
0
178
0
270
2
271
1
272
1
273
2
274
2
275
0
280
0
281
0
282
0
283
1
284
0
285
0
286
0
287
3
288
0
340
11
278
46
341
214
342
214
343
214
344
214
  0
ENDTAB
  0
ENDSEC
  0
SECTION
  2
BLOCKS
  0
BLOCK
  5
20
100
AcDbEntity
  8
0
100
AcDbBlockBegin
  2
*Model_Space
 70
0
 10
0.0
 20
0.0
 30
0.0
  3
*Model_Space
  1

  0
ENDBLK
  5
21
100
AcDbEntity
  8
0
100
AcDbBlockEnd
  0
BLOCK
  5
1C
100
AcDbEntity
  8
0
100
AcDbBlockBegin
  2
*Paper_Space
 70
0
 10
0.0
 20
0.0
 30
0.0
  3
*Paper_Space
  1

  0
ENDBLK
  5
1D
100
AcDbEntity
  8
0
100
AcDbBlockEnd
  0
BLOCK
  5
236
100
AcDbEntity
  8
0
100
AcDbBlockBegin
 62
7
  6
CONTINUOUS
  2
RD010411_BL0
 70
64
 10
28.8888202988
 20
2.7011106652
  3
RD010411_BL0
  1

  0
ARC
  5
237
100
AcDbEntity
  8
0
100
AcDbCircle
 62
7
  6
CONTINUOUS
 10
29.5409818684
 20
2.8014876227
 40
0.0123715133
100
AcDbArc
 50
270.0
 51
360.0
  0
LINE
  5
238
100
AcDbEntity
  8
0
100
AcDbLine
 62
7
  6
CONTINUOUS
 10
29.5533533817
 20
2.8014876227
 11
29.5533533817
 21
2.8262391519
  0
ARC
  5
239
100
AcDbEntity
  8
0
100
AcDbCircle
 62
7
  6
CONTINUOUS
 10
29.5409818684
 20
2.8262391519
 40
0.0123715133
100
AcDbArc
 50
0.0
 51
90.0
  0
LINE
  5
23A
100
AcDbEntity
  8
0
100
AcDbLine
 62
7
  6
CONTINUOUS
 10
29.5409818684
 20
2.8386106652
 11
29.2083885362
 21
2.8386106652
  0
SPLINE
  5
23B
100
AcDbEntity
  8
0
100
AcDbSpline
 62
7
  6
CONTINUOUS
 70
0
 71
3
 72
13
 73
9
 74
0
 42
0.0000001
 43
0.0000001
 44
0.0000000001
 40
0.0
 40
0.0
 40
0.0
 40
0.0
 40
0.1310616762
 40
0.2699656353
 40
0.4157607805
 40
0.5899807757
 40
0.76586761
 40
0.9948829976
 40
0.9948829976
 40
0.9948829976
 40
0.9948829976
 10
29.2083885362
 20
2.8386106652
 30
0.0
 10
29.2013971217
 20
2.83808994
 30
0.0
 10
29.1869959505
 20
2.8370173313
 30
0.0
 10
29.1674794957
 20
2.8249238235
 30
0.0
 10
29.1534690101
 20
2.8046210019
 30
0.0
 10
29.1443586684
 20
2.7797951203
 30
0.0
 10
29.1392271678
 20
2.7494475725
 30
0.0
 10
29.1387546953
 20
2.7280034624
 30
0.0
 10
29.1385098239
 20
2.715872938
 30
0.0
  0
LINE
  5
23C
100
AcDbEntity
  8
0
100
AcDbLine
 62
7
  6
CONTINUOUS
 10
29.1385098239
 20
2.715872938
 11
29.1385315372
 21
2.7139905091
  0
SPLINE
  5
23D
100
AcDbEntity
  8
0
100
AcDbSpline
 62
7
  6
CONTINUOUS
 70
0
 71
3
 72
13
 73
9
 74
0
 42
0.0000001
 43
0.0000001
 44
0.0000000001
 40
0.0
 40
0.0
 40
0.0
 40
0.0
 40
0.2222860645
 40
0.3981728988
 40
0.572392894
 40
0.7181880393
 40
0.8570919984
 40
0.9881536746
 40
0.9881536746
 40
0.9881536746
 40
0.9881536746
 10
29.1385315372
 20
2.7139905091
 30
0.0
 10
29.1387715826
 20
2.7022165804
 30
0.0
 10
29.1392866896
 20
2.6811327805
 30
0.0
 10
29.1443586642
 20
2.6511370157
 30
0.0
 10
29.1534691149
 20
2.6263139107
 30
0.0
 10
29.1674791636
 20
2.6060024727
 30
0.0
 10
29.1869971079
 20
2.5939378734
 30
0.0
 10
29.2013947681
 20
2.5927971942
 30
0.0
 10
29.2083885362
 20
2.5922762939
 30
0.0
  0
LINE
  5
23E
100
AcDbEntity
  8
0
100
AcDbLine
 62
7
  6
CONTINUOUS
 10
29.2083885362
 20
2.5922762939
 11
29.5410088705
 21
2.5930022716
  0
ARC
  5
23F
100
AcDbEntity
  8
0
100
AcDbCircle
 62
7
  6
CONTINUOUS
 10
29.5409818684
 20
2.6053737554
 40
0.0123715132
100
AcDbArc
 50
270.125053868
 51
360.0
  0
LINE
  5
240
100
AcDbEntity
  8
0
100
AcDbLine
 62
7
  6
CONTINUOUS
 10
29.5533533817
 20
2.6053737554
 11
29.5533533817
 21
2.6291589347
  0
ARC
  5
241
100
AcDbEntity
  8
0
100
AcDbCircle
 62
7
  6
CONTINUOUS
 10
29.5409818684
 20
2.6291589347
 40
0.0123715133
100
AcDbArc
 50
0.0
 51
90.0
  0
LINE
  5
242
100
AcDbEntity
  8
0
100
AcDbLine
 62
7
  6
CONTINUOUS
 10
29.5409818684
 20
2.6415304479
 11
29.2559039252
 21
2.6415304479
  0
LINE
  5
243
100
AcDbEntity
  8
0
100
AcDbLine
 62
7
  6
CONTINUOUS
 10
29.243532412
 20
2.6539019612
 11
29.243532412
 21
2.7767445962
  0
ARC
  5
244
100
AcDbEntity
  8
0
100
AcDbCircle
 62
7
  6
CONTINUOUS
 10
29.2559039254
 20
2.7767445962
 40
0.0123715133
100
AcDbArc
 50
90.0
 51
180.0
  0
LINE
  5
245
100
AcDbEntity
  8
0
100
AcDbLine
 62
7
  6
CONTINUOUS
 10
29.2559039252
 20
2.7891161094
 11
29.5409818684
 21
2.7891161094
  0
LINE
  5
246
100
AcDbEntity
  8
0
100
AcDbLine
 62
7
  6
CONTINUOUS
 10
28.747584633
 20
2.6904631006
 11
28.9851965672
 21
2.6904631006
  0
ARC
  5
247
100
AcDbEntity
  8
0
100
AcDbCircle
 62
7
  6
CONTINUOUS
 10
28.9851965672
 20
2.6780915873
 40
0.0123715133
100
AcDbArc
 50
0.0
 51
90.0
  0
LINE
  5
248
100
AcDbEntity
  8
0
100
AcDbLine
 62
7
  6
CONTINUOUS
 10
28.9975680805
 20
2.6780915873
 11
28.9975680805
 21
2.6528302351
  0
LINE
  5
249
100
AcDbEntity
  8
0
100
AcDbLine
 62
7
  6
CONTINUOUS
 10
28.9851965672
 20
2.6404587218
 11
28.7082164274
 21
2.6404587218
  0
ARC
  5
24A
100
AcDbEntity
  8
0
100
AcDbCircle
 62
7
  6
CONTINUOUS
 10
28.7082164274
 20
2.6280872086
 40
0.0123715133
100
AcDbArc
 50
90.0
 51
180.0
  0
LINE
  5
24B
100
AcDbEntity
  8
0
100
AcDbLine
 62
7
  6
CONTINUOUS
 10
28.6958449141
 20
2.6280872086
 11
28.6958449141
 21
2.6046476823
  0
ARC
  5
24C
100
AcDbEntity
  8
0
100
AcDbCircle
 62
7
  6
CONTINUOUS
 10
28.7082164274
 20
2.6046476823
 40
0.0123715133
100
AcDbArc
 50
180.0
 51
270.0
  0
LINE
  5
24D
100
AcDbEntity
  8
0
100
AcDbLine
 62
7
  6
CONTINUOUS
 10
28.7082164274
 20
2.5922761691
 11
29.0520731444
 21
2.5922761691
  0
SPLINE
  5
24E
100
AcDbEntity
  8
0
100
AcDbSpline
 62
7
  6
CONTINUOUS
 70
0
 71
3
 72
13
 73
9
 74
0
 42
0.0000001
 43
0.0000001
 44
0.0000000001
 40
0.0
 40
0.0
 40
0.0
 40
0.0
 40
0.1604571392
 40
0.3334692485
 40
0.4767982758
 40
0.6242014838
 40
0.7505998515
 40
1.0
 40
1.0
 40
1.0
 40
1.0
 10
29.0520731444
 20
2.5922761691
 30
0.0
 10
29.0578706116
 20
2.5925553068
 30
0.0
 10
29.0699191686
 20
2.593135423
 30
0.0
 10
29.0861210649
 20
2.6001695434
 30
0.0
 10
29.0983297276
 20
2.6119933127
 30
0.0
 10
29.1052097891
 20
2.6255488074
 30
0.0
 10
29.1104846297
 20
2.6437336424
 30
0.0
 10
29.110698683
 20
2.6573423102
 30
0.0
 10
29.1108407401
 20
2.6663737555
 30
0.0
  0
SPLINE
  5
24F
100
AcDbEntity
  8
0
100
AcDbSpline
 62
7
  6
CONTINUOUS
 70
0
 71
3
 72
13
 73
9
 74
0
 42
0.0000001
 43
0.0000001
 44
0.0000000001
 40
0.0
 40
0.0
 40
0.0
 40
0.0
 40
0.2494001485
 40
0.3757985162
 40
0.5232017242
 40
0.6665307515
 40
0.8395428608
 40
1.0
 40
1.0
 40
1.0
 40
1.0
 10
29.1108407401
 20
2.6663737555
 30
0.0
 10
29.110698683
 20
2.6754052009
 30
0.0
 10
29.1104846297
 20
2.6890138686
 30
0.0
 10
29.1052097891
 20
2.7071987038
 30
0.0
 10
29.0983297276
 20
2.7207541985
 30
0.0
 10
29.0861210649
 20
2.7325779676
 30
0.0
 10
29.0699191686
 20
2.739612088
 30
0.0
 10
29.0578706116
 20
2.7401922044
 30
0.0
 10
29.0520731444
 20
2.7404713419
 30
0.0
  0
LINE
  5
250
100
AcDbEntity
  8
0
100
AcDbLine
 62
7
  6
CONTINUOUS
 10
29.0520731444
 20
2.7404713419
 11
28.81762842
 21
2.7404713419
  0
LINE
  5
251
100
AcDbEntity
  8
0
100
AcDbLine
 62
7
  6
CONTINUOUS
 10
28.8052569067
 20
2.7528428552
 11
28.8052569067
 21
2.7762509994
  0
ARC
  5
252
100
AcDbEntity
  8
0
100
AcDbCircle
 62
7
  6
CONTINUOUS
 10
28.8176284199
 20
2.7762509994
 40
0.0123715133
100
AcDbArc
 50
90.0
 51
180.0
  0
LINE
  5
253
100
AcDbEntity
  8
0
100
AcDbLine
 62
7
  6
CONTINUOUS
 10
28.81762842
 20
2.7886225127
 11
29.0949845197
 21
2.7886225127
  0
ARC
  5
254
100
AcDbEntity
  8
0
100
AcDbCircle
 62
7
  6
CONTINUOUS
 10
29.0949845197
 20
2.800994026
 40
0.0123715133
100
AcDbArc
 50
270.0
 51
360.0
  0
LINE
  5
255
100
AcDbEntity
  8
0
100
AcDbLine
 62
7
  6
CONTINUOUS
 10
29.107356033
 20
2.800994026
 11
29.107356033
 21
2.8262391519
  0
ARC
  5
256
100
AcDbEntity
  8
0
100
AcDbCircle
 62
7
  6
CONTINUOUS
 10
29.0949845197
 20
2.8262391519
 40
0.0123715133
100
AcDbArc
 50
0.0
 51
90.0
  0
LINE
  5
257
100
AcDbEntity
  8
0
100
AcDbLine
 62
7
  6
CONTINUOUS
 10
29.0949845197
 20
2.8386106652
 11
28.747584633
 21
2.8386106652
  0
SPLINE
  5
258
100
AcDbEntity
  8
0
100
AcDbSpline
 62
7
  6
CONTINUOUS
 70
0
 71
3
 72
13
 73
9
 74
0
 42
0.0000001
 43
0.0000001
 44
0.0000000001
 40
0.0
 40
0.0
 40
0.0
 40
0.0
 40
0.1133740464
 40
0.2392044088
 40
0.3655787964
 40
0.4912154373
 40
0.7445390876
 40
1.0
 40
1.0
 40
1.0
 40
1.0
 10
28.747584633
 20
2.8386106652
 30
0.0
 10
28.7436160069
 20
2.8384151918
 30
0.0
 10
28.735242725
 20
2.8380027684
 30
0.0
 10
28.7228050429
 20
2.8342867606
 30
0.0
 10
28.7116783243
 20
2.8267829835
 30
0.0
 10
28.700312282
 20
2.8129607397
 30
0.0
 10
28.6931600471
 20
2.7912616561
 30
0.0
 10
28.6923843862
 20
2.7734700532
 30
0.0
 10
28.6919949268
 20
2.7645368829
 30
0.0
  0
SPLINE
  5
259
100
AcDbEntity
  8
0
100
AcDbSpline
 62
7
  6
CONTINUOUS
 70
0
 71
3
 72
13
 73
9
 74
0
 42
0.0000001
 43
0.0000001
 44
0.0000000001
 40
0.0
 40
0.0
 40
0.0
 40
0.0
 40
0.2554609124
 40
0.5087845627
 40
0.6344212036
 40
0.7607955912
 40
0.8866259536
 40
1.0
 40
1.0
 40
1.0
 40
1.0
 10
28.6919949268
 20
2.7645368829
 30
0.0
 10
28.6923843862
 20
2.7556037125
 30
0.0
 10
28.6931600471
 20
2.7378121095
 30
0.0
 10
28.700312282
 20
2.716113026
 30
0.0
 10
28.7116783243
 20
2.7022907823
 30
0.0
 10
28.7228050429
 20
2.6947870052
 30
0.0
 10
28.735242725
 20
2.6910709973
 30
0.0
 10
28.7436160069
 20
2.6906585739
 30
0.0
 10
28.747584633
 20
2.6904631006
 30
0.0
  0
LINE
  5
25A
100
AcDbEntity
  8
0
100
AcDbLine
 62
7
  6
CONTINUOUS
 10
28.2904708058
 20
2.5922761691
 11
28.4826983027
 21
2.5922761691
  0
LINE
  5
25B
100
AcDbEntity
  8
0
100
AcDbLine
 62
7
  6
CONTINUOUS
 10
28.4826983027
 20
2.5922761691
 11
28.4826983027
 21
2.5683689395
  0
ARC
  5
25C
100
AcDbEntity
  8
0
100
AcDbCircle
 62
7
  6
CONTINUOUS
 10
28.487456577
 20
2.5683689395
 40
0.0047582743
100
AcDbArc
 50
180.0
 51
270.0
  0
LINE
  5
25D
100
AcDbEntity
  8
0
100
AcDbLine
 62
7
  6
CONTINUOUS
 10
28.487456577
 20
2.5636106652
 11
28.5615477479
 21
2.5636106652
  0
ARC
  5
25E
100
AcDbEntity
  8
0
100
AcDbCircle
 62
7
  6
CONTINUOUS
 10
28.5615477479
 20
2.5683689395
 40
0.0047582743
100
AcDbArc
 50
270.0
 51
360.0
  0
LINE
  5
25F
100
AcDbEntity
  8
0
100
AcDbLine
 62
7
  6
CONTINUOUS
 10
28.5663060223
 20
2.5683689395
 11
28.5663060223
 21
2.5922761691
  0
LINE
  5
260
100
AcDbEntity
  8
0
100
AcDbLine
 62
7
  6
CONTINUOUS
 10
28.5663060223
 20
2.5922761691
 11
28.6041051426
 21
2.5922761691
  0
SPLINE
  5
261
100
AcDbEntity
  8
0
100
AcDbSpline
 62
7
  6
CONTINUOUS
 70
0
 71
3
 72
12
 73
8
 74
0
 42
0.0000001
 43
0.0000001
 44
0.0000000001
 40
0.0
 40
0.0
 40
0.0
 40
0.0
 40
0.2415790084
 40
0.4893269843
 40
0.7378634303
 40
0.8656387112
 40
1.0
 40
1.0
 40
1.0
 40
1.0
 10
28.6041051426
 20
2.5922761691
 30
0.0
 10
28.6108828973
 20
2.5924868818
 30
0.0
 10
28.6246114837
 20
2.5929136882
 30
0.0
 10
28.6447018375
 20
2.6000784426
 30
0.0
 10
28.6569031048
 20
2.6136036029
 30
0.0
 10
28.6622785781
 20
2.62711774
 30
0.0
 10
28.662375452
 20
2.6345207558
 30
0.0
 10
28.662425106
 20
2.6383152614
 30
0.0
  0
LINE
  5
262
100
AcDbEntity
  8
0
100
AcDbLine
 62
7
  6
CONTINUOUS
 10
28.662425106
 20
2.6383152614
 11
28.662425106
 21
2.7922826519
  0
SPLINE
  5
263
100
AcDbEntity
  8
0
100
AcDbSpline
 62
7
  6
CONTINUOUS
 70
0
 71
3
 72
12
 73
8
 74
0
 42
0.0000001
 43
0.0000001
 44
0.0000000001
 40
0.0
 40
0.0
 40
0.0
 40
0.0
 40
0.1343612888
 40
0.2621365697
 40
0.5106730157
 40
0.7584209916
 40
1.0
 40
1.0
 40
1.0
 40
1.0
 10
28.662425106
 20
2.7922826519
 30
0.0
 10
28.662375452
 20
2.7960771578
 30
0.0
 10
28.6622785781
 20
2.8034801735
 30
0.0
 10
28.6569031048
 20
2.8169943106
 30
0.0
 10
28.6447018375
 20
2.8305194709
 30
0.0
 10
28.6246114837
 20
2.8376842252
 30
0.0
 10
28.6108828973
 20
2.8381110315
 30
0.0
 10
28.6041051426
 20
2.8383217443
 30
0.0
  0
LINE
  5
264
100
AcDbEntity
  8
0
100
AcDbLine
 62
7
  6
CONTINUOUS
 10
28.6041051426
 20
2.8383217443
 11
28.2904708058
 21
2.8383217443
  0
SPLINE
  5
265
100
AcDbEntity
  8
0
100
AcDbSpline
 62
7
  6
CONTINUOUS
 70
0
 71
3
 72
12
 73
8
 74
0
 42
0.0000001
 43
0.0000001
 44
0.0000000001
 40
0.0
 40
0.0
 40
0.0
 40
0.0
 40
0.1341799809
 40
0.290831959
 40
0.5815217441
 40
0.760783857
 40
1.0
 40
1.0
 40
1.0
 40
1.0
 10
28.2904708058
 20
2.8383217443
 30
0.0
 10
28.2836298841
 20
2.8371525659
 30
0.0
 10
28.268802347
 20
2.8346183988
 30
0.0
 10
28.2438425679
 20
2.8159710058
 30
0.0
 10
28.2320203498
 20
2.7845986398
 30
0.0
 10
28.2251032757
 20
2.7490351714
 30
0.0
 10
28.2245840327
 20
2.7275247647
 30
0.0
 10
28.2242872159
 20
2.7152286981
 30
0.0
  0
SPLINE
  5
266
100
AcDbEntity
  8
0
100
AcDbSpline
 62
7
  6
CONTINUOUS
 70
0
 71
3
 72
12
 73
8
 74
0
 42
0.0000001
 43
0.0000001
 44
0.0000000001
 40
0.0
 40
0.0
 40
0.0
 40
0.0
 40
0.2392679579
 40
0.4185688994
 40
0.7093216488
 40
0.8660075581
 40
1.0
 40
1.0
 40
1.0
 40
1.0
 10
28.2242872159
 20
2.7152286981
 30
0.0
 10
28.2245841512
 20
2.7029331107
 30
0.0
 10
28.2251036016
 20
2.6814235425
 30
0.0
 10
28.2320191831
 20
2.6458540391
 30
0.0
 10
28.2438486242
 20
2.6145108802
 30
0.0
 10
28.2687824167
 20
2.5958029354
 30
0.0
 10
28.2836276692
 20
2.593388937
 30
0.0
 10
28.2904708058
 20
2.5922761691
 30
0.0
  0
LINE
  5
267
100
AcDbEntity
  8
0
100
AcDbLine
 62
7
  6
CONTINUOUS
 10
28.5990711516
 20
2.6556224584
 11
28.5990711516
 21
2.7789854567
  0
ARC
  5
268
100
AcDbEntity
  8
0
100
AcDbCircle
 62
7
  6
CONTINUOUS
 10
28.3395212147
 20
2.6556224584
 40
0.0123715133
100
AcDbArc
 50
180.0
 51
270.0
  0
LINE
  5
269
100
AcDbEntity
  8
0
100
AcDbLine
 62
7
  6
CONTINUOUS
 10
28.3395212147
 20
2.6432509452
 11
28.4816161078
 21
2.6432509452
  0
LINE
  5
26A
100
AcDbEntity
  8
0
100
AcDbLine
 62
7
  6
CONTINUOUS
 10
28.4816161078
 20
2.6432509452
 11
28.4816161078
 21
2.6670840996
  0
ARC
  5
26B
100
AcDbEntity
  8
0
100
AcDbCircle
 62
7
  6
CONTINUOUS
 10
28.4863743822
 20
2.6670840996
 40
0.0047582743
100
AcDbArc
 50
90.0
 51
180.0
  0
LINE
  5
26C
100
AcDbEntity
  8
0
100
AcDbLine
 62
7
  6
CONTINUOUS
 10
28.4863743821
 20
2.6718423739
 11
28.5600879678
 21
2.6718423739
  0
ARC
  5
26D
100
AcDbEntity
  8
0
100
AcDbCircle
 62
7
  6
CONTINUOUS
 10
28.5600879676
 20
2.6670840998
 40
0.0047582743
100
AcDbArc
 50
0.0
 51
90.0
  0
LINE
  5
26E
100
AcDbEntity
  8
0
100
AcDbLine
 62
7
  6
CONTINUOUS
 10
28.5648462421
 20
2.6432509452
 11
28.5866996383
 21
2.6432509452
  0
ARC
  5
26F
100
AcDbEntity
  8
0
100
AcDbCircle
 62
7
  6
CONTINUOUS
 10
28.5866996383
 20
2.6556224584
 40
0.0123715133
100
AcDbArc
 50
270.0
 51
360.0
  0
LINE
  5
270
100
AcDbEntity
  8
0
100
AcDbLine
 62
7
  6
CONTINUOUS
 10
28.5648462421
 20
2.6432509452
 11
28.5648462421
 21
2.6670840996
  0
LINE
  5
271
100
AcDbEntity
  8
0
100
AcDbLine
 62
7
  6
CONTINUOUS
 10
28.3271497014
 20
2.6556224584
 11
28.3271497014
 21
2.7789854567
  0
ARC
  5
272
100
AcDbEntity
  8
0
100
AcDbCircle
 62
7
  6
CONTINUOUS
 10
28.3395212149
 20
2.7789854567
 40
0.0123715133
100
AcDbArc
 50
90.0
 51
180.0
  0
LINE
  5
273
100
AcDbEntity
  8
0
100
AcDbLine
 62
7
  6
CONTINUOUS
 10
28.3395212147
 20
2.79135697
 11
28.5866996383
 21
2.79135697
  0
ARC
  5
274
100
AcDbEntity
  8
0
100
AcDbCircle
 62
7
  6
CONTINUOUS
 10
28.5866996384
 20
2.7789854566
 40
0.0123715133
100
AcDbArc
 50
0.0000000277
 51
90.0000000277
  0
ARC
  5
275
100
AcDbEntity
  8
0
100
AcDbCircle
 62
7
  6
CONTINUOUS
 10
28.81762842
 20
2.7528428552
 40
0.0123715133
100
AcDbArc
 50
180.0
 51
270.0
  0
ARC
  5
276
100
AcDbEntity
  8
0
100
AcDbCircle
 62
7
  6
CONTINUOUS
 10
28.9851965672
 20
2.6528302351
 40
0.0123715133
100
AcDbArc
 50
270.0
 51
360.0
  0
ARC
  5
277
100
AcDbEntity
  8
0
100
AcDbCircle
 62
7
  6
CONTINUOUS
 10
29.2559039252
 20
2.6539019612
 40
0.0123715133
100
AcDbArc
 50
180.0
 51
270.0
  0
ENDBLK
  5
278
100
AcDbEntity
  8
0
  6
BYBLOCK
 62
0
100
AcDbBlockEnd
  0
BLOCK
  5
279
100
AcDbEntity
  8
0
100
AcDbBlockBegin
  2
_FILLED
 70
64
 10
0.0
 20
0.0
  3
_FILLED
  1

  0
SOLID
  5
27A
100
AcDbEntity
  8
0
  6
BYBLOCK
 62
0
100
AcDbTrace
 10
0.0
 20
0.0
 11
-1.0
 21
0.1666666667
 12
-1.0
 22
-0.1666666667
 13
-1.0
 23
-0.1666666667
  0
ENDBLK
  5
27B
100
AcDbEntity
  8
0
  6
BYBLOCK
 62
0
100
AcDbBlockEnd
  0
BLOCK
  5
27C
100
AcDbEntity
  8
0
100
AcDbBlockBegin
 62
2
  6
CONTINUOUS
  2
*D0
 70
65
 10
0.0
 20
0.0
  3
*D0
  1

  0
MTEXT
  5
27D
100
AcDbEntity
  8
0
100
AcDbMText
 62
2
  6
CONTINUOUS
  7
STANDARD
 71
1
 72
1
 10
6.1705733499
 20
15.5431644283
 30
0.0
 11
1.0
 21
0.0
 31
0.0
 44
0.9
  1
3.1\P[0.12]
 40
0.15625
 41
0.8370535714
  0
LINE
  5
27E
100
AcDbEntity
  8
0
100
AcDbLine
 62
2
  6
CONTINUOUS
 10
5.4957484437
 20
15.9206398521
 11
5.4957484437
 21
15.3400394283
  0
LINE
  5
27F
100
AcDbEntity
  8
0
100
AcDbLine
 62
2
  6
CONTINUOUS
 10
5.3725200972
 20
15.9206398521
 11
5.3725200972
 21
15.3400394283
  0
LINE
  5
280
100
AcDbEntity
  8
0
100
AcDbLine
 62
2
  6
CONTINUOUS
 10
5.4957484437
 20
15.4650394283
 11
6.0924483499
 21
15.4650394283
  0
LINE
  5
281
100
AcDbEntity
  8
0
100
AcDbLine
 62
2
  6
CONTINUOUS
 10
5.3725200972
 20
15.4650394283
 11
4.8725200972
 21
15.4650394283
  0
INSERT
  5
282
100
AcDbEntity
  8
0
100
AcDbBlockReference
 62
2
  6
CONTINUOUS
  2
_FILLED
 10
5.4957484437
 20
15.4650394283
 41
0.1875
 42
0.1875
 43
0.1875
 50
180.0
  0
INSERT
  5
283
100
AcDbEntity
  8
0
100
AcDbBlockReference
 62
2
  6
CONTINUOUS
  2
_FILLED
 10
5.3725200972
 20
15.4650394283
 41
0.1875
 42
0.1875
 43
0.1875
  0
ENDBLK
  5
284
100
AcDbEntity
  8
0
  6
BYBLOCK
 62
0
100
AcDbBlockEnd
  0
BLOCK
  5
285
100
AcDbEntity
  8
0
100
AcDbBlockBegin
 62
2
  6
CONTINUOUS
  2
*D1
 70
65
 10
0.0
 20
0.0
  3
*D1
  1

  0
MTEXT
  5
286
100
AcDbEntity
  8
0
100
AcDbMText
 62
2
  6
CONTINUOUS
  7
STANDARD
 71
2
 72
1
 10
4.248386048
 20
17.9313435923
 30
0.0
 11
1.0
 21
0.0
 31
0.0
 44
0.9
  1
95.0\P[3.74]
 40
0.15625
 41
0.8705357143
  0
LINE
  5
287
100
AcDbEntity
  8
0
100
AcDbLine
 62
2
  6
CONTINUOUS
 10
5.5564767902
 20
19.7232973324
 11
5.4640057673
 21
19.7232973324
  0
LINE
  5
288
100
AcDbEntity
  8
0
100
AcDbLine
 62
2
  6
CONTINUOUS
 10
5.2605543782
 20
19.7232973324
 11
4.1903503338
 21
19.7232973324
  0
LINE
  5
289
100
AcDbEntity
  8
0
100
AcDbLine
 62
2
  6
CONTINUOUS
 10
5.3100200972
 20
15.9831398521
 11
4.1903503338
 21
15.9831398521
  0
LINE
  5
28A
100
AcDbEntity
  8
0
100
AcDbLine
 62
2
  6
CONTINUOUS
 10
4.3153503338
 20
19.7232973324
 11
4.3153503338
 21
18.0094685923
  0
LINE
  5
28B
100
AcDbEntity
  8
0
100
AcDbLine
 62
2
  6
CONTINUOUS
 10
4.3153503338
 20
15.9831398521
 11
4.3153503338
 21
17.4625935923
  0
INSERT
  5
28C
100
AcDbEntity
  8
0
100
AcDbBlockReference
 62
2
  6
CONTINUOUS
  2
_FILLED
 10
4.3153503338
 20
19.7232973324
 41
0.1875
 42
0.1875
 43
0.1875
 50
90.0
  0
INSERT
  5
28D
100
AcDbEntity
  8
0
100
AcDbBlockReference
 62
2
  6
CONTINUOUS
  2
_FILLED
 10
4.3153503338
 20
15.9831398521
 41
0.1875
 42
0.1875
 43
0.1875
 50
270.0
  0
ENDBLK
  5
28E
100
AcDbEntity
  8
0
  6
BYBLOCK
 62
0
100
AcDbBlockEnd
  0
BLOCK
  5
28F
100
AcDbEntity
  8
0
100
AcDbBlockBegin
 62
2
  6
CONTINUOUS
  2
*D2
 70
65
 10
0.0
 20
0.0
  3
*D2
  1

  0
MTEXT
  5
290
100
AcDbEntity
  8
0
100
AcDbMText
 62
2
  6
CONTINUOUS
  7
STANDARD
 71
2
 72
1
 10
9.8551287165
 20
20.7324879194
 30
0.0
 11
1.0
 21
0.0
 31
0.0
 44
0.9
  1
228.0\P[8.98]
 40
0.15625
 41
0.8872767857
  0
LINE
  5
291
100
AcDbEntity
  8
0
100
AcDbLine
 62
2
  6
CONTINUOUS
 10
5.3725200972
 20
19.5393406395
 11
5.3725200972
 21
20.7793629194
  0
LINE
  5
292
100
AcDbEntity
  8
0
100
AcDbLine
 62
2
  6
CONTINUOUS
 10
14.34889805
 20
19.7857973324
 11
14.34889805
 21
20.7793629194
  0
LINE
  5
293
100
AcDbEntity
  8
0
100
AcDbLine
 62
2
  6
CONTINUOUS
 10
5.3725200972
 20
20.6543629194
 11
9.4868251451
 21
20.6543629194
  0
LINE
  5
294
100
AcDbEntity
  8
0
100
AcDbLine
 62
2
  6
CONTINUOUS
 10
14.34889805
 20
20.6543629194
 11
10.2345930022
 21
20.6543629194
  0
INSERT
  5
295
100
AcDbEntity
  8
0
100
AcDbBlockReference
 62
2
  6
CONTINUOUS
  2
_FILLED
 10
5.3725200972
 20
20.6543629194
 41
0.1875
 42
0.1875
 43
0.1875
 50
180.0
  0
INSERT
  5
296
100
AcDbEntity
  8
0
100
AcDbBlockReference
 62
2
  6
CONTINUOUS
  2
_FILLED
 10
14.34889805
 20
20.6543629194
 41
0.1875
 42
0.1875
 43
0.1875
  0
ENDBLK
  5
297
100
AcDbEntity
  8
0
  6
BYBLOCK
 62
0
100
AcDbBlockEnd
  0
BLOCK
  5
298
100
AcDbEntity
  8
0
100
AcDbBlockBegin
 62
2
  6
CONTINUOUS
  2
*D3
 70
65
 10
0.0
 20
0.0
  3
*D3
  1

  0
MTEXT
  5
299
100
AcDbEntity
  8
0
100
AcDbMText
 62
2
  6
CONTINUOUS
  7
STANDARD
 71
2
 72
1
 10
26.0489838872
 20
9.4539217173
 30
0.0
 11
1.0
 21
0.0
 31
0.0
 44
0.9
  1
108.0\P[4.25]
 40
0.15625
 41
0.8705357143
  0
LINE
  5
29A
100
AcDbEntity
  8
0
100
AcDbLine
 62
2
  6
CONTINUOUS
 10
23.440022857
 20
11.5017809692
 11
26.1907249586
 21
11.5017809692
  0
LINE
  5
29B
100
AcDbEntity
  8
0
100
AcDbLine
 62
2
  6
CONTINUOUS
 10
23.440022857
 20
7.2498124653
 11
26.1907249586
 21
7.2498124653
  0
LINE
  5
29C
100
AcDbEntity
  8
0
100
AcDbLine
 62
2
  6
CONTINUOUS
 10
26.0657249586
 20
11.5017809692
 11
26.0657249586
 21
9.5320467173
  0
LINE
  5
29D
100
AcDbEntity
  8
0
100
AcDbLine
 62
2
  6
CONTINUOUS
 10
26.0657249586
 20
7.2498124653
 11
26.0657249586
 21
8.9851717173
  0
INSERT
  5
29E
100
AcDbEntity
  8
0
100
AcDbBlockReference
 62
2
  6
CONTINUOUS
  2
_FILLED
 10
26.0657249586
 20
11.5017809692
 41
0.1875
 42
0.1875
 43
0.1875
 50
90.0
  0
INSERT
  5
29F
100
AcDbEntity
  8
0
100
AcDbBlockReference
 62
2
  6
CONTINUOUS
  2
_FILLED
 10
26.0657249586
 20
7.2498124653
 41
0.1875
 42
0.1875
 43
0.1875
 50
270.0
  0
ENDBLK
  5
2A0
100
AcDbEntity
  8
0
  6
BYBLOCK
 62
0
100
AcDbBlockEnd
  0
BLOCK
  5
2A1
100
AcDbEntity
  8
0
100
AcDbBlockBegin
 62
2
  6
CONTINUOUS
  2
*D4
 70
65
 10
0.0
 20
0.0
  3
*D4
  1

  0
MTEXT
  5
2A2
100
AcDbEntity
  8
0
100
AcDbMText
 62
2
  6
CONTINUOUS
  7
STANDARD
 71
2
 72
1
 10
24.9087157289
 20
9.4297439395
 30
0.0
 11
1.0
 21
0.0
 31
0.0
 44
0.9
  1
2X 82.0\P[3.23]
 40
0.15625
 41
1.2555803571
  0
LINE
  5
2A3
100
AcDbEntity
  8
0
100
AcDbLine
 62
2
  6
CONTINUOUS
 10
22.8899265671
 20
10.9899699456
 11
25.0895193003
 21
10.9899699456
  0
LINE
  5
2A4
100
AcDbEntity
  8
0
100
AcDbLine
 62
2
  6
CONTINUOUS
 10
22.8760264265
 20
7.7616234889
 11
25.0895193003
 21
7.7616234889
  0
LINE
  5
2A5
100
AcDbEntity
  8
0
100
AcDbLine
 62
2
  6
CONTINUOUS
 10
24.9645193003
 20
10.9899699456
 11
24.9645193003
 21
9.5078689395
  0
LINE
  5
2A6
100
AcDbEntity
  8
0
100
AcDbLine
 62
2
  6
CONTINUOUS
 10
24.9645193003
 20
7.7616234889
 11
24.9645193003
 21
8.9609939395
  0
INSERT
  5
2A7
100
AcDbEntity
  8
0
100
AcDbBlockReference
 62
2
  6
CONTINUOUS
  2
_FILLED
 10
24.9645193003
 20
10.9899699456
 41
0.1875
 42
0.1875
 43
0.1875
 50
90.0
  0
INSERT
  5
2A8
100
AcDbEntity
  8
0
100
AcDbBlockReference
 62
2
  6
CONTINUOUS
  2
_FILLED
 10
24.9645193003
 20
7.7616234889
 41
0.1875
 42
0.1875
 43
0.1875
 50
270.0
  0
ENDBLK
  5
2A9
100
AcDbEntity
  8
0
  6
BYBLOCK
 62
0
100
AcDbBlockEnd
  0
BLOCK
  5
2AA
100
AcDbEntity
  8
0
100
AcDbBlockBegin
 62
2
  6
CONTINUOUS
  2
*D5
 70
65
 10
0.0
 20
0.0
  3
*D5
  1

  0
MTEXT
  5
2AB
100
AcDbEntity
  8
0
100
AcDbMText
 62
2
  6
CONTINUOUS
  7
STANDARD
 71
2
 72
1
 10
21.3450558838
 20
6.3936450066
 30
0.0
 11
1.0
 21
0.0
 31
0.0
 44
0.9
  1
2X 60.0\P[2.36]
 40
0.15625
 41
1.2555803571
  0
LINE
  5
2AC
100
AcDbEntity
  8
0
100
AcDbLine
 62
2
  6
CONTINUOUS
 10
20.2253374502
 20
7.4731392369
 11
20.2253374502
 21
6.1905200066
  0
LINE
  5
2AD
100
AcDbEntity
  8
0
100
AcDbLine
 62
2
  6
CONTINUOUS
 10
22.5875421746
 20
7.4731392369
 11
22.5875421746
 21
6.1905200066
  0
LINE
  5
2AE
100
AcDbEntity
  8
0
100
AcDbLine
 62
2
  6
CONTINUOUS
 10
20.2253374502
 20
6.3155200066
 11
20.8484040981
 21
6.3155200066
  0
LINE
  5
2AF
100
AcDbEntity
  8
0
100
AcDbLine
 62
2
  6
CONTINUOUS
 10
22.5875421746
 20
6.3155200066
 11
21.9644755266
 21
6.3155200066
  0
INSERT
  5
2B0
100
AcDbEntity
  8
0
100
AcDbBlockReference
 62
2
  6
CONTINUOUS
  2
_FILLED
 10
20.2253374502
 20
6.3155200066
 41
0.1875
 42
0.1875
 43
0.1875
 50
180.0
  0
INSERT
  5
2B1
100
AcDbEntity
  8
0
100
AcDbBlockReference
 62
2
  6
CONTINUOUS
  2
_FILLED
 10
22.5875421746
 20
6.3155200066
 41
0.1875
 42
0.1875
 43
0.1875
  0
ENDBLK
  5
2B2
100
AcDbEntity
  8
0
  6
BYBLOCK
 62
0
100
AcDbBlockEnd
  0
BLOCK
  5
2B3
100
AcDbEntity
  8
0
100
AcDbBlockBegin
 62
2
  6
CONTINUOUS
  2
*D6
 70
65
 10
0.0
 20
0.0
  3
*D6
  1

  0
MTEXT
  5
2B4
100
AcDbEntity
  8
0
100
AcDbMText
 62
2
  6
CONTINUOUS
  7
STANDARD
 71
3
 72
1
 10
21.4812952806
 20
12.6090714556
 30
0.0
 11
1.0
 21
0.0
 31
0.0
 44
0.9
  1
4X \Fgdt;{\Fgdt;n}\Ftxt;6.4\P[0.25]
 40
0.15625
 41
1.3839285714
  0
LINE
  5
2B5
100
AcDbEntity
  8
0
100
AcDbLine
 62
2
  6
CONTINUOUS
 10
22.5411251588
 20
11.1070916447
 11
21.9768309949
 21
12.5309464556
  0
LINE
  5
2B6
100
AcDbEntity
  8
0
100
AcDbLine
 62
2
  6
CONTINUOUS
 10
21.9768309949
 20
12.5309464556
 11
21.8049559949
 21
12.5309464556
  0
INSERT
  5
2B7
100
AcDbEntity
  8
0
100
AcDbBlockReference
 62
2
  6
CONTINUOUS
  2
_FILLED
 10
22.5411251588
 20
11.1070916447
 41
0.1875
 42
0.1875
 43
0.1875
 50
291.6191358849
  0
ENDBLK
  5
2B8
100
AcDbEntity
  8
0
  6
BYBLOCK
 62
0
100
AcDbBlockEnd
  0
BLOCK
  5
2B9
100
AcDbEntity
  8
0
100
AcDbBlockBegin
 62
2
  6
CONTINUOUS
  2
*D7
 70
65
 10
0.0
 20
0.0
  3
*D7
  1

  0
MTEXT
  5
2BA
100
AcDbEntity
  8
0
100
AcDbMText
 62
2
  6
CONTINUOUS
  7
TEXTSTYLE_1
 71
3
 72
1
 10
19.7984932161
 20
12.5762115482
 30
0.0
 11
1.0
 21
0.0
 31
0.0
 44
0.9
  1
{\Fgdt;n}\Ftxt;54.9\P[2.16]
 40
0.15625
 41
0.9821428571
  0
LINE
  5
2BB
100
AcDbEntity
  8
0
100
AcDbLine
 62
2
  6
CONTINUOUS
 10
21.0629819737
 20
10.3706233669
 11
20.1601003589
 21
12.4980865482
  0
LINE
  5
2BC
100
AcDbEntity
  8
0
100
AcDbLine
 62
2
  6
CONTINUOUS
 10
20.1601003589
 20
12.4980865482
 11
19.9882253589
 21
12.4980865482
  0
INSERT
  5
2BD
100
AcDbEntity
  8
0
100
AcDbBlockReference
 62
2
  6
CONTINUOUS
  2
_FILLED
 10
21.0629819737
 20
10.3706233669
 41
0.1875
 42
0.1875
 43
0.1875
 50
292.9960536931
  0
ENDBLK
  5
2BE
100
AcDbEntity
  8
0
  6
BYBLOCK
 62
0
100
AcDbBlockEnd
  0
BLOCK
  5
2BF
100
AcDbEntity
  8
0
100
AcDbBlockBegin
 62
2
  6
CONTINUOUS
  2
*D8
 70
65
 10
0.0
 20
0.0
  3
*D8
  1

  0
MTEXT
  5
2C0
100
AcDbEntity
  8
0
100
AcDbMText
 62
2
  6
CONTINUOUS
  7
STANDARD
 71
1
 72
1
 10
23.6947403277
 20
6.3936450066
 30
0.0
 11
1.0
 21
0.0
 31
0.0
 44
0.9
  1
2X 20.4\P[0.80]
 40
0.15625
 41
1.2555803571
  0
LINE
  5
2C1
100
AcDbEntity
  8
0
100
AcDbLine
 62
2
  6
CONTINUOUS
 10
22.5875421746
 20
7.4731392369
 11
22.5875421746
 21
6.1905200066
  0
LINE
  5
2C2
100
AcDbEntity
  8
0
100
AcDbLine
 62
2
  6
CONTINUOUS
 10
23.3918728832
 20
7.1873124653
 11
23.3918728832
 21
6.1905200066
  0
LINE
  5
2C3
100
AcDbEntity
  8
0
100
AcDbLine
 62
2
  6
CONTINUOUS
 10
22.5875421746
 20
6.3155200066
 11
22.9897075289
 21
6.3155200066
  0
LINE
  5
2C4
100
AcDbEntity
  8
0
100
AcDbLine
 62
2
  6
CONTINUOUS
 10
23.3918728832
 20
6.3155200066
 11
22.9897075289
 21
6.3155200066
  0
LINE
  5
2C5
100
AcDbEntity
  8
0
100
AcDbLine
 62
2
  6
CONTINUOUS
 10
22.9897075289
 20
6.3155200066
 11
23.6166153277
 21
6.3155200066
  0
INSERT
  5
2C6
100
AcDbEntity
  8
0
100
AcDbBlockReference
 62
2
  6
CONTINUOUS
  2
_FILLED
 10
22.5875421746
 20
6.3155200066
 41
0.1875
 42
0.1875
 43
0.1875
 50
180.0
  0
INSERT
  5
2C7
100
AcDbEntity
  8
0
100
AcDbBlockReference
 62
2
  6
CONTINUOUS
  2
_FILLED
 10
23.3918728832
 20
6.3155200066
 41
0.1875
 42
0.1875
 43
0.1875
  0
ENDBLK
  5
2C8
100
AcDbEntity
  8
0
  6
BYBLOCK
 62
0
100
AcDbBlockEnd
  0
BLOCK
  5
2C9
100
AcDbEntity
  8
0
100
AcDbBlockBegin
 62
2
  6
CONTINUOUS
  2
*D9
 70
65
 10
0.0
 20
0.0
  3
*D9
  1

  0
MTEXT
  5
2CA
100
AcDbEntity
  8
0
100
AcDbMText
 62
2
  6
CONTINUOUS
  7
STANDARD
 71
2
 72
1
 10
15.7878744255
 20
9.4539217173
 30
0.0
 11
1.0
 21
0.0
 31
0.0
 44
0.9
  1
2X 70.0\P[2.76]
 40
0.15625
 41
1.2555803571
  0
LINE
  5
2CB
100
AcDbEntity
  8
0
100
AcDbLine
 62
2
  6
CONTINUOUS
 10
13.8421067114
 20
10.7537494732
 11
15.9798387112
 21
10.7537494732
  0
LINE
  5
2CC
100
AcDbEntity
  8
0
100
AcDbLine
 62
2
  6
CONTINUOUS
 10
13.8421067114
 20
7.9978439613
 11
14.1092950227
 21
7.9978439613
  0
LINE
  5
2CD
100
AcDbEntity
  8
0
100
AcDbLine
 62
2
  6
CONTINUOUS
 10
14.345546186
 20
7.9978439613
 11
15.9798387112
 21
7.9978439613
  0
LINE
  5
2CE
100
AcDbEntity
  8
0
100
AcDbLine
 62
2
  6
CONTINUOUS
 10
15.8548387112
 20
10.7537494732
 11
15.8548387112
 21
9.5320467173
  0
LINE
  5
2CF
100
AcDbEntity
  8
0
100
AcDbLine
 62
2
  6
CONTINUOUS
 10
15.8548387112
 20
7.9978439613
 11
15.8548387112
 21
8.9851717173
  0
INSERT
  5
2D0
100
AcDbEntity
  8
0
100
AcDbBlockReference
 62
2
  6
CONTINUOUS
  2
_FILLED
 10
15.8548387112
 20
10.7537494732
 41
0.1875
 42
0.1875
 43
0.1875
 50
90.0
  0
INSERT
  5
2D1
100
AcDbEntity
  8
0
100
AcDbBlockReference
 62
2
  6
CONTINUOUS
  2
_FILLED
 10
15.8548387112
 20
7.9978439613
 41
0.1875
 42
0.1875
 43
0.1875
 50
270.0
  0
ENDBLK
  5
2D2
100
AcDbEntity
  8
0
  6
BYBLOCK
 62
0
100
AcDbBlockEnd
  0
BLOCK
  5
2D3
100
AcDbEntity
  8
0
100
AcDbBlockBegin
 62
2
  6
CONTINUOUS
  2
*D10
 70
65
 10
0.0
 20
0.0
  3
*D10
  1

  0
MTEXT
  5
2D4
100
AcDbEntity
  8
0
100
AcDbMText
 62
2
  6
CONTINUOUS
  7
STANDARD
 71
2
 72
1
 10
16.7928230437
 20
9.4539217173
 30
0.0
 11
1.0
 21
0.0
 31
0.0
 44
0.9
  1
86.0\P[3.39]
 40
0.15625
 41
0.8537946429
  0
LINE
  5
2D5
100
AcDbEntity
  8
0
100
AcDbLine
 62
2
  6
CONTINUOUS
 10
11.479901987
 20
11.0687101031
 11
13.5190259513
 21
11.0687101031
  0
LINE
  5
2D6
100
AcDbEntity
  8
0
100
AcDbLine
 62
2
  6
CONTINUOUS
 10
13.6825478833
 20
11.0687101031
 11
16.9736266152
 21
11.0687101031
  0
LINE
  5
2D7
100
AcDbEntity
  8
0
100
AcDbLine
 62
2
  6
CONTINUOUS
 10
11.4531300242
 20
7.6828833314
 11
14.0435772695
 21
7.6828833314
  0
LINE
  5
2D8
100
AcDbEntity
  8
0
100
AcDbLine
 62
2
  6
CONTINUOUS
 10
14.3332463895
 20
7.6828833314
 11
16.9736266152
 21
7.6828833314
  0
LINE
  5
2D9
100
AcDbEntity
  8
0
100
AcDbLine
 62
2
  6
CONTINUOUS
 10
16.8486266152
 20
11.0687101031
 11
16.8486266152
 21
9.5320467173
  0
LINE
  5
2DA
100
AcDbEntity
  8
0
100
AcDbLine
 62
2
  6
CONTINUOUS
 10
16.8486266152
 20
7.6828833314
 11
16.8486266152
 21
8.9851717173
  0
INSERT
  5
2DB
100
AcDbEntity
  8
0
100
AcDbBlockReference
 62
2
  6
CONTINUOUS
  2
_FILLED
 10
16.8486266152
 20
11.0687101031
 41
0.1875
 42
0.1875
 43
0.1875
 50
90.0
  0
INSERT
  5
2DC
100
AcDbEntity
  8
0
100
AcDbBlockReference
 62
2
  6
CONTINUOUS
  2
_FILLED
 10
16.8486266152
 20
7.6828833314
 41
0.1875
 42
0.1875
 43
0.1875
 50
270.0
  0
ENDBLK
  5
2DD
100
AcDbEntity
  8
0
  6
BYBLOCK
 62
0
100
AcDbBlockEnd
  0
BLOCK
  5
2DE
100
AcDbEntity
  8
0
100
AcDbBlockBegin
 62
2
  6
CONTINUOUS
  2
*D11
 70
65
 10
0.0
 20
0.0
  3
*D11
  1

  0
MTEXT
  5
2DF
100
AcDbEntity
  8
0
100
AcDbMText
 62
2
  6
CONTINUOUS
  7
STANDARD
 71
2
 72
1
 10
12.1801272901
 20
13.9948405963
 30
0.0
 11
1.0
 21
0.0
 31
0.0
 44
0.9
  1
2X 70.0\P[2.76]
 40
0.15625
 41
1.2555803571
  0
LINE
  5
2E0
100
AcDbEntity
  8
0
100
AcDbLine
 62
2
  6
CONTINUOUS
 10
10.8449610421
 20
10.9949896306
 11
10.8449610421
 21
14.0417155963
  0
LINE
  5
2E1
100
AcDbEntity
  8
0
100
AcDbLine
 62
2
  6
CONTINUOUS
 10
13.6008665539
 20
10.9949896306
 11
13.6008665539
 21
14.0417155963
  0
LINE
  5
2E2
100
AcDbEntity
  8
0
100
AcDbLine
 62
2
  6
CONTINUOUS
 10
10.8449610421
 20
13.9167155963
 11
11.6834755044
 21
13.9167155963
  0
LINE
  5
2E3
100
AcDbEntity
  8
0
100
AcDbLine
 62
2
  6
CONTINUOUS
 10
13.6008665539
 20
13.9167155963
 11
12.8107076472
 21
13.9167155963
  0
INSERT
  5
2E4
100
AcDbEntity
  8
0
100
AcDbBlockReference
 62
2
  6
CONTINUOUS
  2
_FILLED
 10
10.8449610421
 20
13.9167155963
 41
0.1875
 42
0.1875
 43
0.1875
 50
180.0
  0
INSERT
  5
2E5
100
AcDbEntity
  8
0
100
AcDbBlockReference
 62
2
  6
CONTINUOUS
  2
_FILLED
 10
13.6008665539
 20
13.9167155963
 41
0.1875
 42
0.1875
 43
0.1875
  0
ENDBLK
  5
2E6
100
AcDbEntity
  8
0
  6
BYBLOCK
 62
0
100
AcDbBlockEnd
  0
BLOCK
  5
2E7
100
AcDbEntity
  8
0
100
AcDbBlockBegin
 62
2
  6
CONTINUOUS
  2
*D12
 70
65
 10
0.0
 20
0.0
  3
*D12
  1

  0
MTEXT
  5
2E8
100
AcDbEntity
  8
0
100
AcDbMText
 62
2
  6
CONTINUOUS
  7
STANDARD
 71
2
 72
1
 10
8.0864191411
 20
13.9948405963
 30
0.0
 11
1.0
 21
0.0
 31
0.0
 44
0.9
  1
2X 139.0\P[5.47]
 40
0.15625
 41
1.3727678571
  0
LINE
  5
2E9
100
AcDbEntity
  8
0
100
AcDbLine
 62
2
  6
CONTINUOUS
 10
5.3725200972
 20
11.5642809692
 11
5.3725200972
 21
14.0417155963
  0
LINE
  5
2EA
100
AcDbEntity
  8
0
100
AcDbLine
 62
2
  6
CONTINUOUS
 10
10.8449610421
 20
10.9949896306
 11
10.8449610421
 21
14.0417155963
  0
LINE
  5
2EB
100
AcDbEntity
  8
0
100
AcDbLine
 62
2
  6
CONTINUOUS
 10
5.3725200972
 20
13.9167155963
 11
7.5507048554
 21
13.9167155963
  0
LINE
  5
2EC
100
AcDbEntity
  8
0
100
AcDbLine
 62
2
  6
CONTINUOUS
 10
10.8449610421
 20
13.9167155963
 11
8.666776284
 21
13.9167155963
  0
INSERT
  5
2ED
100
AcDbEntity
  8
0
100
AcDbBlockReference
 62
2
  6
CONTINUOUS
  2
_FILLED
 10
5.3725200972
 20
13.9167155963
 41
0.1875
 42
0.1875
 43
0.1875
 50
180.0
  0
INSERT
  5
2EE
100
AcDbEntity
  8
0
100
AcDbBlockReference
 62
2
  6
CONTINUOUS
  2
_FILLED
 10
10.8449610421
 20
13.9167155963
 41
0.1875
 42
0.1875
 43
0.1875
  0
ENDBLK
  5
2EF
100
AcDbEntity
  8
0
  6
BYBLOCK
 62
0
100
AcDbBlockEnd
  0
BLOCK
  5
2F0
100
AcDbEntity
  8
0
100
AcDbBlockBegin
 62
2
  6
CONTINUOUS
  2
*D13
 70
65
 10
0.0
 20
0.0
  3
*D13
  1

  0
MTEXT
  5
2F1
100
AcDbEntity
  8
0
100
AcDbMText
 62
2
  6
CONTINUOUS
  7
STANDARD
 71
2
 72
1
 10
8.288849892
 20
4.4695392247
 30
0.0
 11
1.0
 21
0.0
 31
0.0
 44
0.9
  1
2X 149.0\P[5.87]
 40
0.15625
 41
1.3895089286
  0
LINE
  5
2F2
100
AcDbEntity
  8
0
100
AcDbLine
 62
2
  6
CONTINUOUS
 10
5.3725200972
 20
7.1873124653
 11
5.3725200972
 21
4.2664142247
  0
LINE
  5
2F3
100
AcDbEntity
  8
0
100
AcDbLine
 62
2
  6
CONTINUOUS
 10
11.2386618295
 20
7.4416431739
 11
11.2386618295
 21
5.3669512402
  0
LINE
  5
2F4
100
AcDbEntity
  8
0
100
AcDbLine
 62
2
  6
CONTINUOUS
 10
11.2386618295
 20
5.0066441345
 11
11.2386618295
 21
4.2664142247
  0
LINE
  5
2F5
100
AcDbEntity
  8
0
100
AcDbLine
 62
2
  6
CONTINUOUS
 10
5.3725200972
 20
4.3914142247
 11
7.7475552491
 21
4.3914142247
  0
LINE
  5
2F6
100
AcDbEntity
  8
0
100
AcDbLine
 62
2
  6
CONTINUOUS
 10
11.2386618295
 20
4.3914142247
 11
8.8636266777
 21
4.3914142247
  0
INSERT
  5
2F7
100
AcDbEntity
  8
0
100
AcDbBlockReference
 62
2
  6
CONTINUOUS
  2
_FILLED
 10
5.3725200972
 20
4.3914142247
 41
0.1875
 42
0.1875
 43
0.1875
 50
180.0
  0
INSERT
  5
2F8
100
AcDbEntity
  8
0
100
AcDbBlockReference
 62
2
  6
CONTINUOUS
  2
_FILLED
 10
11.2386618295
 20
4.3914142247
 41
0.1875
 42
0.1875
 43
0.1875
  0
ENDBLK
  5
2F9
100
AcDbEntity
  8
0
  6
BYBLOCK
 62
0
100
AcDbBlockEnd
  0
BLOCK
  5
2FA
100
AcDbEntity
  8
0
100
AcDbBlockBegin
 62
2
  6
CONTINUOUS
  2
*D14
 70
65
 10
0.0
 20
0.0
  3
*D14
  1

  0
MTEXT
  5
2FB
100
AcDbEntity
  8
0
100
AcDbMText
 62
2
  6
CONTINUOUS
  7
STANDARD
 71
2
 72
1
 10
12.6119870445
 20
4.4695392247
 30
0.0
 11
1.0
 21
0.0
 31
0.0
 44
0.9
  1
75.0\P[2.95]
 40
0.15625
 41
0.8705357143
  0
LINE
  5
2FC
100
AcDbEntity
  8
0
100
AcDbLine
 62
2
  6
CONTINUOUS
 10
11.2386618295
 20
4.9587576703
 11
11.2386618295
 21
4.2664142247
  0
LINE
  5
2FD
100
AcDbEntity
  8
0
100
AcDbLine
 62
2
  6
CONTINUOUS
 10
14.191417735
 20
9.1345565598
 11
14.191417735
 21
4.2664142247
  0
LINE
  5
2FE
100
AcDbEntity
  8
0
100
AcDbLine
 62
2
  6
CONTINUOUS
 10
11.2386618295
 20
4.3914142247
 11
12.3106477588
 21
4.3914142247
  0
LINE
  5
2FF
100
AcDbEntity
  8
0
100
AcDbLine
 62
2
  6
CONTINUOUS
 10
14.191417735
 20
4.3914142247
 11
13.0472549016
 21
4.3914142247
  0
INSERT
  5
300
100
AcDbEntity
  8
0
100
AcDbBlockReference
 62
2
  6
CONTINUOUS
  2
_FILLED
 10
11.2386618295
 20
4.3914142247
 41
0.1875
 42
0.1875
 43
0.1875
 50
180.0
  0
INSERT
  5
301
100
AcDbEntity
  8
0
100
AcDbBlockReference
 62
2
  6
CONTINUOUS
  2
_FILLED
 10
14.191417735
 20
4.3914142247
 41
0.1875
 42
0.1875
 43
0.1875
  0
ENDBLK
  5
302
100
AcDbEntity
  8
0
  6
BYBLOCK
 62
0
100
AcDbBlockEnd
  0
BLOCK
  5
303
100
AcDbEntity
  8
0
100
AcDbBlockBegin
 62
2
  6
CONTINUOUS
  2
*D15
 70
65
 10
0.0
 20
0.0
  3
*D15
  1

  0
MTEXT
  5
304
100
AcDbEntity
  8
0
100
AcDbMText
 62
2
  6
CONTINUOUS
  7
STANDARD
 71
1
 72
1
 10
11.5349370698
 20
12.4420698822
 30
0.0
 11
1.0
 21
0.0
 31
0.0
 44
0.9
  1
7X \Fgdt;{\Fgdt;n}\Ftxt;4.0\P[0.16]
 40
0.15625
 41
1.3839285714
  0
LINE
  5
305
100
AcDbEntity
  8
0
100
AcDbLine
 62
2
  6
CONTINUOUS
 10
10.8657154678
 20
10.829705159
 11
11.2849370698
 21
12.3639448822
  0
LINE
  5
306
100
AcDbEntity
  8
0
100
AcDbLine
 62
2
  6
CONTINUOUS
 10
11.2849370698
 20
12.3639448822
 11
11.4568120698
 21
12.3639448822
  0
INSERT
  5
307
100
AcDbEntity
  8
0
100
AcDbBlockReference
 62
2
  6
CONTINUOUS
  2
_FILLED
 10
10.8657154678
 20
10.829705159
 41
0.1875
 42
0.1875
 43
0.1875
 50
254.7173351308
  0
ENDBLK
  5
308
100
AcDbEntity
  8
0
  6
BYBLOCK
 62
0
100
AcDbBlockEnd
  0
BLOCK
  5
309
100
AcDbEntity
  8
0
100
AcDbBlockBegin
 62
2
  6
CONTINUOUS
  2
*D16
 70
65
 10
0.0
 20
0.0
  3
*D16
  1

  0
MTEXT
  5
30A
100
AcDbEntity
  8
0
100
AcDbMText
 62
2
  6
CONTINUOUS
  7
TEXTSTYLE_1
 71
1
 72
1
 10
14.5197684814
 20
10.6721632874
 30
0.0
 11
1.0
 21
0.0
 31
0.0
 44
0.9
  1
{\Fgdt;n}\Ftxt;7.5\P[0.30]
 40
0.15625
 41
0.8705357143
  0
LINE
  5
30B
100
AcDbEntity
  8
0
100
AcDbLine
 62
2
  6
CONTINUOUS
 10
12.3497812914
 20
9.4513053772
 11
14.2697684814
 21
10.5940382874
  0
LINE
  5
30C
100
AcDbEntity
  8
0
100
AcDbLine
 62
2
  6
CONTINUOUS
 10
14.2697684814
 20
10.5940382874
 11
14.4416434814
 21
10.5940382874
  0
INSERT
  5
30D
100
AcDbEntity
  8
0
100
AcDbBlockReference
 62
2
  6
CONTINUOUS
  2
_FILLED
 10
12.3497812914
 20
9.4513053772
 41
0.1875
 42
0.1875
 43
0.1875
 50
210.7601500519
  0
ENDBLK
  5
30E
100
AcDbEntity
  8
0
  6
BYBLOCK
 62
0
100
AcDbBlockEnd
  0
BLOCK
  5
30F
100
AcDbEntity
  8
0
100
AcDbBlockBegin
 62
2
  6
CONTINUOUS
  2
*D17
 70
65
 10
0.0
 20
0.0
  3
*D17
  1

  0
MTEXT
  5
310
100
AcDbEntity
  8
0
100
AcDbMText
 62
2
  6
CONTINUOUS
  7
STANDARD
 71
2
 72
1
 10
4.0546281008
 20
9.4539217173
 30
0.0
 11
1.0
 21
0.0
 31
0.0
 44
0.9
  1
60.0\P[2.36]
 40
0.15625
 41
0.8705357143
  0
LINE
  5
311
100
AcDbEntity
  8
0
100
AcDbLine
 62
2
  6
CONTINUOUS
 10
6.4911224595
 20
8.194694355
 11
6.0092913465
 21
8.194694355
  0
LINE
  5
312
100
AcDbEntity
  8
0
100
AcDbLine
 62
2
  6
CONTINUOUS
 10
5.7525999417
 20
8.194694355
 11
3.9910120293
 21
8.194694355
  0
LINE
  5
313
100
AcDbEntity
  8
0
100
AcDbLine
 62
2
  6
CONTINUOUS
 10
6.4911224595
 20
10.5568990795
 11
3.9910120293
 21
10.5568990795
  0
LINE
  5
314
100
AcDbEntity
  8
0
100
AcDbLine
 62
2
  6
CONTINUOUS
 10
4.1160120293
 20
8.194694355
 11
4.1160120293
 21
8.9851717173
  0
LINE
  5
315
100
AcDbEntity
  8
0
100
AcDbLine
 62
2
  6
CONTINUOUS
 10
4.1160120293
 20
10.5568990795
 11
4.1160120293
 21
9.5320467173
  0
INSERT
  5
316
100
AcDbEntity
  8
0
100
AcDbBlockReference
 62
2
  6
CONTINUOUS
  2
_FILLED
 10
4.1160120293
 20
8.194694355
 41
0.1875
 42
0.1875
 43
0.1875
 50
270.0
  0
INSERT
  5
317
100
AcDbEntity
  8
0
100
AcDbBlockReference
 62
2
  6
CONTINUOUS
  2
_FILLED
 10
4.1160120293
 20
10.5568990795
 41
0.1875
 42
0.1875
 43
0.1875
 50
90.0
  0
ENDBLK
  5
318
100
AcDbEntity
  8
0
  6
BYBLOCK
 62
0
100
AcDbBlockEnd
  0
BLOCK
  5
319
100
AcDbEntity
  8
0
100
AcDbBlockBegin
 62
2
  6
CONTINUOUS
  2
*D18
 70
65
 10
0.0
 20
0.0
  3
*D18
  1

  0
MTEXT
  5
31A
100
AcDbEntity
  8
0
100
AcDbMText
 62
2
  6
CONTINUOUS
  7
STANDARD
 71
2
 72
1
 10
6.497818888
 20
6.2381426444
 30
0.0
 11
1.0
 21
0.0
 31
0.0
 44
0.9
  1
35.0\P[1.38]
 40
0.15625
 41
0.8203125
  0
LINE
  5
31B
100
AcDbEntity
  8
0
100
AcDbLine
 62
2
  6
CONTINUOUS
 10
5.8646460815
 20
9.3132967173
 11
5.8646460815
 21
6.0350176444
  0
LINE
  5
31C
100
AcDbEntity
  8
0
100
AcDbLine
 62
2
  6
CONTINUOUS
 10
7.2425988374
 20
9.3132967173
 11
7.2425988374
 21
6.0350176444
  0
LINE
  5
31D
100
AcDbEntity
  8
0
100
AcDbLine
 62
2
  6
CONTINUOUS
 10
5.8646460815
 20
6.1600176444
 11
6.2020599595
 21
6.1600176444
  0
LINE
  5
31E
100
AcDbEntity
  8
0
100
AcDbLine
 62
2
  6
CONTINUOUS
 10
7.2425988374
 20
6.1600176444
 11
6.9051849595
 21
6.1600176444
  0
INSERT
  5
31F
100
AcDbEntity
  8
0
100
AcDbBlockReference
 62
2
  6
CONTINUOUS
  2
_FILLED
 10
5.8646460815
 20
6.1600176444
 41
0.1875
 42
0.1875
 43
0.1875
 50
180.0
  0
INSERT
  5
320
100
AcDbEntity
  8
0
100
AcDbBlockReference
 62
2
  6
CONTINUOUS
  2
_FILLED
 10
7.2425988374
 20
6.1600176444
 41
0.1875
 42
0.1875
 43
0.1875
  0
ENDBLK
  5
321
100
AcDbEntity
  8
0
  6
BYBLOCK
 62
0
100
AcDbBlockEnd
  0
BLOCK
  5
322
100
AcDbEntity
  8
0
100
AcDbBlockBegin
 62
2
  6
CONTINUOUS
  2
*D19
 70
65
 10
0.0
 20
0.0
  3
*D19
  1

  0
MTEXT
  5
323
100
AcDbEntity
  8
0
100
AcDbMText
 62
2
  6
CONTINUOUS
  7
STANDARD
 71
1
 72
1
 10
7.0283863867
 20
12.33473372
 30
0.0
 11
1.0
 21
0.0
 31
0.0
 44
0.9
  1
30.0\P[1.18]
 40
0.15625
 41
0.7868303571
  0
LINE
  5
324
100
AcDbEntity
  8
0
100
AcDbLine
 62
2
  6
CONTINUOUS
 10
5.3725200972
 20
11.5642809692
 11
5.3725200972
 21
12.38160872
  0
LINE
  5
325
100
AcDbEntity
  8
0
100
AcDbLine
 62
2
  6
CONTINUOUS
 10
6.5536224595
 20
10.6379676128
 11
6.5536224595
 21
12.38160872
  0
LINE
  5
326
100
AcDbEntity
  8
0
100
AcDbLine
 62
2
  6
CONTINUOUS
 10
5.3725200972
 20
12.25660872
 11
5.9630712784
 21
12.25660872
  0
LINE
  5
327
100
AcDbEntity
  8
0
100
AcDbLine
 62
2
  6
CONTINUOUS
 10
6.5536224595
 20
12.25660872
 11
5.9630712784
 21
12.25660872
  0
LINE
  5
328
100
AcDbEntity
  8
0
100
AcDbLine
 62
2
  6
CONTINUOUS
 10
5.9630712784
 20
12.25660872
 11
6.9502613867
 21
12.25660872
  0
INSERT
  5
329
100
AcDbEntity
  8
0
100
AcDbBlockReference
 62
2
  6
CONTINUOUS
  2
_FILLED
 10
5.3725200972
 20
12.25660872
 41
0.1875
 42
0.1875
 43
0.1875
 50
180.0
  0
INSERT
  5
32A
100
AcDbEntity
  8
0
100
AcDbBlockReference
 62
2
  6
CONTINUOUS
  2
_FILLED
 10
6.5536224595
 20
12.25660872
 41
0.1875
 42
0.1875
 43
0.1875
  0
ENDBLK
  5
32B
100
AcDbEntity
  8
0
  6
BYBLOCK
 62
0
100
AcDbBlockEnd
  0
BLOCK
  5
32C
100
AcDbEntity
  8
0
100
AcDbBlockBegin
 62
2
  6
CONTINUOUS
  2
*D20
 70
65
 10
0.0
 20
0.0
  3
*D20
  1

  0
MTEXT
  5
32D
100
AcDbEntity
  8
0
100
AcDbMText
 62
2
  6
CONTINUOUS
  7
STANDARD
 71
2
 72
1
 10
9.5463931266
 20
6.2417254739
 30
0.0
 11
1.0
 21
0.0
 31
0.0
 44
0.9
  1
2X 18.0\P[0.71]
 40
0.15625
 41
1.2053571429
  0
LINE
  5
32E
100
AcDbEntity
  8
0
100
AcDbLine
 62
2
  6
CONTINUOUS
 10
9.3191369391
 20
7.5581169689
 11
10.0772053536
 21
6.2964792604
  0
LINE
  5
32F
100
AcDbEntity
  8
0
100
AcDbLine
 62
2
  6
CONTINUOUS
 10
9.9265783333
 20
7.9231045811
 11
10.6846467478
 21
6.6614668725
  0
LINE
  5
330
100
AcDbEntity
  8
0
100
AcDbLine
 62
2
  6
CONTINUOUS
 10
10.0128255943
 20
6.403625173
 11
10.3165462914
 21
6.5861189791
  0
LINE
  5
331
100
AcDbEntity
  8
0
100
AcDbLine
 62
2
  6
CONTINUOUS
 10
10.3165462914
 20
6.5861189791
 11
9.8734010815
 21
6.3198504739
  0
LINE
  5
332
100
AcDbEntity
  8
0
100
AcDbLine
 62
2
  6
CONTINUOUS
 10
10.6202669885
 20
6.7686127851
 11
10.3165462914
 21
6.5861189791
  0
INSERT
  5
333
100
AcDbEntity
  8
0
100
AcDbBlockReference
 62
2
  6
CONTINUOUS
  2
_FILLED
 10
10.0128255943
 20
6.403625173
 41
0.1875
 42
0.1875
 43
0.1875
 50
211.0
  0
INSERT
  5
334
100
AcDbEntity
  8
0
100
AcDbBlockReference
 62
2
  6
CONTINUOUS
  2
_FILLED
 10
10.6202669885
 20
6.7686127851
 41
0.1875
 42
0.1875
 43
0.1875
 50
31.0
  0
ENDBLK
  5
335
100
AcDbEntity
  8
0
  6
BYBLOCK
 62
0
100
AcDbBlockEnd
  0
BLOCK
  5
336
100
AcDbEntity
  8
0
100
AcDbBlockBegin
 62
2
  6
CONTINUOUS
  2
*D21
 70
65
 10
0.0
 20
0.0
  3
*D21
  1

  0
MTEXT
  5
337
100
AcDbEntity
  8
0
100
AcDbMText
 62
2
  6
CONTINUOUS
  7
STANDARD
 71
2
 72
1
 10
7.4253934536
 20
13.1883899199
 30
0.0
 11
1.0
 21
0.0
 31
0.0
 44
0.9
  1
2X 104.6\P[4.12]
 40
0.15625
 41
1.3895089286
  0
LINE
  5
338
100
AcDbEntity
  8
0
100
AcDbLine
 62
2
  6
CONTINUOUS
 10
9.4894275241
 20
11.1807449089
 11
9.4894275241
 21
13.2352649199
  0
LINE
  5
339
100
AcDbEntity
  8
0
100
AcDbLine
 62
2
  6
CONTINUOUS
 10
5.3725200972
 20
11.5642809692
 11
5.3725200972
 21
13.2352649199
  0
LINE
  5
33A
100
AcDbEntity
  8
0
100
AcDbLine
 62
2
  6
CONTINUOUS
 10
9.4894275241
 20
13.1102649199
 11
7.9778488107
 21
13.1102649199
  0
LINE
  5
33B
100
AcDbEntity
  8
0
100
AcDbLine
 62
2
  6
CONTINUOUS
 10
5.3725200972
 20
13.1102649199
 11
6.8840988107
 21
13.1102649199
  0
INSERT
  5
33C
100
AcDbEntity
  8
0
100
AcDbBlockReference
 62
2
  6
CONTINUOUS
  2
_FILLED
 10
9.4894275241
 20
13.1102649199
 41
0.1875
 42
0.1875
 43
0.1875
  0
INSERT
  5
33D
100
AcDbEntity
  8
0
100
AcDbBlockReference
 62
2
  6
CONTINUOUS
  2
_FILLED
 10
5.3725200972
 20
13.1102649199
 41
0.1875
 42
0.1875
 43
0.1875
 50
180.0
  0
ENDBLK
  5
33E
100
AcDbEntity
  8
0
  6
BYBLOCK
 62
0
100
AcDbBlockEnd
  0
BLOCK
  5
33F
100
AcDbEntity
  8
0
100
AcDbBlockBegin
 62
2
  6
CONTINUOUS
  2
*D22
 70
65
 10
0.0
 20
0.0
  3
*D22
  1

  0
MTEXT
  5
340
100
AcDbEntity
  8
0
100
AcDbMText
 62
2
  6
CONTINUOUS
  7
STANDARD
 71
2
 72
1
 10
8.2346768429
 20
6.3366743926
 30
0.0
 11
1.0
 21
0.0
 31
0.0
 44
0.9
  1
2X 12.0\P[0.47]
 40
0.15625
 41
1.2053571429
  0
LINE
  5
341
100
AcDbEntity
  8
0
100
AcDbLine
 62
2
  6
CONTINUOUS
 10
9.3141920305
 20
7.9036430477
 11
7.7491232626
 21
6.963254859
  0
LINE
  5
342
100
AcDbEntity
  8
0
100
AcDbLine
 62
2
  6
CONTINUOUS
 10
9.5575171052
 20
7.4986821182
 11
9.4588002897
 21
7.4393670713
  0
LINE
  5
343
100
AcDbEntity
  8
0
100
AcDbLine
 62
2
  6
CONTINUOUS
 10
9.3440570053
 20
7.3704223504
 11
7.9924483373
 21
6.5582939295
  0
LINE
  5
344
100
AcDbEntity
  8
0
100
AcDbLine
 62
2
  6
CONTINUOUS
 10
7.8562691752
 20
7.0276346183
 11
7.9779317126
 21
6.8251541536
  0
LINE
  5
345
100
AcDbEntity
  8
0
100
AcDbLine
 62
2
  6
CONTINUOUS
 10
8.0995942499
 20
6.6226736889
 11
7.9779317126
 21
6.8251541536
  0
LINE
  5
346
100
AcDbEntity
  8
0
100
AcDbLine
 62
2
  6
CONTINUOUS
 10
7.9779317126
 20
6.8251541536
 11
8.2244977283
 21
6.4147993926
  0
INSERT
  5
347
100
AcDbEntity
  8
0
100
AcDbBlockReference
 62
2
  6
CONTINUOUS
  2
_FILLED
 10
7.8562691752
 20
7.0276346183
 41
0.1875
 42
0.1875
 43
0.1875
 50
121.0
  0
INSERT
  5
348
100
AcDbEntity
  8
0
100
AcDbBlockReference
 62
2
  6
CONTINUOUS
  2
_FILLED
 10
8.0995942499
 20
6.6226736889
 41
0.1875
 42
0.1875
 43
0.1875
 50
301.0
  0
ENDBLK
  5
349
100
AcDbEntity
  8
0
  6
BYBLOCK
 62
0
100
AcDbBlockEnd
  0
BLOCK
  5
34A
100
AcDbEntity
  8
0
100
AcDbBlockBegin
 62
2
  6
CONTINUOUS
  2
*D23
 70
65
 10
0.0
 20
0.0
  3
*D23
  1

  0
MTEXT
  5
34B
100
AcDbEntity
  8
0
100
AcDbMText
 62
2
  6
CONTINUOUS
  7
STANDARD
 71
2
 72
1
 10
2.9447468175
 20
9.4539217173
 30
0.0
 11
1.0
 21
0.0
 31
0.0
 44
0.9
  1
83.4\P[3.28]
 40
0.15625
 41
0.8705357143
  0
LINE
  5
34C
100
AcDbEntity
  8
0
100
AcDbLine
 62
2
  6
CONTINUOUS
 10
9.3269235871
 20
11.0182409719
 11
6.772885
 21
11.0182409719
  0
LINE
  5
34D
100
AcDbEntity
  8
0
100
AcDbLine
 62
2
  6
CONTINUOUS
 10
6.3590621951
 20
11.0182409719
 11
2.8867111032
 21
11.0182409719
  0
LINE
  5
34E
100
AcDbEntity
  8
0
100
AcDbLine
 62
2
  6
CONTINUOUS
 10
9.3269235871
 20
7.7333524626
 11
9.1510826144
 21
7.7333524626
  0
LINE
  5
34F
100
AcDbEntity
  8
0
100
AcDbLine
 62
2
  6
CONTINUOUS
 10
8.8814620356
 20
7.7333524626
 11
7.4481511307
 21
7.7333524626
  0
LINE
  5
350
100
AcDbEntity
  8
0
100
AcDbLine
 62
2
  6
CONTINUOUS
 10
7.1007781263
 20
7.7333524626
 11
6.051268198
 21
7.7333524626
  0
LINE
  5
351
100
AcDbEntity
  8
0
100
AcDbLine
 62
2
  6
CONTINUOUS
 10
5.7556315985
 20
7.7333524626
 11
2.8867111032
 21
7.7333524626
  0
LINE
  5
352
100
AcDbEntity
  8
0
100
AcDbLine
 62
2
  6
CONTINUOUS
 10
3.0117111032
 20
11.0182409719
 11
3.0117111032
 21
9.5320467173
  0
LINE
  5
353
100
AcDbEntity
  8
0
100
AcDbLine
 62
2
  6
CONTINUOUS
 10
3.0117111032
 20
7.7333524626
 11
3.0117111032
 21
8.9851717173
  0
INSERT
  5
354
100
AcDbEntity
  8
0
100
AcDbBlockReference
 62
2
  6
CONTINUOUS
  2
_FILLED
 10
3.0117111032
 20
11.0182409719
 41
0.1875
 42
0.1875
 43
0.1875
 50
90.0
  0
INSERT
  5
355
100
AcDbEntity
  8
0
100
AcDbBlockReference
 62
2
  6
CONTINUOUS
  2
_FILLED
 10
3.0117111032
 20
7.7333524626
 41
0.1875
 42
0.1875
 43
0.1875
 50
270.0
  0
ENDBLK
  5
356
100
AcDbEntity
  8
0
  6
BYBLOCK
 62
0
100
AcDbBlockEnd
  0
BLOCK
  5
357
100
AcDbEntity
  8
0
100
AcDbBlockBegin
 62
2
  6
CONTINUOUS
  2
*D24
 70
65
 10
0.0
 20
0.0
  3
*D24
  1

  0
MTEXT
  5
358
100
AcDbEntity
  8
0
100
AcDbMText
 62
2
  6
CONTINUOUS
  7
STANDARD
 71
2
 72
1
 10
9.7126773161
 20
5.2648234441
 30
0.0
 11
1.0
 21
0.0
 31
0.0
 44
0.9
  1
174.00\P[6.850]
 40
0.15625
 41
1.0546875
  0
LINE
  5
359
100
AcDbEntity
  8
0
100
AcDbLine
 62
2
  6
CONTINUOUS
 10
5.3725200972
 20
7.6597534102
 11
5.3725200972
 21
5.0616984441
  0
LINE
  5
35A
100
AcDbEntity
  8
0
100
AcDbLine
 62
2
  6
CONTINUOUS
 10
12.222913798
 20
9.3132967173
 11
12.222913798
 21
5.0616984441
  0
LINE
  5
35B
100
AcDbEntity
  8
0
100
AcDbLine
 62
2
  6
CONTINUOUS
 10
5.3725200972
 20
5.1866984441
 11
9.2997308875
 21
5.1866984441
  0
LINE
  5
35C
100
AcDbEntity
  8
0
100
AcDbLine
 62
2
  6
CONTINUOUS
 10
12.222913798
 20
5.1866984441
 11
10.1591058875
 21
5.1866984441
  0
INSERT
  5
35D
100
AcDbEntity
  8
0
100
AcDbBlockReference
 62
2
  6
CONTINUOUS
  2
_FILLED
 10
5.3725200972
 20
5.1866984441
 41
0.1875
 42
0.1875
 43
0.1875
 50
180.0
  0
INSERT
  5
35E
100
AcDbEntity
  8
0
100
AcDbBlockReference
 62
2
  6
CONTINUOUS
  2
_FILLED
 10
12.222913798
 20
5.1866984441
 41
0.1875
 42
0.1875
 43
0.1875
  0
ENDBLK
  5
35F
100
AcDbEntity
  8
0
  6
BYBLOCK
 62
0
100
AcDbBlockEnd
  0
BLOCK
  5
360
100
AcDbEntity
  8
0
100
AcDbBlockBegin
 62
2
  6
CONTINUOUS
  2
*D25
 70
65
 10
0.0
 20
0.0
  3
*D25
  1

  0
MTEXT
  5
361
100
AcDbEntity
  8
0
100
AcDbMText
 62
2
  6
CONTINUOUS
  7
STANDARD
 71
1
 72
1
 10
13.1648169572
 20
5.267392082
 30
0.0
 11
1.0
 21
0.0
 31
0.0
 44
0.9
  1
15.0\P[0.59]
 40
0.15625
 41
0.8705357143
  0
LINE
  5
362
100
AcDbEntity
  8
0
100
AcDbLine
 62
2
  6
CONTINUOUS
 10
12.222913798
 20
9.065658922
 11
12.222913798
 21
5.064267082
  0
LINE
  5
363
100
AcDbEntity
  8
0
100
AcDbLine
 62
2
  6
CONTINUOUS
 10
12.8134649791
 20
9.1739266385
 11
12.8134649791
 21
5.064267082
  0
LINE
  5
364
100
AcDbEntity
  8
0
100
AcDbLine
 62
2
  6
CONTINUOUS
 10
12.222913798
 20
5.189267082
 11
12.5181893886
 21
5.189267082
  0
LINE
  5
365
100
AcDbEntity
  8
0
100
AcDbLine
 62
2
  6
CONTINUOUS
 10
12.8134649791
 20
5.189267082
 11
12.5181893886
 21
5.189267082
  0
LINE
  5
366
100
AcDbEntity
  8
0
100
AcDbLine
 62
2
  6
CONTINUOUS
 10
12.5181893886
 20
5.189267082
 11
13.0866919572
 21
5.189267082
  0
INSERT
  5
367
100
AcDbEntity
  8
0
100
AcDbBlockReference
 62
2
  6
CONTINUOUS
  2
_FILLED
 10
12.222913798
 20
5.189267082
 41
0.1875
 42
0.1875
 43
0.1875
 50
180.0
  0
INSERT
  5
368
100
AcDbEntity
  8
0
100
AcDbBlockReference
 62
2
  6
CONTINUOUS
  2
_FILLED
 10
12.8134649791
 20
5.189267082
 41
0.1875
 42
0.1875
 43
0.1875
  0
ENDBLK
  5
369
100
AcDbEntity
  8
0
  6
BYBLOCK
 62
0
100
AcDbBlockEnd
  0
ENDSEC
  0
SECTION
  2
ENTITIES
  0
MTEXT
  5
36A
100
AcDbEntity
  8
0
100
AcDbMText
 62
2
  6
CONTINUOUS
  7
STANDARD
 71
1
 72
1
 10
2.4629077447
 20
0.3649166836
 30
0.0
 11
1.0
 21
0.0
 31
0.0
 44
0.9
  1
8
 40
0.15625
 41
0.1841517857
  0
MTEXT
  5
36B
100
AcDbEntity
  8
0
100
AcDbMText
 62
2
  6
CONTINUOUS
  7
STANDARD
 71
1
 72
1
 10
6.5254077447
 20
0.3649166836
 30
0.0
 11
1.0
 21
0.0
 31
0.0
 44
0.9
  1
7
 40
0.15625
 41
0.1841517857
  0
MTEXT
  5
36C
100
AcDbEntity
  8
0
100
AcDbMText
 62
2
  6
CONTINUOUS
  7
STANDARD
 71
1
 72
1
 10
10.5879077447
 20
0.3649166836
 30
0.0
 11
1.0
 21
0.0
 31
0.0
 44
0.9
  1
6
 40
0.15625
 41
0.1841517857
  0
MTEXT
  5
36D
100
AcDbEntity
  8
0
100
AcDbMText
 62
2
  6
CONTINUOUS
  7
STANDARD
 71
1
 72
1
 10
14.6504077447
 20
0.3649166836
 30
0.0
 11
1.0
 21
0.0
 31
0.0
 44
0.9
  1
5
 40
0.15625
 41
0.1674107143
  0
MTEXT
  5
36E
100
AcDbEntity
  8
0
100
AcDbMText
 62
2
  6
CONTINUOUS
  7
STANDARD
 71
1
 72
1
 10
18.7129077447
 20
0.3649166836
 30
0.0
 11
1.0
 21
0.0
 31
0.0
 44
0.9
  1
4
 40
0.15625
 41
0.1841517857
  0
MTEXT
  5
36F
100
AcDbEntity
  8
0
100
AcDbMText
 62
2
  6
CONTINUOUS
  7
STANDARD
 71
1
 72
1
 10
22.7754077447
 20
0.3649166836
 30
0.0
 11
1.0
 21
0.0
 31
0.0
 44
0.9
  1
3
 40
0.15625
 41
0.1674107143
  0
MTEXT
  5
370
100
AcDbEntity
  8
0
100
AcDbMText
 62
2
  6
CONTINUOUS
  7
STANDARD
 71
1
 72
1
 10
26.8379077447
 20
0.3649166836
 30
0.0
 11
1.0
 21
0.0
 31
0.0
 44
0.9
  1
2
 40
0.15625
 41
0.1841517857
  0
MTEXT
  5
371
100
AcDbEntity
  8
0
100
AcDbMText
 62
2
  6
CONTINUOUS
  7
STANDARD
 71
1
 72
1
 10
30.9004077447
 20
0.3649166836
 30
0.0
 11
1.0
 21
0.0
 31
0.0
 44
0.9
  1
1
 40
0.15625
 41
0.1339285714
  0
MTEXT
  5
372
100
AcDbEntity
  8
0
100
AcDbMText
 62
2
  6
CONTINUOUS
  7
STANDARD
 71
1
 72
1
 10
2.4629077447
 20
21.8649166836
 30
0.0
 11
1.0
 21
0.0
 31
0.0
 44
0.9
  1
8
 40
0.15625
 41
0.2287946429
  0
MTEXT
  5
373
100
AcDbEntity
  8
0
100
AcDbMText
 62
2
  6
CONTINUOUS
  7
STANDARD
 71
1
 72
1
 10
6.5254077447
 20
21.8649166836
 30
0.0
 11
1.0
 21
0.0
 31
0.0
 44
0.9
  1
7
 40
0.15625
 41
0.1841517857
  0
MTEXT
  5
374
100
AcDbEntity
  8
0
100
AcDbMText
 62
2
  6
CONTINUOUS
  7
STANDARD
 71
1
 72
1
 10
10.5879077447
 20
21.8649166836
 30
0.0
 11
1.0
 21
0.0
 31
0.0
 44
0.9
  1
6
 40
0.15625
 41
0.1841517857
  0
MTEXT
  5
375
100
AcDbEntity
  8
0
100
AcDbMText
 62
2
  6
CONTINUOUS
  7
STANDARD
 71
1
 72
1
 10
14.6504077447
 20
21.8649166836
 30
0.0
 11
1.0
 21
0.0
 31
0.0
 44
0.9
  1
5
 40
0.15625
 41
0.1674107143
  0
MTEXT
  5
376
100
AcDbEntity
  8
0
100
AcDbMText
 62
2
  6
CONTINUOUS
  7
STANDARD
 71
1
 72
1
 10
18.7129077447
 20
21.8649166836
 30
0.0
 11
1.0
 21
0.0
 31
0.0
 44
0.9
  1
4
 40
0.15625
 41
0.1841517857
  0
MTEXT
  5
377
100
AcDbEntity
  8
0
100
AcDbMText
 62
2
  6
CONTINUOUS
  7
STANDARD
 71
1
 72
1
 10
22.7754077447
 20
21.8649166836
 30
0.0
 11
1.0
 21
0.0
 31
0.0
 44
0.9
  1
3
 40
0.15625
 41
0.1674107143
  0
MTEXT
  5
378
100
AcDbEntity
  8
0
100
AcDbMText
 62
2
  6
CONTINUOUS
  7
STANDARD
 71
1
 72
1
 10
26.8379077447
 20
21.8649166836
 30
0.0
 11
1.0
 21
0.0
 31
0.0
 44
0.9
  1
2
 40
0.15625
 41
0.1841517857
  0
MTEXT
  5
379
100
AcDbEntity
  8
0
100
AcDbMText
 62
2
  6
CONTINUOUS
  7
STANDARD
 71
1
 72
1
 10
30.9004077447
 20
21.8649166836
 30
0.0
 11
1.0
 21
0.0
 31
0.0
 44
0.9
  1
1
 40
0.15625
 41
0.1339285714
  0
MTEXT
  5
37A
100
AcDbEntity
  8
0
100
AcDbMText
 62
2
  6
CONTINUOUS
  7
STANDARD
 71
1
 72
1
 10
0.1982193093
 20
3.2194899492
 30
0.0
 11
1.0
 21
0.0
 31
0.0
 44
0.9
  1
A
 40
0.15625
 41
0.2008928571
  0
MTEXT
  5
37B
100
AcDbEntity
  8
0
100
AcDbMText
 62
2
  6
CONTINUOUS
  7
STANDARD
 71
1
 72
1
 10
0.1982193093
 20
8.4694899492
 30
0.0
 11
1.0
 21
0.0
 31
0.0
 44
0.9
  1
B
 40
0.15625
 41
0.1841517857
  0
MTEXT
  5
37C
100
AcDbEntity
  8
0
100
AcDbMText
 62
2
  6
CONTINUOUS
  7
STANDARD
 71
1
 72
1
 10
0.1982193093
 20
13.7194899492
 30
0.0
 11
1.0
 21
0.0
 31
0.0
 44
0.9
  1
C
 40
0.15625
 41
0.1953125
  0
MTEXT
  5
37D
100
AcDbEntity
  8
0
100
AcDbMText
 62
2
  6
CONTINUOUS
  7
STANDARD
 71
1
 72
1
 10
0.1982193093
 20
18.9694899492
 30
0.0
 11
1.0
 21
0.0
 31
0.0
 44
0.9
  1
D
 40
0.15625
 41
0.2120535714
  0
MTEXT
  5
37E
100
AcDbEntity
  8
0
100
AcDbMText
 62
2
  6
CONTINUOUS
  7
STANDARD
 71
1
 72
1
 10
33.1982193093
 20
3.2194899492
 30
0.0
 11
1.0
 21
0.0
 31
0.0
 44
0.9
  1
A
 40
0.15625
 41
0.2008928571
  0
MTEXT
  5
37F
100
AcDbEntity
  8
0
100
AcDbMText
 62
2
  6
CONTINUOUS
  7
STANDARD
 71
1
 72
1
 10
33.1982193093
 20
8.4694899492
 30
0.0
 11
1.0
 21
0.0
 31
0.0
 44
0.9
  1
B
 40
0.15625
 41
0.1841517857
  0
MTEXT
  5
380
100
AcDbEntity
  8
0
100
AcDbMText
 62
2
  6
CONTINUOUS
  7
STANDARD
 71
1
 72
1
 10
33.1982193093
 20
13.7194899492
 30
0.0
 11
1.0
 21
0.0
 31
0.0
 44
0.9
  1
C
 40
0.15625
 41
0.1953125
  0
MTEXT
  5
381
100
AcDbEntity
  8
0
100
AcDbMText
 62
2
  6
CONTINUOUS
  7
STANDARD
 71
1
 72
1
 10
33.1982193093
 20
18.9694899492
 30
0.0
 11
1.0
 21
0.0
 31
0.0
 44
0.9
  1
D
 40
0.15625
 41
0.2120535714
  0
MTEXT
  5
382
100
AcDbEntity
  8
0
100
AcDbMText
 62
5
  6
CONTINUOUS
  7
STANDARD
 71
1
 72
1
 10
0.5662896106
 20
21.4561821154
 30
0.0
 11
1.0
 21
0.0
 31
0.0
 44
0.9
  1
THIS DOCUMENT CONTAINS PROPRIETARY INFORMATION\PWHICH IS THE PROPERTY OF QSC, LLC, THAT MAY NOT BE\PDISCLOSED, REPRODUCED OR USED WITHOUT EXPRESS\PWRITTEN CONSENT FROM QSC, LLC.
 40
0.075
 41
4.44375
  0
MTEXT
  5
383
100
AcDbEntity
  8
0
100
AcDbMText
 62
2
  6
CONTINUOUS
  7
STANDARD
 71
2
 72
1
 10
24.2493141054
 20
2.9782574653
 30
0.0
 11
1.0
 21
0.0
 31
0.0
 44
0.9
  1
UNLESS OTHERWISE SPECIFIED\PDIMENSIONS IN MILLIMETERS [IN]
 40
0.1
 41
3.2857142857
  0
MTEXT
  5
384
100
AcDbEntity
  8
0
100
AcDbMText
 62
2
  6
CONTINUOUS
  7
STANDARD
 71
2
 72
1
 10
24.2349472792
 20
2.5919854986
 30
0.0
 11
1.0
 21
0.0
 31
0.0
 44
0.9
  1
TOLERANCES ARE:
 40
0.09
 41
1.5460714286
  0
MTEXT
  5
385
100
AcDbEntity
  8
0
100
AcDbMText
 62
2
  6
CONTINUOUS
  7
STANDARD
 71
2
 72
1
 10
23.4992766409
 20
2.3637055727
 30
0.0
 11
1.0
 21
0.0
 31
0.0
 44
0.9
  1
DECIMALS\P.X\Fgdt;{\Fgdt;`}\Ftxt;.5[.02]
 40
0.09
 41
0.9289285714
  0
MTEXT
  5
386
100
AcDbEntity
  8
0
100
AcDbMText
 62
2
  6
CONTINUOUS
  7
STANDARD
 71
2
 72
1
 10
24.375
 20
2.3575
 30
0.0
 11
1.0
 21
0.0
 31
0.0
 44
0.9
  1
DECIMALS\P.XX\Fgdt;{\Fgdt;`}\Ftxt;.25[.010]
 40
0.09
 41
1.2278571429
  0
MTEXT
  5
387
100
AcDbEntity
  8
0
100
AcDbMText
 62
2
  6
CONTINUOUS
  7
STANDARD
 71
2
 72
1
 10
25.1292969944
 20
2.3625006946
 30
0.0
 11
1.0
 21
0.0
 31
0.0
 44
0.9
  1
ANGLES\P\Fgdt;{\Fgdt;`}\Ftxt; 1/2
 40
0.09
 41
0.6428571429
  0
MTEXT
  5
388
100
AcDbEntity
  8
0
100
AcDbMText
 62
2
  6
CONTINUOUS
  7
STANDARD
 71
2
 72
1
 10
24.25
 20
1.9825
 30
0.0
 11
1.0
 21
0.0
 31
0.0
 44
0.9
  1
DEBURR EDGES .25 [.010] R MAX
 40
0.09
 41
2.9410714286
  0
MTEXT
  5
389
100
AcDbEntity
  8
0
100
AcDbMText
 62
2
  6
CONTINUOUS
  7
STANDARD
 71
2
 72
1
 10
23.4589244808
 20
1.6862199176
 30
0.0
 11
1.0
 21
0.0
 31
0.0
 44
0.9
  1
MATERIAL
 40
0.09
 41
0.8646428571
  0
MTEXT
  5
38A
100
AcDbEntity
  8
0
100
AcDbMText
 62
2
  6
CONTINUOUS
  7
STANDARD
 71
2
 72
1
 10
23.363139716
 20
1.0771466269
 30
0.0
 11
1.0
 21
0.0
 31
0.0
 44
0.9
  1
FINISH
 40
0.09
 41
0.6139285714
  0
MTEXT
  5
38B
100
AcDbEntity
  8
0
100
AcDbMText
 62
2
  6
CONTINUOUS
  7
STANDARD
 71
2
 72
1
 10
30.2697923148
 20
0.6809025617
 30
0.0
 11
1.0
 21
0.0
 31
0.0
 44
0.9
  1
DO NOT SCALE DRAWING
 40
0.125
 41
3.1160714286
  0
MTEXT
  5
38C
100
AcDbEntity
  8
0
100
AcDbMText
 62
2
  6
CONTINUOUS
  7
STANDARD
 71
2
 72
1
 10
25.7210366443
 20
3.0089361181
 30
0.0
 11
1.0
 21
0.0
 31
0.0
 44
0.9
  1
DESIGNER
 40
0.09
 41
0.8517857143
  0
MTEXT
  5
38D
100
AcDbEntity
  8
0
100
AcDbMText
 62
2
  6
CONTINUOUS
  7
STANDARD
 71
2
 72
1
 10
25.6858412991
 20
2.4965999854
 30
0.0
 11
1.0
 21
0.0
 31
0.0
 44
0.9
  1
ENGINEER
 40
0.09
 41
0.8260714286
  0
MTEXT
  5
38E
100
AcDbEntity
  8
0
100
AcDbMText
 62
2
  6
CONTINUOUS
  7
STANDARD
 71
2
 72
1
 10
26.0698427771
 20
1.9746251294
 30
0.0
 11
1.0
 21
0.0
 31
0.0
 44
0.9
  1
TECHNICAL DIRECTOR
 40
0.09
 41
1.9221428571
  0
MTEXT
  5
38F
100
AcDbEntity
  8
0
100
AcDbMText
 62
2
  6
CONTINUOUS
  7
STANDARD
 71
2
 72
1
 10
26.203161279
 20
1.4523119278
 30
0.0
 11
1.0
 21
0.0
 31
0.0
 44
0.9
  1
MANUFACTURING ENGINEER
 40
0.09
 41
2.3271428571
  0
MTEXT
  5
390
100
AcDbEntity
  8
0
100
AcDbMText
 62
2
  6
CONTINUOUS
  7
STANDARD
 71
2
 72
1
 10
25.9565235004
 20
0.6760024689
 30
0.0
 11
1.0
 21
0.0
 31
0.0
 44
0.9
  1
MODEL INFO:
 40
0.09
 41
1.1025
  0
MTEXT
  5
391
100
AcDbEntity
  8
0
100
AcDbMText
 62
2
  6
CONTINUOUS
  7
STANDARD
 71
2
 72
1
 10
25.8638508933
 20
0.9183610415
 30
0.0
 11
1.0
 21
0.0
 31
0.0
 44
0.9
  1
DRAWING INFO:
 40
0.09
 41
1.4014285714
  0
MTEXT
  5
392
100
AcDbEntity
  8
0
100
AcDbMText
 62
2
  6
CONTINUOUS
  7
STANDARD
 71
2
 72
1
 10
28.2393645814
 20
0.6670203302
 30
0.0
 11
1.0
 21
0.0
 31
0.0
 44
0.9
  1
SCALE:
 40
0.09
 41
0.5914285714
  0
MTEXT
  5
393
100
AcDbEntity
  8
0
100
AcDbMText
 62
2
  6
CONTINUOUS
  7
STANDARD
 71
2
 72
1
 10
31.6162427343
 20
0.6686808865
 30
0.0
 11
1.0
 21
0.0
 31
0.0
 44
0.9
  1
SHEET
 40
0.09
 41
0.5464285714
  0
MTEXT
  5
394
100
AcDbEntity
  8
0
100
AcDbMText
 62
2
  6
CONTINUOUS
  7
STANDARD
 71
2
 72
1
 10
28.2419794508
 20
1.2103296673
 30
0.0
 11
1.0
 21
0.0
 31
0.0
 44
0.9
  1
SIZE
 40
0.09
 41
0.4210714286
  0
MTEXT
  5
395
100
AcDbEntity
  8
0
100
AcDbMText
 62
2
  6
CONTINUOUS
  7
STANDARD
 71
2
 72
1
 10
28.9836976087
 20
1.2114164431
 30
0.0
 11
1.0
 21
0.0
 31
0.0
 44
0.9
  1
CAGE CODE
 40
0.09
 41
0.9996428571
  0
MTEXT
  5
396
100
AcDbEntity
  8
0
100
AcDbMText
 62
2
  6
CONTINUOUS
  7
STANDARD
 71
2
 72
1
 10
29.940949748
 20
1.2093329657
 30
0.0
 11
1.0
 21
0.0
 31
0.0
 44
0.9
  1
DRAWING NO.
 40
0.09
 41
1.2471428571
  0
MTEXT
  5
397
100
AcDbEntity
  8
0
100
AcDbMText
 62
2
  6
CONTINUOUS
  7
STANDARD
 71
2
 72
1
 10
32.7621326594
 20
1.2106739067
 30
0.0
 11
1.0
 21
0.0
 31
0.0
 44
0.9
  1
REV
 40
0.09
 41
0.3407142857
  0
MTEXT
  5
398
100
AcDbEntity
  8
0
100
AcDbMText
 62
2
  6
CONTINUOUS
  7
STANDARD
 71
2
 72
1
 10
30.4171415005
 20
2.9935178027
 30
0.0
 11
1.0
 21
0.0
 31
0.0
 44
0.9
  1
QSC, LLC
 40
0.15625
 41
1.4397321429
  0
MTEXT
  5
399
100
AcDbEntity
  8
0
100
AcDbMText
 62
2
  6
CONTINUOUS
  7
STANDARD
 71
1
 72
1
 10
29.9121324138
 20
2.7542901639
 30
0.0
 11
1.0
 21
0.0
 31
0.0
 44
0.9
  1
1675 MACARTHUR BOULEVARD\PCOSTA MESA, CA  92626
 40
0.125
 41
3.5848214286
  0
MTEXT
  5
39A
100
AcDbEntity
  8
0
100
AcDbMText
 62
2
  6
CONTINUOUS
  7
STANDARD
 71
1
 72
1
 10
28.6301084889
 20
0.9962764918
 30
0.0
 11
1.0
 21
0.0
 31
0.0
 44
0.9
  1
00PW4
 40
0.15625
 41
1.0993303571
  0
INSERT
  5
39B
100
AcDbEntity
  8
0
100
AcDbBlockReference
 62
7
  6
CONTINUOUS
  2
RD010411_BL0
 10
28.8888202988
 20
2.7011106652
  0
DIMENSION
  5
39C
100
AcDbEntity
  8
0
100
AcDbDimension
 62
2
  6
CONTINUOUS
  2
*D0
 10
5.3725200972
 20
15.4650394283
 11
6.449591207
 21
15.3478519283
 70
160
 71
1
 42
3.13
  3
DIMSTYLE_1
100
AcDbAlignedDimension
 13
5.4957484437
 23
15.9831398521
 14
5.3725200972
 24
15.9831398521
 50
180.0
100
AcDbRotatedDimension
  0
DIMENSION
  5
39D
100
AcDbEntity
  8
0
100
AcDbDimension
 62
2
  6
CONTINUOUS
  2
*D1
 10
4.3153503338
 20
15.9831398521
 11
4.3153503338
 21
17.7360310923
 70
160
 71
2
 42
95.0
  3
DIMSTYLE_1
100
AcDbAlignedDimension
 13
5.6189767902
 23
19.7232973324
 14
5.3725200972
 24
15.9831398521
 50
270.0
100
AcDbRotatedDimension
  0
DIMENSION
  5
39E
100
AcDbEntity
  8
0
100
AcDbDimension
 62
2
  6
CONTINUOUS
  2
*D2
 10
14.34889805
 20
20.6543629194
 11
9.8607090736
 21
20.5371754194
 70
160
 71
2
 42
228.0
  3
DIMSTYLE_1
100
AcDbAlignedDimension
 13
5.3725200972
 23
19.4768406395
 14
14.34889805
 24
19.7232973324
100
AcDbRotatedDimension
  0
DIMENSION
  5
39F
100
AcDbEntity
  8
0
100
AcDbDimension
 62
2
  6
CONTINUOUS
  2
*D3
 10
26.0657249586
 20
7.2498124653
 11
26.0657249586
 21
9.2586092173
 70
160
 71
2
 42
108.0
  3
DIMSTYLE_1
100
AcDbAlignedDimension
 13
23.377522857
 23
11.5017809692
 14
23.377522857
 24
7.2498124653
 50
270.0
100
AcDbRotatedDimension
  0
DIMENSION
  5
3A0
100
AcDbEntity
  8
0
100
AcDbDimension
 62
2
  6
CONTINUOUS
  2
*D4
 10
24.9645193003
 20
7.7616234889
 11
24.9645193003
 21
9.2344314395
 70
160
 71
2
 42
82.0
  1
2X <>
  3
DIMSTYLE_2
100
AcDbAlignedDimension
 13
22.8274265671
 23
10.9899699456
 14
22.8135264265
 24
7.7616234889
 50
270.0
100
AcDbRotatedDimension
  0
DIMENSION
  5
3A1
100
AcDbEntity
  8
0
100
AcDbDimension
 62
2
  6
CONTINUOUS
  2
*D5
 10
22.5875421746
 20
6.3155200066
 11
21.4064398124
 21
6.1983325066
 70
160
 71
2
 42
60.0
  1
2X <>
  3
DIMSTYLE_2
100
AcDbAlignedDimension
 13
20.2253374502
 23
7.5356392369
 14
22.5875421746
 24
7.5356392369
100
AcDbRotatedDimension
  0
DIMENSION
  5
3A2
100
AcDbEntity
  8
0
100
AcDbDimension
 62
2
  6
CONTINUOUS
  2
*D6
 10
22.5411251588
 20
11.1070916447
 11
21.142753614
 21
12.4137589556
 70
163
 71
3
 42
6.4
  1
4X %%c<>
  3
DIMSTYLE_3
100
AcDbDiametricDimension
 15
22.6339591904
 25
10.8728482465
  0
DIMENSION
  5
3A3
100
AcDbEntity
  8
0
100
AcDbDimension
 62
2
  6
CONTINUOUS
  2
*D7
 10
21.0629819737
 20
10.3706233669
 11
19.5269158351
 21
12.3808990482
 70
163
 71
3
 42
54.9
  1
%%c<>
  3
DIMSTYLE_3
100
AcDbDiametricDimension
 15
21.907377966
 25
8.3809700676
  0
DIMENSION
  5
3A4
100
AcDbEntity
  8
0
100
AcDbDimension
 62
2
  6
CONTINUOUS
  2
*D8
 10
23.3918728832
 20
6.3155200066
 11
24.1802313991
 21
6.1983325066
 70
160
 71
1
 42
20.43
  1
2X <>
  3
DIMSTYLE_2
100
AcDbAlignedDimension
 13
22.5875421746
 23
7.5356392369
 14
23.3918728832
 24
7.2498124653
100
AcDbRotatedDimension
  0
DIMENSION
  5
3A5
100
AcDbEntity
  8
0
100
AcDbDimension
 62
2
  6
CONTINUOUS
  2
*D9
 10
15.8548387112
 20
7.9978439613
 11
15.8548387112
 21
9.2586092173
 70
160
 71
2
 42
70.0
  1
2X <>
  3
DIMSTYLE_2
100
AcDbAlignedDimension
 13
13.7796067114
 23
10.7537494732
 14
13.7796067114
 24
7.9978439613
 50
270.0
100
AcDbRotatedDimension
  0
DIMENSION
  5
3A6
100
AcDbEntity
  8
0
100
AcDbDimension
 62
2
  6
CONTINUOUS
  2
*D10
 10
16.8486266152
 20
7.6828833314
 11
16.8486266152
 21
9.2586092173
 70
160
 71
2
 42
86.0
  3
DIMSTYLE_2
100
AcDbAlignedDimension
 13
11.417401987
 23
11.0687101031
 14
11.3906300242
 24
7.6828833314
 50
270.0
100
AcDbRotatedDimension
  0
DIMENSION
  5
3A7
100
AcDbEntity
  8
0
100
AcDbDimension
 62
2
  6
CONTINUOUS
  2
*D11
 10
13.6008665539
 20
13.9167155963
 11
12.2470915758
 21
13.7995280963
 70
160
 71
2
 42
70.0
  1
2X <>
  3
DIMSTYLE_2
100
AcDbAlignedDimension
 13
10.8449610421
 23
10.9324896306
 14
13.6008665539
 24
10.9324896306
100
AcDbRotatedDimension
  0
DIMENSION
  5
3A8
100
AcDbEntity
  8
0
100
AcDbDimension
 62
2
  6
CONTINUOUS
  2
*D12
 10
10.8449610421
 20
13.9167155963
 11
8.1087405697
 21
13.7995280963
 70
160
 71
2
 42
139.0
  1
2X <>
  3
DIMSTYLE_2
100
AcDbAlignedDimension
 13
5.3725200972
 23
11.5017809692
 14
10.8449610421
 24
10.9324896306
100
AcDbRotatedDimension
  0
DIMENSION
  5
3A9
100
AcDbEntity
  8
0
100
AcDbDimension
 62
2
  6
CONTINUOUS
  2
*D13
 10
11.2386618295
 20
4.3914142247
 11
8.3055909634
 21
4.2742267247
 70
160
 71
2
 42
149.0
  1
2X <>
  3
DIMSTYLE_2
100
AcDbAlignedDimension
 13
5.3725200972
 23
7.2498124653
 14
11.2386618295
 24
7.5041431739
100
AcDbRotatedDimension
  0
DIMENSION
  5
3AA
100
AcDbEntity
  8
0
100
AcDbDimension
 62
2
  6
CONTINUOUS
  2
*D14
 10
14.191417735
 20
4.3914142247
 11
12.6789513302
 21
4.2742267247
 70
160
 71
2
 42
75.0
  3
DIMSTYLE_2
100
AcDbAlignedDimension
 13
11.2386618295
 23
5.0212576703
 14
14.191417735
 24
9.1970565598
100
AcDbRotatedDimension
  0
DIMENSION
  5
3AB
100
AcDbEntity
  8
0
100
AcDbDimension
 62
2
  6
CONTINUOUS
  2
*D15
 10
10.8657154678
 20
10.829705159
 11
12.1078537365
 21
12.2467573822
 70
163
 71
1
 42
4.0
  1
7X %%c<>
  3
DIMSTYLE_3
100
AcDbDiametricDimension
 15
10.8242066165
 25
10.6777937873
  0
DIMENSION
  5
3AC
100
AcDbEntity
  8
0
100
AcDbDimension
 62
2
  6
CONTINUOUS
  2
*D16
 10
12.3497812914
 20
9.4513053772
 11
14.9141137195
 21
10.4768507874
 70
163
 71
1
 42
7.5
  1
%%c<>
  3
DIMSTYLE_3
100
AcDbDiametricDimension
 15
12.0960463047
 25
9.3002880573
  0
DIMENSION
  5
3AD
100
AcDbEntity
  8
0
100
AcDbDimension
 62
2
  6
CONTINUOUS
  2
*D17
 10
4.1160120293
 20
10.5568990795
 11
4.1160120293
 21
9.2586092173
 70
160
 71
2
 42
60.0
  3
DIMSTYLE_1
100
AcDbAlignedDimension
 13
6.5536224595
 23
8.194694355
 14
6.5536224595
 24
10.5568990795
 50
90.0
100
AcDbRotatedDimension
  0
DIMENSION
  5
3AE
100
AcDbEntity
  8
0
100
AcDbDimension
 62
2
  6
CONTINUOUS
  2
*D18
 10
7.2425988374
 20
6.1600176444
 11
6.5536224595
 21
6.0428301444
 70
160
 71
2
 42
35.0
  3
DIMSTYLE_1
100
AcDbAlignedDimension
 13
5.8646460815
 23
9.3757967173
 14
7.2425988374
 24
9.3757967173
100
AcDbRotatedDimension
  0
DIMENSION
  5
3AF
100
AcDbEntity
  8
0
100
AcDbDimension
 62
2
  6
CONTINUOUS
  2
*D19
 10
6.5536224595
 20
12.25660872
 11
7.2906631724
 21
12.13942122
 70
160
 71
1
 42
30.0
  3
DIMSTYLE_1
100
AcDbAlignedDimension
 13
5.3725200972
 23
11.5017809692
 14
6.5536224595
 24
10.5754676128
100
AcDbRotatedDimension
  0
DIMENSION
  5
3B0
100
AcDbEntity
  8
0
100
AcDbDimension
 62
2
  6
CONTINUOUS
  2
*D20
 10
10.6202669885
 20
6.7686127851
 11
9.6133574123
 21
6.0464129739
 70
160
 71
2
 42
18.0
  1
2X <>
  3
DIMSTYLE_1
100
AcDbAlignedDimension
 13
9.2869470594
 23
7.6116899252
 14
9.8943884536
 24
7.9766775374
 50
31.0
100
AcDbRotatedDimension
  0
DIMENSION
  5
3B1
100
AcDbEntity
  8
0
100
AcDbDimension
 62
2
  6
CONTINUOUS
  2
*D21
 10
5.3725200972
 20
13.1102649199
 11
7.4309738107
 21
12.9930774199
 70
160
 71
2
 42
104.5694486431
  1
2X <>
  3
DIMSTYLE_1
100
AcDbAlignedDimension
 13
9.4894275241
 23
11.1182449089
 14
5.3725200972
 24
11.5017809692
 50
180.0
100
AcDbRotatedDimension
  0
DIMENSION
  5
3B2
100
AcDbEntity
  8
0
100
AcDbDimension
 62
2
  6
CONTINUOUS
  2
*D22
 10
8.0995942499
 20
6.6226736889
 11
8.3183822
 21
6.1413618926
 70
160
 71
2
 42
12.0
  1
2X <>
  3
DIMSTYLE_1
100
AcDbAlignedDimension
 13
9.3677649868
 23
7.9358329274
 14
9.6110900615
 24
7.5308719979
 50
301.0
100
AcDbRotatedDimension
  0
DIMENSION
  5
3B3
100
AcDbEntity
  8
0
100
AcDbDimension
 62
2
  6
CONTINUOUS
  2
*D23
 10
3.0117111032
 20
7.7333524626
 11
3.0117111032
 21
9.2586092173
 70
160
 71
2
 42
83.4361681354
  3
DIMSTYLE_1
100
AcDbAlignedDimension
 13
9.3894235871
 23
11.0182409719
 14
9.3894235871
 24
7.7333524626
 50
270.0
100
AcDbRotatedDimension
  0
DIMENSION
  5
3B4
100
AcDbEntity
  8
0
100
AcDbDimension
 62
2
  6
CONTINUOUS
  2
*D24
 10
12.222913798
 20
5.1866984441
 11
9.7294183875
 21
5.0695109441
 70
160
 71
2
 42
174.0
  3
DIMSTYLE_4
100
AcDbAlignedDimension
 13
5.3725200972
 23
7.7222534102
 14
12.222913798
 24
9.3757967173
100
AcDbRotatedDimension
  0
DIMENSION
  5
3B5
100
AcDbEntity
  8
0
100
AcDbDimension
 62
2
  6
CONTINUOUS
  2
*D25
 10
12.8134649791
 20
5.189267082
 11
13.4549955287
 21
5.072079582
 70
160
 71
1
 42
15.0
  3
DIMSTYLE_5
100
AcDbAlignedDimension
 13
12.222913798
 23
9.128158922
 14
12.8134649791
 24
9.2364266385
100
AcDbRotatedDimension
  0
LWPOLYLINE
  5
3B6
100
AcDbEntity
  8
0
100
AcDbPolyline
 62
2
  6
CONTINUOUS
 90
2
 70
0
 43
0.02
 10
33.0089627573
 20
21.5000644487
 10
22.9264627573
 20
21.5000644487
  0
LWPOLYLINE
  5
3B7
100
AcDbEntity
  8
0
100
AcDbPolyline
 62
2
  6
CONTINUOUS
 90
2
 70
0
 43
0.02
 10
32.9989627573
 20
21.5000644487
 10
32.9989627573
 20
19.9375644487
  0
LWPOLYLINE
  5
3B8
100
AcDbEntity
  8
0
100
AcDbPolyline
 62
2
  6
CONTINUOUS
 90
2
 70
0
 43
0.02
 10
32.9989627573
 20
21.1875644487
 10
22.9364627573
 20
21.1875644487
  0
LWPOLYLINE
  5
3B9
100
AcDbEntity
  8
0
100
AcDbPolyline
 62
2
  6
CONTINUOUS
 90
2
 70
0
 43
0.02
 10
32.9989627573
 20
20.8750644487
 10
22.9364627573
 20
20.8750644487
  0
LWPOLYLINE
  5
3BA
100
AcDbEntity
  8
0
100
AcDbPolyline
 62
2
  6
CONTINUOUS
 90
2
 70
0
 43
0.02
 10
32.9989627573
 20
20.5625644487
 10
22.9364627573
 20
20.5625644487
  0
LWPOLYLINE
  5
3BB
100
AcDbEntity
  8
0
100
AcDbPolyline
 62
2
  6
CONTINUOUS
 90
2
 70
0
 43
0.02
 10
32.9989627573
 20
20.2500644487
 10
22.9364627573
 20
20.2500644487
  0
LWPOLYLINE
  5
3BC
100
AcDbEntity
  8
0
100
AcDbPolyline
 62
2
  6
CONTINUOUS
 90
2
 70
0
 43
0.02
 10
33.0089627573
 20
19.9375644487
 10
22.9264627573
 20
19.9375644487
  0
LWPOLYLINE
  5
3BD
100
AcDbEntity
  8
0
100
AcDbPolyline
 62
2
  6
CONTINUOUS
 90
2
 70
0
 43
0.02
 10
31.7489627573
 20
21.1875644487
 10
31.7489627573
 20
19.9375644487
  0
LWPOLYLINE
  5
3BE
100
AcDbEntity
  8
0
100
AcDbPolyline
 62
2
  6
CONTINUOUS
 90
2
 70
0
 43
0.02
 10
31.2489627573
 20
21.1875644487
 10
31.2489627573
 20
19.9375644487
  0
LWPOLYLINE
  5
3BF
100
AcDbEntity
  8
0
100
AcDbPolyline
 62
2
  6
CONTINUOUS
 90
2
 70
0
 43
0.02
 10
23.4364627573
 20
21.1875644487
 10
23.4364627573
 20
19.9375644487
  0
LWPOLYLINE
  5
3C0
100
AcDbEntity
  8
0
100
AcDbPolyline
 62
2
  6
CONTINUOUS
 90
2
 70
0
 43
0.02
 10
22.9364627573
 20
21.5000644487
 10
22.9364627573
 20
19.9375644487
  0
MTEXT
  5
3C1
100
AcDbEntity
  8
0
100
AcDbMText
 62
2
  6
CONTINUOUS
  7
STANDARD
 71
2
 72
1
 10
27.9677127573
 20
21.4219394487
 30
0.0
 11
1.0
 21
0.0
 31
0.0
 44
0.9
  1
REVISIONS
 40
0.15625
 41
1.6294642857
  0
MTEXT
  5
3C2
100
AcDbEntity
  8
0
100
AcDbMText
 62
2
  6
CONTINUOUS
  7
STANDARD
 71
2
 72
1
 10
32.3739627573
 20
21.1094394487
 30
0.0
 11
1.0
 21
0.0
 31
0.0
 44
0.9
  1
 DATE 
 40
0.15625
 41
1.1941964286
  0
MTEXT
  5
3C3
100
AcDbEntity
  8
0
100
AcDbMText
 62
2
  6
CONTINUOUS
  7
STANDARD
 71
2
 72
1
 10
31.4989627573
 20
21.1094394487
 30
0.0
 11
1.0
 21
0.0
 31
0.0
 44
0.9
  1
BY
 40
0.15625
 41
0.4296875
  0
MTEXT
  5
3C4
100
AcDbEntity
  8
0
100
AcDbMText
 62
2
  6
CONTINUOUS
  7
STANDARD
 71
2
 72
1
 10
27.3427127573
 20
21.1094394487
 30
0.0
 11
1.0
 21
0.0
 31
0.0
 44
0.9
  1
DESCRIPTION
 40
0.15625
 41
2.0424107143
  0
MTEXT
  5
3C5
100
AcDbEntity
  8
0
100
AcDbMText
 62
2
  6
CONTINUOUS
  7
STANDARD
 71
2
 72
1
 10
23.1864627573
 20
21.1094394487
 30
0.0
 11
1.0
 21
0.0
 31
0.0
 44
0.9
  1
REV
 40
0.15625
 41
0.5915178571
  0
MTEXT
  5
3C6
100
AcDbEntity
  8
0
100
AcDbMText
 62
2
  6
CONTINUOUS
  7
STANDARD
 71
2
 72
1
 10
32.3739627573
 20
20.7969394487
 30
0.0
 11
1.0
 21
0.0
 31
0.0
 44
0.9
  1
07-DEC-16
 40
0.15625
 41
1.640625
  0
MTEXT
  5
3C7
100
AcDbEntity
  8
0
100
AcDbMText
 62
2
  6
CONTINUOUS
  7
STANDARD
 71
2
 72
1
 10
31.4989627573
 20
20.7969394487
 30
0.0
 11
1.0
 21
0.0
 31
0.0
 44
0.9
  1
ES
 40
0.15625
 41
0.3962053571
  0
MTEXT
  5
3C8
100
AcDbEntity
  8
0
100
AcDbMText
 62
2
  6
CONTINUOUS
  7
STANDARD
 71
1
 72
1
 10
23.4989627573
 20
20.7969394487
 30
0.0
 11
1.0
 21
0.0
 31
0.0
 44
0.9
  1
RELEASE FOR SALES AND MARKETING
 40
0.15625
 41
5.6808035714
  0
MTEXT
  5
3C9
100
AcDbEntity
  8
0
100
AcDbMText
 62
2
  6
CONTINUOUS
  7
STANDARD
 71
2
 72
1
 10
23.1864627573
 20
20.7969394487
 30
0.0
 11
1.0
 21
0.0
 31
0.0
 44
0.9
  1
A
 40
0.15625
 41
0.2455357143
  0
LINE
  5
3CA
100
AcDbEntity
  8
0
100
AcDbLine
 62
2
  6
CONTINUOUS
 10
23.125
 20
1.75
 11
25.375
 21
1.75
  0
LINE
  5
3CB
100
AcDbEntity
  8
0
100
AcDbLine
 62
2
  6
CONTINUOUS
 10
23.125
 20
1.75
 11
23.125
 21
1.125
  0
LINE
  5
3CC
100
AcDbEntity
  8
0
100
AcDbLine
 62
2
  6
CONTINUOUS
 10
23.125
 20
1.125
 11
25.375
 21
1.125
  0
LINE
  5
3CD
100
AcDbEntity
  8
0
100
AcDbLine
 62
2
  6
CONTINUOUS
 10
25.375
 20
1.75
 11
25.375
 21
1.125
  0
LINE
  5
3CE
100
AcDbEntity
  8
0
100
AcDbLine
 62
2
  6
CONTINUOUS
 10
23.125
 20
1.125
 11
25.375
 21
1.125
  0
LINE
  5
3CF
100
AcDbEntity
  8
0
100
AcDbLine
 62
2
  6
CONTINUOUS
 10
23.125
 20
1.125
 11
23.125
 21
0.5
  0
LINE
  5
3D0
100
AcDbEntity
  8
0
100
AcDbLine
 62
2
  6
CONTINUOUS
 10
23.125
 20
0.5
 11
25.375
 21
0.5
  0
LINE
  5
3D1
100
AcDbEntity
  8
0
100
AcDbLine
 62
2
  6
CONTINUOUS
 10
25.375
 20
1.125
 11
25.375
 21
0.5
  0
LINE
  5
3D2
100
AcDbEntity
  8
0
100
AcDbLine
 62
2
  6
CONTINUOUS
 10
25.3747109856
 20
3.0617464145
 11
27.9997109856
 21
3.0617464145
  0
LINE
  5
3D3
100
AcDbEntity
  8
0
100
AcDbLine
 62
2
  6
CONTINUOUS
 10
25.3747109856
 20
3.0617464145
 11
25.3747109856
 21
2.5517464145
  0
LINE
  5
3D4
100
AcDbEntity
  8
0
100
AcDbLine
 62
2
  6
CONTINUOUS
 10
25.3747109856
 20
2.5517464145
 11
27.9997109856
 21
2.5517464145
  0
LINE
  5
3D5
100
AcDbEntity
  8
0
100
AcDbLine
 62
2
  6
CONTINUOUS
 10
27.9997109856
 20
3.0617464145
 11
27.9997109856
 21
2.5517464145
  0
MTEXT
  5
3D6
100
AcDbEntity
  8
0
100
AcDbMText
 62
2
  6
CONTINUOUS
  7
STANDARD
 71
1
 72
1
 10
25.4372109856
 20
2.7861214145
 30
0.0
 11
1.0
 21
0.0
 31
0.0
 44
0.9
  1
ENG. SERVICES
 40
0.15625
 41
2.3270089286
  0
LINE
  5
3D7
100
AcDbEntity
  8
0
100
AcDbLine
 62
2
  6
CONTINUOUS
 10
25.375
 20
2.5461365384
 11
28.0
 21
2.5461365384
  0
LINE
  5
3D8
100
AcDbEntity
  8
0
100
AcDbLine
 62
2
  6
CONTINUOUS
 10
25.375
 20
2.5461365384
 11
25.375
 21
2.0361365384
  0
LINE
  5
3D9
100
AcDbEntity
  8
0
100
AcDbLine
 62
2
  6
CONTINUOUS
 10
25.375
 20
2.0361365384
 11
28.0
 21
2.0361365384
  0
LINE
  5
3DA
100
AcDbEntity
  8
0
100
AcDbLine
 62
2
  6
CONTINUOUS
 10
28.0
 20
2.5461365384
 11
28.0
 21
2.0361365384
  0
LINE
  5
3DB
100
AcDbEntity
  8
0
100
AcDbLine
 62
2
  6
CONTINUOUS
 10
25.375
 20
2.0237995115
 11
28.0
 21
2.0237995115
  0
LINE
  5
3DC
100
AcDbEntity
  8
0
100
AcDbLine
 62
2
  6
CONTINUOUS
 10
25.375
 20
2.0237995115
 11
25.375
 21
1.5137995115
  0
LINE
  5
3DD
100
AcDbEntity
  8
0
100
AcDbLine
 62
2
  6
CONTINUOUS
 10
25.375
 20
1.5137995115
 11
28.0
 21
1.5137995115
  0
LINE
  5
3DE
100
AcDbEntity
  8
0
100
AcDbLine
 62
2
  6
CONTINUOUS
 10
28.0
 20
2.0237995115
 11
28.0
 21
1.5137995115
  0
LINE
  5
3DF
100
AcDbEntity
  8
0
100
AcDbLine
 62
2
  6
CONTINUOUS
 10
25.375
 20
1.4999656021
 11
28.0
 21
1.4999656021
  0
LINE
  5
3E0
100
AcDbEntity
  8
0
100
AcDbLine
 62
2
  6
CONTINUOUS
 10
25.375
 20
1.4999656021
 11
25.375
 21
0.9899656021
  0
LINE
  5
3E1
100
AcDbEntity
  8
0
100
AcDbLine
 62
2
  6
CONTINUOUS
 10
25.375
 20
0.9899656021
 11
28.0
 21
0.9899656021
  0
LINE
  5
3E2
100
AcDbEntity
  8
0
100
AcDbLine
 62
2
  6
CONTINUOUS
 10
28.0
 20
1.4999656021
 11
28.0
 21
0.9899656021
  0
LINE
  5
3E3
100
AcDbEntity
  8
0
100
AcDbLine
 62
2
  6
CONTINUOUS
 10
25.375
 20
1.0
 11
28.0
 21
1.0
  0
LINE
  5
3E4
100
AcDbEntity
  8
0
100
AcDbLine
 62
2
  6
CONTINUOUS
 10
25.375
 20
1.0
 11
25.375
 21
0.75
  0
LINE
  5
3E5
100
AcDbEntity
  8
0
100
AcDbLine
 62
2
  6
CONTINUOUS
 10
25.375
 20
0.75
 11
28.0
 21
0.75
  0
LINE
  5
3E6
100
AcDbEntity
  8
0
100
AcDbLine
 62
2
  6
CONTINUOUS
 10
28.0
 20
1.0
 11
28.0
 21
0.75
  0
MTEXT
  5
3E7
100
AcDbEntity
  8
0
100
AcDbMText
 62
2
  6
CONTINUOUS
  7
STANDARD
 71
3
 72
1
 10
27.9375
 20
0.938125
 30
0.0
 11
1.0
 21
0.0
 31
0.0
 44
0.9
  1
CH-001456-2D.A.0
 40
0.11
 41
2.0035714286
  0
LINE
  5
3E8
100
AcDbEntity
  8
0
100
AcDbLine
 62
2
  6
CONTINUOUS
 10
25.375
 20
0.75
 11
28.0
 21
0.75
  0
LINE
  5
3E9
100
AcDbEntity
  8
0
100
AcDbLine
 62
2
  6
CONTINUOUS
 10
25.375
 20
0.75
 11
25.375
 21
0.5
  0
LINE
  5
3EA
100
AcDbEntity
  8
0
100
AcDbLine
 62
2
  6
CONTINUOUS
 10
25.375
 20
0.5
 11
28.0
 21
0.5
  0
LINE
  5
3EB
100
AcDbEntity
  8
0
100
AcDbLine
 62
2
  6
CONTINUOUS
 10
28.0
 20
0.75
 11
28.0
 21
0.5
  0
MTEXT
  5
3EC
100
AcDbEntity
  8
0
100
AcDbMText
 62
2
  6
CONTINUOUS
  7
STANDARD
 71
3
 72
1
 10
27.9375
 20
0.688125
 30
0.0
 11
1.0
 21
0.0
 31
0.0
 44
0.9
  1
CH-001456-3D.A.0
 40
0.11
 41
1.9917857143
  0
LINE
  5
3ED
100
AcDbEntity
  8
0
100
AcDbLine
 62
2
  6
CONTINUOUS
 10
28.0
 20
2.375
 11
33.0
 21
2.375
  0
LINE
  5
3EE
100
AcDbEntity
  8
0
100
AcDbLine
 62
2
  6
CONTINUOUS
 10
28.0
 20
2.375
 11
28.0
 21
1.25
  0
LINE
  5
3EF
100
AcDbEntity
  8
0
100
AcDbLine
 62
2
  6
CONTINUOUS
 10
28.0
 20
1.25
 11
33.0
 21
1.25
  0
LINE
  5
3F0
100
AcDbEntity
  8
0
100
AcDbLine
 62
2
  6
CONTINUOUS
 10
33.0
 20
2.375
 11
33.0
 21
1.25
  0
MTEXT
  5
3F1
100
AcDbEntity
  8
0
100
AcDbMText
 62
2
  6
CONTINUOUS
  7
STANDARD
 71
2
 72
1
 10
30.5
 20
2.087
 30
0.0
 11
1.0
 21
0.0
 31
0.0
 44
1.02
  1
WALL MOUNT, BLK/W HW, CAMERA\PFINISHED
 40
0.18
 41
6.3257142857
  0
LINE
  5
3F2
100
AcDbEntity
  8
0
100
AcDbLine
 62
2
  6
CONTINUOUS
 10
28.0010923029
 20
1.2479404675
 11
28.5010923029
 21
1.2479404675
  0
LINE
  5
3F3
100
AcDbEntity
  8
0
100
AcDbLine
 62
2
  6
CONTINUOUS
 10
28.0010923029
 20
1.2479404675
 11
28.0010923029
 21
0.7479404675
  0
LINE
  5
3F4
100
AcDbEntity
  8
0
100
AcDbLine
 62
2
  6
CONTINUOUS
 10
28.0010923029
 20
0.7479404675
 11
28.5010923029
 21
0.7479404675
  0
LINE
  5
3F5
100
AcDbEntity
  8
0
100
AcDbLine
 62
2
  6
CONTINUOUS
 10
28.5010923029
 20
1.2479404675
 11
28.5010923029
 21
0.7479404675
  0
MTEXT
  5
3F6
100
AcDbEntity
  8
0
100
AcDbMText
 62
2
  6
CONTINUOUS
  7
STANDARD
 71
2
 72
1
 10
28.2510923029
 20
1.0260654675
 30
0.0
 11
1.0
 21
0.0
 31
0.0
 44
0.9
  1
D
 40
0.2
 41
0.3285714286
  0
LINE
  5
3F7
100
AcDbEntity
  8
0
100
AcDbLine
 62
2
  6
CONTINUOUS
 10
29.5005174976
 20
1.2449745891
 11
32.5005174976
 21
1.2449745891
  0
LINE
  5
3F8
100
AcDbEntity
  8
0
100
AcDbLine
 62
2
  6
CONTINUOUS
 10
29.5005174976
 20
1.2449745891
 11
29.5005174976
 21
0.7449745891
  0
LINE
  5
3F9
100
AcDbEntity
  8
0
100
AcDbLine
 62
2
  6
CONTINUOUS
 10
29.5005174976
 20
0.7449745891
 11
32.5005174976
 21
0.7449745891
  0
LINE
  5
3FA
100
AcDbEntity
  8
0
100
AcDbLine
 62
2
  6
CONTINUOUS
 10
32.5005174976
 20
1.2449745891
 11
32.5005174976
 21
0.7449745891
  0
MTEXT
  5
3FB
100
AcDbEntity
  8
0
100
AcDbMText
 62
2
  6
CONTINUOUS
  7
STANDARD
 71
2
 72
1
 10
31.0005174976
 20
1.0230995891
 30
0.0
 11
1.0
 21
0.0
 31
0.0
 44
0.9
  1
CH-001456-2D
 40
0.2
 41
2.8071428571
  0
LINE
  5
3FC
100
AcDbEntity
  8
0
100
AcDbLine
 62
2
  6
CONTINUOUS
 10
32.4986998963
 20
1.2482878226
 11
32.9986998963
 21
1.2482878226
  0
LINE
  5
3FD
100
AcDbEntity
  8
0
100
AcDbLine
 62
2
  6
CONTINUOUS
 10
32.4986998963
 20
1.2482878226
 11
32.4986998963
 21
0.7482878226
  0
LINE
  5
3FE
100
AcDbEntity
  8
0
100
AcDbLine
 62
2
  6
CONTINUOUS
 10
32.4986998963
 20
0.7482878226
 11
32.9986998963
 21
0.7482878226
  0
LINE
  5
3FF
100
AcDbEntity
  8
0
100
AcDbLine
 62
2
  6
CONTINUOUS
 10
32.9986998963
 20
1.2482878226
 11
32.9986998963
 21
0.7482878226
  0
MTEXT
  5
400
100
AcDbEntity
  8
0
100
AcDbMText
 62
2
  6
CONTINUOUS
  7
STANDARD
 71
2
 72
1
 10
32.7486998963
 20
1.0064128226
 30
0.0
 11
1.0
 21
0.0
 31
0.0
 44
0.9
  1
A
 40
0.18
 41
0.2828571429
  0
LINE
  5
401
100
AcDbEntity
  8
0
100
AcDbLine
 62
2
  6
CONTINUOUS
 10
31.3756206194
 20
0.7429288836
 11
33.0006206194
 21
0.7429288836
  0
LINE
  5
402
100
AcDbEntity
  8
0
100
AcDbLine
 62
2
  6
CONTINUOUS
 10
31.3756206194
 20
0.7429288836
 11
31.3756206194
 21
0.4929288836
  0
LINE
  5
403
100
AcDbEntity
  8
0
100
AcDbLine
 62
2
  6
CONTINUOUS
 10
31.3756206194
 20
0.4929288836
 11
33.0006206194
 21
0.4929288836
  0
LINE
  5
404
100
AcDbEntity
  8
0
100
AcDbLine
 62
2
  6
CONTINUOUS
 10
33.0006206194
 20
0.7429288836
 11
33.0006206194
 21
0.4929288836
  0
MTEXT
  5
405
100
AcDbEntity
  8
0
100
AcDbMText
 62
2
  6
CONTINUOUS
  7
STANDARD
 71
3
 72
1
 10
32.9381206194
 20
0.7110538836
 30
0.0
 11
1.0
 21
0.0
 31
0.0
 44
0.9
  1
1 OF 1
 40
0.14
 41
0.925
  0
LINE
  5
406
100
AcDbEntity
  8
0
100
AcDbLine
 62
2
  6
CONTINUOUS
 10
27.9982598121
 20
0.7488232169
 11
29.1862598121
 21
0.7488232169
  0
LINE
  5
407
100
AcDbEntity
  8
0
100
AcDbLine
 62
2
  6
CONTINUOUS
 10
27.9982598121
 20
0.7488232169
 11
27.9982598121
 21
0.4949169669
  0
LINE
  5
408
100
AcDbEntity
  8
0
100
AcDbLine
 62
2
  6
CONTINUOUS
 10
27.9982598121
 20
0.4949169669
 11
29.1862598121
 21
0.4949169669
  0
LINE
  5
409
100
AcDbEntity
  8
0
100
AcDbLine
 62
2
  6
CONTINUOUS
 10
29.1862598121
 20
0.7488232169
 11
29.1862598121
 21
0.4949169669
  0
MTEXT
  5
40A
100
AcDbEntity
  8
0
100
AcDbMText
 62
2
  6
CONTINUOUS
  7
STANDARD
 71
3
 72
1
 10
29.1237598121
 20
0.6830419669
 30
0.0
 11
1.0
 21
0.0
 31
0.0
 44
0.9
  1
1.000
 40
0.11
 41
0.6089285714
  0
MTEXT
  5
40B
100
AcDbEntity
  8
0
100
AcDbMText
 62
2
  6
CONTINUOUS
  7
STANDARD
 71
1
 72
1
 10
0.6357307683
 20
2.3748710961
 30
0.0
 11
1.0
 21
0.0
 31
0.0
 44
1.2
  3
4. PARTS ARE SYMMETRICAL ABOUT CENTER LINES UNLESS OTHERWISE NOTED.\P3. DIMENSIONS ARE IN MILLIMETERS [INCH].\P2. TOLERANCES (MM): X \Fgdt;{\Fgdt;`}\Ftxt; 3, ANGLES: \Fgdt;{\Fgdt;`}\Ftxt; 1\Fgdt;{\Fgdt;~}\Ftxt;.\P1. NET WEIGHT APPROX. 1.5 LBS [0.68 K
  1
G].\P \PNOTES:  UNLESS OTHERWISE SPECIFIED
 40
0.15625
 41
12.3325892857
  0
MTEXT
  5
40C
100
AcDbEntity
  8
0
100
AcDbMText
 62
2
  6
CONTINUOUS
  7
TEXTSTYLE_1
 71
1
 72
1
 10
5.0091098909
 20
9.4540979738
 30
0.0
 11
1.0
 21
0.0
 31
0.0
 44
0.9
  1
{\Fgdt;q}
 40
0.15625
 41
0.2473958333
  0
LEADER
  5
40D
100
AcDbEntity
  8
0
100
AcDbLeader
 62
2
  6
CONTINUOUS
  3
STANDARD
 71
1
 72
0
 73
0
 75
0
 40
0.15625
 41
1.1644345238
 76
3
 10
12.8451120691
 20
9.3991836527
 30
0.0
 10
14.2892447951
 20
9.9809135127
 30
0.0
 10
14.5392447951
 20
9.9809135127
 30
0.0
340
40E
1001
ACAD
1000
DSTYLE
1002
{
1070
77
1070
0
1002
}
  0
MTEXT
  5
40E
102
{ACAD_REACTORS
330
40D
102
}
100
AcDbEntity
  8
0
100
AcDbMText
 62
2
  6
CONTINUOUS
  7
STANDARD
 71
1
 72
1
 10
14.5392447951
 20
10.0590385127
 30
0.0
 11
1.0
 21
0.0
 31
0.0
 44
0.9
  1
M3 THREAD
 40
0.15625
 41
1.7466517857
  0
MTEXT
  5
40F
100
AcDbEntity
  8
0
100
AcDbMText
 62
2
  6
CONTINUOUS
  7
TEXTSTYLE_1
 71
1
 72
1
 10
23.7625406911
 20
9.4540380986
 30
0.0
 11
1.0
 21
0.0
 31
0.0
 44
0.9
  1
{\Fgdt;q}
 40
0.15625
 41
0.2473958333
  0
LINE
  5
410
100
AcDbEntity
  8
DEFAULT_3
100
AcDbLine
 62
7
  6
PHANTOM
 10
0.0
 20
-0.0
 11
0.0
 21
22.0
  0
LWPOLYLINE
  5
411
100
AcDbEntity
  8
0
100
AcDbPolyline
 62
7
  6
CONTINUOUS
 90
2
 70
0
 43
0.0200000008
 10
0.2624627221
 20
10.8313451107
 10
0.2624627221
 20
11.1686548893
  0
LWPOLYLINE
  5
412
100
AcDbEntity
  8
0
100
AcDbPolyline
 62
7
  6
CONTINUOUS
 90
2
 70
0
 43
0.0300000002
 10
0.5
 20
21.5
 10
0.5
 20
0.5
  0
LWPOLYLINE
  5
413
100
AcDbEntity
  8
0
100
AcDbPolyline
 62
7
  6
CONTINUOUS
 90
2
 70
0
 43
0.0300000002
 10
3.5625
 20
21.5
 10
3.5625
 20
21.0
  0
LWPOLYLINE
  5
414
100
AcDbEntity
  8
0
100
AcDbPolyline
 62
7
  6
CONTINUOUS
 90
2
 70
0
 43
0.0200000008
 10
4.5625
 20
0.5
 10
4.5625
 20
-0.0
  0
LWPOLYLINE
  5
415
100
AcDbEntity
  8
0
100
AcDbPolyline
 62
7
  6
CONTINUOUS
 90
2
 70
0
 43
0.0200000008
 10
4.5625
 20
21.5
 10
4.5625
 20
22.0
  0
LINE
  5
416
100
AcDbEntity
  8
0
100
AcDbLine
 62
7
  6
CONTINUOUS
 10
23.1245031012
 20
0.5003057216
 11
25.3749098905
 21
1.1247744126
  0
LINE
  5
417
100
AcDbEntity
  8
0
100
AcDbLine
 62
7
  6
CONTINUOUS
 10
23.1251143994
 20
1.125075171
 11
25.3746903808
 21
1.7503404375
  0
LINE
  5
418
100
AcDbEntity
  8
DEFAULT_3
100
AcDbLine
 62
7
  6
PHANTOM
 10
0.0
 20
-0.0
 11
34.0
 21
-0.0
  0
LWPOLYLINE
  5
419
100
AcDbEntity
  8
0
100
AcDbPolyline
 62
7
  6
CONTINUOUS
 90
2
 70
0
 43
0.0200000008
 10
16.5813451107
 20
0.2624627221
 10
16.9186548893
 20
0.2624627221
  0
LWPOLYLINE
  5
41A
100
AcDbEntity
  8
0
100
AcDbPolyline
 62
7
  6
CONTINUOUS
 90
2
 70
0
 43
0.0200000008
 10
0.5
 20
11.0
 10
0.2624627221
 20
10.8313451107
  0
LWPOLYLINE
  5
41B
100
AcDbEntity
  8
0
100
AcDbPolyline
 62
7
  6
CONTINUOUS
 90
2
 70
0
 43
0.0300000002
 10
0.5
 20
0.5
 10
33.0
 20
0.5
  0
LWPOLYLINE
  5
41C
100
AcDbEntity
  8
0
100
AcDbPolyline
 62
7
  6
CONTINUOUS
 90
2
 70
0
 43
0.0200000008
 10
25.375
 20
0.75
 10
33.0
 20
0.75
  0
LWPOLYLINE
  5
41D
100
AcDbEntity
  8
0
100
AcDbPolyline
 62
7
  6
CONTINUOUS
 90
2
 70
0
 43
0.0200000008
 10
25.375
 20
1.0
 10
28.0
 20
1.0
  0
LWPOLYLINE
  5
41E
100
AcDbEntity
  8
0
100
AcDbPolyline
 62
7
  6
CONTINUOUS
 90
2
 70
0
 43
0.0200000008
 10
25.375
 20
1.125
 10
23.125
 20
1.125
  0
LWPOLYLINE
  5
41F
100
AcDbEntity
  8
0
100
AcDbPolyline
 62
7
  6
CONTINUOUS
 90
2
 70
0
 43
0.0200000008
 10
28.0
 20
1.25
 10
33.0
 20
1.25
  0
LWPOLYLINE
  5
420
100
AcDbEntity
  8
0
100
AcDbPolyline
 62
7
  6
CONTINUOUS
 90
2
 70
0
 43
0.0200000008
 10
25.3815694167
 20
1.511735345
 10
28.0065694167
 20
1.511735345
  0
LWPOLYLINE
  5
421
100
AcDbEntity
  8
0
100
AcDbPolyline
 62
7
  6
CONTINUOUS
 90
2
 70
0
 43
0.0200000008
 10
0.5
 20
11.0
 10
0.2624627221
 20
11.1686548893
  0
LWPOLYLINE
  5
422
100
AcDbEntity
  8
0
100
AcDbPolyline
 62
7
  6
CONTINUOUS
 90
2
 70
0
 43
0.0200000008
 10
8.625
 20
0.5
 10
8.625
 20
-0.0
  0
LWPOLYLINE
  5
423
100
AcDbEntity
  8
0
100
AcDbPolyline
 62
7
  6
CONTINUOUS
 90
2
 70
0
 43
0.0200000008
 10
8.625
 20
21.5
 10
8.625
 20
22.0
  0
LWPOLYLINE
  5
424
100
AcDbEntity
  8
0
100
AcDbPolyline
 62
7
  6
CONTINUOUS
 90
2
 70
0
 43
0.0200000008
 10
23.125
 20
1.75
 10
25.375
 20
1.75
  0
LWPOLYLINE
  5
425
100
AcDbEntity
  8
0
100
AcDbPolyline
 62
7
  6
CONTINUOUS
 90
2
 70
0
 43
0.0200000008
 10
25.3829431071
 20
2.0259190354
 10
28.0079431071
 20
2.0259190354
  0
LWPOLYLINE
  5
426
100
AcDbEntity
  8
0
100
AcDbPolyline
 62
7
  6
CONTINUOUS
 90
2
 70
0
 43
0.0200000008
 10
28.0
 20
2.375
 10
33.0
 20
2.375
  0
LWPOLYLINE
  5
427
100
AcDbEntity
  8
0
100
AcDbPolyline
 62
7
  6
CONTINUOUS
 90
2
 70
0
 43
0.0200000008
 10
25.375
 20
2.5575298285
 10
28.0
 20
2.5575298285
  0
LWPOLYLINE
  5
428
100
AcDbEntity
  8
0
100
AcDbPolyline
 62
7
  6
CONTINUOUS
 90
2
 70
0
 43
0.0200000008
 10
23.125
 20
3.0625
 10
33.0
 20
3.0625
  0
LWPOLYLINE
  5
429
100
AcDbEntity
  8
0
100
AcDbPolyline
 62
7
  6
CONTINUOUS
 90
2
 70
0
 43
0.0200000008
 10
16.75
 20
21.5
 10
16.9186548893
 20
21.7375372779
  0
LWPOLYLINE
  5
42A
100
AcDbEntity
  8
0
100
AcDbPolyline
 62
7
  6
CONTINUOUS
 90
2
 70
0
 43
0.0200000008
 10
16.75
 20
0.5
 10
16.9186548893
 20
0.2624627221
  0
LWPOLYLINE
  5
42B
100
AcDbEntity
  8
0
100
AcDbPolyline
 62
7
  6
CONTINUOUS
 90
2
 70
0
 43
0.0200000008
 10
0.5
 20
5.75
 10
0.0
 20
5.75
  0
LWPOLYLINE
  5
42C
100
AcDbEntity
  8
0
100
AcDbPolyline
 62
7
  6
CONTINUOUS
 90
2
 70
0
 43
0.0200000008
 10
33.0065938508
 20
5.7508410409
 10
33.5065938508
 20
5.7508410409
  0
LWPOLYLINE
  5
42D
100
AcDbEntity
  8
0
100
AcDbPolyline
 62
7
  6
CONTINUOUS
 90
2
 70
0
 43
0.0200000008
 10
12.6875
 20
0.5
 10
12.6875
 20
-0.0
  0
LWPOLYLINE
  5
42E
100
AcDbEntity
  8
0
100
AcDbPolyline
 62
7
  6
CONTINUOUS
 90
2
 70
0
 43
0.0200000008
 10
12.6875
 20
21.5
 10
12.6875
 20
22.0
  0
LINE
  5
42F
100
AcDbEntity
  8
0
100
AcDbLine
 62
7
  6
CONTINUOUS
 10
25.3766626654
 20
1.7509672338
 11
23.1173019108
 21
3.0645490679
  0
LWPOLYLINE
  5
430
100
AcDbEntity
  8
0
100
AcDbPolyline
 62
7
  6
CONTINUOUS
 90
2
 70
0
 43
0.0200000008
 10
16.75
 20
0.5
 10
16.75
 20
-0.0
  0
LWPOLYLINE
  5
431
100
AcDbEntity
  8
0
100
AcDbPolyline
 62
7
  6
CONTINUOUS
 90
2
 70
0
 43
0.0200000008
 10
16.75
 20
21.5
 10
16.75
 20
22.0
  0
LWPOLYLINE
  5
432
100
AcDbEntity
  8
0
100
AcDbPolyline
 62
7
  6
CONTINUOUS
 90
2
 70
0
 43
0.0200000008
 10
0.5
 20
11.0
 10
-0.0
 20
11.0
  0
LWPOLYLINE
  5
433
100
AcDbEntity
  8
0
100
AcDbPolyline
 62
7
  6
CONTINUOUS
 90
2
 70
0
 43
0.0200000008
 10
33.001079346
 20
11.0013597981
 10
33.501079346
 20
11.0013597981
  0
LWPOLYLINE
  5
434
100
AcDbEntity
  8
0
100
AcDbPolyline
 62
7
  6
CONTINUOUS
 90
2
 70
0
 43
0.0200000008
 10
20.8125
 20
0.5
 10
20.8125
 20
-0.0
  0
LWPOLYLINE
  5
435
100
AcDbEntity
  8
0
100
AcDbPolyline
 62
7
  6
CONTINUOUS
 90
2
 70
0
 43
0.0200000008
 10
20.8125
 20
21.5
 10
20.8125
 20
22.0
  0
LWPOLYLINE
  5
436
100
AcDbEntity
  8
0
100
AcDbPolyline
 62
7
  6
CONTINUOUS
 90
2
 70
0
 43
0.0200000008
 10
16.75
 20
0.5
 10
16.5813451107
 20
0.2624627221
  0
LWPOLYLINE
  5
437
100
AcDbEntity
  8
0
100
AcDbPolyline
 62
7
  6
CONTINUOUS
 90
2
 70
0
 43
0.0200000008
 10
0.5
 20
16.25
 10
0.0
 20
16.25
  0
LWPOLYLINE
  5
438
100
AcDbEntity
  8
0
100
AcDbPolyline
 62
7
  6
CONTINUOUS
 90
2
 70
0
 43
0.0200000008
 10
33.0
 20
16.25
 10
33.5
 20
16.25
  0
LWPOLYLINE
  5
439
100
AcDbEntity
  8
0
100
AcDbPolyline
 62
7
  6
CONTINUOUS
 90
2
 70
0
 43
0.0200000008
 10
16.75
 20
21.5
 10
16.5813451107
 20
21.7375372779
  0
LWPOLYLINE
  5
43A
100
AcDbEntity
  8
0
100
AcDbPolyline
 62
7
  6
CONTINUOUS
 90
2
 70
0
 43
0.0200000008
 10
23.125
 20
0.5
 10
23.125
 20
3.0625
  0
LWPOLYLINE
  5
43B
100
AcDbEntity
  8
0
100
AcDbPolyline
 62
7
  6
CONTINUOUS
 90
2
 70
0
 43
0.0200000008
 10
24.875
 20
0.5
 10
24.875
 20
-0.0
  0
LWPOLYLINE
  5
43C
100
AcDbEntity
  8
0
100
AcDbPolyline
 62
7
  6
CONTINUOUS
 90
2
 70
0
 43
0.0200000008
 10
24.875
 20
21.5
 10
24.875
 20
22.0
  0
LWPOLYLINE
  5
43D
100
AcDbEntity
  8
0
100
AcDbPolyline
 62
7
  6
CONTINUOUS
 90
2
 70
0
 43
0.0200000008
 10
25.375
 20
0.5
 10
25.375
 20
3.0625
  0
LWPOLYLINE
  5
43E
100
AcDbEntity
  8
0
100
AcDbPolyline
 62
7
  6
CONTINUOUS
 90
2
 70
0
 43
0.0200000008
 10
33.001079346
 20
11.0013597981
 10
33.2386166238
 20
11.1700146875
  0
LWPOLYLINE
  5
43F
100
AcDbEntity
  8
0
100
AcDbPolyline
 62
7
  6
CONTINUOUS
 90
2
 70
0
 43
0.0200000008
 10
33.001079346
 20
11.0013597981
 10
33.2386166238
 20
10.8327049088
  0
LWPOLYLINE
  5
440
100
AcDbEntity
  8
0
100
AcDbPolyline
 62
7
  6
CONTINUOUS
 90
2
 70
0
 43
0.0300000002
 10
3.5625
 20
21.0
 10
0.5
 20
21.0
  0
LWPOLYLINE
  5
441
100
AcDbEntity
  8
0
100
AcDbPolyline
 62
7
  6
CONTINUOUS
 90
2
 70
0
 43
0.0300000002
 10
33.0
 20
21.5
 10
0.5
 20
21.5
  0
LWPOLYLINE
  5
442
100
AcDbEntity
  8
0
100
AcDbPolyline
 62
7
  6
CONTINUOUS
 90
2
 70
0
 43
0.0200000008
 10
16.5813451107
 20
21.7375372779
 10
16.9186548893
 20
21.7375372779
  0
LWPOLYLINE
  5
443
100
AcDbEntity
  8
0
100
AcDbPolyline
 62
7
  6
CONTINUOUS
 90
2
 70
0
 43
0.0200000008
 10
28.0
 20
0.5
 10
28.0
 20
3.0625
  0
LWPOLYLINE
  5
444
100
AcDbEntity
  8
0
100
AcDbPolyline
 62
7
  6
CONTINUOUS
 90
2
 70
0
 43
0.0200000008
 10
28.5
 20
0.75
 10
28.5
 20
1.25
  0
LWPOLYLINE
  5
445
100
AcDbEntity
  8
0
100
AcDbPolyline
 62
7
  6
CONTINUOUS
 90
2
 70
0
 43
0.0200000008
 10
28.9375
 20
0.5
 10
28.9375
 20
-0.0
  0
LWPOLYLINE
  5
446
100
AcDbEntity
  8
0
100
AcDbPolyline
 62
7
  6
CONTINUOUS
 90
2
 70
0
 43
0.0200000008
 10
28.9375
 20
21.5
 10
28.9375
 20
22.0
  0
LINE
  5
447
100
AcDbEntity
  8
0
100
AcDbLine
 62
7
  6
CONTINUOUS
 10
23.1278105655
 20
1.7614758885
 11
25.3819169927
 21
3.0698033952
  0
LINE
  5
448
100
AcDbEntity
  8
DEFAULT_3
100
AcDbLine
 62
7
  6
PHANTOM
 10
0.0
 20
22.0
 11
34.0
 21
22.0
  0
LWPOLYLINE
  5
449
100
AcDbEntity
  8
0
100
AcDbPolyline
 62
7
  6
CONTINUOUS
 90
2
 70
0
 43
0.0200000008
 10
29.1836289665
 20
0.5047501556
 10
29.1836289665
 20
0.7547501556
  0
LWPOLYLINE
  5
44A
100
AcDbEntity
  8
0
100
AcDbPolyline
 62
7
  6
CONTINUOUS
 90
2
 70
0
 43
0.0200000008
 10
29.5
 20
0.75
 10
29.5
 20
1.25
  0
LWPOLYLINE
  5
44B
100
AcDbEntity
  8
0
100
AcDbPolyline
 62
7
  6
CONTINUOUS
 90
2
 70
0
 43
0.0200000008
 10
31.375
 20
0.5
 10
31.375
 20
0.75
  0
LWPOLYLINE
  5
44C
100
AcDbEntity
  8
0
100
AcDbPolyline
 62
7
  6
CONTINUOUS
 90
2
 70
0
 43
0.0200000008
 10
32.5
 20
0.75
 10
32.5
 20
1.25
  0
LWPOLYLINE
  5
44D
100
AcDbEntity
  8
0
100
AcDbPolyline
 62
7
  6
CONTINUOUS
 90
2
 70
0
 43
0.0300000002
 10
33.0
 20
21.5
 10
33.0
 20
0.5
  0
LWPOLYLINE
  5
44E
100
AcDbEntity
  8
0
100
AcDbPolyline
 62
7
  6
CONTINUOUS
 90
2
 70
0
 43
0.0200000008
 10
33.2386166238
 20
10.8327049088
 10
33.2386166238
 20
11.1700146875
  0
LINE
  5
44F
100
AcDbEntity
  8
DEFAULT_3
100
AcDbLine
 62
7
  6
PHANTOM
 10
34.0
 20
-0.0
 11
34.0
 21
22.0
  0
LINE
  5
450
100
AcDbEntity
  8
7_ALL_ROUNDS
100
AcDbLine
 62
3
  6
CONTINUOUS
 10
24.1135770475
 20
17.7017776392
 11
24.1135770475
 21
15.2390647635
  0
LINE
  5
451
100
AcDbEntity
  8
7_ALL_ROUNDS
100
AcDbLine
 62
7
  6
CONTINUOUS
 10
24.2007126469
 20
17.651301627
 11
24.2007126469
 21
15.1885887513
  0
LINE
  5
452
100
AcDbEntity
  8
6_ALL_SURFS
100
AcDbLine
 62
9
  6
CONTINUOUS
 10
24.2878482463
 20
14.9372190383
 11
24.2878482463
 21
15.0376658887
  0
LINE
  5
453
100
AcDbEntity
  8
7_ALL_ROUNDS
100
AcDbLine
 62
3
  6
CONTINUOUS
 10
26.7861066142
 20
19.6350234458
 11
24.4476432433
 21
18.2803956428
  0
LINE
  5
454
100
AcDbEntity
  8
7_ALL_ROUNDS
100
AcDbLine
 62
7
  6
CONTINUOUS
 10
26.8732422136
 20
19.5845474336
 11
24.5347788427
 21
18.2299196306
  0
LINE
  5
455
100
AcDbEntity
  8
7_ALL_ROUNDS
100
AcDbLine
 62
3
  6
CONTINUOUS
 10
24.2878482463
 20
14.9372190383
 11
29.2331414987
 21
12.0725037655
  0
LINE
  5
456
100
AcDbEntity
  8
4_ALL_POINTS
100
AcDbLine
 62
7
  6
CONTINUOUS
 10
27.538641428
 20
13.4844635135
 11
27.3094377132
 21
13.5175676393
  0
LINE
  5
457
100
AcDbEntity
  8
7_ALL_ROUNDS
100
AcDbLine
 62
7
  6
CONTINUOUS
 10
24.2878482463
 20
15.0376658887
 11
29.2331414987
 21
12.1729506159
  0
LINE
  5
458
100
AcDbEntity
  8
6_ALL_SURFS
100
AcDbLine
 62
9
  6
CONTINUOUS
 10
24.1135770475
 20
15.2390647635
 11
24.2007126469
 21
15.1885887513
  0
LINE
  5
459
100
AcDbEntity
  8
4_ALL_POINTS
100
AcDbLine
 62
3
  6
CONTINUOUS
 10
27.4237315221
 20
13.6826675822
 11
27.652935237
 21
13.6495634564
  0
LINE
  5
45A
100
AcDbEntity
  8
4_ALL_POINTS
100
AcDbLine
 62
7
  6
CONTINUOUS
 10
27.4237315221
 20
13.7831144326
 11
27.652935237
 21
13.7500103068
  0
LINE
  5
45B
100
AcDbEntity
  8
6_ALL_SURFS
100
AcDbLine
 62
9
  6
CONTINUOUS
 10
27.2073084094
 20
16.9302530694
 11
24.2007126469
 21
15.1885887513
  0
LINE
  5
45C
100
AcDbEntity
  8
4_ALL_POINTS
100
AcDbLine
 62
9
  6
CONTINUOUS
 10
24.5645664119
 20
15.9550530279
 11
24.6517020113
 21
15.9045770158
  0
LINE
  5
45D
100
AcDbEntity
  8
7_ALL_ROUNDS
100
AcDbLine
 62
7
  6
CONTINUOUS
 10
27.2073084094
 20
19.3929659451
 11
27.2073084094
 21
16.9302530694
  0
LINE
  5
45E
100
AcDbEntity
  8
4_ALL_POINTS
100
AcDbLine
 62
9
  6
CONTINUOUS
 10
27.2872059079
 20
15.9090032217
 11
27.2872059079
 21
16.0094500721
  0
LINE
  5
45F
100
AcDbEntity
  8
6_ALL_SURFS
100
AcDbLine
 62
9
  6
CONTINUOUS
 10
27.2944440088
 20
16.7793302068
 11
24.2878482463
 21
15.0376658887
  0
LINE
  5
460
100
AcDbEntity
  8
4_ALL_POINTS
100
AcDbLine
 62
9
  6
CONTINUOUS
 10
27.4237315221
 20
13.6826675822
 11
27.4237315221
 21
13.7831144326
  0
LINE
  5
461
100
AcDbEntity
  8
4_ALL_POINTS
100
AcDbLine
 62
9
  6
CONTINUOUS
 10
27.652935237
 20
13.6495634564
 11
27.652935237
 21
13.7500103068
  0
LINE
  5
462
100
AcDbEntity
  8
7_ALL_ROUNDS
100
AcDbLine
 62
9
  6
CONTINUOUS
 10
24.2007126469
 20
17.651301627
 11
24.1135770475
 21
17.7017776392
  0
LINE
  5
463
100
AcDbEntity
  8
4_ALL_POINTS
100
AcDbLine
 62
9
  6
CONTINUOUS
 10
24.5645664119
 20
17.880551758
 11
24.6517020113
 21
17.8300757458
  0
LINE
  5
464
100
AcDbEntity
  8
4_ALL_POINTS
100
AcDbLine
 62
9
  6
CONTINUOUS
 10
28.567792992
 20
13.1721622869
 11
28.567792992
 21
13.2356883803
  0
LINE
  5
465
100
AcDbEntity
  8
4_ALL_POINTS
100
AcDbLine
 62
9
  6
CONTINUOUS
 10
28.6234706913
 20
12.8818849005
 11
28.6234706913
 21
12.945410994
  0
LINE
  5
466
100
AcDbEntity
  8
7_ALL_ROUNDS
100
AcDbLine
 62
9
  6
CONTINUOUS
 10
24.5347788427
 20
18.2299196306
 11
24.4476432433
 21
18.2803956428
  0
LINE
  5
467
100
AcDbEntity
  8
7_ALL_ROUNDS
100
AcDbLine
 62
7
  6
CONTINUOUS
 10
27.2944440088
 20
16.7793302068
 11
32.2397372612
 21
13.914614934
  0
LINE
  5
468
100
AcDbEntity
  8
7_ALL_ROUNDS
100
AcDbLine
 62
9
  6
CONTINUOUS
 10
29.2331414987
 20
12.1729506159
 11
29.2331414987
 21
12.0725037655
  0
LINE
  5
469
100
AcDbEntity
  8
4_ALL_POINTS
100
AcDbLine
 62
9
  6
CONTINUOUS
 10
26.8473520834
 20
17.277427788
 11
26.9344876828
 21
17.2269517758
  0
LINE
  5
46A
100
AcDbEntity
  8
4_ALL_POINTS
100
AcDbLine
 62
7
  6
CONTINUOUS
 10
29.5172947476
 20
14.8299986698
 11
29.4601478431
 21
14.9627720664
  0
LINE
  5
46B
100
AcDbEntity
  8
4_ALL_POINTS
100
AcDbLine
 62
9
  6
CONTINUOUS
 10
26.3810513517
 20
17.9058746275
 11
26.4681869511
 21
17.8553986153
  0
LINE
  5
46C
100
AcDbEntity
  8
4_ALL_POINTS
100
AcDbLine
 62
3
  6
CONTINUOUS
 10
29.9185552729
 20
14.9285334676
 11
29.9668204948
 21
14.8163955047
  0
LINE
  5
46D
100
AcDbEntity
  8
4_ALL_POINTS
100
AcDbLine
 62
7
  6
CONTINUOUS
 10
29.9185552729
 20
15.0289803181
 11
29.9757021773
 21
14.8962069214
  0
LINE
  5
46E
100
AcDbEntity
  8
4_ALL_POINTS
100
AcDbLine
 62
7
  6
CONTINUOUS
 10
29.4531316969
 20
14.9959032572
 11
29.4601478431
 21
14.9627720664
  0
LINE
  5
46F
100
AcDbEntity
  8
4_ALL_POINTS
100
AcDbLine
 62
9
  6
CONTINUOUS
 10
29.9185552729
 20
14.9285334676
 11
29.9185552729
 21
15.0289803181
  0
LINE
  5
470
100
AcDbEntity
  8
4_ALL_POINTS
100
AcDbLine
 62
9
  6
CONTINUOUS
 10
29.9757021773
 20
14.8341754018
 11
29.9757021773
 21
14.8962069214
  0
LINE
  5
471
100
AcDbEntity
  8
4_ALL_POINTS
100
AcDbLine
 62
7
  6
CONTINUOUS
 10
29.9827183235
 20
14.8630757306
 11
29.9757021773
 21
14.8962069214
  0
LINE
  5
472
100
AcDbEntity
  8
4_ALL_POINTS
100
AcDbLine
 62
9
  6
CONTINUOUS
 10
30.5165124677
 20
12.0433057844
 11
30.5165124677
 21
12.1068318779
  0
LINE
  5
473
100
AcDbEntity
  8
4_ALL_POINTS
100
AcDbLine
 62
9
  6
CONTINUOUS
 10
30.5165124677
 20
14.3010187893
 11
30.5165124677
 21
14.3645448828
  0
LINE
  5
474
100
AcDbEntity
  8
4_ALL_POINTS
100
AcDbLine
 62
9
  6
CONTINUOUS
 10
30.5652304546
 20
13.1634629425
 11
30.5652304546
 21
13.2639097929
  0
LINE
  5
475
100
AcDbEntity
  8
0
100
AcDbLine
 62
7
  6
CONTINUOUS
 10
30.7957403478
 20
12.8867639814
 11
30.7957403478
 21
13.053640538
  0
LINE
  5
476
100
AcDbEntity
  8
4_ALL_POINTS
100
AcDbLine
 62
9
  6
CONTINUOUS
 10
26.8473520834
 20
19.202926518
 11
26.9344876828
 21
19.1524505058
  0
LINE
  5
477
100
AcDbEntity
  8
0
100
AcDbLine
 62
7
  6
CONTINUOUS
 10
30.9610946785
 20
12.8867639814
 11
30.9610946785
 21
13.053640538
  0
LINE
  5
478
100
AcDbEntity
  8
4_ALL_POINTS
100
AcDbLine
 62
9
  6
CONTINUOUS
 10
31.0176117614
 20
14.2687657464
 11
31.0176117614
 21
14.3322918399
  0
LINE
  5
479
100
AcDbEntity
  8
7_ALL_ROUNDS
100
AcDbLine
 62
9
  6
CONTINUOUS
 10
26.8732422136
 20
19.5845474336
 11
26.7861066142
 21
19.6350234458
  0
LINE
  5
47A
100
AcDbEntity
  8
7_ALL_ROUNDS
100
AcDbLine
 62
7
  6
CONTINUOUS
 10
27.1100544589
 20
19.6082513163
 11
27.0229188595
 21
19.6587273285
  0
LINE
  5
47B
100
AcDbEntity
  8
7_ALL_ROUNDS
100
AcDbLine
 62
9
  6
CONTINUOUS
 10
31.6885280381
 20
12.1729506159
 11
31.6885280381
 21
12.0725037655
  0
LINE
  5
47C
100
AcDbEntity
  8
4_ALL_POINTS
100
AcDbLine
 62
9
  6
CONTINUOUS
 10
31.9084549503
 20
12.3658362137
 11
31.9084549503
 21
12.4293623072
  0
LINE
  5
47D
100
AcDbEntity
  8
0
100
AcDbLine
 62
7
  6
CONTINUOUS
 10
30.9159999602
 20
13.0318697341
 11
30.9158076734
 21
13.0317592284
  0
LINE
  5
47E
100
AcDbEntity
  8
7_ALL_ROUNDS
100
AcDbLine
 62
9
  6
CONTINUOUS
 10
32.2397372612
 20
12.4922557409
 11
32.2397372612
 21
12.3918088904
  0
LINE
  5
47F
100
AcDbEntity
  8
4_ALL_POINTS
100
AcDbLine
 62
9
  6
CONTINUOUS
 10
32.4652319434
 20
13.1721622869
 11
32.4652319434
 21
13.2356883803
  0
LINE
  5
480
100
AcDbEntity
  8
7_ALL_ROUNDS
100
AcDbLine
 62
7
  6
CONTINUOUS
 10
32.7676453672
 20
13.102988487
 11
32.7676453672
 21
13.2034353374
  0
LINE
  5
481
100
AcDbEntity
  8
7_ALL_ROUNDS
100
AcDbLine
 62
7
  6
CONTINUOUS
 10
32.2397372612
 20
12.4922557409
 11
31.6885280381
 21
12.1729506159
  0
LINE
  5
482
100
AcDbEntity
  8
7_ALL_ROUNDS
100
AcDbLine
 62
3
  6
CONTINUOUS
 10
32.2397372612
 20
12.3918088904
 11
31.6885280381
 21
12.0725037655
  0
LINE
  5
483
100
AcDbEntity
  8
7_ALL_ROUNDS
100
AcDbLine
 62
3
  6
CONTINUOUS
 10
5.3725200972
 20
7.2498124653
 11
5.3725200972
 21
11.5017809692
  0
LINE
  5
484
100
AcDbEntity
  8
7_ALL_ROUNDS
100
AcDbLine
 62
7
  6
CONTINUOUS
 10
5.4957484437
 20
11.5017809692
 11
5.4957484437
 21
7.2498124653
  0
LINE
  5
485
100
AcDbEntity
  8
6_ALL_SURFS
100
AcDbLine
 62
9
  6
CONTINUOUS
 10
5.6189767902
 20
11.5017809692
 11
5.6189767902
 21
7.2498124653
  0
LINE
  5
486
100
AcDbEntity
  8
3_AXES_OTHER
100
AcDbLine
 62
7
  6
CENTER
 10
6.5536224595
 20
9.3757967173
 11
6.5536224595
 21
8.1463728645
  0
LINE
  5
487
100
AcDbEntity
  8
3_AXES_OTHER
100
AcDbLine
 62
7
  6
CENTER
 10
6.5536224595
 20
9.3757967173
 11
6.5536224595
 21
10.6011511713
  0
LINE
  5
488
100
AcDbEntity
  8
7_ALL_ROUNDS
100
AcDbLine
 62
7
  6
CONTINUOUS
 10
5.4957484437
 20
7.2498124653
 11
5.3725200972
 21
7.2498124653
  0
LINE
  5
489
100
AcDbEntity
  8
6_ALL_SURFS
100
AcDbLine
 62
7
  6
CONTINUOUS
 10
5.4957484437
 20
7.2498124653
 11
5.6189767902
 21
7.2498124653
  0
LINE
  5
48A
100
AcDbEntity
  8
7_ALL_ROUNDS
100
AcDbLine
 62
7
  6
CONTINUOUS
 10
5.6189767902
 20
7.2498124653
 11
12.6126775776
 21
7.2498124653
  0
LINE
  5
48B
100
AcDbEntity
  8
3_AXES_OTHER
100
AcDbLine
 62
7
  6
CENTER
 10
11.2386618295
 20
7.6828833314
 11
11.0599216721
 21
7.6828833314
  0
LINE
  5
48C
100
AcDbEntity
  8
3_AXES_OTHER
100
AcDbLine
 62
7
  6
CENTER
 10
11.2386618295
 20
7.6828833314
 11
11.417401987
 21
7.6828833314
  0
LINE
  5
48D
100
AcDbEntity
  8
7_ALL_ROUNDS
100
AcDbLine
 62
9
  6
CONTINUOUS
 10
5.4957484437
 20
7.7222534102
 11
5.3725200972
 21
7.7222534102
  0
LINE
  5
48E
100
AcDbEntity
  8
3_AXES_OTHER
100
AcDbLine
 62
7
  6
CENTER
 10
9.4894275241
 20
7.7333524626
 11
9.3894235871
 21
7.7333524626
  0
LINE
  5
48F
100
AcDbEntity
  8
3_AXES_OTHER
100
AcDbLine
 62
7
  6
CENTER
 10
9.4894275241
 20
7.7333524626
 11
9.5894314612
 21
7.7333524626
  0
LINE
  5
490
100
AcDbEntity
  8
3_AXES_OTHER
100
AcDbLine
 62
7
  6
CENTER
 10
9.6919079889
 20
7.855015
 11
9.5919040519
 21
7.855015
  0
LINE
  5
491
100
AcDbEntity
  8
3_AXES_OTHER
100
AcDbLine
 62
7
  6
CENTER
 10
9.6919079889
 20
7.855015
 11
9.7919119259
 21
7.855015
  0
LINE
  5
492
100
AcDbEntity
  8
3_AXES_OTHER
100
AcDbLine
 62
7
  6
CENTER
 10
13.6008665539
 20
7.9978439613
 11
13.4698154695
 21
7.9978439613
  0
LINE
  5
493
100
AcDbEntity
  8
3_AXES_OTHER
100
AcDbLine
 62
7
  6
CENTER
 10
10.8449610421
 20
7.9978439613
 11
10.6662208847
 21
7.9978439613
  0
LINE
  5
494
100
AcDbEntity
  8
3_AXES_OTHER
100
AcDbLine
 62
7
  6
CENTER
 10
10.8449610421
 20
7.9978439613
 11
13.4698154695
 21
7.9978439613
  0
LINE
  5
495
100
AcDbEntity
  8
3_AXES_OTHER
100
AcDbLine
 62
7
  6
CENTER
 10
13.6008665539
 20
7.9978439613
 11
13.7361798621
 21
7.9978439613
  0
LINE
  5
496
100
AcDbEntity
  8
3_AXES_OTHER
100
AcDbLine
 62
7
  6
CENTER
 10
9.4894275241
 20
11.0182409719
 11
9.4894275241
 21
10.9182370349
  0
LINE
  5
497
100
AcDbEntity
  8
3_AXES_OTHER
100
AcDbLine
 62
7
  6
CENTER
 10
9.4894275241
 20
7.7333524626
 11
9.4894275241
 21
7.6333485256
  0
LINE
  5
498
100
AcDbEntity
  8
3_AXES_OTHER
100
AcDbLine
 62
7
  6
CENTER
 10
9.4894275241
 20
7.7333524626
 11
9.4894275241
 21
7.8333563996
  0
LINE
  5
499
100
AcDbEntity
  8
3_AXES_OTHER
100
AcDbLine
 62
7
  6
CENTER
 10
9.4894275241
 20
11.0182409719
 11
9.4894275241
 21
11.1182449089
  0
LINE
  5
49A
100
AcDbEntity
  8
3_AXES_OTHER
100
AcDbLine
 62
7
  6
CENTER
 10
9.6919079889
 20
10.8965784345
 11
9.6919079889
 21
10.7965744975
  0
LINE
  5
49B
100
AcDbEntity
  8
3_AXES_OTHER
100
AcDbLine
 62
7
  6
CENTER
 10
9.6919079889
 20
7.855015
 11
9.6919079889
 21
7.755011063
  0
LINE
  5
49C
100
AcDbEntity
  8
3_AXES_OTHER
100
AcDbLine
 62
7
  6
CENTER
 10
9.6919079889
 20
7.855015
 11
9.6919079889
 21
7.955018937
  0
LINE
  5
49D
100
AcDbEntity
  8
3_AXES_OTHER
100
AcDbLine
 62
7
  6
CENTER
 10
9.6919079889
 20
10.8965784345
 11
9.6919079889
 21
10.9965823715
  0
LINE
  5
49E
100
AcDbEntity
  8
3_AXES_OTHER
100
AcDbLine
 62
7
  6
CENTER
 10
14.191417735
 20
9.3757967173
 11
14.0126775776
 21
9.3757967173
  0
LINE
  5
49F
100
AcDbEntity
  8
3_AXES_OTHER
100
AcDbLine
 62
7
  6
CENTER
 10
12.8134649791
 20
9.3757967173
 11
12.6740949004
 21
9.3757967173
  0
LINE
  5
4A0
100
AcDbEntity
  8
3_AXES_OTHER
100
AcDbLine
 62
7
  6
CENTER
 10
6.5536224595
 20
9.3757967173
 11
6.4536185224
 21
9.3757967173
  0
LINE
  5
4A1
100
AcDbEntity
  8
3_AXES_OTHER
100
AcDbLine
 62
7
  6
CENTER
 10
12.222913798
 20
9.3757967173
 11
6.5536224595
 21
9.3757967173
  0
LINE
  5
4A2
100
AcDbEntity
  8
3_AXES_OTHER
100
AcDbLine
 62
7
  6
CENTER
 10
6.4536185224
 20
9.3757967173
 11
5.2449355172
 21
9.3757967173
  0
LINE
  5
4A3
100
AcDbEntity
  8
3_AXES_OTHER
100
AcDbLine
 62
7
  6
CENTER
 10
12.222913798
 20
9.3757967173
 11
12.6740949004
 21
9.3757967173
  0
LINE
  5
4A4
100
AcDbEntity
  8
3_AXES_OTHER
100
AcDbLine
 62
7
  6
CENTER
 10
14.191417735
 20
9.3757967173
 11
14.4225781838
 21
9.3757967173
  0
LINE
  5
4A5
100
AcDbEntity
  8
3_AXES_OTHER
100
AcDbLine
 62
7
  6
CENTER
 10
12.8134649791
 20
9.3757967173
 11
14.0126775776
 21
9.3757967173
  0
LINE
  5
4A6
100
AcDbEntity
  8
3_AXES_OTHER
100
AcDbLine
 62
7
  6
CENTER
 10
10.8449610421
 20
10.7537494732
 11
10.8449610421
 21
8.1415731965
  0
LINE
  5
4A7
100
AcDbEntity
  8
3_AXES_OTHER
100
AcDbLine
 62
7
  6
CENTER
 10
10.8449610421
 20
7.9978439613
 11
10.8449610421
 21
7.8191038039
  0
LINE
  5
4A8
100
AcDbEntity
  8
3_AXES_OTHER
100
AcDbLine
 62
7
  6
CENTER
 10
10.8449610421
 20
7.9978439613
 11
10.8449610421
 21
8.1415731965
  0
LINE
  5
4A9
100
AcDbEntity
  8
3_AXES_OTHER
100
AcDbLine
 62
7
  6
CENTER
 10
10.8449610421
 20
10.7537494732
 11
10.8449610421
 21
10.9363071882
  0
LINE
  5
4AA
100
AcDbEntity
  8
4_ALL_POINTS
100
AcDbLine
 62
7
  6
CONTINUOUS
 10
9.3677649868
 20
7.9358329274
 11
9.5702454515
 21
8.0574954647
  0
LINE
  5
4AB
100
AcDbEntity
  8
4_ALL_POINTS
100
AcDbLine
 62
7
  6
CONTINUOUS
 10
9.5702454515
 20
10.6940979698
 11
9.3677649868
 21
10.8157605072
  0
LINE
  5
4AC
100
AcDbEntity
  8
3_AXES_OTHER
100
AcDbLine
 62
7
  6
CENTER
 10
11.2386618295
 20
11.0687101031
 11
11.2386618295
 21
10.8807212145
  0
LINE
  5
4AD
100
AcDbEntity
  8
3_AXES_OTHER
100
AcDbLine
 62
7
  6
CENTER
 10
11.2386618295
 20
7.6828833314
 11
11.2386618295
 21
7.5041431739
  0
LINE
  5
4AE
100
AcDbEntity
  8
3_AXES_OTHER
100
AcDbLine
 62
7
  6
CENTER
 10
11.2386618295
 20
7.6828833314
 11
11.2386618295
 21
10.8807212145
  0
LINE
  5
4AF
100
AcDbEntity
  8
3_AXES_OTHER
100
AcDbLine
 62
7
  6
CENTER
 10
11.2386618295
 20
11.0687101031
 11
11.2386618295
 21
11.2566989916
  0
LINE
  5
4B0
100
AcDbEntity
  8
4_ALL_POINTS
100
AcDbLine
 62
7
  6
CONTINUOUS
 10
9.8135705263
 20
7.6525345353
 11
9.6110900615
 21
7.5308719979
  0
LINE
  5
4B1
100
AcDbEntity
  8
3_AXES_OTHER
100
AcDbLine
 62
7
  6
CENTER
 10
13.6008665539
 20
10.7537494732
 11
13.4438726827
 21
10.7537494732
  0
LINE
  5
4B2
100
AcDbEntity
  8
3_AXES_OTHER
100
AcDbLine
 62
7
  6
CENTER
 10
10.8449610421
 20
10.7537494732
 11
10.6624033271
 21
10.7537494732
  0
LINE
  5
4B3
100
AcDbEntity
  8
3_AXES_OTHER
100
AcDbLine
 62
7
  6
CENTER
 10
10.8449610421
 20
10.7537494732
 11
13.4438726827
 21
10.7537494732
  0
LINE
  5
4B4
100
AcDbEntity
  8
3_AXES_OTHER
100
AcDbLine
 62
7
  6
CENTER
 10
13.6008665539
 20
10.7537494732
 11
13.7750583706
 21
10.7537494732
  0
LINE
  5
4B5
100
AcDbEntity
  8
3_AXES_OTHER
100
AcDbLine
 62
7
  6
CENTER
 10
9.6919079889
 20
10.8965784345
 11
9.5919040519
 21
10.8965784345
  0
LINE
  5
4B6
100
AcDbEntity
  8
3_AXES_OTHER
100
AcDbLine
 62
7
  6
CENTER
 10
9.6919079889
 20
10.8965784345
 11
9.7919119259
 21
10.8965784345
  0
LINE
  5
4B7
100
AcDbEntity
  8
3_AXES_OTHER
100
AcDbLine
 62
7
  6
CENTER
 10
9.4894275241
 20
11.0182409719
 11
9.3894235871
 21
11.0182409719
  0
LINE
  5
4B8
100
AcDbEntity
  8
3_AXES_OTHER
100
AcDbLine
 62
7
  6
CENTER
 10
9.4894275241
 20
11.0182409719
 11
9.5894314612
 21
11.0182409719
  0
LINE
  5
4B9
100
AcDbEntity
  8
7_ALL_ROUNDS
100
AcDbLine
 62
9
  6
CONTINUOUS
 10
5.4957484437
 20
11.0293400243
 11
5.3725200972
 21
11.0293400243
  0
LINE
  5
4BA
100
AcDbEntity
  8
3_AXES_OTHER
100
AcDbLine
 62
7
  6
CENTER
 10
11.2386618295
 20
11.0687101031
 11
11.050672941
 21
11.0687101031
  0
LINE
  5
4BB
100
AcDbEntity
  8
3_AXES_OTHER
100
AcDbLine
 62
7
  6
CENTER
 10
11.2386618295
 20
11.0687101031
 11
11.4266507181
 21
11.0687101031
  0
LINE
  5
4BC
100
AcDbEntity
  8
4_ALL_POINTS
100
AcDbLine
 62
7
  6
CONTINUOUS
 10
9.6110900615
 20
11.2207214366
 11
9.8135705263
 21
11.0990588992
  0
LINE
  5
4BD
100
AcDbEntity
  8
7_ALL_ROUNDS
100
AcDbLine
 62
7
  6
CONTINUOUS
 10
5.4957484437
 20
11.5017809692
 11
5.3725200972
 21
11.5017809692
  0
LINE
  5
4BE
100
AcDbEntity
  8
6_ALL_SURFS
100
AcDbLine
 62
7
  6
CONTINUOUS
 10
5.4957484437
 20
11.5017809692
 11
5.6189767902
 21
11.5017809692
  0
LINE
  5
4BF
100
AcDbEntity
  8
7_ALL_ROUNDS
100
AcDbLine
 62
7
  6
CONTINUOUS
 10
5.6189767902
 20
11.5017809692
 11
12.6126775776
 21
11.5017809692
  0
LINE
  5
4C0
100
AcDbEntity
  8
3_AXES_OTHER
100
AcDbLine
 62
7
  6
CENTER
 10
12.222913798
 20
9.3757967173
 11
12.222913798
 21
9.128158922
  0
LINE
  5
4C1
100
AcDbEntity
  8
3_AXES_OTHER
100
AcDbLine
 62
7
  6
CENTER
 10
12.222913798
 20
9.3757967173
 11
12.222913798
 21
9.6234345125
  0
LINE
  5
4C2
100
AcDbEntity
  8
3_AXES_OTHER
100
AcDbLine
 62
7
  6
CENTER
 10
12.8134649791
 20
9.3757967173
 11
12.8134649791
 21
9.2364266385
  0
LINE
  5
4C3
100
AcDbEntity
  8
3_AXES_OTHER
100
AcDbLine
 62
7
  6
CENTER
 10
12.8134649791
 20
9.3757967173
 11
12.8134649791
 21
9.515166796
  0
LINE
  5
4C4
100
AcDbEntity
  8
3_AXES_OTHER
100
AcDbLine
 62
7
  6
CENTER
 10
13.6008665539
 20
10.7537494732
 11
13.6008665539
 21
10.5988566667
  0
LINE
  5
4C5
100
AcDbEntity
  8
3_AXES_OTHER
100
AcDbLine
 62
7
  6
CENTER
 10
13.6008665539
 20
7.9978439613
 11
13.6008665539
 21
7.8648543188
  0
LINE
  5
4C6
100
AcDbEntity
  8
3_AXES_OTHER
100
AcDbLine
 62
7
  6
CENTER
 10
13.6008665539
 20
7.9978439613
 11
13.6008665539
 21
10.5988566667
  0
LINE
  5
4C7
100
AcDbEntity
  8
3_AXES_OTHER
100
AcDbLine
 62
7
  6
CENTER
 10
13.6008665539
 20
10.7537494732
 11
13.6008665539
 21
10.9279412898
  0
LINE
  5
4C8
100
AcDbEntity
  8
3_AXES_OTHER
100
AcDbLine
 62
7
  6
CENTER
 10
14.191417735
 20
9.3757967173
 11
14.191417735
 21
9.1970565598
  0
LINE
  5
4C9
100
AcDbEntity
  8
3_AXES_OTHER
100
AcDbLine
 62
7
  6
CENTER
 10
14.191417735
 20
9.3757967173
 11
14.191417735
 21
9.5545368747
  0
LINE
  5
4CA
100
AcDbEntity
  8
7_ALL_ROUNDS
100
AcDbLine
 62
7
  6
CONTINUOUS
 10
14.34889805
 20
9.7655604968
 11
14.34889805
 21
8.9860329377
  0
LINE
  5
4CB
100
AcDbEntity
  8
7_ALL_ROUNDS
100
AcDbLine
 62
3
  6
CONTINUOUS
 10
5.3725200972
 20
15.9831398521
 11
5.3725200972
 21
19.4768406395
  0
LINE
  5
4CC
100
AcDbEntity
  8
7_ALL_ROUNDS
100
AcDbLine
 62
7
  6
CONTINUOUS
 10
5.4957484437
 20
15.9831398521
 11
5.4957484437
 21
19.4768406395
  0
LINE
  5
4CD
100
AcDbEntity
  8
6_ALL_SURFS
100
AcDbLine
 62
9
  6
CONTINUOUS
 10
5.6189767902
 20
19.7232973324
 11
5.6189767902
 21
19.600068986
  0
LINE
  5
4CE
100
AcDbEntity
  8
7_ALL_ROUNDS
100
AcDbLine
 62
7
  6
CONTINUOUS
 10
5.4957484437
 20
15.9831398521
 11
5.3725200972
 21
15.9831398521
  0
LINE
  5
4CF
100
AcDbEntity
  8
7_ALL_ROUNDS
100
AcDbLine
 62
9
  6
CONTINUOUS
 10
5.4957484437
 20
16.455580797
 11
5.3725200972
 21
16.455580797
  0
LINE
  5
4D0
100
AcDbEntity
  8
6_ALL_SURFS
100
AcDbLine
 62
9
  6
CONTINUOUS
 10
5.3725200972
 20
19.4768406395
 11
5.4957484437
 21
19.4768406395
  0
LINE
  5
4D1
100
AcDbEntity
  8
0
100
AcDbLine
 62
7
  6
CONTINUOUS
 10
12.8961421445
 20
19.48707686
 11
12.7307878138
 21
19.48707686
  0
LINE
  5
4D2
100
AcDbEntity
  8
7_ALL_ROUNDS
100
AcDbLine
 62
7
  6
CONTINUOUS
 10
5.6189767902
 20
19.600068986
 11
14.34889805
 21
19.600068986
  0
LINE
  5
4D3
100
AcDbEntity
  8
7_ALL_ROUNDS
100
AcDbLine
 62
3
  6
CONTINUOUS
 10
5.6189767902
 20
19.7232973324
 11
14.34889805
 21
19.7232973324
  0
LINE
  5
4D4
100
AcDbEntity
  8
7_ALL_ROUNDS
100
AcDbLine
 62
9
  6
CONTINUOUS
 10
12.6126775776
 20
19.600068986
 11
12.6126775776
 21
19.7232973324
  0
LINE
  5
4D5
100
AcDbEntity
  8
0
100
AcDbLine
 62
7
  6
CONTINUOUS
 10
12.7307878138
 20
19.600068986
 11
12.7307878138
 21
19.48707686
  0
LINE
  5
4D6
100
AcDbEntity
  8
3_AXES_OTHER
100
AcDbLine
 62
7
  6
CENTER
 10
12.8134649791
 20
19.38707686
 11
12.8134649791
 21
19.8232973324
  0
LINE
  5
4D7
100
AcDbEntity
  8
0
100
AcDbLine
 62
7
  6
CONTINUOUS
 10
12.8961421445
 20
19.600068986
 11
12.8961421445
 21
19.48707686
  0
LINE
  5
4D8
100
AcDbEntity
  8
7_ALL_ROUNDS
100
AcDbLine
 62
7
  6
CONTINUOUS
 10
14.34889805
 20
19.600068986
 11
14.34889805
 21
19.7232973324
  0
LINE
  5
4D9
100
AcDbEntity
  8
7_ALL_ROUNDS
100
AcDbLine
 62
7
  6
CONTINUOUS
 10
20.1241563478
 20
7.2498124653
 11
23.1454161903
 21
7.2498124653
  0
LINE
  5
4DA
100
AcDbEntity
  8
6_ALL_SURFS
100
AcDbLine
 62
7
  6
CONTINUOUS
 10
23.1454161903
 20
7.2498124653
 11
23.2686445368
 21
7.2498124653
  0
LINE
  5
4DB
100
AcDbEntity
  8
7_ALL_ROUNDS
100
AcDbLine
 62
7
  6
CONTINUOUS
 10
23.2686445368
 20
7.2498124653
 11
23.3918728832
 21
7.2498124653
  0
LINE
  5
4DC
100
AcDbEntity
  8
7_ALL_ROUNDS
100
AcDbLine
 62
7
  6
CONTINUOUS
 10
19.6517154029
 20
11.0293400243
 11
19.6517154029
 21
7.7222534102
  0
LINE
  5
4DD
100
AcDbEntity
  8
3_AXES_OTHER
100
AcDbLine
 62
7
  6
CENTER
 10
22.5875421746
 20
7.7616234889
 11
22.3615579226
 21
7.7616234889
  0
LINE
  5
4DE
100
AcDbEntity
  8
3_AXES_OTHER
100
AcDbLine
 62
7
  6
CENTER
 10
20.2253374502
 20
7.7616234889
 11
19.9993531982
 21
7.7616234889
  0
LINE
  5
4DF
100
AcDbEntity
  8
3_AXES_OTHER
100
AcDbLine
 62
7
  6
CENTER
 10
20.2253374502
 20
7.7616234889
 11
22.3615579226
 21
7.7616234889
  0
LINE
  5
4E0
100
AcDbEntity
  8
3_AXES_OTHER
100
AcDbLine
 62
7
  6
CENTER
 10
22.5875421746
 20
7.7616234889
 11
22.8135264265
 21
7.7616234889
  0
LINE
  5
4E1
100
AcDbEntity
  8
3_AXES_OTHER
100
AcDbLine
 62
7
  6
CENTER
 10
20.2253374502
 20
10.9899699456
 11
20.2253374502
 21
7.9556830536
  0
LINE
  5
4E2
100
AcDbEntity
  8
3_AXES_OTHER
100
AcDbLine
 62
7
  6
CENTER
 10
20.2253374502
 20
7.7616234889
 11
20.2253374502
 21
7.5356392369
  0
LINE
  5
4E3
100
AcDbEntity
  8
3_AXES_OTHER
100
AcDbLine
 62
7
  6
CENTER
 10
20.2253374502
 20
7.7616234889
 11
20.2253374502
 21
7.9556830536
  0
LINE
  5
4E4
100
AcDbEntity
  8
3_AXES_OTHER
100
AcDbLine
 62
7
  6
CENTER
 10
20.2253374502
 20
10.9899699456
 11
20.2253374502
 21
11.2168079302
  0
LINE
  5
4E5
100
AcDbEntity
  8
7_ALL_ROUNDS
100
AcDbLine
 62
9
  6
CONTINUOUS
 10
23.2686445368
 20
8.9860329377
 11
23.3918728832
 21
8.9860329377
  0
LINE
  5
4E6
100
AcDbEntity
  8
3_AXES_OTHER
100
AcDbLine
 62
7
  6
CENTER
 10
21.4851799698
 20
9.3757967173
 11
21.4851799698
 21
6.97678
  0
LINE
  5
4E7
100
AcDbEntity
  8
3_AXES_OTHER
100
AcDbLine
 62
7
  6
CENTER
 10
21.4851799698
 20
9.3757967173
 11
21.4851799698
 21
11.76398
  0
LINE
  5
4E8
100
AcDbEntity
  8
0
100
AcDbLine
 62
7
  6
CONTINUOUS
 10
23.2686445368
 20
9.2931195519
 11
23.1556524108
 21
9.2931195519
  0
LINE
  5
4E9
100
AcDbEntity
  8
3_AXES_OTHER
100
AcDbLine
 62
7
  6
CENTER
 10
21.4851799698
 20
9.3757967173
 11
19.2494547186
 21
9.3757967173
  0
LINE
  5
4EA
100
AcDbEntity
  8
3_AXES_OTHER
100
AcDbLine
 62
7
  6
CENTER
 10
21.4851799698
 20
9.3757967173
 11
23.0454161903
 21
9.3757967173
  0
LINE
  5
4EB
100
AcDbEntity
  8
3_AXES_OTHER
100
AcDbLine
 62
7
  6
CENTER
 10
23.3686445368
 20
9.3757967173
 11
23.7209052211
 21
9.3757967173
  0
LINE
  5
4EC
100
AcDbEntity
  8
3_AXES_OTHER
100
AcDbLine
 62
7
  6
CENTER
 10
23.0454161903
 20
9.3757967173
 11
23.3686445368
 21
9.3757967173
  0
LINE
  5
4ED
100
AcDbEntity
  8
0
100
AcDbLine
 62
7
  6
CONTINUOUS
 10
23.2686445368
 20
9.4584738826
 11
23.1556524108
 21
9.4584738826
  0
LINE
  5
4EE
100
AcDbEntity
  8
7_ALL_ROUNDS
100
AcDbLine
 62
9
  6
CONTINUOUS
 10
23.2686445368
 20
9.7655604968
 11
23.3918728832
 21
9.7655604968
  0
LINE
  5
4EF
100
AcDbEntity
  8
3_AXES_OTHER
100
AcDbLine
 62
7
  6
CENTER
 10
22.5875421746
 20
10.9899699456
 11
22.5875421746
 21
7.9755779108
  0
LINE
  5
4F0
100
AcDbEntity
  8
3_AXES_OTHER
100
AcDbLine
 62
7
  6
CENTER
 10
22.5875421746
 20
7.7616234889
 11
22.5875421746
 21
7.5356392369
  0
LINE
  5
4F1
100
AcDbEntity
  8
3_AXES_OTHER
100
AcDbLine
 62
7
  6
CENTER
 10
22.5875421746
 20
7.7616234889
 11
22.5875421746
 21
7.9755779108
  0
LINE
  5
4F2
100
AcDbEntity
  8
3_AXES_OTHER
100
AcDbLine
 62
7
  6
CENTER
 10
22.5875421746
 20
10.9899699456
 11
22.5875421746
 21
11.2298543382
  0
LINE
  5
4F3
100
AcDbEntity
  8
6_ALL_SURFS
100
AcDbLine
 62
9
  6
CONTINUOUS
 10
23.1454161903
 20
11.5017809692
 11
23.1454161903
 21
7.2498124653
  0
LINE
  5
4F4
100
AcDbEntity
  8
0
100
AcDbLine
 62
7
  6
CONTINUOUS
 10
23.1556524108
 20
9.2931205206
 11
23.1556524108
 21
9.4584729139
  0
LINE
  5
4F5
100
AcDbEntity
  8
3_AXES_OTHER
100
AcDbLine
 62
7
  6
CENTER
 10
22.5875421746
 20
10.9899699456
 11
20.3306786052
 21
10.9899699456
  0
LINE
  5
4F6
100
AcDbEntity
  8
3_AXES_OTHER
100
AcDbLine
 62
7
  6
CENTER
 10
20.2253374502
 20
10.9899699456
 11
19.9984994656
 21
10.9899699456
  0
LINE
  5
4F7
100
AcDbEntity
  8
3_AXES_OTHER
100
AcDbLine
 62
7
  6
CENTER
 10
20.2253374502
 20
10.9899699456
 11
20.3306786052
 21
10.9899699456
  0
LINE
  5
4F8
100
AcDbEntity
  8
3_AXES_OTHER
100
AcDbLine
 62
7
  6
CENTER
 10
22.5875421746
 20
10.9899699456
 11
22.8274265671
 21
10.9899699456
  0
LINE
  5
4F9
100
AcDbEntity
  8
7_ALL_ROUNDS
100
AcDbLine
 62
7
  6
CONTINUOUS
 10
23.2686445368
 20
7.2498124653
 11
23.2686445368
 21
11.5017809692
  0
LINE
  5
4FA
100
AcDbEntity
  8
7_ALL_ROUNDS
100
AcDbLine
 62
3
  6
CONTINUOUS
 10
23.3918728832
 20
11.5017809692
 11
23.3918728832
 21
7.2498124653
  0
LINE
  5
4FB
100
AcDbEntity
  8
7_ALL_ROUNDS
100
AcDbLine
 62
7
  6
CONTINUOUS
 10
20.1241563478
 20
11.5017809692
 11
23.1454161903
 21
11.5017809692
  0
LINE
  5
4FC
100
AcDbEntity
  8
6_ALL_SURFS
100
AcDbLine
 62
7
  6
CONTINUOUS
 10
23.1454161903
 20
11.5017809692
 11
23.3918728832
 21
11.5017809692
  0
LINE
  5
4FD
100
AcDbEntity
  8
7_ALL_ROUNDS
100
AcDbLine
 62
7
  6
CONTINUOUS
 10
23.2686445368
 20
11.5017809692
 11
23.3918728832
 21
11.5017809692
  0
ARC
  5
4FE
100
AcDbEntity
  8
7_ALL_ROUNDS
100
AcDbCircle
 62
7
  6
CONTINUOUS
 10
32.2012978815
 20
13.2059422182
 40
0.5665358425
100
AcDbArc
 50
348.7255657274
 51
349.6256148607
  0
ARC
  5
4FF
100
AcDbEntity
  8
7_ALL_ROUNDS
100
AcDbCircle
 62
7
  6
CONTINUOUS
 10
32.214629947
 20
13.2036860948
 40
0.553015477
100
AcDbArc
 50
349.6068010332
 51
359.9740200068
  0
ARC
  5
500
100
AcDbEntity
  8
4_ALL_POINTS
100
AcDbCircle
 62
3
  6
CONTINUOUS
 10
25.263077959
 20
16.8599008943
 40
0.3816792917
100
AcDbArc
 50
253.7629351967
 51
254.9182347958
  0
ARC
  5
501
100
AcDbEntity
  8
4_ALL_POINTS
100
AcDbCircle
 62
3
  6
CONTINUOUS
 10
25.96861639
 20
18.0747833503
 40
0.3753530702
100
AcDbArc
 50
44.5939061076
 51
51.9979401596
  0
ARC
  5
502
100
AcDbEntity
  8
4_ALL_POINTS
100
AcDbCircle
 62
3
  6
CONTINUOUS
 10
25.2605229387
 20
16.8514395382
 40
0.3728410289
100
AcDbArc
 50
248.1113990787
 51
253.7763369508
  0
ARC
  5
503
100
AcDbEntity
  8
4_ALL_POINTS
100
AcDbCircle
 62
3
  6
CONTINUOUS
 10
26.6996481271
 20
17.2243169892
 40
0.1169407489
100
AcDbArc
 50
299.2513283452
 51
300.0844818314
  0
ARC
  5
504
100
AcDbEntity
  8
4_ALL_POINTS
100
AcDbCircle
 62
3
  6
CONTINUOUS
 10
24.4168624555
 20
15.9019422291
 40
0.1169407489
100
AcDbArc
 50
299.2513283452
 51
300.0844818314
  0
ARC
  5
505
100
AcDbEntity
  8
4_ALL_POINTS
100
AcDbCircle
 62
3
  6
CONTINUOUS
 10
26.6996481271
 20
19.1498157192
 40
0.1169407489
100
AcDbArc
 50
299.2513283452
 51
300.0844818314
  0
ARC
  5
506
100
AcDbEntity
  8
4_ALL_POINTS
100
AcDbCircle
 62
3
  6
CONTINUOUS
 10
24.4168624555
 20
17.8274409592
 40
0.1169407489
100
AcDbArc
 50
299.2513283451
 51
300.0844818316
  0
ARC
  5
507
100
AcDbEntity
  8
4_ALL_POINTS
100
AcDbCircle
 62
3
  6
CONTINUOUS
 10
29.565068376
 20
14.8806665792
 40
0.1154695801
100
AcDbArc
 50
142.1324415539
 51
147.6481387634
  0
ARC
  5
508
100
AcDbEntity
  8
4_ALL_POINTS
100
AcDbCircle
 62
3
  6
CONTINUOUS
 10
24.4491236057
 20
17.8805538177
 40
0.1154428062
100
AcDbArc
 50
359.9989777572
 51
0.7033039935
  0
ARC
  5
509
100
AcDbEntity
  8
4_ALL_POINTS
100
AcDbCircle
 62
3
  6
CONTINUOUS
 10
26.7319092774
 20
19.2029285777
 40
0.1154428061
100
AcDbArc
 50
359.9989777568
 51
0.7033039936
  0
ARC
  5
50A
100
AcDbEntity
  8
4_ALL_POINTS
100
AcDbCircle
 62
3
  6
CONTINUOUS
 10
24.4491236058
 20
15.9550550876
 40
0.1154428061
100
AcDbArc
 50
359.9989777568
 51
0.7033039936
  0
ARC
  5
50B
100
AcDbEntity
  8
4_ALL_POINTS
100
AcDbCircle
 62
3
  6
CONTINUOUS
 10
26.7319092774
 20
17.2774298476
 40
0.1154428061
100
AcDbArc
 50
359.9989777568
 51
0.7033039936
  0
ARC
  5
50C
100
AcDbEntity
  8
4_ALL_POINTS
100
AcDbCircle
 62
3
  6
CONTINUOUS
 10
30.4131963529
 20
13.0629956839
 40
0.1153397233
100
AcDbArc
 50
124.7866854512
 51
127.7115333923
  0
ARC
  5
50D
100
AcDbEntity
  8
0
100
AcDbCircle
 62
7
  6
CONTINUOUS
 10
30.86812524
 20
13.0791577168
 40
0.0545978874
100
AcDbArc
 50
240.2413244299
 51
244.6911788314
  0
ARC
  5
50E
100
AcDbEntity
  8
0
100
AcDbCircle
 62
7
  6
CONTINUOUS
 10
30.8895543671
 20
13.0775811612
 40
0.0528101717
100
AcDbArc
 50
296.1287526748
 51
299.8103724091
  0
ARC
  5
50F
100
AcDbEntity
  8
0
100
AcDbCircle
 62
7
  6
CONTINUOUS
 10
30.8951350957
 20
13.0568088597
 40
0.0319619948
100
AcDbArc
 50
309.6716321922
 51
310.0495440471
  0
ARC
  5
510
100
AcDbEntity
  8
0
100
AcDbCircle
 62
7
  6
CONTINUOUS
 10
30.861432969
 20
13.0564856497
 40
0.031542852
100
AcDbArc
 50
229.0808634705
 51
230.319926293
  0
ARC
  5
511
100
AcDbEntity
  8
0
100
AcDbCircle
 62
7
  6
CONTINUOUS
 10
30.8955184959
 20
13.0563540426
 40
0.0313671388
100
AcDbArc
 50
310.0480163563
 51
310.9147520378
  0
ARC
  5
512
100
AcDbEntity
  8
4_ALL_POINTS
100
AcDbCircle
 62
7
  6
CONTINUOUS
 10
9.4894275241
 20
7.7333524626
 40
0.2362204724
100
AcDbArc
 50
121.0
 51
301.0
  0
ARC
  5
513
100
AcDbEntity
  8
4_ALL_POINTS
100
AcDbCircle
 62
7
  6
CONTINUOUS
 10
9.6919079889
 20
7.855015
 40
0.2362204724
100
AcDbArc
 50
301.0
 51
121.0
  0
ARC
  5
514
100
AcDbEntity
  8
4_ALL_POINTS
100
AcDbCircle
 62
7
  6
CONTINUOUS
 10
9.4894275241
 20
11.0182409719
 40
0.2362204724
100
AcDbArc
 50
59.0
 51
239.0
  0
ARC
  5
515
100
AcDbEntity
  8
4_ALL_POINTS
100
AcDbCircle
 62
7
  6
CONTINUOUS
 10
9.6919079889
 20
10.8965784345
 40
0.2362204724
100
AcDbArc
 50
239.0
 51
59.0
  0
CIRCLE
  5
516
100
AcDbEntity
  8
4_ALL_POINTS
100
AcDbCircle
 62
7
  6
CONTINUOUS
 10
12.222913798
 20
9.3757967173
 40
0.1476377953
  0
CIRCLE
  5
517
100
AcDbEntity
  8
0
100
AcDbCircle
 62
7
  6
CONTINUOUS
 10
12.8134649791
 20
9.3757967173
 40
0.0826771654
  0
CIRCLE
  5
518
100
AcDbEntity
  8
4_ALL_POINTS
100
AcDbCircle
 62
7
  6
CONTINUOUS
 10
14.191417735
 20
9.3757967173
 40
0.0787401575
  0
CIRCLE
  5
519
100
AcDbEntity
  8
4_ALL_POINTS
100
AcDbCircle
 62
7
  6
CONTINUOUS
 10
13.6008665539
 20
7.9978439613
 40
0.0787401575
  0
CIRCLE
  5
51A
100
AcDbEntity
  8
4_ALL_POINTS
100
AcDbCircle
 62
7
  6
CONTINUOUS
 10
11.2386618295
 20
7.6828833314
 40
0.0787401575
  0
CIRCLE
  5
51B
100
AcDbEntity
  8
4_ALL_POINTS
100
AcDbCircle
 62
7
  6
CONTINUOUS
 10
10.8449610421
 20
7.9978439613
 40
0.0787401575
  0
CIRCLE
  5
51C
100
AcDbEntity
  8
4_ALL_POINTS
100
AcDbCircle
 62
7
  6
CONTINUOUS
 10
13.6008665539
 20
10.7537494732
 40
0.0787401575
  0
CIRCLE
  5
51D
100
AcDbEntity
  8
4_ALL_POINTS
100
AcDbCircle
 62
7
  6
CONTINUOUS
 10
11.2386618295
 20
11.0687101031
 40
0.0787401575
  0
CIRCLE
  5
51E
100
AcDbEntity
  8
4_ALL_POINTS
100
AcDbCircle
 62
7
  6
CONTINUOUS
 10
10.8449610421
 20
10.7537494732
 40
0.0787401575
  0
CIRCLE
  5
51F
100
AcDbEntity
  8
0
100
AcDbCircle
 62
7
  6
CONTINUOUS
 10
12.8134649791
 20
9.3757967173
 40
0.0531496063
  0
CIRCLE
  5
520
100
AcDbEntity
  8
0
100
AcDbCircle
 62
7
  6
CONTINUOUS
 10
12.8134649791
 20
9.3757967173
 40
0.0452755906
  0
CIRCLE
  5
521
100
AcDbEntity
  8
4_ALL_POINTS
100
AcDbCircle
 62
7
  6
CONTINUOUS
 10
12.8134649791
 20
9.3757967173
 40
0.0393700787
  0
ARC
  5
522
100
AcDbEntity
  8
6_ALL_SURFS
100
AcDbCircle
 62
3
  6
CONTINUOUS
 10
5.6189767902
 20
19.4768406395
 40
0.2464566929
100
AcDbArc
 50
90.0
 51
180.0
  0
ARC
  5
523
100
AcDbEntity
  8
6_ALL_SURFS
100
AcDbCircle
 62
7
  6
CONTINUOUS
 10
5.6189767902
 20
19.4768406395
 40
0.1232283465
100
AcDbArc
 50
90.0
 51
180.0
  0
CIRCLE
  5
524
100
AcDbEntity
  8
4_ALL_POINTS
100
AcDbCircle
 62
7
  6
CONTINUOUS
 10
21.4851799698
 20
9.3757967173
 40
1.0807086614
  0
ARC
  5
525
100
AcDbEntity
  8
7_ALL_ROUNDS
100
AcDbCircle
 62
7
  6
CONTINUOUS
 10
20.1241563478
 20
11.0293400243
 40
0.4724409449
100
AcDbArc
 50
90.0
 51
180.0
  0
ARC
  5
526
100
AcDbEntity
  8
7_ALL_ROUNDS
100
AcDbCircle
 62
7
  6
CONTINUOUS
 10
20.1241563478
 20
7.7222534102
 40
0.4724409449
100
AcDbArc
 50
180.0
 51
270.0
  0
CIRCLE
  5
527
100
AcDbEntity
  8
4_ALL_POINTS
100
AcDbCircle
 62
7
  6
CONTINUOUS
 10
22.5875421746
 20
10.9899699456
 40
0.125984252
  0
CIRCLE
  5
528
100
AcDbEntity
  8
4_ALL_POINTS
100
AcDbCircle
 62
7
  6
CONTINUOUS
 10
22.5875421746
 20
7.7616234889
 40
0.125984252
  0
CIRCLE
  5
529
100
AcDbEntity
  8
4_ALL_POINTS
100
AcDbCircle
 62
7
  6
CONTINUOUS
 10
20.2253374502
 20
10.9899699456
 40
0.125984252
  0
CIRCLE
  5
52A
100
AcDbEntity
  8
4_ALL_POINTS
100
AcDbCircle
 62
7
  6
CONTINUOUS
 10
20.2253374502
 20
7.7616234889
 40
0.125984252
  0
SPLINE
  5
52B
100
AcDbEntity
  8
0
100
AcDbSpline
 62
7
  6
CONTINUOUS
 70
0
 71
3
 72
11
 73
7
 74
0
 42
0.0000001
 43
0.0000001
 44
0.0000000001
 40
0.0
 40
0.0
 40
0.0
 40
0.0
 40
0.2392744894
 40
0.4989672194
 40
0.7592166355
 40
1.0
 40
1.0
 40
1.0
 40
1.0
 10
30.9128114265
 20
13.0301678358
 30
0.0
 10
30.9078063674
 20
13.0277070988
 30
0.0
 10
30.8966124679
 20
13.0240807047
 30
0.0
 10
30.8789019178
 20
13.022262794
 30
0.0
 10
30.8611382303
 20
13.0238970033
 30
0.0
 10
30.8498575616
 20
13.0273989539
 30
0.0
 10
30.8447848042
 20
13.0298003125
 30
0.0
  0
LINE
  5
52C
100
AcDbEntity
  8
0
100
AcDbLine
 62
7
  6
CONTINUOUS
 10
30.844663835
 20
13.0297421398
 11
30.8412928517
 21
13.0322095876
  0
SPLINE
  5
52D
100
AcDbEntity
  8
0
100
AcDbSpline
 62
7
  6
CONTINUOUS
 70
0
 71
3
 72
11
 73
7
 74
0
 42
0.0000001
 43
0.0000001
 44
0.0000000001
 40
0.0
 40
0.0
 40
0.0
 40
0.0
 40
0.2772362574
 40
0.5325876656
 40
0.7709756993
 40
1.0
 40
1.0
 40
1.0
 40
1.0
 10
30.8407726145
 20
13.0326507747
 30
0.0
 10
30.8395898095
 20
13.0336761809
 30
0.0
 10
30.8374595504
 20
13.0358226005
 30
0.0
 10
30.8350016588
 20
13.0394509442
 30
0.0
 10
30.8334864516
 20
13.0432786697
 30
0.0
 10
30.8331419356
 20
13.045929033
 30
0.0
 10
30.8331419226
 20
13.0472222089
 30
0.0
  0
SPLINE
  5
52E
100
AcDbEntity
  8
0
100
AcDbSpline
 62
7
  6
CONTINUOUS
 70
0
 71
3
 72
18
 73
14
 74
0
 42
0.0000001
 43
0.0000001
 44
0.0000000001
 40
0.0
 40
0.0
 40
0.0
 40
0.0
 40
0.0429583233
 40
0.0876725301
 40
0.135568694
 40
0.1875695211
 40
0.2440865681
 40
0.3050956343
 40
0.4386813542
 40
0.5828952573
 40
0.7299066972
 40
0.8713798222
 40
1.0
 40
1.0
 40
1.0
 40
1.0
 10
30.9610946193
 20
13.0536380291
 30
0.0
 10
30.9610947266
 20
13.0559994473
 30
0.0
 10
30.9604663585
 20
13.060839279
 30
0.0
 10
30.9577004784
 20
13.0678289419
 30
0.0
 10
30.9532113786
 20
13.0744558253
 30
0.0
 10
30.9471261323
 20
13.0805882091
 30
0.0
 10
30.9395850853
 20
13.0861184104
 30
0.0
 10
30.9274385251
 20
13.0927445237
 30
0.0
 10
30.9096380112
 20
13.098711256
 30
0.0
 10
30.8864083559
 20
13.1019841383
 30
0.0
 10
30.8625146002
 20
13.1013222432
 30
0.0
 10
30.839928972
 20
13.0967866599
 30
0.0
 10
30.8260738224
 20
13.0910502136
 30
0.0
 10
30.8199559289
 20
13.0875062331
 30
0.0
  0
SPLINE
  5
52F
100
AcDbEntity
  8
0
100
AcDbSpline
 62
7
  6
CONTINUOUS
 70
0
 71
3
 72
11
 73
7
 74
0
 42
0.0000001
 43
0.0000001
 44
0.0000000001
 40
0.0
 40
0.0
 40
0.0
 40
0.0
 40
0.2290220348
 40
0.4674170227
 40
0.722747723
 40
1.0
 40
1.0
 40
1.0
 40
1.0
 10
30.9236931037
 20
13.0472222089
 30
0.0
 10
30.9236931167
 20
13.0459289983
 30
0.0
 10
30.923348627
 20
13.043278484
 30
0.0
 10
30.9218331135
 20
13.0394508222
 30
0.0
 10
30.9193753646
 20
13.0358222074
 30
0.0
 10
30.9172449745
 20
13.0336757443
 30
0.0
 10
30.9160619455
 20
13.0326503705
 30
0.0
  0
LINE
  5
530
100
AcDbEntity
  8
0
100
AcDbLine
 62
7
  6
CONTINUOUS
 10
30.9155392113
 20
13.0322072099
 11
30.9128344388
 21
13.0301818621
  0
SPLINE
  5
531
100
AcDbEntity
  8
0
100
AcDbSpline
 62
7
  6
CONTINUOUS
 70
0
 71
3
 72
12
 73
8
 74
0
 42
0.0000001
 43
0.0000001
 44
0.0000000001
 40
0.0
 40
0.0
 40
0.0
 40
0.0
 40
0.1082935306
 40
0.2186088381
 40
0.4517357423
 40
0.710700456
 40
1.0
 40
1.0
 40
1.0
 40
1.0
 10
30.7957404071
 20
13.053643047
 30
0.0
 10
30.7957404784
 20
13.0552133552
 30
0.0
 10
30.7960131069
 20
13.0583897746
 30
0.0
 10
30.797657286
 20
13.0647572438
 30
0.0
 10
30.8018782851
 20
13.0725643503
 30
0.0
 10
30.8097413715
 20
13.0808529837
 30
0.0
 10
30.8163260065
 20
13.0854034874
 30
0.0
 10
30.8199559289
 20
13.0875062331
 30
0.0
  0
SPLINE
  5
532
100
AcDbEntity
  8
0
100
AcDbSpline
 62
7
  6
CONTINUOUS
 70
0
 71
3
 72
17
 73
13
 74
0
 42
0.0000001
 43
0.0000001
 44
0.0000000001
 40
0.0
 40
0.0
 40
0.0
 40
0.0
 40
0.1286590578
 40
0.2701628283
 40
0.4172120925
 40
0.561464128
 40
0.6950850751
 40
0.8123790112
 40
0.8643941652
 40
0.9123033995
 40
0.9570300767
 40
1.0
 40
1.0
 40
1.0
 40
1.0
 10
30.8464028361
 20
13.0657677086
 30
0.0
 10
30.8497531804
 20
13.0677084999
 30
0.0
 10
30.8573402483
 20
13.070849809
 30
0.0
 10
30.8697087738
 20
13.0733334576
 30
0.0
 10
30.8827909582
 20
13.0736964508
 30
0.0
 10
30.8955190301
 20
13.0719022566
 30
0.0
 10
30.9068611593
 20
13.0681002496
 30
0.0
 10
30.9147476869
 20
13.0632824791
 30
0.0
 10
30.9193752838
 20
13.0586223274
 30
0.0
 10
30.9218335642
 20
13.0549930851
 30
0.0
 10
30.9233485667
 20
13.0511656941
 30
0.0
 10
30.9236930907
 20
13.0485153516
 30
0.0
 10
30.9236931037
 20
13.0472222089
 30
0.0
  0
SPLINE
  5
533
100
AcDbEntity
  8
0
100
AcDbSpline
 62
7
  6
CONTINUOUS
 70
0
 71
3
 72
18
 73
14
 74
0
 42
0.0000001
 43
0.0000001
 44
0.0000000001
 40
0.0
 40
0.0
 40
0.0
 40
0.0
 40
0.1286201778
 40
0.2700933028
 40
0.4171047427
 40
0.5613186458
 40
0.6949043657
 40
0.7559134319
 40
0.8124304789
 40
0.864431306
 40
0.9123274699
 40
0.9570416767
 40
1.0
 40
1.0
 40
1.0
 40
1.0
 10
30.9368790974
 20
13.019774843
 30
0.0
 10
30.9307612039
 20
13.0162308625
 30
0.0
 10
30.9169060544
 20
13.0104944162
 30
0.0
 10
30.8943204261
 20
13.0059588329
 30
0.0
 10
30.8704266704
 20
13.0052969378
 30
0.0
 10
30.8471970151
 20
13.0085698201
 30
0.0
 10
30.8293965012
 20
13.0145365524
 30
0.0
 10
30.817249941
 20
13.0211626657
 30
0.0
 10
30.8097088941
 20
13.026692867
 30
0.0
 10
30.8036236478
 20
13.0328252508
 30
0.0
 10
30.7991345479
 20
13.0394521342
 30
0.0
 10
30.7963686678
 20
13.0464417971
 30
0.0
 10
30.7957402997
 20
13.0512816287
 30
0.0
 10
30.7957404071
 20
13.053643047
 30
0.0
  0
SPLINE
  5
534
100
AcDbEntity
  8
0
100
AcDbSpline
 62
7
  6
CONTINUOUS
 70
0
 71
3
 72
15
 73
11
 74
0
 42
0.0000001
 43
0.0000001
 44
0.0000000001
 40
0.0
 40
0.0
 40
0.0
 40
0.0
 40
0.1450242063
 40
0.2748233308
 40
0.3915829781
 40
0.5005765965
 40
0.6094649177
 40
0.7259476801
 40
0.8553675698
 40
1.0
 40
1.0
 40
1.0
 40
1.0
 10
30.8410256901
 20
13.0317599985
 30
0.0
 10
30.8386726968
 20
13.0331093479
 30
0.0
 10
30.8344022224
 20
13.0360310845
 30
0.0
 10
30.8292936816
 20
13.041367615
 30
0.0
 10
30.8260482744
 20
13.0472808292
 30
0.0
 10
30.8249051289
 20
13.0535590313
 30
0.0
 10
30.8259915732
 20
13.0598424956
 30
0.0
 10
30.8291860167
 20
13.0657681813
 30
0.0
 10
30.8342493868
 20
13.0711214712
 30
0.0
 10
30.838494331
 20
13.0740553983
 30
0.0
 10
30.8408350661
 20
13.075411342
 30
0.0
  0
SPLINE
  5
535
100
AcDbEntity
  8
0
100
AcDbSpline
 62
7
  6
CONTINUOUS
 70
0
 71
3
 72
12
 73
8
 74
0
 42
0.0000001
 43
0.0000001
 44
0.0000000001
 40
0.0
 40
0.0
 40
0.0
 40
0.0
 40
0.289299544
 40
0.5482642577
 40
0.7813911619
 40
0.8917064694
 40
1.0
 40
1.0
 40
1.0
 40
1.0
 10
30.9368790974
 20
13.019774843
 30
0.0
 10
30.9405090198
 20
13.0218775887
 30
0.0
 10
30.9470936549
 20
13.0264280924
 30
0.0
 10
30.9549567412
 20
13.0347167258
 30
0.0
 10
30.9591777403
 20
13.0425238323
 30
0.0
 10
30.9608219194
 20
13.0488913015
 30
0.0
 10
30.9610945479
 20
13.0520677209
 30
0.0
 10
30.9610946193
 20
13.0536380291
 30
0.0
  0
SPLINE
  5
536
100
AcDbEntity
  8
0
100
AcDbSpline
 62
7
  6
CONTINUOUS
 70
0
 71
3
 72
21
 73
17
 74
0
 42
0.0000001
 43
0.0000001
 44
0.0000000001
 40
0.0
 40
0.0
 40
0.0
 40
0.0
 40
0.0665957976
 40
0.1384256933
 40
0.2913158063
 40
0.4442052555
 40
0.5160367931
 40
0.5826311711
 40
0.6430474343
 40
0.6971322634
 40
0.7458180964
 40
0.7913156144
 40
0.8368128977
 40
0.8854993805
 40
0.9395824071
 40
1.0
 40
1.0
 40
1.0
 40
1.0
 10
30.8408350661
 20
13.075411342
 30
0.0
 10
30.8434073461
 20
13.0769014154
 30
0.0
 10
30.8490326626
 20
13.0795304262
 30
0.0
 10
30.8615017535
 20
13.083329702
 30
0.0
 10
30.8784178405
 20
13.0851767858
 30
0.0
 10
30.8953321338
 20
13.0833303074
 30
0.0
 10
30.9078039868
 20
13.0795293419
 30
0.0
 10
30.91587708
 20
13.0757571268
 30
0.0
 10
30.9225654179
 20
13.071135709
 30
0.0
 10
30.9276218435
 20
13.0658019151
 30
0.0
 10
30.9308203874
 20
13.0598999933
 30
0.0
 10
30.9319276589
 20
13.0536405316
 30
0.0
 10
30.9308205459
 20
13.0473810698
 30
0.0
 10
30.9276215992
 20
13.0414790322
 30
0.0
 10
30.9225669231
 20
13.0361460112
 30
0.0
 10
30.9183336054
 20
13.0332215708
 30
0.0
 10
30.9159999602
 20
13.0318697341
 30
0.0
  0
SPLINE
  5
537
100
AcDbEntity
  8
0
100
AcDbSpline
 62
7
  6
CONTINUOUS
 70
0
 71
3
 72
11
 73
7
 74
0
 42
0.0000001
 43
0.0000001
 44
0.0000000001
 40
0.0
 40
0.0
 40
0.0
 40
0.0
 40
0.2180205255
 40
0.4513193435
 40
0.7104897659
 40
1.0
 40
1.0
 40
1.0
 40
1.0
 10
30.8331419226
 20
13.0472222089
 30
0.0
 10
30.8331419052
 20
13.04895225
 30
0.0
 10
30.8337778858
 20
13.0525576759
 30
0.0
 10
30.8365028506
 20
13.05758104
 30
0.0
 10
30.8408088189
 20
13.0621252711
 30
0.0
 10
30.8444149561
 20
13.0646161671
 30
0.0
 10
30.8464028361
 20
13.0657677086
 30
0.0
  0
SPLINE
  5
538
100
AcDbEntity
  8
4_ALL_POINTS
100
AcDbSpline
 62
7
  6
CONTINUOUS
 70
0
 71
3
 72
12
 73
8
 74
0
 42
0.0000001
 43
0.0000001
 44
0.0000000001
 40
0.0
 40
0.0
 40
0.0
 40
0.0
 40
0.0950537472
 40
0.1949701359
 40
0.4216485229
 40
0.6927667236
 40
1.0
 40
1.0
 40
1.0
 40
1.0
 10
27.130364314
 20
13.6503189876
 30
0.0
 10
27.1303653987
 20
13.6427143529
 30
0.0
 10
27.132682696
 20
13.6270365326
 30
0.0
 10
27.1466773619
 20
13.5959510159
 30
0.0
 10
27.181646436
 20
13.5612578569
 30
0.0
 10
27.2397385483
 20
13.5320789306
 30
0.0
 10
27.2851103966
 20
13.5210812584
 30
0.0
 10
27.3094377132
 20
13.5175676393
 30
0.0
  0
SPLINE
  5
539
100
AcDbEntity
  8
4_ALL_POINTS
100
AcDbSpline
 62
7
  6
CONTINUOUS
 70
0
 71
3
 72
9
 73
5
 74
0
 42
0.0000001
 43
0.0000001
 44
0.0000000001
 40
0.0
 40
0.0
 40
0.0
 40
0.0
 40
0.4495779452
 40
1.0
 40
1.0
 40
1.0
 40
1.0
 10
30.3820974361
 20
14.332261299
 30
0.0
 10
30.3821000046
 20
14.3261146454
 30
0.0
 10
30.3874586898
 20
14.3124108048
 30
0.0
 10
30.3986453326
 20
14.3038109233
 30
0.0
 10
30.4051570691
 20
14.3000387969
 30
0.0
  0
SPLINE
  5
53A
100
AcDbEntity
  8
4_ALL_POINTS
100
AcDbSpline
 62
7
  6
CONTINUOUS
 70
0
 71
3
 72
9
 73
5
 74
0
 42
0.0000001
 43
0.0000001
 44
0.0000000001
 40
0.0
 40
0.0
 40
0.0
 40
0.0
 40
0.4495779452
 40
1.0
 40
1.0
 40
1.0
 40
1.0
 10
30.8831967298
 20
14.300008256
 30
0.0
 10
30.8831992984
 20
14.2938616025
 30
0.0
 10
30.8885579836
 20
14.2801577619
 30
0.0
 10
30.8997446264
 20
14.2715578803
 30
0.0
 10
30.9062563628
 20
14.267785754
 30
0.0
  0
SPLINE
  5
53B
100
AcDbEntity
  8
4_ALL_POINTS
100
AcDbSpline
 62
7
  6
CONTINUOUS
 70
0
 71
3
 72
9
 73
5
 74
0
 42
0.0000001
 43
0.0000001
 44
0.0000000001
 40
0.0
 40
0.0
 40
0.0
 40
0.0
 40
0.4495779452
 40
1.0
 40
1.0
 40
1.0
 40
1.0
 10
32.3308169118
 20
13.2034047965
 30
0.0
 10
32.3308194803
 20
13.197258143
 30
0.0
 10
32.3361781655
 20
13.1835543024
 30
0.0
 10
32.3473648083
 20
13.1749544208
 30
0.0
 10
32.3538765448
 20
13.1711822945
 30
0.0
  0
SPLINE
  5
53C
100
AcDbEntity
  8
4_ALL_POINTS
100
AcDbSpline
 62
7
  6
CONTINUOUS
 70
0
 71
3
 72
9
 73
5
 74
0
 42
0.0000001
 43
0.0000001
 44
0.0000000001
 40
0.0
 40
0.0
 40
0.0
 40
0.0
 40
0.4495779452
 40
1.0
 40
1.0
 40
1.0
 40
1.0
 10
28.4333779604
 20
13.2034047965
 30
0.0
 10
28.4333805289
 20
13.197258143
 30
0.0
 10
28.4387392141
 20
13.1835543024
 30
0.0
 10
28.4499258569
 20
13.1749544208
 30
0.0
 10
28.4564375934
 20
13.1711822945
 30
0.0
  0
SPLINE
  5
53D
100
AcDbEntity
  8
4_ALL_POINTS
100
AcDbSpline
 62
7
  6
CONTINUOUS
 70
0
 71
3
 72
9
 73
5
 74
0
 42
0.0000001
 43
0.0000001
 44
0.0000000001
 40
0.0
 40
0.0
 40
0.0
 40
0.0
 40
0.4495779452
 40
1.0
 40
1.0
 40
1.0
 40
1.0
 10
28.4890556597
 20
12.9131274102
 30
0.0
 10
28.4890582282
 20
12.9069807566
 30
0.0
 10
28.4944169134
 20
12.893276916
 30
0.0
 10
28.5056035562
 20
12.8846770345
 30
0.0
 10
28.5121152927
 20
12.8809049081
 30
0.0
  0
SPLINE
  5
53E
100
AcDbEntity
  8
4_ALL_POINTS
100
AcDbSpline
 62
7
  6
CONTINUOUS
 70
0
 71
3
 72
9
 73
5
 74
0
 42
0.0000001
 43
0.0000001
 44
0.0000000001
 40
0.0
 40
0.0
 40
0.0
 40
0.0
 40
0.4495779452
 40
1.0
 40
1.0
 40
1.0
 40
1.0
 10
30.3820974361
 20
12.0745482941
 30
0.0
 10
30.3821000046
 20
12.0684016405
 30
0.0
 10
30.3874586898
 20
12.0546977999
 30
0.0
 10
30.3986453326
 20
12.0460979184
 30
0.0
 10
30.4051570691
 20
12.042325792
 30
0.0
  0
SPLINE
  5
53F
100
AcDbEntity
  8
4_ALL_POINTS
100
AcDbSpline
 62
7
  6
CONTINUOUS
 70
0
 71
3
 72
10
 73
6
 74
0
 42
0.0000001
 43
0.0000001
 44
0.0000000001
 40
0.0
 40
0.0
 40
0.0
 40
0.0
 40
0.5477372972
 40
0.781586341
 40
1.0
 40
1.0
 40
1.0
 40
1.0
 10
26.756319045
 20
17.1237420384
 30
0.0
 10
26.756319045
 20
17.111769383
 30
0.0
 10
26.7588624444
 20
17.094138832
 30
0.0
 10
26.7703866987
 20
17.0752381968
 30
0.0
 10
26.7781234658
 20
17.0687306382
 30
0.0
 10
26.782254414
 20
17.0663373195
 30
0.0
  0
SPLINE
  5
540
100
AcDbEntity
  8
4_ALL_POINTS
100
AcDbSpline
 62
7
  6
CONTINUOUS
 70
0
 71
3
 72
10
 73
6
 74
0
 42
0.0000001
 43
0.0000001
 44
0.0000000001
 40
0.0
 40
0.0
 40
0.0
 40
0.0
 40
0.5477372972
 40
0.781586341
 40
1.0
 40
1.0
 40
1.0
 40
1.0
 10
24.4735333735
 20
15.8013672784
 30
0.0
 10
24.4735333735
 20
15.789394623
 30
0.0
 10
24.4760767728
 20
15.771764072
 30
0.0
 10
24.4876010271
 20
15.7528634368
 30
0.0
 10
24.4953377942
 20
15.7463558782
 30
0.0
 10
24.4994687425
 20
15.7439625595
 30
0.0
  0
SPLINE
  5
541
100
AcDbEntity
  8
4_ALL_POINTS
100
AcDbSpline
 62
7
  6
CONTINUOUS
 70
0
 71
3
 72
10
 73
6
 74
0
 42
0.0000001
 43
0.0000001
 44
0.0000000001
 40
0.0
 40
0.0
 40
0.0
 40
0.0
 40
0.5477372972
 40
0.781586341
 40
1.0
 40
1.0
 40
1.0
 40
1.0
 10
26.756319045
 20
19.0492407685
 30
0.0
 10
26.756319045
 20
19.0372681131
 30
0.0
 10
26.7588624444
 20
19.0196375621
 30
0.0
 10
26.7703866987
 20
19.0007369269
 30
0.0
 10
26.7781234658
 20
18.9942293683
 30
0.0
 10
26.782254414
 20
18.9918360496
 30
0.0
  0
SPLINE
  5
542
100
AcDbEntity
  8
4_ALL_POINTS
100
AcDbSpline
 62
7
  6
CONTINUOUS
 70
0
 71
3
 72
10
 73
6
 74
0
 42
0.0000001
 43
0.0000001
 44
0.0000000001
 40
0.0
 40
0.0
 40
0.0
 40
0.0
 40
0.5477372972
 40
0.781586341
 40
1.0
 40
1.0
 40
1.0
 40
1.0
 10
24.4735333735
 20
17.7268660085
 30
0.0
 10
24.4735333735
 20
17.7148933531
 30
0.0
 10
24.4760767728
 20
17.6972628021
 30
0.0
 10
24.4876010271
 20
17.6783621669
 30
0.0
 10
24.4953377942
 20
17.6718546082
 30
0.0
 10
24.4994687425
 20
17.6694612896
 30
0.0
  0
SPLINE
  5
543
100
AcDbEntity
  8
4_ALL_POINTS
100
AcDbSpline
 62
7
  6
CONTINUOUS
 70
0
 71
3
 72
11
 73
7
 74
0
 42
0.0000001
 43
0.0000001
 44
0.0000000001
 40
0.0
 40
0.0
 40
0.0
 40
0.0
 40
0.2898031779
 40
0.5490316586
 40
0.7822148089
 40
1.0
 40
1.0
 40
1.0
 40
1.0
 10
24.9398341052
 20
16.9700525869
 30
0.0
 10
24.9398341052
 20
16.9155525282
 30
0.0
 10
24.9480488144
 20
16.8119463152
 30
0.0
 10
24.9899952017
 20
16.6695919933
 30
0.0
 10
25.0605073125
 20
16.5540221899
 30
0.0
 10
25.1268114637
 20
16.4981527175
 30
0.0
 10
25.1622493981
 20
16.4776202416
 30
0.0
  0
SPLINE
  5
544
100
AcDbEntity
  8
7_ALL_ROUNDS
100
AcDbSpline
 62
7
  6
CONTINUOUS
 70
0
 71
3
 72
11
 73
7
 74
0
 42
0.0000001
 43
0.0000001
 44
0.0000000001
 40
0.0
 40
0.0
 40
0.0
 40
0.0
 40
0.2897723471
 40
0.5490521036
 40
0.7822089982
 40
1.0
 40
1.0
 40
1.0
 40
1.0
 10
27.2073084094
 20
19.3929659451
 30
0.0
 10
27.2073084094
 20
19.4167907463
 30
0.0
 10
27.2037122635
 20
19.4620878593
 30
0.0
 10
27.1853796522
 20
19.524327373
 30
0.0
 10
27.1545378755
 20
19.5748491671
 30
0.0
 10
27.1255503193
 20
19.5992720903
 30
0.0
 10
27.1100558453
 20
19.6082479656
 30
0.0
  0
SPLINE
  5
545
100
AcDbEntity
  8
4_ALL_POINTS
100
AcDbSpline
 62
7
  6
CONTINUOUS
 70
0
 71
3
 72
9
 73
5
 74
0
 42
0.0000001
 43
0.0000001
 44
0.0000000001
 40
0.0
 40
0.0
 40
0.0
 40
0.0
 40
0.4495779452
 40
1.0
 40
1.0
 40
1.0
 40
1.0
 10
31.7740399187
 20
12.3970787233
 30
0.0
 10
31.7740424873
 20
12.3909320698
 30
0.0
 10
31.7794011725
 20
12.3772282292
 30
0.0
 10
31.7905878152
 20
12.3686283476
 30
0.0
 10
31.7970995517
 20
12.3648562213
 30
0.0
  0
SPLINE
  5
546
100
AcDbEntity
  8
6_ALL_SURFS
100
AcDbSpline
 62
7
  6
CONTINUOUS
 70
0
 71
3
 72
11
 73
7
 74
0
 42
0.0000001
 43
0.0000001
 44
0.0000000001
 40
0.0
 40
0.0
 40
0.0
 40
0.0
 40
0.2369916541
 40
0.4996824462
 40
0.7625459326
 40
1.0
 40
1.0
 40
1.0
 40
1.0
 10
27.2073084094
 20
16.9302530694
 30
0.0
 10
27.2073084094
 20
16.9159851499
 30
0.0
 10
27.2126698831
 20
16.8858827252
 30
0.0
 10
27.2313535887
 20
16.8435778961
 30
0.0
 10
27.2586684419
 20
16.8062246258
 30
0.0
 10
27.2820738743
 20
16.7864959928
 30
0.0
 10
27.2944440088
 20
16.7793302068
 30
0.0
  0
SPLINE
  5
547
100
AcDbEntity
  8
4_ALL_POINTS
100
AcDbSpline
 62
7
  6
CONTINUOUS
 70
0
 71
3
 72
11
 73
7
 74
0
 42
0.0000001
 43
0.0000001
 44
0.0000000001
 40
0.0
 40
0.0
 40
0.0
 40
0.0
 40
0.2180232737
 40
0.4512608672
 40
0.7106406086
 40
1.0
 40
1.0
 40
1.0
 40
1.0
 10
30.3131990438
 20
13.2034666247
 30
0.0
 10
30.3131978569
 20
13.1978229594
 30
0.0
 10
30.315260321
 20
13.1860617122
 30
0.0
 10
30.3241457286
 20
13.1696662175
 30
0.0
 10
30.3381971737
 20
13.1548472984
 30
0.0
 10
30.3499577661
 20
13.1467153863
 30
0.0
 10
30.3564390822
 20
13.1429608819
 30
0.0
  0
SPLINE
  5
548
100
AcDbEntity
  8
4_ALL_POINTS
100
AcDbSpline
 62
7
  6
CONTINUOUS
 70
0
 71
3
 72
17
 73
13
 74
0
 42
0.0000001
 43
0.0000001
 44
0.0000000001
 40
0.0
 40
0.0
 40
0.0
 40
0.0
 40
0.1016905923
 40
0.2258546282
 40
0.3689702837
 40
0.5205859105
 40
0.6678154245
 40
0.7989912451
 40
0.8564619901
 40
0.9083037601
 40
0.9554878771
 40
1.0
 40
1.0
 40
1.0
 40
1.0
 10
29.5172947476
 20
14.8299986698
 30
0.0
 10
29.524805679
 20
14.812547998
 30
0.0
 10
29.5534316091
 20
14.7790821082
 30
0.0
 10
29.6149105899
 20
14.7461108673
 30
0.0
 10
29.6915307295
 20
14.7270656737
 30
0.0
 10
29.7746463365
 20
14.7243794204
 30
0.0
 10
29.8543437992
 20
14.7381560574
 30
0.0
 10
29.9128806311
 20
14.7632566158
 30
0.0
 10
29.9486360235
 20
14.790853916
 30
0.0
 10
29.9678592335
 20
14.8132165917
 30
0.0
 10
29.9799227357
 20
14.8375260738
 30
0.0
 10
29.9827191885
 20
14.8547597196
 30
0.0
 10
29.9827179297
 20
14.8630757306
 30
0.0
  0
SPLINE
  5
549
100
AcDbEntity
  8
4_ALL_POINTS
100
AcDbSpline
 62
7
  6
CONTINUOUS
 70
0
 71
3
 72
13
 73
9
 74
0
 42
0.0000001
 43
0.0000001
 44
0.0000000001
 40
0.0
 40
0.0
 40
0.0
 40
0.0
 40
0.299891909
 40
0.5814269048
 40
0.7052866861
 40
0.8148845781
 40
0.9114718583
 40
1.0
 40
1.0
 40
1.0
 40
1.0
 10
27.538641428
 20
13.4844635135
 30
0.0
 10
27.5737038002
 20
13.4793994194
 30
0.0
 10
27.6431972536
 20
13.4787335788
 30
0.0
 10
27.7253209946
 20
13.4992564571
 30
0.0
 10
27.7788417543
 20
13.5289145683
 30
0.0
 10
27.8083957329
 20
13.5549405007
 30
0.0
 10
27.8274629061
 20
13.5847547834
 30
0.0
 10
27.8320101278
 20
13.6068011412
 30
0.0
 10
27.8320086362
 20
13.6172589585
 30
0.0
  0
SPLINE
  5
54A
100
AcDbEntity
  8
4_ALL_POINTS
100
AcDbSpline
 62
7
  6
CONTINUOUS
 70
0
 71
3
 72
13
 73
9
 74
0
 42
0.0000001
 43
0.0000001
 44
0.0000000001
 40
0.0
 40
0.0
 40
0.0
 40
0.0
 40
0.2698024031
 40
0.5610417151
 40
0.6951284772
 40
0.8128248108
 40
0.9126484128
 40
1.0
 40
1.0
 40
1.0
 40
1.0
 10
30.4051570691
 20
14.3000387969
 30
0.0
 10
30.4173348946
 20
14.2929844119
 30
0.0
 10
30.4464626709
 20
14.2850701518
 30
0.0
 10
30.4833003431
 20
14.2869506927
 30
0.0
 10
30.5103389667
 20
14.2959957856
 30
0.0
 10
30.5261496283
 20
14.305675135
 30
0.0
 10
30.5368556812
 20
14.317908002
 30
0.0
 10
30.5395740047
 20
14.3277659216
 30
0.0
 10
30.5395721007
 20
14.3323223808
 30
0.0
  0
SPLINE
  5
54B
100
AcDbEntity
  8
4_ALL_POINTS
100
AcDbSpline
 62
7
  6
CONTINUOUS
 70
0
 71
3
 72
13
 73
9
 74
0
 42
0.0000001
 43
0.0000001
 44
0.0000000001
 40
0.0
 40
0.0
 40
0.0
 40
0.0
 40
0.2698024031
 40
0.5610417151
 40
0.6951284772
 40
0.8128248108
 40
0.9126484128
 40
1.0
 40
1.0
 40
1.0
 40
1.0
 10
30.9062563628
 20
14.267785754
 30
0.0
 10
30.9184341884
 20
14.2607313689
 30
0.0
 10
30.9475619646
 20
14.2528171089
 30
0.0
 10
30.9843996369
 20
14.2546976498
 30
0.0
 10
31.0114382605
 20
14.2637427427
 30
0.0
 10
31.027248922
 20
14.2734220921
 30
0.0
 10
31.0379549749
 20
14.2856549591
 30
0.0
 10
31.0406732985
 20
14.2955128786
 30
0.0
 10
31.0406713944
 20
14.3000693378
 30
0.0
  0
SPLINE
  5
54C
100
AcDbEntity
  8
4_ALL_POINTS
100
AcDbSpline
 62
7
  6
CONTINUOUS
 70
0
 71
3
 72
13
 73
9
 74
0
 42
0.0000001
 43
0.0000001
 44
0.0000000001
 40
0.0
 40
0.0
 40
0.0
 40
0.0
 40
0.2698024031
 40
0.5610417151
 40
0.6951284772
 40
0.8128248108
 40
0.9126484128
 40
1.0
 40
1.0
 40
1.0
 40
1.0
 10
32.3538765448
 20
13.1711822945
 30
0.0
 10
32.3660543703
 20
13.1641279094
 30
0.0
 10
32.3951821466
 20
13.1562136494
 30
0.0
 10
32.4320198188
 20
13.1580941903
 30
0.0
 10
32.4590584425
 20
13.1671392831
 30
0.0
 10
32.474869104
 20
13.1768186325
 30
0.0
 10
32.4855751569
 20
13.1890514996
 30
0.0
 10
32.4882934804
 20
13.1989094191
 30
0.0
 10
32.4882915764
 20
13.2034658783
 30
0.0
  0
SPLINE
  5
54D
100
AcDbEntity
  8
4_ALL_POINTS
100
AcDbSpline
 62
7
  6
CONTINUOUS
 70
0
 71
3
 72
13
 73
9
 74
0
 42
0.0000001
 43
0.0000001
 44
0.0000000001
 40
0.0
 40
0.0
 40
0.0
 40
0.0
 40
0.2698024031
 40
0.5610417151
 40
0.6951284772
 40
0.8128248108
 40
0.9126484128
 40
1.0
 40
1.0
 40
1.0
 40
1.0
 10
28.4564375934
 20
13.1711822945
 30
0.0
 10
28.4686154189
 20
13.1641279094
 30
0.0
 10
28.4977431951
 20
13.1562136494
 30
0.0
 10
28.5345808674
 20
13.1580941903
 30
0.0
 10
28.561619491
 20
13.1671392831
 30
0.0
 10
28.5774301526
 20
13.1768186325
 30
0.0
 10
28.5881362054
 20
13.1890514996
 30
0.0
 10
28.590854529
 20
13.1989094191
 30
0.0
 10
28.590852625
 20
13.2034658783
 30
0.0
  0
SPLINE
  5
54E
100
AcDbEntity
  8
4_ALL_POINTS
100
AcDbSpline
 62
7
  6
CONTINUOUS
 70
0
 71
3
 72
13
 73
9
 74
0
 42
0.0000001
 43
0.0000001
 44
0.0000000001
 40
0.0
 40
0.0
 40
0.0
 40
0.0
 40
0.2698024031
 40
0.5610417151
 40
0.6951284772
 40
0.8128248108
 40
0.9126484128
 40
1.0
 40
1.0
 40
1.0
 40
1.0
 10
28.5121152927
 20
12.8809049081
 30
0.0
 10
28.5242931182
 20
12.8738505231
 30
0.0
 10
28.5534208945
 20
12.865936263
 30
0.0
 10
28.5902585667
 20
12.8678168039
 30
0.0
 10
28.6172971903
 20
12.8768618968
 30
0.0
 10
28.6331078519
 20
12.8865412462
 30
0.0
 10
28.6438139048
 20
12.8987741132
 30
0.0
 10
28.6465322283
 20
12.9086320328
 30
0.0
 10
28.6465303243
 20
12.913188492
 30
0.0
  0
SPLINE
  5
54F
100
AcDbEntity
  8
4_ALL_POINTS
100
AcDbSpline
 62
7
  6
CONTINUOUS
 70
0
 71
3
 72
13
 73
9
 74
0
 42
0.0000001
 43
0.0000001
 44
0.0000000001
 40
0.0
 40
0.0
 40
0.0
 40
0.0
 40
0.2698024031
 40
0.5610417151
 40
0.6951284772
 40
0.8128248108
 40
0.9126484128
 40
1.0
 40
1.0
 40
1.0
 40
1.0
 10
30.4051570691
 20
12.042325792
 30
0.0
 10
30.4173348946
 20
12.035271407
 30
0.0
 10
30.4464626709
 20
12.0273571469
 30
0.0
 10
30.4833003431
 20
12.0292376878
 30
0.0
 10
30.5103389667
 20
12.0382827807
 30
0.0
 10
30.5261496283
 20
12.0479621301
 30
0.0
 10
30.5368556812
 20
12.0601949971
 30
0.0
 10
30.5395740047
 20
12.0700529167
 30
0.0
 10
30.5395721007
 20
12.0746093758
 30
0.0
  0
SPLINE
  5
550
100
AcDbEntity
  8
4_ALL_POINTS
100
AcDbSpline
 62
7
  6
CONTINUOUS
 70
0
 71
3
 72
13
 73
9
 74
0
 42
0.0000001
 43
0.0000001
 44
0.0000000001
 40
0.0
 40
0.0
 40
0.0
 40
0.0
 40
0.2698024031
 40
0.5610417151
 40
0.6951284772
 40
0.8128248108
 40
0.9126484128
 40
1.0
 40
1.0
 40
1.0
 40
1.0
 10
31.7970995517
 20
12.3648562213
 30
0.0
 10
31.8092773773
 20
12.3578018362
 30
0.0
 10
31.8384051535
 20
12.3498875762
 30
0.0
 10
31.8752428258
 20
12.3517681171
 30
0.0
 10
31.9022814494
 20
12.3608132099
 30
0.0
 10
31.9180921109
 20
12.3704925593
 30
0.0
 10
31.9287981638
 20
12.3827254264
 30
0.0
 10
31.9315164874
 20
12.3925833459
 30
0.0
 10
31.9315145833
 20
12.3971398051
 30
0.0
  0
SPLINE
  5
551
100
AcDbEntity
  8
4_ALL_POINTS
100
AcDbSpline
 62
7
  6
CONTINUOUS
 70
0
 71
3
 72
15
 73
11
 74
0
 42
0.0000001
 43
0.0000001
 44
0.0000000001
 40
0.0
 40
0.0
 40
0.0
 40
0.0
 40
0.1287881632
 40
0.2704374539
 40
0.4176402454
 40
0.5620440719
 40
0.6958134826
 40
0.8132427073
 40
0.9128522655
 40
1.0
 40
1.0
 40
1.0
 40
1.0
 10
30.3564390822
 20
13.1429608819
 30
0.0
 10
30.367362075
 20
13.1366333978
 30
0.0
 10
30.3920978873
 20
13.1263908115
 30
0.0
 10
30.4324225207
 20
13.1182923298
 30
0.0
 10
30.4750779191
 20
13.1171056363
 30
0.0
 10
30.5165683001
 20
13.1229491081
 30
0.0
 10
30.5535831449
 20
13.135353326
 30
0.0
 10
30.5832368177
 20
13.1534770654
 30
0.0
 10
30.6033210951
 20
13.1763917342
 30
0.0
 10
30.6084686964
 20
13.1948621483
 30
0.0
 10
30.6084704929
 20
13.2034040501
 30
0.0
  0
SPLINE
  5
552
100
AcDbEntity
  8
7_ALL_ROUNDS
100
AcDbSpline
 62
7
  6
CONTINUOUS
 70
0
 71
3
 72
12
 73
8
 74
0
 42
0.0000001
 43
0.0000001
 44
0.0000000001
 40
0.0
 40
0.0
 40
0.0
 40
0.0
 40
0.0964137424
 40
0.1953842111
 40
0.4107617555
 40
0.6689289301
 40
1.0
 40
1.0
 40
1.0
 40
1.0
 10
32.7676453672
 20
13.2034353374
 30
0.0
 10
32.7676453672
 20
13.2331657839
 30
0.0
 10
32.7626952011
 20
13.2935314731
 30
0.0
 10
32.7320063076
 20
13.4169107963
 30
0.0
 10
32.6488512024
 20
13.5757257377
 30
0.0
 10
32.478691729
 20
13.7592452959
 30
0.0
 10
32.3280759472
 20
13.8634419964
 30
0.0
 10
32.2397372612
 20
13.914614934
 30
0.0
  0
SPLINE
  5
553
100
AcDbEntity
  8
4_ALL_POINTS
100
AcDbSpline
 62
7
  6
CONTINUOUS
 70
0
 71
3
 72
14
 73
10
 74
0
 42
0.0000001
 43
0.0000001
 44
0.0000000001
 40
0.0
 40
0.0
 40
0.0
 40
0.0
 40
0.086955364
 40
0.1865276847
 40
0.3041166858
 40
0.4381955875
 40
0.5829850323
 40
0.7305469757
 40
1.0
 40
1.0
 40
1.0
 40
1.0
 10
26.9085523139
 20
17.2843564947
 30
0.0
 10
26.9022676288
 20
17.2879976089
 30
0.0
 10
26.8864574554
 20
17.2920733904
 30
0.0
 10
26.8610001027
 20
17.2869687601
 30
0.0
 10
26.8349782261
 20
17.2727522912
 30
0.0
 10
26.8100197924
 20
17.2506632861
 30
0.0
 10
26.787954275
 20
17.2224297595
 30
0.0
 10
26.7655972721
 20
17.1811373279
 30
0.0
 10
26.756319045
 20
17.14624908
 30
0.0
 10
26.756319045
 20
17.1237420384
 30
0.0
  0
SPLINE
  5
554
100
AcDbEntity
  8
4_ALL_POINTS
100
AcDbSpline
 62
7
  6
CONTINUOUS
 70
0
 71
3
 72
14
 73
10
 74
0
 42
0.0000001
 43
0.0000001
 44
0.0000000001
 40
0.0
 40
0.0
 40
0.0
 40
0.0
 40
0.086955364
 40
0.1865276847
 40
0.3041166858
 40
0.4381955875
 40
0.5829850323
 40
0.7305469757
 40
1.0
 40
1.0
 40
1.0
 40
1.0
 10
24.6257666423
 20
15.9619817346
 30
0.0
 10
24.6194819572
 20
15.9656228488
 30
0.0
 10
24.6036717838
 20
15.9696986303
 30
0.0
 10
24.5782144311
 20
15.964594
 30
0.0
 10
24.5521925545
 20
15.9503775312
 30
0.0
 10
24.5272341209
 20
15.928288526
 30
0.0
 10
24.5051686034
 20
15.9000549994
 30
0.0
 10
24.4828116005
 20
15.8587625679
 30
0.0
 10
24.4735333735
 20
15.82387432
 30
0.0
 10
24.4735333735
 20
15.8013672784
 30
0.0
  0
SPLINE
  5
555
100
AcDbEntity
  8
4_ALL_POINTS
100
AcDbSpline
 62
7
  6
CONTINUOUS
 70
0
 71
3
 72
14
 73
10
 74
0
 42
0.0000001
 43
0.0000001
 44
0.0000000001
 40
0.0
 40
0.0
 40
0.0
 40
0.0
 40
0.086955364
 40
0.1865276847
 40
0.3041166858
 40
0.4381955875
 40
0.5829850323
 40
0.7305469757
 40
1.0
 40
1.0
 40
1.0
 40
1.0
 10
26.9085523139
 20
19.2098552247
 30
0.0
 10
26.9022676288
 20
19.2134963389
 30
0.0
 10
26.8864574554
 20
19.2175721204
 30
0.0
 10
26.8610001027
 20
19.2124674901
 30
0.0
 10
26.8349782261
 20
19.1982510213
 30
0.0
 10
26.8100197924
 20
19.1761620161
 30
0.0
 10
26.787954275
 20
19.1479284895
 30
0.0
 10
26.7655972721
 20
19.106636058
 30
0.0
 10
26.756319045
 20
19.0717478101
 30
0.0
 10
26.756319045
 20
19.0492407685
 30
0.0
  0
SPLINE
  5
556
100
AcDbEntity
  8
4_ALL_POINTS
100
AcDbSpline
 62
7
  6
CONTINUOUS
 70
0
 71
3
 72
14
 73
10
 74
0
 42
0.0000001
 43
0.0000001
 44
0.0000000001
 40
0.0
 40
0.0
 40
0.0
 40
0.0
 40
0.086955364
 40
0.1865276847
 40
0.3041166858
 40
0.4381955875
 40
0.5829850323
 40
0.7305469757
 40
1.0
 40
1.0
 40
1.0
 40
1.0
 10
24.6257666423
 20
17.8874804647
 30
0.0
 10
24.6194819572
 20
17.8911215789
 30
0.0
 10
24.6036717838
 20
17.8951973604
 30
0.0
 10
24.5782144311
 20
17.8900927301
 30
0.0
 10
24.5521925545
 20
17.8758762612
 30
0.0
 10
24.5272341209
 20
17.8537872561
 30
0.0
 10
24.5051686034
 20
17.8255537295
 30
0.0
 10
24.4828116005
 20
17.784261298
 30
0.0
 10
24.4735333735
 20
17.7493730501
 30
0.0
 10
24.4735333735
 20
17.7268660085
 30
0.0
  0
SPLINE
  5
557
100
AcDbEntity
  8
4_ALL_POINTS
100
AcDbSpline
 62
7
  6
CONTINUOUS
 70
0
 71
3
 72
17
 73
13
 74
0
 42
0.0000001
 43
0.0000001
 44
0.0000000001
 40
0.0
 40
0.0
 40
0.0
 40
0.0
 40
0.0428071387
 40
0.0873930439
 40
0.1351996689
 40
0.1871558714
 40
0.304456211
 40
0.4382087334
 40
0.5826421189
 40
0.729850259
 40
0.8714224706
 40
1.0
 40
1.0
 40
1.0
 40
1.0
 10
26.2457716582
 20
18.3478309606
 30
0.0
 10
26.219166213
 20
18.3632459578
 30
0.0
 10
26.1604883819
 20
18.3877280823
 30
0.0
 10
26.0635654308
 20
18.4019853782
 30
0.0
 10
25.9594341828
 20
18.3943467846
 30
0.0
 10
25.8080554306
 20
18.3540726923
 30
0.0
 10
25.6144711075
 20
18.2482233078
 30
0.0
 10
25.4005271549
 20
18.0588149838
 30
0.0
 10
25.2113466979
 20
17.8168636258
 30
0.0
 10
25.0624175656
 20
17.5419549767
 30
0.0
 10
24.9657618185
 20
17.2566779616
 30
0.0
 10
24.9398341052
 20
17.0624103018
 30
0.0
 10
24.9398341052
 20
16.9700525869
 30
0.0
  0
SPLINE
  5
558
100
AcDbEntity
  8
4_ALL_POINTS
100
AcDbSpline
 62
7
  6
CONTINUOUS
 70
0
 71
3
 72
10
 73
6
 74
0
 42
0.0000001
 43
0.0000001
 44
0.0000000001
 40
0.0
 40
0.0
 40
0.0
 40
0.0
 40
0.5477372972
 40
0.781586341
 40
1.0
 40
1.0
 40
1.0
 40
1.0
 10
24.6517020113
 20
15.9045770158
 30
0.0
 10
24.6517020113
 20
15.9165496711
 30
0.0
 10
24.649158612
 20
15.9341802221
 30
0.0
 10
24.6376343577
 20
15.9530808573
 30
0.0
 10
24.6298975906
 20
15.959588416
 30
0.0
 10
24.6257666423
 20
15.9619817346
 30
0.0
  0
SPLINE
  5
559
100
AcDbEntity
  8
4_ALL_POINTS
100
AcDbSpline
 62
7
  6
CONTINUOUS
 70
0
 71
3
 72
9
 73
5
 74
0
 42
0.0000001
 43
0.0000001
 44
0.0000000001
 40
0.0
 40
0.0
 40
0.0
 40
0.0
 40
0.4495779452
 40
1.0
 40
1.0
 40
1.0
 40
1.0
 10
28.590852625
 20
13.2034658783
 30
0.0
 10
28.5908500564
 20
13.2096125319
 30
0.0
 10
28.5854913712
 20
13.2233163724
 30
0.0
 10
28.5743047284
 20
13.231916254
 30
0.0
 10
28.567792992
 20
13.2356883803
 30
0.0
  0
SPLINE
  5
55A
100
AcDbEntity
  8
7_ALL_ROUNDS
100
AcDbSpline
 62
7
  6
CONTINUOUS
 70
0
 71
3
 72
11
 73
7
 74
0
 42
0.0000001
 43
0.0000001
 44
0.0000000001
 40
0.0
 40
0.0
 40
0.0
 40
0.0
 40
0.3245263263
 40
0.5852408139
 40
0.8049183958
 40
1.0
 40
1.0
 40
1.0
 40
1.0
 10
32.2397372612
 20
12.4922557409
 30
0.0
 10
32.3161757875
 20
12.53653514
 30
0.0
 10
32.4488340551
 20
12.6263093359
 30
0.0
 10
32.6062874979
 20
12.7805942615
 30
0.0
 10
32.7085987808
 20
12.9351665781
 30
0.0
 10
32.7465192714
 20
13.0431022038
 30
0.0
 10
32.7569007115
 20
13.0951796067
 30
0.0
  0
SPLINE
  5
55B
100
AcDbEntity
  8
7_ALL_ROUNDS
100
AcDbSpline
 62
7
  6
CONTINUOUS
 70
0
 71
3
 72
11
 73
7
 74
0
 42
0.0000001
 43
0.0000001
 44
0.0000000001
 40
0.0
 40
0.0
 40
0.0
 40
0.0
 40
0.2578861748
 40
0.5
 40
0.7421138252
 40
1.0
 40
1.0
 40
1.0
 40
1.0
 10
29.2331414987
 20
12.1729506159
 30
0.0
 10
29.4229163723
 20
12.0630176046
 30
0.0
 10
29.8289320258
 20
11.9132804396
 30
0.0
 10
30.4608347684
 20
11.8448025539
 30
0.0
 10
31.0927375109
 20
11.9132804396
 30
0.0
 10
31.4987531645
 20
12.0630176046
 30
0.0
 10
31.6885280381
 20
12.1729506159
 30
0.0
  0
SPLINE
  5
55C
100
AcDbEntity
  8
4_ALL_POINTS
100
AcDbSpline
 62
7
  6
CONTINUOUS
 70
0
 71
3
 72
10
 73
6
 74
0
 42
0.0000001
 43
0.0000001
 44
0.0000000001
 40
0.0
 40
0.0
 40
0.0
 40
0.0
 40
0.5477372972
 40
0.781586341
 40
1.0
 40
1.0
 40
1.0
 40
1.0
 10
26.9344876828
 20
19.1524505058
 30
0.0
 10
26.9344876828
 20
19.1644231612
 30
0.0
 10
26.9319442835
 20
19.1820537122
 30
0.0
 10
26.9204200292
 20
19.2009543474
 30
0.0
 10
26.9126832621
 20
19.207461906
 30
0.0
 10
26.9085523139
 20
19.2098552247
 30
0.0
  0
SPLINE
  5
55D
100
AcDbEntity
  8
4_ALL_POINTS
100
AcDbSpline
 62
7
  6
CONTINUOUS
 70
0
 71
3
 72
9
 73
5
 74
0
 42
0.0000001
 43
0.0000001
 44
0.0000000001
 40
0.0
 40
0.0
 40
0.0
 40
0.0
 40
0.4495779452
 40
1.0
 40
1.0
 40
1.0
 40
1.0
 10
32.4882915764
 20
13.2034658783
 30
0.0
 10
32.4882890078
 20
13.2096125319
 30
0.0
 10
32.4829303227
 20
13.2233163724
 30
0.0
 10
32.4717436799
 20
13.231916254
 30
0.0
 10
32.4652319434
 20
13.2356883803
 30
0.0
  0
SPLINE
  5
55E
100
AcDbEntity
  8
4_ALL_POINTS
100
AcDbSpline
 62
7
  6
CONTINUOUS
 70
0
 71
3
 72
17
 73
13
 74
0
 42
0.0000001
 43
0.0000001
 44
0.0000000001
 40
0.0
 40
0.0
 40
0.0
 40
0.0
 40
0.1016905923
 40
0.2258546282
 40
0.3689702837
 40
0.5205859105
 40
0.6678154245
 40
0.7989912451
 40
0.8564619901
 40
0.9083037601
 40
0.9554878771
 40
1.0
 40
1.0
 40
1.0
 40
1.0
 10
29.9185552729
 20
15.0289803181
 30
0.0
 10
29.9110443415
 20
15.0464309898
 30
0.0
 10
29.8824184114
 20
15.0798968796
 30
0.0
 10
29.8209394306
 20
15.1128681205
 30
0.0
 10
29.744319291
 20
15.1319133141
 30
0.0
 10
29.6612036839
 20
15.1345995674
 30
0.0
 10
29.5815062213
 20
15.1208229304
 30
0.0
 10
29.5229693893
 20
15.095722372
 30
0.0
 10
29.4872139969
 20
15.0681250718
 30
0.0
 10
29.467990787
 20
15.0457623961
 30
0.0
 10
29.4559272848
 20
15.021452914
 30
0.0
 10
29.453130832
 20
15.0042192682
 30
0.0
 10
29.4531320908
 20
14.9959032572
 30
0.0
  0
SPLINE
  5
55F
100
AcDbEntity
  8
4_ALL_POINTS
100
AcDbSpline
 62
7
  6
CONTINUOUS
 70
0
 71
3
 72
10
 73
6
 74
0
 42
0.0000001
 43
0.0000001
 44
0.0000000001
 40
0.0
 40
0.0
 40
0.0
 40
0.0
 40
0.5477372972
 40
0.781586341
 40
1.0
 40
1.0
 40
1.0
 40
1.0
 10
24.6517020113
 20
17.8300757458
 30
0.0
 10
24.6517020113
 20
17.8420484012
 30
0.0
 10
24.649158612
 20
17.8596789522
 30
0.0
 10
24.6376343577
 20
17.8785795874
 30
0.0
 10
24.6298975906
 20
17.885087146
 30
0.0
 10
24.6257666423
 20
17.8874804647
 30
0.0
  0
SPLINE
  5
560
100
AcDbEntity
  8
4_ALL_POINTS
100
AcDbSpline
 62
7
  6
CONTINUOUS
 70
0
 71
3
 72
9
 73
5
 74
0
 42
0.0000001
 43
0.0000001
 44
0.0000000001
 40
0.0
 40
0.0
 40
0.0
 40
0.0
 40
0.4495779452
 40
1.0
 40
1.0
 40
1.0
 40
1.0
 10
30.5395721007
 20
14.3323223808
 30
0.0
 10
30.5395695321
 20
14.3384690343
 30
0.0
 10
30.5342108469
 20
14.3521728749
 30
0.0
 10
30.5230242041
 20
14.3607727565
 30
0.0
 10
30.5165124677
 20
14.3645448828
 30
0.0
  0
SPLINE
  5
561
100
AcDbEntity
  8
4_ALL_POINTS
100
AcDbSpline
 62
7
  6
CONTINUOUS
 70
0
 71
3
 72
11
 73
7
 74
0
 42
0.0000001
 43
0.0000001
 44
0.0000000001
 40
0.0
 40
0.0
 40
0.0
 40
0.0
 40
0.2898031779
 40
0.5490316586
 40
0.7822148089
 40
1.0
 40
1.0
 40
1.0
 40
1.0
 10
26.4681869511
 20
17.8553986153
 30
0.0
 10
26.4681869511
 20
17.909898674
 30
0.0
 10
26.4599722419
 20
18.013504887
 30
0.0
 10
26.4180258546
 20
18.1558592089
 30
0.0
 10
26.3475137438
 20
18.2714290123
 30
0.0
 10
26.2812095927
 20
18.3272984847
 30
0.0
 10
26.2457716582
 20
18.3478309606
 30
0.0
  0
SPLINE
  5
562
100
AcDbEntity
  8
4_ALL_POINTS
100
AcDbSpline
 62
7
  6
CONTINUOUS
 70
0
 71
3
 72
13
 73
9
 74
0
 42
0.0000001
 43
0.0000001
 44
0.0000000001
 40
0.0
 40
0.0
 40
0.0
 40
0.0
 40
0.299891909
 40
0.5814269048
 40
0.7052866861
 40
0.8148845781
 40
0.9114718583
 40
1.0
 40
1.0
 40
1.0
 40
1.0
 10
27.4237315221
 20
13.7831144326
 30
0.0
 10
27.38866915
 20
13.7881785267
 30
0.0
 10
27.3191756966
 20
13.7888443673
 30
0.0
 10
27.2370519555
 20
13.768321489
 30
0.0
 10
27.1835311959
 20
13.7386633778
 30
0.0
 10
27.1539772172
 20
13.7126374454
 30
0.0
 10
27.1349100441
 20
13.6828231627
 30
0.0
 10
27.1303628223
 20
13.6607768049
 30
0.0
 10
27.130364314
 20
13.6503189876
 30
0.0
  0
SPLINE
  5
563
100
AcDbEntity
  8
4_ALL_POINTS
100
AcDbSpline
 62
7
  6
CONTINUOUS
 70
0
 71
3
 72
13
 73
9
 74
0
 42
0.0000001
 43
0.0000001
 44
0.0000000001
 40
0.0
 40
0.0
 40
0.0
 40
0.0
 40
0.2698024031
 40
0.5610417151
 40
0.6951284772
 40
0.8128248108
 40
0.9126484128
 40
1.0
 40
1.0
 40
1.0
 40
1.0
 10
30.5165124677
 20
14.3645448828
 30
0.0
 10
30.5043346421
 20
14.3715992679
 30
0.0
 10
30.4752068659
 20
14.3795135279
 30
0.0
 10
30.4383691936
 20
14.377632987
 30
0.0
 10
30.41133057
 20
14.3685878942
 30
0.0
 10
30.3955199085
 20
14.3589085448
 30
0.0
 10
30.3848138556
 20
14.3466756777
 30
0.0
 10
30.382095532
 20
14.3368177582
 30
0.0
 10
30.3820974361
 20
14.332261299
 30
0.0
  0
SPLINE
  5
564
100
AcDbEntity
  8
4_ALL_POINTS
100
AcDbSpline
 62
7
  6
CONTINUOUS
 70
0
 71
3
 72
12
 73
8
 74
0
 42
0.0000001
 43
0.0000001
 44
0.0000000001
 40
0.0
 40
0.0
 40
0.0
 40
0.0
 40
0.0950537472
 40
0.1949701359
 40
0.4216485229
 40
0.6927667236
 40
1.0
 40
1.0
 40
1.0
 40
1.0
 10
27.8320086362
 20
13.6172589585
 30
0.0
 10
27.8320075515
 20
13.6248635932
 30
0.0
 10
27.8296902542
 20
13.6405414136
 30
0.0
 10
27.8156955883
 20
13.6716269302
 30
0.0
 10
27.7807265142
 20
13.7063200892
 30
0.0
 10
27.7226344019
 20
13.7354990155
 30
0.0
 10
27.6772625535
 20
13.7464966877
 30
0.0
 10
27.652935237
 20
13.7500103068
 30
0.0
  0
SPLINE
  5
565
100
AcDbEntity
  8
4_ALL_POINTS
100
AcDbSpline
 62
7
  6
CONTINUOUS
 70
0
 71
3
 72
13
 73
9
 74
0
 42
0.0000001
 43
0.0000001
 44
0.0000000001
 40
0.0
 40
0.0
 40
0.0
 40
0.0
 40
0.2698024031
 40
0.5610417151
 40
0.6951284772
 40
0.8128248108
 40
0.9126484128
 40
1.0
 40
1.0
 40
1.0
 40
1.0
 10
31.0176117614
 20
14.3322918399
 30
0.0
 10
31.0054339359
 20
14.3393462249
 30
0.0
 10
30.9763061596
 20
14.347260485
 30
0.0
 10
30.9394684874
 20
14.3453799441
 30
0.0
 10
30.9124298638
 20
14.3363348512
 30
0.0
 10
30.8966192022
 20
14.3266555018
 30
0.0
 10
30.8859131493
 20
14.3144226348
 30
0.0
 10
30.8831948258
 20
14.3045647152
 30
0.0
 10
30.8831967298
 20
14.300008256
 30
0.0
  0
SPLINE
  5
566
100
AcDbEntity
  8
7_ALL_ROUNDS
100
AcDbSpline
 62
7
  6
CONTINUOUS
 70
0
 71
3
 72
11
 73
7
 74
0
 42
0.0000001
 43
0.0000001
 44
0.0000000001
 40
0.0
 40
0.0
 40
0.0
 40
0.0
 40
0.2374319199
 40
0.5003176011
 40
0.7630304504
 40
1.0
 40
1.0
 40
1.0
 40
1.0
 10
24.5347788427
 20
18.2299196306
 30
0.0
 10
24.4873577175
 20
18.2024494656
 30
0.0
 10
24.3976302758
 20
18.1268081953
 30
0.0
 10
24.2928787015
 20
17.9836141176
 30
0.0
 10
24.2212744828
 20
17.8214036922
 30
0.0
 10
24.2007126469
 20
17.7059979437
 30
0.0
 10
24.2007126469
 20
17.651301627
 30
0.0
  0
SPLINE
  5
567
100
AcDbEntity
  8
4_ALL_POINTS
100
AcDbSpline
 62
7
  6
CONTINUOUS
 70
0
 71
3
 72
13
 73
9
 74
0
 42
0.0000001
 43
0.0000001
 44
0.0000000001
 40
0.0
 40
0.0
 40
0.0
 40
0.0
 40
0.2698024031
 40
0.5610417151
 40
0.6951284772
 40
0.8128248108
 40
0.9126484128
 40
1.0
 40
1.0
 40
1.0
 40
1.0
 10
32.4652319434
 20
13.2356883803
 30
0.0
 10
32.4530541178
 20
13.2427427654
 30
0.0
 10
32.4239263416
 20
13.2506570255
 30
0.0
 10
32.3870886693
 20
13.2487764845
 30
0.0
 10
32.3600500457
 20
13.2397313917
 30
0.0
 10
32.3442393842
 20
13.2300520423
 30
0.0
 10
32.3335333313
 20
13.2178191752
 30
0.0
 10
32.3308150077
 20
13.2079612557
 30
0.0
 10
32.3308169118
 20
13.2034047965
 30
0.0
  0
SPLINE
  5
568
100
AcDbEntity
  8
4_ALL_POINTS
100
AcDbSpline
 62
7
  6
CONTINUOUS
 70
0
 71
3
 72
13
 73
9
 74
0
 42
0.0000001
 43
0.0000001
 44
0.0000000001
 40
0.0
 40
0.0
 40
0.0
 40
0.0
 40
0.2698024031
 40
0.5610417151
 40
0.6951284772
 40
0.8128248108
 40
0.9126484128
 40
1.0
 40
1.0
 40
1.0
 40
1.0
 10
28.567792992
 20
13.2356883803
 30
0.0
 10
28.5556151664
 20
13.2427427654
 30
0.0
 10
28.5264873902
 20
13.2506570255
 30
0.0
 10
28.4896497179
 20
13.2487764845
 30
0.0
 10
28.4626110943
 20
13.2397313917
 30
0.0
 10
28.4468004327
 20
13.2300520423
 30
0.0
 10
28.4360943799
 20
13.2178191752
 30
0.0
 10
28.4333760563
 20
13.2079612557
 30
0.0
 10
28.4333779604
 20
13.2034047965
 30
0.0
  0
SPLINE
  5
569
100
AcDbEntity
  8
4_ALL_POINTS
100
AcDbSpline
 62
7
  6
CONTINUOUS
 70
0
 71
3
 72
13
 73
9
 74
0
 42
0.0000001
 43
0.0000001
 44
0.0000000001
 40
0.0
 40
0.0
 40
0.0
 40
0.0
 40
0.2698024031
 40
0.5610417151
 40
0.6951284772
 40
0.8128248108
 40
0.9126484128
 40
1.0
 40
1.0
 40
1.0
 40
1.0
 10
28.6234706913
 20
12.945410994
 30
0.0
 10
28.6112928657
 20
12.9524653791
 30
0.0
 10
28.5821650895
 20
12.9603796391
 30
0.0
 10
28.5453274172
 20
12.9584990982
 30
0.0
 10
28.5182887936
 20
12.9494540054
 30
0.0
 10
28.5024781321
 20
12.939774656
 30
0.0
 10
28.4917720792
 20
12.9275417889
 30
0.0
 10
28.4890537556
 20
12.9176838694
 30
0.0
 10
28.4890556597
 20
12.9131274102
 30
0.0
  0
SPLINE
  5
56A
100
AcDbEntity
  8
4_ALL_POINTS
100
AcDbSpline
 62
7
  6
CONTINUOUS
 70
0
 71
3
 72
9
 73
5
 74
0
 42
0.0000001
 43
0.0000001
 44
0.0000000001
 40
0.0
 40
0.0
 40
0.0
 40
0.0
 40
0.4495779452
 40
1.0
 40
1.0
 40
1.0
 40
1.0
 10
31.9315145833
 20
12.3971398051
 30
0.0
 10
31.9315120148
 20
12.4032864587
 30
0.0
 10
31.9261533296
 20
12.4169902993
 30
0.0
 10
31.9149666868
 20
12.4255901808
 30
0.0
 10
31.9084549503
 20
12.4293623072
 30
0.0
  0
SPLINE
  5
56B
100
AcDbEntity
  8
4_ALL_POINTS
100
AcDbSpline
 62
7
  6
CONTINUOUS
 70
0
 71
3
 72
13
 73
9
 74
0
 42
0.0000001
 43
0.0000001
 44
0.0000000001
 40
0.0
 40
0.0
 40
0.0
 40
0.0
 40
0.2698024031
 40
0.5610417151
 40
0.6951284772
 40
0.8128248108
 40
0.9126484128
 40
1.0
 40
1.0
 40
1.0
 40
1.0
 10
30.5165124677
 20
12.1068318779
 30
0.0
 10
30.5043346421
 20
12.113886263
 30
0.0
 10
30.4752068659
 20
12.121800523
 30
0.0
 10
30.4383691936
 20
12.1199199821
 30
0.0
 10
30.41133057
 20
12.1108748892
 30
0.0
 10
30.3955199085
 20
12.1011955398
 30
0.0
 10
30.3848138556
 20
12.0889626728
 30
0.0
 10
30.382095532
 20
12.0791047533
 30
0.0
 10
30.3820974361
 20
12.0745482941
 30
0.0
  0
SPLINE
  5
56C
100
AcDbEntity
  8
4_ALL_POINTS
100
AcDbSpline
 62
7
  6
CONTINUOUS
 70
0
 71
3
 72
13
 73
9
 74
0
 42
0.0000001
 43
0.0000001
 44
0.0000000001
 40
0.0
 40
0.0
 40
0.0
 40
0.0
 40
0.2698024031
 40
0.5610417151
 40
0.6951284772
 40
0.8128248108
 40
0.9126484128
 40
1.0
 40
1.0
 40
1.0
 40
1.0
 10
31.9084549503
 20
12.4293623072
 30
0.0
 10
31.8962771248
 20
12.4364166922
 30
0.0
 10
31.8671493485
 20
12.4443309523
 30
0.0
 10
31.8303116763
 20
12.4424504114
 30
0.0
 10
31.8032730526
 20
12.4334053185
 30
0.0
 10
31.7874623911
 20
12.4237259691
 30
0.0
 10
31.7767563382
 20
12.4114931021
 30
0.0
 10
31.7740380147
 20
12.4016351825
 30
0.0
 10
31.7740399187
 20
12.3970787233
 30
0.0
  0
SPLINE
  5
56D
100
AcDbEntity
  8
4_ALL_POINTS
100
AcDbSpline
 62
7
  6
CONTINUOUS
 70
0
 71
3
 72
15
 73
11
 74
0
 42
0.0000001
 43
0.0000001
 44
0.0000000001
 40
0.0
 40
0.0
 40
0.0
 40
0.0
 40
0.1287881632
 40
0.2704374539
 40
0.4176402454
 40
0.5620440719
 40
0.6958134826
 40
0.8132427073
 40
0.9128522655
 40
1.0
 40
1.0
 40
1.0
 40
1.0
 10
30.5652304546
 20
13.2639097929
 30
0.0
 10
30.5543074618
 20
13.270237277
 30
0.0
 10
30.5295716495
 20
13.2804798634
 30
0.0
 10
30.489247016
 20
13.288578345
 30
0.0
 10
30.4465916176
 20
13.2897650385
 30
0.0
 10
30.4051012366
 20
13.2839215668
 30
0.0
 10
30.3680863918
 20
13.2715173488
 30
0.0
 10
30.338432719
 20
13.2533936094
 30
0.0
 10
30.3183484416
 20
13.2304789407
 30
0.0
 10
30.3132008404
 20
13.2120085266
 30
0.0
 10
30.3131990438
 20
13.2034666247
 30
0.0
  0
SPLINE
  5
56E
100
AcDbEntity
  8
7_ALL_ROUNDS
100
AcDbSpline
 62
7
  6
CONTINUOUS
 70
0
 71
3
 72
11
 73
7
 74
0
 42
0.0000001
 43
0.0000001
 44
0.0000000001
 40
0.0
 40
0.0
 40
0.0
 40
0.0
 40
0.2175125386
 40
0.4505532167
 40
0.7099374308
 40
1.0
 40
1.0
 40
1.0
 40
1.0
 10
27.1100558453
 20
19.6082479656
 30
0.0
 10
27.09446018
 20
19.6172824604
 30
0.0
 10
27.0585813469
 20
19.6303309096
 30
0.0
 10
26.99896132
 20
19.6317839046
 30
0.0
 10
26.9353907246
 20
19.6163531693
 30
0.0
 10
26.8940398485
 20
19.5965951119
 30
0.0
 10
26.8732422136
 20
19.5845474336
 30
0.0
  0
SPLINE
  5
56F
100
AcDbEntity
  8
4_ALL_POINTS
100
AcDbSpline
 62
7
  6
CONTINUOUS
 70
0
 71
3
 72
11
 73
7
 74
0
 42
0.0000001
 43
0.0000001
 44
0.0000000001
 40
0.0
 40
0.0
 40
0.0
 40
0.0
 40
0.2180232737
 40
0.4512608672
 40
0.7106406086
 40
1.0
 40
1.0
 40
1.0
 40
1.0
 10
30.6084704929
 20
13.2034040501
 30
0.0
 10
30.6084716799
 20
13.2090477155
 30
0.0
 10
30.6064092158
 20
13.2208089626
 30
0.0
 10
30.5975238082
 20
13.2372044573
 30
0.0
 10
30.5834723631
 20
13.2520233764
 30
0.0
 10
30.5717117707
 20
13.2601552885
 30
0.0
 10
30.5652304546
 20
13.2639097929
 30
0.0
  0
SPLINE
  5
570
100
AcDbEntity
  8
4_ALL_POINTS
100
AcDbSpline
 62
7
  6
CONTINUOUS
 70
0
 71
3
 72
14
 73
10
 74
0
 42
0.0000001
 43
0.0000001
 44
0.0000000001
 40
0.0
 40
0.0
 40
0.0
 40
0.0
 40
0.086955364
 40
0.1865276847
 40
0.3041166858
 40
0.4381955875
 40
0.5829850323
 40
0.7305469757
 40
1.0
 40
1.0
 40
1.0
 40
1.0
 10
26.782254414
 20
17.0663373195
 30
0.0
 10
26.7885390991
 20
17.0626962053
 30
0.0
 10
26.8043492725
 20
17.0586204238
 30
0.0
 10
26.8298066252
 20
17.0637250541
 30
0.0
 10
26.8558285018
 20
17.077941523
 30
0.0
 10
26.8807869355
 20
17.1000305281
 30
0.0
 10
26.9028524529
 20
17.1282640547
 30
0.0
 10
26.9252094558
 20
17.1695564863
 30
0.0
 10
26.9344876828
 20
17.2044447342
 30
0.0
 10
26.9344876828
 20
17.2269517758
 30
0.0
  0
SPLINE
  5
571
100
AcDbEntity
  8
4_ALL_POINTS
100
AcDbSpline
 62
7
  6
CONTINUOUS
 70
0
 71
3
 72
9
 73
5
 74
0
 42
0.0000001
 43
0.0000001
 44
0.0000000001
 40
0.0
 40
0.0
 40
0.0
 40
0.0
 40
0.4495779452
 40
1.0
 40
1.0
 40
1.0
 40
1.0
 10
30.5395721007
 20
12.0746093758
 30
0.0
 10
30.5395695321
 20
12.0807560294
 30
0.0
 10
30.5342108469
 20
12.09445987
 30
0.0
 10
30.5230242041
 20
12.1030597515
 30
0.0
 10
30.5165124677
 20
12.1068318779
 30
0.0
  0
SPLINE
  5
572
100
AcDbEntity
  8
4_ALL_POINTS
100
AcDbSpline
 62
7
  6
CONTINUOUS
 70
0
 71
3
 72
14
 73
10
 74
0
 42
0.0000001
 43
0.0000001
 44
0.0000000001
 40
0.0
 40
0.0
 40
0.0
 40
0.0
 40
0.086955364
 40
0.1865276847
 40
0.3041166858
 40
0.4381955875
 40
0.5829850323
 40
0.7305469757
 40
1.0
 40
1.0
 40
1.0
 40
1.0
 10
24.4994687425
 20
15.7439625595
 30
0.0
 10
24.5057534276
 20
15.7403214453
 30
0.0
 10
24.5215636009
 20
15.7362456638
 30
0.0
 10
24.5470209536
 20
15.7413502941
 30
0.0
 10
24.5730428302
 20
15.755566763
 30
0.0
 10
24.5980012639
 20
15.7776557681
 30
0.0
 10
24.6200667814
 20
15.8058892947
 30
0.0
 10
24.6424237843
 20
15.8471817262
 30
0.0
 10
24.6517020113
 20
15.8820699741
 30
0.0
 10
24.6517020113
 20
15.9045770158
 30
0.0
  0
SPLINE
  5
573
100
AcDbEntity
  8
6_ALL_SURFS
100
AcDbSpline
 62
7
  6
CONTINUOUS
 70
0
 71
3
 72
11
 73
7
 74
0
 42
0.0000001
 43
0.0000001
 44
0.0000000001
 40
0.0
 40
0.0
 40
0.0
 40
0.0
 40
0.2369916541
 40
0.4996824462
 40
0.7625459326
 40
1.0
 40
1.0
 40
1.0
 40
1.0
 10
24.2007126469
 20
15.1885887513
 30
0.0
 10
24.2007126469
 20
15.1743208318
 30
0.0
 10
24.2060741205
 20
15.1442184071
 30
0.0
 10
24.2247578262
 20
15.101913578
 30
0.0
 10
24.2520726794
 20
15.0645603077
 30
0.0
 10
24.2754781117
 20
15.0448316747
 30
0.0
 10
24.2878482463
 20
15.0376658887
 30
0.0
  0
SPLINE
  5
574
100
AcDbEntity
  8
4_ALL_POINTS
100
AcDbSpline
 62
7
  6
CONTINUOUS
 70
0
 71
3
 72
14
 73
10
 74
0
 42
0.0000001
 43
0.0000001
 44
0.0000000001
 40
0.0
 40
0.0
 40
0.0
 40
0.0
 40
0.086955364
 40
0.1865276847
 40
0.3041166858
 40
0.4381955875
 40
0.5829850323
 40
0.7305469757
 40
1.0
 40
1.0
 40
1.0
 40
1.0
 10
26.782254414
 20
18.9918360496
 30
0.0
 10
26.7885390991
 20
18.9881949354
 30
0.0
 10
26.8043492725
 20
18.9841191539
 30
0.0
 10
26.8298066252
 20
18.9892237842
 30
0.0
 10
26.8558285018
 20
19.003440253
 30
0.0
 10
26.8807869355
 20
19.0255292582
 30
0.0
 10
26.9028524529
 20
19.0537627848
 30
0.0
 10
26.9252094558
 20
19.0950552163
 30
0.0
 10
26.9344876828
 20
19.1299434642
 30
0.0
 10
26.9344876828
 20
19.1524505058
 30
0.0
  0
SPLINE
  5
575
100
AcDbEntity
  8
4_ALL_POINTS
100
AcDbSpline
 62
7
  6
CONTINUOUS
 70
0
 71
3
 72
17
 73
13
 74
0
 42
0.0000001
 43
0.0000001
 44
0.0000000001
 40
0.0
 40
0.0
 40
0.0
 40
0.0
 40
0.0428071387
 40
0.0873930439
 40
0.1351996689
 40
0.1871558714
 40
0.304456211
 40
0.4382087334
 40
0.5826421189
 40
0.729850259
 40
0.8714224706
 40
1.0
 40
1.0
 40
1.0
 40
1.0
 10
25.1622493981
 20
16.4776202416
 30
0.0
 10
25.1888548434
 20
16.4622052444
 30
0.0
 10
25.2475326744
 20
16.4377231199
 30
0.0
 10
25.3444556255
 20
16.423465824
 30
0.0
 10
25.4485868735
 20
16.4311044176
 30
0.0
 10
25.5999656257
 20
16.4713785099
 30
0.0
 10
25.7935499489
 20
16.5772278944
 30
0.0
 10
26.0074939015
 20
16.7666362184
 30
0.0
 10
26.1966743584
 20
17.0085875764
 30
0.0
 10
26.3456034907
 20
17.2834962255
 30
0.0
 10
26.4422592378
 20
17.5687732406
 30
0.0
 10
26.4681869511
 20
17.7630409004
 30
0.0
 10
26.4681869511
 20
17.8553986153
 30
0.0
  0
SPLINE
  5
576
100
AcDbEntity
  8
4_ALL_POINTS
100
AcDbSpline
 62
7
  6
CONTINUOUS
 70
0
 71
3
 72
9
 73
5
 74
0
 42
0.0000001
 43
0.0000001
 44
0.0000000001
 40
0.0
 40
0.0
 40
0.0
 40
0.0
 40
0.4495779452
 40
1.0
 40
1.0
 40
1.0
 40
1.0
 10
31.0406713944
 20
14.3000693378
 30
0.0
 10
31.0406688259
 20
14.3062159914
 30
0.0
 10
31.0353101407
 20
14.319919832
 30
0.0
 10
31.0241234979
 20
14.3285197135
 30
0.0
 10
31.0176117614
 20
14.3322918399
 30
0.0
  0
SPLINE
  5
577
100
AcDbEntity
  8
4_ALL_POINTS
100
AcDbSpline
 62
7
  6
CONTINUOUS
 70
0
 71
3
 72
10
 73
6
 74
0
 42
0.0000001
 43
0.0000001
 44
0.0000000001
 40
0.0
 40
0.0
 40
0.0
 40
0.0
 40
0.5477372972
 40
0.781586341
 40
1.0
 40
1.0
 40
1.0
 40
1.0
 10
26.9344876828
 20
17.2269517758
 30
0.0
 10
26.9344876828
 20
17.2389244311
 30
0.0
 10
26.9319442835
 20
17.2565549821
 30
0.0
 10
26.9204200292
 20
17.2754556174
 30
0.0
 10
26.9126832621
 20
17.281963176
 30
0.0
 10
26.9085523139
 20
17.2843564947
 30
0.0
  0
SPLINE
  5
578
100
AcDbEntity
  8
4_ALL_POINTS
100
AcDbSpline
 62
7
  6
CONTINUOUS
 70
0
 71
3
 72
14
 73
10
 74
0
 42
0.0000001
 43
0.0000001
 44
0.0000000001
 40
0.0
 40
0.0
 40
0.0
 40
0.0
 40
0.086955364
 40
0.1865276847
 40
0.3041166858
 40
0.4381955875
 40
0.5829850323
 40
0.7305469757
 40
1.0
 40
1.0
 40
1.0
 40
1.0
 10
24.4994687425
 20
17.6694612896
 30
0.0
 10
24.5057534276
 20
17.6658201754
 30
0.0
 10
24.5215636009
 20
17.6617443939
 30
0.0
 10
24.5470209536
 20
17.6668490242
 30
0.0
 10
24.5730428302
 20
17.681065493
 30
0.0
 10
24.5980012639
 20
17.7031544982
 30
0.0
 10
24.6200667814
 20
17.7313880248
 30
0.0
 10
24.6424237843
 20
17.7726804563
 30
0.0
 10
24.6517020113
 20
17.8075687042
 30
0.0
 10
24.6517020113
 20
17.8300757458
 30
0.0
  0
SPLINE
  5
579
100
AcDbEntity
  8
4_ALL_POINTS
100
AcDbSpline
 62
7
  6
CONTINUOUS
 70
0
 71
3
 72
9
 73
5
 74
0
 42
0.0000001
 43
0.0000001
 44
0.0000000001
 40
0.0
 40
0.0
 40
0.0
 40
0.0
 40
0.4495779452
 40
1.0
 40
1.0
 40
1.0
 40
1.0
 10
28.6465303243
 20
12.913188492
 30
0.0
 10
28.6465277557
 20
12.9193351455
 30
0.0
 10
28.6411690705
 20
12.9330389861
 30
0.0
 10
28.6299824277
 20
12.9416388677
 30
0.0
 10
28.6234706913
 20
12.945410994
 30
0.0
  0
SPLINE
  5
57A
100
AcDbEntity
  8
7_ALL_ROUNDS
100
AcDbSpline
 62
3
  6
CONTINUOUS
 70
0
 71
3
 72
11
 73
7
 74
0
 42
0.0000001
 43
0.0000001
 44
0.0000000001
 40
0.0
 40
0.0
 40
0.0
 40
0.0
 40
0.2578861748
 40
0.5
 40
0.7421138252
 40
1.0
 40
1.0
 40
1.0
 40
1.0
 10
31.6885280381
 20
12.0725037655
 30
0.0
 10
31.4987531645
 20
11.9625707542
 30
0.0
 10
31.0927375109
 20
11.8128335892
 30
0.0
 10
30.4608347684
 20
11.7443557035
 30
0.0
 10
29.8289320258
 20
11.8128335892
 30
0.0
 10
29.4229163723
 20
11.9625707542
 30
0.0
 10
29.2331414987
 20
12.0725037655
 30
0.0
  0
SPLINE
  5
57B
100
AcDbEntity
  8
4_ALL_POINTS
100
AcDbSpline
 62
3
  6
CONTINUOUS
 70
0
 71
3
 72
11
 73
7
 74
0
 42
0.0000001
 43
0.0000001
 44
0.0000000001
 40
0.0
 40
0.0
 40
0.0
 40
0.0
 40
0.2401832764
 40
0.5060186812
 40
0.7685597197
 40
1.0
 40
1.0
 40
1.0
 40
1.0
 10
30.5652304546
 20
13.1634629425
 30
0.0
 10
30.5495013294
 20
13.1725745286
 30
0.0
 10
30.5127292076
 20
13.1855327296
 30
0.0
 10
30.4543168573
 20
13.1907262032
 30
0.0
 10
30.3969053721
 20
13.182653247
 30
0.0
 10
30.3617740941
 20
13.1677208857
 30
0.0
 10
30.3473924189
 20
13.1577221007
 30
0.0
  0
SPLINE
  5
57C
100
AcDbEntity
  8
4_ALL_POINTS
100
AcDbSpline
 62
3
  6
CONTINUOUS
 70
0
 71
3
 72
9
 73
5
 74
0
 42
0.0000001
 43
0.0000001
 44
0.0000000001
 40
0.0
 40
0.0
 40
0.0
 40
0.0
 40
0.4463595273
 40
1.0
 40
1.0
 40
1.0
 40
1.0
 10
27.8151819771
 20
13.5675076572
 30
0.0
 10
27.799537206
 20
13.5902127353
 30
0.0
 10
27.747078966
 20
13.6282639736
 30
0.0
 10
27.6867842868
 20
13.6446746037
 30
0.0
 10
27.652935237
 20
13.6495634564
 30
0.0
  0
SPLINE
  5
57D
100
AcDbEntity
  8
4_ALL_POINTS
100
AcDbSpline
 62
3
  6
CONTINUOUS
 70
0
 71
3
 72
11
 73
7
 74
0
 42
0.0000001
 43
0.0000001
 44
0.0000000001
 40
0.0
 40
0.0
 40
0.0
 40
0.0
 40
0.2804362274
 40
0.5532445165
 40
0.797140276
 40
1.0
 40
1.0
 40
1.0
 40
1.0
 10
27.4237315221
 20
13.6826675822
 30
0.0
 10
27.3959291386
 20
13.6866831087
 30
0.0
 10
27.3400874914
 20
13.6887134006
 30
0.0
 10
27.2607539878
 20
13.6753191273
 30
0.0
 10
27.1936254667
 20
13.6473147035
 30
0.0
 10
27.1585923793
 20
13.6172172173
 30
0.0
 10
27.1470909383
 20
13.6004653415
 30
0.0
  0
SPLINE
  5
57E
100
AcDbEntity
  8
4_ALL_POINTS
100
AcDbSpline
 62
3
  6
CONTINUOUS
 70
0
 71
3
 72
14
 73
10
 74
0
 42
0.0000001
 43
0.0000001
 44
0.0000000001
 40
0.0
 40
0.0
 40
0.0
 40
0.0
 40
0.2079279703
 40
0.3398812663
 40
0.4830424476
 40
0.6288505214
 40
0.7682111413
 40
0.8933546004
 40
1.0
 40
1.0
 40
1.0
 40
1.0
 10
29.9185552729
 20
14.9285334676
 30
0.0
 10
29.9048976019
 20
14.960265289
 30
0.0
 10
29.8553284706
 20
14.9984017185
 30
0.0
 10
29.7798724375
 20
15.0240103569
 30
0.0
 10
29.7099823207
 20
15.0338932055
 30
0.0
 10
29.638572806
 20
15.0312209867
 30
0.0
 10
29.5715570716
 20
15.0164525152
 30
0.0
 10
29.514932992
 20
14.9908818652
 30
0.0
 10
29.4847766251
 20
14.9655437723
 30
0.0
 10
29.4739130205
 20
14.9515462314
 30
0.0
  0
SPLINE
  5
57F
100
AcDbEntity
  8
4_ALL_POINTS
100
AcDbSpline
 62
3
  6
CONTINUOUS
 70
0
 71
3
 72
11
 73
7
 74
0
 42
0.0000001
 43
0.0000001
 44
0.0000000001
 40
0.0
 40
0.0
 40
0.0
 40
0.0
 40
0.2833792022
 40
0.542916277
 40
0.780202577
 40
1.0
 40
1.0
 40
1.0
 40
1.0
 10
26.3810513517
 20
17.9058746275
 30
0.0
 10
26.3810513517
 20
17.9499805281
 30
0.0
 10
26.3755812449
 20
18.0346506477
 30
0.0
 10
26.3484920759
 20
18.1536482342
 30
0.0
 10
26.3032037673
 20
18.2564145082
 30
0.0
 10
26.2599360137
 20
18.3139616547
 30
0.0
 10
26.2359055822
 20
18.3383102275
 30
0.0
  0
SPLINE
  5
580
100
AcDbEntity
  8
7_ALL_ROUNDS
100
AcDbSpline
 62
3
  6
CONTINUOUS
 70
0
 71
3
 72
11
 73
7
 74
0
 42
0.0000001
 43
0.0000001
 44
0.0000000001
 40
0.0
 40
0.0
 40
0.0
 40
0.0
 40
0.2900625692
 40
0.5494467833
 40
0.7824874614
 40
1.0
 40
1.0
 40
1.0
 40
1.0
 10
26.7861066142
 20
19.6350234458
 30
0.0
 10
26.8069042491
 20
19.6470711241
 30
0.0
 10
26.8482551252
 20
19.6668291815
 30
0.0
 10
26.9118257205
 20
19.6822599168
 30
0.0
 10
26.9714457475
 20
19.6808069217
 30
0.0
 10
27.0073245806
 20
19.6677584726
 30
0.0
 10
27.0229202458
 20
19.6587239778
 30
0.0
  0
SPLINE
  5
581
100
AcDbEntity
  8
7_ALL_ROUNDS
100
AcDbSpline
 62
3
  6
CONTINUOUS
 70
0
 71
3
 72
11
 73
7
 74
0
 42
0.0000001
 43
0.0000001
 44
0.0000000001
 40
0.0
 40
0.0
 40
0.0
 40
0.0
 40
0.2369695496
 40
0.4996823989
 40
0.7625680801
 40
1.0
 40
1.0
 40
1.0
 40
1.0
 10
24.1135770475
 20
17.7017776392
 30
0.0
 10
24.1135770475
 20
17.7564739559
 30
0.0
 10
24.1341388834
 20
17.8718797044
 30
0.0
 10
24.2057431021
 20
18.0340901298
 30
0.0
 10
24.3104946764
 20
18.1772842075
 30
0.0
 10
24.4002221181
 20
18.2529254778
 30
0.0
 10
24.4476432433
 20
18.2803956428
 30
0.0
  0
SPLINE
  5
582
100
AcDbEntity
  8
4_ALL_POINTS
100
AcDbSpline
 62
3
  6
CONTINUOUS
 70
0
 71
3
 72
9
 73
5
 74
0
 42
0.0000001
 43
0.0000001
 44
0.0000000001
 40
0.0
 40
0.0
 40
0.0
 40
0.0
 40
0.2424369941
 40
1.0
 40
1.0
 40
1.0
 40
1.0
 10
30.5805506338
 20
13.153032866
 30
0.0
 10
30.5793819627
 20
13.1539708896
 30
0.0
 10
30.5744814601
 20
13.1577398991
 30
0.0
 10
30.5692823764
 20
13.1611157405
 30
0.0
 10
30.5652304546
 20
13.1634629425
 30
0.0
  0
SPLINE
  5
583
100
AcDbEntity
  8
6_ALL_SURFS
100
AcDbSpline
 62
3
  6
CONTINUOUS
 70
0
 71
3
 72
11
 73
7
 74
0
 42
0.0000001
 43
0.0000001
 44
0.0000000001
 40
0.0
 40
0.0
 40
0.0
 40
0.0
 40
0.2369916541
 40
0.4996824462
 40
0.7625459326
 40
1.0
 40
1.0
 40
1.0
 40
1.0
 10
24.1135770475
 20
15.2390647635
 30
0.0
 10
24.1135770475
 20
15.2105289245
 30
0.0
 10
24.1242999948
 20
15.1503240751
 30
0.0
 10
24.161667406
 20
15.0657144169
 30
0.0
 10
24.2162971125
 20
14.9910078764
 30
0.0
 10
24.2631079772
 20
14.9515506104
 30
0.0
 10
24.2878482463
 20
14.9372190383
 30
0.0
  0
SPLINE
  5
584
100
AcDbEntity
  8
7_ALL_ROUNDS
100
AcDbSpline
 62
3
  6
CONTINUOUS
 70
0
 71
3
 72
12
 73
8
 74
0
 42
0.0000001
 43
0.0000001
 44
0.0000000001
 40
0.0
 40
0.0
 40
0.0
 40
0.0
 40
0.0964137424
 40
0.1953842111
 40
0.4107617555
 40
0.6689289301
 40
1.0
 40
1.0
 40
1.0
 40
1.0
 10
32.7676453672
 20
13.102988487
 30
0.0
 10
32.7676453672
 20
13.0732580405
 30
0.0
 10
32.7626952011
 20
13.0128923513
 30
0.0
 10
32.7320063076
 20
12.8895130281
 30
0.0
 10
32.6488512024
 20
12.7306980867
 30
0.0
 10
32.478691729
 20
12.5471785285
 30
0.0
 10
32.3280759472
 20
12.442981828
 30
0.0
 10
32.2397372612
 20
12.3918088904
 30
0.0
  0
SPLINE
  5
585
100
AcDbEntity
  8
4_ALL_POINTS
100
AcDbSpline
 62
3
  6
CONTINUOUS
 70
0
 71
3
 72
11
 73
7
 74
0
 42
0.0000001
 43
0.0000001
 44
0.0000000001
 40
0.0
 40
0.0
 40
0.0
 40
0.0
 40
0.2374255964
 40
0.5003235758
 40
0.7630073311
 40
1.0
 40
1.0
 40
1.0
 40
1.0
 10
26.7582677645
 20
17.1231296537
 30
0.0
 10
26.7709130144
 20
17.1304548088
 30
0.0
 10
26.794840264
 20
17.1506266478
 30
0.0
 10
26.8227704859
 20
17.1888118458
 30
0.0
 10
26.8418700503
 20
17.2320658277
 30
0.0
 10
26.8473520834
 20
17.2628407344
 30
0.0
 10
26.8473520834
 20
17.277427788
 30
0.0
  0
SPLINE
  5
586
100
AcDbEntity
  8
4_ALL_POINTS
100
AcDbSpline
 62
3
  6
CONTINUOUS
 70
0
 71
3
 72
11
 73
7
 74
0
 42
0.0000001
 43
0.0000001
 44
0.0000000001
 40
0.0
 40
0.0
 40
0.0
 40
0.0
 40
0.2374255964
 40
0.5003235758
 40
0.7630073311
 40
1.0
 40
1.0
 40
1.0
 40
1.0
 10
24.475482093
 20
15.8007548936
 30
0.0
 10
24.4881273428
 20
15.8080800488
 30
0.0
 10
24.5120545925
 20
15.8282518877
 30
0.0
 10
24.5399848143
 20
15.8664370858
 30
0.0
 10
24.5590843788
 20
15.9096910677
 30
0.0
 10
24.5645664119
 20
15.9404659744
 30
0.0
 10
24.5645664119
 20
15.9550530279
 30
0.0
  0
SPLINE
  5
587
100
AcDbEntity
  8
4_ALL_POINTS
100
AcDbSpline
 62
3
  6
CONTINUOUS
 70
0
 71
3
 72
17
 73
13
 74
0
 42
0.0000001
 43
0.0000001
 44
0.0000000001
 40
0.0
 40
0.0
 40
0.0
 40
0.0
 40
0.0436409049
 40
0.0902029554
 40
0.140506891
 40
0.1949553787
 40
0.3159555696
 40
0.4506296053
 40
0.5933292306
 40
0.7370609375
 40
0.8746665261
 40
1.0
 40
1.0
 40
1.0
 40
1.0
 10
25.1637660657
 20
16.491368359
 30
0.0
 10
25.1926949231
 20
16.4835720538
 30
0.0
 10
25.254548661
 20
16.4744910357
 30
0.0
 10
25.351381695
 20
16.4803840836
 30
0.0
 10
25.4528101575
 20
16.5049291077
 30
0.0
 10
25.5966972185
 20
16.5637814933
 30
0.0
 10
25.7758644497
 20
16.6825570308
 30
0.0
 10
25.9712464908
 20
16.8757906126
 30
0.0
 10
26.1411875448
 20
17.1112149896
 30
0.0
 10
26.2734292023
 20
17.3719392328
 30
0.0
 10
26.3585232316
 20
17.6391078359
 30
0.0
 10
26.3810513517
 20
17.8198288528
 30
0.0
 10
26.3810513517
 20
17.9058746275
 30
0.0
  0
SPLINE
  5
588
100
AcDbEntity
  8
4_ALL_POINTS
100
AcDbSpline
 62
3
  6
CONTINUOUS
 70
0
 71
3
 72
11
 73
7
 74
0
 42
0.0000001
 43
0.0000001
 44
0.0000000001
 40
0.0
 40
0.0
 40
0.0
 40
0.0
 40
0.2374255964
 40
0.5003235758
 40
0.7630073311
 40
1.0
 40
1.0
 40
1.0
 40
1.0
 10
26.7582677645
 20
19.0486283837
 30
0.0
 10
26.7709130144
 20
19.0559535389
 30
0.0
 10
26.794840264
 20
19.0761253778
 30
0.0
 10
26.8227704859
 20
19.1143105758
 30
0.0
 10
26.8418700503
 20
19.1575645578
 30
0.0
 10
26.8473520834
 20
19.1883394645
 30
0.0
 10
26.8473520834
 20
19.202926518
 30
0.0
  0
SPLINE
  5
589
100
AcDbEntity
  8
4_ALL_POINTS
100
AcDbSpline
 62
3
  6
CONTINUOUS
 70
0
 71
3
 72
11
 73
7
 74
0
 42
0.0000001
 43
0.0000001
 44
0.0000000001
 40
0.0
 40
0.0
 40
0.0
 40
0.0
 40
0.2374255964
 40
0.5003235758
 40
0.7630073311
 40
1.0
 40
1.0
 40
1.0
 40
1.0
 10
24.475482093
 20
17.7262536237
 30
0.0
 10
24.4881273428
 20
17.7335787789
 30
0.0
 10
24.5120545925
 20
17.7537506178
 30
0.0
 10
24.5399848143
 20
17.7919358158
 30
0.0
 10
24.5590843788
 20
17.8351897978
 30
0.0
 10
24.5645664119
 20
17.8659647045
 30
0.0
 10
24.5645664119
 20
17.880551758
 30
0.0
  0
SPLINE
  5
58A
100
AcDbEntity
  8
7_ALL_ROUNDS
100
AcDbSpline
 62
7
  6
CONTINUOUS
 70
0
 71
3
 72
17
 73
13
 74
0
 42
0.0000001
 43
0.0000001
 44
0.0000000001
 40
0.0
 40
0.0
 40
0.0
 40
0.0
 40
0.0625
 40
0.125
 40
0.25
 40
0.375
 40
0.5
 40
0.625
 40
0.75
 40
0.875
 40
0.9375
 40
1.0
 40
1.0
 40
1.0
 40
1.0
 10
12.6126775776
 20
7.2498124653
 30
0.0
 10
12.6850200972
 20
7.2498124653
 30
0.0
 10
12.821856765
 20
7.2576608369
 30
0.0
 10
13.0708408297
 20
7.298046851
 30
0.0
 10
13.3438027796
 20
7.3867974994
 30
0.0
 10
13.6235011841
 20
7.5411542131
 30
0.0
 10
13.8608484515
 20
7.7378620638
 30
0.0
 10
14.0575563022
 20
7.9752093312
 30
0.0
 10
14.2119130159
 20
8.2549077356
 30
0.0
 10
14.3006636643
 20
8.5278696856
 30
0.0
 10
14.3410496784
 20
8.7768537503
 30
0.0
 10
14.34889805
 20
8.913690418
 30
0.0
 10
14.34889805
 20
8.9860329377
 30
0.0
  0
SPLINE
  5
58B
100
AcDbEntity
  8
7_ALL_ROUNDS
100
AcDbSpline
 62
7
  6
CONTINUOUS
 70
0
 71
3
 72
17
 73
13
 74
0
 42
0.0000001
 43
0.0000001
 44
0.0000000001
 40
0.0
 40
0.0
 40
0.0
 40
0.0
 40
0.0625
 40
0.125
 40
0.25
 40
0.375
 40
0.5
 40
0.625
 40
0.75
 40
0.875
 40
0.9375
 40
1.0
 40
1.0
 40
1.0
 40
1.0
 10
14.34889805
 20
9.7655604968
 30
0.0
 10
14.34889805
 20
9.8379030165
 30
0.0
 10
14.3410496784
 20
9.9747396842
 30
0.0
 10
14.3006636643
 20
10.2237237489
 30
0.0
 10
14.2119130159
 20
10.4966856989
 30
0.0
 10
14.0575563022
 20
10.7763841033
 30
0.0
 10
13.8608484515
 20
11.0137313707
 30
0.0
 10
13.6235011841
 20
11.2104392214
 30
0.0
 10
13.3438027796
 20
11.3647959351
 30
0.0
 10
13.0708408297
 20
11.4535465835
 30
0.0
 10
12.821856765
 20
11.4939325976
 30
0.0
 10
12.6850200972
 20
11.5017809692
 30
0.0
 10
12.6126775776
 20
11.5017809692
 30
0.0
  0
ELLIPSE
  5
58C
100
AcDbEntity
  8
4_ALL_POINTS
100
AcDbEllipse
 62
7
  6
CONTINUOUS
 10
26.4520404183
 20
15.5256544282
 30
0.0
 11
0.9533729297
 21
0.3530339608
 31
0.0
 40
0.4560879152
 41
0.0
 42
6.2831853072
  0
ELLIPSE
  5
58D
100
AcDbEntity
  8
4_ALL_POINTS
100
AcDbEllipse
 62
3
  6
CONTINUOUS
 10
26.4520404183
 20
15.4252075778
 30
0.0
 11
0.9533729297
 21
0.3530339608
 31
0.0
 40
0.4560879152
 41
6.2104703867
 42
9.1459049413
  0
ELLIPSE
  5
58E
100
AcDbEntity
  8
4_ALL_POINTS
100
AcDbEllipse
 62
7
  6
CONTINUOUS
 10
6.5536224595
 20
9.3757967173
 30
0.0
 11
0.0
 21
-1.1811023622
 31
0.0
 40
0.5833333333
 41
0.0
 42
6.2831853072
  0
ENDSEC
  0
SECTION
  2
OBJECTS
  0
DICTIONARY
  5
C
100
AcDbDictionary
280
0
281
1
  3
ACAD_GROUP
350
D
  3
ACAD_MLINESTYLE
350
17
  3
ACAD_LAYOUT
350
1A
  3
ACAD_PLOTSETTINGS
350
19
  3
ACAD_PLOTSTYLENAME
350
E
  0
DICTIONARY
  5
D
102
{ACAD_REACTORS
330
C
102
}
100
AcDbDictionary
280
0
281
1
  0
ACDBDICTIONARYWDFLT
  5
E
102
{ACAD_REACTORS
330
C
102
}
100
AcDbDictionary
281
1
  3
Normal
350
F
100
AcDbDictionaryWithDefault
340
F
  0
DICTIONARY
  5
17
102
{ACAD_REACTORS
330
C
102
}
100
AcDbDictionary
280
0
281
1
  3
Standard
350
18
  0
DICTIONARY
  5
19
102
{ACAD_REACTORS
330
C
102
}
100
AcDbDictionary
281
1
  0
DICTIONARY
  5
1A
102
{ACAD_REACTORS
330
C
102
}
100
AcDbDictionary
281
1
  3
Model
350
58F
  3
Layout1
350
590
  0
ACDBPLACEHOLDER
  5
F
102
{ACAD_REACTORS
330
E
102
}
  0
MLINESTYLE
  5
18
102
{ACAD_REACTORS
330
17
102
}
100
AcDbMlineStyle
  2
STANDARD
 70
0
  3

 62
256
 51
90.0
 52
90.0
 71
2
 49
0.5
 62
256
  6
BYLAYER
 49
-0.5
 62
256
  6
BYLAYER
  0
LAYOUT
  5
58F
102
{ACAD_REACTORS
330
1A
102
}
100
AcDbPlotSettings
  1

  2
none_device
  4
ANSI_D_(34.00_x_22.00_Inches)
  6

 40
0.0
 41
0.0
 42
0.0
 43
0.0
 44
863.6
 45
558.8
 46
0.0
 47
0.0
 48
0.0
 49
0.0
140
0.0
141
0.0
142
1.0
143
1.0
 70
1024
 72
0
 73
0
 74
0
  7

 75
0
147
1.0
148
0.0
149
0.0
100
AcDbLayout
  1
Model
 70
0
 71
0
 10
0.0
 20
0.0
 11
34.0
 21
22.0
 12
0.0
 22
0.0
 32
0.0
 14
0.0
 24
0.0
 34
0.0
 15
0.0
 25
0.0
 35
0.0
146
0.0
 13
0.0
 23
0.0
 33
0.0
 16
1.0
 26
0.0
 36
0.0
 17
0.0
 27
1.0
 37
0.0
 76
0
330
212
345
0
346
0
  0
LAYOUT
  5
590
102
{ACAD_REACTORS
330
1A
102
}
100
AcDbPlotSettings
  1

  2
none_device
  4
ANSI_D_(34.00_x_22.00_Inches)
  6

 40
0.0
 41
0.0
 42
0.0
 43
0.0
 44
863.6
 45
558.8
 46
0.0
 47
0.0
 48
0.0
 49
0.0
140
0.0
141
0.0
142
1.0
143
1.0
 70
0
 72
0
 73
0
 74
0
  7

 75
0
147
1.0
148
0.0
149
0.0
100
AcDbLayout
  1
Layout1
 70
0
 71
1
 10
0.0
 20
0.0
 11
34.0
 21
22.0
 12
0.0
 22
0.0
 32
0.0
 14
0.0
 24
0.0
 34
0.0
 15
0.0
 25
0.0
 35
0.0
146
0.0
 13
0.0
 23
0.0
 33
0.0
 16
1.0
 26
0.0
 36
0.0
 17
0.0
 27
1.0
 37
0.0
 76
0
330
213
345
0
346
0
  0
ENDSEC
  0
EOF
