999
DXF file: Z:\L&T Project Work\TOUCHMIX MARKETING DATA\fg-610000-2d.dxf
999
Pro/ENGINEER 2014500 by Parametric Technology Corporation
  0
SECTION
  2
HEADER
  9
$ACADVER
  1
AC1015
  9
$DWGCODEPAGE
  3
ANSI_1252
  9
$EXTMAX
 10
68.0
 20
44.0
 30
0.0
  9
$EXTMIN
 10
0.0
 20
0.0
 30
0.0
  9
$LIMMIN
 10
0.0
 20
0.0
  9
$LIMMAX
 10
68.0
 20
44.0
  9
$VIEWCTR
 10
34.0
 20
22.0
  9
$VIEWSIZE
 40
44.0
  9
$CLAYER
  8
0
  9
$LTSCALE
 40
3.74
  9
$CELTYPE
  6
BYLAYER
  9
$DIMSCALE
 40
1.0
  9
$DIMASZ
 40
0.375
  9
$DIMEXO
 40
0.0625
  9
$DIMDLI
 40
2.584
  9
$DIMEXE
 40
0.125
  9
$DIMCEN
 40
0.612
  9
$DIMLFAC
 40
1.0
  9
$DIMBLK
  1
_FILLED
  9
$DIMALT
 70
0
  9
$DIMALTF
 40
25.4
  9
$DIMTXT
 40
0.3125
  9
$DIMTOL
 70
1
  9
$DIMLIM
 70
0
  9
$DIMTFAC
 40
1.0
  9
$DIMTP
 40
0.01
  9
$DIMTM
 40
0.01
  9
$DIMGAP
 40
0.09
  9
$DIMDSEP
 70
46
  9
$AUNITS
 70
0
  9
$PDMODE
 70
3
  9
$PDSIZE
 40
0.3125
  9
$HANDSEED
  5
6C4
  9
$TILEMODE
 70
1
  9
$MEASUREMENT
 70
0
  9
$INSUNITS
 70
1
  0
ENDSEC
  0
SECTION
  2
CLASSES
  0
CLASS
  1
ACDBDICTIONARYWDFLT
  2
AcDbDictionaryWithDefault
  3
AutoCAD 2000
 90
0
280
0
281
0
  0
CLASS
  1
ACDBPLACEHOLDER
  2
AcDbPlaceHolder
  3
AutoCAD 2000
 90
0
280
0
281
0
  0
CLASS
  1
LAYOUT
  2
AcDbLayout
  3
AutoCAD 2000
 90
0
280
0
281
0
  0
ENDSEC
  0
SECTION
  2
TABLES
  0
TABLE
  2
VPORT
  5
8
100
AcDbSymbolTable
 70
2
  0
VPORT
  5
1F4
100
AcDbSymbolTableRecord
100
AcDbViewportTableRecord
  2
*ACTIVE
 70
0
 10
0.0
 20
0.0
 11
1.0
 21
1.0
 12
34.0
 22
22.0
 13
0.0
 23
0.0
 14
1.0
 24
1.0
 15
0.0
 25
0.0
 16
0.0
 26
0.0
 36
1.0
 17
0.0
 27
0.0
 37
0.0
 40
44.0
 41
1.5454545455
 42
50.0
 43
0.0
 44
0.0
 50
0.0
 51
0.0
 71
0
 72
100
 73
1
 74
1
 75
0
 76
0
 77
0
 78
0
  0
ENDTAB
  0
TABLE
  2
LTYPE
  5
5
100
AcDbSymbolTable
 70
6
  0
LTYPE
  5
14
100
AcDbSymbolTableRecord
100
AcDbLinetypeTableRecord
  2
BYBLOCK
 70
0
  3

 72
65
 73
0
 40
0.0
  0
LTYPE
  5
15
100
AcDbSymbolTableRecord
100
AcDbLinetypeTableRecord
  2
BYLAYER
 70
0
  3

 72
65
 73
0
 40
0.0
  0
LTYPE
  5
16
100
AcDbSymbolTableRecord
100
AcDbLinetypeTableRecord
  2
CONTINUOUS
 70
64
  3
Solid line
 72
65
 73
0
 40
0.0
  0
LTYPE
  5
1F5
100
AcDbSymbolTableRecord
100
AcDbLinetypeTableRecord
  2
CENTER
 70
64
  3
____ _ ____ _ ____ _ ____ _ ____ _ ____ _ ____
 72
65
 73
4
 40
0.6
 49
0.375
 74
0
 49
-0.075
 74
0
 49
0.075
 74
0
 49
-0.075
 74
0
  0
LTYPE
  5
1F6
100
AcDbSymbolTableRecord
100
AcDbLinetypeTableRecord
  2
HIDDEN
 70
64
  3
- - - - - - - - - - - - - - - - - - - -
 72
65
 73
2
 40
0.2
 49
0.1
 74
0
 49
-0.1
 74
0
  0
LTYPE
  5
1F7
100
AcDbSymbolTableRecord
100
AcDbLinetypeTableRecord
  2
PHANTOM
 70
64
  3
_____ _ _ _____ _ _ _____ _ _ _____
 72
65
 73
6
 40
0.8
 49
0.45
 74
0
 49
-0.05
 74
0
 49
0.1
 74
0
 49
-0.05
 74
0
 49
0.1
 74
0
 49
-0.05
 74
0
  0
LTYPE
  5
1F8
100
AcDbSymbolTableRecord
100
AcDbLinetypeTableRecord
  2
DOT
 70
64
  3
. . . . . . . . . . . . . . . . . . . .
 72
65
 73
2
 40
0.2
 49
0.1
 74
0
 49
-0.1
 74
0
  0
LTYPE
  5
1F9
100
AcDbSymbolTableRecord
100
AcDbLinetypeTableRecord
  2
DASHED
 70
64
  3
- - - - - - - - - - - - - - - - - - - -
 72
65
 73
2
 40
0.2
 49
0.1
 74
0
 49
-0.1
 74
0
  0
ENDTAB
  0
TABLE
  2
LAYER
  5
2
100
AcDbSymbolTable
 70
36
  0
LAYER
  5
10
100
AcDbSymbolTableRecord
100
AcDbLayerTableRecord
  2
0
 70
0
 62
7
  6
CONTINUOUS
370
-3
390
F
  0
LAYER
  5
1FA
100
AcDbSymbolTableRecord
100
AcDbLayerTableRecord
  2
DEFAULT_1
 70
0
 62
7
  6
CENTER
370
-3
390
F
  0
LAYER
  5
1FB
100
AcDbSymbolTableRecord
100
AcDbLayerTableRecord
  2
DEFAULT_2
 70
0
 62
8
  6
HIDDEN
370
-3
390
F
  0
LAYER
  5
1FC
100
AcDbSymbolTableRecord
100
AcDbLayerTableRecord
  2
DEFAULT_3
 70
0
 62
7
  6
PHANTOM
370
-3
390
F
  0
LAYER
  5
1FD
100
AcDbSymbolTableRecord
100
AcDbLayerTableRecord
  2
1_ALL_PLANES
 70
0
 62
7
  6
CONTINUOUS
370
-3
390
F
  0
LAYER
  5
1FE
100
AcDbSymbolTableRecord
100
AcDbLayerTableRecord
  2
1__DEF_PLANES
 70
0
 62
7
  6
CONTINUOUS
370
-3
390
F
  0
LAYER
  5
1FF
100
AcDbSymbolTableRecord
100
AcDbLayerTableRecord
  2
2_ALL_CSYS
 70
0
 62
7
  6
CONTINUOUS
370
-3
390
F
  0
LAYER
  5
200
100
AcDbSymbolTableRecord
100
AcDbLayerTableRecord
  2
2__DEF_CSYS
 70
0
 62
7
  6
CONTINUOUS
370
-3
390
F
  0
LAYER
  5
201
100
AcDbSymbolTableRecord
100
AcDbLayerTableRecord
  2
3_ALL_AXES
 70
0
 62
7
  6
CONTINUOUS
370
-3
390
F
  0
LAYER
  5
202
100
AcDbSymbolTableRecord
100
AcDbLayerTableRecord
  2
3_AXES_OTHER
 70
0
 62
7
  6
CONTINUOUS
370
-3
390
F
  0
LAYER
  5
203
100
AcDbSymbolTableRecord
100
AcDbLayerTableRecord
  2
3_HOLES
 70
0
 62
7
  6
CONTINUOUS
370
-3
390
F
  0
LAYER
  5
204
100
AcDbSymbolTableRecord
100
AcDbLayerTableRecord
  2
4_ALL_POINTS
 70
0
 62
7
  6
CONTINUOUS
370
-3
390
F
  0
LAYER
  5
205
100
AcDbSymbolTableRecord
100
AcDbLayerTableRecord
  2
5_ALL_CURVES
 70
0
 62
7
  6
CONTINUOUS
370
-3
390
F
  0
LAYER
  5
206
100
AcDbSymbolTableRecord
100
AcDbLayerTableRecord
  2
6_ALL_SURFS
 70
0
 62
7
  6
CONTINUOUS
370
-3
390
F
  0
LAYER
  5
207
100
AcDbSymbolTableRecord
100
AcDbLayerTableRecord
  2
6_COPYGEOM
 70
0
 62
7
  6
CONTINUOUS
370
-3
390
F
  0
LAYER
  5
208
100
AcDbSymbolTableRecord
100
AcDbLayerTableRecord
  2
7_ALL_ROUNDS
 70
0
 62
7
  6
CONTINUOUS
370
-3
390
F
  0
LAYER
  5
209
100
AcDbSymbolTableRecord
100
AcDbLayerTableRecord
  2
7_MERGES
 70
0
 62
7
  6
CONTINUOUS
370
-3
390
F
  0
LAYER
  5
20A
100
AcDbSymbolTableRecord
100
AcDbLayerTableRecord
  2
8_GDT
 70
0
 62
7
  6
CONTINUOUS
370
-3
390
F
  0
LAYER
  5
20B
100
AcDbSymbolTableRecord
100
AcDbLayerTableRecord
  2
8_SET_DATUMS
 70
0
 62
7
  6
CONTINUOUS
370
-3
390
F
  0
LAYER
  5
20C
100
AcDbSymbolTableRecord
100
AcDbLayerTableRecord
  2
9_COSMETICS
 70
0
 62
7
  6
CONTINUOUS
370
-3
390
F
  0
LAYER
  5
20D
100
AcDbSymbolTableRecord
100
AcDbLayerTableRecord
  2
9_THREADS
 70
0
 62
7
  6
CONTINUOUS
370
-3
390
F
  0
ENDTAB
  0
TABLE
  2
STYLE
  5
3
100
AcDbSymbolTable
 70
1
  0
STYLE
  5
11
100
AcDbSymbolTableRecord
100
AcDbTextStyleTableRecord
  2
STANDARD
 70
0
 40
0.0
 41
0.8
 50
0.0
 71
0
 42
0.2
  3
txt
  4

  0
STYLE
  5
20E
100
AcDbSymbolTableRecord
100
AcDbTextStyleTableRecord
  2
TEXTSTYLE_1
 70
0
 40
0.0
 41
0.8
 50
0.0
 71
0
 42
0.2
  3
gdt
  4

  0
ENDTAB
  0
TABLE
  2
VIEW
  5
6
100
AcDbSymbolTable
 70
0
  0
ENDTAB
  0
TABLE
  2
UCS
  5
7
100
AcDbSymbolTable
 70
0
  0
ENDTAB
  0
TABLE
  2
APPID
  5
9
100
AcDbSymbolTable
 70
1
  0
APPID
  5
20F
100
AcDbSymbolTableRecord
100
AcDbRegAppTableRecord
  2
ACAD
 70
0
  0
ENDTAB
  0
TABLE
  2
BLOCK_RECORD
  5
1
100
AcDbSymbolTable
 70
0
  0
BLOCK_RECORD
  5
210
100
AcDbSymbolTableRecord
100
AcDbBlockTableRecord
  2
*Model_Space
  0
BLOCK_RECORD
  5
211
100
AcDbSymbolTableRecord
100
AcDbBlockTableRecord
  2
*Paper_Space
  0
BLOCK_RECORD
  5
212
100
AcDbSymbolTableRecord
100
AcDbBlockTableRecord
  2
_FILLED
  0
BLOCK_RECORD
  5
213
100
AcDbSymbolTableRecord
100
AcDbBlockTableRecord
  2
*D0
  0
BLOCK_RECORD
  5
214
100
AcDbSymbolTableRecord
100
AcDbBlockTableRecord
  2
*D1
  0
BLOCK_RECORD
  5
215
100
AcDbSymbolTableRecord
100
AcDbBlockTableRecord
  2
*D2
  0
BLOCK_RECORD
  5
216
100
AcDbSymbolTableRecord
100
AcDbBlockTableRecord
  2
*D3
  0
BLOCK_RECORD
  5
217
100
AcDbSymbolTableRecord
100
AcDbBlockTableRecord
  2
*D4
  0
BLOCK_RECORD
  5
218
100
AcDbSymbolTableRecord
100
AcDbBlockTableRecord
  2
*D5
  0
BLOCK_RECORD
  5
219
100
AcDbSymbolTableRecord
100
AcDbBlockTableRecord
  2
*D6
  0
BLOCK_RECORD
  5
21A
100
AcDbSymbolTableRecord
100
AcDbBlockTableRecord
  2
*D7
  0
BLOCK_RECORD
  5
21B
100
AcDbSymbolTableRecord
100
AcDbBlockTableRecord
  2
*D8
  0
BLOCK_RECORD
  5
21C
100
AcDbSymbolTableRecord
100
AcDbBlockTableRecord
  2
*D9
  0
BLOCK_RECORD
  5
21D
100
AcDbSymbolTableRecord
100
AcDbBlockTableRecord
  2
*D10
  0
BLOCK_RECORD
  5
21E
100
AcDbSymbolTableRecord
100
AcDbBlockTableRecord
  2
*D11
  0
BLOCK_RECORD
  5
21F
100
AcDbSymbolTableRecord
100
AcDbBlockTableRecord
  2
*D12
  0
BLOCK_RECORD
  5
220
100
AcDbSymbolTableRecord
100
AcDbBlockTableRecord
  2
*D13
  0
BLOCK_RECORD
  5
221
100
AcDbSymbolTableRecord
100
AcDbBlockTableRecord
  2
*D14
  0
BLOCK_RECORD
  5
222
100
AcDbSymbolTableRecord
100
AcDbBlockTableRecord
  2
*D15
  0
BLOCK_RECORD
  5
223
100
AcDbSymbolTableRecord
100
AcDbBlockTableRecord
  2
*D16
  0
BLOCK_RECORD
  5
224
100
AcDbSymbolTableRecord
100
AcDbBlockTableRecord
  2
*D17
  0
BLOCK_RECORD
  5
225
100
AcDbSymbolTableRecord
100
AcDbBlockTableRecord
  2
*D18
  0
BLOCK_RECORD
  5
226
100
AcDbSymbolTableRecord
100
AcDbBlockTableRecord
  2
*D19
  0
BLOCK_RECORD
  5
227
100
AcDbSymbolTableRecord
100
AcDbBlockTableRecord
  2
*D20
  0
BLOCK_RECORD
  5
228
100
AcDbSymbolTableRecord
100
AcDbBlockTableRecord
  2
*D21
  0
BLOCK_RECORD
  5
229
100
AcDbSymbolTableRecord
100
AcDbBlockTableRecord
  2
*D22
  0
BLOCK_RECORD
  5
22A
100
AcDbSymbolTableRecord
100
AcDbBlockTableRecord
  2
*D23
  0
BLOCK_RECORD
  5
22B
100
AcDbSymbolTableRecord
100
AcDbBlockTableRecord
  2
*D24
  0
BLOCK_RECORD
  5
22C
100
AcDbSymbolTableRecord
100
AcDbBlockTableRecord
  2
*D25
  0
BLOCK_RECORD
  5
22D
100
AcDbSymbolTableRecord
100
AcDbBlockTableRecord
  2
*D26
  0
BLOCK_RECORD
  5
22E
100
AcDbSymbolTableRecord
100
AcDbBlockTableRecord
  2
*D27
  0
BLOCK_RECORD
  5
22F
100
AcDbSymbolTableRecord
100
AcDbBlockTableRecord
  2
*D28
  0
BLOCK_RECORD
  5
230
100
AcDbSymbolTableRecord
100
AcDbBlockTableRecord
  2
*D29
  0
BLOCK_RECORD
  5
231
100
AcDbSymbolTableRecord
100
AcDbBlockTableRecord
  2
SQUARE_BL2
  0
BLOCK_RECORD
  5
232
100
AcDbSymbolTableRecord
100
AcDbBlockTableRecord
  2
SQUARE_BL1
  0
BLOCK_RECORD
  5
233
100
AcDbSymbolTableRecord
100
AcDbBlockTableRecord
  2
RD010411_BL0
  0
ENDTAB
  0
TABLE
  2
DIMSTYLE
  5
A
100
AcDbSymbolTable
 70
1
100
AcDbDimStyleTable
 71
0
  0
DIMSTYLE
105
234
100
AcDbSymbolTableRecord
100
AcDbDimStyleTableRecord
  2
STANDARD
 70
0
  3

  4

 40
1.0
 41
0.375
 42
0.0625
 43
0.38
 44
0.125
 45
0.0
 46
0.0
 47
0.01
 48
0.01
140
0.3125
141
0.09
142
0.0
143
25.4
144
1.0
145
0.0
146
1.0
147
0.09
 71
1.0
 72
0.0
 73
1
 74
1
 75
0
 76
0
 77
0
 78
4
170
0
171
2
172
0
173
0
174
0
175
0
176
0
177
0
178
0
270
2
271
3
272
3
273
2
274
2
275
0
280
0
281
0
282
0
283
1
284
4
285
0
286
0
287
3
288
0
340
11
278
46
341
212
342
212
343
212
344
212
  0
DIMSTYLE
105
235
100
AcDbSymbolTableRecord
100
AcDbDimStyleTableRecord
  2
DIMSTYLE_1
 70
0
  3

  4

 40
1.0
 41
0.375
 42
0.0625
 43
0.38
 44
0.125
 45
0.0
 46
0.0
 47
0.01
 48
0.01
140
0.3125
141
0.09
142
0.0
143
25.4
144
1.0
145
0.0
146
1.0
147
0.078125
 71
0.0
 72
0.0
 73
1
 74
1
 75
0
 76
0
 77
0
 78
4
170
0
171
2
172
0
173
0
174
0
175
0
176
0
177
0
178
0
270
2
271
0
272
0
273
2
274
2
275
0
280
0
281
0
282
0
283
1
284
4
285
0
286
0
287
3
288
0
340
11
278
46
341
212
342
212
343
212
344
212
  0
DIMSTYLE
105
236
100
AcDbSymbolTableRecord
100
AcDbDimStyleTableRecord
  2
DIMSTYLE_2
 70
0
  3
<>
  4

 40
1.0
 41
0.375
 42
0.0625
 43
0.38
 44
0.125
 45
0.0
 46
0.0
 47
0.01
 48
0.01
140
0.3125
141
0.09
142
0.0
143
25.4
144
1.0
145
0.0
146
1.0
147
0.09
 71
0.0
 72
0.0
 73
1
 74
1
 75
0
 76
0
 77
0
 78
4
170
0
171
2
172
0
173
0
174
0
175
0
176
0
177
0
178
0
270
2
271
1
272
1
273
2
274
2
275
0
280
0
281
0
282
0
283
1
284
4
285
0
286
0
287
3
288
1
340
11
278
46
289
2
341
212
342
212
343
212
344
212
  0
DIMSTYLE
105
237
100
AcDbSymbolTableRecord
100
AcDbDimStyleTableRecord
  2
DIMSTYLE_3
 70
0
  3

  4

 40
1.0
 41
0.375
 42
0.0625
 43
0.38
 44
0.125
 45
0.0
 46
0.0
 47
0.01
 48
0.01
140
0.3125
141
0.09
142
0.0
143
25.4
144
1.0
145
0.0
146
1.0
147
0.078125
 71
0.0
 72
0.0
 73
1
 74
1
 75
0
 76
0
 77
0
 78
4
170
0
171
2
172
0
173
0
174
0
175
0
176
0
177
0
178
0
270
2
271
1
272
1
273
2
274
2
275
0
280
0
281
0
282
0
283
1
284
4
285
0
286
0
287
3
288
0
340
11
278
46
341
212
342
212
343
212
344
212
  0
ENDTAB
  0
ENDSEC
  0
SECTION
  2
BLOCKS
  0
BLOCK
  5
20
100
AcDbEntity
  8
0
100
AcDbBlockBegin
  2
*Model_Space
 70
0
 10
0.0
 20
0.0
 30
0.0
  3
*Model_Space
  1

  0
ENDBLK
  5
21
100
AcDbEntity
  8
0
100
AcDbBlockEnd
  0
BLOCK
  5
1C
100
AcDbEntity
  8
0
100
AcDbBlockBegin
  2
*Paper_Space
 70
0
 10
0.0
 20
0.0
 30
0.0
  3
*Paper_Space
  1

  0
ENDBLK
  5
1D
100
AcDbEntity
  8
0
100
AcDbBlockEnd
  0
BLOCK
  5
238
100
AcDbEntity
  8
0
100
AcDbBlockBegin
 62
2
  6
CONTINUOUS
  2
SQUARE_BL2
 70
64
 10
64.3813203762
 20
33.2600273939
  3
SQUARE_BL2
  1

  0
TEXT
  5
239
100
AcDbEntity
  8
0
100
AcDbText
 62
2
  6
CONTINUOUS
 10
64.2585525191
 20
33.1037773939
  7
STANDARD
 40
0.3125
  1
4
 41
0.7857142857
 72
0
100
AcDbText
  0
LINE
  5
23A
100
AcDbEntity
  8
0
100
AcDbLine
 62
7
  6
CONTINUOUS
 10
64.0688203762
 20
33.5725273939
 11
64.6938203762
 21
33.5725273939
  0
LINE
  5
23B
100
AcDbEntity
  8
0
100
AcDbLine
 62
7
  6
CONTINUOUS
 10
64.6938203762
 20
32.9475273939
 11
64.0688203762
 21
32.9475273939
  0
LINE
  5
23C
100
AcDbEntity
  8
0
100
AcDbLine
 62
7
  6
CONTINUOUS
 10
64.0688203762
 20
32.9475273939
 11
64.0688203762
 21
33.5725273939
  0
LINE
  5
23D
100
AcDbEntity
  8
0
100
AcDbLine
 62
7
  6
CONTINUOUS
 10
64.6938203762
 20
33.5725273939
 11
64.6938203762
 21
32.9475273939
  0
ENDBLK
  5
23E
100
AcDbEntity
  8
0
  6
BYBLOCK
 62
0
100
AcDbBlockEnd
  0
BLOCK
  5
23F
100
AcDbEntity
  8
0
100
AcDbBlockBegin
 62
2
  6
CONTINUOUS
  2
SQUARE_BL1
 70
64
 10
36.2781292849
 20
36.9705816552
  3
SQUARE_BL1
  1

  0
TEXT
  5
240
100
AcDbEntity
  8
0
100
AcDbText
 62
2
  6
CONTINUOUS
 10
36.1553614278
 20
36.8143316552
  7
STANDARD
 40
0.3125
  1
4
 41
0.7857142857
 72
0
100
AcDbText
  0
LINE
  5
241
100
AcDbEntity
  8
0
100
AcDbLine
 62
7
  6
CONTINUOUS
 10
35.9656292849
 20
37.2830816552
 11
36.5906292849
 21
37.2830816552
  0
LINE
  5
242
100
AcDbEntity
  8
0
100
AcDbLine
 62
7
  6
CONTINUOUS
 10
36.5906292849
 20
36.6580816552
 11
35.9656292849
 21
36.6580816552
  0
LINE
  5
243
100
AcDbEntity
  8
0
100
AcDbLine
 62
7
  6
CONTINUOUS
 10
35.9656292849
 20
36.6580816552
 11
35.9656292849
 21
37.2830816552
  0
LINE
  5
244
100
AcDbEntity
  8
0
100
AcDbLine
 62
7
  6
CONTINUOUS
 10
36.5906292849
 20
37.2830816552
 11
36.5906292849
 21
36.6580816552
  0
ENDBLK
  5
245
100
AcDbEntity
  8
0
  6
BYBLOCK
 62
0
100
AcDbBlockEnd
  0
BLOCK
  5
246
100
AcDbEntity
  8
0
100
AcDbBlockBegin
 62
7
  6
CONTINUOUS
  2
RD010411_BL0
 70
64
 10
57.7776405976
 20
5.4022213303
  3
RD010411_BL0
  1

  0
ARC
  5
247
100
AcDbEntity
  8
0
100
AcDbCircle
 62
7
  6
CONTINUOUS
 10
59.0819637369
 20
5.6029752454
 40
0.0247430265
100
AcDbArc
 50
270.0
 51
360.0
  0
LINE
  5
248
100
AcDbEntity
  8
0
100
AcDbLine
 62
7
  6
CONTINUOUS
 10
59.1067067634
 20
5.6029752454
 11
59.1067067634
 21
5.6524783038
  0
ARC
  5
249
100
AcDbEntity
  8
0
100
AcDbCircle
 62
7
  6
CONTINUOUS
 10
59.0819637369
 20
5.6524783038
 40
0.0247430265
100
AcDbArc
 50
0.0
 51
90.0
  0
LINE
  5
24A
100
AcDbEntity
  8
0
100
AcDbLine
 62
7
  6
CONTINUOUS
 10
59.0819637369
 20
5.6772213303
 11
58.4167770725
 21
5.6772213303
  0
SPLINE
  5
24B
100
AcDbEntity
  8
0
100
AcDbSpline
 62
7
  6
CONTINUOUS
 70
0
 71
3
 72
13
 73
9
 74
0
 42
0.0000001
 43
0.0000001
 44
0.0000000001
 40
0.0
 40
0.0
 40
0.0
 40
0.0
 40
0.1310616762
 40
0.2699656353
 40
0.4157607805
 40
0.5899807757
 40
0.76586761
 40
0.9948829976
 40
0.9948829976
 40
0.9948829976
 40
0.9948829976
 10
58.4167770725
 20
5.6772213303
 30
0.0
 10
58.4027942434
 20
5.67617988
 30
0.0
 10
58.3739919011
 20
5.6740346626
 30
0.0
 10
58.3349589914
 20
5.6498476469
 30
0.0
 10
58.3069380201
 20
5.6092420039
 30
0.0
 10
58.2887173369
 20
5.5595902407
 30
0.0
 10
58.2784543356
 20
5.4988951451
 30
0.0
 10
58.2775093907
 20
5.4560069247
 30
0.0
 10
58.2770196478
 20
5.431745876
 30
0.0
  0
LINE
  5
24C
100
AcDbEntity
  8
0
100
AcDbLine
 62
7
  6
CONTINUOUS
 10
58.2770196478
 20
5.431745876
 11
58.2770630744
 21
5.4279810182
  0
SPLINE
  5
24D
100
AcDbEntity
  8
0
100
AcDbSpline
 62
7
  6
CONTINUOUS
 70
0
 71
3
 72
13
 73
9
 74
0
 42
0.0000001
 43
0.0000001
 44
0.0000000001
 40
0.0
 40
0.0
 40
0.0
 40
0.0
 40
0.2222860645
 40
0.3981728988
 40
0.572392894
 40
0.7181880393
 40
0.8570919984
 40
0.9881536746
 40
0.9881536746
 40
0.9881536746
 40
0.9881536746
 10
58.2770630744
 20
5.4279810182
 30
0.0
 10
58.2775431653
 20
5.4044331609
 30
0.0
 10
58.2785733793
 20
5.362265561
 30
0.0
 10
58.2887173285
 20
5.3022740315
 30
0.0
 10
58.3069382299
 20
5.2526278213
 30
0.0
 10
58.3349583272
 20
5.2120049453
 30
0.0
 10
58.3739942159
 20
5.1878757469
 30
0.0
 10
58.4027895362
 20
5.1855943884
 30
0.0
 10
58.4167770725
 20
5.1845525879
 30
0.0
  0
LINE
  5
24E
100
AcDbEntity
  8
0
100
AcDbLine
 62
7
  6
CONTINUOUS
 10
58.4167770725
 20
5.1845525879
 11
59.082017741
 21
5.1860045433
  0
ARC
  5
24F
100
AcDbEntity
  8
0
100
AcDbCircle
 62
7
  6
CONTINUOUS
 10
59.0819637369
 20
5.2107475108
 40
0.0247430265
100
AcDbArc
 50
270.125053868
 51
360.0
  0
LINE
  5
250
100
AcDbEntity
  8
0
100
AcDbLine
 62
7
  6
CONTINUOUS
 10
59.1067067634
 20
5.2107475108
 11
59.1067067634
 21
5.2583178693
  0
ARC
  5
251
100
AcDbEntity
  8
0
100
AcDbCircle
 62
7
  6
CONTINUOUS
 10
59.0819637369
 20
5.2583178693
 40
0.0247430265
100
AcDbArc
 50
0.0
 51
90.0
  0
LINE
  5
252
100
AcDbEntity
  8
0
100
AcDbLine
 62
7
  6
CONTINUOUS
 10
59.0819637369
 20
5.2830608959
 11
58.5118078505
 21
5.2830608959
  0
LINE
  5
253
100
AcDbEntity
  8
0
100
AcDbLine
 62
7
  6
CONTINUOUS
 10
58.487064824
 20
5.3078039224
 11
58.487064824
 21
5.5534891923
  0
ARC
  5
254
100
AcDbEntity
  8
0
100
AcDbCircle
 62
7
  6
CONTINUOUS
 10
58.5118078507
 20
5.5534891923
 40
0.0247430265
100
AcDbArc
 50
90.0
 51
180.0
  0
LINE
  5
255
100
AcDbEntity
  8
0
100
AcDbLine
 62
7
  6
CONTINUOUS
 10
58.5118078505
 20
5.5782322189
 11
59.0819637369
 21
5.5782322189
  0
LINE
  5
256
100
AcDbEntity
  8
0
100
AcDbLine
 62
7
  6
CONTINUOUS
 10
57.495169266
 20
5.3809262012
 11
57.9703931345
 21
5.3809262012
  0
ARC
  5
257
100
AcDbEntity
  8
0
100
AcDbCircle
 62
7
  6
CONTINUOUS
 10
57.9703931344
 20
5.3561831747
 40
0.0247430265
100
AcDbArc
 50
0.0
 51
90.0
  0
LINE
  5
258
100
AcDbEntity
  8
0
100
AcDbLine
 62
7
  6
CONTINUOUS
 10
57.995136161
 20
5.3561831746
 11
57.995136161
 21
5.3056604702
  0
LINE
  5
259
100
AcDbEntity
  8
0
100
AcDbLine
 62
7
  6
CONTINUOUS
 10
57.9703931345
 20
5.2809174437
 11
57.4164328547
 21
5.2809174437
  0
ARC
  5
25A
100
AcDbEntity
  8
0
100
AcDbCircle
 62
7
  6
CONTINUOUS
 10
57.4164328547
 20
5.2561744171
 40
0.0247430265
100
AcDbArc
 50
90.0
 51
180.0
  0
LINE
  5
25B
100
AcDbEntity
  8
0
100
AcDbLine
 62
7
  6
CONTINUOUS
 10
57.3916898282
 20
5.2561744171
 11
57.3916898282
 21
5.2092953647
  0
ARC
  5
25C
100
AcDbEntity
  8
0
100
AcDbCircle
 62
7
  6
CONTINUOUS
 10
57.4164328547
 20
5.2092953647
 40
0.0247430265
100
AcDbArc
 50
180.0
 51
270.0
  0
LINE
  5
25D
100
AcDbEntity
  8
0
100
AcDbLine
 62
7
  6
CONTINUOUS
 10
57.4164328547
 20
5.1845523381
 11
58.1041462888
 21
5.1845523381
  0
SPLINE
  5
25E
100
AcDbEntity
  8
0
100
AcDbSpline
 62
7
  6
CONTINUOUS
 70
0
 71
3
 72
13
 73
9
 74
0
 42
0.0000001
 43
0.0000001
 44
0.0000000001
 40
0.0
 40
0.0
 40
0.0
 40
0.0
 40
0.1604571392
 40
0.3334692485
 40
0.4767982758
 40
0.6242014838
 40
0.7505998515
 40
1.0
 40
1.0
 40
1.0
 40
1.0
 10
58.1041462888
 20
5.1845523381
 30
0.0
 10
58.1157412232
 20
5.1851106135
 30
0.0
 10
58.1398383372
 20
5.186270846
 30
0.0
 10
58.1722421298
 20
5.2003390868
 30
0.0
 10
58.1966594551
 20
5.2239866254
 30
0.0
 10
58.2104195783
 20
5.2510976148
 30
0.0
 10
58.2209692595
 20
5.2874672848
 30
0.0
 10
58.221397366
 20
5.3146846205
 30
0.0
 10
58.2216814802
 20
5.332747511
 30
0.0
  0
SPLINE
  5
25F
100
AcDbEntity
  8
0
100
AcDbSpline
 62
7
  6
CONTINUOUS
 70
0
 71
3
 72
13
 73
9
 74
0
 42
0.0000001
 43
0.0000001
 44
0.0000000001
 40
0.0
 40
0.0
 40
0.0
 40
0.0
 40
0.2494001485
 40
0.3757985162
 40
0.5232017242
 40
0.6665307515
 40
0.8395428608
 40
1.0
 40
1.0
 40
1.0
 40
1.0
 10
58.2216814802
 20
5.332747511
 30
0.0
 10
58.221397366
 20
5.3508104019
 30
0.0
 10
58.2209692595
 20
5.3780277372
 30
0.0
 10
58.2104195783
 20
5.4143974076
 30
0.0
 10
58.1966594551
 20
5.441508397
 30
0.0
 10
58.1722421298
 20
5.4651559351
 30
0.0
 10
58.1398383372
 20
5.4792241759
 30
0.0
 10
58.1157412232
 20
5.4803844088
 30
0.0
 10
58.1041462888
 20
5.4809426838
 30
0.0
  0
LINE
  5
260
100
AcDbEntity
  8
0
100
AcDbLine
 62
7
  6
CONTINUOUS
 10
58.1041462888
 20
5.4809426838
 11
57.63525684
 21
5.4809426838
  0
LINE
  5
261
100
AcDbEntity
  8
0
100
AcDbLine
 62
7
  6
CONTINUOUS
 10
57.6105138134
 20
5.5056857104
 11
57.6105138134
 21
5.5525019989
  0
ARC
  5
262
100
AcDbEntity
  8
0
100
AcDbCircle
 62
7
  6
CONTINUOUS
 10
57.6352568398
 20
5.5525019989
 40
0.0247430265
100
AcDbArc
 50
90.0
 51
180.0
  0
LINE
  5
263
100
AcDbEntity
  8
0
100
AcDbLine
 62
7
  6
CONTINUOUS
 10
57.63525684
 20
5.5772450254
 11
58.1899690394
 21
5.5772450254
  0
ARC
  5
264
100
AcDbEntity
  8
0
100
AcDbCircle
 62
7
  6
CONTINUOUS
 10
58.1899690394
 20
5.601988052
 40
0.0247430265
100
AcDbArc
 50
270.0
 51
360.0
  0
LINE
  5
265
100
AcDbEntity
  8
0
100
AcDbLine
 62
7
  6
CONTINUOUS
 10
58.2147120659
 20
5.601988052
 11
58.2147120659
 21
5.6524783038
  0
ARC
  5
266
100
AcDbEntity
  8
0
100
AcDbCircle
 62
7
  6
CONTINUOUS
 10
58.1899690394
 20
5.6524783038
 40
0.0247430265
100
AcDbArc
 50
0.0
 51
90.0
  0
LINE
  5
267
100
AcDbEntity
  8
0
100
AcDbLine
 62
7
  6
CONTINUOUS
 10
58.1899690394
 20
5.6772213303
 11
57.495169266
 21
5.6772213303
  0
SPLINE
  5
268
100
AcDbEntity
  8
0
100
AcDbSpline
 62
7
  6
CONTINUOUS
 70
0
 71
3
 72
13
 73
9
 74
0
 42
0.0000001
 43
0.0000001
 44
0.0000000001
 40
0.0
 40
0.0
 40
0.0
 40
0.0
 40
0.1133740464
 40
0.2392044088
 40
0.3655787964
 40
0.4912154373
 40
0.7445390876
 40
1.0
 40
1.0
 40
1.0
 40
1.0
 10
57.495169266
 20
5.6772213303
 30
0.0
 10
57.4872320137
 20
5.6768303837
 30
0.0
 10
57.4704854499
 20
5.6760055368
 30
0.0
 10
57.4456100859
 20
5.6685735211
 30
0.0
 10
57.4233566486
 20
5.6535659669
 30
0.0
 10
57.400624564
 20
5.6259214794
 30
0.0
 10
57.3863200943
 20
5.5825233121
 30
0.0
 10
57.3847687724
 20
5.5469401064
 30
0.0
 10
57.3839898535
 20
5.5290737658
 30
0.0
  0
SPLINE
  5
269
100
AcDbEntity
  8
0
100
AcDbSpline
 62
7
  6
CONTINUOUS
 70
0
 71
3
 72
13
 73
9
 74
0
 42
0.0000001
 43
0.0000001
 44
0.0000000001
 40
0.0
 40
0.0
 40
0.0
 40
0.0
 40
0.2554609124
 40
0.5087845627
 40
0.6344212036
 40
0.7607955912
 40
0.8866259536
 40
1.0
 40
1.0
 40
1.0
 40
1.0
 10
57.3839898535
 20
5.5290737658
 30
0.0
 10
57.3847687724
 20
5.5112074251
 30
0.0
 10
57.3863200943
 20
5.475624219
 30
0.0
 10
57.400624564
 20
5.4322260521
 30
0.0
 10
57.4233566486
 20
5.4045815646
 30
0.0
 10
57.4456100859
 20
5.3895740104
 30
0.0
 10
57.4704854499
 20
5.3821419947
 30
0.0
 10
57.4872320137
 20
5.3813171478
 30
0.0
 10
57.495169266
 20
5.3809262012
 30
0.0
  0
LINE
  5
26A
100
AcDbEntity
  8
0
100
AcDbLine
 62
7
  6
CONTINUOUS
 10
56.5809416116
 20
5.1845523381
 11
56.9653966053
 21
5.1845523381
  0
LINE
  5
26B
100
AcDbEntity
  8
0
100
AcDbLine
 62
7
  6
CONTINUOUS
 10
56.9653966053
 20
5.1845523381
 11
56.9653966053
 21
5.136737879
  0
ARC
  5
26C
100
AcDbEntity
  8
0
100
AcDbCircle
 62
7
  6
CONTINUOUS
 10
56.974913154
 20
5.136737879
 40
0.0095165487
100
AcDbArc
 50
180.0
 51
270.0
  0
LINE
  5
26D
100
AcDbEntity
  8
0
100
AcDbLine
 62
7
  6
CONTINUOUS
 10
56.974913154
 20
5.1272213303
 11
57.1230954959
 21
5.1272213303
  0
ARC
  5
26E
100
AcDbEntity
  8
0
100
AcDbCircle
 62
7
  6
CONTINUOUS
 10
57.1230954959
 20
5.136737879
 40
0.0095165487
100
AcDbArc
 50
270.0
 51
360.0
  0
LINE
  5
26F
100
AcDbEntity
  8
0
100
AcDbLine
 62
7
  6
CONTINUOUS
 10
57.1326120445
 20
5.136737879
 11
57.1326120445
 21
5.1845523381
  0
LINE
  5
270
100
AcDbEntity
  8
0
100
AcDbLine
 62
7
  6
CONTINUOUS
 10
57.1326120445
 20
5.1845523381
 11
57.2082102852
 21
5.1845523381
  0
SPLINE
  5
271
100
AcDbEntity
  8
0
100
AcDbSpline
 62
7
  6
CONTINUOUS
 70
0
 71
3
 72
12
 73
8
 74
0
 42
0.0000001
 43
0.0000001
 44
0.0000000001
 40
0.0
 40
0.0
 40
0.0
 40
0.0
 40
0.2415790084
 40
0.4893269843
 40
0.7378634303
 40
0.8656387112
 40
1.0
 40
1.0
 40
1.0
 40
1.0
 10
57.2082102852
 20
5.1845523381
 30
0.0
 10
57.2217657946
 20
5.1849737637
 30
0.0
 10
57.2492229675
 20
5.1858273764
 30
0.0
 10
57.2894036749
 20
5.2001568853
 30
0.0
 10
57.3138062096
 20
5.2272072059
 30
0.0
 10
57.3245571563
 20
5.2542354801
 30
0.0
 10
57.3247509041
 20
5.2690415115
 30
0.0
 10
57.3248502119
 20
5.2766305228
 30
0.0
  0
LINE
  5
272
100
AcDbEntity
  8
0
100
AcDbLine
 62
7
  6
CONTINUOUS
 10
57.3248502119
 20
5.2766305228
 11
57.3248502119
 21
5.5845653039
  0
SPLINE
  5
273
100
AcDbEntity
  8
0
100
AcDbSpline
 62
7
  6
CONTINUOUS
 70
0
 71
3
 72
12
 73
8
 74
0
 42
0.0000001
 43
0.0000001
 44
0.0000000001
 40
0.0
 40
0.0
 40
0.0
 40
0.0
 40
0.1343612888
 40
0.2621365697
 40
0.5106730157
 40
0.7584209916
 40
1.0
 40
1.0
 40
1.0
 40
1.0
 10
57.3248502119
 20
5.5845653039
 30
0.0
 10
57.3247509041
 20
5.5921543156
 30
0.0
 10
57.3245571563
 20
5.606960347
 30
0.0
 10
57.3138062096
 20
5.6339886212
 30
0.0
 10
57.2894036749
 20
5.6610389418
 30
0.0
 10
57.2492229675
 20
5.6753684503
 30
0.0
 10
57.2217657946
 20
5.676222063
 30
0.0
 10
57.2082102852
 20
5.6766434886
 30
0.0
  0
LINE
  5
274
100
AcDbEntity
  8
0
100
AcDbLine
 62
7
  6
CONTINUOUS
 10
57.2082102852
 20
5.6766434886
 11
56.5809416116
 21
5.6766434886
  0
SPLINE
  5
275
100
AcDbEntity
  8
0
100
AcDbSpline
 62
7
  6
CONTINUOUS
 70
0
 71
3
 72
12
 73
8
 74
0
 42
0.0000001
 43
0.0000001
 44
0.0000000001
 40
0.0
 40
0.0
 40
0.0
 40
0.0
 40
0.1341799809
 40
0.290831959
 40
0.5815217441
 40
0.760783857
 40
1.0
 40
1.0
 40
1.0
 40
1.0
 10
56.5809416116
 20
5.6766434886
 30
0.0
 10
56.5672597682
 20
5.6743051317
 30
0.0
 10
56.537604694
 20
5.6692367976
 30
0.0
 10
56.4876851358
 20
5.6319420116
 30
0.0
 10
56.4640406997
 20
5.5691972795
 30
0.0
 10
56.4502065515
 20
5.4980703428
 30
0.0
 10
56.4491680653
 20
5.4550495295
 30
0.0
 10
56.4485744318
 20
5.4304573962
 30
0.0
  0
SPLINE
  5
276
100
AcDbEntity
  8
0
100
AcDbSpline
 62
7
  6
CONTINUOUS
 70
0
 71
3
 72
12
 73
8
 74
0
 42
0.0000001
 43
0.0000001
 44
0.0000000001
 40
0.0
 40
0.0
 40
0.0
 40
0.0
 40
0.2392679579
 40
0.4185688994
 40
0.7093216488
 40
0.8660075581
 40
1.0
 40
1.0
 40
1.0
 40
1.0
 10
56.4485744318
 20
5.4304573962
 30
0.0
 10
56.4491683025
 20
5.4058662214
 30
0.0
 10
56.4502072032
 20
5.3628470849
 30
0.0
 10
56.4640383662
 20
5.2917080781
 30
0.0
 10
56.4876972485
 20
5.2290217605
 30
0.0
 10
56.5375648333
 20
5.1916058708
 30
0.0
 10
56.5672553384
 20
5.186777874
 30
0.0
 10
56.5809416116
 20
5.1845523381
 30
0.0
  0
LINE
  5
277
100
AcDbEntity
  8
0
100
AcDbLine
 62
7
  6
CONTINUOUS
 10
57.1981423032
 20
5.3112449168
 11
57.1981423032
 21
5.5579709135
  0
ARC
  5
278
100
AcDbEntity
  8
0
100
AcDbCircle
 62
7
  6
CONTINUOUS
 10
56.6790424294
 20
5.3112449168
 40
0.0247430265
100
AcDbArc
 50
180.0
 51
270.0
  0
LINE
  5
279
100
AcDbEntity
  8
0
100
AcDbLine
 62
7
  6
CONTINUOUS
 10
56.6790424294
 20
5.2865018903
 11
56.9632322156
 21
5.2865018903
  0
LINE
  5
27A
100
AcDbEntity
  8
0
100
AcDbLine
 62
7
  6
CONTINUOUS
 10
56.9632322156
 20
5.2865018903
 11
56.9632322156
 21
5.3341681992
  0
ARC
  5
27B
100
AcDbEntity
  8
0
100
AcDbCircle
 62
7
  6
CONTINUOUS
 10
56.9727487644
 20
5.3341681992
 40
0.0095165487
100
AcDbArc
 50
90.0
 51
180.0
  0
LINE
  5
27C
100
AcDbEntity
  8
0
100
AcDbLine
 62
7
  6
CONTINUOUS
 10
56.9727487642
 20
5.3436847479
 11
57.1201759356
 21
5.3436847479
  0
ARC
  5
27D
100
AcDbEntity
  8
0
100
AcDbCircle
 62
7
  6
CONTINUOUS
 10
57.1201759353
 20
5.3341681996
 40
0.0095165487
100
AcDbArc
 50
0.0
 51
90.0
  0
LINE
  5
27E
100
AcDbEntity
  8
0
100
AcDbLine
 62
7
  6
CONTINUOUS
 10
57.1296924843
 20
5.2865018903
 11
57.1733992767
 21
5.2865018903
  0
ARC
  5
27F
100
AcDbEntity
  8
0
100
AcDbCircle
 62
7
  6
CONTINUOUS
 10
57.1733992767
 20
5.3112449168
 40
0.0247430265
100
AcDbArc
 50
270.0
 51
360.0
  0
LINE
  5
280
100
AcDbEntity
  8
0
100
AcDbLine
 62
7
  6
CONTINUOUS
 10
57.1296924843
 20
5.2865018903
 11
57.1296924843
 21
5.3341681992
  0
LINE
  5
281
100
AcDbEntity
  8
0
100
AcDbLine
 62
7
  6
CONTINUOUS
 10
56.6542994028
 20
5.3112449168
 11
56.6542994028
 21
5.5579709135
  0
ARC
  5
282
100
AcDbEntity
  8
0
100
AcDbCircle
 62
7
  6
CONTINUOUS
 10
56.6790424297
 20
5.5579709135
 40
0.0247430265
100
AcDbArc
 50
90.0
 51
180.0
  0
LINE
  5
283
100
AcDbEntity
  8
0
100
AcDbLine
 62
7
  6
CONTINUOUS
 10
56.6790424294
 20
5.58271394
 11
57.1733992767
 21
5.58271394
  0
ARC
  5
284
100
AcDbEntity
  8
0
100
AcDbCircle
 62
7
  6
CONTINUOUS
 10
57.1733992769
 20
5.5579709133
 40
0.0247430265
100
AcDbArc
 50
0.0000000277
 51
90.0000000277
  0
ARC
  5
285
100
AcDbEntity
  8
0
100
AcDbCircle
 62
7
  6
CONTINUOUS
 10
57.63525684
 20
5.5056857104
 40
0.0247430265
100
AcDbArc
 50
180.0
 51
270.0
  0
ARC
  5
286
100
AcDbEntity
  8
0
100
AcDbCircle
 62
7
  6
CONTINUOUS
 10
57.9703931345
 20
5.3056604702
 40
0.0247430265
100
AcDbArc
 50
270.0
 51
360.0
  0
ARC
  5
287
100
AcDbEntity
  8
0
100
AcDbCircle
 62
7
  6
CONTINUOUS
 10
58.5118078505
 20
5.3078039224
 40
0.0247430265
100
AcDbArc
 50
180.0
 51
270.0
  0
ENDBLK
  5
288
100
AcDbEntity
  8
0
  6
BYBLOCK
 62
0
100
AcDbBlockEnd
  0
BLOCK
  5
289
100
AcDbEntity
  8
0
100
AcDbBlockBegin
  2
_FILLED
 70
64
 10
0.0
 20
0.0
  3
_FILLED
  1

  0
SOLID
  5
28A
100
AcDbEntity
  8
0
  6
BYBLOCK
 62
0
100
AcDbTrace
 10
0.0
 20
0.0
 11
-1.0
 21
0.1666666667
 12
-1.0
 22
-0.1666666667
 13
-1.0
 23
-0.1666666667
  0
ENDBLK
  5
28B
100
AcDbEntity
  8
0
  6
BYBLOCK
 62
0
100
AcDbBlockEnd
  0
BLOCK
  5
28C
100
AcDbEntity
  8
0
100
AcDbBlockBegin
 62
2
  6
CONTINUOUS
  2
*D0
 70
65
 10
0.0
 20
0.0
  3
*D0
  1

  0
MTEXT
  5
28D
100
AcDbEntity
  8
0
100
AcDbMText
 62
2
  6
CONTINUOUS
  7
STANDARD
 71
2
 72
1
 10
19.0137955949
 20
16.2503042897
 30
0.0
 11
1.0
 21
0.0
 31
0.0
 44
0.9
  1
367\P[14.4]
 40
0.3125
 41
1.6741071429
  0
LINE
  5
28E
100
AcDbEntity
  8
0
100
AcDbLine
 62
2
  6
CONTINUOUS
 10
11.9977593182
 20
14.681654894
 11
11.9977593182
 21
16.3440542897
  0
LINE
  5
28F
100
AcDbEntity
  8
0
100
AcDbLine
 62
2
  6
CONTINUOUS
 10
26.4316175859
 20
14.7336322397
 11
26.4316175859
 21
16.3440542897
  0
LINE
  5
290
100
AcDbEntity
  8
0
100
AcDbLine
 62
2
  6
CONTINUOUS
 10
11.9977593182
 20
16.0940542897
 11
18.5004027378
 21
16.0940542897
  0
LINE
  5
291
100
AcDbEntity
  8
0
100
AcDbLine
 62
2
  6
CONTINUOUS
 10
26.4316175859
 20
16.0940542897
 11
19.9289741663
 21
16.0940542897
  0
INSERT
  5
292
100
AcDbEntity
  8
0
100
AcDbBlockReference
 62
2
  6
CONTINUOUS
  2
_FILLED
 10
11.9977593182
 20
16.0940542897
 41
0.375
 42
0.375
 43
0.375
 50
180.0
  0
INSERT
  5
293
100
AcDbEntity
  8
0
100
AcDbBlockReference
 62
2
  6
CONTINUOUS
  2
_FILLED
 10
26.4316175859
 20
16.0940542897
 41
0.375
 42
0.375
 43
0.375
  0
ENDBLK
  5
294
100
AcDbEntity
  8
0
  6
BYBLOCK
 62
0
100
AcDbBlockEnd
  0
BLOCK
  5
295
100
AcDbEntity
  8
0
100
AcDbBlockBegin
 62
2
  6
CONTINUOUS
  2
*D1
 70
65
 10
0.0
 20
0.0
  3
*D1
  1

  0
MTEXT
  5
296
100
AcDbEntity
  8
0
100
AcDbMText
 62
2
  6
CONTINUOUS
  7
STANDARD
 71
2
 72
1
 10
19.0249563092
 20
17.7443109949
 30
0.0
 11
1.0
 21
0.0
 31
0.0
 44
0.9
  1
482\P[19.0]
 40
0.3125
 41
1.6741071429
  0
LINE
  5
297
100
AcDbEntity
  8
0
100
AcDbLine
 62
2
  6
CONTINUOUS
 10
9.7343734914
 20
12.3585202073
 11
9.7343734914
 21
17.8380609949
  0
LINE
  5
298
100
AcDbEntity
  8
0
100
AcDbLine
 62
2
  6
CONTINUOUS
 10
28.6950034127
 20
12.3585202073
 11
28.6950034127
 21
17.8380609949
  0
LINE
  5
299
100
AcDbEntity
  8
0
100
AcDbLine
 62
2
  6
CONTINUOUS
 10
9.7343734914
 20
17.5880609949
 11
18.5004027378
 21
17.5880609949
  0
LINE
  5
29A
100
AcDbEntity
  8
0
100
AcDbLine
 62
2
  6
CONTINUOUS
 10
28.6950034127
 20
17.5880609949
 11
19.9289741663
 21
17.5880609949
  0
INSERT
  5
29B
100
AcDbEntity
  8
0
100
AcDbBlockReference
 62
2
  6
CONTINUOUS
  2
_FILLED
 10
9.7343734914
 20
17.5880609949
 41
0.375
 42
0.375
 43
0.375
 50
180.0
  0
INSERT
  5
29C
100
AcDbEntity
  8
0
100
AcDbBlockReference
 62
2
  6
CONTINUOUS
  2
_FILLED
 10
28.6950034127
 20
17.5880609949
 41
0.375
 42
0.375
 43
0.375
  0
ENDBLK
  5
29D
100
AcDbEntity
  8
0
  6
BYBLOCK
 62
0
100
AcDbBlockEnd
  0
BLOCK
  5
29E
100
AcDbEntity
  8
0
100
AcDbBlockBegin
 62
2
  6
CONTINUOUS
  2
*D2
 70
65
 10
0.0
 20
0.0
  3
*D2
  1

  0
MTEXT
  5
29F
100
AcDbEntity
  8
0
100
AcDbMText
 62
2
  6
CONTINUOUS
  7
STANDARD
 71
3
 72
1
 10
9.0378081342
 20
22.6253178815
 30
0.0
 11
1.0
 21
0.0
 31
0.0
 44
0.9
  1
10{\Ftxt.shx;\W0.857143;\H0.312500; }TYP\P[.4]
 40
0.3125
 41
2.2098214286
  0
LINE
  5
2A0
100
AcDbEntity
  8
0
100
AcDbLine
 62
2
  6
CONTINUOUS
 10
9.8327986883
 20
25.3294635725
 11
9.8327986883
 21
22.2190678815
  0
LINE
  5
2A1
100
AcDbEntity
  8
0
100
AcDbLine
 62
2
  6
CONTINUOUS
 10
10.2264994757
 20
25.3294635725
 11
10.2264994757
 21
22.2190678815
  0
LINE
  5
2A2
100
AcDbEntity
  8
0
100
AcDbLine
 62
2
  6
CONTINUOUS
 10
9.8327986883
 20
22.4690678815
 11
9.1940581342
 21
22.4690678815
  0
LINE
  5
2A3
100
AcDbEntity
  8
0
100
AcDbLine
 62
2
  6
CONTINUOUS
 10
10.2264994757
 20
22.4690678815
 11
11.2264994757
 21
22.4690678815
  0
INSERT
  5
2A4
100
AcDbEntity
  8
0
100
AcDbBlockReference
 62
2
  6
CONTINUOUS
  2
_FILLED
 10
9.8327986883
 20
22.4690678815
 41
0.375
 42
0.375
 43
0.375
  0
INSERT
  5
2A5
100
AcDbEntity
  8
0
100
AcDbBlockReference
 62
2
  6
CONTINUOUS
  2
_FILLED
 10
10.2264994757
 20
22.4690678815
 41
0.375
 42
0.375
 43
0.375
 50
180.0
  0
ENDBLK
  5
2A6
100
AcDbEntity
  8
0
  6
BYBLOCK
 62
0
100
AcDbBlockEnd
  0
BLOCK
  5
2A7
100
AcDbEntity
  8
0
100
AcDbBlockBegin
 62
2
  6
CONTINUOUS
  2
*D3
 70
65
 10
0.0
 20
0.0
  3
*D3
  1

  0
MTEXT
  5
2A8
100
AcDbEntity
  8
0
100
AcDbMText
 62
2
  6
CONTINUOUS
  7
STANDARD
 71
2
 72
1
 10
5.5555511309
 20
23.3580841995
 30
0.0
 11
1.0
 21
0.0
 31
0.0
 44
0.9
  1
21\P[.8]
 40
0.3125
 41
1.0379464286
  0
LINE
  5
2A9
100
AcDbEntity
  8
0
100
AcDbLine
 62
2
  6
CONTINUOUS
 10
9.6093734914
 20
24.6284793205
 11
5.4394797023
 21
24.6284793205
  0
LINE
  5
2AA
100
AcDbEntity
  8
0
100
AcDbLine
 62
2
  6
CONTINUOUS
 10
9.8308301843
 20
25.4544635725
 11
5.4394797023
 21
25.4544635725
  0
LINE
  5
2AB
100
AcDbEntity
  8
0
100
AcDbLine
 62
2
  6
CONTINUOUS
 10
5.6894797023
 20
24.6284793205
 11
5.6894797023
 21
23.5143341995
  0
LINE
  5
2AC
100
AcDbEntity
  8
0
100
AcDbLine
 62
2
  6
CONTINUOUS
 10
5.6894797023
 20
25.4544635725
 11
5.6894797023
 21
26.4544635725
  0
INSERT
  5
2AD
100
AcDbEntity
  8
0
100
AcDbBlockReference
 62
2
  6
CONTINUOUS
  2
_FILLED
 10
5.6894797023
 20
24.6284793205
 41
0.375
 42
0.375
 43
0.375
 50
90.0
  0
INSERT
  5
2AE
100
AcDbEntity
  8
0
100
AcDbBlockReference
 62
2
  6
CONTINUOUS
  2
_FILLED
 10
5.6894797023
 20
25.4544635725
 41
0.375
 42
0.375
 43
0.375
 50
270.0
  0
ENDBLK
  5
2AF
100
AcDbEntity
  8
0
  6
BYBLOCK
 62
0
100
AcDbBlockEnd
  0
BLOCK
  5
2B0
100
AcDbEntity
  8
0
100
AcDbBlockBegin
 62
2
  6
CONTINUOUS
  2
*D4
 70
65
 10
0.0
 20
0.0
  3
*D4
  1

  0
MTEXT
  5
2B1
100
AcDbEntity
  8
0
100
AcDbMText
 62
2
  6
CONTINUOUS
  7
STANDARD
 71
2
 72
1
 10
8.117944975
 20
28.2357135725
 30
0.0
 11
1.0
 21
0.0
 31
0.0
 44
0.9
  1
133\P[5.3]
 40
0.3125
 41
1.3392857143
  0
LINE
  5
2B2
100
AcDbEntity
  8
0
100
AcDbLine
 62
2
  6
CONTINUOUS
 10
9.8308301843
 20
25.4544635725
 11
8.0018735464
 21
25.4544635725
  0
LINE
  5
2B3
100
AcDbEntity
  8
0
100
AcDbLine
 62
2
  6
CONTINUOUS
 10
9.8308301843
 20
30.7044635725
 11
8.0018735464
 21
30.7044635725
  0
LINE
  5
2B4
100
AcDbEntity
  8
0
100
AcDbLine
 62
2
  6
CONTINUOUS
 10
8.2518735464
 20
25.4544635725
 11
8.2518735464
 21
27.2982135725
  0
LINE
  5
2B5
100
AcDbEntity
  8
0
100
AcDbLine
 62
2
  6
CONTINUOUS
 10
8.2518735464
 20
30.7044635725
 11
8.2518735464
 21
28.3919635725
  0
INSERT
  5
2B6
100
AcDbEntity
  8
0
100
AcDbBlockReference
 62
2
  6
CONTINUOUS
  2
_FILLED
 10
8.2518735464
 20
25.4544635725
 41
0.375
 42
0.375
 43
0.375
 50
270.0
  0
INSERT
  5
2B7
100
AcDbEntity
  8
0
100
AcDbBlockReference
 62
2
  6
CONTINUOUS
  2
_FILLED
 10
8.2518735464
 20
30.7044635725
 41
0.375
 42
0.375
 43
0.375
 50
90.0
  0
ENDBLK
  5
2B8
100
AcDbEntity
  8
0
  6
BYBLOCK
 62
0
100
AcDbBlockEnd
  0
BLOCK
  5
2B9
100
AcDbEntity
  8
0
100
AcDbBlockBegin
 62
2
  6
CONTINUOUS
  2
*D5
 70
65
 10
0.0
 20
0.0
  3
*D5
  1

  0
MTEXT
  5
2BA
100
AcDbEntity
  8
0
100
AcDbMText
 62
2
  6
CONTINUOUS
  7
TEXTSTYLE_1
 71
3
 72
1
 10
8.4003592314
 20
32.4050609278
 30
0.0
 11
1.0
 21
0.0
 31
0.0
 44
0.9
  1
{\Fgdt;n}\Ftxt;6,3{\Ftxt.shx;\W0.857143;\H0.312500; }TYP\P[.25]
 40
0.3125
 41
3.1696428571
  0
LINE
  5
2BB
100
AcDbEntity
  8
0
100
AcDbLine
 62
2
  6
CONTINUOUS
 10
9.8864094983
 20
30.8060387534
 11
8.9003592314
 21
32.2488109278
  0
LINE
  5
2BC
100
AcDbEntity
  8
0
100
AcDbLine
 62
2
  6
CONTINUOUS
 10
8.9003592314
 20
32.2488109278
 11
8.5566092314
 21
32.2488109278
  0
INSERT
  5
2BD
100
AcDbEntity
  8
0
100
AcDbBlockReference
 62
2
  6
CONTINUOUS
  2
_FILLED
 10
9.8864094983
 20
30.8060387534
 41
0.375
 42
0.375
 43
0.375
 50
304.3503189149
  0
ENDBLK
  5
2BE
100
AcDbEntity
  8
0
  6
BYBLOCK
 62
0
100
AcDbBlockEnd
  0
BLOCK
  5
2BF
100
AcDbEntity
  8
0
100
AcDbBlockBegin
 62
2
  6
CONTINUOUS
  2
*D6
 70
65
 10
0.0
 20
0.0
  3
*D6
  1

  0
MTEXT
  5
2C0
100
AcDbEntity
  8
0
100
AcDbMText
 62
2
  6
CONTINUOUS
  7
STANDARD
 71
2
 72
1
 10
5.5109082737
 20
30.8607135725
 30
0.0
 11
1.0
 21
0.0
 31
0.0
 44
0.9
  1
267\P[10.5]
 40
0.3125
 41
1.640625
  0
LINE
  5
2C1
100
AcDbEntity
  8
0
100
AcDbLine
 62
2
  6
CONTINUOUS
 10
9.8308301843
 20
35.9544635725
 11
5.4394797023
 21
35.9544635725
  0
LINE
  5
2C2
100
AcDbEntity
  8
0
100
AcDbLine
 62
2
  6
CONTINUOUS
 10
9.8308301843
 20
25.4544635725
 11
5.4394797023
 21
25.4544635725
  0
LINE
  5
2C3
100
AcDbEntity
  8
0
100
AcDbLine
 62
2
  6
CONTINUOUS
 10
5.6894797023
 20
35.9544635725
 11
5.6894797023
 21
31.0169635725
  0
LINE
  5
2C4
100
AcDbEntity
  8
0
100
AcDbLine
 62
2
  6
CONTINUOUS
 10
5.6894797023
 20
25.4544635725
 11
5.6894797023
 21
29.9232135725
  0
INSERT
  5
2C5
100
AcDbEntity
  8
0
100
AcDbBlockReference
 62
2
  6
CONTINUOUS
  2
_FILLED
 10
5.6894797023
 20
35.9544635725
 41
0.375
 42
0.375
 43
0.375
 50
90.0
  0
INSERT
  5
2C6
100
AcDbEntity
  8
0
100
AcDbBlockReference
 62
2
  6
CONTINUOUS
  2
_FILLED
 10
5.6894797023
 20
25.4544635725
 41
0.375
 42
0.375
 43
0.375
 50
270.0
  0
ENDBLK
  5
2C7
100
AcDbEntity
  8
0
  6
BYBLOCK
 62
0
100
AcDbBlockEnd
  0
BLOCK
  5
2C8
100
AcDbEntity
  8
0
100
AcDbBlockBegin
 62
2
  6
CONTINUOUS
  2
*D7
 70
65
 10
0.0
 20
0.0
  3
*D7
  1

  0
MTEXT
  5
2C9
100
AcDbEntity
  8
0
100
AcDbMText
 62
2
  6
CONTINUOUS
  7
STANDARD
 71
3
 72
1
 10
8.0188391609
 20
38.3223326241
 30
0.0
 11
1.0
 21
0.0
 31
0.0
 44
0.9
  1
7,5\P[.30]
 40
0.3125
 41
1.3727678571
  0
LINE
  5
2CA
100
AcDbEntity
  8
0
100
AcDbLine
 62
2
  6
CONTINUOUS
 10
9.7343734914
 20
36.9050541237
 11
9.7343734914
 21
38.4160826241
  0
LINE
  5
2CB
100
AcDbEntity
  8
0
100
AcDbLine
 62
2
  6
CONTINUOUS
 10
10.029649082
 20
36.2024950686
 11
10.029649082
 21
38.4160826241
  0
LINE
  5
2CC
100
AcDbEntity
  8
0
100
AcDbLine
 62
2
  6
CONTINUOUS
 10
9.7343734914
 20
38.1660826241
 11
8.4429463038
 21
38.1660826241
  0
LINE
  5
2CD
100
AcDbEntity
  8
0
100
AcDbLine
 62
2
  6
CONTINUOUS
 10
10.029649082
 20
38.1660826241
 11
11.029649082
 21
38.1660826241
  0
INSERT
  5
2CE
100
AcDbEntity
  8
0
100
AcDbBlockReference
 62
2
  6
CONTINUOUS
  2
_FILLED
 10
9.7343734914
 20
38.1660826241
 41
0.375
 42
0.375
 43
0.375
  0
INSERT
  5
2CF
100
AcDbEntity
  8
0
100
AcDbBlockReference
 62
2
  6
CONTINUOUS
  2
_FILLED
 10
10.029649082
 20
38.1660826241
 41
0.375
 42
0.375
 43
0.375
 50
180.0
  0
ENDBLK
  5
2D0
100
AcDbEntity
  8
0
  6
BYBLOCK
 62
0
100
AcDbBlockEnd
  0
BLOCK
  5
2D1
100
AcDbEntity
  8
0
100
AcDbBlockBegin
 62
2
  6
CONTINUOUS
  2
*D8
 70
65
 10
0.0
 20
0.0
  3
*D8
  1

  0
MTEXT
  5
2D2
100
AcDbEntity
  8
0
100
AcDbMText
 62
2
  6
CONTINUOUS
  7
STANDARD
 71
2
 72
1
 10
19.0249563092
 20
38.3223326241
 30
0.0
 11
1.0
 21
0.0
 31
0.0
 44
0.9
  1
467\P[18.4]
 40
0.3125
 41
1.6741071429
  0
LINE
  5
2D3
100
AcDbEntity
  8
0
100
AcDbLine
 62
2
  6
CONTINUOUS
 10
10.029649082
 20
35.9564320764
 11
10.029649082
 21
38.4160826241
  0
LINE
  5
2D4
100
AcDbEntity
  8
0
100
AcDbLine
 62
2
  6
CONTINUOUS
 10
28.3997278221
 20
35.9564320764
 11
28.3997278221
 21
38.4160826241
  0
LINE
  5
2D5
100
AcDbEntity
  8
0
100
AcDbLine
 62
2
  6
CONTINUOUS
 10
10.029649082
 20
38.1660826241
 11
18.5004027378
 21
38.1660826241
  0
LINE
  5
2D6
100
AcDbEntity
  8
0
100
AcDbLine
 62
2
  6
CONTINUOUS
 10
28.3997278221
 20
38.1660826241
 11
19.9289741663
 21
38.1660826241
  0
INSERT
  5
2D7
100
AcDbEntity
  8
0
100
AcDbBlockReference
 62
2
  6
CONTINUOUS
  2
_FILLED
 10
10.029649082
 20
38.1660826241
 41
0.375
 42
0.375
 43
0.375
 50
180.0
  0
INSERT
  5
2D8
100
AcDbEntity
  8
0
100
AcDbBlockReference
 62
2
  6
CONTINUOUS
  2
_FILLED
 10
28.3997278221
 20
38.1660826241
 41
0.375
 42
0.375
 43
0.375
  0
ENDBLK
  5
2D9
100
AcDbEntity
  8
0
  6
BYBLOCK
 62
0
100
AcDbBlockEnd
  0
BLOCK
  5
2DA
100
AcDbEntity
  8
0
100
AcDbBlockBegin
 62
2
  6
CONTINUOUS
  2
*D9
 70
65
 10
0.0
 20
0.0
  3
*D9
  1

  0
MTEXT
  5
2DB
100
AcDbEntity
  8
0
100
AcDbMText
 62
2
  6
CONTINUOUS
  7
STANDARD
 71
2
 72
1
 10
30.260559794
 20
30.8605167221
 30
0.0
 11
1.0
 21
0.0
 31
0.0
 44
0.9
  1
309\P[12.2]
 40
0.3125
 41
1.6741071429
  0
LINE
  5
2DC
100
AcDbEntity
  8
0
100
AcDbLine
 62
2
  6
CONTINUOUS
 10
28.7423104993
 20
24.6284793205
 11
30.7114526511
 21
24.6284793205
  0
LINE
  5
2DD
100
AcDbEntity
  8
0
100
AcDbLine
 62
2
  6
CONTINUOUS
 10
28.7571854993
 20
36.7800541237
 11
30.7114526511
 21
36.7800541237
  0
LINE
  5
2DE
100
AcDbEntity
  8
0
100
AcDbLine
 62
2
  6
CONTINUOUS
 10
30.4614526511
 20
24.6284793205
 11
30.4614526511
 21
29.9230167221
  0
LINE
  5
2DF
100
AcDbEntity
  8
0
100
AcDbLine
 62
2
  6
CONTINUOUS
 10
30.4614526511
 20
36.7800541237
 11
30.4614526511
 21
31.0167667221
  0
INSERT
  5
2E0
100
AcDbEntity
  8
0
100
AcDbBlockReference
 62
2
  6
CONTINUOUS
  2
_FILLED
 10
30.4614526511
 20
24.6284793205
 41
0.375
 42
0.375
 43
0.375
 50
270.0
  0
INSERT
  5
2E1
100
AcDbEntity
  8
0
100
AcDbBlockReference
 62
2
  6
CONTINUOUS
  2
_FILLED
 10
30.4614526511
 20
36.7800541237
 41
0.375
 42
0.375
 43
0.375
 50
90.0
  0
ENDBLK
  5
2E2
100
AcDbEntity
  8
0
  6
BYBLOCK
 62
0
100
AcDbBlockEnd
  0
BLOCK
  5
2E3
100
AcDbEntity
  8
0
100
AcDbBlockBegin
 62
2
  6
CONTINUOUS
  2
*D10
 70
65
 10
0.0
 20
0.0
  3
*D10
  1

  0
MTEXT
  5
2E4
100
AcDbEntity
  8
0
100
AcDbMText
 62
2
  6
CONTINUOUS
  7
STANDARD
 71
1
 72
1
 10
44.7093889739
 20
10.8434806396
 30
0.0
 11
1.0
 21
0.0
 31
0.0
 44
0.9
  1
2X 9,4\P[.37]
 40
0.3125
 41
2.1428571429
  0
LINE
  5
2E5
100
AcDbEntity
  8
0
100
AcDbLine
 62
2
  6
CONTINUOUS
 10
43.3133138823
 20
13.2960762235
 11
43.3133138823
 21
10.4372306396
  0
LINE
  5
2E6
100
AcDbEntity
  8
0
100
AcDbLine
 62
2
  6
CONTINUOUS
 10
43.6824083705
 20
13.0520241443
 11
43.6824083705
 21
10.4372306396
  0
LINE
  5
2E7
100
AcDbEntity
  8
0
100
AcDbLine
 62
2
  6
CONTINUOUS
 10
43.3133138823
 20
10.6872306396
 11
42.3133138823
 21
10.6872306396
  0
LINE
  5
2E8
100
AcDbEntity
  8
0
100
AcDbLine
 62
2
  6
CONTINUOUS
 10
43.6824083705
 20
10.6872306396
 11
44.5531389739
 21
10.6872306396
  0
INSERT
  5
2E9
100
AcDbEntity
  8
0
100
AcDbBlockReference
 62
2
  6
CONTINUOUS
  2
_FILLED
 10
43.3133138823
 20
10.6872306396
 41
0.375
 42
0.375
 43
0.375
  0
INSERT
  5
2EA
100
AcDbEntity
  8
0
100
AcDbBlockReference
 62
2
  6
CONTINUOUS
  2
_FILLED
 10
43.6824083705
 20
10.6872306396
 41
0.375
 42
0.375
 43
0.375
 50
180.0
  0
ENDBLK
  5
2EB
100
AcDbEntity
  8
0
  6
BYBLOCK
 62
0
100
AcDbBlockEnd
  0
BLOCK
  5
2EC
100
AcDbEntity
  8
0
100
AcDbBlockBegin
 62
2
  6
CONTINUOUS
  2
*D11
 70
65
 10
0.0
 20
0.0
  3
*D11
  1

  0
MTEXT
  5
2ED
100
AcDbEntity
  8
0
100
AcDbMText
 62
2
  6
CONTINUOUS
  7
STANDARD
 71
2
 72
1
 10
41.6125225134
 20
13.1884124126
 30
0.0
 11
1.0
 21
0.0
 31
0.0
 44
0.9
  1
2X 30,3\P[1.19]
 40
0.3125
 41
2.4441964286
  0
LINE
  5
2EE
100
AcDbEntity
  8
0
100
AcDbLine
 62
2
  6
CONTINUOUS
 10
49.2641012839
 20
12.1819454041
 11
41.4518082277
 21
12.1819454041
  0
LINE
  5
2EF
100
AcDbEntity
  8
0
100
AcDbLine
 62
2
  6
CONTINUOUS
 10
43.4343768744
 20
13.373874538
 11
41.4518082277
 21
13.373874538
  0
LINE
  5
2F0
100
AcDbEntity
  8
0
100
AcDbLine
 62
2
  6
CONTINUOUS
 10
41.7018082277
 20
12.1819454041
 11
41.7018082277
 21
11.1819454041
  0
LINE
  5
2F1
100
AcDbEntity
  8
0
100
AcDbLine
 62
2
  6
CONTINUOUS
 10
41.7018082277
 20
13.373874538
 11
41.7018082277
 21
14.373874538
  0
INSERT
  5
2F2
100
AcDbEntity
  8
0
100
AcDbBlockReference
 62
2
  6
CONTINUOUS
  2
_FILLED
 10
41.7018082277
 20
12.1819454041
 41
0.375
 42
0.375
 43
0.375
 50
90.0
  0
INSERT
  5
2F3
100
AcDbEntity
  8
0
100
AcDbBlockReference
 62
2
  6
CONTINUOUS
  2
_FILLED
 10
41.7018082277
 20
13.373874538
 41
0.375
 42
0.375
 43
0.375
 50
270.0
  0
ENDBLK
  5
2F4
100
AcDbEntity
  8
0
  6
BYBLOCK
 62
0
100
AcDbBlockEnd
  0
BLOCK
  5
2F5
100
AcDbEntity
  8
0
100
AcDbBlockBegin
 62
2
  6
CONTINUOUS
  2
*D12
 70
65
 10
0.0
 20
0.0
  3
*D12
  1

  0
MTEXT
  5
2F6
100
AcDbEntity
  8
0
100
AcDbMText
 62
2
  6
CONTINUOUS
  7
STANDARD
 71
1
 72
1
 10
57.0077924355
 20
11.4545615566
 30
0.0
 11
1.0
 21
0.0
 31
0.0
 44
0.9
  1
23\P[.9]
 40
0.3125
 41
1.0379464286
  0
LINE
  5
2F7
100
AcDbEntity
  8
0
100
AcDbLine
 62
2
  6
CONTINUOUS
 10
55.5898886854
 20
12.1819454041
 11
56.7577924355
 21
12.1819454041
  0
LINE
  5
2F8
100
AcDbEntity
  8
0
100
AcDbLine
 62
2
  6
CONTINUOUS
 10
55.5898886854
 20
13.0874528385
 11
56.7577924355
 21
13.0874528385
  0
LINE
  5
2F9
100
AcDbEntity
  8
0
100
AcDbLine
 62
2
  6
CONTINUOUS
 10
56.5077924355
 20
12.1819454041
 11
56.5077924355
 21
11.2983115566
  0
LINE
  5
2FA
100
AcDbEntity
  8
0
100
AcDbLine
 62
2
  6
CONTINUOUS
 10
56.5077924355
 20
11.2983115566
 11
56.8515424355
 21
11.2983115566
  0
LINE
  5
2FB
100
AcDbEntity
  8
0
100
AcDbLine
 62
2
  6
CONTINUOUS
 10
56.5077924355
 20
13.0874528385
 11
56.5077924355
 21
14.0874528385
  0
INSERT
  5
2FC
100
AcDbEntity
  8
0
100
AcDbBlockReference
 62
2
  6
CONTINUOUS
  2
_FILLED
 10
56.5077924355
 20
12.1819454041
 41
0.375
 42
0.375
 43
0.375
 50
90.0
  0
INSERT
  5
2FD
100
AcDbEntity
  8
0
100
AcDbBlockReference
 62
2
  6
CONTINUOUS
  2
_FILLED
 10
56.5077924355
 20
13.0874528385
 41
0.375
 42
0.375
 43
0.375
 50
270.0
  0
ENDBLK
  5
2FE
100
AcDbEntity
  8
0
  6
BYBLOCK
 62
0
100
AcDbBlockEnd
  0
BLOCK
  5
2FF
100
AcDbEntity
  8
0
100
AcDbBlockBegin
 62
2
  6
CONTINUOUS
  2
*D13
 70
65
 10
0.0
 20
0.0
  3
*D13
  1

  0
MTEXT
  5
300
100
AcDbEntity
  8
0
100
AcDbMText
 62
2
  6
CONTINUOUS
  7
STANDARD
 71
2
 72
1
 10
39.5493183521
 20
13.5515388219
 30
0.0
 11
1.0
 21
0.0
 31
0.0
 44
0.9
  1
61,6\P[2.43]
 40
0.3125
 41
1.7410714286
  0
LINE
  5
301
100
AcDbEntity
  8
0
100
AcDbLine
 62
2
  6
CONTINUOUS
 10
43.1883138823
 20
12.1819454041
 11
39.4555683521
 21
12.1819454041
  0
LINE
  5
302
100
AcDbEntity
  8
0
100
AcDbLine
 62
2
  6
CONTINUOUS
 10
43.1883138823
 20
14.6086322397
 11
39.4555683521
 21
14.6086322397
  0
LINE
  5
303
100
AcDbEntity
  8
0
100
AcDbLine
 62
2
  6
CONTINUOUS
 10
39.7055683521
 20
12.1819454041
 11
39.7055683521
 21
12.6140388219
  0
LINE
  5
304
100
AcDbEntity
  8
0
100
AcDbLine
 62
2
  6
CONTINUOUS
 10
39.7055683521
 20
14.6086322397
 11
39.7055683521
 21
13.7077888219
  0
INSERT
  5
305
100
AcDbEntity
  8
0
100
AcDbBlockReference
 62
2
  6
CONTINUOUS
  2
_FILLED
 10
39.7055683521
 20
12.1819454041
 41
0.375
 42
0.375
 43
0.375
 50
270.0
  0
INSERT
  5
306
100
AcDbEntity
  8
0
100
AcDbBlockReference
 62
2
  6
CONTINUOUS
  2
_FILLED
 10
39.7055683521
 20
14.6086322397
 41
0.375
 42
0.375
 43
0.375
 50
90.0
  0
ENDBLK
  5
307
100
AcDbEntity
  8
0
  6
BYBLOCK
 62
0
100
AcDbBlockEnd
  0
BLOCK
  5
308
100
AcDbEntity
  8
0
100
AcDbBlockBegin
 62
2
  6
CONTINUOUS
  2
*D14
 70
65
 10
0.0
 20
0.0
  3
*D14
  1

  0
MTEXT
  5
309
100
AcDbEntity
  8
0
100
AcDbMText
 62
2
  6
CONTINUOUS
  7
STANDARD
 71
3
 72
1
 10
42.3742130477
 20
18.0809919619
 30
0.0
 11
1.0
 21
0.0
 31
0.0
 44
0.9
  1
4X 9,4\P[.37]
 40
0.3125
 41
2.1428571429
  0
LINE
  5
30A
100
AcDbEntity
  8
0
100
AcDbLine
 62
2
  6
CONTINUOUS
 10
44.0902242593
 20
20.8147934288
 11
43.687991738
 21
17.6016559335
  0
LINE
  5
30B
100
AcDbEntity
  8
0
100
AcDbLine
 62
2
  6
CONTINUOUS
 10
44.5169600716
 20
21.2443109144
 11
44.0552043749
 21
17.5556868877
  0
LINE
  5
30C
100
AcDbEntity
  8
0
100
AcDbLine
 62
2
  6
CONTINUOUS
 10
43.7190452955
 20
17.8497197893
 11
43.119748762
 21
17.9247419619
  0
LINE
  5
30D
100
AcDbEntity
  8
0
100
AcDbLine
 62
2
  6
CONTINUOUS
 10
43.119748762
 20
17.9247419619
 11
42.775998762
 21
17.9247419619
  0
LINE
  5
30E
100
AcDbEntity
  8
0
100
AcDbLine
 62
2
  6
CONTINUOUS
 10
44.0862579325
 20
17.8037507435
 11
45.0785133558
 21
17.6795365132
  0
INSERT
  5
30F
100
AcDbEntity
  8
0
100
AcDbBlockReference
 62
2
  6
CONTINUOUS
  2
_FILLED
 10
43.7190452955
 20
17.8497197893
 41
0.375
 42
0.375
 43
0.375
 50
352.8646191544
  0
INSERT
  5
310
100
AcDbEntity
  8
0
100
AcDbBlockReference
 62
2
  6
CONTINUOUS
  2
_FILLED
 10
44.0862579325
 20
17.8037507435
 41
0.375
 42
0.375
 43
0.375
 50
172.8646191544
  0
ENDBLK
  5
311
100
AcDbEntity
  8
0
  6
BYBLOCK
 62
0
100
AcDbBlockEnd
  0
BLOCK
  5
312
100
AcDbEntity
  8
0
100
AcDbBlockBegin
 62
2
  6
CONTINUOUS
  2
*D15
 70
65
 10
0.0
 20
0.0
  3
*D15
  1

  0
MTEXT
  5
313
100
AcDbEntity
  8
0
100
AcDbMText
 62
2
  6
CONTINUOUS
  7
STANDARD
 71
3
 72
1
 10
42.2684338072
 20
20.4488820883
 30
0.0
 11
1.0
 21
0.0
 31
0.0
 44
0.9
  1
2X 15,3\P[.60]
 40
0.3125
 41
2.34375
  0
LINE
  5
314
100
AcDbEntity
  8
0
100
AcDbLine
 62
2
  6
CONTINUOUS
 10
43.9753127857
 20
20.9031767574
 11
42.7461042627
 21
21.0570536594
  0
LINE
  5
315
100
AcDbEntity
  8
0
100
AcDbLine
 62
2
  6
CONTINUOUS
 10
44.2953354729
 20
21.4706950274
 11
42.8209898488
 21
21.6552591049
  0
LINE
  5
316
100
AcDbEntity
  8
0
100
AcDbLine
 62
2
  6
CONTINUOUS
 10
42.9941681185
 20
21.0260001018
 11
42.9023623786
 21
20.2926320883
  0
LINE
  5
317
100
AcDbEntity
  8
0
100
AcDbLine
 62
2
  6
CONTINUOUS
 10
42.9023623786
 20
20.2926320883
 11
42.5586123786
 21
20.2926320883
  0
LINE
  5
318
100
AcDbEntity
  8
0
100
AcDbLine
 62
2
  6
CONTINUOUS
 10
43.0690537046
 20
21.6242055473
 11
43.1932679349
 21
22.6164609706
  0
INSERT
  5
319
100
AcDbEntity
  8
0
100
AcDbBlockReference
 62
2
  6
CONTINUOUS
  2
_FILLED
 10
42.9941681185
 20
21.0260001018
 41
0.375
 42
0.375
 43
0.375
 50
82.8646191544
  0
INSERT
  5
31A
100
AcDbEntity
  8
0
100
AcDbBlockReference
 62
2
  6
CONTINUOUS
  2
_FILLED
 10
43.0690537046
 20
21.6242055473
 41
0.375
 42
0.375
 43
0.375
 50
262.8646191544
  0
ENDBLK
  5
31B
100
AcDbEntity
  8
0
  6
BYBLOCK
 62
0
100
AcDbBlockEnd
  0
BLOCK
  5
31C
100
AcDbEntity
  8
0
100
AcDbBlockBegin
 62
2
  6
CONTINUOUS
  2
*D16
 70
65
 10
0.0
 20
0.0
  3
*D16
  1

  0
MTEXT
  5
31D
100
AcDbEntity
  8
0
100
AcDbMText
 62
2
  6
CONTINUOUS
  7
STANDARD
 71
2
 72
1
 10
35.9178494021
 20
24.6823832513
 30
0.0
 11
1.0
 21
0.0
 31
0.0
 44
0.9
  1
102\P[4.0]
 40
0.3125
 41
1.40625
  0
LINE
  5
31E
100
AcDbEntity
  8
0
100
AcDbLine
 62
2
  6
CONTINUOUS
 10
44.2953354608
 20
21.4706949311
 11
35.5543164779
 21
22.5649213559
  0
LINE
  5
31F
100
AcDbEntity
  8
0
100
AcDbLine
 62
2
  6
CONTINUOUS
 10
44.7941306922
 20
25.4552254518
 11
42.3701434332
 21
25.758667295
  0
LINE
  5
320
100
AcDbEntity
  8
0
100
AcDbLine
 62
2
  6
CONTINUOUS
 10
42.0728024988
 20
25.7958893064
 11
40.4410179531
 21
26.0001608876
  0
LINE
  5
321
100
AcDbEntity
  8
0
100
AcDbLine
 62
2
  6
CONTINUOUS
 10
40.1847129779
 20
26.0322458971
 11
38.4173422471
 21
26.2534905551
  0
LINE
  5
322
100
AcDbEntity
  8
0
100
AcDbLine
 62
2
  6
CONTINUOUS
 10
38.1651990285
 20
26.2850545837
 11
36.0531117093
 21
26.5494518766
  0
LINE
  5
323
100
AcDbEntity
  8
0
100
AcDbLine
 62
2
  6
CONTINUOUS
 10
35.8023803578
 20
22.533867991
 11
35.9539788043
 21
23.7448832513
  0
LINE
  5
324
100
AcDbEntity
  8
0
100
AcDbLine
 62
2
  6
CONTINUOUS
 10
36.3011755892
 20
26.5183985116
 11
36.0908976412
 21
24.8386332513
  0
INSERT
  5
325
100
AcDbEntity
  8
0
100
AcDbBlockReference
 62
2
  6
CONTINUOUS
  2
_FILLED
 10
35.8023803578
 20
22.533867991
 41
0.375
 42
0.375
 43
0.375
 50
262.8646636445
  0
INSERT
  5
326
100
AcDbEntity
  8
0
100
AcDbBlockReference
 62
2
  6
CONTINUOUS
  2
_FILLED
 10
36.3011755892
 20
26.5183985116
 41
0.375
 42
0.375
 43
0.375
 50
82.8646636445
  0
ENDBLK
  5
327
100
AcDbEntity
  8
0
  6
BYBLOCK
 62
0
100
AcDbBlockEnd
  0
BLOCK
  5
328
100
AcDbEntity
  8
0
100
AcDbBlockBegin
 62
2
  6
CONTINUOUS
  2
*D17
 70
65
 10
0.0
 20
0.0
  3
*D17
  1

  0
MTEXT
  5
329
100
AcDbEntity
  8
0
100
AcDbMText
 62
2
  6
CONTINUOUS
  7
STANDARD
 71
2
 72
1
 10
37.0220377235
 20
33.8285539656
 30
0.0
 11
1.0
 21
0.0
 31
0.0
 44
0.9
  1
102\P[4.0]
 40
0.3125
 41
1.40625
  0
LINE
  5
32A
100
AcDbEntity
  8
0
100
AcDbLine
 62
2
  6
CONTINUOUS
 10
45.4396534878
 20
30.6118286314
 11
42.975335841
 21
30.9203230381
  0
LINE
  5
32B
100
AcDbEntity
  8
0
100
AcDbLine
 62
2
  6
CONTINUOUS
 10
42.8017855533
 20
30.9420488465
 11
41.0708705946
 21
31.1587325942
  0
LINE
  5
32C
100
AcDbEntity
  8
0
100
AcDbLine
 62
2
  6
CONTINUOUS
 10
40.8923744147
 20
31.1810775518
 11
39.0160592421
 21
31.4159631546
  0
LINE
  5
32D
100
AcDbEntity
  8
0
100
AcDbLine
 62
2
  6
CONTINUOUS
 10
38.8817084292
 20
31.4327817957
 11
36.6585017536
 21
31.7110928427
  0
LINE
  5
32E
100
AcDbEntity
  8
0
100
AcDbLine
 62
2
  6
CONTINUOUS
 10
45.9384549071
 20
34.5963583775
 11
37.1573031729
 21
35.6956225888
  0
LINE
  5
32F
100
AcDbEntity
  8
0
100
AcDbLine
 62
2
  6
CONTINUOUS
 10
36.9065655853
 20
31.6800390925
 11
37.0581658935
 21
32.8910539656
  0
LINE
  5
330
100
AcDbEntity
  8
0
100
AcDbLine
 62
2
  6
CONTINUOUS
 10
37.4053670046
 20
35.6645688386
 11
37.1950864555
 21
33.9848039656
  0
INSERT
  5
331
100
AcDbEntity
  8
0
100
AcDbBlockReference
 62
2
  6
CONTINUOUS
  2
_FILLED
 10
36.9065655853
 20
31.6800390925
 41
0.375
 42
0.375
 43
0.375
 50
262.8645746642
  0
INSERT
  5
332
100
AcDbEntity
  8
0
100
AcDbBlockReference
 62
2
  6
CONTINUOUS
  2
_FILLED
 10
37.4053670046
 20
35.6645688386
 41
0.375
 42
0.375
 43
0.375
 50
82.8645746642
  0
ENDBLK
  5
333
100
AcDbEntity
  8
0
  6
BYBLOCK
 62
0
100
AcDbBlockEnd
  0
BLOCK
  5
334
100
AcDbEntity
  8
0
100
AcDbBlockBegin
 62
2
  6
CONTINUOUS
  2
*D18
 70
65
 10
0.0
 20
0.0
  3
*D18
  1

  0
MTEXT
  5
335
100
AcDbEntity
  8
0
100
AcDbMText
 62
2
  6
CONTINUOUS
  7
STANDARD
 71
2
 72
1
 10
38.4497894292
 20
29.0020355525
 30
0.0
 11
1.0
 21
0.0
 31
0.0
 44
0.9
  1
266\P[10.5]
 40
0.3125
 41
1.640625
  0
LINE
  5
336
100
AcDbEntity
  8
0
100
AcDbLine
 62
2
  6
CONTINUOUS
 10
50.2646442543
 20
32.6662015445
 11
39.0307100974
 21
34.0725072713
  0
LINE
  5
337
100
AcDbEntity
  8
0
100
AcDbLine
 62
2
  6
CONTINUOUS
 10
48.9638180634
 20
22.2748652222
 11
37.7298839065
 21
23.6811709489
  0
LINE
  5
338
100
AcDbEntity
  8
0
100
AcDbLine
 62
2
  6
CONTINUOUS
 10
39.2787739533
 20
34.0414537137
 11
38.6674807719
 21
29.1582855525
  0
LINE
  5
339
100
AcDbEntity
  8
0
100
AcDbLine
 62
2
  6
CONTINUOUS
 10
37.9779477623
 20
23.6501173913
 11
38.5305610725
 21
28.0645355525
  0
INSERT
  5
33A
100
AcDbEntity
  8
0
100
AcDbBlockReference
 62
2
  6
CONTINUOUS
  2
_FILLED
 10
39.2787739533
 20
34.0414537137
 41
0.375
 42
0.375
 43
0.375
 50
82.8646191544
  0
INSERT
  5
33B
100
AcDbEntity
  8
0
100
AcDbBlockReference
 62
2
  6
CONTINUOUS
  2
_FILLED
 10
37.9779477623
 20
23.6501173913
 41
0.375
 42
0.375
 43
0.375
 50
262.8646191544
  0
ENDBLK
  5
33C
100
AcDbEntity
  8
0
  6
BYBLOCK
 62
0
100
AcDbBlockEnd
  0
BLOCK
  5
33D
100
AcDbEntity
  8
0
100
AcDbBlockBegin
 62
2
  6
CONTINUOUS
  2
*D19
 70
65
 10
0.0
 20
0.0
  3
*D19
  1

  0
MTEXT
  5
33E
100
AcDbEntity
  8
0
100
AcDbMText
 62
2
  6
CONTINUOUS
  7
STANDARD
 71
2
 72
1
 10
40.5612288627
 20
28.7474976772
 30
0.0
 11
1.0
 21
0.0
 31
0.0
 44
0.9
  1
208\P[8.2]
 40
0.3125
 41
1.40625
  0
LINE
  5
33F
100
AcDbEntity
  8
0
100
AcDbLine
 62
2
  6
CONTINUOUS
 10
51.7244969975
 20
31.3328082093
 11
40.9222051342
 21
32.6850793457
  0
LINE
  5
340
100
AcDbEntity
  8
0
100
AcDbLine
 62
2
  6
CONTINUOUS
 10
50.7073096001
 20
23.2072519873
 11
39.9050177368
 21
24.5595231237
  0
LINE
  5
341
100
AcDbEntity
  8
0
100
AcDbLine
 62
2
  6
CONTINUOUS
 10
41.17026899
 20
32.6540257882
 11
40.7007952054
 21
28.9037476772
  0
LINE
  5
342
100
AcDbEntity
  8
0
100
AcDbLine
 62
2
  6
CONTINUOUS
 10
40.1530815926
 20
24.5284695662
 11
40.563875506
 21
27.8099976772
  0
INSERT
  5
343
100
AcDbEntity
  8
0
100
AcDbBlockReference
 62
2
  6
CONTINUOUS
  2
_FILLED
 10
41.17026899
 20
32.6540257882
 41
0.375
 42
0.375
 43
0.375
 50
82.8646191544
  0
INSERT
  5
344
100
AcDbEntity
  8
0
100
AcDbBlockReference
 62
2
  6
CONTINUOUS
  2
_FILLED
 10
40.1530815926
 20
24.5284695662
 41
0.375
 42
0.375
 43
0.375
 50
262.8646191544
  0
ENDBLK
  5
345
100
AcDbEntity
  8
0
  6
BYBLOCK
 62
0
100
AcDbBlockEnd
  0
BLOCK
  5
346
100
AcDbEntity
  8
0
100
AcDbBlockBegin
 62
2
  6
CONTINUOUS
  2
*D20
 70
65
 10
0.0
 20
0.0
  3
*D20
  1

  0
MTEXT
  5
347
100
AcDbEntity
  8
0
100
AcDbMText
 62
2
  6
CONTINUOUS
  7
STANDARD
 71
2
 72
1
 10
42.4302572555
 20
28.509334321
 30
0.0
 11
1.0
 21
0.0
 31
0.0
 44
0.9
  1
188\P[7.4]
 40
0.3125
 41
1.40625
  0
LINE
  5
348
100
AcDbEntity
  8
0
100
AcDbLine
 62
2
  6
CONTINUOUS
 10
54.3320255991
 20
30.6096144341
 11
42.7758124295
 21
32.0562642482
  0
LINE
  5
349
100
AcDbEntity
  8
0
100
AcDbLine
 62
2
  6
CONTINUOUS
 10
53.4126446822
 20
23.2653616949
 11
41.8564315126
 21
24.712011509
  0
LINE
  5
34A
100
AcDbEntity
  8
0
100
AcDbLine
 62
2
  6
CONTINUOUS
 10
43.0238762854
 20
32.0252106906
 11
42.603305741
 21
28.665584321
  0
LINE
  5
34B
100
AcDbEntity
  8
0
100
AcDbLine
 62
2
  6
CONTINUOUS
 10
42.1044953685
 20
24.6809579515
 11
42.4663860416
 21
27.571834321
  0
INSERT
  5
34C
100
AcDbEntity
  8
0
100
AcDbBlockReference
 62
2
  6
CONTINUOUS
  2
_FILLED
 10
43.0238762854
 20
32.0252106906
 41
0.375
 42
0.375
 43
0.375
 50
82.8646191544
  0
INSERT
  5
34D
100
AcDbEntity
  8
0
100
AcDbBlockReference
 62
2
  6
CONTINUOUS
  2
_FILLED
 10
42.1044953685
 20
24.6809579515
 41
0.375
 42
0.375
 43
0.375
 50
262.8646191544
  0
ENDBLK
  5
34E
100
AcDbEntity
  8
0
  6
BYBLOCK
 62
0
100
AcDbBlockEnd
  0
BLOCK
  5
34F
100
AcDbEntity
  8
0
100
AcDbBlockBegin
 62
2
  6
CONTINUOUS
  2
*D21
 70
65
 10
0.0
 20
0.0
  3
*D21
  1

  0
MTEXT
  5
350
100
AcDbEntity
  8
0
100
AcDbMText
 62
2
  6
CONTINUOUS
  7
STANDARD
 71
2
 72
1
 10
58.4178808701
 20
28.3630001277
 30
0.0
 11
1.0
 21
0.0
 31
0.0
 44
0.9
  1
94\P[3.7]
 40
0.3125
 41
1.3727678571
  0
LINE
  5
351
100
AcDbEntity
  8
0
100
AcDbLine
 62
2
  6
CONTINUOUS
 10
57.2431508454
 20
26.5155167975
 11
58.6481530681
 21
26.3396333853
  0
LINE
  5
352
100
AcDbEntity
  8
0
100
AcDbLine
 62
2
  6
CONTINUOUS
 10
54.5800894549
 20
30.5785608765
 11
59.1078435265
 21
30.0117597549
  0
LINE
  5
353
100
AcDbEntity
  8
0
100
AcDbLine
 62
2
  6
CONTINUOUS
 10
58.4000892123
 20
26.3706869429
 11
58.5321346561
 21
27.4255001277
  0
LINE
  5
354
100
AcDbEntity
  8
0
100
AcDbLine
 62
2
  6
CONTINUOUS
 10
58.8597796707
 20
30.0428133125
 11
58.6690543556
 21
28.5192501277
  0
INSERT
  5
355
100
AcDbEntity
  8
0
100
AcDbBlockReference
 62
2
  6
CONTINUOUS
  2
_FILLED
 10
58.4000892123
 20
26.3706869429
 41
0.375
 42
0.375
 43
0.375
 50
262.8646191544
  0
INSERT
  5
356
100
AcDbEntity
  8
0
100
AcDbBlockReference
 62
2
  6
CONTINUOUS
  2
_FILLED
 10
58.8597796707
 20
30.0428133125
 41
0.375
 42
0.375
 43
0.375
 50
82.8646191544
  0
ENDBLK
  5
357
100
AcDbEntity
  8
0
  6
BYBLOCK
 62
0
100
AcDbBlockEnd
  0
BLOCK
  5
358
100
AcDbEntity
  8
0
100
AcDbBlockBegin
 62
2
  6
CONTINUOUS
  2
*D22
 70
65
 10
0.0
 20
0.0
  3
*D22
  1

  0
MTEXT
  5
359
100
AcDbEntity
  8
0
100
AcDbMText
 62
2
  6
CONTINUOUS
  7
STANDARD
 71
2
 72
1
 10
60.5458367918
 20
28.3089728918
 30
0.0
 11
1.0
 21
0.0
 31
0.0
 44
0.9
  1
104\P[4.1]
 40
0.3125
 41
1.3058035714
  0
LINE
  5
35A
100
AcDbEntity
  8
0
100
AcDbLine
 62
2
  6
CONTINUOUS
 10
57.4690969762
 20
26.4872320192
 11
60.6400502268
 21
26.0902802787
  0
LINE
  5
35B
100
AcDbEntity
  8
0
100
AcDbLine
 62
2
  6
CONTINUOUS
 10
51.9725608533
 20
31.3017546517
 11
54.7200129506
 21
30.9578183633
  0
LINE
  5
35C
100
AcDbEntity
  8
0
100
AcDbLine
 62
2
  6
CONTINUOUS
 10
55.0209834489
 20
30.9201417551
 11
61.1486439255
 21
30.1530583897
  0
LINE
  5
35D
100
AcDbEntity
  8
0
100
AcDbLine
 62
2
  6
CONTINUOUS
 10
60.391986371
 20
26.1213338363
 11
60.548483435
 21
27.3714728918
  0
LINE
  5
35E
100
AcDbEntity
  8
0
100
AcDbLine
 62
2
  6
CONTINUOUS
 10
60.9005800697
 20
30.1841119473
 11
60.6854031345
 21
28.4652228918
  0
INSERT
  5
35F
100
AcDbEntity
  8
0
100
AcDbBlockReference
 62
2
  6
CONTINUOUS
  2
_FILLED
 10
60.391986371
 20
26.1213338363
 41
0.375
 42
0.375
 43
0.375
 50
262.8646191544
  0
INSERT
  5
360
100
AcDbEntity
  8
0
100
AcDbBlockReference
 62
2
  6
CONTINUOUS
  2
_FILLED
 10
60.9005800697
 20
30.1841119473
 41
0.375
 42
0.375
 43
0.375
 50
82.8646191544
  0
ENDBLK
  5
361
100
AcDbEntity
  8
0
  6
BYBLOCK
 62
0
100
AcDbBlockEnd
  0
BLOCK
  5
362
100
AcDbEntity
  8
0
100
AcDbBlockBegin
 62
2
  6
CONTINUOUS
  2
*D23
 70
65
 10
0.0
 20
0.0
  3
*D23
  1

  0
MTEXT
  5
363
100
AcDbEntity
  8
0
100
AcDbMText
 62
2
  6
CONTINUOUS
  7
STANDARD
 71
2
 72
1
 10
62.3393156618
 20
28.6541917319
 30
0.0
 11
1.0
 21
0.0
 31
0.0
 44
0.9
  1
133\P[5.2]
 40
0.3125
 41
1.3727678571
  0
LINE
  5
364
100
AcDbEntity
  8
0
100
AcDbLine
 62
2
  6
CONTINUOUS
 10
57.2732105203
 20
26.5117538155
 11
62.4072622556
 21
25.8690540937
  0
LINE
  5
365
100
AcDbEntity
  8
0
100
AcDbLine
 62
2
  6
CONTINUOUS
 10
54.4192255246
 20
32.1461155844
 11
56.2045625331
 21
31.9226204469
  0
LINE
  5
366
100
AcDbEntity
  8
0
100
AcDbLine
 62
2
  6
CONTINUOUS
 10
56.3898112837
 20
31.8994303182
 11
63.057675351
 21
31.0647222549
  0
LINE
  5
367
100
AcDbEntity
  8
0
100
AcDbLine
 62
2
  6
CONTINUOUS
 10
62.1591983998
 20
25.9001076513
 11
62.3866051622
 21
27.7166917319
  0
LINE
  5
368
100
AcDbEntity
  8
0
100
AcDbLine
 62
2
  6
CONTINUOUS
 10
62.8096114952
 20
31.0957758125
 11
62.5235248616
 21
28.8104417319
  0
INSERT
  5
369
100
AcDbEntity
  8
0
100
AcDbBlockReference
 62
2
  6
CONTINUOUS
  2
_FILLED
 10
62.1591983998
 20
25.9001076513
 41
0.375
 42
0.375
 43
0.375
 50
262.8646191544
  0
INSERT
  5
36A
100
AcDbEntity
  8
0
100
AcDbBlockReference
 62
2
  6
CONTINUOUS
  2
_FILLED
 10
62.8096114952
 20
31.0957758125
 41
0.375
 42
0.375
 43
0.375
 50
82.8646191544
  0
ENDBLK
  5
36B
100
AcDbEntity
  8
0
  6
BYBLOCK
 62
0
100
AcDbBlockEnd
  0
BLOCK
  5
36C
100
AcDbEntity
  8
0
100
AcDbBlockBegin
 62
2
  6
CONTINUOUS
  2
*D24
 70
65
 10
0.0
 20
0.0
  3
*D24
  1

  0
MTEXT
  5
36D
100
AcDbEntity
  8
0
100
AcDbMText
 62
2
  6
CONTINUOUS
  7
STANDARD
 71
2
 72
1
 10
48.6101397398
 20
39.1757268865
 30
0.0
 11
1.0
 21
0.0
 31
0.0
 44
0.9
  1
121\P[4.8]
 40
0.3125
 41
1.40625
  0
LINE
  5
36E
100
AcDbEntity
  8
0
100
AcDbLine
 62
2
  6
CONTINUOUS
 10
46.0893238562
 20
36.784118461
 11
46.4373674736
 21
39.5643809656
  0
LINE
  5
36F
100
AcDbEntity
  8
0
100
AcDbLine
 62
2
  6
CONTINUOUS
 10
51.0762254584
 20
38.1429963503
 11
51.1798405496
 21
38.9707005191
  0
LINE
  5
370
100
AcDbEntity
  8
0
100
AcDbLine
 62
2
  6
CONTINUOUS
 10
46.4063139161
 20
39.3163171098
 11
48.1525504541
 21
39.0977167148
  0
LINE
  5
371
100
AcDbEntity
  8
0
100
AcDbLine
 62
2
  6
CONTINUOUS
 10
51.148786992
 20
38.7226366633
 11
49.4025504541
 21
38.9412370583
  0
INSERT
  5
372
100
AcDbEntity
  8
0
100
AcDbBlockReference
 62
2
  6
CONTINUOUS
  2
_FILLED
 10
46.4063139161
 20
39.3163171098
 41
0.375
 42
0.375
 43
0.375
 50
172.8646191544
  0
INSERT
  5
373
100
AcDbEntity
  8
0
100
AcDbBlockReference
 62
2
  6
CONTINUOUS
  2
_FILLED
 10
51.148786992
 20
38.7226366633
 41
0.375
 42
0.375
 43
0.375
 50
352.8646191544
  0
ENDBLK
  5
374
100
AcDbEntity
  8
0
  6
BYBLOCK
 62
0
100
AcDbBlockEnd
  0
BLOCK
  5
375
100
AcDbEntity
  8
0
100
AcDbBlockBegin
 62
2
  6
CONTINUOUS
  2
*D25
 70
65
 10
0.0
 20
0.0
  3
*D25
  1

  0
MTEXT
  5
376
100
AcDbEntity
  8
0
100
AcDbMText
 62
2
  6
CONTINUOUS
  7
STANDARD
 71
2
 72
1
 10
52.9792778421
 20
38.634370462
 30
0.0
 11
1.0
 21
0.0
 31
0.0
 44
0.9
  1
100\P[3.9]
 40
0.3125
 41
1.3727678571
  0
LINE
  5
377
100
AcDbEntity
  8
0
100
AcDbLine
 62
2
  6
CONTINUOUS
 10
50.404202961
 20
32.7747066937
 11
51.0001636422
 21
37.535394875
  0
LINE
  5
378
100
AcDbEntity
  8
0
100
AcDbLine
 62
2
  6
CONTINUOUS
 10
51.0304063327
 20
37.7769813147
 11
51.1798405496
 21
38.9707005191
  0
LINE
  5
379
100
AcDbEntity
  8
0
100
AcDbLine
 62
2
  6
CONTINUOUS
 10
54.3107203755
 20
32.2856742911
 11
54.8950657177
 21
36.9535761386
  0
LINE
  5
37A
100
AcDbEntity
  8
0
100
AcDbLine
 62
2
  6
CONTINUOUS
 10
54.9417799012
 20
37.3267411278
 11
55.086357964
 21
38.4816681165
  0
LINE
  5
37B
100
AcDbEntity
  8
0
100
AcDbLine
 62
2
  6
CONTINUOUS
 10
51.148786992
 20
38.7226366633
 11
52.4882064135
 21
38.5549631505
  0
LINE
  5
37C
100
AcDbEntity
  8
0
100
AcDbLine
 62
2
  6
CONTINUOUS
 10
55.0553044065
 20
38.2336042607
 11
53.715884985
 21
38.4012777735
  0
INSERT
  5
37D
100
AcDbEntity
  8
0
100
AcDbBlockReference
 62
2
  6
CONTINUOUS
  2
_FILLED
 10
51.148786992
 20
38.7226366633
 41
0.375
 42
0.375
 43
0.375
 50
172.8646191544
  0
INSERT
  5
37E
100
AcDbEntity
  8
0
100
AcDbBlockReference
 62
2
  6
CONTINUOUS
  2
_FILLED
 10
55.0553044065
 20
38.2336042607
 41
0.375
 42
0.375
 43
0.375
 50
352.8646191544
  0
ENDBLK
  5
37F
100
AcDbEntity
  8
0
  6
BYBLOCK
 62
0
100
AcDbBlockEnd
  0
BLOCK
  5
380
100
AcDbEntity
  8
0
100
AcDbBlockBegin
 62
2
  6
CONTINUOUS
  2
*D26
 70
65
 10
0.0
 20
0.0
  3
*D26
  1

  0
MTEXT
  5
381
100
AcDbEntity
  8
0
100
AcDbMText
 62
2
  6
CONTINUOUS
  7
STANDARD
 71
2
 72
1
 10
49.3127794589
 20
38.0235933524
 30
0.0
 11
1.0
 21
0.0
 31
0.0
 44
0.9
  1
162\P[6.4]
 40
0.3125
 41
1.40625
  0
LINE
  5
382
100
AcDbEntity
  8
0
100
AcDbLine
 62
2
  6
CONTINUOUS
 10
45.9077620868
 20
35.3337560513
 11
46.0286173607
 21
36.2991792613
  0
LINE
  5
383
100
AcDbEntity
  8
0
100
AcDbLine
 62
2
  6
CONTINUOUS
 10
46.0661356884
 20
36.5988853743
 11
46.30568898
 21
38.5124990739
  0
LINE
  5
384
100
AcDbEntity
  8
0
100
AcDbLine
 62
2
  6
CONTINUOUS
 10
51.8640557042
 20
31.4413133584
 11
52.6498341958
 21
37.7183153424
  0
LINE
  5
385
100
AcDbEntity
  8
0
100
AcDbLine
 62
2
  6
CONTINUOUS
 10
46.2746354224
 20
38.2644352181
 11
48.8217080303
 21
37.9455831806
  0
LINE
  5
386
100
AcDbEntity
  8
0
100
AcDbLine
 62
2
  6
CONTINUOUS
 10
52.6187806383
 20
37.4702514866
 11
50.0717080303
 21
37.7891035241
  0
INSERT
  5
387
100
AcDbEntity
  8
0
100
AcDbBlockReference
 62
2
  6
CONTINUOUS
  2
_FILLED
 10
46.2746354224
 20
38.2644352181
 41
0.375
 42
0.375
 43
0.375
 50
172.8646191544
  0
INSERT
  5
388
100
AcDbEntity
  8
0
100
AcDbBlockReference
 62
2
  6
CONTINUOUS
  2
_FILLED
 10
52.6187806383
 20
37.4702514866
 41
0.375
 42
0.375
 43
0.375
 50
352.8646191544
  0
ENDBLK
  5
389
100
AcDbEntity
  8
0
  6
BYBLOCK
 62
0
100
AcDbBlockEnd
  0
BLOCK
  5
38A
100
AcDbEntity
  8
0
100
AcDbBlockBegin
 62
2
  6
CONTINUOUS
  2
*D27
 70
65
 10
0.0
 20
0.0
  3
*D27
  1

  0
MTEXT
  5
38B
100
AcDbEntity
  8
0
100
AcDbMText
 62
2
  6
CONTINUOUS
  7
STANDARD
 71
1
 72
1
 10
56.6396401435
 20
37.1857471777
 30
0.0
 11
1.0
 21
0.0
 31
0.0
 44
0.9
  1
68\P[2.7]
 40
0.3125
 41
1.40625
  0
LINE
  5
38C
100
AcDbEntity
  8
0
100
AcDbLine
 62
2
  6
CONTINUOUS
 10
51.8640557042
 20
31.4413133584
 11
52.6498341958
 21
37.7183153424
  0
LINE
  5
38D
100
AcDbEntity
  8
0
100
AcDbLine
 62
2
  6
CONTINUOUS
 10
54.4715843058
 20
30.7181195832
 11
55.3062660376
 21
37.3857733086
  0
LINE
  5
38E
100
AcDbEntity
  8
0
100
AcDbLine
 62
2
  6
CONTINUOUS
 10
52.6187806383
 20
37.4702514866
 11
53.9469965592
 21
37.3039804697
  0
LINE
  5
38F
100
AcDbEntity
  8
0
100
AcDbLine
 62
2
  6
CONTINUOUS
 10
55.2752124801
 20
37.1377094528
 11
53.9469965592
 21
37.3039804697
  0
LINE
  5
390
100
AcDbEntity
  8
0
100
AcDbLine
 62
2
  6
CONTINUOUS
 10
53.9469965592
 20
37.3039804697
 11
56.1396401435
 21
37.0294971777
  0
LINE
  5
391
100
AcDbEntity
  8
0
100
AcDbLine
 62
2
  6
CONTINUOUS
 10
56.1396401435
 20
37.0294971777
 11
56.4833901435
 21
37.0294971777
  0
INSERT
  5
392
100
AcDbEntity
  8
0
100
AcDbBlockReference
 62
2
  6
CONTINUOUS
  2
_FILLED
 10
52.6187806383
 20
37.4702514866
 41
0.375
 42
0.375
 43
0.375
 50
172.8646191544
  0
INSERT
  5
393
100
AcDbEntity
  8
0
100
AcDbBlockReference
 62
2
  6
CONTINUOUS
  2
_FILLED
 10
55.2752124801
 20
37.1377094528
 41
0.375
 42
0.375
 43
0.375
 50
352.8646191544
  0
ENDBLK
  5
394
100
AcDbEntity
  8
0
  6
BYBLOCK
 62
0
100
AcDbBlockEnd
  0
BLOCK
  5
395
100
AcDbEntity
  8
0
100
AcDbBlockBegin
 62
2
  6
CONTINUOUS
  2
*D28
 70
65
 10
0.0
 20
0.0
  3
*D28
  1

  0
MTEXT
  5
396
100
AcDbEntity
  8
0
100
AcDbMText
 62
2
  6
CONTINUOUS
  7
STANDARD
 71
3
 72
1
 10
44.0868100109
 20
37.8519081979
 30
0.0
 11
1.0
 21
0.0
 31
0.0
 44
0.9
  1
4X \Fgdt;{\Fgdt;n}\Ftxt;5,0{\Ftxt.shx;\W0.928571;\H0.312500; } INDICATED A\P[.20]\PMOUNTING HOLES FOR TOUCHMIX 16\P 
 40
0.3125
 41
10.8705357143
  0
LINE
  5
397
100
AcDbEntity
  8
0
100
AcDbLine
 62
2
  6
CONTINUOUS
 10
50.3144032398
 20
32.7152584278
 11
44.5868100109
 21
37.6956581979
  0
LINE
  5
398
100
AcDbEntity
  8
0
100
AcDbLine
 62
2
  6
CONTINUOUS
 10
44.5868100109
 20
37.6956581979
 11
44.2430600109
 21
37.6956581979
  0
INSERT
  5
399
100
AcDbEntity
  8
0
100
AcDbBlockReference
 62
2
  6
CONTINUOUS
  2
_FILLED
 10
50.3144032398
 20
32.7152584278
 41
0.375
 42
0.375
 43
0.375
 50
318.9915743347
  0
ENDBLK
  5
39A
100
AcDbEntity
  8
0
  6
BYBLOCK
 62
0
100
AcDbBlockEnd
  0
BLOCK
  5
39B
100
AcDbEntity
  8
0
100
AcDbBlockBegin
 62
2
  6
CONTINUOUS
  2
*D29
 70
65
 10
0.0
 20
0.0
  3
*D29
  1

  0
MTEXT
  5
39C
100
AcDbEntity
  8
0
100
AcDbMText
 62
2
  6
CONTINUOUS
  7
STANDARD
 71
1
 72
1
 10
58.5393156359
 20
33.3405678007
 30
0.0
 11
1.0
 21
0.0
 31
0.0
 44
0.9
  1
4X \Fgdt;{\Fgdt;n}\Ftxt;5,0{\Ftxt.shx;\W0.928571;\H0.312500; } INDICATED B\P[.20]\PMOUNTING HOLES FOR TOUCHMIX 8
 40
0.3125
 41
10.6026785714
  0
LINE
  5
39D
100
AcDbEntity
  8
0
100
AcDbLine
 62
2
  6
CONTINUOUS
 10
54.5358242532
 20
30.6517486366
 11
58.0393156359
 21
33.1843178007
  0
LINE
  5
39E
100
AcDbEntity
  8
0
100
AcDbLine
 62
2
  6
CONTINUOUS
 10
58.0393156359
 20
33.1843178007
 11
58.3830656359
 21
33.1843178007
  0
INSERT
  5
39F
100
AcDbEntity
  8
0
100
AcDbBlockReference
 62
2
  6
CONTINUOUS
  2
_FILLED
 10
54.5358242532
 20
30.6517486366
 41
0.375
 42
0.375
 43
0.375
 50
215.8620411604
  0
ENDBLK
  5
3A0
100
AcDbEntity
  8
0
  6
BYBLOCK
 62
0
100
AcDbBlockEnd
  0
ENDSEC
  0
SECTION
  2
ENTITIES
  0
MTEXT
  5
3A1
100
AcDbEntity
  8
0
100
AcDbMText
 62
2
  6
CONTINUOUS
  7
STANDARD
 71
1
 72
1
 10
4.9258154895
 20
0.7298333671
 30
0.0
 11
1.0
 21
0.0
 31
0.0
 44
0.9
  1
8
 40
0.3125
 41
0.3683035714
  0
MTEXT
  5
3A2
100
AcDbEntity
  8
0
100
AcDbMText
 62
2
  6
CONTINUOUS
  7
STANDARD
 71
1
 72
1
 10
13.0508154895
 20
0.7298333671
 30
0.0
 11
1.0
 21
0.0
 31
0.0
 44
0.9
  1
7
 40
0.3125
 41
0.3683035714
  0
MTEXT
  5
3A3
100
AcDbEntity
  8
0
100
AcDbMText
 62
2
  6
CONTINUOUS
  7
STANDARD
 71
1
 72
1
 10
21.1758154895
 20
0.7298333671
 30
0.0
 11
1.0
 21
0.0
 31
0.0
 44
0.9
  1
6
 40
0.3125
 41
0.3683035714
  0
MTEXT
  5
3A4
100
AcDbEntity
  8
0
100
AcDbMText
 62
2
  6
CONTINUOUS
  7
STANDARD
 71
1
 72
1
 10
29.3008154895
 20
0.7298333671
 30
0.0
 11
1.0
 21
0.0
 31
0.0
 44
0.9
  1
5
 40
0.3125
 41
0.3348214286
  0
MTEXT
  5
3A5
100
AcDbEntity
  8
0
100
AcDbMText
 62
2
  6
CONTINUOUS
  7
STANDARD
 71
1
 72
1
 10
37.4258154895
 20
0.7298333671
 30
0.0
 11
1.0
 21
0.0
 31
0.0
 44
0.9
  1
4
 40
0.3125
 41
0.3683035714
  0
MTEXT
  5
3A6
100
AcDbEntity
  8
0
100
AcDbMText
 62
2
  6
CONTINUOUS
  7
STANDARD
 71
1
 72
1
 10
45.5508154895
 20
0.7298333671
 30
0.0
 11
1.0
 21
0.0
 31
0.0
 44
0.9
  1
3
 40
0.3125
 41
0.3348214286
  0
MTEXT
  5
3A7
100
AcDbEntity
  8
0
100
AcDbMText
 62
2
  6
CONTINUOUS
  7
STANDARD
 71
1
 72
1
 10
53.6758154895
 20
0.7298333671
 30
0.0
 11
1.0
 21
0.0
 31
0.0
 44
0.9
  1
2
 40
0.3125
 41
0.3683035714
  0
MTEXT
  5
3A8
100
AcDbEntity
  8
0
100
AcDbMText
 62
2
  6
CONTINUOUS
  7
STANDARD
 71
1
 72
1
 10
61.8008154895
 20
0.7298333671
 30
0.0
 11
1.0
 21
0.0
 31
0.0
 44
0.9
  1
1
 40
0.3125
 41
0.2678571429
  0
MTEXT
  5
3A9
100
AcDbEntity
  8
0
100
AcDbMText
 62
2
  6
CONTINUOUS
  7
STANDARD
 71
1
 72
1
 10
4.9258154895
 20
43.7298333671
 30
0.0
 11
1.0
 21
0.0
 31
0.0
 44
0.9
  1
8
 40
0.3125
 41
0.4575892857
  0
MTEXT
  5
3AA
100
AcDbEntity
  8
0
100
AcDbMText
 62
2
  6
CONTINUOUS
  7
STANDARD
 71
1
 72
1
 10
13.0508154895
 20
43.7298333671
 30
0.0
 11
1.0
 21
0.0
 31
0.0
 44
0.9
  1
7
 40
0.3125
 41
0.3683035714
  0
MTEXT
  5
3AB
100
AcDbEntity
  8
0
100
AcDbMText
 62
2
  6
CONTINUOUS
  7
STANDARD
 71
1
 72
1
 10
21.1758154895
 20
43.7298333671
 30
0.0
 11
1.0
 21
0.0
 31
0.0
 44
0.9
  1
6
 40
0.3125
 41
0.3683035714
  0
MTEXT
  5
3AC
100
AcDbEntity
  8
0
100
AcDbMText
 62
2
  6
CONTINUOUS
  7
STANDARD
 71
1
 72
1
 10
29.3008154895
 20
43.7298333671
 30
0.0
 11
1.0
 21
0.0
 31
0.0
 44
0.9
  1
5
 40
0.3125
 41
0.3348214286
  0
MTEXT
  5
3AD
100
AcDbEntity
  8
0
100
AcDbMText
 62
2
  6
CONTINUOUS
  7
STANDARD
 71
1
 72
1
 10
37.4258154895
 20
43.7298333671
 30
0.0
 11
1.0
 21
0.0
 31
0.0
 44
0.9
  1
4
 40
0.3125
 41
0.3683035714
  0
MTEXT
  5
3AE
100
AcDbEntity
  8
0
100
AcDbMText
 62
2
  6
CONTINUOUS
  7
STANDARD
 71
1
 72
1
 10
45.5508154895
 20
43.7298333671
 30
0.0
 11
1.0
 21
0.0
 31
0.0
 44
0.9
  1
3
 40
0.3125
 41
0.3348214286
  0
MTEXT
  5
3AF
100
AcDbEntity
  8
0
100
AcDbMText
 62
2
  6
CONTINUOUS
  7
STANDARD
 71
1
 72
1
 10
53.6758154895
 20
43.7298333671
 30
0.0
 11
1.0
 21
0.0
 31
0.0
 44
0.9
  1
2
 40
0.3125
 41
0.3683035714
  0
MTEXT
  5
3B0
100
AcDbEntity
  8
0
100
AcDbMText
 62
2
  6
CONTINUOUS
  7
STANDARD
 71
1
 72
1
 10
61.8008154895
 20
43.7298333671
 30
0.0
 11
1.0
 21
0.0
 31
0.0
 44
0.9
  1
1
 40
0.3125
 41
0.2678571429
  0
MTEXT
  5
3B1
100
AcDbEntity
  8
0
100
AcDbMText
 62
2
  6
CONTINUOUS
  7
STANDARD
 71
1
 72
1
 10
0.3964386186
 20
6.4389798985
 30
0.0
 11
1.0
 21
0.0
 31
0.0
 44
0.9
  1
A
 40
0.3125
 41
0.4017857143
  0
MTEXT
  5
3B2
100
AcDbEntity
  8
0
100
AcDbMText
 62
2
  6
CONTINUOUS
  7
STANDARD
 71
1
 72
1
 10
0.3964386186
 20
16.9389798985
 30
0.0
 11
1.0
 21
0.0
 31
0.0
 44
0.9
  1
B
 40
0.3125
 41
0.3683035714
  0
MTEXT
  5
3B3
100
AcDbEntity
  8
0
100
AcDbMText
 62
2
  6
CONTINUOUS
  7
STANDARD
 71
1
 72
1
 10
0.3964386186
 20
27.4389798985
 30
0.0
 11
1.0
 21
0.0
 31
0.0
 44
0.9
  1
C
 40
0.3125
 41
0.390625
  0
MTEXT
  5
3B4
100
AcDbEntity
  8
0
100
AcDbMText
 62
2
  6
CONTINUOUS
  7
STANDARD
 71
1
 72
1
 10
0.3964386186
 20
37.9389798985
 30
0.0
 11
1.0
 21
0.0
 31
0.0
 44
0.9
  1
D
 40
0.3125
 41
0.4241071429
  0
MTEXT
  5
3B5
100
AcDbEntity
  8
0
100
AcDbMText
 62
2
  6
CONTINUOUS
  7
STANDARD
 71
1
 72
1
 10
66.3964386186
 20
6.4389798985
 30
0.0
 11
1.0
 21
0.0
 31
0.0
 44
0.9
  1
A
 40
0.3125
 41
0.4017857143
  0
MTEXT
  5
3B6
100
AcDbEntity
  8
0
100
AcDbMText
 62
2
  6
CONTINUOUS
  7
STANDARD
 71
1
 72
1
 10
66.3964386186
 20
16.9389798985
 30
0.0
 11
1.0
 21
0.0
 31
0.0
 44
0.9
  1
B
 40
0.3125
 41
0.3683035714
  0
MTEXT
  5
3B7
100
AcDbEntity
  8
0
100
AcDbMText
 62
2
  6
CONTINUOUS
  7
STANDARD
 71
1
 72
1
 10
66.3964386186
 20
27.4389798985
 30
0.0
 11
1.0
 21
0.0
 31
0.0
 44
0.9
  1
C
 40
0.3125
 41
0.390625
  0
MTEXT
  5
3B8
100
AcDbEntity
  8
0
100
AcDbMText
 62
2
  6
CONTINUOUS
  7
STANDARD
 71
1
 72
1
 10
66.3964386186
 20
37.9389798985
 30
0.0
 11
1.0
 21
0.0
 31
0.0
 44
0.9
  1
D
 40
0.3125
 41
0.4241071429
  0
MTEXT
  5
3B9
100
AcDbEntity
  8
0
100
AcDbMText
 62
5
  6
CONTINUOUS
  7
STANDARD
 71
1
 72
1
 10
1.1325792212
 20
42.9123642308
 30
0.0
 11
1.0
 21
0.0
 31
0.0
 44
0.9
  1
THIS DOCUMENT CONTAINS PROPRIETARY INFORMATION\PWHICH IS THE PROPERTY OF QSC AUDIO PRODUCTS, THAT\PMAY NOT BE DISCLOSED, REPRODUCED OR USED WITHOUT\PEXPRESS WRITTEN CONSENT FROM QSC AUDIO PRODUCTS.
 40
0.15
 41
8.8285714286
  0
MTEXT
  5
3BA
100
AcDbEntity
  8
0
100
AcDbMText
 62
2
  6
CONTINUOUS
  7
STANDARD
 71
2
 72
1
 10
48.4566851707
 20
5.9565149306
 30
0.0
 11
1.0
 21
0.0
 31
0.0
 44
0.9
  1
UNLESS OTHERWISE SPECIFIED\PDIMENSIONS IN INCHES [MM]
 40
0.2
 41
6.1285714286
  0
MTEXT
  5
3BB
100
AcDbEntity
  8
0
100
AcDbMText
 62
2
  6
CONTINUOUS
  7
STANDARD
 71
2
 72
1
 10
48.4698945584
 20
5.1839709972
 30
0.0
 11
1.0
 21
0.0
 31
0.0
 44
0.9
  1
TOLERANCES ARE:
 40
0.18
 41
3.0921428571
  0
MTEXT
  5
3BC
100
AcDbEntity
  8
0
100
AcDbMText
 62
2
  6
CONTINUOUS
  7
STANDARD
 71
2
 72
1
 10
46.9985532817
 20
4.7274111455
 30
0.0
 11
1.0
 21
0.0
 31
0.0
 44
0.9
  1
DECIMALS\P.XX\Fgdt;{\Fgdt;`}\Ftxt;.02[.5]
 40
0.18
 41
2.0892857143
  0
MTEXT
  5
3BD
100
AcDbEntity
  8
0
100
AcDbMText
 62
2
  6
CONTINUOUS
  7
STANDARD
 71
2
 72
1
 10
48.75
 20
4.715
 30
0.0
 11
1.0
 21
0.0
 31
0.0
 44
0.9
  1
DECIMALS\P.XXX\Fgdt;{\Fgdt;`}\Ftxt;.010[.25]
 40
0.18
 41
2.6871428571
  0
MTEXT
  5
3BE
100
AcDbEntity
  8
0
100
AcDbMText
 62
2
  6
CONTINUOUS
  7
STANDARD
 71
2
 72
1
 10
50.2585939888
 20
4.7250013893
 30
0.0
 11
1.0
 21
0.0
 31
0.0
 44
0.9
  1
ANGLES\P\Fgdt;{\Fgdt;`}\Ftxt; 1/2
 40
0.18
 41
1.2857142857
  0
MTEXT
  5
3BF
100
AcDbEntity
  8
0
100
AcDbMText
 62
2
  6
CONTINUOUS
  7
STANDARD
 71
2
 72
1
 10
48.5
 20
3.965
 30
0.0
 11
1.0
 21
0.0
 31
0.0
 44
0.9
  1
DEBURR EDGES .010 [.25] R MAX
 40
0.18
 41
5.8821428571
  0
MTEXT
  5
3C0
100
AcDbEntity
  8
0
100
AcDbMText
 62
2
  6
CONTINUOUS
  7
STANDARD
 71
2
 72
1
 10
46.9178489616
 20
3.3724398351
 30
0.0
 11
1.0
 21
0.0
 31
0.0
 44
0.9
  1
MATERIAL
 40
0.18
 41
1.7292857143
  0
MTEXT
  5
3C1
100
AcDbEntity
  8
0
100
AcDbMText
 62
2
  6
CONTINUOUS
  7
STANDARD
 71
2
 72
1
 10
46.7262794321
 20
2.1542932539
 30
0.0
 11
1.0
 21
0.0
 31
0.0
 44
0.9
  1
FINISH
 40
0.18
 41
1.2278571429
  0
MTEXT
  5
3C2
100
AcDbEntity
  8
0
100
AcDbMText
 62
2
  6
CONTINUOUS
  7
STANDARD
 71
2
 72
1
 10
60.5395846296
 20
1.3618051235
 30
0.0
 11
1.0
 21
0.0
 31
0.0
 44
0.9
  1
DO NOT SCALE DRAWING
 40
0.25
 41
6.2321428571
  0
MTEXT
  5
3C3
100
AcDbEntity
  8
0
100
AcDbMText
 62
2
  6
CONTINUOUS
  7
STANDARD
 71
2
 72
1
 10
51.2478935888
 20
5.4353331371
 30
0.0
 11
1.0
 21
0.0
 31
0.0
 44
0.9
  1
DRAWN
 40
0.18
 41
1.3178571429
  0
MTEXT
  5
3C4
100
AcDbEntity
  8
0
100
AcDbMText
 62
2
  6
CONTINUOUS
  7
STANDARD
 71
2
 72
1
 10
51.318141757
 20
4.5488109888
 30
0.0
 11
1.0
 21
0.0
 31
0.0
 44
0.9
  1
CHECKED
 40
0.18
 41
1.5557142857
  0
MTEXT
  5
3C5
100
AcDbEntity
  8
0
100
AcDbMText
 62
2
  6
CONTINUOUS
  7
STANDARD
 71
2
 72
1
 10
51.3057302526
 20
3.676218489
 30
0.0
 11
1.0
 21
0.0
 31
0.0
 44
0.9
  1
MFG ENG
 40
0.18
 41
1.5171428571
  0
MTEXT
  5
3C6
100
AcDbEntity
  8
0
100
AcDbMText
 62
2
  6
CONTINUOUS
  7
STANDARD
 71
2
 72
1
 10
51.3959653651
 20
2.7975686936
 30
0.0
 11
1.0
 21
0.0
 31
0.0
 44
0.9
  1
QA CHECK
 40
0.18
 41
1.7935714286
  0
MTEXT
  5
3C7
100
AcDbEntity
  8
0
100
AcDbMText
 62
2
  6
CONTINUOUS
  7
STANDARD
 71
2
 72
1
 10
51.9130470007
 20
1.3520049377
 30
0.0
 11
1.0
 21
0.0
 31
0.0
 44
0.9
  1
MODEL INFO:
 40
0.18
 41
2.205
  0
MTEXT
  5
3C8
100
AcDbEntity
  8
0
100
AcDbMText
 62
2
  6
CONTINUOUS
  7
STANDARD
 71
2
 72
1
 10
51.7277017866
 20
1.836722083
 30
0.0
 11
1.0
 21
0.0
 31
0.0
 44
0.9
  1
DRAWING INFO:
 40
0.18
 41
2.8028571429
  0
MTEXT
  5
3C9
100
AcDbEntity
  8
0
100
AcDbMText
 62
2
  6
CONTINUOUS
  7
STANDARD
 71
2
 72
1
 10
52.4826464911
 20
5.9125065294
 30
0.0
 11
1.0
 21
0.0
 31
0.0
 44
0.9
  1
APPROVALS
 40
0.18
 41
1.9735714286
  0
MTEXT
  5
3CA
100
AcDbEntity
  8
0
100
AcDbMText
 62
2
  6
CONTINUOUS
  7
STANDARD
 71
2
 72
1
 10
55.0881252891
 20
6.0703150103
 30
0.0
 11
1.0
 21
0.0
 31
0.0
 44
0.9
  1
DATE\P(DD-MMM-YY)
 40
0.18
 41
2.2628571429
  0
MTEXT
  5
3CB
100
AcDbEntity
  8
0
100
AcDbMText
 62
2
  6
CONTINUOUS
  7
STANDARD
 71
2
 72
1
 10
56.4787291628
 20
1.3340406604
 30
0.0
 11
1.0
 21
0.0
 31
0.0
 44
0.9
  1
SCALE:
 40
0.18
 41
1.1828571429
  0
MTEXT
  5
3CC
100
AcDbEntity
  8
0
100
AcDbMText
 62
2
  6
CONTINUOUS
  7
STANDARD
 71
2
 72
1
 10
63.2324854686
 20
1.337361773
 30
0.0
 11
1.0
 21
0.0
 31
0.0
 44
0.9
  1
SHEET
 40
0.18
 41
1.0928571429
  0
MTEXT
  5
3CD
100
AcDbEntity
  8
0
100
AcDbMText
 62
2
  6
CONTINUOUS
  7
STANDARD
 71
2
 72
1
 10
56.4839589016
 20
2.4206593346
 30
0.0
 11
1.0
 21
0.0
 31
0.0
 44
0.9
  1
SIZE
 40
0.18
 41
0.8421428571
  0
MTEXT
  5
3CE
100
AcDbEntity
  8
0
100
AcDbMText
 62
2
  6
CONTINUOUS
  7
STANDARD
 71
2
 72
1
 10
57.9673952173
 20
2.4228328862
 30
0.0
 11
1.0
 21
0.0
 31
0.0
 44
0.9
  1
CAGE CODE
 40
0.18
 41
1.9992857143
  0
MTEXT
  5
3CF
100
AcDbEntity
  8
0
100
AcDbMText
 62
2
  6
CONTINUOUS
  7
STANDARD
 71
2
 72
1
 10
59.8818994961
 20
2.4186659314
 30
0.0
 11
1.0
 21
0.0
 31
0.0
 44
0.9
  1
DRAWING NO.
 40
0.18
 41
2.4942857143
  0
MTEXT
  5
3D0
100
AcDbEntity
  8
0
100
AcDbMText
 62
2
  6
CONTINUOUS
  7
STANDARD
 71
2
 72
1
 10
65.5242653189
 20
2.4213478134
 30
0.0
 11
1.0
 21
0.0
 31
0.0
 44
0.9
  1
REV
 40
0.18
 41
0.6814285714
  0
MTEXT
  5
3D1
100
AcDbEntity
  8
0
100
AcDbMText
 62
2
  6
CONTINUOUS
  7
STANDARD
 71
2
 72
1
 10
62.6681923263
 20
5.9745968684
 30
0.0
 11
1.0
 21
0.0
 31
0.0
 44
0.9
  1
QSC AUDIO PRODUCTS, LLC
 40
0.3125
 41
8.5379464286
  0
MTEXT
  5
3D2
100
AcDbEntity
  8
0
100
AcDbMText
 62
2
  6
CONTINUOUS
  7
STANDARD
 71
1
 72
1
 10
59.8242648276
 20
5.5085803278
 30
0.0
 11
1.0
 21
0.0
 31
0.0
 44
0.9
  1
1675  MACARTHUR BOULEVARD\PCOSTA MESA, CA  92626
 40
0.25
 41
7.4642857143
  0
MTEXT
  5
3D3
100
AcDbEntity
  8
0
100
AcDbMText
 62
2
  6
CONTINUOUS
  7
STANDARD
 71
1
 72
1
 10
57.2602169778
 20
1.9925529836
 30
0.0
 11
1.0
 21
0.0
 31
0.0
 44
0.9
  1
00PW4
 40
0.3125
 41
2.1986607143
  0
INSERT
  5
3D4
100
AcDbEntity
  8
0
100
AcDbBlockReference
 62
7
  6
CONTINUOUS
  2
RD010411_BL0
 10
57.7776405976
 20
5.4022213303
  0
MTEXT
  5
3D5
100
AcDbEntity
  8
0
100
AcDbMText
 62
7
  6
CONTINUOUS
  7
STANDARD
 71
1
 72
1
 10
44.1829643482
 20
28.5017760743
 30
0.0
 11
1.0
 21
0.0
 31
0.0
 44
0.9
  1
CL
 40
0.3125
 41
0.6919642857
  0
MTEXT
  5
3D6
100
AcDbEntity
  8
0
100
AcDbMText
 62
7
  6
CONTINUOUS
  7
STANDARD
 71
1
 72
1
 10
39.0904248483
 20
15.4001264398
 30
0.0
 11
1.0
 21
0.0
 31
0.0
 44
0.9
  1
A
 40
0.5
 41
0.6428571429
  0
LEADER
  5
3D7
100
AcDbEntity
  8
0
100
AcDbLeader
 62
7
  6
CONTINUOUS
  3
STANDARD
 71
1
 72
0
 73
3
 75
0
 76
2
 10
39.3047105626
 20
15.6501264398
 30
0.0
 10
39.425682282
 20
16.616479847
 30
0.0
1001
ACAD
1000
DSTYLE
1002
{
1070
77
1070
0
1002
}
  0
MTEXT
  5
3D8
100
AcDbEntity
  8
0
100
AcDbMText
 62
7
  6
CONTINUOUS
  7
STANDARD
 71
1
 72
1
 10
58.3860833463
 20
12.8766545031
 30
0.0
 11
1.0
 21
0.0
 31
0.0
 44
0.9
  1
A
 40
0.5
 41
0.6428571429
  0
LEADER
  5
3D9
100
AcDbEntity
  8
0
100
AcDbLeader
 62
7
  6
CONTINUOUS
  3
STANDARD
 71
1
 72
0
 73
3
 75
0
 76
2
 10
58.6003690606
 20
13.1266545031
 30
0.0
 10
58.7346482662
 20
14.1993115548
 30
0.0
1001
ACAD
1000
DSTYLE
1002
{
1070
77
1070
0
1002
}
  0
DIMENSION
  5
3DA
100
AcDbEntity
  8
0
100
AcDbDimension
 62
2
  6
CONTINUOUS
  2
*D0
 10
26.4316175859
 20
16.0940542897
 11
19.2146884521
 21
15.8596792897
 70
160
 71
2
 42
366.62
  3
DIMSTYLE_1
100
AcDbAlignedDimension
 13
11.9977593182
 23
14.619154894
 14
26.4316175859
 24
14.6711322397
100
AcDbRotatedDimension
  0
DIMENSION
  5
3DB
100
AcDbEntity
  8
0
100
AcDbDimension
 62
2
  6
CONTINUOUS
  2
*D1
 10
28.6950034127
 20
17.5880609949
 11
19.2146884521
 21
17.3536859949
 70
160
 71
2
 42
481.6
  3
DIMSTYLE_1
100
AcDbAlignedDimension
 13
9.7343734914
 23
12.2960202073
 14
28.6950034127
 24
12.2960202073
100
AcDbRotatedDimension
  0
DIMENSION
  5
3DC
100
AcDbEntity
  8
0
100
AcDbDimension
 62
2
  6
CONTINUOUS
  2
*D2
 10
10.2264994757
 20
22.4690678815
 11
8.3012009914
 21
22.2346928815
 70
160
 71
3
 42
10.0
  1
<>TYP
  3
DIMSTYLE_1
100
AcDbAlignedDimension
 13
9.8327986883
 23
25.3919635725
 14
10.2264994757
 24
25.3919635725
100
AcDbRotatedDimension
  0
DIMENSION
  5
3DD
100
AcDbEntity
  8
0
100
AcDbDimension
 62
2
  6
CONTINUOUS
  2
*D3
 10
5.6894797023
 20
25.4544635725
 11
5.6894797023
 21
22.9674591995
 70
160
 71
2
 42
20.98
  3
DIMSTYLE_1
100
AcDbAlignedDimension
 13
9.6718734914
 23
24.6284793205
 14
9.8933301843
 24
25.4544635725
 50
90.0
100
AcDbRotatedDimension
  0
DIMENSION
  5
3DE
100
AcDbEntity
  8
0
100
AcDbDimension
 62
2
  6
CONTINUOUS
  2
*D4
 10
8.2518735464
 20
30.7044635725
 11
8.2518735464
 21
27.8450885725
 70
160
 71
2
 42
133.35
  3
DIMSTYLE_1
100
AcDbAlignedDimension
 13
9.8933301843
 23
25.4544635725
 14
9.8933301843
 24
30.7044635725
 50
90.0
100
AcDbRotatedDimension
  0
DIMENSION
  5
3DF
100
AcDbEntity
  8
0
100
AcDbDimension
 62
2
  6
CONTINUOUS
  2
*D5
 10
9.8864094983
 20
30.8060387534
 11
7.3438116123
 21
32.0144359278
 70
163
 71
3
 42
6.25
  1
%%c<>TYP
  3
DIMSTYLE_2
100
AcDbDiametricDimension
 15
10.0252508704
 25
30.6028883916
  0
DIMENSION
  5
3E0
100
AcDbEntity
  8
0
100
AcDbDimension
 62
2
  6
CONTINUOUS
  2
*D6
 10
5.6894797023
 20
25.4544635725
 11
5.6894797023
 21
30.4700885725
 70
160
 71
2
 42
266.7
  3
DIMSTYLE_1
100
AcDbAlignedDimension
 13
9.8933301843
 23
35.9544635725
 14
9.8933301843
 24
25.4544635725
 50
270.0
100
AcDbRotatedDimension
  0
DIMENSION
  5
3E1
100
AcDbEntity
  8
0
100
AcDbDimension
 62
2
  6
CONTINUOUS
  2
*D7
 10
10.029649082
 20
38.1660826241
 11
7.829107018
 21
37.9317076241
 70
160
 71
3
 42
7.5
  3
DIMSTYLE_3
100
AcDbAlignedDimension
 13
9.7343734914
 23
36.8425541237
 14
10.029649082
 24
36.1399950686
100
AcDbRotatedDimension
  0
DIMENSION
  5
3E2
100
AcDbEntity
  8
0
100
AcDbDimension
 62
2
  6
CONTINUOUS
  2
*D8
 10
28.3997278221
 20
38.1660826241
 11
19.2146884521
 21
37.9317076241
 70
160
 71
2
 42
466.6
  3
DIMSTYLE_1
100
AcDbAlignedDimension
 13
10.029649082
 23
35.8939320764
 14
28.3997278221
 24
35.8939320764
100
AcDbRotatedDimension
  0
DIMENSION
  5
3E3
100
AcDbEntity
  8
0
100
AcDbDimension
 62
2
  6
CONTINUOUS
  2
*D9
 10
30.4614526511
 20
36.7800541237
 11
30.4614526511
 21
30.4698917221
 70
160
 71
2
 42
308.65
  3
DIMSTYLE_1
100
AcDbAlignedDimension
 13
28.6798104993
 23
24.6284793205
 14
28.6946854993
 24
36.7800541237
 50
90.0
100
AcDbRotatedDimension
  0
DIMENSION
  5
3E4
100
AcDbEntity
  8
0
100
AcDbDimension
 62
2
  6
CONTINUOUS
  2
*D10
 10
43.6824083705
 20
10.6872306396
 11
45.5464425453
 21
10.4528556396
 70
160
 71
1
 42
9.375
  1
2X <>
  3
DIMSTYLE_3
100
AcDbAlignedDimension
 13
43.3133138823
 23
13.3585762235
 14
43.6824083705
 24
13.1145241443
100
AcDbRotatedDimension
  0
DIMENSION
  5
3E5
100
AcDbEntity
  8
0
100
AcDbDimension
 62
2
  6
CONTINUOUS
  2
*D11
 10
41.7018082277
 20
13.373874538
 11
41.7018082277
 21
12.7977874126
 70
160
 71
2
 42
30.275
  1
2X <>
  3
DIMSTYLE_3
100
AcDbAlignedDimension
 13
49.3266012839
 23
12.1819454041
 14
43.4968768744
 24
13.373874538
 50
90.0
100
AcDbRotatedDimension
  0
DIMENSION
  5
3E6
100
AcDbEntity
  8
0
100
AcDbDimension
 62
2
  6
CONTINUOUS
  2
*D12
 10
56.5077924355
 20
13.0874528385
 11
57.3537745784
 21
11.0639365566
 70
160
 71
1
 42
22.9998888334
  3
DIMSTYLE_1
100
AcDbAlignedDimension
 13
55.5273886854
 23
12.1819454041
 14
55.5273886854
 24
13.0874528385
 50
90.0
100
AcDbRotatedDimension
  0
DIMENSION
  5
3E7
100
AcDbEntity
  8
0
100
AcDbDimension
 62
2
  6
CONTINUOUS
  2
*D13
 10
39.7055683521
 20
14.6086322397
 11
39.7055683521
 21
13.1609138219
 70
160
 71
2
 42
61.6378456249
  3
DIMSTYLE_3
100
AcDbAlignedDimension
 13
43.2508138823
 23
12.1819454041
 14
43.2508138823
 24
14.6086322397
 50
90.0
100
AcDbRotatedDimension
  0
DIMENSION
  5
3E8
100
AcDbEntity
  8
0
100
AcDbDimension
 62
2
  6
CONTINUOUS
  2
*D14
 10
44.0862579325
 20
17.8037507435
 11
41.7826951906
 21
17.6903669619
 70
160
 71
3
 42
9.4
  1
4X <>
  3
DIMSTYLE_3
100
AcDbAlignedDimension
 13
44.0979876487
 23
20.8768093928
 14
44.524723461
 24
21.3063268783
 50
352.8646191544
100
AcDbRotatedDimension
  0
DIMENSION
  5
3E9
100
AcDbEntity
  8
0
100
AcDbDimension
 62
2
  6
CONTINUOUS
  2
*D15
 10
43.0690537046
 20
21.6242055473
 11
41.5541480929
 21
20.0582570883
 70
160
 71
3
 42
15.3130111055
  1
2X <>
  3
DIMSTYLE_3
100
AcDbAlignedDimension
 13
44.0373287497
 23
20.895413368
 14
44.3573514368
 24
21.462931638
 50
82.8646191544
100
AcDbRotatedDimension
  0
DIMENSION
  5
3EA
100
AcDbEntity
  8
0
100
AcDbDimension
 62
2
  6
CONTINUOUS
  2
*D16
 10
36.3011755892
 20
26.5183985116
 11
36.0517779735
 21
24.2917582513
 70
160
 71
2
 42
101.9969888946
  3
DIMSTYLE_1
100
AcDbAlignedDimension
 13
44.3573514308
 23
21.4629315899
 14
44.8561466622
 24
25.4474621105
 50
82.8646636445
100
AcDbRotatedDimension
  0
DIMENSION
  5
3EB
100
AcDbEntity
  8
0
100
AcDbDimension
 62
2
  6
CONTINUOUS
  2
*D17
 10
37.4053670046
 20
35.6645688386
 11
37.155966295
 21
33.4379289656
 70
160
 71
2
 42
101.9969888946
  3
DIMSTYLE_1
100
AcDbAlignedDimension
 13
45.5016694457
 23
30.6040651939
 14
46.0004708651
 24
34.5885949399
 50
82.8645746642
100
AcDbRotatedDimension
  0
DIMENSION
  5
3EC
100
AcDbEntity
  8
0
100
AcDbDimension
 62
2
  6
CONTINUOUS
  2
*D18
 10
37.9779477623
 20
23.6501173913
 11
38.6283608578
 21
28.6114105525
 70
160
 71
2
 42
266.0
  3
DIMSTYLE_1
100
AcDbAlignedDimension
 13
50.3266602183
 23
32.6584381552
 14
49.0258340274
 24
22.2671018328
 50
262.8646191544
100
AcDbRotatedDimension
  0
DIMENSION
  5
3ED
100
AcDbEntity
  8
0
100
AcDbDimension
 62
2
  6
CONTINUOUS
  2
*D19
 10
40.1530815926
 20
24.5284695662
 11
40.6616752913
 21
28.3568726772
 70
160
 71
2
 42
208.0
  3
DIMSTYLE_1
100
AcDbAlignedDimension
 13
51.7865129615
 23
31.3250448199
 14
50.769325564
 24
23.1994885979
 50
262.8646191544
100
AcDbRotatedDimension
  0
DIMENSION
  5
3EE
100
AcDbEntity
  8
0
100
AcDbDimension
 62
2
  6
CONTINUOUS
  2
*D20
 10
42.1044953685
 20
24.6809579515
 11
42.5641858269
 21
28.118709321
 70
160
 71
2
 42
188.0
  3
DIMSTYLE_1
100
AcDbAlignedDimension
 13
54.394041563
 23
30.6018510447
 14
53.4746606461
 24
23.2575983056
 50
262.8646191544
100
AcDbRotatedDimension
  0
DIMENSION
  5
3EF
100
AcDbEntity
  8
0
100
AcDbDimension
 62
2
  6
CONTINUOUS
  2
*D21
 10
58.8597796707
 20
30.0428133125
 11
58.6299344415
 21
27.9723751277
 70
160
 71
2
 42
94.0
  3
DIMSTYLE_1
100
AcDbAlignedDimension
 13
57.1811348814
 23
26.5232801869
 14
54.5180734909
 24
30.5863242659
 50
82.8646191544
100
AcDbRotatedDimension
  0
DIMENSION
  5
3F0
100
AcDbEntity
  8
0
100
AcDbDimension
 62
2
  6
CONTINUOUS
  2
*D22
 10
60.9005800697
 20
30.1841119473
 11
60.6462832204
 21
27.9183478918
 70
160
 71
2
 42
104.0
  3
DIMSTYLE_1
100
AcDbAlignedDimension
 13
57.4070810123
 23
26.4949954086
 14
51.9105448894
 24
31.3095180411
 50
82.8646191544
100
AcDbRotatedDimension
  0
DIMENSION
  5
3F1
100
AcDbEntity
  8
0
100
AcDbDimension
 62
2
  6
CONTINUOUS
  2
*D23
 10
62.8096114952
 20
31.0957758125
 11
62.4844049475
 21
28.2635667319
 70
160
 71
2
 42
133.0
  3
DIMSTYLE_1
100
AcDbAlignedDimension
 13
57.2111945563
 23
26.5195172048
 14
54.3572095606
 24
32.1538789738
 50
82.8646191544
100
AcDbRotatedDimension
  0
DIMENSION
  5
3F2
100
AcDbEntity
  8
0
100
AcDbDimension
 62
2
  6
CONTINUOUS
  2
*D24
 10
51.148786992
 20
38.7226366633
 11
48.7775504541
 21
38.7851018865
 70
160
 71
2
 42
121.3990000002
  3
DIMSTYLE_1
100
AcDbAlignedDimension
 13
46.0815604668
 23
36.7221024971
 14
51.068462069
 24
38.0809803863
 50
352.8646191544
100
AcDbRotatedDimension
  0
DIMENSION
  5
3F3
100
AcDbEntity
  8
0
100
AcDbDimension
 62
2
  6
CONTINUOUS
  2
*D25
 10
55.0553044065
 20
38.2336042607
 11
53.1020456993
 21
38.243745462
 70
160
 71
2
 42
100.0
  3
DIMSTYLE_1
100
AcDbAlignedDimension
 13
50.3964395716
 23
32.7126907297
 14
54.3029569861
 24
32.2236583271
 50
352.8646191544
100
AcDbRotatedDimension
  0
DIMENSION
  5
3F4
100
AcDbEntity
  8
0
100
AcDbDimension
 62
2
  6
CONTINUOUS
  2
*D26
 10
52.6187806383
 20
37.4702514866
 11
49.4467080303
 21
37.6329683524
 70
160
 71
2
 42
162.3990000002
  3
DIMSTYLE_1
100
AcDbAlignedDimension
 13
45.8999986974
 23
35.2717400874
 14
51.8562923148
 24
31.3792973945
 50
352.8646191544
100
AcDbRotatedDimension
  0
DIMENSION
  5
3F5
100
AcDbEntity
  8
0
100
AcDbDimension
 62
2
  6
CONTINUOUS
  2
*D27
 10
55.2752124801
 20
37.1377094528
 11
57.1083901435
 21
36.7951221777
 70
160
 71
1
 42
68.0
  3
DIMSTYLE_1
100
AcDbAlignedDimension
 13
51.8562923148
 23
31.3792973945
 14
54.4638209164
 24
30.6561036192
 50
352.8646191544
100
AcDbRotatedDimension
  0
DIMENSION
  5
3F6
100
AcDbEntity
  8
0
100
AcDbDimension
 62
2
  6
CONTINUOUS
  2
*D28
 10
50.3144032398
 20
32.7152584278
 11
40.4632981061
 21
37.2269081979
 70
163
 71
3
 42
5.0
  1
4X %%c<> INDICATED A\PMOUNTING HOLES FOR TOUCHMIX 16\P 
  3
DIMSTYLE_2
100
AcDbDiametricDimension
 15
50.4629491247
 25
32.5860911037
  0
DIMENSION
  5
3F7
100
AcDbEntity
  8
0
100
AcDbDimension
 62
2
  6
CONTINUOUS
  2
*D29
 10
54.5358242532
 20
30.6517486366
 11
62.0735418264
 21
32.7155678007
 70
163
 71
1
 42
5.0
  1
4X %%c<> INDICATED B\PMOUNTING HOLES FOR TOUCHMIX 8
  3
DIMSTYLE_2
100
AcDbDiametricDimension
 15
54.3762908008
 25
30.536426674
  0
LINE
  5
3F8
100
AcDbEntity
  8
0
100
AcDbLine
 62
2
  6
CONTINUOUS
 10
46.25
 20
3.5
 11
50.75
 21
3.5
  0
LINE
  5
3F9
100
AcDbEntity
  8
0
100
AcDbLine
 62
2
  6
CONTINUOUS
 10
46.25
 20
3.5
 11
46.25
 21
2.25
  0
LINE
  5
3FA
100
AcDbEntity
  8
0
100
AcDbLine
 62
2
  6
CONTINUOUS
 10
46.25
 20
2.25
 11
50.75
 21
2.25
  0
LINE
  5
3FB
100
AcDbEntity
  8
0
100
AcDbLine
 62
2
  6
CONTINUOUS
 10
50.75
 20
3.5
 11
50.75
 21
2.25
  0
LINE
  5
3FC
100
AcDbEntity
  8
0
100
AcDbLine
 62
2
  6
CONTINUOUS
 10
46.25
 20
2.25
 11
50.75
 21
2.25
  0
LINE
  5
3FD
100
AcDbEntity
  8
0
100
AcDbLine
 62
2
  6
CONTINUOUS
 10
46.25
 20
2.25
 11
46.25
 21
1.0
  0
LINE
  5
3FE
100
AcDbEntity
  8
0
100
AcDbLine
 62
2
  6
CONTINUOUS
 10
46.25
 20
1.0
 11
50.75
 21
1.0
  0
LINE
  5
3FF
100
AcDbEntity
  8
0
100
AcDbLine
 62
2
  6
CONTINUOUS
 10
50.75
 20
2.25
 11
50.75
 21
1.0
  0
LINE
  5
400
100
AcDbEntity
  8
0
100
AcDbLine
 62
2
  6
CONTINUOUS
 10
50.75
 20
5.5
 11
54.25
 21
5.5
  0
LINE
  5
401
100
AcDbEntity
  8
0
100
AcDbLine
 62
2
  6
CONTINUOUS
 10
50.75
 20
5.5
 11
50.75
 21
4.640625
  0
LINE
  5
402
100
AcDbEntity
  8
0
100
AcDbLine
 62
2
  6
CONTINUOUS
 10
50.75
 20
4.640625
 11
54.25
 21
4.640625
  0
LINE
  5
403
100
AcDbEntity
  8
0
100
AcDbLine
 62
2
  6
CONTINUOUS
 10
54.25
 20
5.5
 11
54.25
 21
4.640625
  0
MTEXT
  5
404
100
AcDbEntity
  8
0
100
AcDbMText
 62
2
  6
CONTINUOUS
  7
STANDARD
 71
1
 72
1
 10
50.875
 20
5.578125
 30
0.0
 11
1.0
 21
0.0
 31
0.0
 44
0.9
  1
 \PENG. SERVICES
 40
0.3125
 41
4.5647321429
  0
LINE
  5
405
100
AcDbEntity
  8
0
100
AcDbLine
 62
2
  6
CONTINUOUS
 10
50.75
 20
4.625
 11
54.25
 21
4.625
  0
LINE
  5
406
100
AcDbEntity
  8
0
100
AcDbLine
 62
2
  6
CONTINUOUS
 10
50.75
 20
4.625
 11
50.75
 21
3.745
  0
LINE
  5
407
100
AcDbEntity
  8
0
100
AcDbLine
 62
2
  6
CONTINUOUS
 10
50.75
 20
3.745
 11
54.25
 21
3.745
  0
LINE
  5
408
100
AcDbEntity
  8
0
100
AcDbLine
 62
2
  6
CONTINUOUS
 10
54.25
 20
4.625
 11
54.25
 21
3.745
  0
MTEXT
  5
409
100
AcDbEntity
  8
0
100
AcDbMText
 62
2
  6
CONTINUOUS
  7
STANDARD
 71
1
 72
1
 10
50.875
 20
4.21375
 30
0.0
 11
1.0
 21
0.0
 31
0.0
 44
0.9
  1
 S. STASIAK  
 40
0.3125
 41
4.8102678571
  0
LINE
  5
40A
100
AcDbEntity
  8
0
100
AcDbLine
 62
2
  6
CONTINUOUS
 10
50.75
 20
3.75
 11
54.25
 21
3.75
  0
LINE
  5
40B
100
AcDbEntity
  8
0
100
AcDbLine
 62
2
  6
CONTINUOUS
 10
50.75
 20
3.75
 11
50.75
 21
2.890625
  0
LINE
  5
40C
100
AcDbEntity
  8
0
100
AcDbLine
 62
2
  6
CONTINUOUS
 10
50.75
 20
2.890625
 11
54.25
 21
2.890625
  0
LINE
  5
40D
100
AcDbEntity
  8
0
100
AcDbLine
 62
2
  6
CONTINUOUS
 10
54.25
 20
3.75
 11
54.25
 21
2.890625
  0
MTEXT
  5
40E
100
AcDbEntity
  8
0
100
AcDbMText
 62
2
  6
CONTINUOUS
  7
STANDARD
 71
1
 72
1
 10
50.875
 20
3.359375
 30
0.0
 11
1.0
 21
0.0
 31
0.0
 44
0.9
  1
N/A
 40
0.3125
 41
1.2165178571
  0
LINE
  5
40F
100
AcDbEntity
  8
0
100
AcDbLine
 62
2
  6
CONTINUOUS
 10
50.75
 20
2.875
 11
54.25
 21
2.875
  0
LINE
  5
410
100
AcDbEntity
  8
0
100
AcDbLine
 62
2
  6
CONTINUOUS
 10
50.75
 20
2.875
 11
50.75
 21
1.995
  0
LINE
  5
411
100
AcDbEntity
  8
0
100
AcDbLine
 62
2
  6
CONTINUOUS
 10
50.75
 20
1.995
 11
54.25
 21
1.995
  0
LINE
  5
412
100
AcDbEntity
  8
0
100
AcDbLine
 62
2
  6
CONTINUOUS
 10
54.25
 20
2.875
 11
54.25
 21
1.995
  0
MTEXT
  5
413
100
AcDbEntity
  8
0
100
AcDbMText
 62
2
  6
CONTINUOUS
  7
STANDARD
 71
1
 72
1
 10
50.875
 20
2.46375
 30
0.0
 11
1.0
 21
0.0
 31
0.0
 44
0.9
  1
N/A
 40
0.3125
 41
1.2165178571
  0
LINE
  5
414
100
AcDbEntity
  8
0
100
AcDbLine
 62
2
  6
CONTINUOUS
 10
54.25
 20
5.5
 11
56.0
 21
5.5
  0
LINE
  5
415
100
AcDbEntity
  8
0
100
AcDbLine
 62
2
  6
CONTINUOUS
 10
54.25
 20
5.5
 11
54.25
 21
4.62
  0
LINE
  5
416
100
AcDbEntity
  8
0
100
AcDbLine
 62
2
  6
CONTINUOUS
 10
54.25
 20
4.62
 11
56.0
 21
4.62
  0
LINE
  5
417
100
AcDbEntity
  8
0
100
AcDbLine
 62
2
  6
CONTINUOUS
 10
56.0
 20
5.5
 11
56.0
 21
4.62
  0
MTEXT
  5
418
100
AcDbEntity
  8
0
100
AcDbMText
 62
2
  6
CONTINUOUS
  7
STANDARD
 71
2
 72
1
 10
55.125
 20
5.01625
 30
0.0
 11
1.0
 21
0.0
 31
0.0
 44
0.9
  1
20-MAR-15
 40
0.24
 41
2.5114285714
  0
LINE
  5
419
100
AcDbEntity
  8
0
100
AcDbLine
 62
2
  6
CONTINUOUS
 10
54.25
 20
4.625
 11
56.0
 21
4.625
  0
LINE
  5
41A
100
AcDbEntity
  8
0
100
AcDbLine
 62
2
  6
CONTINUOUS
 10
54.25
 20
4.625
 11
54.25
 21
3.745
  0
LINE
  5
41B
100
AcDbEntity
  8
0
100
AcDbLine
 62
2
  6
CONTINUOUS
 10
54.25
 20
3.745
 11
56.0
 21
3.745
  0
LINE
  5
41C
100
AcDbEntity
  8
0
100
AcDbLine
 62
2
  6
CONTINUOUS
 10
56.0
 20
4.625
 11
56.0
 21
3.745
  0
MTEXT
  5
41D
100
AcDbEntity
  8
0
100
AcDbMText
 62
2
  6
CONTINUOUS
  7
STANDARD
 71
2
 72
1
 10
55.125
 20
4.14125
 30
0.0
 11
1.0
 21
0.0
 31
0.0
 44
0.9
  1
20-MAR-15 
 40
0.24
 41
2.7942857143
  0
LINE
  5
41E
100
AcDbEntity
  8
0
100
AcDbLine
 62
2
  6
CONTINUOUS
 10
54.25
 20
3.75
 11
56.0
 21
3.75
  0
LINE
  5
41F
100
AcDbEntity
  8
0
100
AcDbLine
 62
2
  6
CONTINUOUS
 10
54.25
 20
3.75
 11
54.25
 21
2.87
  0
LINE
  5
420
100
AcDbEntity
  8
0
100
AcDbLine
 62
2
  6
CONTINUOUS
 10
54.25
 20
2.87
 11
56.0
 21
2.87
  0
LINE
  5
421
100
AcDbEntity
  8
0
100
AcDbLine
 62
2
  6
CONTINUOUS
 10
56.0
 20
3.75
 11
56.0
 21
2.87
  0
LINE
  5
422
100
AcDbEntity
  8
0
100
AcDbLine
 62
2
  6
CONTINUOUS
 10
54.25
 20
2.875
 11
56.0
 21
2.875
  0
LINE
  5
423
100
AcDbEntity
  8
0
100
AcDbLine
 62
2
  6
CONTINUOUS
 10
54.25
 20
2.875
 11
54.25
 21
2.015625
  0
LINE
  5
424
100
AcDbEntity
  8
0
100
AcDbLine
 62
2
  6
CONTINUOUS
 10
54.25
 20
2.015625
 11
56.0
 21
2.015625
  0
LINE
  5
425
100
AcDbEntity
  8
0
100
AcDbLine
 62
2
  6
CONTINUOUS
 10
56.0
 20
2.875
 11
56.0
 21
2.015625
  0
LINE
  5
426
100
AcDbEntity
  8
0
100
AcDbLine
 62
2
  6
CONTINUOUS
 10
50.75
 20
2.0
 11
56.0
 21
2.0
  0
LINE
  5
427
100
AcDbEntity
  8
0
100
AcDbLine
 62
2
  6
CONTINUOUS
 10
50.75
 20
2.0
 11
50.75
 21
1.5
  0
LINE
  5
428
100
AcDbEntity
  8
0
100
AcDbLine
 62
2
  6
CONTINUOUS
 10
50.75
 20
1.5
 11
56.0
 21
1.5
  0
LINE
  5
429
100
AcDbEntity
  8
0
100
AcDbLine
 62
2
  6
CONTINUOUS
 10
56.0
 20
2.0
 11
56.0
 21
1.5
  0
MTEXT
  5
42A
100
AcDbEntity
  8
0
100
AcDbMText
 62
2
  6
CONTINUOUS
  7
STANDARD
 71
3
 72
1
 10
55.875
 20
1.87625
 30
0.0
 11
1.0
 21
0.0
 31
0.0
 44
0.9
  1
FG-610000-2D. 
 40
0.22
 41
3.52
  0
LINE
  5
42B
100
AcDbEntity
  8
0
100
AcDbLine
 62
2
  6
CONTINUOUS
 10
50.75
 20
1.5
 11
56.0
 21
1.5
  0
LINE
  5
42C
100
AcDbEntity
  8
0
100
AcDbLine
 62
2
  6
CONTINUOUS
 10
50.75
 20
1.5
 11
50.75
 21
1.0
  0
LINE
  5
42D
100
AcDbEntity
  8
0
100
AcDbLine
 62
2
  6
CONTINUOUS
 10
50.75
 20
1.0
 11
56.0
 21
1.0
  0
LINE
  5
42E
100
AcDbEntity
  8
0
100
AcDbLine
 62
2
  6
CONTINUOUS
 10
56.0
 20
1.5
 11
56.0
 21
1.0
  0
MTEXT
  5
42F
100
AcDbEntity
  8
0
100
AcDbMText
 62
2
  6
CONTINUOUS
  7
STANDARD
 71
3
 72
1
 10
55.875
 20
1.37625
 30
0.0
 11
1.0
 21
0.0
 31
0.0
 44
0.9
  1
FG-610000-3D.1-3.1
 40
0.22
 41
4.2114285714
  0
LINE
  5
430
100
AcDbEntity
  8
0
100
AcDbLine
 62
2
  6
CONTINUOUS
 10
56.0
 20
4.75
 11
66.0
 21
4.75
  0
LINE
  5
431
100
AcDbEntity
  8
0
100
AcDbLine
 62
2
  6
CONTINUOUS
 10
56.0
 20
4.75
 11
56.0
 21
2.5
  0
LINE
  5
432
100
AcDbEntity
  8
0
100
AcDbLine
 62
2
  6
CONTINUOUS
 10
56.0
 20
2.5
 11
66.0
 21
2.5
  0
LINE
  5
433
100
AcDbEntity
  8
0
100
AcDbLine
 62
2
  6
CONTINUOUS
 10
66.0
 20
4.75
 11
66.0
 21
2.5
  0
MTEXT
  5
434
100
AcDbEntity
  8
0
100
AcDbMText
 62
2
  6
CONTINUOUS
  7
STANDARD
 71
2
 72
1
 10
61.0
 20
4.235
 30
0.0
 11
1.0
 21
0.0
 31
0.0
 44
1.02
  1
CHASSIS, RACKMOUNT TRAY\PTOUCHMIX-8/16
 40
0.4
 41
11.1
  0
LINE
  5
435
100
AcDbEntity
  8
0
100
AcDbLine
 62
2
  6
CONTINUOUS
 10
56.0021846059
 20
2.495880935
 11
57.0021846059
 21
2.495880935
  0
LINE
  5
436
100
AcDbEntity
  8
0
100
AcDbLine
 62
2
  6
CONTINUOUS
 10
56.0021846059
 20
2.495880935
 11
56.0021846059
 21
1.495880935
  0
LINE
  5
437
100
AcDbEntity
  8
0
100
AcDbLine
 62
2
  6
CONTINUOUS
 10
56.0021846059
 20
1.495880935
 11
57.0021846059
 21
1.495880935
  0
LINE
  5
438
100
AcDbEntity
  8
0
100
AcDbLine
 62
2
  6
CONTINUOUS
 10
57.0021846059
 20
2.495880935
 11
57.0021846059
 21
1.495880935
  0
MTEXT
  5
439
100
AcDbEntity
  8
0
100
AcDbMText
 62
2
  6
CONTINUOUS
  7
STANDARD
 71
2
 72
1
 10
56.5021846059
 20
2.052130935
 30
0.0
 11
1.0
 21
0.0
 31
0.0
 44
0.9
  1
D
 40
0.4
 41
0.6571428571
  0
LINE
  5
43A
100
AcDbEntity
  8
0
100
AcDbLine
 62
2
  6
CONTINUOUS
 10
59.0010349952
 20
2.4899491782
 11
65.0010349952
 21
2.4899491782
  0
LINE
  5
43B
100
AcDbEntity
  8
0
100
AcDbLine
 62
2
  6
CONTINUOUS
 10
59.0010349952
 20
2.4899491782
 11
59.0010349952
 21
1.4899491782
  0
LINE
  5
43C
100
AcDbEntity
  8
0
100
AcDbLine
 62
2
  6
CONTINUOUS
 10
59.0010349952
 20
1.4899491782
 11
65.0010349952
 21
1.4899491782
  0
LINE
  5
43D
100
AcDbEntity
  8
0
100
AcDbLine
 62
2
  6
CONTINUOUS
 10
65.0010349952
 20
2.4899491782
 11
65.0010349952
 21
1.4899491782
  0
MTEXT
  5
43E
100
AcDbEntity
  8
0
100
AcDbMText
 62
2
  6
CONTINUOUS
  7
STANDARD
 71
2
 72
1
 10
62.0010349952
 20
2.1061991782
 30
0.0
 11
1.0
 21
0.0
 31
0.0
 44
0.9
  1
FG-610000-2D
 40
0.46
 41
6.4235714286
  0
LINE
  5
43F
100
AcDbEntity
  8
0
100
AcDbLine
 62
2
  6
CONTINUOUS
 10
64.9973997925
 20
2.4965756452
 11
65.9973997925
 21
2.4965756452
  0
LINE
  5
440
100
AcDbEntity
  8
0
100
AcDbLine
 62
2
  6
CONTINUOUS
 10
64.9973997925
 20
2.4965756452
 11
64.9973997925
 21
1.4965756452
  0
LINE
  5
441
100
AcDbEntity
  8
0
100
AcDbLine
 62
2
  6
CONTINUOUS
 10
64.9973997925
 20
1.4965756452
 11
65.9973997925
 21
1.4965756452
  0
LINE
  5
442
100
AcDbEntity
  8
0
100
AcDbLine
 62
2
  6
CONTINUOUS
 10
65.9973997925
 20
2.4965756452
 11
65.9973997925
 21
1.4965756452
  0
MTEXT
  5
443
100
AcDbEntity
  8
0
100
AcDbMText
 62
2
  6
CONTINUOUS
  7
STANDARD
 71
2
 72
1
 10
65.4973997925
 20
2.0128256452
 30
0.0
 11
1.0
 21
0.0
 31
0.0
 44
0.9
  1
A 
 40
0.36
 41
0.99
  0
LINE
  5
444
100
AcDbEntity
  8
0
100
AcDbLine
 62
2
  6
CONTINUOUS
 10
62.7512412387
 20
1.4858577673
 11
66.0012412387
 21
1.4858577673
  0
LINE
  5
445
100
AcDbEntity
  8
0
100
AcDbLine
 62
2
  6
CONTINUOUS
 10
62.7512412387
 20
1.4858577673
 11
62.7512412387
 21
0.9858577673
  0
LINE
  5
446
100
AcDbEntity
  8
0
100
AcDbLine
 62
2
  6
CONTINUOUS
 10
62.7512412387
 20
0.9858577673
 11
66.0012412387
 21
0.9858577673
  0
LINE
  5
447
100
AcDbEntity
  8
0
100
AcDbLine
 62
2
  6
CONTINUOUS
 10
66.0012412387
 20
1.4858577673
 11
66.0012412387
 21
0.9858577673
  0
MTEXT
  5
448
100
AcDbEntity
  8
0
100
AcDbMText
 62
2
  6
CONTINUOUS
  7
STANDARD
 71
3
 72
1
 10
65.8762412387
 20
1.4221077673
 30
0.0
 11
1.0
 21
0.0
 31
0.0
 44
0.9
  1
1 OF 1
 40
0.28
 41
1.85
  0
LINE
  5
449
100
AcDbEntity
  8
0
100
AcDbLine
 62
2
  6
CONTINUOUS
 10
55.9965196242
 20
1.4976464338
 11
58.3725196242
 21
1.4976464338
  0
LINE
  5
44A
100
AcDbEntity
  8
0
100
AcDbLine
 62
2
  6
CONTINUOUS
 10
55.9965196242
 20
1.4976464338
 11
55.9965196242
 21
0.9898339338
  0
LINE
  5
44B
100
AcDbEntity
  8
0
100
AcDbLine
 62
2
  6
CONTINUOUS
 10
55.9965196242
 20
0.9898339338
 11
58.3725196242
 21
0.9898339338
  0
LINE
  5
44C
100
AcDbEntity
  8
0
100
AcDbLine
 62
2
  6
CONTINUOUS
 10
58.3725196242
 20
1.4976464338
 11
58.3725196242
 21
0.9898339338
  0
MTEXT
  5
44D
100
AcDbEntity
  8
0
100
AcDbMText
 62
2
  6
CONTINUOUS
  7
STANDARD
 71
3
 72
1
 10
58.2475196242
 20
1.3860839338
 30
0.0
 11
1.0
 21
0.0
 31
0.0
 44
0.9
  1
0.500
 40
0.24
 41
1.3114285714
  0
LWPOLYLINE
  5
44E
100
AcDbEntity
  8
0
100
AcDbPolyline
 62
2
  6
CONTINUOUS
 90
2
 70
0
 43
0.04
 10
66.0662991213
 20
43.0528937757
 10
45.9012991213
 20
43.0528937757
  0
LWPOLYLINE
  5
44F
100
AcDbEntity
  8
0
100
AcDbPolyline
 62
2
  6
CONTINUOUS
 90
2
 70
0
 43
0.04
 10
66.0462991213
 20
43.0528937757
 10
66.0462991213
 20
41.1778937757
  0
LWPOLYLINE
  5
450
100
AcDbEntity
  8
0
100
AcDbPolyline
 62
2
  6
CONTINUOUS
 90
2
 70
0
 43
0.04
 10
66.0462991213
 20
42.4278937757
 10
45.9212991213
 20
42.4278937757
  0
LWPOLYLINE
  5
451
100
AcDbEntity
  8
0
100
AcDbPolyline
 62
2
  6
CONTINUOUS
 90
2
 70
0
 43
0.04
 10
66.0462991213
 20
41.8028937757
 10
45.9212991213
 20
41.8028937757
  0
LWPOLYLINE
  5
452
100
AcDbEntity
  8
0
100
AcDbPolyline
 62
2
  6
CONTINUOUS
 90
2
 70
0
 43
0.04
 10
66.0662991213
 20
41.1778937757
 10
45.9012991213
 20
41.1778937757
  0
LWPOLYLINE
  5
453
100
AcDbEntity
  8
0
100
AcDbPolyline
 62
2
  6
CONTINUOUS
 90
2
 70
0
 43
0.04
 10
63.5462991213
 20
42.4278937757
 10
63.5462991213
 20
41.1778937757
  0
LWPOLYLINE
  5
454
100
AcDbEntity
  8
0
100
AcDbPolyline
 62
2
  6
CONTINUOUS
 90
2
 70
0
 43
0.04
 10
62.5462991213
 20
42.4278937757
 10
62.5462991213
 20
41.1778937757
  0
LWPOLYLINE
  5
455
100
AcDbEntity
  8
0
100
AcDbPolyline
 62
2
  6
CONTINUOUS
 90
2
 70
0
 43
0.04
 10
46.9212991213
 20
42.4278937757
 10
46.9212991213
 20
41.1778937757
  0
LWPOLYLINE
  5
456
100
AcDbEntity
  8
0
100
AcDbPolyline
 62
2
  6
CONTINUOUS
 90
2
 70
0
 43
0.04
 10
45.9212991213
 20
43.0528937757
 10
45.9212991213
 20
41.1778937757
  0
MTEXT
  5
457
100
AcDbEntity
  8
0
100
AcDbMText
 62
2
  6
CONTINUOUS
  7
STANDARD
 71
2
 72
1
 10
55.9837991213
 20
42.8966437757
 30
0.0
 11
1.0
 21
0.0
 31
0.0
 44
0.9
  1
REVISIONS
 40
0.3125
 41
3.1696428571
  0
MTEXT
  5
458
100
AcDbEntity
  8
0
100
AcDbMText
 62
2
  6
CONTINUOUS
  7
STANDARD
 71
2
 72
1
 10
64.7962991213
 20
42.2716437757
 30
0.0
 11
1.0
 21
0.0
 31
0.0
 44
0.9
  1
DATE 
 40
0.3125
 41
1.9308035714
  0
MTEXT
  5
459
100
AcDbEntity
  8
0
100
AcDbMText
 62
2
  6
CONTINUOUS
  7
STANDARD
 71
2
 72
1
 10
63.0462991213
 20
42.2716437757
 30
0.0
 11
1.0
 21
0.0
 31
0.0
 44
0.9
  1
BY
 40
0.3125
 41
0.7700892857
  0
MTEXT
  5
45A
100
AcDbEntity
  8
0
100
AcDbMText
 62
2
  6
CONTINUOUS
  7
STANDARD
 71
2
 72
1
 10
54.7337991213
 20
42.2713937757
 30
0.0
 11
1.0
 21
0.0
 31
0.0
 44
0.9
  1
DESCRIPTION
 40
0.312
 41
3.9891428571
  0
MTEXT
  5
45B
100
AcDbEntity
  8
0
100
AcDbMText
 62
2
  6
CONTINUOUS
  7
STANDARD
 71
2
 72
1
 10
46.4212991213
 20
42.2713937757
 30
0.0
 11
1.0
 21
0.0
 31
0.0
 44
0.9
  1
REV
 40
0.312
 41
1.092
  0
MTEXT
  5
45C
100
AcDbEntity
  8
0
100
AcDbMText
 62
2
  6
CONTINUOUS
  7
STANDARD
 71
2
 72
1
 10
64.7962991213
 20
41.6466437757
 30
0.0
 11
1.0
 21
0.0
 31
0.0
 44
0.9
  1
20-MAR-15
 40
0.3125
 41
3.2700892857
  0
MTEXT
  5
45D
100
AcDbEntity
  8
0
100
AcDbMText
 62
2
  6
CONTINUOUS
  7
STANDARD
 71
2
 72
1
 10
63.0462991213
 20
41.6466437757
 30
0.0
 11
1.0
 21
0.0
 31
0.0
 44
0.9
  1
SS
 40
0.3125
 41
0.8258928571
  0
MTEXT
  5
45E
100
AcDbEntity
  8
0
100
AcDbMText
 62
2
  6
CONTINUOUS
  7
STANDARD
 71
1
 72
1
 10
47.0462991213
 20
41.6466437757
 30
0.0
 11
1.0
 21
0.0
 31
0.0
 44
0.9
  1
RELEASE FOR SALES AND MARKETING
 40
0.3125
 41
11.3616071429
  0
MTEXT
  5
45F
100
AcDbEntity
  8
0
100
AcDbMText
 62
2
  6
CONTINUOUS
  7
STANDARD
 71
2
 72
1
 10
46.4212991213
 20
41.6466437757
 30
0.0
 11
1.0
 21
0.0
 31
0.0
 44
0.9
  1
A
 40
0.3125
 41
0.4910714286
  0
MTEXT
  5
460
100
AcDbEntity
  8
0
100
AcDbMText
 62
2
  6
CONTINUOUS
  7
STANDARD
 71
1
 72
1
 10
50.4894121846
 20
33.0549579905
 30
0.0
 11
1.0
 21
0.0
 31
0.0
 44
0.9
  1
A
 40
0.3125
 41
0.4910714286
  0
TEXT
  5
461
100
AcDbEntity
  8
0
100
AcDbText
 62
2
  6
CONTINUOUS
 10
1.4256226211
 20
4.3771967522
  7
STANDARD
 40
0.3125
  1
4
 41
0.9761904762
 72
0
100
AcDbText
  0
TEXT
  5
462
100
AcDbEntity
  8
0
100
AcDbText
 62
2
  6
CONTINUOUS
 10
1.8869321449
 20
4.3771967522
  7
STANDARD
 40
0.3125
  1
 INDICATED A & B DIMPLE HEIGHT 6.3MM [.25INCH]
 41
0.7582815735
 72
0
100
AcDbText
  0
TEXT
  5
463
100
AcDbEntity
  8
0
100
AcDbText
 62
2
  6
CONTINUOUS
 10
1.2693726211
 20
3.7521967522
  7
STANDARD
 40
0.3125
  1
3. PARTS ARE SYMMETRICAL ABOUT CENTER LINES  UNLESS OTHERWISE NOTED.
 41
0.781512605
 72
0
100
AcDbText
  0
TEXT
  5
464
100
AcDbEntity
  8
0
100
AcDbText
 62
2
  6
CONTINUOUS
 10
1.2693726211
 20
3.1271967522
  7
STANDARD
 40
0.3125
  1
2. TOLERANCES (MM): X 
 41
0.7294372294
 72
0
100
AcDbText
  0
TEXT
  5
465
100
AcDbEntity
  8
0
100
AcDbText
 62
2
  6
CONTINUOUS
 10
6.2842535735
 20
3.1271967522
  7
TEXTSTYLE_1
 40
0.3125
  1
`
 41
1.0
 72
0
100
AcDbText
  0
TEXT
  5
466
100
AcDbEntity
  8
0
100
AcDbText
 62
2
  6
CONTINUOUS
 10
6.6488369068
 20
3.1271967522
  7
STANDARD
 40
0.3125
  1
 3, ANGLES: 
 41
0.7142857143
 72
0
100
AcDbText
  0
TEXT
  5
467
100
AcDbEntity
  8
0
100
AcDbText
 62
2
  6
CONTINUOUS
 10
9.3274083354
 20
3.1271967522
  7
TEXTSTYLE_1
 40
0.3125
  1
`
 41
1.0
 72
0
100
AcDbText
  0
TEXT
  5
468
100
AcDbEntity
  8
0
100
AcDbText
 62
2
  6
CONTINUOUS
 10
9.6919916687
 20
3.1271967522
  7
STANDARD
 40
0.3125
  1
 1
 41
0.6785714286
 72
0
100
AcDbText
  0
TEXT
  5
469
100
AcDbEntity
  8
0
100
AcDbText
 62
2
  6
CONTINUOUS
 10
10.1160988116
 20
3.1271967522
  7
TEXTSTYLE_1
 40
0.3125
  1
~
 41
1.0
 72
0
100
AcDbText
  0
TEXT
  5
46A
100
AcDbEntity
  8
0
100
AcDbText
 62
2
  6
CONTINUOUS
 10
10.3244321449
 20
3.1271967522
  7
STANDARD
 40
0.3125
  1
.
 41
0.5714285714
 72
0
100
AcDbText
  0
TEXT
  5
46B
100
AcDbEntity
  8
0
100
AcDbText
 62
2
  6
CONTINUOUS
 10
1.2693726211
 20
2.5021967522
  7
STANDARD
 40
0.3125
  1
1. NET WEIGHT APPROX. 1.59 KG (3.5 LBS)
 41
0.7399267399
 72
0
100
AcDbText
  0
TEXT
  5
46C
100
AcDbEntity
  8
0
100
AcDbText
 62
2
  6
CONTINUOUS
 10
1.2693726211
 20
1.8771967522
  7
STANDARD
 40
0.3125
  1
 
 41
0.7857142857
 72
0
100
AcDbText
  0
TEXT
  5
46D
100
AcDbEntity
  8
0
100
AcDbText
 62
2
  6
CONTINUOUS
 10
1.2693726211
 20
1.2521967522
  7
STANDARD
 40
0.3125
  1
NOTE:  UNLESS OTHERWISE SPECIFIED
 41
0.766955267
 72
0
100
AcDbText
  0
MTEXT
  5
46E
100
AcDbEntity
  8
0
100
AcDbMText
 62
2
  6
CONTINUOUS
  7
STANDARD
 71
3
 72
1
 10
51.4130910279
 20
16.994419163
 30
0.0
 11
1.0
 21
0.0
 31
0.0
 44
0.9
  1
VIEW A-A
 40
0.5
 41
5.2142857143
  0
MTEXT
  5
46F
100
AcDbEntity
  8
0
100
AcDbMText
 62
2
  6
CONTINUOUS
  7
STANDARD
 71
1
 72
1
 10
53.9212876803
 20
32.6156711019
 30
0.0
 11
1.0
 21
0.0
 31
0.0
 44
0.9
  1
A
 40
0.3125
 41
0.4910714286
  0
MTEXT
  5
470
100
AcDbEntity
  8
0
100
AcDbMText
 62
2
  6
CONTINUOUS
  7
STANDARD
 71
1
 72
1
 10
49.1068133832
 20
22.0806637494
 30
0.0
 11
1.0
 21
0.0
 31
0.0
 44
0.9
  1
A
 40
0.3125
 41
0.4910714286
  0
MTEXT
  5
471
100
AcDbEntity
  8
0
100
AcDbMText
 62
2
  6
CONTINUOUS
  7
STANDARD
 71
1
 72
1
 10
52.6347243586
 20
21.6575282394
 30
0.0
 11
1.0
 21
0.0
 31
0.0
 44
0.9
  1
A
 40
0.3125
 41
0.4910714286
  0
MTEXT
  5
472
100
AcDbEntity
  8
0
100
AcDbMText
 62
2
  6
CONTINUOUS
  7
STANDARD
 71
1
 72
1
 10
50.8799085722
 20
23.0153262209
 30
0.0
 11
1.0
 21
0.0
 31
0.0
 44
0.9
  1
B
 40
0.3125
 41
0.4575892857
  0
MTEXT
  5
473
100
AcDbEntity
  8
0
100
AcDbMText
 62
2
  6
CONTINUOUS
  7
STANDARD
 71
1
 72
1
 10
53.5710986739
 20
23.0909373324
 30
0.0
 11
1.0
 21
0.0
 31
0.0
 44
0.9
  1
B
 40
0.3125
 41
0.4575892857
  0
MTEXT
  5
474
100
AcDbEntity
  8
0
100
AcDbMText
 62
2
  6
CONTINUOUS
  7
STANDARD
 71
1
 72
1
 10
54.5678559546
 20
30.4437831706
 30
0.0
 11
1.0
 21
0.0
 31
0.0
 44
0.9
  1
B
 40
0.3125
 41
0.4575892857
  0
MTEXT
  5
475
100
AcDbEntity
  8
0
100
AcDbMText
 62
2
  6
CONTINUOUS
  7
STANDARD
 71
1
 72
1
 10
51.9684054229
 20
31.6952312143
 30
0.0
 11
1.0
 21
0.0
 31
0.0
 44
0.9
  1
B
 40
0.3125
 41
0.4575892857
  0
INSERT
  5
476
100
AcDbEntity
  8
0
100
AcDbBlockReference
 62
2
  6
CONTINUOUS
  2
SQUARE_BL1
 10
36.2781292849
 20
36.9705816552
  0
INSERT
  5
477
100
AcDbEntity
  8
0
100
AcDbBlockReference
 62
2
  6
CONTINUOUS
  2
SQUARE_BL2
 10
64.3813203762
 20
33.2600273939
  0
LINE
  5
478
100
AcDbEntity
  8
DEFAULT_3
100
AcDbLine
 62
7
  6
PHANTOM
 10
0.0
 20
-0.0
 11
0.0
 21
44.0
  0
LWPOLYLINE
  5
479
100
AcDbEntity
  8
0
100
AcDbPolyline
 62
7
  6
CONTINUOUS
 90
2
 70
0
 43
0.0400000017
 10
0.5249254442
 20
21.6626902213
 10
0.5249254442
 20
22.3373097787
  0
LWPOLYLINE
  5
47A
100
AcDbEntity
  8
0
100
AcDbPolyline
 62
7
  6
CONTINUOUS
 90
2
 70
0
 43
0.0600000005
 10
1.0
 20
43.0
 10
1.0
 20
1.0
  0
LWPOLYLINE
  5
47B
100
AcDbEntity
  8
0
100
AcDbPolyline
 62
7
  6
CONTINUOUS
 90
2
 70
0
 43
0.0600000005
 10
7.125
 20
43.0
 10
7.125
 20
42.0
  0
LWPOLYLINE
  5
47C
100
AcDbEntity
  8
0
100
AcDbPolyline
 62
7
  6
CONTINUOUS
 90
2
 70
0
 43
0.0400000017
 10
9.125
 20
1.0
 10
9.125
 20
-0.0
  0
LWPOLYLINE
  5
47D
100
AcDbEntity
  8
0
100
AcDbPolyline
 62
7
  6
CONTINUOUS
 90
2
 70
0
 43
0.0400000017
 10
9.125
 20
43.0
 10
9.125
 20
44.0
  0
LINE
  5
47E
100
AcDbEntity
  8
0
100
AcDbLine
 62
7
  6
CONTINUOUS
 10
46.2707710766
 20
1.0336846442
 11
50.7417611701
 21
2.2369256042
  0
LINE
  5
47F
100
AcDbEntity
  8
0
100
AcDbLine
 62
7
  6
CONTINUOUS
 10
46.245439688
 20
2.2749226871
 11
50.7164297815
 21
3.4781636471
  0
LINE
  5
480
100
AcDbEntity
  8
DEFAULT_3
100
AcDbLine
 62
7
  6
PHANTOM
 10
0.0
 20
-0.0
 11
68.0
 21
-0.0
  0
LWPOLYLINE
  5
481
100
AcDbEntity
  8
0
100
AcDbPolyline
 62
7
  6
CONTINUOUS
 90
2
 70
0
 43
0.0400000017
 10
33.1626902213
 20
0.5249254442
 10
33.8373097787
 20
0.5249254442
  0
LWPOLYLINE
  5
482
100
AcDbEntity
  8
0
100
AcDbPolyline
 62
7
  6
CONTINUOUS
 90
2
 70
0
 43
0.0400000017
 10
1.0
 20
22.0
 10
0.5249254442
 20
21.6626902213
  0
LWPOLYLINE
  5
483
100
AcDbEntity
  8
0
100
AcDbPolyline
 62
7
  6
CONTINUOUS
 90
2
 70
0
 43
0.0600000005
 10
1.0
 20
1.0
 10
66.0
 20
1.0
  0
LWPOLYLINE
  5
484
100
AcDbEntity
  8
0
100
AcDbPolyline
 62
7
  6
CONTINUOUS
 90
2
 70
0
 43
0.0400000017
 10
50.75
 20
1.5
 10
66.0
 20
1.5
  0
LWPOLYLINE
  5
485
100
AcDbEntity
  8
0
100
AcDbPolyline
 62
7
  6
CONTINUOUS
 90
2
 70
0
 43
0.0400000017
 10
50.75
 20
2.0
 10
56.0
 20
2.0
  0
LWPOLYLINE
  5
486
100
AcDbEntity
  8
0
100
AcDbPolyline
 62
7
  6
CONTINUOUS
 90
2
 70
0
 43
0.0400000017
 10
50.75
 20
2.25
 10
46.25
 20
2.25
  0
LWPOLYLINE
  5
487
100
AcDbEntity
  8
0
100
AcDbPolyline
 62
7
  6
CONTINUOUS
 90
2
 70
0
 43
0.0400000017
 10
56.0
 20
2.5
 10
66.0
 20
2.5
  0
LWPOLYLINE
  5
488
100
AcDbEntity
  8
0
100
AcDbPolyline
 62
7
  6
CONTINUOUS
 90
2
 70
0
 43
0.0400000017
 10
50.75
 20
2.875
 10
56.0
 20
2.875
  0
LWPOLYLINE
  5
489
100
AcDbEntity
  8
0
100
AcDbPolyline
 62
7
  6
CONTINUOUS
 90
2
 70
0
 43
0.0400000017
 10
1.0
 20
22.0
 10
0.5249254442
 20
22.3373097787
  0
LWPOLYLINE
  5
48A
100
AcDbEntity
  8
0
100
AcDbPolyline
 62
7
  6
CONTINUOUS
 90
2
 70
0
 43
0.0400000017
 10
17.25
 20
1.0
 10
17.25
 20
-0.0
  0
LWPOLYLINE
  5
48B
100
AcDbEntity
  8
0
100
AcDbPolyline
 62
7
  6
CONTINUOUS
 90
2
 70
0
 43
0.0400000017
 10
17.25
 20
43.0
 10
17.25
 20
44.0
  0
LWPOLYLINE
  5
48C
100
AcDbEntity
  8
0
100
AcDbPolyline
 62
7
  6
CONTINUOUS
 90
2
 70
0
 43
0.0400000017
 10
46.25
 20
3.5
 10
50.75
 20
3.5
  0
LWPOLYLINE
  5
48D
100
AcDbEntity
  8
0
100
AcDbPolyline
 62
7
  6
CONTINUOUS
 90
2
 70
0
 43
0.0400000017
 10
50.75
 20
3.75
 10
56.0
 20
3.75
  0
LWPOLYLINE
  5
48E
100
AcDbEntity
  8
0
100
AcDbPolyline
 62
2
  6
CONTINUOUS
 90
5
 70
0
 10
1.2693726211
 20
4.2209467522
 10
1.8869321449
 20
4.2209467522
 10
1.8869321449
 20
4.8459467522
 10
1.2693726211
 20
4.8459467522
 10
1.2693726211
 20
4.2209467522
  0
LWPOLYLINE
  5
48F
100
AcDbEntity
  8
0
100
AcDbPolyline
 62
7
  6
CONTINUOUS
 90
2
 70
0
 43
0.0400000017
 10
50.75
 20
4.625
 10
56.0
 20
4.625
  0
LWPOLYLINE
  5
490
100
AcDbEntity
  8
0
100
AcDbPolyline
 62
7
  6
CONTINUOUS
 90
2
 70
0
 43
0.0400000017
 10
56.0
 20
4.75
 10
66.0
 20
4.75
  0
LWPOLYLINE
  5
491
100
AcDbEntity
  8
0
100
AcDbPolyline
 62
7
  6
CONTINUOUS
 90
2
 70
0
 43
0.0400000017
 10
50.75
 20
5.5
 10
56.0
 20
5.5
  0
LWPOLYLINE
  5
492
100
AcDbEntity
  8
0
100
AcDbPolyline
 62
7
  6
CONTINUOUS
 90
2
 70
0
 43
0.0400000017
 10
46.25
 20
6.125
 10
66.0
 20
6.125
  0
LWPOLYLINE
  5
493
100
AcDbEntity
  8
0
100
AcDbPolyline
 62
7
  6
CONTINUOUS
 90
2
 70
0
 43
0.0400000017
 10
33.5
 20
43.0
 10
33.8373097787
 20
43.4750745558
  0
LWPOLYLINE
  5
494
100
AcDbEntity
  8
0
100
AcDbPolyline
 62
7
  6
CONTINUOUS
 90
2
 70
0
 43
0.0400000017
 10
33.5
 20
1.0
 10
33.8373097787
 20
0.5249254442
  0
LWPOLYLINE
  5
495
100
AcDbEntity
  8
0
100
AcDbPolyline
 62
7
  6
CONTINUOUS
 90
2
 70
0
 43
0.0400000017
 10
1.0
 20
11.5
 10
0.0
 20
11.5
  0
LWPOLYLINE
  5
496
100
AcDbEntity
  8
0
100
AcDbPolyline
 62
7
  6
CONTINUOUS
 90
2
 70
0
 43
0.0400000017
 10
66.0131877017
 20
11.5016820819
 10
67.0131877017
 20
11.5016820819
  0
LWPOLYLINE
  5
497
100
AcDbEntity
  8
0
100
AcDbPolyline
 62
7
  6
CONTINUOUS
 90
2
 70
0
 43
0.0400000017
 10
25.375
 20
1.0
 10
25.375
 20
-0.0
  0
LWPOLYLINE
  5
498
100
AcDbEntity
  8
0
100
AcDbPolyline
 62
7
  6
CONTINUOUS
 90
2
 70
0
 43
0.0400000017
 10
25.375
 20
43.0
 10
25.375
 20
44.0
  0
LINE
  5
499
100
AcDbEntity
  8
0
100
AcDbLine
 62
7
  6
CONTINUOUS
 10
50.7164297815
 20
3.4781636471
 11
46.2581053823
 21
6.1126280648
  0
LWPOLYLINE
  5
49A
100
AcDbEntity
  8
0
100
AcDbPolyline
 62
7
  6
CONTINUOUS
 90
2
 70
0
 43
0.0400000017
 10
33.5
 20
1.0
 10
33.5
 20
-0.0
  0
LWPOLYLINE
  5
49B
100
AcDbEntity
  8
0
100
AcDbPolyline
 62
7
  6
CONTINUOUS
 90
2
 70
0
 43
0.0400000017
 10
33.5
 20
43.0
 10
33.5
 20
44.0
  0
LWPOLYLINE
  5
49C
100
AcDbEntity
  8
0
100
AcDbPolyline
 62
7
  6
CONTINUOUS
 90
2
 70
0
 43
0.0400000017
 10
1.0
 20
22.0
 10
-0.0
 20
22.0
  0
LWPOLYLINE
  5
49D
100
AcDbEntity
  8
0
100
AcDbPolyline
 62
7
  6
CONTINUOUS
 90
2
 70
0
 43
0.0400000017
 10
66.0021586919
 20
22.0027195963
 10
67.0021586919
 20
22.0027195963
  0
LWPOLYLINE
  5
49E
100
AcDbEntity
  8
0
100
AcDbPolyline
 62
7
  6
CONTINUOUS
 90
2
 70
0
 43
0.0400000017
 10
41.625
 20
1.0
 10
41.625
 20
-0.0
  0
LWPOLYLINE
  5
49F
100
AcDbEntity
  8
0
100
AcDbPolyline
 62
7
  6
CONTINUOUS
 90
2
 70
0
 43
0.0400000017
 10
41.625
 20
43.0
 10
41.625
 20
44.0
  0
LINE
  5
4A0
100
AcDbEntity
  8
DEFAULT_1
100
AcDbLine
 62
7
  6
CENTER
 10
57.8904979329
 20
26.3926575948
 11
44.1829643482
 21
28.1892760743
  0
LWPOLYLINE
  5
4A1
100
AcDbEntity
  8
0
100
AcDbPolyline
 62
7
  6
CONTINUOUS
 90
2
 70
0
 43
0.0400000017
 10
33.5
 20
1.0
 10
33.1626902213
 20
0.5249254442
  0
LWPOLYLINE
  5
4A2
100
AcDbEntity
  8
0
100
AcDbPolyline
 62
7
  6
CONTINUOUS
 90
2
 70
0
 43
0.0400000017
 10
1.0
 20
32.5
 10
0.0
 20
32.5
  0
LWPOLYLINE
  5
4A3
100
AcDbEntity
  8
0
100
AcDbPolyline
 62
7
  6
CONTINUOUS
 90
2
 70
0
 43
0.0400000017
 10
66.0
 20
32.5
 10
67.0
 20
32.5
  0
LWPOLYLINE
  5
4A4
100
AcDbEntity
  8
0
100
AcDbPolyline
 62
7
  6
CONTINUOUS
 90
2
 70
0
 43
0.0400000017
 10
33.5
 20
43.0
 10
33.1626902213
 20
43.4750745558
  0
LWPOLYLINE
  5
4A5
100
AcDbEntity
  8
0
100
AcDbPolyline
 62
7
  6
CONTINUOUS
 90
2
 70
0
 43
0.0400000017
 10
46.25
 20
1.0
 10
46.25
 20
6.125
  0
LWPOLYLINE
  5
4A6
100
AcDbEntity
  8
0
100
AcDbPolyline
 62
7
  6
CONTINUOUS
 90
2
 70
0
 43
0.0400000017
 10
49.75
 20
1.0
 10
49.75
 20
-0.0
  0
LWPOLYLINE
  5
4A7
100
AcDbEntity
  8
0
100
AcDbPolyline
 62
7
  6
CONTINUOUS
 90
2
 70
0
 43
0.0400000017
 10
49.75
 20
43.0
 10
49.75
 20
44.0
  0
LWPOLYLINE
  5
4A8
100
AcDbEntity
  8
0
100
AcDbPolyline
 62
7
  6
CONTINUOUS
 90
2
 70
0
 43
0.0400000017
 10
50.75
 20
1.0
 10
50.75
 20
6.125
  0
LWPOLYLINE
  5
4A9
100
AcDbEntity
  8
0
100
AcDbPolyline
 62
7
  6
CONTINUOUS
 90
2
 70
0
 43
0.0400000017
 10
66.0021586919
 20
22.0027195963
 10
66.4772332477
 20
22.340029375
  0
LWPOLYLINE
  5
4AA
100
AcDbEntity
  8
0
100
AcDbPolyline
 62
7
  6
CONTINUOUS
 90
2
 70
0
 43
0.0400000017
 10
66.0021586919
 20
22.0027195963
 10
66.4772332477
 20
21.6654098176
  0
LWPOLYLINE
  5
4AB
100
AcDbEntity
  8
0
100
AcDbPolyline
 62
7
  6
CONTINUOUS
 90
2
 70
0
 43
0.0400000017
 10
54.25
 20
2.0
 10
54.25
 20
6.125
  0
LWPOLYLINE
  5
4AC
100
AcDbEntity
  8
0
100
AcDbPolyline
 62
7
  6
CONTINUOUS
 90
2
 70
0
 43
0.0600000005
 10
7.125
 20
42.0
 10
1.0
 20
42.0
  0
LWPOLYLINE
  5
4AD
100
AcDbEntity
  8
0
100
AcDbPolyline
 62
7
  6
CONTINUOUS
 90
2
 70
0
 43
0.0600000005
 10
66.0
 20
43.0
 10
1.0
 20
43.0
  0
LWPOLYLINE
  5
4AE
100
AcDbEntity
  8
0
100
AcDbPolyline
 62
7
  6
CONTINUOUS
 90
2
 70
0
 43
0.0400000017
 10
33.1626902213
 20
43.4750745558
 10
33.8373097787
 20
43.4750745558
  0
LWPOLYLINE
  5
4AF
100
AcDbEntity
  8
0
100
AcDbPolyline
 62
7
  6
CONTINUOUS
 90
2
 70
0
 43
0.0400000017
 10
56.0
 20
1.0
 10
56.0
 20
6.125
  0
LWPOLYLINE
  5
4B0
100
AcDbEntity
  8
0
100
AcDbPolyline
 62
7
  6
CONTINUOUS
 90
2
 70
0
 43
0.0400000017
 10
57.0
 20
1.5
 10
57.0
 20
2.5
  0
LWPOLYLINE
  5
4B1
100
AcDbEntity
  8
0
100
AcDbPolyline
 62
7
  6
CONTINUOUS
 90
2
 70
0
 43
0.0400000017
 10
57.875
 20
1.0
 10
57.875
 20
-0.0
  0
LWPOLYLINE
  5
4B2
100
AcDbEntity
  8
0
100
AcDbPolyline
 62
7
  6
CONTINUOUS
 90
2
 70
0
 43
0.0400000017
 10
57.875
 20
43.0
 10
57.875
 20
44.0
  0
LINE
  5
4B3
100
AcDbEntity
  8
0
100
AcDbLine
 62
7
  6
CONTINUOUS
 10
46.2581053823
 20
3.5034950358
 11
50.7290954758
 21
6.0999623705
  0
LINE
  5
4B4
100
AcDbEntity
  8
DEFAULT_3
100
AcDbLine
 62
7
  6
PHANTOM
 10
0.0
 20
44.0
 11
68.0
 21
44.0
  0
LWPOLYLINE
  5
4B5
100
AcDbEntity
  8
0
100
AcDbPolyline
 62
7
  6
CONTINUOUS
 90
2
 70
0
 43
0.0400000017
 10
58.3672579331
 20
1.0095003111
 10
58.3672579331
 20
1.5095003111
  0
LWPOLYLINE
  5
4B6
100
AcDbEntity
  8
0
100
AcDbPolyline
 62
7
  6
CONTINUOUS
 90
2
 70
0
 43
0.0400000017
 10
59.0
 20
1.5
 10
59.0
 20
2.5
  0
LWPOLYLINE
  5
4B7
100
AcDbEntity
  8
0
100
AcDbPolyline
 62
7
  6
CONTINUOUS
 90
2
 70
0
 43
0.0400000017
 10
62.75
 20
1.0
 10
62.75
 20
1.5
  0
LWPOLYLINE
  5
4B8
100
AcDbEntity
  8
0
100
AcDbPolyline
 62
7
  6
CONTINUOUS
 90
2
 70
0
 43
0.0400000017
 10
65.0
 20
1.5
 10
65.0
 20
2.5
  0
LWPOLYLINE
  5
4B9
100
AcDbEntity
  8
0
100
AcDbPolyline
 62
7
  6
CONTINUOUS
 90
2
 70
0
 43
0.0600000005
 10
66.0
 20
43.0
 10
66.0
 20
1.0
  0
LWPOLYLINE
  5
4BA
100
AcDbEntity
  8
0
100
AcDbPolyline
 62
7
  6
CONTINUOUS
 90
2
 70
0
 43
0.0400000017
 10
66.4772332477
 20
21.6654098176
 10
66.4772332477
 20
22.340029375
  0
LINE
  5
4BB
100
AcDbEntity
  8
DEFAULT_3
100
AcDbLine
 62
7
  6
PHANTOM
 10
68.0
 20
-0.0
 11
68.0
 21
44.0
  0
LINE
  5
4BC
100
AcDbEntity
  8
0
100
AcDbLine
 62
7
  6
CONTINUOUS
 10
9.7343734914
 20
24.6284793205
 11
9.7343734914
 21
36.7800541237
  0
LINE
  5
4BD
100
AcDbEntity
  8
0
100
AcDbLine
 62
7
  6
CONTINUOUS
 10
11.9977593182
 20
36.780019162
 11
11.9977593182
 21
24.622072996
  0
LINE
  5
4BE
100
AcDbEntity
  8
0
100
AcDbLine
 62
7
  6
CONTINUOUS
 10
12.0493341214
 20
36.7800541237
 11
12.0493341214
 21
24.6284793205
  0
LINE
  5
4BF
100
AcDbEntity
  8
0
100
AcDbLine
 62
7
  6
CONTINUOUS
 10
12.405488201
 20
24.9956919575
 11
12.405488201
 21
24.989285633
  0
LINE
  5
4C0
100
AcDbEntity
  8
0
100
AcDbLine
 62
7
  6
CONTINUOUS
 10
12.5265917002
 20
24.8672100971
 11
12.5265917002
 21
24.8736164216
  0
LINE
  5
4C1
100
AcDbEntity
  8
0
100
AcDbLine
 62
7
  6
CONTINUOUS
 10
12.5266965278
 20
25.1113627649
 11
12.5266965278
 21
25.1177690894
  0
LINE
  5
4C2
100
AcDbEntity
  8
0
100
AcDbLine
 62
7
  6
CONTINUOUS
 10
12.6736655008
 20
25.1113728614
 11
12.6736655008
 21
25.1177791859
  0
LINE
  5
4C3
100
AcDbEntity
  8
0
100
AcDbLine
 62
7
  6
CONTINUOUS
 10
12.6746758421
 20
24.8672100971
 11
12.6746758421
 21
24.8736164216
  0
LINE
  5
4C4
100
AcDbEntity
  8
0
100
AcDbLine
 62
7
  6
CONTINUOUS
 10
12.7957793413
 20
24.9956919575
 11
12.7957793413
 21
24.989285633
  0
LINE
  5
4C5
100
AcDbEntity
  8
0
100
AcDbLine
 62
7
  6
CONTINUOUS
 10
11.9977593182
 20
24.622072996
 11
26.3800427828
 21
24.622072996
  0
LINE
  5
4C6
100
AcDbEntity
  8
0
100
AcDbLine
 62
7
  6
CONTINUOUS
 10
28.6950034127
 20
24.6284793205
 11
9.7343734914
 21
24.6284793205
  0
LINE
  5
4C7
100
AcDbEntity
  8
0
100
AcDbLine
 62
7
  6
CONTINUOUS
 10
13.8800427828
 20
33.2774698109
 11
13.8800427828
 21
33.2710634864
  0
LINE
  5
4C8
100
AcDbEntity
  8
0
100
AcDbLine
 62
7
  6
CONTINUOUS
 10
13.8800427828
 20
29.3709523965
 11
13.8800427828
 21
29.364546072
  0
LINE
  5
4C9
100
AcDbEntity
  8
0
100
AcDbLine
 62
7
  6
CONTINUOUS
 10
21.8869326116
 20
24.8672070031
 11
21.7392946862
 21
24.8672070031
  0
LINE
  5
4CA
100
AcDbEntity
  8
0
100
AcDbLine
 62
7
  6
CONTINUOUS
 10
16.6900822179
 20
24.8672070031
 11
16.5424442925
 21
24.8672070031
  0
LINE
  5
4CB
100
AcDbEntity
  8
0
100
AcDbLine
 62
7
  6
CONTINUOUS
 10
25.9027852039
 20
24.8672100971
 11
25.754701062
 21
24.8672100971
  0
LINE
  5
4CC
100
AcDbEntity
  8
0
100
AcDbLine
 62
7
  6
CONTINUOUS
 10
12.6746758421
 20
24.8672100971
 11
12.5265917002
 21
24.8672100971
  0
LINE
  5
4CD
100
AcDbEntity
  8
0
100
AcDbLine
 62
7
  6
CONTINUOUS
 10
21.8869326116
 20
24.8736133276
 11
21.7392946862
 21
24.8736133276
  0
LINE
  5
4CE
100
AcDbEntity
  8
0
100
AcDbLine
 62
7
  6
CONTINUOUS
 10
16.6900822179
 20
24.8736133276
 11
16.5424442925
 21
24.8736133276
  0
LINE
  5
4CF
100
AcDbEntity
  8
0
100
AcDbLine
 62
7
  6
CONTINUOUS
 10
25.9027852039
 20
24.8736164216
 11
25.754701062
 21
24.8736164216
  0
LINE
  5
4D0
100
AcDbEntity
  8
0
100
AcDbLine
 62
7
  6
CONTINUOUS
 10
12.6746758421
 20
24.8736164216
 11
12.5265917002
 21
24.8736164216
  0
LINE
  5
4D1
100
AcDbEntity
  8
0
100
AcDbLine
 62
7
  6
CONTINUOUS
 10
26.4316175859
 20
24.8745423126
 11
26.3800427828
 21
24.8745423126
  0
LINE
  5
4D2
100
AcDbEntity
  8
0
100
AcDbLine
 62
7
  6
CONTINUOUS
 10
12.0493341214
 20
24.8745423126
 11
11.9977593182
 21
24.8745423126
  0
LINE
  5
4D3
100
AcDbEntity
  8
0
100
AcDbLine
 62
7
  6
CONTINUOUS
 10
16.5424444239
 20
25.1113642647
 11
16.6900820865
 21
25.1113642647
  0
LINE
  5
4D4
100
AcDbEntity
  8
0
100
AcDbLine
 62
7
  6
CONTINUOUS
 10
21.7392948176
 20
25.1113642647
 11
21.8869324802
 21
25.1113642647
  0
LINE
  5
4D5
100
AcDbEntity
  8
0
100
AcDbLine
 62
7
  6
CONTINUOUS
 10
12.5266965278
 20
25.1113627649
 11
12.6736655008
 21
25.1113728614
  0
LINE
  5
4D6
100
AcDbEntity
  8
0
100
AcDbLine
 62
7
  6
CONTINUOUS
 10
16.5424444239
 20
25.1177705892
 11
16.6900820865
 21
25.1177705892
  0
LINE
  5
4D7
100
AcDbEntity
  8
0
100
AcDbLine
 62
7
  6
CONTINUOUS
 10
21.7392948176
 20
25.1177705892
 11
21.8869324802
 21
25.1177705892
  0
LINE
  5
4D8
100
AcDbEntity
  8
0
100
AcDbLine
 62
7
  6
CONTINUOUS
 10
12.5266965278
 20
25.1177690894
 11
12.6736655008
 21
25.1177791859
  0
LINE
  5
4D9
100
AcDbEntity
  8
0
100
AcDbLine
 62
7
  6
CONTINUOUS
 10
26.4316175859
 20
25.1206053048
 11
26.3800427828
 21
25.1206053048
  0
LINE
  5
4DA
100
AcDbEntity
  8
0
100
AcDbLine
 62
7
  6
CONTINUOUS
 10
12.0493341214
 20
25.1206053048
 11
11.9977593182
 21
25.1206053048
  0
LINE
  5
4DB
100
AcDbEntity
  8
0
100
AcDbLine
 62
7
  6
CONTINUOUS
 10
9.9558301843
 20
25.3314320764
 11
10.1034679796
 21
25.3314320764
  0
LINE
  5
4DC
100
AcDbEntity
  8
0
100
AcDbLine
 62
7
  6
CONTINUOUS
 10
28.3259089245
 20
25.3314320764
 11
28.4735467198
 21
25.3314320764
  0
LINE
  5
4DD
100
AcDbEntity
  8
0
100
AcDbLine
 62
7
  6
CONTINUOUS
 10
25.7557114033
 20
25.1113728614
 11
25.9026803763
 21
25.1113627649
  0
LINE
  5
4DE
100
AcDbEntity
  8
0
100
AcDbLine
 62
7
  6
CONTINUOUS
 10
25.7557114033
 20
25.1177791859
 11
25.9026803763
 21
25.1177690894
  0
LINE
  5
4DF
100
AcDbEntity
  8
0
100
AcDbLine
 62
7
  6
CONTINUOUS
 10
14.0768931765
 20
33.2774698109
 11
14.0768931765
 21
33.2710634864
  0
LINE
  5
4E0
100
AcDbEntity
  8
0
100
AcDbLine
 62
7
  6
CONTINUOUS
 10
14.0768931765
 20
29.3709523965
 11
14.0768931765
 21
29.364546072
  0
LINE
  5
4E1
100
AcDbEntity
  8
0
100
AcDbLine
 62
7
  6
CONTINUOUS
 10
28.4735467198
 20
25.5774950686
 11
28.3259089245
 21
25.5774950686
  0
LINE
  5
4E2
100
AcDbEntity
  8
0
100
AcDbLine
 62
7
  6
CONTINUOUS
 10
10.1034679796
 20
25.5774950686
 11
9.9558301843
 21
25.5774950686
  0
LINE
  5
4E3
100
AcDbEntity
  8
0
100
AcDbLine
 62
7
  6
CONTINUOUS
 10
15.0217750662
 20
30.9726245364
 11
15.0217750662
 21
30.9662182119
  0
LINE
  5
4E4
100
AcDbEntity
  8
0
100
AcDbLine
 62
7
  6
CONTINUOUS
 10
15.2186254599
 20
30.9726245364
 11
15.2186254599
 21
30.9662182119
  0
LINE
  5
4E5
100
AcDbEntity
  8
0
100
AcDbLine
 62
7
  6
CONTINUOUS
 10
15.4154758536
 20
33.6290563782
 11
15.4154758536
 21
33.6226500537
  0
LINE
  5
4E6
100
AcDbEntity
  8
0
100
AcDbLine
 62
7
  6
CONTINUOUS
 10
15.6123262473
 20
33.6290563782
 11
15.6123262473
 21
33.6226500537
  0
LINE
  5
4E7
100
AcDbEntity
  8
0
100
AcDbLine
 62
7
  6
CONTINUOUS
 10
16.4211318073
 20
24.9956919575
 11
16.4211318073
 21
24.989285633
  0
LINE
  5
4E8
100
AcDbEntity
  8
0
100
AcDbLine
 62
7
  6
CONTINUOUS
 10
16.5424442925
 20
24.8672070031
 11
16.5424442925
 21
24.8736133276
  0
LINE
  5
4E9
100
AcDbEntity
  8
0
100
AcDbLine
 62
7
  6
CONTINUOUS
 10
16.5424444239
 20
25.1113642647
 11
16.5424444239
 21
25.1177705892
  0
LINE
  5
4EA
100
AcDbEntity
  8
0
100
AcDbLine
 62
7
  6
CONTINUOUS
 10
16.6900822179
 20
24.8672070031
 11
16.6900822179
 21
24.8736133276
  0
LINE
  5
4EB
100
AcDbEntity
  8
0
100
AcDbLine
 62
7
  6
CONTINUOUS
 10
16.6900820865
 20
25.1113642647
 11
16.6900820865
 21
25.1177705892
  0
LINE
  5
4EC
100
AcDbEntity
  8
0
100
AcDbLine
 62
7
  6
CONTINUOUS
 10
16.8113947031
 20
24.9956919575
 11
16.8113947031
 21
24.989285633
  0
LINE
  5
4ED
100
AcDbEntity
  8
0
100
AcDbLine
 62
7
  6
CONTINUOUS
 10
9.9558301843
 20
30.5814320764
 11
10.1034679796
 21
30.5814320764
  0
LINE
  5
4EE
100
AcDbEntity
  8
0
100
AcDbLine
 62
7
  6
CONTINUOUS
 10
28.3259089245
 20
30.5814320764
 11
28.4735467198
 21
30.5814320764
  0
LINE
  5
4EF
100
AcDbEntity
  8
0
100
AcDbLine
 62
7
  6
CONTINUOUS
 10
28.4735467198
 20
30.8274950686
 11
28.3259089245
 21
30.8274950686
  0
LINE
  5
4F0
100
AcDbEntity
  8
0
100
AcDbLine
 62
7
  6
CONTINUOUS
 10
10.1034679796
 20
30.8274950686
 11
9.9558301843
 21
30.8274950686
  0
LINE
  5
4F1
100
AcDbEntity
  8
0
100
AcDbLine
 62
7
  6
CONTINUOUS
 10
21.617982201
 20
24.9956919575
 11
21.617982201
 21
24.989285633
  0
LINE
  5
4F2
100
AcDbEntity
  8
0
100
AcDbLine
 62
7
  6
CONTINUOUS
 10
21.7392946862
 20
24.8672070031
 11
21.7392946862
 21
24.8736133276
  0
LINE
  5
4F3
100
AcDbEntity
  8
0
100
AcDbLine
 62
7
  6
CONTINUOUS
 10
21.7392948176
 20
25.1113642647
 11
21.7392948176
 21
25.1177705892
  0
LINE
  5
4F4
100
AcDbEntity
  8
0
100
AcDbLine
 62
7
  6
CONTINUOUS
 10
21.8869326116
 20
24.8672070031
 11
21.8869326116
 21
24.8736133276
  0
LINE
  5
4F5
100
AcDbEntity
  8
0
100
AcDbLine
 62
7
  6
CONTINUOUS
 10
21.8869324802
 20
25.1113642647
 11
21.8869324802
 21
25.1177705892
  0
LINE
  5
4F6
100
AcDbEntity
  8
0
100
AcDbLine
 62
7
  6
CONTINUOUS
 10
22.0082450968
 20
24.9956919575
 11
22.0082450968
 21
24.989285633
  0
LINE
  5
4F7
100
AcDbEntity
  8
0
100
AcDbLine
 62
7
  6
CONTINUOUS
 10
22.8170506568
 20
33.6290563782
 11
22.8170506568
 21
33.6226500537
  0
LINE
  5
4F8
100
AcDbEntity
  8
0
100
AcDbLine
 62
7
  6
CONTINUOUS
 10
23.0139010505
 20
33.6290563782
 11
23.0139010505
 21
33.6226500537
  0
LINE
  5
4F9
100
AcDbEntity
  8
0
100
AcDbLine
 62
7
  6
CONTINUOUS
 10
23.2107514442
 20
30.9726245364
 11
23.2107514442
 21
30.9662182119
  0
LINE
  5
4FA
100
AcDbEntity
  8
0
100
AcDbLine
 62
7
  6
CONTINUOUS
 10
23.4076018379
 20
30.9726245364
 11
23.4076018379
 21
30.9662182119
  0
LINE
  5
4FB
100
AcDbEntity
  8
0
100
AcDbLine
 62
7
  6
CONTINUOUS
 10
24.3524837277
 20
33.2774698109
 11
24.3524837277
 21
33.2710634864
  0
LINE
  5
4FC
100
AcDbEntity
  8
0
100
AcDbLine
 62
7
  6
CONTINUOUS
 10
24.3524837277
 20
29.3709523965
 11
24.3524837277
 21
29.364546072
  0
LINE
  5
4FD
100
AcDbEntity
  8
0
100
AcDbLine
 62
7
  6
CONTINUOUS
 10
24.5493341214
 20
33.2774698109
 11
24.5493341214
 21
33.2710634864
  0
LINE
  5
4FE
100
AcDbEntity
  8
0
100
AcDbLine
 62
7
  6
CONTINUOUS
 10
24.5493341214
 20
29.3709523965
 11
24.5493341214
 21
29.364546072
  0
LINE
  5
4FF
100
AcDbEntity
  8
0
100
AcDbLine
 62
7
  6
CONTINUOUS
 10
9.9558301843
 20
35.8314320764
 11
10.1034679796
 21
35.8314320764
  0
LINE
  5
500
100
AcDbEntity
  8
0
100
AcDbLine
 62
7
  6
CONTINUOUS
 10
28.3259089245
 20
35.8314320764
 11
28.4735467198
 21
35.8314320764
  0
LINE
  5
501
100
AcDbEntity
  8
0
100
AcDbLine
 62
7
  6
CONTINUOUS
 10
28.4735467198
 20
36.0774950686
 11
28.3259089245
 21
36.0774950686
  0
LINE
  5
502
100
AcDbEntity
  8
0
100
AcDbLine
 62
7
  6
CONTINUOUS
 10
10.1034679796
 20
36.0774950686
 11
9.9558301843
 21
36.0774950686
  0
LINE
  5
503
100
AcDbEntity
  8
0
100
AcDbLine
 62
7
  6
CONTINUOUS
 10
26.3800427828
 20
36.7736477992
 11
12.0493341214
 21
36.7736477992
  0
LINE
  5
504
100
AcDbEntity
  8
0
100
AcDbLine
 62
7
  6
CONTINUOUS
 10
9.7343734914
 20
36.7800541237
 11
28.6950034127
 21
36.7800541237
  0
LINE
  5
505
100
AcDbEntity
  8
0
100
AcDbLine
 62
7
  6
CONTINUOUS
 10
25.6335975628
 20
24.9956919575
 11
25.6335975628
 21
24.989285633
  0
LINE
  5
506
100
AcDbEntity
  8
0
100
AcDbLine
 62
7
  6
CONTINUOUS
 10
25.754701062
 20
24.8672100971
 11
25.754701062
 21
24.8736164216
  0
LINE
  5
507
100
AcDbEntity
  8
0
100
AcDbLine
 62
7
  6
CONTINUOUS
 10
25.7557114033
 20
25.1113728614
 11
25.7557114033
 21
25.1177791859
  0
LINE
  5
508
100
AcDbEntity
  8
0
100
AcDbLine
 62
7
  6
CONTINUOUS
 10
25.9026803763
 20
25.1113627649
 11
25.9026803763
 21
25.1177690894
  0
LINE
  5
509
100
AcDbEntity
  8
0
100
AcDbLine
 62
7
  6
CONTINUOUS
 10
25.9027852039
 20
24.8672100971
 11
25.9027852039
 21
24.8736164216
  0
LINE
  5
50A
100
AcDbEntity
  8
0
100
AcDbLine
 62
7
  6
CONTINUOUS
 10
26.0238887031
 20
24.9956919575
 11
26.0238887031
 21
24.989285633
  0
LINE
  5
50B
100
AcDbEntity
  8
0
100
AcDbLine
 62
7
  6
CONTINUOUS
 10
26.3800427828
 20
24.622072996
 11
26.3800427828
 21
36.7800541237
  0
LINE
  5
50C
100
AcDbEntity
  8
0
100
AcDbLine
 62
7
  6
CONTINUOUS
 10
26.4316175859
 20
36.7800541237
 11
26.4316175859
 21
24.6284793205
  0
LINE
  5
50D
100
AcDbEntity
  8
0
100
AcDbLine
 62
7
  6
CONTINUOUS
 10
28.6950034127
 20
36.7800541237
 11
28.6950034127
 21
24.6284793205
  0
LINE
  5
50E
100
AcDbEntity
  8
0
100
AcDbLine
 62
7
  6
CONTINUOUS
 10
9.7343734914
 20
12.2335202073
 11
9.7343734914
 21
12.1819454041
  0
LINE
  5
50F
100
AcDbEntity
  8
0
100
AcDbLine
 62
7
  6
CONTINUOUS
 10
9.8327986883
 20
12.2335202073
 11
9.8327986883
 21
12.1819454041
  0
LINE
  5
510
100
AcDbEntity
  8
0
100
AcDbLine
 62
7
  6
CONTINUOUS
 10
9.9558301843
 20
12.2335202073
 11
9.9558301843
 21
12.1819454041
  0
LINE
  5
511
100
AcDbEntity
  8
0
100
AcDbLine
 62
7
  6
CONTINUOUS
 10
10.1034679796
 20
12.2335202073
 11
10.1034679796
 21
12.1819454041
  0
LINE
  5
512
100
AcDbEntity
  8
0
100
AcDbLine
 62
7
  6
CONTINUOUS
 10
10.2264994757
 20
12.2335202073
 11
10.2264994757
 21
12.1819454041
  0
LINE
  5
513
100
AcDbEntity
  8
0
100
AcDbLine
 62
7
  6
CONTINUOUS
 10
11.9977593182
 20
14.6086322397
 11
11.9977593182
 21
12.2335202073
  0
LINE
  5
514
100
AcDbEntity
  8
0
100
AcDbLine
 62
7
  6
CONTINUOUS
 10
12.0493341214
 20
14.556654894
 11
12.0493341214
 21
12.1819454041
  0
LINE
  5
515
100
AcDbEntity
  8
0
100
AcDbLine
 62
7
  6
CONTINUOUS
 10
12.405488201
 20
14.5626631939
 11
12.405488201
 21
14.5114878158
  0
LINE
  5
516
100
AcDbEntity
  8
0
100
AcDbLine
 62
7
  6
CONTINUOUS
 10
12.5266965278
 20
14.4962057456
 11
12.5265917002
 21
14.5779450642
  0
LINE
  5
517
100
AcDbEntity
  8
0
100
AcDbLine
 62
7
  6
CONTINUOUS
 10
12.6736655008
 20
14.4962044817
 11
12.6736655008
 21
14.5473798598
  0
LINE
  5
518
100
AcDbEntity
  8
0
100
AcDbLine
 62
7
  6
CONTINUOUS
 10
12.6746758421
 20
14.5267696861
 11
12.6746758421
 21
14.5779450642
  0
LINE
  5
519
100
AcDbEntity
  8
0
100
AcDbLine
 62
7
  6
CONTINUOUS
 10
12.7957793413
 20
14.5626631939
 11
12.7957793413
 21
14.5114878158
  0
LINE
  5
51A
100
AcDbEntity
  8
0
100
AcDbLine
 62
7
  6
CONTINUOUS
 10
13.8800427828
 20
14.0149517933
 11
13.8800427828
 21
13.9637764152
  0
LINE
  5
51B
100
AcDbEntity
  8
0
100
AcDbLine
 62
7
  6
CONTINUOUS
 10
13.8800427828
 20
13.5259193907
 11
13.8800427828
 21
13.4747440126
  0
LINE
  5
51C
100
AcDbEntity
  8
0
100
AcDbLine
 62
7
  6
CONTINUOUS
 10
14.0768931765
 20
14.0149517933
 11
14.0768931765
 21
13.9637764152
  0
LINE
  5
51D
100
AcDbEntity
  8
0
100
AcDbLine
 62
7
  6
CONTINUOUS
 10
14.0768931765
 20
13.5259193907
 11
14.0768931765
 21
13.4747440126
  0
LINE
  5
51E
100
AcDbEntity
  8
0
100
AcDbLine
 62
7
  6
CONTINUOUS
 10
15.0217750662
 20
13.8144485082
 11
15.0217750662
 21
13.7632731301
  0
LINE
  5
51F
100
AcDbEntity
  8
0
100
AcDbLine
 62
7
  6
CONTINUOUS
 10
15.2186254599
 20
13.8144485082
 11
15.2186254599
 21
13.7632731301
  0
LINE
  5
520
100
AcDbEntity
  8
0
100
AcDbLine
 62
7
  6
CONTINUOUS
 10
15.4154758536
 20
13.4819064745
 11
15.4154758536
 21
13.4307310963
  0
LINE
  5
521
100
AcDbEntity
  8
0
100
AcDbLine
 62
7
  6
CONTINUOUS
 10
15.6123262473
 20
13.4819064745
 11
15.6123262473
 21
13.4307310963
  0
LINE
  5
522
100
AcDbEntity
  8
0
100
AcDbLine
 62
7
  6
CONTINUOUS
 10
16.4211318073
 20
14.5626631939
 11
16.4211318073
 21
14.5114878158
  0
LINE
  5
523
100
AcDbEntity
  8
0
100
AcDbLine
 62
7
  6
CONTINUOUS
 10
16.5424444239
 20
14.4962055579
 11
16.5424442925
 21
14.5779454515
  0
LINE
  5
524
100
AcDbEntity
  8
0
100
AcDbLine
 62
7
  6
CONTINUOUS
 10
16.6900820865
 20
14.4962055579
 11
16.6900822179
 21
14.5779454515
  0
LINE
  5
525
100
AcDbEntity
  8
0
100
AcDbLine
 62
7
  6
CONTINUOUS
 10
16.8113947031
 20
14.5626631939
 11
16.8113947031
 21
14.5114878158
  0
LINE
  5
526
100
AcDbEntity
  8
0
100
AcDbLine
 62
7
  6
CONTINUOUS
 10
28.6950034127
 20
12.1819454041
 11
26.3800427828
 21
12.1819454041
  0
LINE
  5
527
100
AcDbEntity
  8
0
100
AcDbLine
 62
7
  6
CONTINUOUS
 10
12.0493341214
 20
12.1819454041
 11
9.7343734914
 21
12.1819454041
  0
LINE
  5
528
100
AcDbEntity
  8
0
100
AcDbLine
 62
7
  6
CONTINUOUS
 10
28.6950034127
 20
12.2335202073
 11
26.4316175859
 21
12.2335202073
  0
LINE
  5
529
100
AcDbEntity
  8
0
100
AcDbLine
 62
7
  6
CONTINUOUS
 10
11.9977593182
 20
12.2335202073
 11
9.7343734914
 21
12.2335202073
  0
LINE
  5
52A
100
AcDbEntity
  8
0
100
AcDbLine
 62
7
  6
CONTINUOUS
 10
26.3800427828
 20
13.0362774604
 11
12.0493341214
 21
13.0362774604
  0
LINE
  5
52B
100
AcDbEntity
  8
0
100
AcDbLine
 62
7
  6
CONTINUOUS
 10
26.4316175859
 20
13.1770241443
 11
26.3800427828
 21
13.1770241443
  0
LINE
  5
52C
100
AcDbEntity
  8
0
100
AcDbLine
 62
7
  6
CONTINUOUS
 10
11.9977593182
 20
13.1770241443
 11
12.0493341214
 21
13.1770241443
  0
LINE
  5
52D
100
AcDbEntity
  8
0
100
AcDbLine
 62
7
  6
CONTINUOUS
 10
12.0493341214
 20
13.3000556403
 11
11.9977593182
 21
13.3000556403
  0
LINE
  5
52E
100
AcDbEntity
  8
0
100
AcDbLine
 62
7
  6
CONTINUOUS
 10
26.3800427828
 20
13.3000556403
 11
26.4316175859
 21
13.3000556403
  0
LINE
  5
52F
100
AcDbEntity
  8
0
100
AcDbLine
 62
7
  6
CONTINUOUS
 10
12.0493341214
 20
13.4476934356
 11
11.9977593182
 21
13.4476934356
  0
LINE
  5
530
100
AcDbEntity
  8
0
100
AcDbLine
 62
7
  6
CONTINUOUS
 10
26.3800427828
 20
13.4476934356
 11
26.4316175859
 21
13.4476934356
  0
LINE
  5
531
100
AcDbEntity
  8
0
100
AcDbLine
 62
7
  6
CONTINUOUS
 10
26.4316175859
 20
13.0874528385
 11
11.9977593182
 21
13.0874572151
  0
LINE
  5
532
100
AcDbEntity
  8
0
100
AcDbLine
 62
7
  6
CONTINUOUS
 10
26.4316175859
 20
13.5707249317
 11
26.3800427828
 21
13.5707249317
  0
LINE
  5
533
100
AcDbEntity
  8
0
100
AcDbLine
 62
7
  6
CONTINUOUS
 10
11.9977593182
 20
13.5707249317
 11
12.0493341214
 21
13.5707249317
  0
LINE
  5
534
100
AcDbEntity
  8
0
100
AcDbLine
 62
7
  6
CONTINUOUS
 10
12.5266965278
 20
14.4962057456
 11
12.6736655008
 21
14.4962044817
  0
LINE
  5
535
100
AcDbEntity
  8
0
100
AcDbLine
 62
7
  6
CONTINUOUS
 10
25.7557114033
 20
14.4962044817
 11
25.9026803763
 21
14.4962057456
  0
LINE
  5
536
100
AcDbEntity
  8
0
100
AcDbLine
 62
7
  6
CONTINUOUS
 10
16.5424444239
 20
14.4962055579
 11
16.6900820865
 21
14.4962055579
  0
LINE
  5
537
100
AcDbEntity
  8
0
100
AcDbLine
 62
7
  6
CONTINUOUS
 10
21.7392948176
 20
14.4962055579
 11
21.8869324802
 21
14.4962055579
  0
LINE
  5
538
100
AcDbEntity
  8
0
100
AcDbLine
 62
7
  6
CONTINUOUS
 10
25.9027852039
 20
14.5267696861
 11
25.754701062
 21
14.5267696861
  0
LINE
  5
539
100
AcDbEntity
  8
0
100
AcDbLine
 62
7
  6
CONTINUOUS
 10
12.6746758421
 20
14.5267696861
 11
12.5265917002
 21
14.5267696861
  0
LINE
  5
53A
100
AcDbEntity
  8
0
100
AcDbLine
 62
7
  6
CONTINUOUS
 10
21.8869326116
 20
14.5267700734
 11
21.7392946862
 21
14.5267700734
  0
LINE
  5
53B
100
AcDbEntity
  8
0
100
AcDbLine
 62
7
  6
CONTINUOUS
 10
16.6900822179
 20
14.5267700734
 11
16.5424442925
 21
14.5267700734
  0
LINE
  5
53C
100
AcDbEntity
  8
0
100
AcDbLine
 62
7
  6
CONTINUOUS
 10
12.5266965278
 20
14.5473811237
 11
12.6736655008
 21
14.5473798598
  0
LINE
  5
53D
100
AcDbEntity
  8
0
100
AcDbLine
 62
7
  6
CONTINUOUS
 10
25.7557114033
 20
14.5473798598
 11
25.9026803763
 21
14.5473811237
  0
LINE
  5
53E
100
AcDbEntity
  8
0
100
AcDbLine
 62
7
  6
CONTINUOUS
 10
16.5424444239
 20
14.547380936
 11
16.6900820865
 21
14.547380936
  0
LINE
  5
53F
100
AcDbEntity
  8
0
100
AcDbLine
 62
7
  6
CONTINUOUS
 10
21.7392948176
 20
14.547380936
 11
21.8869324802
 21
14.547380936
  0
LINE
  5
540
100
AcDbEntity
  8
0
100
AcDbLine
 62
7
  6
CONTINUOUS
 10
11.9977593182
 20
14.556654894
 11
26.3800427828
 21
14.5574568616
  0
LINE
  5
541
100
AcDbEntity
  8
0
100
AcDbLine
 62
7
  6
CONTINUOUS
 10
25.9027852039
 20
14.5779450642
 11
25.754701062
 21
14.5779450642
  0
LINE
  5
542
100
AcDbEntity
  8
0
100
AcDbLine
 62
7
  6
CONTINUOUS
 10
12.6746758421
 20
14.5779450642
 11
12.5265917002
 21
14.5779450642
  0
LINE
  5
543
100
AcDbEntity
  8
0
100
AcDbLine
 62
7
  6
CONTINUOUS
 10
21.8869326116
 20
14.5779454515
 11
21.7392946862
 21
14.5779454515
  0
LINE
  5
544
100
AcDbEntity
  8
0
100
AcDbLine
 62
7
  6
CONTINUOUS
 10
16.6900822179
 20
14.5779454515
 11
16.5424442925
 21
14.5779454515
  0
LINE
  5
545
100
AcDbEntity
  8
0
100
AcDbLine
 62
7
  6
CONTINUOUS
 10
11.9977593182
 20
14.6086322397
 11
26.4316175859
 21
14.6086322397
  0
LINE
  5
546
100
AcDbEntity
  8
0
100
AcDbLine
 62
7
  6
CONTINUOUS
 10
21.617982201
 20
14.5626631939
 11
21.617982201
 21
14.5114878158
  0
LINE
  5
547
100
AcDbEntity
  8
0
100
AcDbLine
 62
7
  6
CONTINUOUS
 10
21.7392948176
 20
14.4962055579
 11
21.7392946862
 21
14.5779454515
  0
LINE
  5
548
100
AcDbEntity
  8
0
100
AcDbLine
 62
7
  6
CONTINUOUS
 10
21.8869324802
 20
14.4962055579
 11
21.8869326116
 21
14.5779454515
  0
LINE
  5
549
100
AcDbEntity
  8
0
100
AcDbLine
 62
7
  6
CONTINUOUS
 10
22.0082450968
 20
14.5626631939
 11
22.0082450968
 21
14.5114878158
  0
LINE
  5
54A
100
AcDbEntity
  8
0
100
AcDbLine
 62
7
  6
CONTINUOUS
 10
22.8170506568
 20
13.4819064745
 11
22.8170506568
 21
13.4307310963
  0
LINE
  5
54B
100
AcDbEntity
  8
0
100
AcDbLine
 62
7
  6
CONTINUOUS
 10
23.0139010505
 20
13.4819064745
 11
23.0139010505
 21
13.4307310963
  0
LINE
  5
54C
100
AcDbEntity
  8
0
100
AcDbLine
 62
7
  6
CONTINUOUS
 10
23.2107514442
 20
13.8144485082
 11
23.2107514442
 21
13.7632731301
  0
LINE
  5
54D
100
AcDbEntity
  8
0
100
AcDbLine
 62
7
  6
CONTINUOUS
 10
23.4076018379
 20
13.8144485082
 11
23.4076018379
 21
13.7632731301
  0
LINE
  5
54E
100
AcDbEntity
  8
0
100
AcDbLine
 62
7
  6
CONTINUOUS
 10
24.3524837277
 20
14.0149517933
 11
24.3524837277
 21
13.9637764152
  0
LINE
  5
54F
100
AcDbEntity
  8
0
100
AcDbLine
 62
7
  6
CONTINUOUS
 10
24.3524837277
 20
13.5259193907
 11
24.3524837277
 21
13.4747440126
  0
LINE
  5
550
100
AcDbEntity
  8
0
100
AcDbLine
 62
7
  6
CONTINUOUS
 10
24.5493341214
 20
14.0149517933
 11
24.5493341214
 21
13.9637764152
  0
LINE
  5
551
100
AcDbEntity
  8
0
100
AcDbLine
 62
7
  6
CONTINUOUS
 10
24.5493341214
 20
13.5259193907
 11
24.5493341214
 21
13.4747440126
  0
LINE
  5
552
100
AcDbEntity
  8
0
100
AcDbLine
 62
7
  6
CONTINUOUS
 10
25.6335975628
 20
14.5626631939
 11
25.6335975628
 21
14.5114878158
  0
LINE
  5
553
100
AcDbEntity
  8
0
100
AcDbLine
 62
7
  6
CONTINUOUS
 10
25.754701062
 20
14.5267696861
 11
25.754701062
 21
14.5779450642
  0
LINE
  5
554
100
AcDbEntity
  8
0
100
AcDbLine
 62
7
  6
CONTINUOUS
 10
25.7557114033
 20
14.4962044817
 11
25.7557114033
 21
14.5473798598
  0
LINE
  5
555
100
AcDbEntity
  8
0
100
AcDbLine
 62
7
  6
CONTINUOUS
 10
25.9026803763
 20
14.4962057456
 11
25.9027852039
 21
14.5779450642
  0
LINE
  5
556
100
AcDbEntity
  8
0
100
AcDbLine
 62
7
  6
CONTINUOUS
 10
26.0238887031
 20
14.5626631939
 11
26.0238887031
 21
14.5114878158
  0
LINE
  5
557
100
AcDbEntity
  8
0
100
AcDbLine
 62
7
  6
CONTINUOUS
 10
26.3800427828
 20
14.6086322397
 11
26.3800427828
 21
12.1819454041
  0
LINE
  5
558
100
AcDbEntity
  8
0
100
AcDbLine
 62
7
  6
CONTINUOUS
 10
26.4316175859
 20
14.6086322397
 11
26.4316175859
 21
12.2335202073
  0
LINE
  5
559
100
AcDbEntity
  8
0
100
AcDbLine
 62
7
  6
CONTINUOUS
 10
28.2028774284
 20
12.2335202073
 11
28.2028774284
 21
12.1819454041
  0
LINE
  5
55A
100
AcDbEntity
  8
0
100
AcDbLine
 62
7
  6
CONTINUOUS
 10
28.3259089245
 20
12.2335202073
 11
28.3259089245
 21
12.1819454041
  0
LINE
  5
55B
100
AcDbEntity
  8
0
100
AcDbLine
 62
7
  6
CONTINUOUS
 10
28.4735467198
 20
12.2335202073
 11
28.4735467198
 21
12.1819454041
  0
LINE
  5
55C
100
AcDbEntity
  8
0
100
AcDbLine
 62
7
  6
CONTINUOUS
 10
28.5965782158
 20
12.2335202073
 11
28.5965782158
 21
12.1819454041
  0
LINE
  5
55D
100
AcDbEntity
  8
0
100
AcDbLine
 62
7
  6
CONTINUOUS
 10
28.6950034127
 20
12.2335202073
 11
28.6950034127
 21
12.1819454041
  0
LINE
  5
55E
100
AcDbEntity
  8
0
100
AcDbLine
 62
7
  6
CONTINUOUS
 10
43.3133138823
 20
14.6086322397
 11
43.3069075578
 21
14.5574568616
  0
LINE
  5
55F
100
AcDbEntity
  8
0
100
AcDbLine
 62
7
  6
CONTINUOUS
 10
43.3133138823
 20
12.1819454041
 11
43.3133138823
 21
14.6086322397
  0
LINE
  5
560
100
AcDbEntity
  8
0
100
AcDbLine
 62
7
  6
CONTINUOUS
 10
43.5593768744
 20
13.4476934356
 11
43.5593768744
 21
13.3000556403
  0
LINE
  5
561
100
AcDbEntity
  8
DEFAULT_2
100
AcDbLine
 62
8
  6
HIDDEN
 10
43.5520415649
 20
14.5267700734
 11
43.5584478894
 21
14.5779454515
  0
LINE
  5
562
100
AcDbEntity
  8
0
100
AcDbLine
 62
7
  6
CONTINUOUS
 10
43.8054398665
 20
13.3000556403
 11
43.8054398665
 21
13.4476934356
  0
LINE
  5
563
100
AcDbEntity
  8
DEFAULT_2
100
AcDbLine
 62
8
  6
HIDDEN
 10
44.0162666382
 20
12.2335202073
 11
44.0162666382
 21
12.1819454041
  0
LINE
  5
564
100
AcDbEntity
  8
DEFAULT_2
100
AcDbLine
 62
8
  6
HIDDEN
 10
43.7961973267
 20
14.4962057456
 11
43.8026036512
 21
14.5473811237
  0
LINE
  5
565
100
AcDbEntity
  8
DEFAULT_2
100
AcDbLine
 62
8
  6
HIDDEN
 10
44.2623296303
 20
12.2335202073
 11
44.2623296303
 21
12.1819454041
  0
LINE
  5
566
100
AcDbEntity
  8
DEFAULT_2
100
AcDbLine
 62
8
  6
HIDDEN
 10
47.9581240229
 20
14.0271776034
 11
47.9517176984
 21
13.9760022252
  0
LINE
  5
567
100
AcDbEntity
  8
DEFAULT_2
100
AcDbLine
 62
8
  6
HIDDEN
 10
48.1534498936
 20
14.0027259832
 11
48.1470435691
 21
13.9515506051
  0
LINE
  5
568
100
AcDbEntity
  8
0
100
AcDbLine
 62
7
  6
CONTINUOUS
 10
55.4648886854
 20
12.1819454041
 11
43.3133138823
 21
12.1819454041
  0
LINE
  5
569
100
AcDbEntity
  8
0
100
AcDbLine
 62
7
  6
CONTINUOUS
 10
55.4648886854
 20
12.2335202073
 11
43.3133138823
 21
12.2335202073
  0
LINE
  5
56A
100
AcDbEntity
  8
DEFAULT_2
100
AcDbLine
 62
8
  6
HIDDEN
 10
49.2662666382
 20
12.2335202073
 11
49.2662666382
 21
12.1819454041
  0
LINE
  5
56B
100
AcDbEntity
  8
DEFAULT_2
100
AcDbLine
 62
8
  6
HIDDEN
 10
49.5123296303
 20
12.2335202073
 11
49.5123296303
 21
12.1819454041
  0
LINE
  5
56C
100
AcDbEntity
  8
DEFAULT_2
100
AcDbLine
 62
8
  6
HIDDEN
 10
49.5597961628
 20
13.8266743183
 11
49.5533898383
 21
13.7754989402
  0
LINE
  5
56D
100
AcDbEntity
  8
DEFAULT_2
100
AcDbLine
 62
8
  6
HIDDEN
 10
49.7551220335
 20
13.8022226982
 11
49.7487157091
 21
13.75104732
  0
LINE
  5
56E
100
AcDbEntity
  8
DEFAULT_2
100
AcDbLine
 62
8
  6
HIDDEN
 10
43.3133138823
 20
14.556654894
 11
55.458482361
 21
13.0362774604
  0
LINE
  5
56F
100
AcDbEntity
  8
0
100
AcDbLine
 62
7
  6
CONTINUOUS
 10
43.3069075578
 20
14.5574568616
 11
43.3133138823
 21
14.556654894
  0
LINE
  5
570
100
AcDbEntity
  8
DEFAULT_2
100
AcDbLine
 62
8
  6
HIDDEN
 10
55.4648886854
 20
13.0874528385
 11
55.4648537237
 21
13.0874572151
  0
LINE
  5
571
100
AcDbEntity
  8
0
100
AcDbLine
 62
7
  6
CONTINUOUS
 10
43.3133138823
 20
14.6086322397
 11
55.4648886854
 21
13.0874528385
  0
LINE
  5
572
100
AcDbEntity
  8
DEFAULT_3
100
AcDbLine
 62
7
  6
PHANTOM
 10
39.425682282
 20
16.616479847
 11
58.7346482662
 21
14.1993115548
  0
LINE
  5
573
100
AcDbEntity
  8
DEFAULT_2
100
AcDbLine
 62
8
  6
HIDDEN
 10
51.8646414373
 20
13.5381452008
 11
51.8582351128
 21
13.4869698226
  0
LINE
  5
574
100
AcDbEntity
  8
DEFAULT_2
100
AcDbLine
 62
8
  6
HIDDEN
 10
52.059967308
 20
13.5136935806
 11
52.0535609836
 21
13.4625182025
  0
LINE
  5
575
100
AcDbEntity
  8
DEFAULT_2
100
AcDbLine
 62
8
  6
HIDDEN
 10
52.2162280046
 20
13.4941322845
 11
52.2098216801
 21
13.4429569064
  0
LINE
  5
576
100
AcDbEntity
  8
DEFAULT_2
100
AcDbLine
 62
8
  6
HIDDEN
 10
52.4115538753
 20
13.4696806644
 11
52.4051475509
 21
13.4185052863
  0
LINE
  5
577
100
AcDbEntity
  8
DEFAULT_2
100
AcDbLine
 62
8
  6
HIDDEN
 10
54.5162666382
 20
12.2335202073
 11
54.5162666382
 21
12.1819454041
  0
LINE
  5
578
100
AcDbEntity
  8
DEFAULT_2
100
AcDbLine
 62
8
  6
HIDDEN
 10
54.7623296303
 20
12.2335202073
 11
54.7623296303
 21
12.1819454041
  0
LINE
  5
579
100
AcDbEntity
  8
0
100
AcDbLine
 62
7
  6
CONTINUOUS
 10
55.4648886854
 20
13.0874528385
 11
55.4648886854
 21
12.1819454041
  0
LINE
  5
57A
100
AcDbEntity
  8
DEFAULT_2
100
AcDbLine
 62
8
  6
HIDDEN
 10
55.458482361
 20
13.0362774604
 11
55.4648886854
 21
13.0874528385
  0
LINE
  5
57B
100
AcDbEntity
  8
0
100
AcDbLine
 62
7
  6
CONTINUOUS
 10
44.1109378722
 20
18.6051470979
 11
56.0813806114
 21
17.1066424831
  0
LINE
  5
57C
100
AcDbEntity
  8
DEFAULT_2
100
AcDbLine
 62
8
  6
HIDDEN
 10
44.9364036787
 20
18.601005621
 11
44.9427603889
 21
18.6002098643
  0
LINE
  5
57D
100
AcDbEntity
  8
DEFAULT_2
100
AcDbLine
 62
8
  6
HIDDEN
 10
50.1054005099
 20
17.9539313419
 11
50.1117572201
 21
17.9531355853
  0
LINE
  5
57E
100
AcDbEntity
  8
DEFAULT_2
100
AcDbLine
 62
8
  6
HIDDEN
 10
55.2743973412
 20
17.3068570629
 11
55.2807540514
 21
17.3060613063
  0
LINE
  5
57F
100
AcDbEntity
  8
0
100
AcDbLine
 62
7
  6
CONTINUOUS
 10
44.8305527197
 20
18.7382481981
 11
44.8369094299
 21
18.7374524414
  0
LINE
  5
580
100
AcDbEntity
  8
0
100
AcDbLine
 62
7
  6
CONTINUOUS
 10
49.9995495509
 20
18.0911739191
 11
50.0059062611
 21
18.0903781624
  0
LINE
  5
581
100
AcDbEntity
  8
0
100
AcDbLine
 62
7
  6
CONTINUOUS
 10
55.1685463822
 20
17.44409964
 11
55.1749030924
 21
17.4433038834
  0
LINE
  5
582
100
AcDbEntity
  8
0
100
AcDbLine
 62
7
  6
CONTINUOUS
 10
44.8488914348
 20
18.8847426011
 11
44.855248145
 21
18.8839468445
  0
LINE
  5
583
100
AcDbEntity
  8
0
100
AcDbLine
 62
7
  6
CONTINUOUS
 10
50.017888266
 20
18.2376683221
 11
50.0242449762
 21
18.2368725654
  0
LINE
  5
584
100
AcDbEntity
  8
0
100
AcDbLine
 62
7
  6
CONTINUOUS
 10
55.1868850973
 20
17.5905940431
 11
55.1932418075
 21
17.5897982864
  0
LINE
  5
585
100
AcDbEntity
  8
DEFAULT_2
100
AcDbLine
 62
8
  6
HIDDEN
 10
44.9853069189
 20
18.9916573624
 11
44.9916636292
 21
18.9908616057
  0
LINE
  5
586
100
AcDbEntity
  8
DEFAULT_2
100
AcDbLine
 62
8
  6
HIDDEN
 10
50.1543037502
 20
18.3445830834
 11
50.1606604604
 21
18.3437873267
  0
LINE
  5
587
100
AcDbEntity
  8
DEFAULT_2
100
AcDbLine
 62
8
  6
HIDDEN
 10
55.3233005815
 20
17.6975088044
 11
55.3296572917
 21
17.6967130477
  0
LINE
  5
588
100
AcDbEntity
  8
0
100
AcDbLine
 62
7
  6
CONTINUOUS
 10
44.0993447136
 20
20.8876499786
 11
56.3561686295
 21
19.3532951014
  0
LINE
  5
589
100
AcDbEntity
  8
DEFAULT_2
100
AcDbLine
 62
8
  6
HIDDEN
 10
44.1057510381
 20
20.9388253567
 11
56.2573258412
 21
19.4176459555
  0
LINE
  5
58A
100
AcDbEntity
  8
0
100
AcDbLine
 62
7
  6
CONTINUOUS
 10
56.2573258412
 20
19.4176459555
 11
56.3689316642
 21
19.4036747228
  0
LINE
  5
58B
100
AcDbEntity
  8
0
100
AcDbLine
 62
7
  6
CONTINUOUS
 10
46.3158235486
 20
34.6236321927
 11
46.2975780072
 21
34.4778001682
  0
LINE
  5
58C
100
AcDbEntity
  8
0
100
AcDbLine
 62
7
  6
CONTINUOUS
 10
44.0993447136
 20
20.8876499786
 11
45.8922353081
 21
35.2097241234
  0
LINE
  5
58D
100
AcDbEntity
  8
DEFAULT_2
100
AcDbLine
 62
8
  6
HIDDEN
 10
45.8922353081
 20
35.1577467777
 11
45.8986416325
 21
35.2089221558
  0
LINE
  5
58E
100
AcDbEntity
  8
0
100
AcDbLine
 62
7
  6
CONTINUOUS
 10
44.9089932665
 20
25.3664515032
 11
44.9273319978
 21
25.5129460354
  0
LINE
  5
58F
100
AcDbEntity
  8
0
100
AcDbLine
 62
7
  6
CONTINUOUS
 10
45.554516038
 20
30.5230544903
 11
45.5728547692
 21
30.6695490224
  0
LINE
  5
590
100
AcDbEntity
  8
0
100
AcDbLine
 62
7
  6
CONTINUOUS
 10
44.4101703219
 20
21.3816996022
 11
44.4285644796
 21
21.528636895
  0
LINE
  5
591
100
AcDbEntity
  8
0
100
AcDbLine
 62
7
  6
CONTINUOUS
 10
46.0532897441
 20
34.507362856
 11
46.0716839018
 21
34.6543001488
  0
LINE
  5
592
100
AcDbEntity
  8
0
100
AcDbLine
 62
7
  6
CONTINUOUS
 10
44.1109378722
 20
18.6051470979
 11
44.3920826005
 21
20.8510039594
  0
LINE
  5
593
100
AcDbEntity
  8
0
100
AcDbLine
 62
7
  6
CONTINUOUS
 10
46.1849731949
 20
35.1730781042
 11
46.4661179232
 21
37.4189349658
  0
LINE
  5
594
100
AcDbEntity
  8
DEFAULT_2
100
AcDbLine
 62
8
  6
HIDDEN
 10
44.1172945824
 20
18.6043513412
 11
44.4048456352
 21
20.9013835809
  0
LINE
  5
595
100
AcDbEntity
  8
DEFAULT_2
100
AcDbLine
 62
8
  6
HIDDEN
 10
46.1849235806
 20
35.1211069694
 11
46.4724746334
 21
37.4181392091
  0
LINE
  5
596
100
AcDbEntity
  8
DEFAULT_2
100
AcDbLine
 62
8
  6
HIDDEN
 10
46.2766446159
 20
35.1616023342
 11
46.2702382914
 21
35.1104269561
  0
LINE
  5
597
100
AcDbEntity
  8
DEFAULT_2
100
AcDbLine
 62
8
  6
HIDDEN
 10
44.4837540215
 20
20.8395281894
 11
44.490160346
 21
20.8907035676
  0
LINE
  5
598
100
AcDbEntity
  8
0
100
AcDbLine
 62
7
  6
CONTINUOUS
 10
45.8170120146
 20
30.6389843765
 11
45.7986733159
 21
30.4924901051
  0
LINE
  5
599
100
AcDbEntity
  8
0
100
AcDbLine
 62
7
  6
CONTINUOUS
 10
45.1714892431
 20
25.4823813894
 11
45.1531505445
 21
25.335887118
  0
LINE
  5
59A
100
AcDbEntity
  8
0
100
AcDbLine
 62
7
  6
CONTINUOUS
 10
44.6726017452
 20
21.497069174
 11
44.6543360108
 21
21.3512396774
  0
LINE
  5
59B
100
AcDbEntity
  8
DEFAULT_2
100
AcDbLine
 62
8
  6
HIDDEN
 10
46.5389986438
 20
35.1287598797
 11
46.5325923194
 21
35.0775845016
  0
LINE
  5
59C
100
AcDbEntity
  8
DEFAULT_2
100
AcDbLine
 62
8
  6
HIDDEN
 10
44.7461080494
 20
20.8066857349
 11
44.7525143739
 21
20.857861113
  0
LINE
  5
59D
100
AcDbEntity
  8
0
100
AcDbLine
 62
7
  6
CONTINUOUS
 10
47.1307166253
 20
37.1125528569
 11
47.1123779102
 21
36.9660584538
  0
LINE
  5
59E
100
AcDbEntity
  8
0
100
AcDbLine
 62
7
  6
CONTINUOUS
 10
44.8488914348
 20
18.8847426011
 11
44.8305527197
 21
18.7382481981
  0
LINE
  5
59F
100
AcDbEntity
  8
0
100
AcDbLine
 62
7
  6
CONTINUOUS
 10
47.1370733355
 20
37.1117571002
 11
47.1187346205
 21
36.9652626972
  0
LINE
  5
5A0
100
AcDbEntity
  8
0
100
AcDbLine
 62
7
  6
CONTINUOUS
 10
44.855248145
 20
18.8839468445
 11
44.8369094299
 21
18.7374524414
  0
LINE
  5
5A1
100
AcDbEntity
  8
0
100
AcDbLine
 62
7
  6
CONTINUOUS
 10
45.0728191628
 20
18.7079203822
 11
45.0911578779
 21
18.8544147853
  0
LINE
  5
5A2
100
AcDbEntity
  8
0
100
AcDbLine
 62
7
  6
CONTINUOUS
 10
47.3546443534
 20
36.935730638
 11
47.3729830685
 21
37.082225041
  0
LINE
  5
5A3
100
AcDbEntity
  8
DEFAULT_2
100
AcDbLine
 62
8
  6
HIDDEN
 10
45.0791758731
 20
18.7071246256
 11
45.0975145881
 21
18.8536190286
  0
LINE
  5
5A4
100
AcDbEntity
  8
DEFAULT_2
100
AcDbLine
 62
8
  6
HIDDEN
 10
47.3610010636
 20
36.9349348813
 11
47.3793397787
 21
37.0814292844
  0
LINE
  5
5A5
100
AcDbEntity
  8
3_AXES_OTHER
100
AcDbLine
 62
7
  6
CENTER
 10
52.9943674058
 20
21.7703060408
 11
50.9242487081
 21
22.029451211
  0
LINE
  5
5A6
100
AcDbEntity
  8
3_AXES_OTHER
100
AcDbLine
 62
7
  6
CENTER
 10
49.0878499913
 20
22.2593384434
 11
48.7917359713
 21
22.2964070995
  0
LINE
  5
5A7
100
AcDbEntity
  8
3_AXES_OTHER
100
AcDbLine
 62
7
  6
CENTER
 10
49.0878499913
 20
22.2593384434
 11
50.9183640219
 21
22.0301878779
  0
LINE
  5
5A8
100
AcDbEntity
  8
3_AXES_OTHER
100
AcDbLine
 62
7
  6
CENTER
 10
52.9943674058
 20
21.7703060408
 11
53.2904814258
 21
21.7332373846
  0
LINE
  5
5A9
100
AcDbEntity
  8
3_AXES_OTHER
100
AcDbLine
 62
7
  6
CENTER
 10
50.831341528
 20
23.1917252085
 11
50.535227508
 21
23.2287938646
  0
LINE
  5
5AA
100
AcDbEntity
  8
3_AXES_OTHER
100
AcDbLine
 62
7
  6
CENTER
 10
50.831341528
 20
23.1917252085
 11
51.127455548
 21
23.1546565524
  0
LINE
  5
5AB
100
AcDbEntity
  8
3_AXES_OTHER
100
AcDbLine
 62
7
  6
CENTER
 10
53.5366766101
 20
23.2498349162
 11
53.2405625901
 21
23.2869035723
  0
LINE
  5
5AC
100
AcDbEntity
  8
3_AXES_OTHER
100
AcDbLine
 62
7
  6
CENTER
 10
53.5366766101
 20
23.2498349162
 11
53.8327906301
 21
23.21276626
  0
LINE
  5
5AD
100
AcDbEntity
  8
3_AXES_OTHER
100
AcDbLine
 62
7
  6
CENTER
 10
50.3886761823
 20
32.6506747658
 11
49.7277120908
 21
27.3707225174
  0
LINE
  5
5AE
100
AcDbEntity
  8
3_AXES_OTHER
100
AcDbLine
 62
7
  6
CENTER
 10
49.0878499913
 20
22.2593384434
 11
49.0507813352
 21
21.9632244234
  0
LINE
  5
5AF
100
AcDbEntity
  8
3_AXES_OTHER
100
AcDbLine
 62
7
  6
CENTER
 10
49.0878499913
 20
22.2593384434
 11
49.7277120908
 21
27.3707225174
  0
LINE
  5
5B0
100
AcDbEntity
  8
3_AXES_OTHER
100
AcDbLine
 62
7
  6
CENTER
 10
50.3886761823
 20
32.6506747658
 11
50.4257448384
 21
32.9467887858
  0
LINE
  5
5B1
100
AcDbEntity
  8
0
100
AcDbLine
 62
7
  6
CONTINUOUS
 10
52.2997134566
 20
36.4654785779
 11
52.2813747415
 21
36.3189841748
  0
LINE
  5
5B2
100
AcDbEntity
  8
0
100
AcDbLine
 62
7
  6
CONTINUOUS
 10
50.017888266
 20
18.2376683221
 11
49.9995495509
 21
18.0911739191
  0
LINE
  5
5B3
100
AcDbEntity
  8
0
100
AcDbLine
 62
7
  6
CONTINUOUS
 10
52.3060701668
 20
36.4646828212
 11
52.2877314517
 21
36.3181884181
  0
LINE
  5
5B4
100
AcDbEntity
  8
0
100
AcDbLine
 62
7
  6
CONTINUOUS
 10
50.0242449762
 20
18.2368725654
 11
50.0059062611
 21
18.0903781624
  0
LINE
  5
5B5
100
AcDbEntity
  8
3_AXES_OTHER
100
AcDbLine
 62
7
  6
CENTER
 10
51.8485289254
 20
31.3172814305
 11
51.3457773464
 21
27.301171684
  0
LINE
  5
5B6
100
AcDbEntity
  8
3_AXES_OTHER
100
AcDbLine
 62
7
  6
CENTER
 10
50.831341528
 20
23.1917252085
 11
50.7942728719
 21
22.8956111885
  0
LINE
  5
5B7
100
AcDbEntity
  8
3_AXES_OTHER
100
AcDbLine
 62
7
  6
CENTER
 10
50.831341528
 20
23.1917252085
 11
51.3382091567
 21
27.2407150253
  0
LINE
  5
5B8
100
AcDbEntity
  8
3_AXES_OTHER
100
AcDbLine
 62
7
  6
CENTER
 10
51.8485289254
 20
31.3172814305
 11
51.8855975815
 21
31.6133954505
  0
LINE
  5
5B9
100
AcDbEntity
  8
0
100
AcDbLine
 62
7
  6
CONTINUOUS
 10
50.2418159941
 20
18.0608461032
 11
50.2601547092
 21
18.2073405063
  0
LINE
  5
5BA
100
AcDbEntity
  8
0
100
AcDbLine
 62
7
  6
CONTINUOUS
 10
52.5236411847
 20
36.288656359
 11
52.5419798998
 21
36.435150762
  0
LINE
  5
5BB
100
AcDbEntity
  8
DEFAULT_2
100
AcDbLine
 62
8
  6
HIDDEN
 10
50.2481727043
 20
18.0600503466
 11
50.2665114194
 21
18.2065447496
  0
LINE
  5
5BC
100
AcDbEntity
  8
DEFAULT_2
100
AcDbLine
 62
8
  6
HIDDEN
 10
52.5299978949
 20
36.2878606023
 11
52.54833661
 21
36.4343550053
  0
LINE
  5
5BD
100
AcDbEntity
  8
3_AXES_OTHER
100
AcDbLine
 62
7
  6
CENTER
 10
54.2951935967
 20
32.1616423632
 11
53.652136161
 21
27.024733116
  0
LINE
  5
5BE
100
AcDbEntity
  8
3_AXES_OTHER
100
AcDbLine
 62
7
  6
CENTER
 10
52.9943674058
 20
21.7703060408
 11
52.9572987496
 21
21.4741920208
  0
LINE
  5
5BF
100
AcDbEntity
  8
3_AXES_OTHER
100
AcDbLine
 62
7
  6
CENTER
 10
52.9943674058
 20
21.7703060408
 11
53.6438427918
 21
26.958483536
  0
LINE
  5
5C0
100
AcDbEntity
  8
3_AXES_OTHER
100
AcDbLine
 62
7
  6
CENTER
 10
54.2951935967
 20
32.1616423632
 11
54.3322622528
 21
32.4577563832
  0
LINE
  5
5C1
100
AcDbEntity
  8
3_AXES_OTHER
100
AcDbLine
 62
7
  6
CENTER
 10
54.456057527
 20
30.5940876553
 11
54.0029975488
 21
26.9749272784
  0
LINE
  5
5C2
100
AcDbEntity
  8
3_AXES_OTHER
100
AcDbLine
 62
7
  6
CENTER
 10
53.5366766101
 20
23.2498349162
 11
53.499607954
 21
22.9537208961
  0
LINE
  5
5C3
100
AcDbEntity
  8
3_AXES_OTHER
100
AcDbLine
 62
7
  6
CENTER
 10
53.5366766101
 20
23.2498349162
 11
53.9939617689
 21
26.9027471298
  0
LINE
  5
5C4
100
AcDbEntity
  8
3_AXES_OTHER
100
AcDbLine
 62
7
  6
CENTER
 10
54.456057527
 20
30.5940876553
 11
54.4931261831
 21
30.8902016753
  0
LINE
  5
5C5
100
AcDbEntity
  8
3_AXES_OTHER
100
AcDbLine
 62
7
  6
CENTER
 10
54.456057527
 20
30.5940876553
 11
54.159943507
 21
30.6311563114
  0
LINE
  5
5C6
100
AcDbEntity
  8
3_AXES_OTHER
100
AcDbLine
 62
7
  6
CENTER
 10
54.456057527
 20
30.5940876553
 11
54.752171547
 21
30.5570189992
  0
LINE
  5
5C7
100
AcDbEntity
  8
3_AXES_OTHER
100
AcDbLine
 62
7
  6
CENTER
 10
51.8485289254
 20
31.3172814305
 11
51.5524149054
 21
31.3543500866
  0
LINE
  5
5C8
100
AcDbEntity
  8
3_AXES_OTHER
100
AcDbLine
 62
7
  6
CENTER
 10
51.8485289254
 20
31.3172814305
 11
52.1446429454
 21
31.2802127744
  0
LINE
  5
5C9
100
AcDbEntity
  8
0
100
AcDbLine
 62
7
  6
CONTINUOUS
 10
57.4687102879
 20
35.8184042988
 11
57.4503715728
 21
35.6719098958
  0
LINE
  5
5CA
100
AcDbEntity
  8
0
100
AcDbLine
 62
7
  6
CONTINUOUS
 10
55.1868850973
 20
17.5905940431
 11
55.1685463822
 21
17.44409964
  0
LINE
  5
5CB
100
AcDbEntity
  8
0
100
AcDbLine
 62
7
  6
CONTINUOUS
 10
57.4750669981
 20
35.8176085422
 11
57.456728283
 21
35.6711141391
  0
LINE
  5
5CC
100
AcDbEntity
  8
0
100
AcDbLine
 62
7
  6
CONTINUOUS
 10
55.1932418075
 20
17.5897982864
 11
55.1749030924
 21
17.4433038834
  0
LINE
  5
5CD
100
AcDbEntity
  8
0
100
AcDbLine
 62
7
  6
CONTINUOUS
 10
55.4108128254
 20
17.4137718242
 11
55.4291515405
 21
17.5602662272
  0
LINE
  5
5CE
100
AcDbEntity
  8
0
100
AcDbLine
 62
7
  6
CONTINUOUS
 10
57.6926380159
 20
35.6415820799
 11
57.710976731
 21
35.788076483
  0
LINE
  5
5CF
100
AcDbEntity
  8
DEFAULT_2
100
AcDbLine
 62
8
  6
HIDDEN
 10
55.4171695356
 20
17.4129760675
 11
55.4355082507
 21
17.5594704706
  0
LINE
  5
5D0
100
AcDbEntity
  8
DEFAULT_2
100
AcDbLine
 62
8
  6
HIDDEN
 10
57.6989947261
 20
35.6407863233
 11
57.7173334412
 21
35.7872807263
  0
LINE
  5
5D1
100
AcDbEntity
  8
3_AXES_OTHER
100
AcDbLine
 62
7
  6
CENTER
 10
54.2951935967
 20
32.1616423632
 11
52.5987373536
 21
32.3740110754
  0
LINE
  5
5D2
100
AcDbEntity
  8
3_AXES_OTHER
100
AcDbLine
 62
7
  6
CENTER
 10
50.3886761823
 20
32.6506747658
 11
50.0925621622
 21
32.6877434219
  0
LINE
  5
5D3
100
AcDbEntity
  8
3_AXES_OTHER
100
AcDbLine
 62
7
  6
CENTER
 10
50.3886761823
 20
32.6506747658
 11
52.5012136631
 21
32.3862194542
  0
LINE
  5
5D4
100
AcDbEntity
  8
3_AXES_OTHER
100
AcDbLine
 62
7
  6
CENTER
 10
54.2951935967
 20
32.1616423632
 11
54.5913076167
 21
32.124573707
  0
LINE
  5
5D5
100
AcDbEntity
  8
0
100
AcDbLine
 62
7
  6
CONTINUOUS
 10
56.2509195168
 20
19.3664705774
 11
58.0437751495
 21
33.6885490988
  0
LINE
  5
5D6
100
AcDbEntity
  8
0
100
AcDbLine
 62
7
  6
CONTINUOUS
 10
58.4302039522
 20
35.9212261077
 11
58.1490592239
 21
33.6753692462
  0
LINE
  5
5D7
100
AcDbEntity
  8
0
100
AcDbLine
 62
7
  6
CONTINUOUS
 10
56.3561686295
 20
19.3532951014
 11
56.0750239012
 21
17.1074382398
  0
LINE
  5
5D8
100
AcDbEntity
  8
0
100
AcDbLine
 62
7
  6
CONTINUOUS
 10
58.4365606624
 20
35.920430351
 11
58.1490096096
 21
33.6233981114
  0
LINE
  5
5D9
100
AcDbEntity
  8
0
100
AcDbLine
 62
7
  6
CONTINUOUS
 10
56.3689316642
 20
19.4036747228
 11
56.0813806114
 21
17.1066424831
  0
LINE
  5
5DA
100
AcDbEntity
  8
0
100
AcDbLine
 62
7
  6
CONTINUOUS
 10
58.1490096096
 20
33.6233981114
 11
58.0374037867
 21
33.637369344
  0
LINE
  5
5DB
100
AcDbEntity
  8
DEFAULT_2
100
AcDbLine
 62
8
  6
HIDDEN
 10
45.8922353081
 20
35.1577467777
 11
58.0374037867
 21
33.637369344
  0
LINE
  5
5DC
100
AcDbEntity
  8
0
100
AcDbLine
 62
7
  6
CONTINUOUS
 10
58.1490248016
 20
33.6753735553
 11
45.8922353081
 21
35.2097241234
  0
LINE
  5
5DD
100
AcDbEntity
  8
DEFAULT_2
100
AcDbLine
 62
8
  6
HIDDEN
 10
47.2182288692
 20
36.8288158767
 11
47.2245855794
 21
36.82802012
  0
LINE
  5
5DE
100
AcDbEntity
  8
DEFAULT_2
100
AcDbLine
 62
8
  6
HIDDEN
 10
52.3872257005
 20
36.1817415977
 11
52.3935824107
 21
36.180945841
  0
LINE
  5
5DF
100
AcDbEntity
  8
DEFAULT_2
100
AcDbLine
 62
8
  6
HIDDEN
 10
57.5562225318
 20
35.5346673187
 11
57.562579242
 21
35.533871562
  0
LINE
  5
5E0
100
AcDbEntity
  8
0
100
AcDbLine
 62
7
  6
CONTINUOUS
 10
47.1123779102
 20
36.9660584538
 11
47.1187346205
 21
36.9652626972
  0
LINE
  5
5E1
100
AcDbEntity
  8
0
100
AcDbLine
 62
7
  6
CONTINUOUS
 10
52.2813747415
 20
36.3189841748
 11
52.2877314517
 21
36.3181884181
  0
LINE
  5
5E2
100
AcDbEntity
  8
0
100
AcDbLine
 62
7
  6
CONTINUOUS
 10
57.4503715728
 20
35.6719098958
 11
57.456728283
 21
35.6711141391
  0
LINE
  5
5E3
100
AcDbEntity
  8
0
100
AcDbLine
 62
7
  6
CONTINUOUS
 10
47.1307166253
 20
37.1125528569
 11
47.1370733355
 21
37.1117571002
  0
LINE
  5
5E4
100
AcDbEntity
  8
0
100
AcDbLine
 62
7
  6
CONTINUOUS
 10
52.2997134566
 20
36.4654785779
 11
52.3060701668
 21
36.4646828212
  0
LINE
  5
5E5
100
AcDbEntity
  8
0
100
AcDbLine
 62
7
  6
CONTINUOUS
 10
57.4687102879
 20
35.8184042988
 11
57.4750669981
 21
35.8176085422
  0
LINE
  5
5E6
100
AcDbEntity
  8
DEFAULT_2
100
AcDbLine
 62
8
  6
HIDDEN
 10
47.2671321095
 20
37.2194676182
 11
47.2734888197
 21
37.2186718615
  0
LINE
  5
5E7
100
AcDbEntity
  8
DEFAULT_2
100
AcDbLine
 62
8
  6
HIDDEN
 10
52.4361289408
 20
36.5723933391
 11
52.442485651
 21
36.5715975825
  0
LINE
  5
5E8
100
AcDbEntity
  8
DEFAULT_2
100
AcDbLine
 62
8
  6
HIDDEN
 10
57.605125772
 20
35.9253190601
 11
57.6114824822
 21
35.9245233034
  0
LINE
  5
5E9
100
AcDbEntity
  8
0
100
AcDbLine
 62
7
  6
CONTINUOUS
 10
46.4661179232
 20
37.4189349658
 11
58.4365606624
 21
35.920430351
  0
ARC
  5
5EA
100
AcDbEntity
  8
0
100
AcDbCircle
 62
7
  6
CONTINUOUS
 10
9.9558301843
 20
25.4544635725
 40
0.1230314961
100
AcDbArc
 50
90.0
 51
270.0
  0
ARC
  5
5EB
100
AcDbEntity
  8
0
100
AcDbCircle
 62
7
  6
CONTINUOUS
 10
10.1034679796
 20
25.4544635725
 40
0.1230314961
100
AcDbArc
 50
270.0
 51
90.0
  0
ARC
  5
5EC
100
AcDbEntity
  8
0
100
AcDbCircle
 62
7
  6
CONTINUOUS
 10
9.9558301843
 20
30.7044635725
 40
0.1230314961
100
AcDbArc
 50
90.0
 51
270.0
  0
ARC
  5
5ED
100
AcDbEntity
  8
0
100
AcDbCircle
 62
7
  6
CONTINUOUS
 10
10.1034679796
 20
30.7044635725
 40
0.1230314961
100
AcDbArc
 50
270.0
 51
90.0
  0
ARC
  5
5EE
100
AcDbEntity
  8
0
100
AcDbCircle
 62
7
  6
CONTINUOUS
 10
9.9558301843
 20
35.9544635725
 40
0.1230314961
100
AcDbArc
 50
90.0
 51
270.0
  0
ARC
  5
5EF
100
AcDbEntity
  8
0
100
AcDbCircle
 62
7
  6
CONTINUOUS
 10
10.1034679796
 20
35.9544635725
 40
0.1230314961
100
AcDbArc
 50
270.0
 51
90.0
  0
ARC
  5
5F0
100
AcDbEntity
  8
0
100
AcDbCircle
 62
7
  6
CONTINUOUS
 10
28.4735467198
 20
25.4544635725
 40
0.1230314961
100
AcDbArc
 50
270.0
 51
90.0
  0
ARC
  5
5F1
100
AcDbEntity
  8
0
100
AcDbCircle
 62
7
  6
CONTINUOUS
 10
28.3259089245
 20
25.4544635725
 40
0.1230314961
100
AcDbArc
 50
90.0
 51
270.0
  0
ARC
  5
5F2
100
AcDbEntity
  8
0
100
AcDbCircle
 62
7
  6
CONTINUOUS
 10
28.4735467198
 20
30.7044635725
 40
0.1230314961
100
AcDbArc
 50
270.0
 51
90.0
  0
ARC
  5
5F3
100
AcDbEntity
  8
0
100
AcDbCircle
 62
7
  6
CONTINUOUS
 10
28.3259089245
 20
30.7044635725
 40
0.1230314961
100
AcDbArc
 50
90.0
 51
270.0
  0
ARC
  5
5F4
100
AcDbEntity
  8
0
100
AcDbCircle
 62
7
  6
CONTINUOUS
 10
28.4735467198
 20
35.9544635725
 40
0.1230314961
100
AcDbArc
 50
270.0
 51
90.0
  0
ARC
  5
5F5
100
AcDbEntity
  8
0
100
AcDbCircle
 62
7
  6
CONTINUOUS
 10
28.3259089245
 20
35.9544635725
 40
0.1230314961
100
AcDbArc
 50
90.0
 51
270.0
  0
ARC
  5
5F6
100
AcDbEntity
  8
0
100
AcDbCircle
 62
7
  6
CONTINUOUS
 10
43.6824083705
 20
13.4476934356
 40
0.1230314961
100
AcDbArc
 50
0.0
 51
179.9999999998
  0
ARC
  5
5F7
100
AcDbEntity
  8
0
100
AcDbCircle
 62
7
  6
CONTINUOUS
 10
43.6824083705
 20
13.3000556403
 40
0.1230314961
100
AcDbArc
 50
180.0
 51
360.0
  0
ARC
  5
5F8
100
AcDbEntity
  8
0
100
AcDbCircle
 62
7
  6
CONTINUOUS
 10
44.5324868503
 20
21.3683428423
 40
0.1230436352
100
AcDbArc
 50
173.768088966
 51
352.0099684649
  0
ARC
  5
5F9
100
AcDbEntity
  8
0
100
AcDbCircle
 62
7
  6
CONTINUOUS
 10
44.550399023
 20
21.5114299143
 40
0.1230436352
100
AcDbArc
 50
353.2975860228
 51
171.9611493427
  0
ARC
  5
5FA
100
AcDbEntity
  8
0
100
AcDbCircle
 62
7
  6
CONTINUOUS
 10
45.0312869299
 20
25.3528869885
 40
0.1230436352
100
AcDbArc
 50
173.6707629239
 51
352.0585365759
  0
ARC
  5
5FB
100
AcDbEntity
  8
0
100
AcDbCircle
 62
7
  6
CONTINUOUS
 10
45.0491955942
 20
25.4959460348
 40
0.1230436352
100
AcDbArc
 50
353.6707017328
 51
172.0584753848
  0
ARC
  5
5FC
100
AcDbEntity
  8
0
100
AcDbCircle
 62
7
  6
CONTINUOUS
 10
50.1458832457
 20
18.2224856437
 40
0.1222621232
100
AcDbArc
 50
95.8966961704
 51
147.4100611599
  0
ARC
  5
5FD
100
AcDbEntity
  8
0
100
AcDbCircle
 62
7
  6
CONTINUOUS
 10
44.9768864145
 20
18.8695599227
 40
0.1222621232
100
AcDbArc
 50
95.8966961704
 51
147.4100611599
  0
ARC
  5
5FE
100
AcDbEntity
  8
DEFAULT_2
100
AcDbCircle
 62
8
  6
HIDDEN
 10
50.1454943783
 20
18.2226373159
 40
0.1220846752
100
AcDbArc
 50
82.8645853982
 51
84.3730544694
  0
ARC
  5
5FF
100
AcDbEntity
  8
DEFAULT_2
100
AcDbCircle
 62
8
  6
HIDDEN
 10
44.976497547
 20
18.869711595
 40
0.1220846752
100
AcDbArc
 50
82.8645853982
 51
84.3730544696
  0
ARC
  5
600
100
AcDbEntity
  8
DEFAULT_2
100
AcDbCircle
 62
8
  6
HIDDEN
 10
50.1269231596
 20
18.074285614
 40
0.1220846753
100
AcDbArc
 50
261.3561838395
 51
262.8646529103
  0
ARC
  5
601
100
AcDbEntity
  8
DEFAULT_2
100
AcDbCircle
 62
8
  6
HIDDEN
 10
44.9579263283
 20
18.721359893
 40
0.1220846752
100
AcDbArc
 50
261.3561838395
 51
262.8646529104
  0
ARC
  5
602
100
AcDbEntity
  8
0
100
AcDbCircle
 62
7
  6
CONTINUOUS
 10
44.9702054432
 20
18.8711319044
 40
0.121456935
100
AcDbArc
 50
81.3561838393
 51
147.4100611599
  0
ARC
  5
603
100
AcDbEntity
  8
0
100
AcDbCircle
 62
7
  6
CONTINUOUS
 10
44.9514782758
 20
18.7215344437
 40
0.121456935
100
AcDbArc
 50
198.3191771488
 51
264.3730544692
  0
ARC
  5
604
100
AcDbEntity
  8
0
100
AcDbCircle
 62
7
  6
CONTINUOUS
 10
50.1204751071
 20
18.0744601647
 40
0.121456935
100
AcDbArc
 50
198.3191771488
 51
264.3730544694
  0
ARC
  5
605
100
AcDbEntity
  8
0
100
AcDbCircle
 62
7
  6
CONTINUOUS
 10
50.1392022745
 20
18.2240576254
 40
0.121456935
100
AcDbArc
 50
81.3561838396
 51
147.4100611599
  0
ARC
  5
606
100
AcDbEntity
  8
DEFAULT_2
100
AcDbCircle
 62
8
  6
HIDDEN
 10
50.1455579931
 20
18.2234809313
 40
0.1212388889
100
AcDbArc
 50
84.3638820602
 51
95.7921220402
  0
ARC
  5
607
100
AcDbEntity
  8
DEFAULT_2
100
AcDbCircle
 62
8
  6
HIDDEN
 10
44.9765611618
 20
18.8705552104
 40
0.1212388889
100
AcDbArc
 50
84.3638820602
 51
95.7921220402
  0
ARC
  5
608
100
AcDbEntity
  8
DEFAULT_2
100
AcDbCircle
 62
8
  6
HIDDEN
 10
50.1267768564
 20
18.0734523498
 40
0.1212388889
100
AcDbArc
 50
249.9371162686
 51
261.3653562485
  0
ARC
  5
609
100
AcDbEntity
  8
DEFAULT_2
100
AcDbCircle
 62
8
  6
HIDDEN
 10
44.9577800251
 20
18.7205266288
 40
0.1212388889
100
AcDbArc
 50
249.9371162685
 51
261.3653562485
  0
CIRCLE
  5
60A
100
AcDbEntity
  8
0
100
AcDbCircle
 62
7
  6
CONTINUOUS
 10
50.831341528
 20
23.1917252085
 40
0.0984251969
  0
CIRCLE
  5
60B
100
AcDbEntity
  8
0
100
AcDbCircle
 62
7
  6
CONTINUOUS
 10
49.0878499913
 20
22.2593384434
 40
0.0984251969
  0
ARC
  5
60C
100
AcDbEntity
  8
0
100
AcDbCircle
 62
7
  6
CONTINUOUS
 10
46.1935184452
 20
34.637093168
 40
0.1230436352
100
AcDbArc
 50
353.7192698438
 51
171.9611493427
  0
ARC
  5
60D
100
AcDbEntity
  8
0
100
AcDbCircle
 62
7
  6
CONTINUOUS
 10
46.1756062725
 20
34.4940060961
 40
0.1230436352
100
AcDbArc
 50
173.768088966
 51
352.431652286
  0
ARC
  5
60E
100
AcDbEntity
  8
0
100
AcDbCircle
 62
7
  6
CONTINUOUS
 10
45.6947183657
 20
30.6525490218
 40
0.1230436352
100
AcDbArc
 50
353.6707017328
 51
172.0584753848
  0
ARC
  5
60F
100
AcDbEntity
  8
0
100
AcDbCircle
 62
7
  6
CONTINUOUS
 10
45.6768097013
 20
30.5094899756
 40
0.1230436352
100
AcDbArc
 50
173.6707629239
 51
352.0585365759
  0
ARC
  5
610
100
AcDbEntity
  8
0
100
AcDbCircle
 62
7
  6
CONTINUOUS
 10
47.258711605
 20
37.0973701785
 40
0.1222621232
100
AcDbArc
 50
95.8966961704
 51
147.4100611599
  0
ARC
  5
611
100
AcDbEntity
  8
DEFAULT_2
100
AcDbCircle
 62
8
  6
HIDDEN
 10
47.2583227376
 20
37.0975218508
 40
0.1220846752
100
AcDbArc
 50
82.864585398
 51
84.3730544697
  0
ARC
  5
612
100
AcDbEntity
  8
DEFAULT_2
100
AcDbCircle
 62
8
  6
HIDDEN
 10
47.2397515189
 20
36.9491701487
 40
0.1220846752
100
AcDbArc
 50
261.3561838391
 51
262.8646529105
  0
ARC
  5
613
100
AcDbEntity
  8
0
100
AcDbCircle
 62
7
  6
CONTINUOUS
 10
47.2333034664
 20
36.9493446995
 40
0.121456935
100
AcDbArc
 50
198.3191771488
 51
264.373054469
  0
ARC
  5
614
100
AcDbEntity
  8
0
100
AcDbCircle
 62
7
  6
CONTINUOUS
 10
47.2520306338
 20
37.0989421602
 40
0.121456935
100
AcDbArc
 50
81.3561838397
 51
147.4100611599
  0
ARC
  5
615
100
AcDbEntity
  8
DEFAULT_2
100
AcDbCircle
 62
8
  6
HIDDEN
 10
47.2583863524
 20
37.0983654661
 40
0.1212388889
100
AcDbArc
 50
84.3638820602
 51
95.7921220402
  0
ARC
  5
616
100
AcDbEntity
  8
DEFAULT_2
100
AcDbCircle
 62
8
  6
HIDDEN
 10
47.2396052157
 20
36.9483368845
 40
0.1212388889
100
AcDbArc
 50
249.9371162685
 51
261.3653562486
  0
CIRCLE
  5
617
100
AcDbEntity
  8
0
100
AcDbCircle
 62
7
  6
CONTINUOUS
 10
50.3886761823
 20
32.6506747658
 40
0.0984251969
  0
ARC
  5
618
100
AcDbEntity
  8
0
100
AcDbCircle
 62
7
  6
CONTINUOUS
 10
55.314880077
 20
17.5754113647
 40
0.1222621232
100
AcDbArc
 50
95.8966961704
 51
147.4100611599
  0
ARC
  5
619
100
AcDbEntity
  8
DEFAULT_2
100
AcDbCircle
 62
8
  6
HIDDEN
 10
55.3144912095
 20
17.5755630369
 40
0.1220846752
100
AcDbArc
 50
82.8645853981
 51
84.3730544694
  0
ARC
  5
61A
100
AcDbEntity
  8
DEFAULT_2
100
AcDbCircle
 62
8
  6
HIDDEN
 10
55.2959199908
 20
17.4272113349
 40
0.1220846752
100
AcDbArc
 50
261.3561838392
 51
262.8646529108
  0
ARC
  5
61B
100
AcDbEntity
  8
0
100
AcDbCircle
 62
7
  6
CONTINUOUS
 10
55.3081991057
 20
17.5769833464
 40
0.121456935
100
AcDbArc
 50
81.3561838392
 51
147.4100611599
  0
ARC
  5
61C
100
AcDbEntity
  8
0
100
AcDbCircle
 62
7
  6
CONTINUOUS
 10
55.2894719383
 20
17.4273858857
 40
0.121456935
100
AcDbArc
 50
198.3191771488
 51
264.3730544696
  0
ARC
  5
61D
100
AcDbEntity
  8
DEFAULT_2
100
AcDbCircle
 62
8
  6
HIDDEN
 10
55.3145548243
 20
17.5764066523
 40
0.1212388889
100
AcDbArc
 50
84.3638820602
 51
95.7921220402
  0
ARC
  5
61E
100
AcDbEntity
  8
DEFAULT_2
100
AcDbCircle
 62
8
  6
HIDDEN
 10
55.2957736876
 20
17.4263780707
 40
0.1212388889
100
AcDbArc
 50
249.9371162685
 51
261.3653562485
  0
CIRCLE
  5
61F
100
AcDbEntity
  8
0
100
AcDbCircle
 62
7
  6
CONTINUOUS
 10
52.9943674058
 20
21.7703060408
 40
0.0984251969
  0
CIRCLE
  5
620
100
AcDbEntity
  8
0
100
AcDbCircle
 62
7
  6
CONTINUOUS
 10
53.5366766101
 20
23.2498349162
 40
0.0984251969
  0
ARC
  5
621
100
AcDbEntity
  8
0
100
AcDbCircle
 62
7
  6
CONTINUOUS
 10
57.5967052675
 20
35.8032216204
 40
0.1222621232
100
AcDbArc
 50
95.8966961704
 51
147.4100611599
  0
ARC
  5
622
100
AcDbEntity
  8
0
100
AcDbCircle
 62
7
  6
CONTINUOUS
 10
52.4277084363
 20
36.4502958994
 40
0.1222621232
100
AcDbArc
 50
95.8966961704
 51
147.4100611599
  0
ARC
  5
623
100
AcDbEntity
  8
DEFAULT_2
100
AcDbCircle
 62
8
  6
HIDDEN
 10
57.5963164001
 20
35.8033732927
 40
0.1220846752
100
AcDbArc
 50
82.8645853982
 51
84.3730544694
  0
ARC
  5
624
100
AcDbEntity
  8
DEFAULT_2
100
AcDbCircle
 62
8
  6
HIDDEN
 10
57.5777451814
 20
35.6550215906
 40
0.1220846752
100
AcDbArc
 50
261.3561838395
 51
262.8646529105
  0
ARC
  5
625
100
AcDbEntity
  8
DEFAULT_2
100
AcDbCircle
 62
8
  6
HIDDEN
 10
52.4087483501
 20
36.3020958697
 40
0.1220846753
100
AcDbArc
 50
261.3561838396
 51
262.8646529101
  0
ARC
  5
626
100
AcDbEntity
  8
DEFAULT_2
100
AcDbCircle
 62
8
  6
HIDDEN
 10
52.4273195688
 20
36.4504475718
 40
0.1220846751
100
AcDbArc
 50
82.8645853975
 51
84.3730544703
  0
ARC
  5
627
100
AcDbEntity
  8
0
100
AcDbCircle
 62
7
  6
CONTINUOUS
 10
57.5900242963
 20
35.8047936021
 40
0.121456935
100
AcDbArc
 50
81.356183839
 51
147.4100611599
  0
ARC
  5
628
100
AcDbEntity
  8
0
100
AcDbCircle
 62
7
  6
CONTINUOUS
 10
52.4023002976
 20
36.3022704204
 40
0.121456935
100
AcDbArc
 50
198.3191771488
 51
264.3730544697
  0
ARC
  5
629
100
AcDbEntity
  8
0
100
AcDbCircle
 62
7
  6
CONTINUOUS
 10
57.5712971289
 20
35.6551961414
 40
0.121456935
100
AcDbArc
 50
198.3191771488
 51
264.3730544698
  0
ARC
  5
62A
100
AcDbEntity
  8
0
100
AcDbCircle
 62
7
  6
CONTINUOUS
 10
52.4210274651
 20
36.4518678811
 40
0.121456935
100
AcDbArc
 50
81.3561838396
 51
147.4100611599
  0
ARC
  5
62B
100
AcDbEntity
  8
DEFAULT_2
100
AcDbCircle
 62
8
  6
HIDDEN
 10
57.5963800149
 20
35.8042169081
 40
0.1212388889
100
AcDbArc
 50
84.3638820602
 51
95.7921220402
  0
ARC
  5
62C
100
AcDbEntity
  8
DEFAULT_2
100
AcDbCircle
 62
8
  6
HIDDEN
 10
52.4273831836
 20
36.4512911871
 40
0.1212388889
100
AcDbArc
 50
84.3638820601
 51
95.7921220402
  0
ARC
  5
62D
100
AcDbEntity
  8
DEFAULT_2
100
AcDbCircle
 62
8
  6
HIDDEN
 10
57.5775988782
 20
35.6541883265
 40
0.1212388889
100
AcDbArc
 50
249.9371162685
 51
261.3653562486
  0
ARC
  5
62E
100
AcDbEntity
  8
DEFAULT_2
100
AcDbCircle
 62
8
  6
HIDDEN
 10
52.4086020469
 20
36.3012626055
 40
0.1212388889
100
AcDbArc
 50
249.9371162686
 51
261.3653562486
  0
CIRCLE
  5
62F
100
AcDbEntity
  8
0
100
AcDbCircle
 62
7
  6
CONTINUOUS
 10
54.2951935967
 20
32.1616423632
 40
0.0984251969
  0
CIRCLE
  5
630
100
AcDbEntity
  8
0
100
AcDbCircle
 62
7
  6
CONTINUOUS
 10
54.456057527
 20
30.5940876553
 40
0.0984251969
  0
CIRCLE
  5
631
100
AcDbEntity
  8
0
100
AcDbCircle
 62
7
  6
CONTINUOUS
 10
51.8485289254
 20
31.3172814305
 40
0.0984251969
  0
SPLINE
  5
632
100
AcDbEntity
  8
0
100
AcDbSpline
 62
7
  6
CONTINUOUS
 70
0
 71
3
 72
15
 73
11
 74
0
 42
0.0000001
 43
0.0000001
 44
0.0000000001
 40
0.0
 40
0.0
 40
0.0
 40
0.0
 40
0.1245507389
 40
0.2493651221
 40
0.3745514067
 40
0.5
 40
0.6254485933
 40
0.7506348779
 40
0.8754492611
 40
1.0
 40
1.0
 40
1.0
 40
1.0
 10
14.0768931765
 20
33.2774698109
 30
0.0
 10
14.0768931765
 20
33.2647639611
 30
0.0
 10
14.0717544351
 20
33.2390440223
 30
0.0
 10
14.0498336858
 20
33.206581127
 30
0.0
 10
14.0170733927
 20
33.1848754846
 30
0.0
 10
13.9784679796
 20
33.1772699187
 30
0.0
 10
13.9398625666
 20
33.1848754846
 30
0.0
 10
13.9071022734
 20
33.206581127
 30
0.0
 10
13.8851815241
 20
33.2390440223
 30
0.0
 10
13.8800427828
 20
33.2647639611
 30
0.0
 10
13.8800427828
 20
33.2774698109
 30
0.0
  0
SPLINE
  5
633
100
AcDbEntity
  8
0
100
AcDbSpline
 62
7
  6
CONTINUOUS
 70
0
 71
3
 72
15
 73
11
 74
0
 42
0.0000001
 43
0.0000001
 44
0.0000000001
 40
0.0
 40
0.0
 40
0.0
 40
0.0
 40
0.1245507389
 40
0.2493651221
 40
0.3745514067
 40
0.5
 40
0.6254485933
 40
0.7506348779
 40
0.8754492611
 40
1.0
 40
1.0
 40
1.0
 40
1.0
 10
13.8800427828
 20
33.2774698109
 30
0.0
 10
13.8800427828
 20
33.2901756607
 30
0.0
 10
13.8851815241
 20
33.3158955995
 30
0.0
 10
13.9071022734
 20
33.3483584948
 30
0.0
 10
13.9398625666
 20
33.3700641372
 30
0.0
 10
13.9784679796
 20
33.3776697032
 30
0.0
 10
14.0170733927
 20
33.3700641372
 30
0.0
 10
14.0498336858
 20
33.3483584948
 30
0.0
 10
14.0717544351
 20
33.3158955995
 30
0.0
 10
14.0768931765
 20
33.2901756607
 30
0.0
 10
14.0768931765
 20
33.2774698109
 30
0.0
  0
SPLINE
  5
634
100
AcDbEntity
  8
0
100
AcDbSpline
 62
7
  6
CONTINUOUS
 70
0
 71
3
 72
15
 73
11
 74
0
 42
0.0000001
 43
0.0000001
 44
0.0000000001
 40
0.0
 40
0.0
 40
0.0
 40
0.0
 40
0.1245507389
 40
0.2493651221
 40
0.3745514067
 40
0.5
 40
0.6254485933
 40
0.7506348779
 40
0.8754492611
 40
1.0
 40
1.0
 40
1.0
 40
1.0
 10
15.6123262473
 20
33.6290563782
 30
0.0
 10
15.6123262473
 20
33.6163505284
 30
0.0
 10
15.607187506
 20
33.5906305896
 30
0.0
 10
15.5852667567
 20
33.5581676943
 30
0.0
 10
15.5525064635
 20
33.5364620519
 30
0.0
 10
15.5139010505
 20
33.528856486
 30
0.0
 10
15.4752956375
 20
33.5364620519
 30
0.0
 10
15.4425353443
 20
33.5581676943
 30
0.0
 10
15.420614595
 20
33.5906305896
 30
0.0
 10
15.4154758536
 20
33.6163505284
 30
0.0
 10
15.4154758536
 20
33.6290563782
 30
0.0
  0
SPLINE
  5
635
100
AcDbEntity
  8
0
100
AcDbSpline
 62
7
  6
CONTINUOUS
 70
0
 71
3
 72
15
 73
11
 74
0
 42
0.0000001
 43
0.0000001
 44
0.0000000001
 40
0.0
 40
0.0
 40
0.0
 40
0.0
 40
0.1245507389
 40
0.2493651221
 40
0.3745514067
 40
0.5
 40
0.6254485933
 40
0.7506348779
 40
0.8754492611
 40
1.0
 40
1.0
 40
1.0
 40
1.0
 10
15.4154758536
 20
33.6290563782
 30
0.0
 10
15.4154758536
 20
33.641762228
 30
0.0
 10
15.420614595
 20
33.6674821668
 30
0.0
 10
15.4425353443
 20
33.6999450621
 30
0.0
 10
15.4752956375
 20
33.7216507045
 30
0.0
 10
15.5139010505
 20
33.7292562705
 30
0.0
 10
15.5525064635
 20
33.7216507045
 30
0.0
 10
15.5852667567
 20
33.6999450621
 30
0.0
 10
15.607187506
 20
33.6674821668
 30
0.0
 10
15.6123262473
 20
33.641762228
 30
0.0
 10
15.6123262473
 20
33.6290563782
 30
0.0
  0
SPLINE
  5
636
100
AcDbEntity
  8
0
100
AcDbSpline
 62
7
  6
CONTINUOUS
 70
0
 71
3
 72
15
 73
11
 74
0
 42
0.0000001
 43
0.0000001
 44
0.0000000001
 40
0.0
 40
0.0
 40
0.0
 40
0.0
 40
0.1245507389
 40
0.2493651221
 40
0.3745514067
 40
0.5
 40
0.6254485933
 40
0.7506348779
 40
0.8754492611
 40
1.0
 40
1.0
 40
1.0
 40
1.0
 10
15.2186254599
 20
30.9726245364
 30
0.0
 10
15.2186254599
 20
30.9599186866
 30
0.0
 10
15.2134867186
 20
30.9341987478
 30
0.0
 10
15.1915659693
 20
30.9017358525
 30
0.0
 10
15.1588056761
 20
30.8800302101
 30
0.0
 10
15.1202002631
 20
30.8724246442
 30
0.0
 10
15.0815948501
 20
30.8800302101
 30
0.0
 10
15.0488345569
 20
30.9017358525
 30
0.0
 10
15.0269138076
 20
30.9341987478
 30
0.0
 10
15.0217750662
 20
30.9599186866
 30
0.0
 10
15.0217750662
 20
30.9726245364
 30
0.0
  0
SPLINE
  5
637
100
AcDbEntity
  8
0
100
AcDbSpline
 62
7
  6
CONTINUOUS
 70
0
 71
3
 72
15
 73
11
 74
0
 42
0.0000001
 43
0.0000001
 44
0.0000000001
 40
0.0
 40
0.0
 40
0.0
 40
0.0
 40
0.1245507389
 40
0.2493651221
 40
0.3745514067
 40
0.5
 40
0.6254485933
 40
0.7506348779
 40
0.8754492611
 40
1.0
 40
1.0
 40
1.0
 40
1.0
 10
15.0217750662
 20
30.9726245364
 30
0.0
 10
15.0217750662
 20
30.9853303862
 30
0.0
 10
15.0269138076
 20
31.011050325
 30
0.0
 10
15.0488345569
 20
31.0435132203
 30
0.0
 10
15.0815948501
 20
31.0652188627
 30
0.0
 10
15.1202002631
 20
31.0728244286
 30
0.0
 10
15.1588056761
 20
31.0652188627
 30
0.0
 10
15.1915659693
 20
31.0435132203
 30
0.0
 10
15.2134867186
 20
31.011050325
 30
0.0
 10
15.2186254599
 20
30.9853303862
 30
0.0
 10
15.2186254599
 20
30.9726245364
 30
0.0
  0
SPLINE
  5
638
100
AcDbEntity
  8
0
100
AcDbSpline
 62
7
  6
CONTINUOUS
 70
0
 71
3
 72
15
 73
11
 74
0
 42
0.0000001
 43
0.0000001
 44
0.0000000001
 40
0.0
 40
0.0
 40
0.0
 40
0.0
 40
0.1245507389
 40
0.2493651221
 40
0.3745514067
 40
0.5
 40
0.6254485933
 40
0.7506348779
 40
0.8754492611
 40
1.0
 40
1.0
 40
1.0
 40
1.0
 10
14.0768931765
 20
29.3709523965
 30
0.0
 10
14.0768931765
 20
29.3582465467
 30
0.0
 10
14.0717544351
 20
29.3325266079
 30
0.0
 10
14.0498336858
 20
29.3000637126
 30
0.0
 10
14.0170733927
 20
29.2783580702
 30
0.0
 10
13.9784679796
 20
29.2707525042
 30
0.0
 10
13.9398625666
 20
29.2783580702
 30
0.0
 10
13.9071022734
 20
29.3000637126
 30
0.0
 10
13.8851815241
 20
29.3325266079
 30
0.0
 10
13.8800427828
 20
29.3582465467
 30
0.0
 10
13.8800427828
 20
29.3709523965
 30
0.0
  0
SPLINE
  5
639
100
AcDbEntity
  8
0
100
AcDbSpline
 62
7
  6
CONTINUOUS
 70
0
 71
3
 72
15
 73
11
 74
0
 42
0.0000001
 43
0.0000001
 44
0.0000000001
 40
0.0
 40
0.0
 40
0.0
 40
0.0
 40
0.1245507389
 40
0.2493651221
 40
0.3745514067
 40
0.5
 40
0.6254485933
 40
0.7506348779
 40
0.8754492611
 40
1.0
 40
1.0
 40
1.0
 40
1.0
 10
13.8800427828
 20
29.3709523965
 30
0.0
 10
13.8800427828
 20
29.3836582463
 30
0.0
 10
13.8851815241
 20
29.4093781851
 30
0.0
 10
13.9071022734
 20
29.4418410804
 30
0.0
 10
13.9398625666
 20
29.4635467228
 30
0.0
 10
13.9784679796
 20
29.4711522887
 30
0.0
 10
14.0170733927
 20
29.4635467228
 30
0.0
 10
14.0498336858
 20
29.4418410804
 30
0.0
 10
14.0717544351
 20
29.4093781851
 30
0.0
 10
14.0768931765
 20
29.3836582463
 30
0.0
 10
14.0768931765
 20
29.3709523965
 30
0.0
  0
SPLINE
  5
63A
100
AcDbEntity
  8
0
100
AcDbSpline
 62
7
  6
CONTINUOUS
 70
0
 71
3
 72
15
 73
11
 74
0
 42
0.0000001
 43
0.0000001
 44
0.0000000001
 40
0.0
 40
0.0
 40
0.0
 40
0.0
 40
0.1245507389
 40
0.2493651221
 40
0.3745514067
 40
0.5
 40
0.6254485933
 40
0.7506348779
 40
0.8754492611
 40
1.0
 40
1.0
 40
1.0
 40
1.0
 10
24.5493341214
 20
33.2774698109
 30
0.0
 10
24.5493341214
 20
33.2647639611
 30
0.0
 10
24.54419538
 20
33.2390440223
 30
0.0
 10
24.5222746307
 20
33.206581127
 30
0.0
 10
24.4895143375
 20
33.1848754846
 30
0.0
 10
24.4509089245
 20
33.1772699187
 30
0.0
 10
24.4123035115
 20
33.1848754846
 30
0.0
 10
24.3795432183
 20
33.206581127
 30
0.0
 10
24.357622469
 20
33.2390440223
 30
0.0
 10
24.3524837277
 20
33.2647639611
 30
0.0
 10
24.3524837277
 20
33.2774698109
 30
0.0
  0
SPLINE
  5
63B
100
AcDbEntity
  8
0
100
AcDbSpline
 62
7
  6
CONTINUOUS
 70
0
 71
3
 72
15
 73
11
 74
0
 42
0.0000001
 43
0.0000001
 44
0.0000000001
 40
0.0
 40
0.0
 40
0.0
 40
0.0
 40
0.1245507389
 40
0.2493651221
 40
0.3745514067
 40
0.5
 40
0.6254485933
 40
0.7506348779
 40
0.8754492611
 40
1.0
 40
1.0
 40
1.0
 40
1.0
 10
24.3524837277
 20
33.2774698109
 30
0.0
 10
24.3524837277
 20
33.2901756607
 30
0.0
 10
24.357622469
 20
33.3158955995
 30
0.0
 10
24.3795432183
 20
33.3483584948
 30
0.0
 10
24.4123035115
 20
33.3700641372
 30
0.0
 10
24.4509089245
 20
33.3776697032
 30
0.0
 10
24.4895143375
 20
33.3700641372
 30
0.0
 10
24.5222746307
 20
33.3483584948
 30
0.0
 10
24.54419538
 20
33.3158955995
 30
0.0
 10
24.5493341214
 20
33.2901756607
 30
0.0
 10
24.5493341214
 20
33.2774698109
 30
0.0
  0
SPLINE
  5
63C
100
AcDbEntity
  8
0
100
AcDbSpline
 62
7
  6
CONTINUOUS
 70
0
 71
3
 72
15
 73
11
 74
0
 42
0.0000001
 43
0.0000001
 44
0.0000000001
 40
0.0
 40
0.0
 40
0.0
 40
0.0
 40
0.1245507389
 40
0.2493651221
 40
0.3745514067
 40
0.5
 40
0.6254485933
 40
0.7506348779
 40
0.8754492611
 40
1.0
 40
1.0
 40
1.0
 40
1.0
 10
23.0139010505
 20
33.6290563782
 30
0.0
 10
23.0139010505
 20
33.6163505284
 30
0.0
 10
23.0087623092
 20
33.5906305896
 30
0.0
 10
22.9868415598
 20
33.5581676943
 30
0.0
 10
22.9540812667
 20
33.5364620519
 30
0.0
 10
22.9154758536
 20
33.528856486
 30
0.0
 10
22.8768704406
 20
33.5364620519
 30
0.0
 10
22.8441101474
 20
33.5581676943
 30
0.0
 10
22.8221893981
 20
33.5906305896
 30
0.0
 10
22.8170506568
 20
33.6163505284
 30
0.0
 10
22.8170506568
 20
33.6290563782
 30
0.0
  0
SPLINE
  5
63D
100
AcDbEntity
  8
0
100
AcDbSpline
 62
7
  6
CONTINUOUS
 70
0
 71
3
 72
15
 73
11
 74
0
 42
0.0000001
 43
0.0000001
 44
0.0000000001
 40
0.0
 40
0.0
 40
0.0
 40
0.0
 40
0.1245507389
 40
0.2493651221
 40
0.3745514067
 40
0.5
 40
0.6254485933
 40
0.7506348779
 40
0.8754492611
 40
1.0
 40
1.0
 40
1.0
 40
1.0
 10
22.8170506568
 20
33.6290563782
 30
0.0
 10
22.8170506568
 20
33.641762228
 30
0.0
 10
22.8221893981
 20
33.6674821668
 30
0.0
 10
22.8441101474
 20
33.6999450621
 30
0.0
 10
22.8768704406
 20
33.7216507045
 30
0.0
 10
22.9154758536
 20
33.7292562705
 30
0.0
 10
22.9540812667
 20
33.7216507045
 30
0.0
 10
22.9868415598
 20
33.6999450621
 30
0.0
 10
23.0087623092
 20
33.6674821668
 30
0.0
 10
23.0139010505
 20
33.641762228
 30
0.0
 10
23.0139010505
 20
33.6290563782
 30
0.0
  0
SPLINE
  5
63E
100
AcDbEntity
  8
0
100
AcDbSpline
 62
7
  6
CONTINUOUS
 70
0
 71
3
 72
15
 73
11
 74
0
 42
0.0000001
 43
0.0000001
 44
0.0000000001
 40
0.0
 40
0.0
 40
0.0
 40
0.0
 40
0.1245507389
 40
0.2493651221
 40
0.3745514067
 40
0.5
 40
0.6254485933
 40
0.7506348779
 40
0.8754492611
 40
1.0
 40
1.0
 40
1.0
 40
1.0
 10
23.4076018379
 20
30.9726245364
 30
0.0
 10
23.4076018379
 20
30.9599186866
 30
0.0
 10
23.4024630966
 20
30.9341987478
 30
0.0
 10
23.3805423472
 20
30.9017358525
 30
0.0
 10
23.3477820541
 20
30.8800302101
 30
0.0
 10
23.309176641
 20
30.8724246442
 30
0.0
 10
23.270571228
 20
30.8800302101
 30
0.0
 10
23.2378109348
 20
30.9017358525
 30
0.0
 10
23.2158901855
 20
30.9341987478
 30
0.0
 10
23.2107514442
 20
30.9599186866
 30
0.0
 10
23.2107514442
 20
30.9726245364
 30
0.0
  0
SPLINE
  5
63F
100
AcDbEntity
  8
0
100
AcDbSpline
 62
7
  6
CONTINUOUS
 70
0
 71
3
 72
15
 73
11
 74
0
 42
0.0000001
 43
0.0000001
 44
0.0000000001
 40
0.0
 40
0.0
 40
0.0
 40
0.0
 40
0.1245507389
 40
0.2493651221
 40
0.3745514067
 40
0.5
 40
0.6254485933
 40
0.7506348779
 40
0.8754492611
 40
1.0
 40
1.0
 40
1.0
 40
1.0
 10
23.2107514442
 20
30.9726245364
 30
0.0
 10
23.2107514442
 20
30.9853303862
 30
0.0
 10
23.2158901855
 20
31.011050325
 30
0.0
 10
23.2378109348
 20
31.0435132203
 30
0.0
 10
23.270571228
 20
31.0652188627
 30
0.0
 10
23.309176641
 20
31.0728244286
 30
0.0
 10
23.3477820541
 20
31.0652188627
 30
0.0
 10
23.3805423472
 20
31.0435132203
 30
0.0
 10
23.4024630966
 20
31.011050325
 30
0.0
 10
23.4076018379
 20
30.9853303862
 30
0.0
 10
23.4076018379
 20
30.9726245364
 30
0.0
  0
SPLINE
  5
640
100
AcDbEntity
  8
0
100
AcDbSpline
 62
7
  6
CONTINUOUS
 70
0
 71
3
 72
15
 73
11
 74
0
 42
0.0000001
 43
0.0000001
 44
0.0000000001
 40
0.0
 40
0.0
 40
0.0
 40
0.0
 40
0.1245507389
 40
0.2493651221
 40
0.3745514067
 40
0.5
 40
0.6254485933
 40
0.7506348779
 40
0.8754492611
 40
1.0
 40
1.0
 40
1.0
 40
1.0
 10
24.5493341214
 20
29.3709523965
 30
0.0
 10
24.5493341214
 20
29.3582465467
 30
0.0
 10
24.54419538
 20
29.3325266079
 30
0.0
 10
24.5222746307
 20
29.3000637126
 30
0.0
 10
24.4895143375
 20
29.2783580702
 30
0.0
 10
24.4509089245
 20
29.2707525042
 30
0.0
 10
24.4123035115
 20
29.2783580702
 30
0.0
 10
24.3795432183
 20
29.3000637126
 30
0.0
 10
24.357622469
 20
29.3325266079
 30
0.0
 10
24.3524837277
 20
29.3582465467
 30
0.0
 10
24.3524837277
 20
29.3709523965
 30
0.0
  0
SPLINE
  5
641
100
AcDbEntity
  8
0
100
AcDbSpline
 62
7
  6
CONTINUOUS
 70
0
 71
3
 72
15
 73
11
 74
0
 42
0.0000001
 43
0.0000001
 44
0.0000000001
 40
0.0
 40
0.0
 40
0.0
 40
0.0
 40
0.1245507389
 40
0.2493651221
 40
0.3745514067
 40
0.5
 40
0.6254485933
 40
0.7506348779
 40
0.8754492611
 40
1.0
 40
1.0
 40
1.0
 40
1.0
 10
24.3524837277
 20
29.3709523965
 30
0.0
 10
24.3524837277
 20
29.3836582463
 30
0.0
 10
24.357622469
 20
29.4093781851
 30
0.0
 10
24.3795432183
 20
29.4418410804
 30
0.0
 10
24.4123035115
 20
29.4635467228
 30
0.0
 10
24.4509089245
 20
29.4711522887
 30
0.0
 10
24.4895143375
 20
29.4635467228
 30
0.0
 10
24.5222746307
 20
29.4418410804
 30
0.0
 10
24.54419538
 20
29.4093781851
 30
0.0
 10
24.5493341214
 20
29.3836582463
 30
0.0
 10
24.5493341214
 20
29.3709523965
 30
0.0
  0
SPLINE
  5
642
100
AcDbEntity
  8
0
100
AcDbSpline
 62
7
  6
CONTINUOUS
 70
0
 71
3
 72
15
 73
11
 74
0
 42
0.0000001
 43
0.0000001
 44
0.0000000001
 40
0.0
 40
0.0
 40
0.0
 40
0.0
 40
0.1254482171
 40
0.2506304032
 40
0.3754441467
 40
0.4999989082
 40
0.6245539848
 40
0.7493684908
 40
0.8745514468
 40
1.0
 40
1.0
 40
1.0
 40
1.0
 10
12.5265917002
 20
24.8736164216
 30
0.0
 10
12.5107502049
 20
24.8738643045
 30
0.0
 10
12.4788616394
 20
24.8805789031
 30
0.0
 10
12.4386514213
 20
24.9078240335
 30
0.0
 10
12.4117616464
 20
24.948220965
 30
0.0
 10
12.4023445547
 20
24.9957453643
 30
0.0
 10
12.4118024926
 20
25.043261738
 30
0.0
 10
12.4387269133
 20
25.0836358339
 30
0.0
 10
12.4789604265
 20
25.1108469244
 30
0.0
 10
12.5108547861
 20
25.1175345992
 30
0.0
 10
12.5266965278
 20
25.1177690894
 30
0.0
  0
SPLINE
  5
643
100
AcDbEntity
  8
0
100
AcDbSpline
 62
7
  6
CONTINUOUS
 70
0
 71
3
 72
15
 73
11
 74
0
 42
0.0000001
 43
0.0000001
 44
0.0000000001
 40
0.0
 40
0.0
 40
0.0
 40
0.0
 40
0.1254500374
 40
0.2506371941
 40
0.3754550554
 40
0.5000104998
 40
0.6245629007
 40
0.7493734046
 40
0.8745531551
 40
1.0
 40
1.0
 40
1.0
 40
1.0
 10
12.6736655008
 20
25.1177791859
 30
0.0
 10
12.6895458773
 20
25.1176601098
 30
0.0
 10
12.7215652261
 20
25.111174886
 30
0.0
 10
12.7620603241
 20
25.0841371092
 30
0.0
 10
12.7892569401
 20
25.0438004462
 30
0.0
 10
12.7989370336
 20
24.9962067383
 30
0.0
 10
12.7896515361
 20
24.9485353085
 30
0.0
 10
12.7627893321
 20
24.9079775601
 30
0.0
 10
12.7225185269
 20
24.8806104061
 30
0.0
 10
12.690554317
 20
24.8738648832
 30
0.0
 10
12.6746758421
 20
24.8736164216
 30
0.0
  0
SPLINE
  5
644
100
AcDbEntity
  8
0
100
AcDbSpline
 62
7
  6
CONTINUOUS
 70
0
 71
3
 72
15
 73
11
 74
0
 42
0.0000001
 43
0.0000001
 44
0.0000000001
 40
0.0
 40
0.0
 40
0.0
 40
0.0
 40
0.1254484111
 40
0.2506312891
 40
0.3754454305
 40
0.4999999986
 40
0.6245545672
 40
0.7493687095
 40
0.8745515885
 40
1.0
 40
1.0
 40
1.0
 40
1.0
 10
16.5424442925
 20
24.8736133276
 30
0.0
 10
16.5265895223
 20
24.873834689
 30
0.0
 10
16.494663239
 20
24.8805062543
 30
0.0
 10
16.4543855482
 20
24.9077256585
 30
0.0
 10
16.4274361005
 20
24.9481326775
 30
0.0
 10
16.4179829291
 20
24.9956920244
 30
0.0
 10
16.4274361517
 20
25.0432513613
 30
0.0
 10
16.4543856429
 20
25.0836583516
 30
0.0
 10
16.4946633629
 20
25.1108777131
 30
0.0
 10
16.5265896535
 20
25.1175492446
 30
0.0
 10
16.5424444239
 20
25.1177705892
 30
0.0
  0
SPLINE
  5
645
100
AcDbEntity
  8
0
100
AcDbSpline
 62
7
  6
CONTINUOUS
 70
0
 71
3
 72
15
 73
11
 74
0
 42
0.0000001
 43
0.0000001
 44
0.0000000001
 40
0.0
 40
0.0
 40
0.0
 40
0.0
 40
0.1254484115
 40
0.2506312905
 40
0.3754454328
 40
0.5000000014
 40
0.6245545695
 40
0.7493687109
 40
0.8745515889
 40
1.0
 40
1.0
 40
1.0
 40
1.0
 10
16.6900820865
 20
25.1177705892
 30
0.0
 10
16.705936857
 20
25.1175492446
 30
0.0
 10
16.7378631475
 20
25.1108777131
 30
0.0
 10
16.7781408675
 20
25.0836583516
 30
0.0
 10
16.8050903587
 20
25.0432513613
 30
0.0
 10
16.8145435814
 20
24.9956920244
 30
0.0
 10
16.80509041
 20
24.9481326775
 30
0.0
 10
16.7781409622
 20
24.9077256585
 30
0.0
 10
16.7378632714
 20
24.8805062543
 30
0.0
 10
16.7059369881
 20
24.873834689
 30
0.0
 10
16.6900822179
 20
24.8736133276
 30
0.0
  0
SPLINE
  5
646
100
AcDbEntity
  8
0
100
AcDbSpline
 62
7
  6
CONTINUOUS
 70
0
 71
3
 72
15
 73
11
 74
0
 42
0.0000001
 43
0.0000001
 44
0.0000000001
 40
0.0
 40
0.0
 40
0.0
 40
0.0
 40
0.1254485532
 40
0.2506315092
 40
0.3754460152
 40
0.5000010918
 40
0.6245558533
 40
0.7493695968
 40
0.8745517829
 40
1.0
 40
1.0
 40
1.0
 40
1.0
 10
25.9026803763
 20
25.1177690894
 30
0.0
 10
25.9185221181
 20
25.1175345992
 30
0.0
 10
25.9504164776
 20
25.1108469244
 30
0.0
 10
25.9906499908
 20
25.0836358339
 30
0.0
 10
26.0175744115
 20
25.043261738
 30
0.0
 10
26.0270323495
 20
24.9957453643
 30
0.0
 10
26.0176152578
 20
24.948220965
 30
0.0
 10
25.9907254828
 20
24.9078240335
 30
0.0
 10
25.9505152647
 20
24.8805789031
 30
0.0
 10
25.9186266992
 20
24.8738643045
 30
0.0
 10
25.9027852039
 20
24.8736164216
 30
0.0
  0
SPLINE
  5
647
100
AcDbEntity
  8
0
100
AcDbSpline
 62
7
  6
CONTINUOUS
 70
0
 71
3
 72
15
 73
11
 74
0
 42
0.0000001
 43
0.0000001
 44
0.0000000001
 40
0.0
 40
0.0
 40
0.0
 40
0.0
 40
0.1254468449
 40
0.2506265954
 40
0.3754370993
 40
0.4999895002
 40
0.6245449446
 40
0.7493628059
 40
0.8745499626
 40
1.0
 40
1.0
 40
1.0
 40
1.0
 10
25.754701062
 20
24.8736164216
 30
0.0
 10
25.7388225871
 20
24.8738648832
 30
0.0
 10
25.7068583773
 20
24.8806104061
 30
0.0
 10
25.6665875721
 20
24.9079775601
 30
0.0
 10
25.639725368
 20
24.9485353085
 30
0.0
 10
25.6304398705
 20
24.9962067383
 30
0.0
 10
25.640119964
 20
25.0438004462
 30
0.0
 10
25.6673165801
 20
25.0841371092
 30
0.0
 10
25.707811678
 20
25.111174886
 30
0.0
 10
25.7398310269
 20
25.1176601098
 30
0.0
 10
25.7557114033
 20
25.1177791859
 30
0.0
  0
SPLINE
  5
648
100
AcDbEntity
  8
0
100
AcDbSpline
 62
7
  6
CONTINUOUS
 70
0
 71
3
 72
15
 73
11
 74
0
 42
0.0000001
 43
0.0000001
 44
0.0000000001
 40
0.0
 40
0.0
 40
0.0
 40
0.0
 40
0.1254484115
 40
0.2506312905
 40
0.3754454328
 40
0.5000000014
 40
0.6245545695
 40
0.7493687109
 40
0.8745515889
 40
1.0
 40
1.0
 40
1.0
 40
1.0
 10
21.8869324802
 20
25.1177705892
 30
0.0
 10
21.9027872507
 20
25.1175492446
 30
0.0
 10
21.9347135412
 20
25.1108777131
 30
0.0
 10
21.9749912612
 20
25.0836583516
 30
0.0
 10
22.0019407524
 20
25.0432513613
 30
0.0
 10
22.0113939751
 20
24.9956920244
 30
0.0
 10
22.0019408037
 20
24.9481326775
 30
0.0
 10
21.9749913559
 20
24.9077256585
 30
0.0
 10
21.9347136651
 20
24.8805062543
 30
0.0
 10
21.9027873818
 20
24.873834689
 30
0.0
 10
21.8869326116
 20
24.8736133276
 30
0.0
  0
SPLINE
  5
649
100
AcDbEntity
  8
0
100
AcDbSpline
 62
7
  6
CONTINUOUS
 70
0
 71
3
 72
15
 73
11
 74
0
 42
0.0000001
 43
0.0000001
 44
0.0000000001
 40
0.0
 40
0.0
 40
0.0
 40
0.0
 40
0.1254484111
 40
0.2506312891
 40
0.3754454305
 40
0.4999999986
 40
0.6245545672
 40
0.7493687095
 40
0.8745515885
 40
1.0
 40
1.0
 40
1.0
 40
1.0
 10
21.7392946862
 20
24.8736133276
 30
0.0
 10
21.723439916
 20
24.873834689
 30
0.0
 10
21.6915136327
 20
24.8805062543
 30
0.0
 10
21.6512359419
 20
24.9077256585
 30
0.0
 10
21.6242864942
 20
24.9481326775
 30
0.0
 10
21.6148333228
 20
24.9956920244
 30
0.0
 10
21.6242865454
 20
25.0432513613
 30
0.0
 10
21.6512360366
 20
25.0836583516
 30
0.0
 10
21.6915137566
 20
25.1108777131
 30
0.0
 10
21.7234400472
 20
25.1175492446
 30
0.0
 10
21.7392948176
 20
25.1177705892
 30
0.0
  0
SPLINE
  5
64A
100
AcDbEntity
  8
0
100
AcDbSpline
 62
7
  6
CONTINUOUS
 70
0
 71
3
 72
15
 73
11
 74
0
 42
0.0000001
 43
0.0000001
 44
0.0000000001
 40
0.0
 40
0.0
 40
0.0
 40
0.0
 40
0.1245507389
 40
0.2493651221
 40
0.3745514067
 40
0.5
 40
0.6254485933
 40
0.7506348779
 40
0.8754492611
 40
1.0
 40
1.0
 40
1.0
 40
1.0
 10
14.0768931765
 20
33.2710634864
 30
0.0
 10
14.0768931765
 20
33.2583576366
 30
0.0
 10
14.0717544351
 20
33.2326376978
 30
0.0
 10
14.0498336858
 20
33.2001748026
 30
0.0
 10
14.0170733927
 20
33.1784691601
 30
0.0
 10
13.9784679796
 20
33.1708635942
 30
0.0
 10
13.9398625666
 20
33.1784691601
 30
0.0
 10
13.9071022734
 20
33.2001748026
 30
0.0
 10
13.8851815241
 20
33.2326376978
 30
0.0
 10
13.8800427828
 20
33.2583576366
 30
0.0
 10
13.8800427828
 20
33.2710634864
 30
0.0
  0
SPLINE
  5
64B
100
AcDbEntity
  8
0
100
AcDbSpline
 62
7
  6
CONTINUOUS
 70
0
 71
3
 72
15
 73
11
 74
0
 42
0.0000001
 43
0.0000001
 44
0.0000000001
 40
0.0
 40
0.0
 40
0.0
 40
0.0
 40
0.1245507389
 40
0.2493651221
 40
0.3745514067
 40
0.5
 40
0.6254485933
 40
0.7506348779
 40
0.8754492611
 40
1.0
 40
1.0
 40
1.0
 40
1.0
 10
13.8800427828
 20
33.2710634864
 30
0.0
 10
13.8800427828
 20
33.2837693362
 30
0.0
 10
13.8851815241
 20
33.309489275
 30
0.0
 10
13.9071022734
 20
33.3419521703
 30
0.0
 10
13.9398625666
 20
33.3636578127
 30
0.0
 10
13.9784679796
 20
33.3712633787
 30
0.0
 10
14.0170733927
 20
33.3636578127
 30
0.0
 10
14.0498336858
 20
33.3419521703
 30
0.0
 10
14.0717544351
 20
33.309489275
 30
0.0
 10
14.0768931765
 20
33.2837693362
 30
0.0
 10
14.0768931765
 20
33.2710634864
 30
0.0
  0
SPLINE
  5
64C
100
AcDbEntity
  8
0
100
AcDbSpline
 62
7
  6
CONTINUOUS
 70
0
 71
3
 72
15
 73
11
 74
0
 42
0.0000001
 43
0.0000001
 44
0.0000000001
 40
0.0
 40
0.0
 40
0.0
 40
0.0
 40
0.1245507389
 40
0.2493651221
 40
0.3745514067
 40
0.5
 40
0.6254485933
 40
0.7506348779
 40
0.8754492611
 40
1.0
 40
1.0
 40
1.0
 40
1.0
 10
15.6123262473
 20
33.6226500537
 30
0.0
 10
15.6123262473
 20
33.6099442039
 30
0.0
 10
15.607187506
 20
33.5842242651
 30
0.0
 10
15.5852667567
 20
33.5517613699
 30
0.0
 10
15.5525064635
 20
33.5300557274
 30
0.0
 10
15.5139010505
 20
33.5224501615
 30
0.0
 10
15.4752956375
 20
33.5300557274
 30
0.0
 10
15.4425353443
 20
33.5517613699
 30
0.0
 10
15.420614595
 20
33.5842242651
 30
0.0
 10
15.4154758536
 20
33.6099442039
 30
0.0
 10
15.4154758536
 20
33.6226500537
 30
0.0
  0
SPLINE
  5
64D
100
AcDbEntity
  8
0
100
AcDbSpline
 62
7
  6
CONTINUOUS
 70
0
 71
3
 72
15
 73
11
 74
0
 42
0.0000001
 43
0.0000001
 44
0.0000000001
 40
0.0
 40
0.0
 40
0.0
 40
0.0
 40
0.1245507389
 40
0.2493651221
 40
0.3745514067
 40
0.5
 40
0.6254485933
 40
0.7506348779
 40
0.8754492611
 40
1.0
 40
1.0
 40
1.0
 40
1.0
 10
15.4154758536
 20
33.6226500537
 30
0.0
 10
15.4154758536
 20
33.6353559035
 30
0.0
 10
15.420614595
 20
33.6610758423
 30
0.0
 10
15.4425353443
 20
33.6935387376
 30
0.0
 10
15.4752956375
 20
33.71524438
 30
0.0
 10
15.5139010505
 20
33.722849946
 30
0.0
 10
15.5525064635
 20
33.71524438
 30
0.0
 10
15.5852667567
 20
33.6935387376
 30
0.0
 10
15.607187506
 20
33.6610758423
 30
0.0
 10
15.6123262473
 20
33.6353559035
 30
0.0
 10
15.6123262473
 20
33.6226500537
 30
0.0
  0
SPLINE
  5
64E
100
AcDbEntity
  8
0
100
AcDbSpline
 62
7
  6
CONTINUOUS
 70
0
 71
3
 72
15
 73
11
 74
0
 42
0.0000001
 43
0.0000001
 44
0.0000000001
 40
0.0
 40
0.0
 40
0.0
 40
0.0
 40
0.1245507389
 40
0.2493651221
 40
0.3745514067
 40
0.5
 40
0.6254485933
 40
0.7506348779
 40
0.8754492611
 40
1.0
 40
1.0
 40
1.0
 40
1.0
 10
15.2186254599
 20
30.9662182119
 30
0.0
 10
15.2186254599
 20
30.9535123621
 30
0.0
 10
15.2134867186
 20
30.9277924233
 30
0.0
 10
15.1915659693
 20
30.895329528
 30
0.0
 10
15.1588056761
 20
30.8736238856
 30
0.0
 10
15.1202002631
 20
30.8660183197
 30
0.0
 10
15.0815948501
 20
30.8736238856
 30
0.0
 10
15.0488345569
 20
30.895329528
 30
0.0
 10
15.0269138076
 20
30.9277924233
 30
0.0
 10
15.0217750662
 20
30.9535123621
 30
0.0
 10
15.0217750662
 20
30.9662182119
 30
0.0
  0
SPLINE
  5
64F
100
AcDbEntity
  8
0
100
AcDbSpline
 62
7
  6
CONTINUOUS
 70
0
 71
3
 72
15
 73
11
 74
0
 42
0.0000001
 43
0.0000001
 44
0.0000000001
 40
0.0
 40
0.0
 40
0.0
 40
0.0
 40
0.1245507389
 40
0.2493651221
 40
0.3745514067
 40
0.5
 40
0.6254485933
 40
0.7506348779
 40
0.8754492611
 40
1.0
 40
1.0
 40
1.0
 40
1.0
 10
15.0217750662
 20
30.9662182119
 30
0.0
 10
15.0217750662
 20
30.9789240617
 30
0.0
 10
15.0269138076
 20
31.0046440005
 30
0.0
 10
15.0488345569
 20
31.0371068958
 30
0.0
 10
15.0815948501
 20
31.0588125382
 30
0.0
 10
15.1202002631
 20
31.0664181042
 30
0.0
 10
15.1588056761
 20
31.0588125382
 30
0.0
 10
15.1915659693
 20
31.0371068958
 30
0.0
 10
15.2134867186
 20
31.0046440005
 30
0.0
 10
15.2186254599
 20
30.9789240617
 30
0.0
 10
15.2186254599
 20
30.9662182119
 30
0.0
  0
SPLINE
  5
650
100
AcDbEntity
  8
0
100
AcDbSpline
 62
7
  6
CONTINUOUS
 70
0
 71
3
 72
15
 73
11
 74
0
 42
0.0000001
 43
0.0000001
 44
0.0000000001
 40
0.0
 40
0.0
 40
0.0
 40
0.0
 40
0.1245507389
 40
0.2493651221
 40
0.3745514067
 40
0.5
 40
0.6254485933
 40
0.7506348779
 40
0.8754492611
 40
1.0
 40
1.0
 40
1.0
 40
1.0
 10
14.0768931765
 20
29.364546072
 30
0.0
 10
14.0768931765
 20
29.3518402222
 30
0.0
 10
14.0717544351
 20
29.3261202834
 30
0.0
 10
14.0498336858
 20
29.2936573881
 30
0.0
 10
14.0170733927
 20
29.2719517457
 30
0.0
 10
13.9784679796
 20
29.2643461798
 30
0.0
 10
13.9398625666
 20
29.2719517457
 30
0.0
 10
13.9071022734
 20
29.2936573881
 30
0.0
 10
13.8851815241
 20
29.3261202834
 30
0.0
 10
13.8800427828
 20
29.3518402222
 30
0.0
 10
13.8800427828
 20
29.364546072
 30
0.0
  0
SPLINE
  5
651
100
AcDbEntity
  8
0
100
AcDbSpline
 62
7
  6
CONTINUOUS
 70
0
 71
3
 72
15
 73
11
 74
0
 42
0.0000001
 43
0.0000001
 44
0.0000000001
 40
0.0
 40
0.0
 40
0.0
 40
0.0
 40
0.1245507389
 40
0.2493651221
 40
0.3745514067
 40
0.5
 40
0.6254485933
 40
0.7506348779
 40
0.8754492611
 40
1.0
 40
1.0
 40
1.0
 40
1.0
 10
13.8800427828
 20
29.364546072
 30
0.0
 10
13.8800427828
 20
29.3772519218
 30
0.0
 10
13.8851815241
 20
29.4029718606
 30
0.0
 10
13.9071022734
 20
29.4354347559
 30
0.0
 10
13.9398625666
 20
29.4571403983
 30
0.0
 10
13.9784679796
 20
29.4647459642
 30
0.0
 10
14.0170733927
 20
29.4571403983
 30
0.0
 10
14.0498336858
 20
29.4354347559
 30
0.0
 10
14.0717544351
 20
29.4029718606
 30
0.0
 10
14.0768931765
 20
29.3772519218
 30
0.0
 10
14.0768931765
 20
29.364546072
 30
0.0
  0
SPLINE
  5
652
100
AcDbEntity
  8
0
100
AcDbSpline
 62
7
  6
CONTINUOUS
 70
0
 71
3
 72
15
 73
11
 74
0
 42
0.0000001
 43
0.0000001
 44
0.0000000001
 40
0.0
 40
0.0
 40
0.0
 40
0.0
 40
0.1245507389
 40
0.2493651221
 40
0.3745514067
 40
0.5
 40
0.6254485933
 40
0.7506348779
 40
0.8754492611
 40
1.0
 40
1.0
 40
1.0
 40
1.0
 10
24.5493341214
 20
33.2710634864
 30
0.0
 10
24.5493341214
 20
33.2583576366
 30
0.0
 10
24.54419538
 20
33.2326376978
 30
0.0
 10
24.5222746307
 20
33.2001748026
 30
0.0
 10
24.4895143375
 20
33.1784691601
 30
0.0
 10
24.4509089245
 20
33.1708635942
 30
0.0
 10
24.4123035115
 20
33.1784691601
 30
0.0
 10
24.3795432183
 20
33.2001748026
 30
0.0
 10
24.357622469
 20
33.2326376978
 30
0.0
 10
24.3524837277
 20
33.2583576366
 30
0.0
 10
24.3524837277
 20
33.2710634864
 30
0.0
  0
SPLINE
  5
653
100
AcDbEntity
  8
0
100
AcDbSpline
 62
7
  6
CONTINUOUS
 70
0
 71
3
 72
15
 73
11
 74
0
 42
0.0000001
 43
0.0000001
 44
0.0000000001
 40
0.0
 40
0.0
 40
0.0
 40
0.0
 40
0.1245507389
 40
0.2493651221
 40
0.3745514067
 40
0.5
 40
0.6254485933
 40
0.7506348779
 40
0.8754492611
 40
1.0
 40
1.0
 40
1.0
 40
1.0
 10
24.3524837277
 20
33.2710634864
 30
0.0
 10
24.3524837277
 20
33.2837693362
 30
0.0
 10
24.357622469
 20
33.309489275
 30
0.0
 10
24.3795432183
 20
33.3419521703
 30
0.0
 10
24.4123035115
 20
33.3636578127
 30
0.0
 10
24.4509089245
 20
33.3712633787
 30
0.0
 10
24.4895143375
 20
33.3636578127
 30
0.0
 10
24.5222746307
 20
33.3419521703
 30
0.0
 10
24.54419538
 20
33.309489275
 30
0.0
 10
24.5493341214
 20
33.2837693362
 30
0.0
 10
24.5493341214
 20
33.2710634864
 30
0.0
  0
SPLINE
  5
654
100
AcDbEntity
  8
0
100
AcDbSpline
 62
7
  6
CONTINUOUS
 70
0
 71
3
 72
15
 73
11
 74
0
 42
0.0000001
 43
0.0000001
 44
0.0000000001
 40
0.0
 40
0.0
 40
0.0
 40
0.0
 40
0.1245507389
 40
0.2493651221
 40
0.3745514067
 40
0.5
 40
0.6254485933
 40
0.7506348779
 40
0.8754492611
 40
1.0
 40
1.0
 40
1.0
 40
1.0
 10
23.0139010505
 20
33.6226500537
 30
0.0
 10
23.0139010505
 20
33.6099442039
 30
0.0
 10
23.0087623092
 20
33.5842242651
 30
0.0
 10
22.9868415598
 20
33.5517613699
 30
0.0
 10
22.9540812667
 20
33.5300557274
 30
0.0
 10
22.9154758536
 20
33.5224501615
 30
0.0
 10
22.8768704406
 20
33.5300557274
 30
0.0
 10
22.8441101474
 20
33.5517613699
 30
0.0
 10
22.8221893981
 20
33.5842242651
 30
0.0
 10
22.8170506568
 20
33.6099442039
 30
0.0
 10
22.8170506568
 20
33.6226500537
 30
0.0
  0
SPLINE
  5
655
100
AcDbEntity
  8
0
100
AcDbSpline
 62
7
  6
CONTINUOUS
 70
0
 71
3
 72
15
 73
11
 74
0
 42
0.0000001
 43
0.0000001
 44
0.0000000001
 40
0.0
 40
0.0
 40
0.0
 40
0.0
 40
0.1245507389
 40
0.2493651221
 40
0.3745514067
 40
0.5
 40
0.6254485933
 40
0.7506348779
 40
0.8754492611
 40
1.0
 40
1.0
 40
1.0
 40
1.0
 10
22.8170506568
 20
33.6226500537
 30
0.0
 10
22.8170506568
 20
33.6353559035
 30
0.0
 10
22.8221893981
 20
33.6610758423
 30
0.0
 10
22.8441101474
 20
33.6935387376
 30
0.0
 10
22.8768704406
 20
33.71524438
 30
0.0
 10
22.9154758536
 20
33.722849946
 30
0.0
 10
22.9540812667
 20
33.71524438
 30
0.0
 10
22.9868415598
 20
33.6935387376
 30
0.0
 10
23.0087623092
 20
33.6610758423
 30
0.0
 10
23.0139010505
 20
33.6353559035
 30
0.0
 10
23.0139010505
 20
33.6226500537
 30
0.0
  0
SPLINE
  5
656
100
AcDbEntity
  8
0
100
AcDbSpline
 62
7
  6
CONTINUOUS
 70
0
 71
3
 72
15
 73
11
 74
0
 42
0.0000001
 43
0.0000001
 44
0.0000000001
 40
0.0
 40
0.0
 40
0.0
 40
0.0
 40
0.1245507389
 40
0.2493651221
 40
0.3745514067
 40
0.5
 40
0.6254485933
 40
0.7506348779
 40
0.8754492611
 40
1.0
 40
1.0
 40
1.0
 40
1.0
 10
23.4076018379
 20
30.9662182119
 30
0.0
 10
23.4076018379
 20
30.9535123621
 30
0.0
 10
23.4024630966
 20
30.9277924233
 30
0.0
 10
23.3805423472
 20
30.895329528
 30
0.0
 10
23.3477820541
 20
30.8736238856
 30
0.0
 10
23.309176641
 20
30.8660183197
 30
0.0
 10
23.270571228
 20
30.8736238856
 30
0.0
 10
23.2378109348
 20
30.895329528
 30
0.0
 10
23.2158901855
 20
30.9277924233
 30
0.0
 10
23.2107514442
 20
30.9535123621
 30
0.0
 10
23.2107514442
 20
30.9662182119
 30
0.0
  0
SPLINE
  5
657
100
AcDbEntity
  8
0
100
AcDbSpline
 62
7
  6
CONTINUOUS
 70
0
 71
3
 72
15
 73
11
 74
0
 42
0.0000001
 43
0.0000001
 44
0.0000000001
 40
0.0
 40
0.0
 40
0.0
 40
0.0
 40
0.1245507389
 40
0.2493651221
 40
0.3745514067
 40
0.5
 40
0.6254485933
 40
0.7506348779
 40
0.8754492611
 40
1.0
 40
1.0
 40
1.0
 40
1.0
 10
23.2107514442
 20
30.9662182119
 30
0.0
 10
23.2107514442
 20
30.9789240617
 30
0.0
 10
23.2158901855
 20
31.0046440005
 30
0.0
 10
23.2378109348
 20
31.0371068958
 30
0.0
 10
23.270571228
 20
31.0588125382
 30
0.0
 10
23.309176641
 20
31.0664181042
 30
0.0
 10
23.3477820541
 20
31.0588125382
 30
0.0
 10
23.3805423472
 20
31.0371068958
 30
0.0
 10
23.4024630966
 20
31.0046440005
 30
0.0
 10
23.4076018379
 20
30.9789240617
 30
0.0
 10
23.4076018379
 20
30.9662182119
 30
0.0
  0
SPLINE
  5
658
100
AcDbEntity
  8
0
100
AcDbSpline
 62
7
  6
CONTINUOUS
 70
0
 71
3
 72
15
 73
11
 74
0
 42
0.0000001
 43
0.0000001
 44
0.0000000001
 40
0.0
 40
0.0
 40
0.0
 40
0.0
 40
0.1245507389
 40
0.2493651221
 40
0.3745514067
 40
0.5
 40
0.6254485933
 40
0.7506348779
 40
0.8754492611
 40
1.0
 40
1.0
 40
1.0
 40
1.0
 10
24.5493341214
 20
29.364546072
 30
0.0
 10
24.5493341214
 20
29.3518402222
 30
0.0
 10
24.54419538
 20
29.3261202834
 30
0.0
 10
24.5222746307
 20
29.2936573881
 30
0.0
 10
24.4895143375
 20
29.2719517457
 30
0.0
 10
24.4509089245
 20
29.2643461798
 30
0.0
 10
24.4123035115
 20
29.2719517457
 30
0.0
 10
24.3795432183
 20
29.2936573881
 30
0.0
 10
24.357622469
 20
29.3261202834
 30
0.0
 10
24.3524837277
 20
29.3518402222
 30
0.0
 10
24.3524837277
 20
29.364546072
 30
0.0
  0
SPLINE
  5
659
100
AcDbEntity
  8
0
100
AcDbSpline
 62
7
  6
CONTINUOUS
 70
0
 71
3
 72
15
 73
11
 74
0
 42
0.0000001
 43
0.0000001
 44
0.0000000001
 40
0.0
 40
0.0
 40
0.0
 40
0.0
 40
0.1245507389
 40
0.2493651221
 40
0.3745514067
 40
0.5
 40
0.6254485933
 40
0.7506348779
 40
0.8754492611
 40
1.0
 40
1.0
 40
1.0
 40
1.0
 10
24.3524837277
 20
29.364546072
 30
0.0
 10
24.3524837277
 20
29.3772519218
 30
0.0
 10
24.357622469
 20
29.4029718606
 30
0.0
 10
24.3795432183
 20
29.4354347559
 30
0.0
 10
24.4123035115
 20
29.4571403983
 30
0.0
 10
24.4509089245
 20
29.4647459642
 30
0.0
 10
24.4895143375
 20
29.4571403983
 30
0.0
 10
24.5222746307
 20
29.4354347559
 30
0.0
 10
24.54419538
 20
29.4029718606
 30
0.0
 10
24.5493341214
 20
29.3772519218
 30
0.0
 10
24.5493341214
 20
29.364546072
 30
0.0
  0
SPLINE
  5
65A
100
AcDbEntity
  8
0
100
AcDbSpline
 62
7
  6
CONTINUOUS
 70
0
 71
3
 72
15
 73
11
 74
0
 42
0.0000001
 43
0.0000001
 44
0.0000000001
 40
0.0
 40
0.0
 40
0.0
 40
0.0
 40
0.1254482171
 40
0.2506304032
 40
0.3754441467
 40
0.4999989082
 40
0.6245539848
 40
0.7493684908
 40
0.8745514468
 40
1.0
 40
1.0
 40
1.0
 40
1.0
 10
12.5265917002
 20
24.8672100971
 30
0.0
 10
12.5107502049
 20
24.86745798
 30
0.0
 10
12.4788616394
 20
24.8741725787
 30
0.0
 10
12.4386514213
 20
24.901417709
 30
0.0
 10
12.4117616464
 20
24.9418146405
 30
0.0
 10
12.4023445547
 20
24.9893390398
 30
0.0
 10
12.4118024926
 20
25.0368554135
 30
0.0
 10
12.4387269133
 20
25.0772295095
 30
0.0
 10
12.4789604265
 20
25.1044406
 30
0.0
 10
12.5108547861
 20
25.1111282747
 30
0.0
 10
12.5266965278
 20
25.1113627649
 30
0.0
  0
SPLINE
  5
65B
100
AcDbEntity
  8
0
100
AcDbSpline
 62
7
  6
CONTINUOUS
 70
0
 71
3
 72
15
 73
11
 74
0
 42
0.0000001
 43
0.0000001
 44
0.0000000001
 40
0.0
 40
0.0
 40
0.0
 40
0.0
 40
0.1254500374
 40
0.2506371941
 40
0.3754550554
 40
0.5000104998
 40
0.6245629007
 40
0.7493734046
 40
0.8745531551
 40
1.0
 40
1.0
 40
1.0
 40
1.0
 10
12.6736655008
 20
25.1113728614
 30
0.0
 10
12.6895458773
 20
25.1112537853
 30
0.0
 10
12.7215652261
 20
25.1047685615
 30
0.0
 10
12.7620603241
 20
25.0777307847
 30
0.0
 10
12.7892569401
 20
25.0373941217
 30
0.0
 10
12.7989370336
 20
24.9898004139
 30
0.0
 10
12.7896515361
 20
24.942128984
 30
0.0
 10
12.7627893321
 20
24.9015712356
 30
0.0
 10
12.7225185269
 20
24.8742040816
 30
0.0
 10
12.690554317
 20
24.8674585587
 30
0.0
 10
12.6746758421
 20
24.8672100971
 30
0.0
  0
SPLINE
  5
65C
100
AcDbEntity
  8
0
100
AcDbSpline
 62
7
  6
CONTINUOUS
 70
0
 71
3
 72
15
 73
11
 74
0
 42
0.0000001
 43
0.0000001
 44
0.0000000001
 40
0.0
 40
0.0
 40
0.0
 40
0.0
 40
0.1254484111
 40
0.2506312891
 40
0.3754454305
 40
0.4999999986
 40
0.6245545672
 40
0.7493687095
 40
0.8745515885
 40
1.0
 40
1.0
 40
1.0
 40
1.0
 10
16.5424442925
 20
24.8672070031
 30
0.0
 10
16.5265895223
 20
24.8674283645
 30
0.0
 10
16.494663239
 20
24.8740999298
 30
0.0
 10
16.4543855482
 20
24.901319334
 30
0.0
 10
16.4274361005
 20
24.941726353
 30
0.0
 10
16.4179829291
 20
24.9892857
 30
0.0
 10
16.4274361517
 20
25.0368450368
 30
0.0
 10
16.4543856429
 20
25.0772520271
 30
0.0
 10
16.4946633629
 20
25.1044713886
 30
0.0
 10
16.5265896535
 20
25.1111429201
 30
0.0
 10
16.5424444239
 20
25.1113642647
 30
0.0
  0
SPLINE
  5
65D
100
AcDbEntity
  8
0
100
AcDbSpline
 62
7
  6
CONTINUOUS
 70
0
 71
3
 72
15
 73
11
 74
0
 42
0.0000001
 43
0.0000001
 44
0.0000000001
 40
0.0
 40
0.0
 40
0.0
 40
0.0
 40
0.1254484115
 40
0.2506312905
 40
0.3754454328
 40
0.5000000014
 40
0.6245545695
 40
0.7493687109
 40
0.8745515889
 40
1.0
 40
1.0
 40
1.0
 40
1.0
 10
16.6900820865
 20
25.1113642647
 30
0.0
 10
16.705936857
 20
25.1111429201
 30
0.0
 10
16.7378631475
 20
25.1044713886
 30
0.0
 10
16.7781408675
 20
25.0772520271
 30
0.0
 10
16.8050903587
 20
25.0368450368
 30
0.0
 10
16.8145435814
 20
24.9892857
 30
0.0
 10
16.80509041
 20
24.941726353
 30
0.0
 10
16.7781409622
 20
24.901319334
 30
0.0
 10
16.7378632714
 20
24.8740999298
 30
0.0
 10
16.7059369881
 20
24.8674283645
 30
0.0
 10
16.6900822179
 20
24.8672070031
 30
0.0
  0
SPLINE
  5
65E
100
AcDbEntity
  8
0
100
AcDbSpline
 62
7
  6
CONTINUOUS
 70
0
 71
3
 72
15
 73
11
 74
0
 42
0.0000001
 43
0.0000001
 44
0.0000000001
 40
0.0
 40
0.0
 40
0.0
 40
0.0
 40
0.1254468449
 40
0.2506265954
 40
0.3754370993
 40
0.4999895002
 40
0.6245449446
 40
0.7493628059
 40
0.8745499626
 40
1.0
 40
1.0
 40
1.0
 40
1.0
 10
25.754701062
 20
24.8672100971
 30
0.0
 10
25.7388225871
 20
24.8674585587
 30
0.0
 10
25.7068583773
 20
24.8742040816
 30
0.0
 10
25.6665875721
 20
24.9015712356
 30
0.0
 10
25.639725368
 20
24.942128984
 30
0.0
 10
25.6304398705
 20
24.9898004139
 30
0.0
 10
25.640119964
 20
25.0373941217
 30
0.0
 10
25.6673165801
 20
25.0777307847
 30
0.0
 10
25.707811678
 20
25.1047685615
 30
0.0
 10
25.7398310269
 20
25.1112537853
 30
0.0
 10
25.7557114033
 20
25.1113728614
 30
0.0
  0
SPLINE
  5
65F
100
AcDbEntity
  8
0
100
AcDbSpline
 62
7
  6
CONTINUOUS
 70
0
 71
3
 72
15
 73
11
 74
0
 42
0.0000001
 43
0.0000001
 44
0.0000000001
 40
0.0
 40
0.0
 40
0.0
 40
0.0
 40
0.1254485532
 40
0.2506315092
 40
0.3754460152
 40
0.5000010918
 40
0.6245558533
 40
0.7493695968
 40
0.8745517829
 40
1.0
 40
1.0
 40
1.0
 40
1.0
 10
25.9026803763
 20
25.1113627649
 30
0.0
 10
25.9185221181
 20
25.1111282747
 30
0.0
 10
25.9504164776
 20
25.1044406
 30
0.0
 10
25.9906499908
 20
25.0772295095
 30
0.0
 10
26.0175744115
 20
25.0368554135
 30
0.0
 10
26.0270323495
 20
24.9893390398
 30
0.0
 10
26.0176152578
 20
24.9418146405
 30
0.0
 10
25.9907254828
 20
24.901417709
 30
0.0
 10
25.9505152647
 20
24.8741725787
 30
0.0
 10
25.9186266992
 20
24.86745798
 30
0.0
 10
25.9027852039
 20
24.8672100971
 30
0.0
  0
SPLINE
  5
660
100
AcDbEntity
  8
0
100
AcDbSpline
 62
7
  6
CONTINUOUS
 70
0
 71
3
 72
15
 73
11
 74
0
 42
0.0000001
 43
0.0000001
 44
0.0000000001
 40
0.0
 40
0.0
 40
0.0
 40
0.0
 40
0.1254484111
 40
0.2506312891
 40
0.3754454305
 40
0.4999999986
 40
0.6245545672
 40
0.7493687095
 40
0.8745515885
 40
1.0
 40
1.0
 40
1.0
 40
1.0
 10
21.7392946862
 20
24.8672070031
 30
0.0
 10
21.723439916
 20
24.8674283645
 30
0.0
 10
21.6915136327
 20
24.8740999298
 30
0.0
 10
21.6512359419
 20
24.901319334
 30
0.0
 10
21.6242864942
 20
24.941726353
 30
0.0
 10
21.6148333228
 20
24.9892857
 30
0.0
 10
21.6242865454
 20
25.0368450368
 30
0.0
 10
21.6512360366
 20
25.0772520271
 30
0.0
 10
21.6915137566
 20
25.1044713886
 30
0.0
 10
21.7234400472
 20
25.1111429201
 30
0.0
 10
21.7392948176
 20
25.1113642647
 30
0.0
  0
SPLINE
  5
661
100
AcDbEntity
  8
0
100
AcDbSpline
 62
7
  6
CONTINUOUS
 70
0
 71
3
 72
15
 73
11
 74
0
 42
0.0000001
 43
0.0000001
 44
0.0000000001
 40
0.0
 40
0.0
 40
0.0
 40
0.0
 40
0.1254484115
 40
0.2506312905
 40
0.3754454328
 40
0.5000000014
 40
0.6245545695
 40
0.7493687109
 40
0.8745515889
 40
1.0
 40
1.0
 40
1.0
 40
1.0
 10
21.8869324802
 20
25.1113642647
 30
0.0
 10
21.9027872507
 20
25.1111429201
 30
0.0
 10
21.9347135412
 20
25.1044713886
 30
0.0
 10
21.9749912612
 20
25.0772520271
 30
0.0
 10
22.0019407524
 20
25.0368450368
 30
0.0
 10
22.0113939751
 20
24.9892857
 30
0.0
 10
22.0019408037
 20
24.941726353
 30
0.0
 10
21.9749913559
 20
24.901319334
 30
0.0
 10
21.9347136651
 20
24.8740999298
 30
0.0
 10
21.9027873818
 20
24.8674283645
 30
0.0
 10
21.8869326116
 20
24.8672070031
 30
0.0
  0
SPLINE
  5
662
100
AcDbEntity
  8
0
100
AcDbSpline
 62
7
  6
CONTINUOUS
 70
0
 71
3
 72
15
 73
11
 74
0
 42
0.0000001
 43
0.0000001
 44
0.0000000001
 40
0.0
 40
0.0
 40
0.0
 40
0.0
 40
0.0440536589
 40
0.1522871775
 40
0.3120892182
 40
0.5
 40
0.6879107818
 40
0.8477128225
 40
0.9559463411
 40
1.0
 40
1.0
 40
1.0
 40
1.0
 10
14.0768931765
 20
13.5259193907
 30
0.0
 10
14.0768931765
 20
13.5288637276
 30
0.0
 10
14.0631857427
 20
13.5321015855
 30
0.0
 10
14.0458307399
 20
13.5353326101
 30
0.0
 10
14.0138689939
 20
13.5376078024
 30
0.0
 10
13.9784679796
 20
13.5384356213
 30
0.0
 10
13.9430669654
 20
13.5376078024
 30
0.0
 10
13.9111052193
 20
13.5353326101
 30
0.0
 10
13.8937502165
 20
13.5321015855
 30
0.0
 10
13.8800427828
 20
13.5288637276
 30
0.0
 10
13.8800427828
 20
13.5259193907
 30
0.0
  0
SPLINE
  5
663
100
AcDbEntity
  8
0
100
AcDbSpline
 62
7
  6
CONTINUOUS
 70
0
 71
3
 72
15
 73
11
 74
0
 42
0.0000001
 43
0.0000001
 44
0.0000000001
 40
0.0
 40
0.0
 40
0.0
 40
0.0
 40
0.0440536589
 40
0.1522871775
 40
0.3120892182
 40
0.5
 40
0.6879107818
 40
0.8477128225
 40
0.9559463411
 40
1.0
 40
1.0
 40
1.0
 40
1.0
 10
13.8800427828
 20
13.5259193907
 30
0.0
 10
13.8800427828
 20
13.5229750538
 30
0.0
 10
13.8937502165
 20
13.5197371959
 30
0.0
 10
13.9111052193
 20
13.5165061713
 30
0.0
 10
13.9430669654
 20
13.514230979
 30
0.0
 10
13.9784679796
 20
13.5134031601
 30
0.0
 10
14.0138689939
 20
13.514230979
 30
0.0
 10
14.0458307399
 20
13.5165061713
 30
0.0
 10
14.0631857427
 20
13.5197371959
 30
0.0
 10
14.0768931765
 20
13.5229750538
 30
0.0
 10
14.0768931765
 20
13.5259193907
 30
0.0
  0
SPLINE
  5
664
100
AcDbEntity
  8
0
100
AcDbSpline
 62
7
  6
CONTINUOUS
 70
0
 71
3
 72
15
 73
11
 74
0
 42
0.0000001
 43
0.0000001
 44
0.0000000001
 40
0.0
 40
0.0
 40
0.0
 40
0.0
 40
0.0440536589
 40
0.1522871775
 40
0.3120892182
 40
0.5
 40
0.6879107818
 40
0.8477128225
 40
0.9559463411
 40
1.0
 40
1.0
 40
1.0
 40
1.0
 10
15.6123262473
 20
13.4819064745
 30
0.0
 10
15.6123262473
 20
13.4848508114
 30
0.0
 10
15.5986188136
 20
13.4880886693
 30
0.0
 10
15.5812638108
 20
13.4913196939
 30
0.0
 10
15.5493020647
 20
13.4935948861
 30
0.0
 10
15.5139010505
 20
13.4944227051
 30
0.0
 10
15.4785000363
 20
13.4935948861
 30
0.0
 10
15.4465382902
 20
13.4913196939
 30
0.0
 10
15.4291832874
 20
13.4880886693
 30
0.0
 10
15.4154758536
 20
13.4848508114
 30
0.0
 10
15.4154758536
 20
13.4819064745
 30
0.0
  0
SPLINE
  5
665
100
AcDbEntity
  8
0
100
AcDbSpline
 62
7
  6
CONTINUOUS
 70
0
 71
3
 72
15
 73
11
 74
0
 42
0.0000001
 43
0.0000001
 44
0.0000000001
 40
0.0
 40
0.0
 40
0.0
 40
0.0
 40
0.0440536589
 40
0.1522871775
 40
0.3120892182
 40
0.5
 40
0.6879107818
 40
0.8477128225
 40
0.9559463411
 40
1.0
 40
1.0
 40
1.0
 40
1.0
 10
15.4154758536
 20
13.4819064745
 30
0.0
 10
15.4154758536
 20
13.4789621375
 30
0.0
 10
15.4291832874
 20
13.4757242796
 30
0.0
 10
15.4465382902
 20
13.472493255
 30
0.0
 10
15.4785000363
 20
13.4702180628
 30
0.0
 10
15.5139010505
 20
13.4693902438
 30
0.0
 10
15.5493020647
 20
13.4702180628
 30
0.0
 10
15.5812638108
 20
13.472493255
 30
0.0
 10
15.5986188136
 20
13.4757242796
 30
0.0
 10
15.6123262473
 20
13.4789621375
 30
0.0
 10
15.6123262473
 20
13.4819064745
 30
0.0
  0
SPLINE
  5
666
100
AcDbEntity
  8
0
100
AcDbSpline
 62
7
  6
CONTINUOUS
 70
0
 71
3
 72
15
 73
11
 74
0
 42
0.0000001
 43
0.0000001
 44
0.0000000001
 40
0.0
 40
0.0
 40
0.0
 40
0.0
 40
0.0440536589
 40
0.1522871775
 40
0.3120892182
 40
0.5
 40
0.6879107818
 40
0.8477128225
 40
0.9559463411
 40
1.0
 40
1.0
 40
1.0
 40
1.0
 10
15.2186254599
 20
13.8144485082
 30
0.0
 10
15.2186254599
 20
13.8173928451
 30
0.0
 10
15.2049180262
 20
13.820630703
 30
0.0
 10
15.1875630234
 20
13.8238617276
 30
0.0
 10
15.1556012773
 20
13.8261369199
 30
0.0
 10
15.1202002631
 20
13.8269647388
 30
0.0
 10
15.0847992489
 20
13.8261369199
 30
0.0
 10
15.0528375028
 20
13.8238617276
 30
0.0
 10
15.0354825
 20
13.820630703
 30
0.0
 10
15.0217750662
 20
13.8173928451
 30
0.0
 10
15.0217750662
 20
13.8144485082
 30
0.0
  0
SPLINE
  5
667
100
AcDbEntity
  8
0
100
AcDbSpline
 62
7
  6
CONTINUOUS
 70
0
 71
3
 72
15
 73
11
 74
0
 42
0.0000001
 43
0.0000001
 44
0.0000000001
 40
0.0
 40
0.0
 40
0.0
 40
0.0
 40
0.0440536589
 40
0.1522871775
 40
0.3120892182
 40
0.5
 40
0.6879107818
 40
0.8477128225
 40
0.9559463411
 40
1.0
 40
1.0
 40
1.0
 40
1.0
 10
15.0217750662
 20
13.8144485082
 30
0.0
 10
15.0217750662
 20
13.8115041713
 30
0.0
 10
15.0354825
 20
13.8082663134
 30
0.0
 10
15.0528375028
 20
13.8050352888
 30
0.0
 10
15.0847992489
 20
13.8027600966
 30
0.0
 10
15.1202002631
 20
13.8019322776
 30
0.0
 10
15.1556012773
 20
13.8027600966
 30
0.0
 10
15.1875630234
 20
13.8050352888
 30
0.0
 10
15.2049180262
 20
13.8082663134
 30
0.0
 10
15.2186254599
 20
13.8115041713
 30
0.0
 10
15.2186254599
 20
13.8144485082
 30
0.0
  0
SPLINE
  5
668
100
AcDbEntity
  8
0
100
AcDbSpline
 62
7
  6
CONTINUOUS
 70
0
 71
3
 72
15
 73
11
 74
0
 42
0.0000001
 43
0.0000001
 44
0.0000000001
 40
0.0
 40
0.0
 40
0.0
 40
0.0
 40
0.0440536589
 40
0.1522871775
 40
0.3120892182
 40
0.5
 40
0.6879107818
 40
0.8477128225
 40
0.9559463411
 40
1.0
 40
1.0
 40
1.0
 40
1.0
 10
14.0768931765
 20
14.0149517933
 30
0.0
 10
14.0768931765
 20
14.0178961302
 30
0.0
 10
14.0631857427
 20
14.0211339881
 30
0.0
 10
14.0458307399
 20
14.0243650127
 30
0.0
 10
14.0138689939
 20
14.026640205
 30
0.0
 10
13.9784679796
 20
14.0274680239
 30
0.0
 10
13.9430669654
 20
14.026640205
 30
0.0
 10
13.9111052193
 20
14.0243650127
 30
0.0
 10
13.8937502165
 20
14.0211339881
 30
0.0
 10
13.8800427828
 20
14.0178961302
 30
0.0
 10
13.8800427828
 20
14.0149517933
 30
0.0
  0
SPLINE
  5
669
100
AcDbEntity
  8
0
100
AcDbSpline
 62
7
  6
CONTINUOUS
 70
0
 71
3
 72
15
 73
11
 74
0
 42
0.0000001
 43
0.0000001
 44
0.0000000001
 40
0.0
 40
0.0
 40
0.0
 40
0.0
 40
0.0440536589
 40
0.1522871775
 40
0.3120892182
 40
0.5
 40
0.6879107818
 40
0.8477128225
 40
0.9559463411
 40
1.0
 40
1.0
 40
1.0
 40
1.0
 10
13.8800427828
 20
14.0149517933
 30
0.0
 10
13.8800427828
 20
14.0120074564
 30
0.0
 10
13.8937502165
 20
14.0087695985
 30
0.0
 10
13.9111052193
 20
14.0055385739
 30
0.0
 10
13.9430669654
 20
14.0032633816
 30
0.0
 10
13.9784679796
 20
14.0024355627
 30
0.0
 10
14.0138689939
 20
14.0032633816
 30
0.0
 10
14.0458307399
 20
14.0055385739
 30
0.0
 10
14.0631857427
 20
14.0087695985
 30
0.0
 10
14.0768931765
 20
14.0120074564
 30
0.0
 10
14.0768931765
 20
14.0149517933
 30
0.0
  0
SPLINE
  5
66A
100
AcDbEntity
  8
0
100
AcDbSpline
 62
7
  6
CONTINUOUS
 70
0
 71
3
 72
15
 73
11
 74
0
 42
0.0000001
 43
0.0000001
 44
0.0000000001
 40
0.0
 40
0.0
 40
0.0
 40
0.0
 40
0.0440536589
 40
0.1522871775
 40
0.3120892182
 40
0.5
 40
0.6879107818
 40
0.8477128225
 40
0.9559463411
 40
1.0
 40
1.0
 40
1.0
 40
1.0
 10
24.5493341214
 20
13.5259193907
 30
0.0
 10
24.5493341214
 20
13.5288637276
 30
0.0
 10
24.5356266876
 20
13.5321015855
 30
0.0
 10
24.5182716848
 20
13.5353326101
 30
0.0
 10
24.4863099387
 20
13.5376078024
 30
0.0
 10
24.4509089245
 20
13.5384356213
 30
0.0
 10
24.4155079103
 20
13.5376078024
 30
0.0
 10
24.3835461642
 20
13.5353326101
 30
0.0
 10
24.3661911614
 20
13.5321015855
 30
0.0
 10
24.3524837277
 20
13.5288637276
 30
0.0
 10
24.3524837277
 20
13.5259193907
 30
0.0
  0
SPLINE
  5
66B
100
AcDbEntity
  8
0
100
AcDbSpline
 62
7
  6
CONTINUOUS
 70
0
 71
3
 72
15
 73
11
 74
0
 42
0.0000001
 43
0.0000001
 44
0.0000000001
 40
0.0
 40
0.0
 40
0.0
 40
0.0
 40
0.0440536589
 40
0.1522871775
 40
0.3120892182
 40
0.5
 40
0.6879107818
 40
0.8477128225
 40
0.9559463411
 40
1.0
 40
1.0
 40
1.0
 40
1.0
 10
24.3524837277
 20
13.5259193907
 30
0.0
 10
24.3524837277
 20
13.5229750538
 30
0.0
 10
24.3661911614
 20
13.5197371959
 30
0.0
 10
24.3835461642
 20
13.5165061713
 30
0.0
 10
24.4155079103
 20
13.514230979
 30
0.0
 10
24.4509089245
 20
13.5134031601
 30
0.0
 10
24.4863099387
 20
13.514230979
 30
0.0
 10
24.5182716848
 20
13.5165061713
 30
0.0
 10
24.5356266876
 20
13.5197371959
 30
0.0
 10
24.5493341214
 20
13.5229750538
 30
0.0
 10
24.5493341214
 20
13.5259193907
 30
0.0
  0
SPLINE
  5
66C
100
AcDbEntity
  8
0
100
AcDbSpline
 62
7
  6
CONTINUOUS
 70
0
 71
3
 72
15
 73
11
 74
0
 42
0.0000001
 43
0.0000001
 44
0.0000000001
 40
0.0
 40
0.0
 40
0.0
 40
0.0
 40
0.0440536589
 40
0.1522871775
 40
0.3120892182
 40
0.5
 40
0.6879107818
 40
0.8477128225
 40
0.9559463411
 40
1.0
 40
1.0
 40
1.0
 40
1.0
 10
23.0139010505
 20
13.4819064745
 30
0.0
 10
23.0139010505
 20
13.4848508114
 30
0.0
 10
23.0001936167
 20
13.4880886693
 30
0.0
 10
22.9828386139
 20
13.4913196939
 30
0.0
 10
22.9508768679
 20
13.4935948861
 30
0.0
 10
22.9154758536
 20
13.4944227051
 30
0.0
 10
22.8800748394
 20
13.4935948861
 30
0.0
 10
22.8481130934
 20
13.4913196939
 30
0.0
 10
22.8307580906
 20
13.4880886693
 30
0.0
 10
22.8170506568
 20
13.4848508114
 30
0.0
 10
22.8170506568
 20
13.4819064745
 30
0.0
  0
SPLINE
  5
66D
100
AcDbEntity
  8
0
100
AcDbSpline
 62
7
  6
CONTINUOUS
 70
0
 71
3
 72
15
 73
11
 74
0
 42
0.0000001
 43
0.0000001
 44
0.0000000001
 40
0.0
 40
0.0
 40
0.0
 40
0.0
 40
0.0440536589
 40
0.1522871775
 40
0.3120892182
 40
0.5
 40
0.6879107818
 40
0.8477128225
 40
0.9559463411
 40
1.0
 40
1.0
 40
1.0
 40
1.0
 10
22.8170506568
 20
13.4819064745
 30
0.0
 10
22.8170506568
 20
13.4789621375
 30
0.0
 10
22.8307580906
 20
13.4757242796
 30
0.0
 10
22.8481130934
 20
13.472493255
 30
0.0
 10
22.8800748394
 20
13.4702180628
 30
0.0
 10
22.9154758536
 20
13.4693902438
 30
0.0
 10
22.9508768679
 20
13.4702180628
 30
0.0
 10
22.9828386139
 20
13.472493255
 30
0.0
 10
23.0001936167
 20
13.4757242796
 30
0.0
 10
23.0139010505
 20
13.4789621375
 30
0.0
 10
23.0139010505
 20
13.4819064745
 30
0.0
  0
SPLINE
  5
66E
100
AcDbEntity
  8
0
100
AcDbSpline
 62
7
  6
CONTINUOUS
 70
0
 71
3
 72
15
 73
11
 74
0
 42
0.0000001
 43
0.0000001
 44
0.0000000001
 40
0.0
 40
0.0
 40
0.0
 40
0.0
 40
0.0440536589
 40
0.1522871775
 40
0.3120892182
 40
0.5
 40
0.6879107818
 40
0.8477128225
 40
0.9559463411
 40
1.0
 40
1.0
 40
1.0
 40
1.0
 10
23.4076018379
 20
13.8144485082
 30
0.0
 10
23.4076018379
 20
13.8173928451
 30
0.0
 10
23.3938944041
 20
13.820630703
 30
0.0
 10
23.3765394013
 20
13.8238617276
 30
0.0
 10
23.3445776553
 20
13.8261369199
 30
0.0
 10
23.309176641
 20
13.8269647388
 30
0.0
 10
23.2737756268
 20
13.8261369199
 30
0.0
 10
23.2418138808
 20
13.8238617276
 30
0.0
 10
23.224458878
 20
13.820630703
 30
0.0
 10
23.2107514442
 20
13.8173928451
 30
0.0
 10
23.2107514442
 20
13.8144485082
 30
0.0
  0
SPLINE
  5
66F
100
AcDbEntity
  8
0
100
AcDbSpline
 62
7
  6
CONTINUOUS
 70
0
 71
3
 72
15
 73
11
 74
0
 42
0.0000001
 43
0.0000001
 44
0.0000000001
 40
0.0
 40
0.0
 40
0.0
 40
0.0
 40
0.0440536589
 40
0.1522871775
 40
0.3120892182
 40
0.5
 40
0.6879107818
 40
0.8477128225
 40
0.9559463411
 40
1.0
 40
1.0
 40
1.0
 40
1.0
 10
23.2107514442
 20
13.8144485082
 30
0.0
 10
23.2107514442
 20
13.8115041713
 30
0.0
 10
23.224458878
 20
13.8082663134
 30
0.0
 10
23.2418138808
 20
13.8050352888
 30
0.0
 10
23.2737756268
 20
13.8027600966
 30
0.0
 10
23.309176641
 20
13.8019322776
 30
0.0
 10
23.3445776553
 20
13.8027600966
 30
0.0
 10
23.3765394013
 20
13.8050352888
 30
0.0
 10
23.3938944041
 20
13.8082663134
 30
0.0
 10
23.4076018379
 20
13.8115041713
 30
0.0
 10
23.4076018379
 20
13.8144485082
 30
0.0
  0
SPLINE
  5
670
100
AcDbEntity
  8
0
100
AcDbSpline
 62
7
  6
CONTINUOUS
 70
0
 71
3
 72
15
 73
11
 74
0
 42
0.0000001
 43
0.0000001
 44
0.0000000001
 40
0.0
 40
0.0
 40
0.0
 40
0.0
 40
0.0440536589
 40
0.1522871775
 40
0.3120892182
 40
0.5
 40
0.6879107818
 40
0.8477128225
 40
0.9559463411
 40
1.0
 40
1.0
 40
1.0
 40
1.0
 10
24.5493341214
 20
14.0149517933
 30
0.0
 10
24.5493341214
 20
14.0178961302
 30
0.0
 10
24.5356266876
 20
14.0211339881
 30
0.0
 10
24.5182716848
 20
14.0243650127
 30
0.0
 10
24.4863099387
 20
14.026640205
 30
0.0
 10
24.4509089245
 20
14.0274680239
 30
0.0
 10
24.4155079103
 20
14.026640205
 30
0.0
 10
24.3835461642
 20
14.0243650127
 30
0.0
 10
24.3661911614
 20
14.0211339881
 30
0.0
 10
24.3524837277
 20
14.0178961302
 30
0.0
 10
24.3524837277
 20
14.0149517933
 30
0.0
  0
SPLINE
  5
671
100
AcDbEntity
  8
0
100
AcDbSpline
 62
7
  6
CONTINUOUS
 70
0
 71
3
 72
15
 73
11
 74
0
 42
0.0000001
 43
0.0000001
 44
0.0000000001
 40
0.0
 40
0.0
 40
0.0
 40
0.0
 40
0.0440536589
 40
0.1522871775
 40
0.3120892182
 40
0.5
 40
0.6879107818
 40
0.8477128225
 40
0.9559463411
 40
1.0
 40
1.0
 40
1.0
 40
1.0
 10
24.3524837277
 20
14.0149517933
 30
0.0
 10
24.3524837277
 20
14.0120074564
 30
0.0
 10
24.3661911614
 20
14.0087695985
 30
0.0
 10
24.3835461642
 20
14.0055385739
 30
0.0
 10
24.4155079103
 20
14.0032633816
 30
0.0
 10
24.4509089245
 20
14.0024355627
 30
0.0
 10
24.4863099387
 20
14.0032633816
 30
0.0
 10
24.5182716848
 20
14.0055385739
 30
0.0
 10
24.5356266876
 20
14.0087695985
 30
0.0
 10
24.5493341214
 20
14.0120074564
 30
0.0
 10
24.5493341214
 20
14.0149517933
 30
0.0
  0
SPLINE
  5
672
100
AcDbEntity
  8
0
100
AcDbSpline
 62
7
  6
CONTINUOUS
 70
0
 71
3
 72
15
 73
11
 74
0
 42
0.0000001
 43
0.0000001
 44
0.0000000001
 40
0.0
 40
0.0
 40
0.0
 40
0.0
 40
0.188403917
 40
0.348016889
 40
0.4558801655
 40
0.499804538
 40
0.5438629767
 40
0.6518587674
 40
0.8115624529
 40
1.0
 40
1.0
 40
1.0
 40
1.0
 10
12.5265917002
 20
14.5779450642
 30
0.0
 10
12.5110863739
 20
14.5779146918
 30
0.0
 10
12.4829994781
 20
14.5775887709
 30
0.0
 10
12.4435974643
 20
14.573366905
 30
0.0
 10
12.4222425245
 20
14.5721011873
 30
0.0
 10
12.4006278653
 20
14.5626447395
 30
0.0
 10
12.4223036262
 20
14.5532307763
 30
0.0
 10
12.4436580738
 20
14.5519425084
 30
0.0
 10
12.4830947199
 20
14.5477369478
 30
0.0
 10
12.5111884306
 20
14.5474098599
 30
0.0
 10
12.5266965278
 20
14.5473811237
 30
0.0
  0
SPLINE
  5
673
100
AcDbEntity
  8
0
100
AcDbSpline
 62
7
  6
CONTINUOUS
 70
0
 71
3
 72
15
 73
11
 74
0
 42
0.0000001
 43
0.0000001
 44
0.0000000001
 40
0.0
 40
0.0
 40
0.0
 40
0.0
 40
0.1884578117
 40
0.3485850131
 40
0.4572239092
 40
0.5018772616
 40
0.5452395111
 40
0.652603988
 40
0.8118609854
 40
1.0
 40
1.0
 40
1.0
 40
1.0
 10
12.6736655008
 20
14.5473798598
 30
0.0
 10
12.6892318975
 20
14.5473944715
 30
0.0
 10
12.7174498962
 20
14.5477167867
 30
0.0
 10
12.7571829282
 20
14.5518514116
 30
0.0
 10
12.7786154881
 20
14.553232177
 30
0.0
 10
12.800660885
 20
14.5624851737
 30
0.0
 10
12.7792055394
 20
14.5721483904
 30
0.0
 10
12.7577680032
 20
14.5733113599
 30
0.0
 10
12.7183686272
 20
14.5776034966
 30
0.0
 10
12.6902158835
 20
14.5779146238
 30
0.0
 10
12.6746758421
 20
14.5779450642
 30
0.0
  0
SPLINE
  5
674
100
AcDbEntity
  8
0
100
AcDbSpline
 62
7
  6
CONTINUOUS
 70
0
 71
3
 72
15
 73
11
 74
0
 42
0.0000001
 43
0.0000001
 44
0.0000000001
 40
0.0
 40
0.0
 40
0.0
 40
0.0
 40
0.1883787465
 40
0.3480489455
 40
0.4560034562
 40
0.4999997553
 40
0.5439962224
 40
0.6519508991
 40
0.8116212116
 40
1.0
 40
1.0
 40
1.0
 40
1.0
 10
16.5424442925
 20
14.5779454515
 30
0.0
 10
16.5269214326
 20
14.5779183208
 30
0.0
 10
16.498798272
 20
14.5775951658
 30
0.0
 10
16.459327644
 20
14.5733815661
 30
0.0
 10
16.4379457524
 20
14.5721064699
 30
0.0
 10
16.4162634315
 20
14.5626631707
 30
0.0
 10
16.437945829
 20
14.5532199249
 30
0.0
 10
16.4593277201
 20
14.5519448004
 30
0.0
 10
16.4987983915
 20
14.5477312211
 30
0.0
 10
16.5269215605
 20
14.5474080647
 30
0.0
 10
16.5424444239
 20
14.547380936
 30
0.0
  0
SPLINE
  5
675
100
AcDbEntity
  8
0
100
AcDbSpline
 62
7
  6
CONTINUOUS
 70
0
 71
3
 72
15
 73
11
 74
0
 42
0.0000001
 43
0.0000001
 44
0.0000000001
 40
0.0
 40
0.0
 40
0.0
 40
0.0
 40
0.1883787884
 40
0.3480491009
 40
0.4560037776
 40
0.5000002447
 40
0.5439965438
 40
0.6519510545
 40
0.8116212535
 40
1.0
 40
1.0
 40
1.0
 40
1.0
 10
16.6900820865
 20
14.547380936
 30
0.0
 10
16.7056049499
 20
14.5474080647
 30
0.0
 10
16.733728119
 20
14.5477312211
 30
0.0
 10
16.7731987904
 20
14.5519448004
 30
0.0
 10
16.7945806814
 20
14.5532199249
 30
0.0
 10
16.8162630789
 20
14.5626631707
 30
0.0
 10
16.794580758
 20
14.5721064699
 30
0.0
 10
16.7731988664
 20
14.5733815661
 30
0.0
 10
16.7337282384
 20
14.5775951658
 30
0.0
 10
16.7056050779
 20
14.5779183208
 30
0.0
 10
16.6900822179
 20
14.5779454515
 30
0.0
  0
SPLINE
  5
676
100
AcDbEntity
  8
0
100
AcDbSpline
 62
7
  6
CONTINUOUS
 70
0
 71
3
 72
15
 73
11
 74
0
 42
0.0000001
 43
0.0000001
 44
0.0000000001
 40
0.0
 40
0.0
 40
0.0
 40
0.0
 40
0.1884375471
 40
0.3481412326
 40
0.4561370233
 40
0.500195462
 40
0.5441198345
 40
0.651983111
 40
0.811596083
 40
1.0
 40
1.0
 40
1.0
 40
1.0
 10
25.9026803763
 20
14.5473811237
 30
0.0
 10
25.9181884735
 20
14.5474098599
 30
0.0
 10
25.9462821842
 20
14.5477369478
 30
0.0
 10
25.9857188303
 20
14.5519425084
 30
0.0
 10
26.0070732779
 20
14.5532307763
 30
0.0
 10
26.0287490389
 20
14.5626447395
 30
0.0
 10
26.0071343796
 20
14.5721011873
 30
0.0
 10
25.9857794398
 20
14.573366905
 30
0.0
 10
25.946377426
 20
14.5775887709
 30
0.0
 10
25.9182905302
 20
14.5779146918
 30
0.0
 10
25.9027852039
 20
14.5779450642
 30
0.0
  0
SPLINE
  5
677
100
AcDbEntity
  8
0
100
AcDbSpline
 62
7
  6
CONTINUOUS
 70
0
 71
3
 72
15
 73
11
 74
0
 42
0.0000001
 43
0.0000001
 44
0.0000000001
 40
0.0
 40
0.0
 40
0.0
 40
0.0
 40
0.1881390146
 40
0.347396012
 40
0.4547604889
 40
0.4981227384
 40
0.5427760908
 40
0.6514149869
 40
0.8115421883
 40
1.0
 40
1.0
 40
1.0
 40
1.0
 10
25.754701062
 20
14.5779450642
 30
0.0
 10
25.7391610206
 20
14.5779146238
 30
0.0
 10
25.7110082769
 20
14.5776034966
 30
0.0
 10
25.671608901
 20
14.5733113599
 30
0.0
 10
25.6501713648
 20
14.5721483904
 30
0.0
 10
25.6287160192
 20
14.5624851737
 30
0.0
 10
25.650761416
 20
14.553232177
 30
0.0
 10
25.6721939759
 20
14.5518514116
 30
0.0
 10
25.711927008
 20
14.5477167867
 30
0.0
 10
25.7401450067
 20
14.5473944715
 30
0.0
 10
25.7557114033
 20
14.5473798598
 30
0.0
  0
SPLINE
  5
678
100
AcDbEntity
  8
0
100
AcDbSpline
 62
7
  6
CONTINUOUS
 70
0
 71
3
 72
15
 73
11
 74
0
 42
0.0000001
 43
0.0000001
 44
0.0000000001
 40
0.0
 40
0.0
 40
0.0
 40
0.0
 40
0.1883787884
 40
0.3480491009
 40
0.4560037776
 40
0.5000002447
 40
0.5439965438
 40
0.6519510545
 40
0.8116212535
 40
1.0
 40
1.0
 40
1.0
 40
1.0
 10
21.8869324802
 20
14.547380936
 30
0.0
 10
21.9024553436
 20
14.5474080647
 30
0.0
 10
21.9305785127
 20
14.5477312211
 30
0.0
 10
21.9700491841
 20
14.5519448004
 30
0.0
 10
21.9914310751
 20
14.5532199249
 30
0.0
 10
22.0131134726
 20
14.5626631707
 30
0.0
 10
21.9914311517
 20
14.5721064699
 30
0.0
 10
21.9700492601
 20
14.5733815661
 30
0.0
 10
21.9305786321
 20
14.5775951658
 30
0.0
 10
21.9024554716
 20
14.5779183208
 30
0.0
 10
21.8869326116
 20
14.5779454515
 30
0.0
  0
SPLINE
  5
679
100
AcDbEntity
  8
0
100
AcDbSpline
 62
7
  6
CONTINUOUS
 70
0
 71
3
 72
15
 73
11
 74
0
 42
0.0000001
 43
0.0000001
 44
0.0000000001
 40
0.0
 40
0.0
 40
0.0
 40
0.0
 40
0.1883787465
 40
0.3480489455
 40
0.4560034562
 40
0.4999997553
 40
0.5439962224
 40
0.6519508991
 40
0.8116212116
 40
1.0
 40
1.0
 40
1.0
 40
1.0
 10
21.7392946862
 20
14.5779454515
 30
0.0
 10
21.7237718263
 20
14.5779183208
 30
0.0
 10
21.6956486657
 20
14.5775951658
 30
0.0
 10
21.6561780377
 20
14.5733815661
 30
0.0
 10
21.6347961461
 20
14.5721064699
 30
0.0
 10
21.6131138252
 20
14.5626631707
 30
0.0
 10
21.6347962227
 20
14.5532199249
 30
0.0
 10
21.6561781137
 20
14.5519448004
 30
0.0
 10
21.6956487851
 20
14.5477312211
 30
0.0
 10
21.7237719542
 20
14.5474080647
 30
0.0
 10
21.7392948176
 20
14.547380936
 30
0.0
  0
SPLINE
  5
67A
100
AcDbEntity
  8
0
100
AcDbSpline
 62
7
  6
CONTINUOUS
 70
0
 71
3
 72
15
 73
11
 74
0
 42
0.0000001
 43
0.0000001
 44
0.0000000001
 40
0.0
 40
0.0
 40
0.0
 40
0.0
 40
0.0440536589
 40
0.1522871775
 40
0.3120892182
 40
0.5
 40
0.6879107818
 40
0.8477128225
 40
0.9559463411
 40
1.0
 40
1.0
 40
1.0
 40
1.0
 10
14.0768931765
 20
13.4747440126
 30
0.0
 10
14.0768931765
 20
13.4776883495
 30
0.0
 10
14.0631857427
 20
13.4809262074
 30
0.0
 10
14.0458307399
 20
13.484157232
 30
0.0
 10
14.0138689939
 20
13.4864324242
 30
0.0
 10
13.9784679796
 20
13.4872602432
 30
0.0
 10
13.9430669654
 20
13.4864324242
 30
0.0
 10
13.9111052193
 20
13.484157232
 30
0.0
 10
13.8937502165
 20
13.4809262074
 30
0.0
 10
13.8800427828
 20
13.4776883495
 30
0.0
 10
13.8800427828
 20
13.4747440126
 30
0.0
  0
SPLINE
  5
67B
100
AcDbEntity
  8
0
100
AcDbSpline
 62
7
  6
CONTINUOUS
 70
0
 71
3
 72
15
 73
11
 74
0
 42
0.0000001
 43
0.0000001
 44
0.0000000001
 40
0.0
 40
0.0
 40
0.0
 40
0.0
 40
0.0440536589
 40
0.1522871775
 40
0.3120892182
 40
0.5
 40
0.6879107818
 40
0.8477128225
 40
0.9559463411
 40
1.0
 40
1.0
 40
1.0
 40
1.0
 10
13.8800427828
 20
13.4747440126
 30
0.0
 10
13.8800427828
 20
13.4717996756
 30
0.0
 10
13.8937502165
 20
13.4685618177
 30
0.0
 10
13.9111052193
 20
13.4653307932
 30
0.0
 10
13.9430669654
 20
13.4630556009
 30
0.0
 10
13.9784679796
 20
13.4622277819
 30
0.0
 10
14.0138689939
 20
13.4630556009
 30
0.0
 10
14.0458307399
 20
13.4653307932
 30
0.0
 10
14.0631857427
 20
13.4685618177
 30
0.0
 10
14.0768931765
 20
13.4717996756
 30
0.0
 10
14.0768931765
 20
13.4747440126
 30
0.0
  0
SPLINE
  5
67C
100
AcDbEntity
  8
0
100
AcDbSpline
 62
7
  6
CONTINUOUS
 70
0
 71
3
 72
15
 73
11
 74
0
 42
0.0000001
 43
0.0000001
 44
0.0000000001
 40
0.0
 40
0.0
 40
0.0
 40
0.0
 40
0.0440536589
 40
0.1522871775
 40
0.3120892182
 40
0.5
 40
0.6879107818
 40
0.8477128225
 40
0.9559463411
 40
1.0
 40
1.0
 40
1.0
 40
1.0
 10
15.6123262473
 20
13.4307310963
 30
0.0
 10
15.6123262473
 20
13.4336754332
 30
0.0
 10
15.5986188136
 20
13.4369132911
 30
0.0
 10
15.5812638108
 20
13.4401443157
 30
0.0
 10
15.5493020647
 20
13.442419508
 30
0.0
 10
15.5139010505
 20
13.4432473269
 30
0.0
 10
15.4785000363
 20
13.442419508
 30
0.0
 10
15.4465382902
 20
13.4401443157
 30
0.0
 10
15.4291832874
 20
13.4369132911
 30
0.0
 10
15.4154758536
 20
13.4336754332
 30
0.0
 10
15.4154758536
 20
13.4307310963
 30
0.0
  0
SPLINE
  5
67D
100
AcDbEntity
  8
0
100
AcDbSpline
 62
7
  6
CONTINUOUS
 70
0
 71
3
 72
15
 73
11
 74
0
 42
0.0000001
 43
0.0000001
 44
0.0000000001
 40
0.0
 40
0.0
 40
0.0
 40
0.0
 40
0.0440536589
 40
0.1522871775
 40
0.3120892182
 40
0.5
 40
0.6879107818
 40
0.8477128225
 40
0.9559463411
 40
1.0
 40
1.0
 40
1.0
 40
1.0
 10
15.4154758536
 20
13.4307310963
 30
0.0
 10
15.4154758536
 20
13.4277867594
 30
0.0
 10
15.4291832874
 20
13.4245489015
 30
0.0
 10
15.4465382902
 20
13.4213178769
 30
0.0
 10
15.4785000363
 20
13.4190426847
 30
0.0
 10
15.5139010505
 20
13.4182148657
 30
0.0
 10
15.5493020647
 20
13.4190426847
 30
0.0
 10
15.5812638108
 20
13.4213178769
 30
0.0
 10
15.5986188136
 20
13.4245489015
 30
0.0
 10
15.6123262473
 20
13.4277867594
 30
0.0
 10
15.6123262473
 20
13.4307310963
 30
0.0
  0
SPLINE
  5
67E
100
AcDbEntity
  8
0
100
AcDbSpline
 62
7
  6
CONTINUOUS
 70
0
 71
3
 72
15
 73
11
 74
0
 42
0.0000001
 43
0.0000001
 44
0.0000000001
 40
0.0
 40
0.0
 40
0.0
 40
0.0
 40
0.0440536589
 40
0.1522871775
 40
0.3120892182
 40
0.5
 40
0.6879107818
 40
0.8477128225
 40
0.9559463411
 40
1.0
 40
1.0
 40
1.0
 40
1.0
 10
15.2186254599
 20
13.7632731301
 30
0.0
 10
15.2186254599
 20
13.766217467
 30
0.0
 10
15.2049180262
 20
13.7694553249
 30
0.0
 10
15.1875630234
 20
13.7726863495
 30
0.0
 10
15.1556012773
 20
13.7749615418
 30
0.0
 10
15.1202002631
 20
13.7757893607
 30
0.0
 10
15.0847992489
 20
13.7749615418
 30
0.0
 10
15.0528375028
 20
13.7726863495
 30
0.0
 10
15.0354825
 20
13.7694553249
 30
0.0
 10
15.0217750662
 20
13.766217467
 30
0.0
 10
15.0217750662
 20
13.7632731301
 30
0.0
  0
SPLINE
  5
67F
100
AcDbEntity
  8
0
100
AcDbSpline
 62
7
  6
CONTINUOUS
 70
0
 71
3
 72
15
 73
11
 74
0
 42
0.0000001
 43
0.0000001
 44
0.0000000001
 40
0.0
 40
0.0
 40
0.0
 40
0.0
 40
0.0440536589
 40
0.1522871775
 40
0.3120892182
 40
0.5
 40
0.6879107818
 40
0.8477128225
 40
0.9559463411
 40
1.0
 40
1.0
 40
1.0
 40
1.0
 10
15.0217750662
 20
13.7632731301
 30
0.0
 10
15.0217750662
 20
13.7603287932
 30
0.0
 10
15.0354825
 20
13.7570909353
 30
0.0
 10
15.0528375028
 20
13.7538599107
 30
0.0
 10
15.0847992489
 20
13.7515847184
 30
0.0
 10
15.1202002631
 20
13.7507568995
 30
0.0
 10
15.1556012773
 20
13.7515847184
 30
0.0
 10
15.1875630234
 20
13.7538599107
 30
0.0
 10
15.2049180262
 20
13.7570909353
 30
0.0
 10
15.2186254599
 20
13.7603287932
 30
0.0
 10
15.2186254599
 20
13.7632731301
 30
0.0
  0
SPLINE
  5
680
100
AcDbEntity
  8
0
100
AcDbSpline
 62
7
  6
CONTINUOUS
 70
0
 71
3
 72
15
 73
11
 74
0
 42
0.0000001
 43
0.0000001
 44
0.0000000001
 40
0.0
 40
0.0
 40
0.0
 40
0.0
 40
0.0440536589
 40
0.1522871775
 40
0.3120892182
 40
0.5
 40
0.6879107818
 40
0.8477128225
 40
0.9559463411
 40
1.0
 40
1.0
 40
1.0
 40
1.0
 10
14.0768931765
 20
13.9637764152
 30
0.0
 10
14.0768931765
 20
13.9667207521
 30
0.0
 10
14.0631857427
 20
13.96995861
 30
0.0
 10
14.0458307399
 20
13.9731896346
 30
0.0
 10
14.0138689939
 20
13.9754648268
 30
0.0
 10
13.9784679796
 20
13.9762926458
 30
0.0
 10
13.9430669654
 20
13.9754648268
 30
0.0
 10
13.9111052193
 20
13.9731896346
 30
0.0
 10
13.8937502165
 20
13.96995861
 30
0.0
 10
13.8800427828
 20
13.9667207521
 30
0.0
 10
13.8800427828
 20
13.9637764152
 30
0.0
  0
SPLINE
  5
681
100
AcDbEntity
  8
0
100
AcDbSpline
 62
7
  6
CONTINUOUS
 70
0
 71
3
 72
15
 73
11
 74
0
 42
0.0000001
 43
0.0000001
 44
0.0000000001
 40
0.0
 40
0.0
 40
0.0
 40
0.0
 40
0.0440536589
 40
0.1522871775
 40
0.3120892182
 40
0.5
 40
0.6879107818
 40
0.8477128225
 40
0.9559463411
 40
1.0
 40
1.0
 40
1.0
 40
1.0
 10
13.8800427828
 20
13.9637764152
 30
0.0
 10
13.8800427828
 20
13.9608320782
 30
0.0
 10
13.8937502165
 20
13.9575942203
 30
0.0
 10
13.9111052193
 20
13.9543631958
 30
0.0
 10
13.9430669654
 20
13.9520880035
 30
0.0
 10
13.9784679796
 20
13.9512601845
 30
0.0
 10
14.0138689939
 20
13.9520880035
 30
0.0
 10
14.0458307399
 20
13.9543631958
 30
0.0
 10
14.0631857427
 20
13.9575942203
 30
0.0
 10
14.0768931765
 20
13.9608320782
 30
0.0
 10
14.0768931765
 20
13.9637764152
 30
0.0
  0
SPLINE
  5
682
100
AcDbEntity
  8
0
100
AcDbSpline
 62
7
  6
CONTINUOUS
 70
0
 71
3
 72
15
 73
11
 74
0
 42
0.0000001
 43
0.0000001
 44
0.0000000001
 40
0.0
 40
0.0
 40
0.0
 40
0.0
 40
0.0440536589
 40
0.1522871775
 40
0.3120892182
 40
0.5
 40
0.6879107818
 40
0.8477128225
 40
0.9559463411
 40
1.0
 40
1.0
 40
1.0
 40
1.0
 10
24.5493341214
 20
13.4747440126
 30
0.0
 10
24.5493341214
 20
13.4776883495
 30
0.0
 10
24.5356266876
 20
13.4809262074
 30
0.0
 10
24.5182716848
 20
13.484157232
 30
0.0
 10
24.4863099387
 20
13.4864324242
 30
0.0
 10
24.4509089245
 20
13.4872602432
 30
0.0
 10
24.4155079103
 20
13.4864324242
 30
0.0
 10
24.3835461642
 20
13.484157232
 30
0.0
 10
24.3661911614
 20
13.4809262074
 30
0.0
 10
24.3524837277
 20
13.4776883495
 30
0.0
 10
24.3524837277
 20
13.4747440126
 30
0.0
  0
SPLINE
  5
683
100
AcDbEntity
  8
0
100
AcDbSpline
 62
7
  6
CONTINUOUS
 70
0
 71
3
 72
15
 73
11
 74
0
 42
0.0000001
 43
0.0000001
 44
0.0000000001
 40
0.0
 40
0.0
 40
0.0
 40
0.0
 40
0.0440536589
 40
0.1522871775
 40
0.3120892182
 40
0.5
 40
0.6879107818
 40
0.8477128225
 40
0.9559463411
 40
1.0
 40
1.0
 40
1.0
 40
1.0
 10
24.3524837277
 20
13.4747440126
 30
0.0
 10
24.3524837277
 20
13.4717996756
 30
0.0
 10
24.3661911614
 20
13.4685618177
 30
0.0
 10
24.3835461642
 20
13.4653307932
 30
0.0
 10
24.4155079103
 20
13.4630556009
 30
0.0
 10
24.4509089245
 20
13.4622277819
 30
0.0
 10
24.4863099387
 20
13.4630556009
 30
0.0
 10
24.5182716848
 20
13.4653307932
 30
0.0
 10
24.5356266876
 20
13.4685618177
 30
0.0
 10
24.5493341214
 20
13.4717996756
 30
0.0
 10
24.5493341214
 20
13.4747440126
 30
0.0
  0
SPLINE
  5
684
100
AcDbEntity
  8
0
100
AcDbSpline
 62
7
  6
CONTINUOUS
 70
0
 71
3
 72
15
 73
11
 74
0
 42
0.0000001
 43
0.0000001
 44
0.0000000001
 40
0.0
 40
0.0
 40
0.0
 40
0.0
 40
0.0440536589
 40
0.1522871775
 40
0.3120892182
 40
0.5
 40
0.6879107818
 40
0.8477128225
 40
0.9559463411
 40
1.0
 40
1.0
 40
1.0
 40
1.0
 10
23.0139010505
 20
13.4307310963
 30
0.0
 10
23.0139010505
 20
13.4336754332
 30
0.0
 10
23.0001936167
 20
13.4369132911
 30
0.0
 10
22.9828386139
 20
13.4401443157
 30
0.0
 10
22.9508768679
 20
13.442419508
 30
0.0
 10
22.9154758536
 20
13.4432473269
 30
0.0
 10
22.8800748394
 20
13.442419508
 30
0.0
 10
22.8481130934
 20
13.4401443157
 30
0.0
 10
22.8307580906
 20
13.4369132911
 30
0.0
 10
22.8170506568
 20
13.4336754332
 30
0.0
 10
22.8170506568
 20
13.4307310963
 30
0.0
  0
SPLINE
  5
685
100
AcDbEntity
  8
0
100
AcDbSpline
 62
7
  6
CONTINUOUS
 70
0
 71
3
 72
15
 73
11
 74
0
 42
0.0000001
 43
0.0000001
 44
0.0000000001
 40
0.0
 40
0.0
 40
0.0
 40
0.0
 40
0.0440536589
 40
0.1522871775
 40
0.3120892182
 40
0.5
 40
0.6879107818
 40
0.8477128225
 40
0.9559463411
 40
1.0
 40
1.0
 40
1.0
 40
1.0
 10
22.8170506568
 20
13.4307310963
 30
0.0
 10
22.8170506568
 20
13.4277867594
 30
0.0
 10
22.8307580906
 20
13.4245489015
 30
0.0
 10
22.8481130934
 20
13.4213178769
 30
0.0
 10
22.8800748394
 20
13.4190426847
 30
0.0
 10
22.9154758536
 20
13.4182148657
 30
0.0
 10
22.9508768679
 20
13.4190426847
 30
0.0
 10
22.9828386139
 20
13.4213178769
 30
0.0
 10
23.0001936167
 20
13.4245489015
 30
0.0
 10
23.0139010505
 20
13.4277867594
 30
0.0
 10
23.0139010505
 20
13.4307310963
 30
0.0
  0
SPLINE
  5
686
100
AcDbEntity
  8
0
100
AcDbSpline
 62
7
  6
CONTINUOUS
 70
0
 71
3
 72
15
 73
11
 74
0
 42
0.0000001
 43
0.0000001
 44
0.0000000001
 40
0.0
 40
0.0
 40
0.0
 40
0.0
 40
0.0440536589
 40
0.1522871775
 40
0.3120892182
 40
0.5
 40
0.6879107818
 40
0.8477128225
 40
0.9559463411
 40
1.0
 40
1.0
 40
1.0
 40
1.0
 10
23.4076018379
 20
13.7632731301
 30
0.0
 10
23.4076018379
 20
13.766217467
 30
0.0
 10
23.3938944041
 20
13.7694553249
 30
0.0
 10
23.3765394013
 20
13.7726863495
 30
0.0
 10
23.3445776553
 20
13.7749615418
 30
0.0
 10
23.309176641
 20
13.7757893607
 30
0.0
 10
23.2737756268
 20
13.7749615418
 30
0.0
 10
23.2418138808
 20
13.7726863495
 30
0.0
 10
23.224458878
 20
13.7694553249
 30
0.0
 10
23.2107514442
 20
13.766217467
 30
0.0
 10
23.2107514442
 20
13.7632731301
 30
0.0
  0
SPLINE
  5
687
100
AcDbEntity
  8
0
100
AcDbSpline
 62
7
  6
CONTINUOUS
 70
0
 71
3
 72
15
 73
11
 74
0
 42
0.0000001
 43
0.0000001
 44
0.0000000001
 40
0.0
 40
0.0
 40
0.0
 40
0.0
 40
0.0440536589
 40
0.1522871775
 40
0.3120892182
 40
0.5
 40
0.6879107818
 40
0.8477128225
 40
0.9559463411
 40
1.0
 40
1.0
 40
1.0
 40
1.0
 10
23.2107514442
 20
13.7632731301
 30
0.0
 10
23.2107514442
 20
13.7603287932
 30
0.0
 10
23.224458878
 20
13.7570909353
 30
0.0
 10
23.2418138808
 20
13.7538599107
 30
0.0
 10
23.2737756268
 20
13.7515847184
 30
0.0
 10
23.309176641
 20
13.7507568995
 30
0.0
 10
23.3445776553
 20
13.7515847184
 30
0.0
 10
23.3765394013
 20
13.7538599107
 30
0.0
 10
23.3938944041
 20
13.7570909353
 30
0.0
 10
23.4076018379
 20
13.7603287932
 30
0.0
 10
23.4076018379
 20
13.7632731301
 30
0.0
  0
SPLINE
  5
688
100
AcDbEntity
  8
0
100
AcDbSpline
 62
7
  6
CONTINUOUS
 70
0
 71
3
 72
15
 73
11
 74
0
 42
0.0000001
 43
0.0000001
 44
0.0000000001
 40
0.0
 40
0.0
 40
0.0
 40
0.0
 40
0.0440536589
 40
0.1522871775
 40
0.3120892182
 40
0.5
 40
0.6879107818
 40
0.8477128225
 40
0.9559463411
 40
1.0
 40
1.0
 40
1.0
 40
1.0
 10
24.5493341214
 20
13.9637764152
 30
0.0
 10
24.5493341214
 20
13.9667207521
 30
0.0
 10
24.5356266876
 20
13.96995861
 30
0.0
 10
24.5182716848
 20
13.9731896346
 30
0.0
 10
24.4863099387
 20
13.9754648268
 30
0.0
 10
24.4509089245
 20
13.9762926458
 30
0.0
 10
24.4155079103
 20
13.9754648268
 30
0.0
 10
24.3835461642
 20
13.9731896346
 30
0.0
 10
24.3661911614
 20
13.96995861
 30
0.0
 10
24.3524837277
 20
13.9667207521
 30
0.0
 10
24.3524837277
 20
13.9637764152
 30
0.0
  0
SPLINE
  5
689
100
AcDbEntity
  8
0
100
AcDbSpline
 62
7
  6
CONTINUOUS
 70
0
 71
3
 72
15
 73
11
 74
0
 42
0.0000001
 43
0.0000001
 44
0.0000000001
 40
0.0
 40
0.0
 40
0.0
 40
0.0
 40
0.0440536589
 40
0.1522871775
 40
0.3120892182
 40
0.5
 40
0.6879107818
 40
0.8477128225
 40
0.9559463411
 40
1.0
 40
1.0
 40
1.0
 40
1.0
 10
24.3524837277
 20
13.9637764152
 30
0.0
 10
24.3524837277
 20
13.9608320782
 30
0.0
 10
24.3661911614
 20
13.9575942203
 30
0.0
 10
24.3835461642
 20
13.9543631958
 30
0.0
 10
24.4155079103
 20
13.9520880035
 30
0.0
 10
24.4509089245
 20
13.9512601845
 30
0.0
 10
24.4863099387
 20
13.9520880035
 30
0.0
 10
24.5182716848
 20
13.9543631958
 30
0.0
 10
24.5356266876
 20
13.9575942203
 30
0.0
 10
24.5493341214
 20
13.9608320782
 30
0.0
 10
24.5493341214
 20
13.9637764152
 30
0.0
  0
SPLINE
  5
68A
100
AcDbEntity
  8
0
100
AcDbSpline
 62
7
  6
CONTINUOUS
 70
0
 71
3
 72
15
 73
11
 74
0
 42
0.0000001
 43
0.0000001
 44
0.0000000001
 40
0.0
 40
0.0
 40
0.0
 40
0.0
 40
0.188403917
 40
0.348016889
 40
0.4558801655
 40
0.499804538
 40
0.5438629767
 40
0.6518587674
 40
0.8115624529
 40
1.0
 40
1.0
 40
1.0
 40
1.0
 10
12.5265917002
 20
14.5267696861
 30
0.0
 10
12.5110863739
 20
14.5267393137
 30
0.0
 10
12.4829994781
 20
14.5264133928
 30
0.0
 10
12.4435974643
 20
14.5221915269
 30
0.0
 10
12.4222425245
 20
14.5209258091
 30
0.0
 10
12.4006278653
 20
14.5114693614
 30
0.0
 10
12.4223036262
 20
14.5020553981
 30
0.0
 10
12.4436580738
 20
14.5007671303
 30
0.0
 10
12.4830947199
 20
14.4965615697
 30
0.0
 10
12.5111884306
 20
14.4962344817
 30
0.0
 10
12.5266965278
 20
14.4962057456
 30
0.0
  0
SPLINE
  5
68B
100
AcDbEntity
  8
0
100
AcDbSpline
 62
7
  6
CONTINUOUS
 70
0
 71
3
 72
15
 73
11
 74
0
 42
0.0000001
 43
0.0000001
 44
0.0000000001
 40
0.0
 40
0.0
 40
0.0
 40
0.0
 40
0.1884578117
 40
0.3485850131
 40
0.4572239092
 40
0.5018772616
 40
0.5452395111
 40
0.652603988
 40
0.8118609854
 40
1.0
 40
1.0
 40
1.0
 40
1.0
 10
12.6736655008
 20
14.4962044817
 30
0.0
 10
12.6892318975
 20
14.4962190934
 30
0.0
 10
12.7174498962
 20
14.4965414086
 30
0.0
 10
12.7571829282
 20
14.5006760335
 30
0.0
 10
12.7786154881
 20
14.5020567988
 30
0.0
 10
12.800660885
 20
14.5113097955
 30
0.0
 10
12.7792055394
 20
14.5209730123
 30
0.0
 10
12.7577680032
 20
14.5221359817
 30
0.0
 10
12.7183686272
 20
14.5264281185
 30
0.0
 10
12.6902158835
 20
14.5267392457
 30
0.0
 10
12.6746758421
 20
14.5267696861
 30
0.0
  0
SPLINE
  5
68C
100
AcDbEntity
  8
0
100
AcDbSpline
 62
7
  6
CONTINUOUS
 70
0
 71
3
 72
15
 73
11
 74
0
 42
0.0000001
 43
0.0000001
 44
0.0000000001
 40
0.0
 40
0.0
 40
0.0
 40
0.0
 40
0.1883787465
 40
0.3480489455
 40
0.4560034562
 40
0.4999997553
 40
0.5439962224
 40
0.6519508991
 40
0.8116212116
 40
1.0
 40
1.0
 40
1.0
 40
1.0
 10
16.5424442925
 20
14.5267700734
 30
0.0
 10
16.5269214326
 20
14.5267429427
 30
0.0
 10
16.498798272
 20
14.5264197877
 30
0.0
 10
16.459327644
 20
14.5222061879
 30
0.0
 10
16.4379457524
 20
14.5209310918
 30
0.0
 10
16.4162634315
 20
14.5114877926
 30
0.0
 10
16.437945829
 20
14.5020445467
 30
0.0
 10
16.4593277201
 20
14.5007694223
 30
0.0
 10
16.4987983915
 20
14.496555843
 30
0.0
 10
16.5269215605
 20
14.4962326866
 30
0.0
 10
16.5424444239
 20
14.4962055579
 30
0.0
  0
SPLINE
  5
68D
100
AcDbEntity
  8
0
100
AcDbSpline
 62
7
  6
CONTINUOUS
 70
0
 71
3
 72
15
 73
11
 74
0
 42
0.0000001
 43
0.0000001
 44
0.0000000001
 40
0.0
 40
0.0
 40
0.0
 40
0.0
 40
0.1883787884
 40
0.3480491009
 40
0.4560037776
 40
0.5000002447
 40
0.5439965438
 40
0.6519510545
 40
0.8116212535
 40
1.0
 40
1.0
 40
1.0
 40
1.0
 10
16.6900820865
 20
14.4962055579
 30
0.0
 10
16.7056049499
 20
14.4962326866
 30
0.0
 10
16.733728119
 20
14.496555843
 30
0.0
 10
16.7731987904
 20
14.5007694223
 30
0.0
 10
16.7945806814
 20
14.5020445467
 30
0.0
 10
16.8162630789
 20
14.5114877926
 30
0.0
 10
16.794580758
 20
14.5209310918
 30
0.0
 10
16.7731988664
 20
14.5222061879
 30
0.0
 10
16.7337282384
 20
14.5264197877
 30
0.0
 10
16.7056050779
 20
14.5267429427
 30
0.0
 10
16.6900822179
 20
14.5267700734
 30
0.0
  0
SPLINE
  5
68E
100
AcDbEntity
  8
0
100
AcDbSpline
 62
7
  6
CONTINUOUS
 70
0
 71
3
 72
15
 73
11
 74
0
 42
0.0000001
 43
0.0000001
 44
0.0000000001
 40
0.0
 40
0.0
 40
0.0
 40
0.0
 40
0.1881390146
 40
0.347396012
 40
0.4547604889
 40
0.4981227384
 40
0.5427760908
 40
0.6514149869
 40
0.8115421883
 40
1.0
 40
1.0
 40
1.0
 40
1.0
 10
25.754701062
 20
14.5267696861
 30
0.0
 10
25.7391610206
 20
14.5267392457
 30
0.0
 10
25.7110082769
 20
14.5264281185
 30
0.0
 10
25.671608901
 20
14.5221359817
 30
0.0
 10
25.6501713648
 20
14.5209730123
 30
0.0
 10
25.6287160192
 20
14.5113097955
 30
0.0
 10
25.650761416
 20
14.5020567988
 30
0.0
 10
25.6721939759
 20
14.5006760335
 30
0.0
 10
25.711927008
 20
14.4965414086
 30
0.0
 10
25.7401450067
 20
14.4962190934
 30
0.0
 10
25.7557114033
 20
14.4962044817
 30
0.0
  0
SPLINE
  5
68F
100
AcDbEntity
  8
0
100
AcDbSpline
 62
7
  6
CONTINUOUS
 70
0
 71
3
 72
15
 73
11
 74
0
 42
0.0000001
 43
0.0000001
 44
0.0000000001
 40
0.0
 40
0.0
 40
0.0
 40
0.0
 40
0.1884375471
 40
0.3481412326
 40
0.4561370233
 40
0.500195462
 40
0.5441198345
 40
0.651983111
 40
0.811596083
 40
1.0
 40
1.0
 40
1.0
 40
1.0
 10
25.9026803763
 20
14.4962057456
 30
0.0
 10
25.9181884735
 20
14.4962344817
 30
0.0
 10
25.9462821842
 20
14.4965615697
 30
0.0
 10
25.9857188303
 20
14.5007671303
 30
0.0
 10
26.0070732779
 20
14.5020553981
 30
0.0
 10
26.0287490389
 20
14.5114693614
 30
0.0
 10
26.0071343796
 20
14.5209258091
 30
0.0
 10
25.9857794398
 20
14.5221915269
 30
0.0
 10
25.946377426
 20
14.5264133928
 30
0.0
 10
25.9182905302
 20
14.5267393137
 30
0.0
 10
25.9027852039
 20
14.5267696861
 30
0.0
  0
SPLINE
  5
690
100
AcDbEntity
  8
0
100
AcDbSpline
 62
7
  6
CONTINUOUS
 70
0
 71
3
 72
15
 73
11
 74
0
 42
0.0000001
 43
0.0000001
 44
0.0000000001
 40
0.0
 40
0.0
 40
0.0
 40
0.0
 40
0.1883787465
 40
0.3480489455
 40
0.4560034562
 40
0.4999997553
 40
0.5439962224
 40
0.6519508991
 40
0.8116212116
 40
1.0
 40
1.0
 40
1.0
 40
1.0
 10
21.7392946862
 20
14.5267700734
 30
0.0
 10
21.7237718263
 20
14.5267429427
 30
0.0
 10
21.6956486657
 20
14.5264197877
 30
0.0
 10
21.6561780377
 20
14.5222061879
 30
0.0
 10
21.6347961461
 20
14.5209310918
 30
0.0
 10
21.6131138252
 20
14.5114877926
 30
0.0
 10
21.6347962227
 20
14.5020445467
 30
0.0
 10
21.6561781137
 20
14.5007694223
 30
0.0
 10
21.6956487851
 20
14.496555843
 30
0.0
 10
21.7237719542
 20
14.4962326866
 30
0.0
 10
21.7392948176
 20
14.4962055579
 30
0.0
  0
SPLINE
  5
691
100
AcDbEntity
  8
0
100
AcDbSpline
 62
7
  6
CONTINUOUS
 70
0
 71
3
 72
15
 73
11
 74
0
 42
0.0000001
 43
0.0000001
 44
0.0000000001
 40
0.0
 40
0.0
 40
0.0
 40
0.0
 40
0.1883787884
 40
0.3480491009
 40
0.4560037776
 40
0.5000002447
 40
0.5439965438
 40
0.6519510545
 40
0.8116212535
 40
1.0
 40
1.0
 40
1.0
 40
1.0
 10
21.8869324802
 20
14.4962055579
 30
0.0
 10
21.9024553436
 20
14.4962326866
 30
0.0
 10
21.9305785127
 20
14.496555843
 30
0.0
 10
21.9700491841
 20
14.5007694223
 30
0.0
 10
21.9914310751
 20
14.5020445467
 30
0.0
 10
22.0131134726
 20
14.5114877926
 30
0.0
 10
21.9914311517
 20
14.5209310918
 30
0.0
 10
21.9700492601
 20
14.5222061879
 30
0.0
 10
21.9305786321
 20
14.5264197877
 30
0.0
 10
21.9024554716
 20
14.5267429427
 30
0.0
 10
21.8869326116
 20
14.5267700734
 30
0.0
  0
SPLINE
  5
692
100
AcDbEntity
  8
DEFAULT_2
100
AcDbSpline
 62
8
  6
HIDDEN
 70
0
 71
3
 72
9
 73
5
 74
0
 42
0.0000001
 43
0.0000001
 44
0.0000000001
 40
0.0
 40
0.0
 40
0.0
 40
0.0
 40
0.4985695651
 40
1.0
 40
1.0
 40
1.0
 40
1.0
 10
57.5625805988
 20
35.5338824006
 30
0.0
 10
57.5935156049
 20
35.5300098413
 30
0.0
 10
57.6613870554
 20
35.5481854356
 30
0.0
 10
57.6950999455
 20
35.6096738073
 30
0.0
 10
57.6989947261
 20
35.6407863233
 30
0.0
  0
SPLINE
  5
693
100
AcDbEntity
  8
DEFAULT_2
100
AcDbSpline
 62
8
  6
HIDDEN
 70
0
 71
3
 72
9
 73
5
 74
0
 42
0.0000001
 43
0.0000001
 44
0.0000000001
 40
0.0
 40
0.0
 40
0.0
 40
0.0
 40
0.4985695651
 40
1.0
 40
1.0
 40
1.0
 40
1.0
 10
52.3935837675
 20
36.1809566796
 30
0.0
 10
52.4245187736
 20
36.1770841203
 30
0.0
 10
52.4923902242
 20
36.1952597146
 30
0.0
 10
52.5261031142
 20
36.2567480863
 30
0.0
 10
52.5299978949
 20
36.2878606023
 30
0.0
  0
SPLINE
  5
694
100
AcDbEntity
  8
DEFAULT_2
100
AcDbSpline
 62
8
  6
HIDDEN
 70
0
 71
3
 72
9
 73
5
 74
0
 42
0.0000001
 43
0.0000001
 44
0.0000000001
 40
0.0
 40
0.0
 40
0.0
 40
0.0
 40
0.4985695651
 40
1.0
 40
1.0
 40
1.0
 40
1.0
 10
47.2245869363
 20
36.8280309587
 30
0.0
 10
47.2555219424
 20
36.8241583994
 30
0.0
 10
47.3233933929
 20
36.8423339936
 30
0.0
 10
47.357106283
 20
36.9038223653
 30
0.0
 10
47.3610010636
 20
36.9349348813
 30
0.0
  0
SPLINE
  5
695
100
AcDbEntity
  8
DEFAULT_2
100
AcDbSpline
 62
8
  6
HIDDEN
 70
0
 71
3
 72
9
 73
5
 74
0
 42
0.0000001
 43
0.0000001
 44
0.0000000001
 40
0.0
 40
0.0
 40
0.0
 40
0.0
 40
0.4985695651
 40
1.0
 40
1.0
 40
1.0
 40
1.0
 10
55.2807554082
 20
17.3060721449
 30
0.0
 10
55.3116904143
 20
17.3021995856
 30
0.0
 10
55.3795618649
 20
17.3203751798
 30
0.0
 10
55.4132747549
 20
17.3818635515
 30
0.0
 10
55.4171695356
 20
17.4129760675
 30
0.0
  0
SPLINE
  5
696
100
AcDbEntity
  8
DEFAULT_2
100
AcDbSpline
 62
8
  6
HIDDEN
 70
0
 71
3
 72
9
 73
5
 74
0
 42
0.0000001
 43
0.0000001
 44
0.0000000001
 40
0.0
 40
0.0
 40
0.0
 40
0.0
 40
0.4985695651
 40
1.0
 40
1.0
 40
1.0
 40
1.0
 10
50.111758577
 20
17.9531464239
 30
0.0
 10
50.1426935831
 20
17.9492738646
 30
0.0
 10
50.2105650336
 20
17.9674494588
 30
0.0
 10
50.2442779237
 20
18.0289378306
 30
0.0
 10
50.2481727043
 20
18.0600503466
 30
0.0
  0
SPLINE
  5
697
100
AcDbEntity
  8
DEFAULT_2
100
AcDbSpline
 62
8
  6
HIDDEN
 70
0
 71
3
 72
9
 73
5
 74
0
 42
0.0000001
 43
0.0000001
 44
0.0000000001
 40
0.0
 40
0.0
 40
0.0
 40
0.0
 40
0.4985695651
 40
1.0
 40
1.0
 40
1.0
 40
1.0
 10
44.9427617457
 20
18.6002207029
 30
0.0
 10
44.9736967518
 20
18.5963481436
 30
0.0
 10
45.0415682023
 20
18.6145237379
 30
0.0
 10
45.0752810924
 20
18.6760121096
 30
0.0
 10
45.0791758731
 20
18.7071246256
 30
0.0
  0
SPLINE
  5
698
100
AcDbEntity
  8
DEFAULT_2
100
AcDbSpline
 62
8
  6
HIDDEN
 70
0
 71
3
 72
9
 73
5
 74
0
 42
0.0000001
 43
0.0000001
 44
0.0000000001
 40
0.0
 40
0.0
 40
0.0
 40
0.0
 40
0.5014304349
 40
1.0
 40
1.0
 40
1.0
 40
1.0
 10
55.4355082507
 20
17.5594704706
 30
0.0
 10
55.4394030313
 20
17.5905829866
 30
0.0
 10
55.421887625
 20
17.6584843073
 30
0.0
 10
55.360590941
 20
17.6928296498
 30
0.0
 10
55.3296559348
 20
17.6967022091
 30
0.0
  0
SPLINE
  5
699
100
AcDbEntity
  8
DEFAULT_2
100
AcDbSpline
 62
8
  6
HIDDEN
 70
0
 71
3
 72
9
 73
5
 74
0
 42
0.0000001
 43
0.0000001
 44
0.0000000001
 40
0.0
 40
0.0
 40
0.0
 40
0.0
 40
0.5014304349
 40
1.0
 40
1.0
 40
1.0
 40
1.0
 10
50.2665114194
 20
18.2065447496
 30
0.0
 10
50.2704062001
 20
18.2376572656
 30
0.0
 10
50.2528907937
 20
18.3055585863
 30
0.0
 10
50.1915941097
 20
18.3399039288
 30
0.0
 10
50.1606591036
 20
18.3437764881
 30
0.0
  0
SPLINE
  5
69A
100
AcDbEntity
  8
DEFAULT_2
100
AcDbSpline
 62
8
  6
HIDDEN
 70
0
 71
3
 72
9
 73
5
 74
0
 42
0.0000001
 43
0.0000001
 44
0.0000000001
 40
0.0
 40
0.0
 40
0.0
 40
0.0
 40
0.5014304349
 40
1.0
 40
1.0
 40
1.0
 40
1.0
 10
45.0975145881
 20
18.8536190286
 30
0.0
 10
45.1014093688
 20
18.8847315446
 30
0.0
 10
45.0838939625
 20
18.9526328653
 30
0.0
 10
45.0225972784
 20
18.9869782078
 30
0.0
 10
44.9916622723
 20
18.9908507671
 30
0.0
  0
SPLINE
  5
69B
100
AcDbEntity
  8
DEFAULT_2
100
AcDbSpline
 62
8
  6
HIDDEN
 70
0
 71
3
 72
9
 73
5
 74
0
 42
0.0000001
 43
0.0000001
 44
0.0000000001
 40
0.0
 40
0.0
 40
0.0
 40
0.0
 40
0.5014304349
 40
1.0
 40
1.0
 40
1.0
 40
1.0
 10
57.7173334412
 20
35.7872807263
 30
0.0
 10
57.7212282219
 20
35.8183932423
 30
0.0
 10
57.7037128155
 20
35.886294563
 30
0.0
 10
57.6424161315
 20
35.9206399055
 30
0.0
 10
57.6114811254
 20
35.9245124648
 30
0.0
  0
SPLINE
  5
69C
100
AcDbEntity
  8
DEFAULT_2
100
AcDbSpline
 62
8
  6
HIDDEN
 70
0
 71
3
 72
9
 73
5
 74
0
 42
0.0000001
 43
0.0000001
 44
0.0000000001
 40
0.0
 40
0.0
 40
0.0
 40
0.0
 40
0.5014304349
 40
1.0
 40
1.0
 40
1.0
 40
1.0
 10
52.54833661
 20
36.4343550053
 30
0.0
 10
52.5522313906
 20
36.4654675213
 30
0.0
 10
52.5347159843
 20
36.533368842
 30
0.0
 10
52.4734193003
 20
36.5677141845
 30
0.0
 10
52.4424842941
 20
36.5715867438
 30
0.0
  0
SPLINE
  5
69D
100
AcDbEntity
  8
DEFAULT_2
100
AcDbSpline
 62
8
  6
HIDDEN
 70
0
 71
3
 72
9
 73
5
 74
0
 42
0.0000001
 43
0.0000001
 44
0.0000000001
 40
0.0
 40
0.0
 40
0.0
 40
0.0
 40
0.5014304349
 40
1.0
 40
1.0
 40
1.0
 40
1.0
 10
47.3793397787
 20
37.0814292844
 30
0.0
 10
47.3832345594
 20
37.1125418004
 30
0.0
 10
47.365719153
 20
37.1804431211
 30
0.0
 10
47.304422469
 20
37.2147884636
 30
0.0
 10
47.2734874629
 20
37.2186610229
 30
0.0
  0
SPLINE
  5
69E
100
AcDbEntity
  8
0
100
AcDbSpline
 62
7
  6
CONTINUOUS
 70
0
 71
3
 72
8
 73
4
 74
0
 42
0.0000001
 43
0.0000001
 44
0.0000000001
 40
0.0
 40
0.0
 40
0.0
 40
0.0
 40
1.0
 40
1.0
 40
1.0
 40
1.0
 10
57.4936936834
 20
35.8690747927
 30
0.0
 10
57.4838582202
 20
35.8537085189
 30
0.0
 10
57.4773332141
 20
35.8357116626
 30
0.0
 10
57.4750669981
 20
35.8176085422
 30
0.0
  0
SPLINE
  5
69F
100
AcDbEntity
  8
0
100
AcDbSpline
 62
7
  6
CONTINUOUS
 70
0
 71
3
 72
9
 73
5
 74
0
 42
0.0000001
 43
0.0000001
 44
0.0000000001
 40
0.0
 40
0.0
 40
0.0
 40
0.0
 40
0.4985817307
 40
1.0
 40
1.0
 40
1.0
 40
1.0
 10
57.5594180976
 20
35.5343209317
 30
0.0
 10
57.5899535396
 20
35.5313124365
 30
0.0
 10
57.6561165111
 20
35.5504852513
 30
0.0
 10
57.6888050314
 20
35.6109632075
 30
0.0
 10
57.6926380159
 20
35.6415820799
 30
0.0
  0
SPLINE
  5
6A0
100
AcDbEntity
  8
0
100
AcDbSpline
 62
7
  6
CONTINUOUS
 70
0
 71
3
 72
8
 73
4
 74
0
 42
0.0000001
 43
0.0000001
 44
0.0000000001
 40
0.0
 40
0.0
 40
0.0
 40
0.0
 40
1.0
 40
1.0
 40
1.0
 40
1.0
 10
52.3246968521
 20
36.5161490717
 30
0.0
 10
52.314861389
 20
36.5007827979
 30
0.0
 10
52.3083363829
 20
36.4827859416
 30
0.0
 10
52.3060701668
 20
36.4646828212
 30
0.0
  0
SPLINE
  5
6A1
100
AcDbEntity
  8
0
100
AcDbSpline
 62
7
  6
CONTINUOUS
 70
0
 71
3
 72
9
 73
5
 74
0
 42
0.0000001
 43
0.0000001
 44
0.0000000001
 40
0.0
 40
0.0
 40
0.0
 40
0.0
 40
0.4985817307
 40
1.0
 40
1.0
 40
1.0
 40
1.0
 10
52.3904212664
 20
36.1813952107
 30
0.0
 10
52.4209567084
 20
36.1783867155
 30
0.0
 10
52.4871196799
 20
36.1975595303
 30
0.0
 10
52.5198082001
 20
36.2580374865
 30
0.0
 10
52.5236411847
 20
36.288656359
 30
0.0
  0
SPLINE
  5
6A2
100
AcDbEntity
  8
0
100
AcDbSpline
 62
7
  6
CONTINUOUS
 70
0
 71
3
 72
8
 73
4
 74
0
 42
0.0000001
 43
0.0000001
 44
0.0000000001
 40
0.0
 40
0.0
 40
0.0
 40
0.0
 40
1.0
 40
1.0
 40
1.0
 40
1.0
 10
47.1557000208
 20
37.1632233507
 30
0.0
 10
47.1458645577
 20
37.1478570769
 30
0.0
 10
47.1393395516
 20
37.1298602207
 30
0.0
 10
47.1370733355
 20
37.1117571002
 30
0.0
  0
SPLINE
  5
6A3
100
AcDbEntity
  8
0
100
AcDbSpline
 62
7
  6
CONTINUOUS
 70
0
 71
3
 72
9
 73
5
 74
0
 42
0.0000001
 43
0.0000001
 44
0.0000000001
 40
0.0
 40
0.0
 40
0.0
 40
0.0
 40
0.4985817307
 40
1.0
 40
1.0
 40
1.0
 40
1.0
 10
47.2214244351
 20
36.8284694897
 30
0.0
 10
47.2519598771
 20
36.8254609946
 30
0.0
 10
47.3181228486
 20
36.8446338093
 30
0.0
 10
47.3508113689
 20
36.9051117656
 30
0.0
 10
47.3546443534
 20
36.935730638
 30
0.0
  0
SPLINE
  5
6A4
100
AcDbEntity
  8
0
100
AcDbSpline
 62
7
  6
CONTINUOUS
 70
0
 71
3
 72
8
 73
4
 74
0
 42
0.0000001
 43
0.0000001
 44
0.0000000001
 40
0.0
 40
0.0
 40
0.0
 40
0.0
 40
1.0
 40
1.0
 40
1.0
 40
1.0
 10
55.2118684928
 20
17.6412645369
 30
0.0
 10
55.2020330297
 20
17.6258982631
 30
0.0
 10
55.1955080236
 20
17.6079014069
 30
0.0
 10
55.1932418075
 20
17.5897982864
 30
0.0
  0
SPLINE
  5
6A5
100
AcDbEntity
  8
0
100
AcDbSpline
 62
7
  6
CONTINUOUS
 70
0
 71
3
 72
9
 73
5
 74
0
 42
0.0000001
 43
0.0000001
 44
0.0000000001
 40
0.0
 40
0.0
 40
0.0
 40
0.0
 40
0.4985817307
 40
1.0
 40
1.0
 40
1.0
 40
1.0
 10
55.2775929071
 20
17.3065106759
 30
0.0
 10
55.3081283491
 20
17.3035021808
 30
0.0
 10
55.3742913206
 20
17.3226749955
 30
0.0
 10
55.4069798408
 20
17.3831529518
 30
0.0
 10
55.4108128254
 20
17.4137718242
 30
0.0
  0
SPLINE
  5
6A6
100
AcDbEntity
  8
0
100
AcDbSpline
 62
7
  6
CONTINUOUS
 70
0
 71
3
 72
8
 73
4
 74
0
 42
0.0000001
 43
0.0000001
 44
0.0000000001
 40
0.0
 40
0.0
 40
0.0
 40
0.0
 40
1.0
 40
1.0
 40
1.0
 40
1.0
 10
50.0428716615
 20
18.2883388159
 30
0.0
 10
50.0330361984
 20
18.2729725421
 30
0.0
 10
50.0265111923
 20
18.2549756859
 30
0.0
 10
50.0242449762
 20
18.2368725654
 30
0.0
  0
SPLINE
  5
6A7
100
AcDbEntity
  8
0
100
AcDbSpline
 62
7
  6
CONTINUOUS
 70
0
 71
3
 72
9
 73
5
 74
0
 42
0.0000001
 43
0.0000001
 44
0.0000000001
 40
0.0
 40
0.0
 40
0.0
 40
0.0
 40
0.4985817307
 40
1.0
 40
1.0
 40
1.0
 40
1.0
 10
50.1085960758
 20
17.953584955
 30
0.0
 10
50.1391315178
 20
17.9505764598
 30
0.0
 10
50.2052944893
 20
17.9697492746
 30
0.0
 10
50.2379830096
 20
18.0302272308
 30
0.0
 10
50.2418159941
 20
18.0608461032
 30
0.0
  0
SPLINE
  5
6A8
100
AcDbEntity
  8
0
100
AcDbSpline
 62
7
  6
CONTINUOUS
 70
0
 71
3
 72
8
 73
4
 74
0
 42
0.0000001
 43
0.0000001
 44
0.0000000001
 40
0.0
 40
0.0
 40
0.0
 40
0.0
 40
1.0
 40
1.0
 40
1.0
 40
1.0
 10
44.8738748303
 20
18.935413095
 30
0.0
 10
44.8640393672
 20
18.9200468212
 30
0.0
 10
44.857514361
 20
18.9020499649
 30
0.0
 10
44.855248145
 20
18.8839468445
 30
0.0
  0
SPLINE
  5
6A9
100
AcDbEntity
  8
0
100
AcDbSpline
 62
7
  6
CONTINUOUS
 70
0
 71
3
 72
9
 73
5
 74
0
 42
0.0000001
 43
0.0000001
 44
0.0000000001
 40
0.0
 40
0.0
 40
0.0
 40
0.0
 40
0.4985817307
 40
1.0
 40
1.0
 40
1.0
 40
1.0
 10
44.9395992446
 20
18.600659234
 30
0.0
 10
44.9701346866
 20
18.5976507388
 30
0.0
 10
45.0362976581
 20
18.6168235536
 30
0.0
 10
45.0689861783
 20
18.6773015098
 30
0.0
 10
45.0728191628
 20
18.7079203822
 30
0.0
  0
SPLINE
  5
6AA
100
AcDbEntity
  8
0
100
AcDbSpline
 62
7
  6
CONTINUOUS
 70
0
 71
3
 72
9
 73
5
 74
0
 42
0.0000001
 43
0.0000001
 44
0.0000000001
 40
0.0
 40
0.0
 40
0.0
 40
0.0
 40
0.5012669502
 40
1.0
 40
1.0
 40
1.0
 40
1.0
 10
55.1749030924
 20
17.4433038834
 30
0.0
 10
55.1715404233
 20
17.4164420118
 30
0.0
 10
55.1832629602
 20
17.3588801308
 30
0.0
 10
55.2288884349
 20
17.3217530219
 30
0.0
 10
55.254182532
 20
17.3124963603
 30
0.0
  0
SPLINE
  5
6AB
100
AcDbEntity
  8
0
100
AcDbSpline
 62
7
  6
CONTINUOUS
 70
0
 71
3
 72
9
 73
5
 74
0
 42
0.0000001
 43
0.0000001
 44
0.0000000001
 40
0.0
 40
0.0
 40
0.0
 40
0.0
 40
0.5012669502
 40
1.0
 40
1.0
 40
1.0
 40
1.0
 10
50.0059062611
 20
18.0903781624
 30
0.0
 10
50.002543592
 20
18.0635162909
 30
0.0
 10
50.0142661289
 20
18.0059544099
 30
0.0
 10
50.0598916037
 20
17.968827301
 30
0.0
 10
50.0851857008
 20
17.9595706393
 30
0.0
  0
SPLINE
  5
6AC
100
AcDbEntity
  8
0
100
AcDbSpline
 62
7
  6
CONTINUOUS
 70
0
 71
3
 72
9
 73
5
 74
0
 42
0.0000001
 43
0.0000001
 44
0.0000000001
 40
0.0
 40
0.0
 40
0.0
 40
0.0
 40
0.5012669502
 40
1.0
 40
1.0
 40
1.0
 40
1.0
 10
44.8369094299
 20
18.7374524414
 30
0.0
 10
44.8335467607
 20
18.7105905699
 30
0.0
 10
44.8452692977
 20
18.6530286889
 30
0.0
 10
44.8908947724
 20
18.61590158
 30
0.0
 10
44.9161888695
 20
18.6066449184
 30
0.0
  0
SPLINE
  5
6AD
100
AcDbEntity
  8
0
100
AcDbSpline
 62
7
  6
CONTINUOUS
 70
0
 71
3
 72
9
 73
5
 74
0
 42
0.0000001
 43
0.0000001
 44
0.0000000001
 40
0.0
 40
0.0
 40
0.0
 40
0.0
 40
0.5012669502
 40
1.0
 40
1.0
 40
1.0
 40
1.0
 10
57.456728283
 20
35.6711141391
 30
0.0
 10
57.4533656138
 20
35.6442522676
 30
0.0
 10
57.4650881508
 20
35.5866903866
 30
0.0
 10
57.5107136255
 20
35.5495632777
 30
0.0
 10
57.5360077226
 20
35.5403066161
 30
0.0
  0
SPLINE
  5
6AE
100
AcDbEntity
  8
0
100
AcDbSpline
 62
7
  6
CONTINUOUS
 70
0
 71
3
 72
9
 73
5
 74
0
 42
0.0000001
 43
0.0000001
 44
0.0000000001
 40
0.0
 40
0.0
 40
0.0
 40
0.0
 40
0.5012669502
 40
1.0
 40
1.0
 40
1.0
 40
1.0
 10
52.2877314517
 20
36.3181884181
 30
0.0
 10
52.2843687826
 20
36.2913265466
 30
0.0
 10
52.2960913195
 20
36.2337646656
 30
0.0
 10
52.3417167942
 20
36.1966375567
 30
0.0
 10
52.3670108913
 20
36.1873808951
 30
0.0
  0
SPLINE
  5
6AF
100
AcDbEntity
  8
0
100
AcDbSpline
 62
7
  6
CONTINUOUS
 70
0
 71
3
 72
9
 73
5
 74
0
 42
0.0000001
 43
0.0000001
 44
0.0000000001
 40
0.0
 40
0.0
 40
0.0
 40
0.0
 40
0.5012669502
 40
1.0
 40
1.0
 40
1.0
 40
1.0
 10
47.1187346205
 20
36.9652626972
 30
0.0
 10
47.1153719513
 20
36.9384008256
 30
0.0
 10
47.1270944883
 20
36.8808389446
 30
0.0
 10
47.172719963
 20
36.8437118357
 30
0.0
 10
47.1980140601
 20
36.8344551741
 30
0.0
  0
SPLINE
  5
6B0
100
AcDbEntity
  8
0
100
AcDbSpline
 62
7
  6
CONTINUOUS
 70
0
 71
3
 72
9
 73
5
 74
0
 42
0.0000001
 43
0.0000001
 44
0.0000000001
 40
0.0
 40
0.0
 40
0.0
 40
0.0
 40
0.5014182693
 40
1.0
 40
1.0
 40
1.0
 40
1.0
 10
47.3729830685
 20
37.082225041
 30
0.0
 10
47.376816053
 20
37.1128439134
 30
0.0
 10
47.3600443341
 20
37.1795134867
 30
0.0
 10
47.3006492276
 20
37.2144041294
 30
0.0
 10
47.2703144514
 20
37.2190155949
 30
0.0
  0
SPLINE
  5
6B1
100
AcDbEntity
  8
0
100
AcDbSpline
 62
7
  6
CONTINUOUS
 70
0
 71
3
 72
9
 73
5
 74
0
 42
0.0000001
 43
0.0000001
 44
0.0000000001
 40
0.0
 40
0.0
 40
0.0
 40
0.0
 40
0.5014182693
 40
1.0
 40
1.0
 40
1.0
 40
1.0
 10
52.5419798998
 20
36.435150762
 30
0.0
 10
52.5458128843
 20
36.4657696344
 30
0.0
 10
52.5290411654
 20
36.5324392077
 30
0.0
 10
52.4696460589
 20
36.5673298504
 30
0.0
 10
52.4393112827
 20
36.5719413158
 30
0.0
  0
SPLINE
  5
6B2
100
AcDbEntity
  8
0
100
AcDbSpline
 62
7
  6
CONTINUOUS
 70
0
 71
3
 72
9
 73
5
 74
0
 42
0.0000001
 43
0.0000001
 44
0.0000000001
 40
0.0
 40
0.0
 40
0.0
 40
0.0
 40
0.5014182693
 40
1.0
 40
1.0
 40
1.0
 40
1.0
 10
57.710976731
 20
35.788076483
 30
0.0
 10
57.7148097155
 20
35.8186953554
 30
0.0
 10
57.6980379966
 20
35.8853649286
 30
0.0
 10
57.6386428901
 20
35.9202555713
 30
0.0
 10
57.6083081139
 20
35.9248670368
 30
0.0
  0
SPLINE
  5
6B3
100
AcDbEntity
  8
0
100
AcDbSpline
 62
7
  6
CONTINUOUS
 70
0
 71
3
 72
9
 73
5
 74
0
 42
0.0000001
 43
0.0000001
 44
0.0000000001
 40
0.0
 40
0.0
 40
0.0
 40
0.0
 40
0.5014182693
 40
1.0
 40
1.0
 40
1.0
 40
1.0
 10
45.0911578779
 20
18.8544147853
 30
0.0
 10
45.0949908625
 20
18.8850336577
 30
0.0
 10
45.0782191436
 20
18.9517032309
 30
0.0
 10
45.0188240371
 20
18.9865938736
 30
0.0
 10
44.9884892609
 20
18.9912053391
 30
0.0
  0
SPLINE
  5
6B4
100
AcDbEntity
  8
0
100
AcDbSpline
 62
7
  6
CONTINUOUS
 70
0
 71
3
 72
9
 73
5
 74
0
 42
0.0000001
 43
0.0000001
 44
0.0000000001
 40
0.0
 40
0.0
 40
0.0
 40
0.0
 40
0.5014182693
 40
1.0
 40
1.0
 40
1.0
 40
1.0
 10
50.2601547092
 20
18.2073405063
 30
0.0
 10
50.2639876937
 20
18.2379593787
 30
0.0
 10
50.2472159748
 20
18.3046289519
 30
0.0
 10
50.1878208683
 20
18.3395195946
 30
0.0
 10
50.1574860921
 20
18.3441310601
 30
0.0
  0
SPLINE
  5
6B5
100
AcDbEntity
  8
0
100
AcDbSpline
 62
7
  6
CONTINUOUS
 70
0
 71
3
 72
9
 73
5
 74
0
 42
0.0000001
 43
0.0000001
 44
0.0000000001
 40
0.0
 40
0.0
 40
0.0
 40
0.0
 40
0.5014182693
 40
1.0
 40
1.0
 40
1.0
 40
1.0
 10
55.4291515405
 20
17.5602662272
 30
0.0
 10
55.432984525
 20
17.5908850996
 30
0.0
 10
55.4162128061
 20
17.6575546729
 30
0.0
 10
55.3568176996
 20
17.6924453156
 30
0.0
 10
55.3264829234
 20
17.6970567811
 30
0.0
  0
SPLINE
  5
6B6
100
AcDbEntity
  8
0
100
AcDbSpline
 62
7
  6
CONTINUOUS
 70
0
 71
3
 72
8
 73
4
 74
0
 42
0.0000001
 43
0.0000001
 44
0.0000000001
 40
0.0
 40
0.0
 40
0.0
 40
0.0
 40
1.0
 40
1.0
 40
1.0
 40
1.0
 10
47.1123779102
 20
36.9660584538
 30
0.0
 10
47.1101116942
 20
36.9479553334
 30
0.0
 10
47.1119990436
 20
36.9289053871
 30
0.0
 10
47.1177431451
 20
36.9115888054
 30
0.0
  0
SPLINE
  5
6B7
100
AcDbEntity
  8
0
100
AcDbSpline
 62
7
  6
CONTINUOUS
 70
0
 71
3
 72
8
 73
4
 74
0
 42
0.0000001
 43
0.0000001
 44
0.0000000001
 40
0.0
 40
0.0
 40
0.0
 40
0.0
 40
1.0
 40
1.0
 40
1.0
 40
1.0
 10
57.4873369731
 20
35.8698705493
 30
0.0
 10
57.47750151
 20
35.8545042755
 30
0.0
 10
57.4709765039
 20
35.8365074193
 30
0.0
 10
57.4687102879
 20
35.8184042988
 30
0.0
  0
SPLINE
  5
6B8
100
AcDbEntity
  8
0
100
AcDbSpline
 62
7
  6
CONTINUOUS
 70
0
 71
3
 72
8
 73
4
 74
0
 42
0.0000001
 43
0.0000001
 44
0.0000000001
 40
0.0
 40
0.0
 40
0.0
 40
0.0
 40
1.0
 40
1.0
 40
1.0
 40
1.0
 10
55.2055117826
 20
17.6420602936
 30
0.0
 10
55.1956763195
 20
17.6266940198
 30
0.0
 10
55.1891513133
 20
17.6086971635
 30
0.0
 10
55.1868850973
 20
17.5905940431
 30
0.0
  0
SPLINE
  5
6B9
100
AcDbEntity
  8
0
100
AcDbSpline
 62
7
  6
CONTINUOUS
 70
0
 71
3
 72
8
 73
4
 74
0
 42
0.0000001
 43
0.0000001
 44
0.0000000001
 40
0.0
 40
0.0
 40
0.0
 40
0.0
 40
1.0
 40
1.0
 40
1.0
 40
1.0
 10
52.2813747415
 20
36.3189841748
 30
0.0
 10
52.2791085254
 20
36.3008810544
 30
0.0
 10
52.2809958748
 20
36.2818311081
 30
0.0
 10
52.2867399763
 20
36.2645145264
 30
0.0
  0
SPLINE
  5
6BA
100
AcDbEntity
  8
0
100
AcDbSpline
 62
7
  6
CONTINUOUS
 70
0
 71
3
 72
8
 73
4
 74
0
 42
0.0000001
 43
0.0000001
 44
0.0000000001
 40
0.0
 40
0.0
 40
0.0
 40
0.0
 40
1.0
 40
1.0
 40
1.0
 40
1.0
 10
44.8675181201
 20
18.9362088516
 30
0.0
 10
44.857682657
 20
18.9208425778
 30
0.0
 10
44.8511576508
 20
18.9028457216
 30
0.0
 10
44.8488914348
 20
18.8847426011
 30
0.0
  0
SPLINE
  5
6BB
100
AcDbEntity
  8
0
100
AcDbSpline
 62
7
  6
CONTINUOUS
 70
0
 71
3
 72
8
 73
4
 74
0
 42
0.0000001
 43
0.0000001
 44
0.0000000001
 40
0.0
 40
0.0
 40
0.0
 40
0.0
 40
1.0
 40
1.0
 40
1.0
 40
1.0
 10
57.4503715728
 20
35.6719098958
 30
0.0
 10
57.4481053567
 20
35.6538067753
 30
0.0
 10
57.4499927061
 20
35.6347568291
 30
0.0
 10
57.4557368076
 20
35.6174402474
 30
0.0
  0
SPLINE
  5
6BC
100
AcDbEntity
  8
0
100
AcDbSpline
 62
7
  6
CONTINUOUS
 70
0
 71
3
 72
8
 73
4
 74
0
 42
0.0000001
 43
0.0000001
 44
0.0000000001
 40
0.0
 40
0.0
 40
0.0
 40
0.0
 40
1.0
 40
1.0
 40
1.0
 40
1.0
 10
47.1493433106
 20
37.1640191074
 30
0.0
 10
47.1395078475
 20
37.1486528336
 30
0.0
 10
47.1329828414
 20
37.1306559773
 30
0.0
 10
47.1307166253
 20
37.1125528569
 30
0.0
  0
SPLINE
  5
6BD
100
AcDbEntity
  8
0
100
AcDbSpline
 62
7
  6
CONTINUOUS
 70
0
 71
3
 72
8
 73
4
 74
0
 42
0.0000001
 43
0.0000001
 44
0.0000000001
 40
0.0
 40
0.0
 40
0.0
 40
0.0
 40
1.0
 40
1.0
 40
1.0
 40
1.0
 10
44.8305527197
 20
18.7382481981
 30
0.0
 10
44.8282865036
 20
18.7201450777
 30
0.0
 10
44.830173853
 20
18.7010951314
 30
0.0
 10
44.8359179545
 20
18.6837785497
 30
0.0
  0
SPLINE
  5
6BE
100
AcDbEntity
  8
0
100
AcDbSpline
 62
7
  6
CONTINUOUS
 70
0
 71
3
 72
8
 73
4
 74
0
 42
0.0000001
 43
0.0000001
 44
0.0000000001
 40
0.0
 40
0.0
 40
0.0
 40
0.0
 40
1.0
 40
1.0
 40
1.0
 40
1.0
 10
52.3183401419
 20
36.5169448283
 30
0.0
 10
52.3085046788
 20
36.5015785545
 30
0.0
 10
52.3019796727
 20
36.4835816983
 30
0.0
 10
52.2997134566
 20
36.4654785779
 30
0.0
  0
SPLINE
  5
6BF
100
AcDbEntity
  8
0
100
AcDbSpline
 62
7
  6
CONTINUOUS
 70
0
 71
3
 72
8
 73
4
 74
0
 42
0.0000001
 43
0.0000001
 44
0.0000000001
 40
0.0
 40
0.0
 40
0.0
 40
0.0
 40
1.0
 40
1.0
 40
1.0
 40
1.0
 10
49.9995495509
 20
18.0911739191
 30
0.0
 10
49.9972833349
 20
18.0730707986
 30
0.0
 10
49.9991706843
 20
18.0540208524
 30
0.0
 10
50.0049147858
 20
18.0367042706
 30
0.0
  0
SPLINE
  5
6C0
100
AcDbEntity
  8
0
100
AcDbSpline
 62
7
  6
CONTINUOUS
 70
0
 71
3
 72
8
 73
4
 74
0
 42
0.0000001
 43
0.0000001
 44
0.0000000001
 40
0.0
 40
0.0
 40
0.0
 40
0.0
 40
1.0
 40
1.0
 40
1.0
 40
1.0
 10
55.1685463822
 20
17.44409964
 30
0.0
 10
55.1662801661
 20
17.4259965196
 30
0.0
 10
55.1681675155
 20
17.4069465733
 30
0.0
 10
55.173911617
 20
17.3896299916
 30
0.0
  0
SPLINE
  5
6C1
100
AcDbEntity
  8
0
100
AcDbSpline
 62
7
  6
CONTINUOUS
 70
0
 71
3
 72
8
 73
4
 74
0
 42
0.0000001
 43
0.0000001
 44
0.0000000001
 40
0.0
 40
0.0
 40
0.0
 40
0.0
 40
1.0
 40
1.0
 40
1.0
 40
1.0
 10
50.0365149513
 20
18.2891345726
 30
0.0
 10
50.0266794882
 20
18.2737682988
 30
0.0
 10
50.0201544821
 20
18.2557714426
 30
0.0
 10
50.017888266
 20
18.2376683221
 30
0.0
  0
ENDSEC
  0
SECTION
  2
OBJECTS
  0
DICTIONARY
  5
C
100
AcDbDictionary
280
0
281
1
  3
ACAD_GROUP
350
D
  3
ACAD_MLINESTYLE
350
17
  3
ACAD_LAYOUT
350
1A
  3
ACAD_PLOTSETTINGS
350
19
  3
ACAD_PLOTSTYLENAME
350
E
  0
DICTIONARY
  5
D
102
{ACAD_REACTORS
330
C
102
}
100
AcDbDictionary
280
0
281
1
  0
ACDBDICTIONARYWDFLT
  5
E
102
{ACAD_REACTORS
330
C
102
}
100
AcDbDictionary
281
1
  3
Normal
350
F
100
AcDbDictionaryWithDefault
340
F
  0
DICTIONARY
  5
17
102
{ACAD_REACTORS
330
C
102
}
100
AcDbDictionary
280
0
281
1
  3
Standard
350
18
  0
DICTIONARY
  5
19
102
{ACAD_REACTORS
330
C
102
}
100
AcDbDictionary
281
1
  0
DICTIONARY
  5
1A
102
{ACAD_REACTORS
330
C
102
}
100
AcDbDictionary
281
1
  3
Model
350
6C2
  3
Layout1
350
6C3
  0
ACDBPLACEHOLDER
  5
F
102
{ACAD_REACTORS
330
E
102
}
  0
MLINESTYLE
  5
18
102
{ACAD_REACTORS
330
17
102
}
100
AcDbMlineStyle
  2
STANDARD
 70
0
  3

 62
256
 51
90.0
 52
90.0
 71
2
 49
0.5
 62
256
  6
BYLAYER
 49
-0.5
 62
256
  6
BYLAYER
  0
LAYOUT
  5
6C2
102
{ACAD_REACTORS
330
1A
102
}
100
AcDbPlotSettings
  1

  2
none_device
  4
ANSI_D_(34.00_x_22.00_Inches)
  6

 40
0.0
 41
0.0
 42
0.0
 43
0.0
 44
863.6
 45
558.8
 46
0.0
 47
0.0
 48
0.0
 49
0.0
140
0.0
141
0.0
142
1.0
143
1.0
 70
1024
 72
0
 73
0
 74
0
  7

 75
0
147
1.0
148
0.0
149
0.0
100
AcDbLayout
  1
Model
 70
0
 71
0
 10
0.0
 20
0.0
 11
34.0
 21
22.0
 12
0.0
 22
0.0
 32
0.0
 14
0.0
 24
0.0
 34
0.0
 15
0.0
 25
0.0
 35
0.0
146
0.0
 13
0.0
 23
0.0
 33
0.0
 16
1.0
 26
0.0
 36
0.0
 17
0.0
 27
1.0
 37
0.0
 76
0
330
210
345
0
346
0
  0
LAYOUT
  5
6C3
102
{ACAD_REACTORS
330
1A
102
}
100
AcDbPlotSettings
  1

  2
none_device
  4
ANSI_D_(34.00_x_22.00_Inches)
  6

 40
0.0
 41
0.0
 42
0.0
 43
0.0
 44
863.6
 45
558.8
 46
0.0
 47
0.0
 48
0.0
 49
0.0
140
0.0
141
0.0
142
1.0
143
1.0
 70
0
 72
0
 73
0
 74
0
  7

 75
0
147
1.0
148
0.0
149
0.0
100
AcDbLayout
  1
Layout1
 70
0
 71
1
 10
0.0
 20
0.0
 11
34.0
 21
22.0
 12
0.0
 22
0.0
 32
0.0
 14
0.0
 24
0.0
 34
0.0
 15
0.0
 25
0.0
 35
0.0
146
0.0
 13
0.0
 23
0.0
 33
0.0
 16
1.0
 26
0.0
 36
0.0
 17
0.0
 27
1.0
 37
0.0
 76
0
330
211
345
0
346
0
  0
ENDSEC
  0
EOF
