999
DXF file: fg-220007-2d-A.dxf
999
Pro/ENGINEER 2010370 by Parametric Technology Corporation
  0
SECTION
  2
HEADER
  9
$ACADVER
  1
AC1015
  9
$DWGCODEPAGE
  3
ANSI_1252
  9
$EXTMAX
 10
108.9743589744
 20
70.5128205128
 30
0.0
  9
$EXTMIN
 10
0.0
 20
-0.0
 30
0.0
  9
$LIMMIN
 10
0.0
 20
-0.0
  9
$LIMMAX
 10
108.9743589744
 20
70.5128205128
  9
$VIEWCTR
 10
54.4871794872
 20
35.2564102564
  9
$VIEWSIZE
 40
70.5128205128
  9
$CLAYER
  8
0
  9
$LTSCALE
 40
5.9935897436
  9
$CELTYPE
  6
BYLAYER
  9
$DIMSCALE
 40
1.0
  9
$DIMASZ
 40
1.2019230769
  9
$DIMEXO
 40
0.6810897436
  9
$DIMDLI
 40
4.141025641
  9
$DIMEXE
 40
1.9615384615
  9
$DIMCEN
 40
0.9807692308
  9
$DIMLFAC
 40
1.0
  9
$DIMBLK
  1
_FILLED
  9
$DIMTXT
 40
1.0016025641
  9
$DIMTOL
 70
1
  9
$DIMLIM
 70
0
  9
$DIMTFAC
 40
1.0
  9
$DIMTP
 40
0.01
  9
$DIMTM
 40
0.01
  9
$PDMODE
 70
3
  9
$PDSIZE
 40
0.3125
  9
$HANDSEED
  5
7B3
  9
$TILEMODE
 70
1
  9
$MEASUREMENT
 70
0
  9
$INSUNITS
 70
1
  0
ENDSEC
  0
SECTION
  2
CLASSES
  0
CLASS
  1
ACDBDICTIONARYWDFLT
  2
AcDbDictionaryWithDefault
  3
AutoCAD 2000
 90
0
280
0
281
0
  0
CLASS
  1
ACDBPLACEHOLDER
  2
AcDbPlaceHolder
  3
AutoCAD 2000
 90
0
280
0
281
0
  0
CLASS
  1
LAYOUT
  2
AcDbLayout
  3
AutoCAD 2000
 90
0
280
0
281
0
  0
ENDSEC
  0
SECTION
  2
TABLES
  0
TABLE
  2
VPORT
  5
8
100
AcDbSymbolTable
 70
2
  0
VPORT
  5
1F4
100
AcDbSymbolTableRecord
100
AcDbViewportTableRecord
  2
*ACTIVE
 70
0
 10
0.0
 20
0.0
 11
1.0
 21
1.0
 12
54.4871794872
 22
35.2564102564
 13
0.0
 23
0.0
 14
1.0
 24
1.0
 15
0.0
 25
0.0
 16
0.0
 26
0.0
 36
1.0
 17
0.0
 27
0.0
 37
0.0
 40
70.5128205128
 41
1.5454545455
 42
50.0
 43
0.0
 44
0.0
 50
0.0
 51
0.0
 71
0
 72
100
 73
1
 74
1
 75
0
 76
0
 77
0
 78
0
  0
ENDTAB
  0
TABLE
  2
LTYPE
  5
5
100
AcDbSymbolTable
 70
6
  0
LTYPE
  5
14
100
AcDbSymbolTableRecord
100
AcDbLinetypeTableRecord
  2
BYBLOCK
 70
0
  3

 72
65
 73
0
 40
0.0
  0
LTYPE
  5
15
100
AcDbSymbolTableRecord
100
AcDbLinetypeTableRecord
  2
BYLAYER
 70
0
  3

 72
65
 73
0
 40
0.0
  0
LTYPE
  5
16
100
AcDbSymbolTableRecord
100
AcDbLinetypeTableRecord
  2
CONTINUOUS
 70
64
  3
Solid line
 72
65
 73
0
 40
0.0
  0
LTYPE
  5
1F5
100
AcDbSymbolTableRecord
100
AcDbLinetypeTableRecord
  2
CENTER
 70
64
  3
____ _ ____ _ ____ _ ____ _ ____ _ ____ _ ____
 72
65
 73
4
 40
0.6
 49
0.375
 74
0
 49
-0.075
 74
0
 49
0.075
 74
0
 49
-0.075
 74
0
  0
LTYPE
  5
1F6
100
AcDbSymbolTableRecord
100
AcDbLinetypeTableRecord
  2
HIDDEN
 70
64
  3
- - - - - - - - - - - - - - - - - - - -
 72
65
 73
2
 40
0.2
 49
0.1
 74
0
 49
-0.1
 74
0
  0
LTYPE
  5
1F7
100
AcDbSymbolTableRecord
100
AcDbLinetypeTableRecord
  2
PHANTOM
 70
64
  3
_____ _ _ _____ _ _ _____ _ _ _____
 72
65
 73
6
 40
0.8
 49
0.45
 74
0
 49
-0.05
 74
0
 49
0.1
 74
0
 49
-0.05
 74
0
 49
0.1
 74
0
 49
-0.05
 74
0
  0
LTYPE
  5
1F8
100
AcDbSymbolTableRecord
100
AcDbLinetypeTableRecord
  2
DOT
 70
64
  3
. . . . . . . . . . . . . . . . . . . .
 72
65
 73
2
 40
0.2
 49
0.1
 74
0
 49
-0.1
 74
0
  0
LTYPE
  5
1F9
100
AcDbSymbolTableRecord
100
AcDbLinetypeTableRecord
  2
DASHED
 70
64
  3
- - - - - - - - - - - - - - - - - - - -
 72
65
 73
2
 40
0.2
 49
0.1
 74
0
 49
-0.1
 74
0
  0
ENDTAB
  0
TABLE
  2
LAYER
  5
2
100
AcDbSymbolTable
 70
36
  0
LAYER
  5
10
100
AcDbSymbolTableRecord
100
AcDbLayerTableRecord
  2
0
 70
0
 62
7
  6
CONTINUOUS
370
-3
390
F
  0
LAYER
  5
1FA
100
AcDbSymbolTableRecord
100
AcDbLayerTableRecord
  2
DEFAULT_1
 70
0
 62
7
  6
CENTER
370
-3
390
F
  0
LAYER
  5
1FB
100
AcDbSymbolTableRecord
100
AcDbLayerTableRecord
  2
DEFAULT_2
 70
0
 62
8
  6
HIDDEN
370
-3
390
F
  0
LAYER
  5
1FC
100
AcDbSymbolTableRecord
100
AcDbLayerTableRecord
  2
DEFAULT_3
 70
0
 62
7
  6
PHANTOM
370
-3
390
F
  0
LAYER
  5
1FD
100
AcDbSymbolTableRecord
100
AcDbLayerTableRecord
  2
0_SNAPLINES
 70
0
 62
7
  6
CONTINUOUS
370
-3
390
F
  0
LAYER
  5
1FE
100
AcDbSymbolTableRecord
100
AcDbLayerTableRecord
  2
1_ALL_PLANES
 70
0
 62
7
  6
CONTINUOUS
370
-3
390
F
  0
LAYER
  5
1FF
100
AcDbSymbolTableRecord
100
AcDbLayerTableRecord
  2
1__DEF_PLANES
 70
0
 62
7
  6
CONTINUOUS
370
-3
390
F
  0
LAYER
  5
200
100
AcDbSymbolTableRecord
100
AcDbLayerTableRecord
  2
2_ALL_CSYS
 70
0
 62
7
  6
CONTINUOUS
370
-3
390
F
  0
LAYER
  5
201
100
AcDbSymbolTableRecord
100
AcDbLayerTableRecord
  2
2__DEF_CSYS
 70
0
 62
7
  6
CONTINUOUS
370
-3
390
F
  0
LAYER
  5
202
100
AcDbSymbolTableRecord
100
AcDbLayerTableRecord
  2
3_ALL_AXES
 70
0
 62
7
  6
CONTINUOUS
370
-3
390
F
  0
LAYER
  5
203
100
AcDbSymbolTableRecord
100
AcDbLayerTableRecord
  2
3_AXES_OTHER
 70
0
 62
7
  6
CONTINUOUS
370
-3
390
F
  0
LAYER
  5
204
100
AcDbSymbolTableRecord
100
AcDbLayerTableRecord
  2
3_HOLES
 70
0
 62
7
  6
CONTINUOUS
370
-3
390
F
  0
LAYER
  5
205
100
AcDbSymbolTableRecord
100
AcDbLayerTableRecord
  2
4_ALL_POINTS
 70
0
 62
7
  6
CONTINUOUS
370
-3
390
F
  0
LAYER
  5
206
100
AcDbSymbolTableRecord
100
AcDbLayerTableRecord
  2
5_ALL_CURVES
 70
0
 62
7
  6
CONTINUOUS
370
-3
390
F
  0
LAYER
  5
207
100
AcDbSymbolTableRecord
100
AcDbLayerTableRecord
  2
6_ALL_SURFS
 70
0
 62
7
  6
CONTINUOUS
370
-3
390
F
  0
LAYER
  5
208
100
AcDbSymbolTableRecord
100
AcDbLayerTableRecord
  2
6_COPYGEOM
 70
0
 62
7
  6
CONTINUOUS
370
-3
390
F
  0
LAYER
  5
209
100
AcDbSymbolTableRecord
100
AcDbLayerTableRecord
  2
7_ALL_ROUNDS
 70
0
 62
7
  6
CONTINUOUS
370
-3
390
F
  0
LAYER
  5
20A
100
AcDbSymbolTableRecord
100
AcDbLayerTableRecord
  2
7_MERGES
 70
0
 62
7
  6
CONTINUOUS
370
-3
390
F
  0
LAYER
  5
20B
100
AcDbSymbolTableRecord
100
AcDbLayerTableRecord
  2
8_GDT
 70
0
 62
7
  6
CONTINUOUS
370
-3
390
F
  0
LAYER
  5
20C
100
AcDbSymbolTableRecord
100
AcDbLayerTableRecord
  2
8_SET_DATUMS
 70
0
 62
7
  6
CONTINUOUS
370
-3
390
F
  0
LAYER
  5
20D
100
AcDbSymbolTableRecord
100
AcDbLayerTableRecord
  2
9_COSMETICS
 70
0
 62
7
  6
CONTINUOUS
370
-3
390
F
  0
LAYER
  5
20E
100
AcDbSymbolTableRecord
100
AcDbLayerTableRecord
  2
9_THREADS
 70
0
 62
7
  6
CONTINUOUS
370
-3
390
F
  0
ENDTAB
  0
TABLE
  2
STYLE
  5
3
100
AcDbSymbolTable
 70
1
  0
STYLE
  5
11
100
AcDbSymbolTableRecord
100
AcDbTextStyleTableRecord
  2
STANDARD
 70
0
 40
0.0
 41
0.8
 50
0.0
 71
0
 42
0.2
  3
txt
  4

  0
STYLE
  5
20F
100
AcDbSymbolTableRecord
100
AcDbTextStyleTableRecord
  2
TEXTSTYLE_1
 70
0
 40
0.0
 41
0.8
 50
0.0
 71
0
 42
0.2
  3
gdt
  4

  0
ENDTAB
  0
TABLE
  2
VIEW
  5
6
100
AcDbSymbolTable
 70
0
  0
ENDTAB
  0
TABLE
  2
UCS
  5
7
100
AcDbSymbolTable
 70
0
  0
ENDTAB
  0
TABLE
  2
APPID
  5
9
100
AcDbSymbolTable
 70
1
  0
APPID
  5
210
100
AcDbSymbolTableRecord
100
AcDbRegAppTableRecord
  2
ACAD
 70
0
  0
ENDTAB
  0
TABLE
  2
BLOCK_RECORD
  5
1
100
AcDbSymbolTable
 70
0
  0
BLOCK_RECORD
  5
211
100
AcDbSymbolTableRecord
100
AcDbBlockTableRecord
  2
*Model_Space
  0
BLOCK_RECORD
  5
212
100
AcDbSymbolTableRecord
100
AcDbBlockTableRecord
  2
*Paper_Space
  0
BLOCK_RECORD
  5
213
100
AcDbSymbolTableRecord
100
AcDbBlockTableRecord
  2
_FILLED
  0
BLOCK_RECORD
  5
214
100
AcDbSymbolTableRecord
100
AcDbBlockTableRecord
  2
*D0
  0
BLOCK_RECORD
  5
215
100
AcDbSymbolTableRecord
100
AcDbBlockTableRecord
  2
*D1
  0
BLOCK_RECORD
  5
216
100
AcDbSymbolTableRecord
100
AcDbBlockTableRecord
  2
*D2
  0
BLOCK_RECORD
  5
217
100
AcDbSymbolTableRecord
100
AcDbBlockTableRecord
  2
*D3
  0
BLOCK_RECORD
  5
218
100
AcDbSymbolTableRecord
100
AcDbBlockTableRecord
  2
*D4
  0
BLOCK_RECORD
  5
219
100
AcDbSymbolTableRecord
100
AcDbBlockTableRecord
  2
*D5
  0
BLOCK_RECORD
  5
21A
100
AcDbSymbolTableRecord
100
AcDbBlockTableRecord
  2
*D6
  0
BLOCK_RECORD
  5
21B
100
AcDbSymbolTableRecord
100
AcDbBlockTableRecord
  2
*D7
  0
BLOCK_RECORD
  5
21C
100
AcDbSymbolTableRecord
100
AcDbBlockTableRecord
  2
*D8
  0
BLOCK_RECORD
  5
21D
100
AcDbSymbolTableRecord
100
AcDbBlockTableRecord
  2
*D9
  0
BLOCK_RECORD
  5
21E
100
AcDbSymbolTableRecord
100
AcDbBlockTableRecord
  2
*D10
  0
BLOCK_RECORD
  5
21F
100
AcDbSymbolTableRecord
100
AcDbBlockTableRecord
  2
*D11
  0
BLOCK_RECORD
  5
220
100
AcDbSymbolTableRecord
100
AcDbBlockTableRecord
  2
*D12
  0
BLOCK_RECORD
  5
221
100
AcDbSymbolTableRecord
100
AcDbBlockTableRecord
  2
*D13
  0
BLOCK_RECORD
  5
222
100
AcDbSymbolTableRecord
100
AcDbBlockTableRecord
  2
*D14
  0
BLOCK_RECORD
  5
223
100
AcDbSymbolTableRecord
100
AcDbBlockTableRecord
  2
*D15
  0
BLOCK_RECORD
  5
224
100
AcDbSymbolTableRecord
100
AcDbBlockTableRecord
  2
*D16
  0
BLOCK_RECORD
  5
225
100
AcDbSymbolTableRecord
100
AcDbBlockTableRecord
  2
*D17
  0
BLOCK_RECORD
  5
226
100
AcDbSymbolTableRecord
100
AcDbBlockTableRecord
  2
*D18
  0
BLOCK_RECORD
  5
227
100
AcDbSymbolTableRecord
100
AcDbBlockTableRecord
  2
SYMBOL_0_BL0
  0
ENDTAB
  0
TABLE
  2
DIMSTYLE
  5
A
100
AcDbSymbolTable
 70
1
100
AcDbDimStyleTable
 71
0
  0
DIMSTYLE
105
228
100
AcDbSymbolTableRecord
100
AcDbDimStyleTableRecord
  2
STANDARD
 70
0
  3

  4

 40
1.0
 41
1.2019230769
 42
0.0625
 43
0.38
 44
0.18
 45
0.0
 46
0.0
 47
0.01
 48
0.01
140
1.0016025641
141
0.09
142
0.0
143
25.4
144
1.0
145
0.0
146
1.0
147
0.09
 71
1.0
 72
0.0
 73
1
 74
1
 75
0
 76
0
 77
0
 78
4
170
0
171
2
172
0
173
0
174
0
175
0
176
0
177
0
178
0
270
2
271
3
272
3
273
2
274
2
275
0
280
0
281
0
282
0
283
1
284
4
285
0
286
0
287
3
288
0
340
11
341
213
342
213
343
213
344
213
  0
DIMSTYLE
105
229
100
AcDbSymbolTableRecord
100
AcDbDimStyleTableRecord
  2
DIMSTYLE_1
 70
0
  3

  4

 40
1.0
 41
1.2019230769
 42
0.0625
 43
0.38
 44
0.18
 45
0.0
 46
0.0
 47
0.01
 48
0.01
140
1.0016025641
141
0.09
142
0.0
143
25.4
144
1.0
145
0.0
146
1.0
147
0.09
 71
0.0
 72
0.0
 73
1
 74
1
 75
0
 76
0
 77
0
 78
4
170
0
171
2
172
0
173
0
174
0
175
0
176
0
177
0
178
0
270
2
271
0
272
0
273
2
274
2
275
0
280
0
281
0
282
0
283
1
284
4
285
0
286
0
287
3
288
0
340
11
341
213
342
213
343
213
344
213
  0
DIMSTYLE
105
22A
100
AcDbSymbolTableRecord
100
AcDbDimStyleTableRecord
  2
DIMSTYLE_2
 70
0
  3

  4

 40
1.0
 41
1.2019230769
 42
0.0625
 43
0.38
 44
0.18
 45
0.0
 46
0.0
 47
0.01
 48
0.01
140
1.0016025641
141
0.09
142
0.0
143
25.4
144
1.0
145
0.0
146
1.0
147
0.09
 71
0.0
 72
0.0
 73
1
 74
1
 75
0
 76
0
 77
0
 78
4
170
0
171
2
172
0
173
0
174
0
175
0
176
0
177
0
178
0
270
2
271
0
272
0
273
2
274
2
275
0
280
0
281
0
282
0
283
1
284
4
285
0
286
0
287
3
288
0
340
11
341
213
342
213
343
213
344
213
  0
ENDTAB
  0
ENDSEC
  0
SECTION
  2
BLOCKS
  0
BLOCK
  5
20
100
AcDbEntity
  8
0
100
AcDbBlockBegin
  2
*Model_Space
 70
0
 10
0.0
 20
0.0
 30
0.0
  3
*Model_Space
  1

  0
ENDBLK
  5
21
100
AcDbEntity
  8
0
100
AcDbBlockEnd
  0
BLOCK
  5
1C
100
AcDbEntity
  8
0
100
AcDbBlockBegin
  2
*Paper_Space
 70
0
 10
0.0
 20
0.0
 30
0.0
  3
*Paper_Space
  1

  0
ENDBLK
  5
1D
100
AcDbEntity
  8
0
100
AcDbBlockEnd
  0
BLOCK
  5
22B
100
AcDbEntity
  8
0
100
AcDbBlockBegin
 62
7
  6
CONTINUOUS
  2
SYMBOL_0_BL0
 70
64
 10
76.2103865308
 20
17.3148119562
  3
SYMBOL_0_BL0
  1

  0
ARC
  5
22C
100
AcDbEntity
  8
0
100
AcDbCircle
 62
7
  6
CONTINUOUS
 10
80.3909094131
 20
17.9582539917
 40
0.0793045722
100
AcDbArc
 50
270.0
 51
360.0
  0
LINE
  5
22D
100
AcDbEntity
  8
0
100
AcDbLine
 62
7
  6
CONTINUOUS
 10
80.4702139854
 20
17.9582539917
 11
80.4702139854
 21
18.1169176404
  0
ARC
  5
22E
100
AcDbEntity
  8
0
100
AcDbCircle
 62
7
  6
CONTINUOUS
 10
80.3909094131
 20
18.1169176404
 40
0.0793045722
100
AcDbArc
 50
0.0
 51
90.0
  0
LINE
  5
22F
100
AcDbEntity
  8
0
100
AcDbLine
 62
7
  6
CONTINUOUS
 10
80.3909094131
 20
18.1962222126
 11
78.2589008733
 21
18.1962222126
  0
SPLINE
  5
230
100
AcDbEntity
  8
0
100
AcDbSpline
 62
7
  6
CONTINUOUS
 70
0
 71
3
 72
13
 73
9
 74
0
 42
0.0000001
 43
0.0000001
 44
0.0000000001
 40
0.0
 40
0.0
 40
0.0
 40
0.0
 40
0.1310616762
 40
0.2699656353
 40
0.4157607805
 40
0.5899807757
 40
0.76586761
 40
0.9948829976
 40
0.9948829976
 40
0.9948829976
 40
0.9948829976
 10
78.2589008733
 20
18.1962222126
 30
0.0
 10
78.2140841136
 20
18.1928842307
 30
0.0
 10
78.1217689137
 20
18.1860085341
 30
0.0
 10
77.996663434
 20
18.1084860478
 30
0.0
 10
77.9068526286
 20
17.978339756
 30
0.0
 10
77.8484530027
 20
17.8191994893
 30
0.0
 10
77.815558768
 20
17.6246639265
 30
0.0
 10
77.8125300983
 20
17.4872016818
 30
0.0
 10
77.8109604095
 20
17.4094419101
 30
0.0
  0
LINE
  5
231
100
AcDbEntity
  8
0
100
AcDbLine
 62
7
  6
CONTINUOUS
 10
77.8109604095
 20
17.4094419101
 11
77.8110995976
 21
17.3973750582
  0
SPLINE
  5
232
100
AcDbEntity
  8
0
100
AcDbSpline
 62
7
  6
CONTINUOUS
 70
0
 71
3
 72
13
 73
9
 74
0
 42
0.0000001
 43
0.0000001
 44
0.0000000001
 40
0.0
 40
0.0
 40
0.0
 40
0.0
 40
0.2222860645
 40
0.3981728988
 40
0.572392894
 40
0.7181880393
 40
0.8570919984
 40
0.9881536746
 40
0.9881536746
 40
0.9881536746
 40
0.9881536746
 10
77.8110995976
 20
17.3973750582
 30
0.0
 10
77.8126383503
 20
17.3219011567
 30
0.0
 10
77.8159403181
 20
17.1867485929
 30
0.0
 10
77.8484529759
 20
16.9944680496
 30
0.0
 10
77.9068533009
 20
16.8353455812
 30
0.0
 10
77.996661305
 20
16.7051440556
 30
0.0
 10
78.121776333
 20
16.6278068809
 30
0.0
 10
78.2140690262
 20
16.6204948347
 30
0.0
 10
78.2589008733
 20
16.6171557303
 30
0.0
  0
LINE
  5
233
100
AcDbEntity
  8
0
100
AcDbLine
 62
7
  6
CONTINUOUS
 10
78.2589008733
 20
16.6171557303
 11
80.3910825033
 21
16.6218094336
  0
ARC
  5
234
100
AcDbEntity
  8
0
100
AcDbCircle
 62
7
  6
CONTINUOUS
 10
80.3909094131
 20
16.7011138168
 40
0.079304572
100
AcDbArc
 50
270.125053868
 51
360.0
  0
LINE
  5
235
100
AcDbEntity
  8
0
100
AcDbLine
 62
7
  6
CONTINUOUS
 10
80.4702139854
 20
16.7011138168
 11
80.4702139854
 21
16.8535829145
  0
ARC
  5
236
100
AcDbEntity
  8
0
100
AcDbCircle
 62
7
  6
CONTINUOUS
 10
80.3909094131
 20
16.8535829145
 40
0.0793045722
100
AcDbArc
 50
0.0
 51
90.0
  0
LINE
  5
237
100
AcDbEntity
  8
0
100
AcDbLine
 62
7
  6
CONTINUOUS
 10
80.3909094131
 20
16.9328874868
 11
78.5634867003
 21
16.9328874868
  0
LINE
  5
238
100
AcDbEntity
  8
0
100
AcDbLine
 62
7
  6
CONTINUOUS
 10
78.4841821281
 20
17.012192059
 11
78.4841821281
 21
17.7996448472
  0
ARC
  5
239
100
AcDbEntity
  8
0
100
AcDbCircle
 62
7
  6
CONTINUOUS
 10
78.563486701
 20
17.7996448472
 40
0.0793045722
100
AcDbArc
 50
90.0
 51
180.0
  0
LINE
  5
23A
100
AcDbEntity
  8
0
100
AcDbLine
 62
7
  6
CONTINUOUS
 10
78.5634867003
 20
17.8789494195
 11
80.3909094131
 21
17.8789494195
  0
LINE
  5
23B
100
AcDbEntity
  8
0
100
AcDbLine
 62
7
  6
CONTINUOUS
 10
75.3050296988
 20
17.2465583371
 11
76.8281831233
 21
17.2465583371
  0
ARC
  5
23C
100
AcDbEntity
  8
0
100
AcDbCircle
 62
7
  6
CONTINUOUS
 10
76.8281831231
 20
17.167253765
 40
0.0793045722
100
AcDbArc
 50
0.0
 51
90.0
  0
LINE
  5
23D
100
AcDbEntity
  8
0
100
AcDbLine
 62
7
  6
CONTINUOUS
 10
76.9074876955
 20
17.1672537648
 11
76.9074876955
 21
17.0053220198
  0
LINE
  5
23E
100
AcDbEntity
  8
0
100
AcDbLine
 62
7
  6
CONTINUOUS
 10
76.8281831233
 20
16.9260174476
 11
75.0526694061
 21
16.9260174476
  0
ARC
  5
23F
100
AcDbEntity
  8
0
100
AcDbCircle
 62
7
  6
CONTINUOUS
 10
75.0526694061
 20
16.8467128754
 40
0.0793045722
100
AcDbArc
 50
90.0
 51
180.0
  0
LINE
  5
240
100
AcDbEntity
  8
0
100
AcDbLine
 62
7
  6
CONTINUOUS
 10
74.9733648339
 20
16.8467128754
 11
74.9733648339
 21
16.6964595022
  0
ARC
  5
241
100
AcDbEntity
  8
0
100
AcDbCircle
 62
7
  6
CONTINUOUS
 10
75.0526694061
 20
16.6964595022
 40
0.0793045722
100
AcDbArc
 50
180.0
 51
270.0
  0
LINE
  5
242
100
AcDbEntity
  8
0
100
AcDbLine
 62
7
  6
CONTINUOUS
 10
75.0526694061
 20
16.6171549299
 11
77.2568791308
 21
16.6171549299
  0
SPLINE
  5
243
100
AcDbEntity
  8
0
100
AcDbSpline
 62
7
  6
CONTINUOUS
 70
0
 71
3
 72
13
 73
9
 74
0
 42
0.0000001
 43
0.0000001
 44
0.0000000001
 40
0.0
 40
0.0
 40
0.0
 40
0.0
 40
0.1604571392
 40
0.3334692485
 40
0.4767982758
 40
0.6242014838
 40
0.7505998515
 40
1.0
 40
1.0
 40
1.0
 40
1.0
 10
77.2568791308
 20
16.6171549299
 30
0.0
 10
77.2940423819
 20
16.6189442741
 30
0.0
 10
77.3712767217
 20
16.622662968
 30
0.0
 10
77.4751350315
 20
16.6677534834
 30
0.0
 10
77.5533956896
 20
16.7435468762
 30
0.0
 10
77.5974986483
 20
16.8304410729
 30
0.0
 10
77.631311729
 20
16.9470105282
 30
0.0
 10
77.6326838653
 20
17.0342455784
 30
0.0
 10
77.633594488
 20
17.0921394583
 30
0.0
  0
SPLINE
  5
244
100
AcDbEntity
  8
0
100
AcDbSpline
 62
7
  6
CONTINUOUS
 70
0
 71
3
 72
13
 73
9
 74
0
 42
0.0000001
 43
0.0000001
 44
0.0000000001
 40
0.0
 40
0.0
 40
0.0
 40
0.0
 40
0.2494001485
 40
0.3757985162
 40
0.5232017242
 40
0.6665307515
 40
0.8395428608
 40
1.0
 40
1.0
 40
1.0
 40
1.0
 10
77.633594488
 20
17.0921394583
 30
0.0
 10
77.6326838653
 20
17.1500333394
 30
0.0
 10
77.631311729
 20
17.2372683884
 30
0.0
 10
77.5974986483
 20
17.3538378448
 30
0.0
 10
77.5533956896
 20
17.4407320415
 30
0.0
 10
77.4751350315
 20
17.5165254331
 30
0.0
 10
77.3712767217
 20
17.5616159485
 30
0.0
 10
77.2940423819
 20
17.5653346436
 30
0.0
 10
77.2568791308
 20
17.5671239866
 30
0.0
  0
LINE
  5
245
100
AcDbEntity
  8
0
100
AcDbLine
 62
7
  6
CONTINUOUS
 10
77.2568791308
 20
17.5671239866
 11
75.7540283332
 21
17.5671239866
  0
LINE
  5
246
100
AcDbEntity
  8
0
100
AcDbLine
 62
7
  6
CONTINUOUS
 10
75.674723761
 20
17.6464285589
 11
75.674723761
 21
17.7964807656
  0
ARC
  5
247
100
AcDbEntity
  8
0
100
AcDbCircle
 62
7
  6
CONTINUOUS
 10
75.7540283326
 20
17.7964807656
 40
0.0793045722
100
AcDbArc
 50
90.0
 51
180.0
  0
LINE
  5
248
100
AcDbEntity
  8
0
100
AcDbLine
 62
7
  6
CONTINUOUS
 10
75.7540283332
 20
17.8757853379
 11
77.5319520492
 21
17.8757853379
  0
ARC
  5
249
100
AcDbEntity
  8
0
100
AcDbCircle
 62
7
  6
CONTINUOUS
 10
77.5319520492
 20
17.9550899101
 40
0.0793045722
100
AcDbArc
 50
270.0
 51
360.0
  0
LINE
  5
24A
100
AcDbEntity
  8
0
100
AcDbLine
 62
7
  6
CONTINUOUS
 10
77.6112566215
 20
17.9550899101
 11
77.6112566215
 21
18.1169176404
  0
ARC
  5
24B
100
AcDbEntity
  8
0
100
AcDbCircle
 62
7
  6
CONTINUOUS
 10
77.5319520492
 20
18.1169176404
 40
0.0793045722
100
AcDbArc
 50
0.0
 51
90.0
  0
LINE
  5
24C
100
AcDbEntity
  8
0
100
AcDbLine
 62
7
  6
CONTINUOUS
 10
77.5319520492
 20
18.1962222126
 11
75.3050296988
 21
18.1962222126
  0
SPLINE
  5
24D
100
AcDbEntity
  8
0
100
AcDbSpline
 62
7
  6
CONTINUOUS
 70
0
 71
3
 72
13
 73
9
 74
0
 42
0.0000001
 43
0.0000001
 44
0.0000000001
 40
0.0
 40
0.0
 40
0.0
 40
0.0
 40
0.1133740464
 40
0.2392044088
 40
0.3655787964
 40
0.4912154373
 40
0.7445390876
 40
1.0
 40
1.0
 40
1.0
 40
1.0
 10
75.3050296988
 20
18.1962222126
 30
0.0
 10
75.2795897876
 20
18.1949691784
 30
0.0
 10
75.2259149036
 20
18.1923254385
 30
0.0
 10
75.1461861727
 20
18.1685048754
 30
0.0
 10
75.0748610533
 20
18.1204037401
 30
0.0
 10
75.0020018076
 20
18.0317996136
 30
0.0
 10
74.9561541483
 20
17.8927029235
 30
0.0
 10
74.9511819627
 20
17.7786541873
 30
0.0
 10
74.9486854279
 20
17.7213902749
 30
0.0
  0
SPLINE
  5
24E
100
AcDbEntity
  8
0
100
AcDbSpline
 62
7
  6
CONTINUOUS
 70
0
 71
3
 72
13
 73
9
 74
0
 42
0.0000001
 43
0.0000001
 44
0.0000000001
 40
0.0
 40
0.0
 40
0.0
 40
0.0
 40
0.2554609124
 40
0.5087845627
 40
0.6344212036
 40
0.7607955912
 40
0.8866259536
 40
1.0
 40
1.0
 40
1.0
 40
1.0
 10
74.9486854279
 20
17.7213902749
 30
0.0
 10
74.9511819627
 20
17.6641263624
 30
0.0
 10
74.9561541483
 20
17.550077625
 30
0.0
 10
75.0020018076
 20
17.4109809361
 30
0.0
 10
75.0748610533
 20
17.3223768096
 30
0.0
 10
75.1461861727
 20
17.2742756743
 30
0.0
 10
75.2259149036
 20
17.2504551112
 30
0.0
 10
75.2795897876
 20
17.2478113713
 30
0.0
 10
75.3050296988
 20
17.2465583371
 30
0.0
  0
LINE
  5
24F
100
AcDbEntity
  8
0
100
AcDbLine
 62
7
  6
CONTINUOUS
 10
72.3748128577
 20
16.6171549299
 11
73.6070404017
 21
16.6171549299
  0
LINE
  5
250
100
AcDbEntity
  8
0
100
AcDbLine
 62
7
  6
CONTINUOUS
 10
73.6070404017
 20
16.6171549299
 11
73.6070404017
 21
16.4639034584
  0
ARC
  5
251
100
AcDbEntity
  8
0
100
AcDbCircle
 62
7
  6
CONTINUOUS
 10
73.6375421603
 20
16.4639034584
 40
0.0305017586
100
AcDbArc
 50
180.0
 51
270.0
  0
LINE
  5
252
100
AcDbEntity
  8
0
100
AcDbLine
 62
7
  6
CONTINUOUS
 10
73.6375421603
 20
16.4334016998
 11
74.1124855637
 21
16.4334016998
  0
ARC
  5
253
100
AcDbEntity
  8
0
100
AcDbCircle
 62
7
  6
CONTINUOUS
 10
74.1124855637
 20
16.4639034584
 40
0.0305017586
100
AcDbArc
 50
270.0
 51
360.0
  0
LINE
  5
254
100
AcDbEntity
  8
0
100
AcDbLine
 62
7
  6
CONTINUOUS
 10
74.1429873222
 20
16.4639034584
 11
74.1429873222
 21
16.6171549299
  0
LINE
  5
255
100
AcDbEntity
  8
0
100
AcDbLine
 62
7
  6
CONTINUOUS
 10
74.1429873222
 20
16.6171549299
 11
74.3852893758
 21
16.6171549299
  0
SPLINE
  5
256
100
AcDbEntity
  8
0
100
AcDbSpline
 62
7
  6
CONTINUOUS
 70
0
 71
3
 72
12
 73
8
 74
0
 42
0.0000001
 43
0.0000001
 44
0.0000000001
 40
0.0
 40
0.0
 40
0.0
 40
0.0
 40
0.2415790084
 40
0.4893269843
 40
0.7378634303
 40
0.8656387112
 40
1.0
 40
1.0
 40
1.0
 40
1.0
 10
74.3852893758
 20
16.6171549299
 30
0.0
 10
74.4287365211
 20
16.6185056527
 30
0.0
 10
74.5167402803
 20
16.6212415909
 30
0.0
 10
74.6455245991
 20
16.6671695041
 30
0.0
 10
74.7237378513
 20
16.7538692496
 30
0.0
 10
74.7581960137
 20
16.8404983336
 30
0.0
 10
74.7588170003
 20
16.8879535625
 30
0.0
 10
74.7591352946
 20
16.9122773168
 30
0.0
  0
LINE
  5
257
100
AcDbEntity
  8
0
100
AcDbLine
 62
7
  6
CONTINUOUS
 10
74.7591352946
 20
16.9122773168
 11
74.7591352946
 21
17.8992477688
  0
SPLINE
  5
258
100
AcDbEntity
  8
0
100
AcDbSpline
 62
7
  6
CONTINUOUS
 70
0
 71
3
 72
12
 73
8
 74
0
 42
0.0000001
 43
0.0000001
 44
0.0000000001
 40
0.0
 40
0.0
 40
0.0
 40
0.0
 40
0.1343612888
 40
0.2621365697
 40
0.5106730157
 40
0.7584209916
 40
1.0
 40
1.0
 40
1.0
 40
1.0
 10
74.7591352946
 20
17.8992477688
 30
0.0
 10
74.7588170003
 20
17.9235715243
 30
0.0
 10
74.7581960137
 20
17.9710267532
 30
0.0
 10
74.7237378513
 20
18.0576558372
 30
0.0
 10
74.6455245991
 20
18.1443555827
 30
0.0
 10
74.5167402803
 20
18.1902834946
 30
0.0
 10
74.4287365211
 20
18.1930194328
 30
0.0
 10
74.3852893758
 20
18.1943701556
 30
0.0
  0
LINE
  5
259
100
AcDbEntity
  8
0
100
AcDbLine
 62
7
  6
CONTINUOUS
 10
74.3852893758
 20
18.1943701556
 11
72.3748128577
 21
18.1943701556
  0
SPLINE
  5
25A
100
AcDbEntity
  8
0
100
AcDbSpline
 62
7
  6
CONTINUOUS
 70
0
 71
3
 72
12
 73
8
 74
0
 42
0.0000001
 43
0.0000001
 44
0.0000000001
 40
0.0
 40
0.0
 40
0.0
 40
0.0
 40
0.1341799809
 40
0.290831959
 40
0.5815217441
 40
0.760783857
 40
1.0
 40
1.0
 40
1.0
 40
1.0
 10
72.3748128577
 20
18.1943701556
 30
0.0
 10
72.3309607954
 20
18.1868754221
 30
0.0
 10
72.2359124806
 20
18.1706307614
 30
0.0
 10
72.0759138969
 20
18.0510961912
 30
0.0
 10
72.0001304476
 20
17.8499912805
 30
0.0
 10
71.9557902291
 20
17.6220203294
 30
0.0
 10
71.9524617479
 20
17.4841331073
 30
0.0
 10
71.9505590762
 20
17.4053121672
 30
0.0
  0
SPLINE
  5
25B
100
AcDbEntity
  8
0
100
AcDbSpline
 62
7
  6
CONTINUOUS
 70
0
 71
3
 72
12
 73
8
 74
0
 42
0.0000001
 43
0.0000001
 44
0.0000000001
 40
0.0
 40
0.0
 40
0.0
 40
0.0
 40
0.2392679579
 40
0.4185688994
 40
0.7093216488
 40
0.8660075581
 40
1.0
 40
1.0
 40
1.0
 40
1.0
 10
71.9505590762
 20
17.4053121672
 30
0.0
 10
71.952462508
 20
17.3264942994
 30
0.0
 10
71.9557923179
 20
17.1886124516
 30
0.0
 10
72.0001229686
 20
16.9606028145
 30
0.0
 10
72.0759527195
 20
16.7596851297
 30
0.0
 10
72.2357847222
 20
16.6397624064
 30
0.0
 10
72.3309465975
 20
16.6242880578
 30
0.0
 10
72.3748128577
 20
16.6171549299
 30
0.0
  0
LINE
  5
25C
100
AcDbEntity
  8
0
100
AcDbLine
 62
7
  6
CONTINUOUS
 10
74.3530202026
 20
17.0232208873
 11
74.3530202026
 21
17.8140093381
  0
ARC
  5
25D
100
AcDbEntity
  8
0
100
AcDbCircle
 62
7
  6
CONTINUOUS
 10
72.6892385557
 20
17.0232208873
 40
0.0793045722
100
AcDbArc
 50
180.0
 51
270.0
  0
LINE
  5
25E
100
AcDbEntity
  8
0
100
AcDbLine
 62
7
  6
CONTINUOUS
 10
72.6892385557
 20
16.9439163151
 11
73.600103255
 21
16.9439163151
  0
LINE
  5
25F
100
AcDbEntity
  8
0
100
AcDbLine
 62
7
  6
CONTINUOUS
 10
73.600103255
 20
16.9439163151
 11
73.600103255
 21
17.0966929462
  0
ARC
  5
260
100
AcDbEntity
  8
0
100
AcDbCircle
 62
7
  6
CONTINUOUS
 10
73.6306050141
 20
17.0966929462
 40
0.0305017586
100
AcDbArc
 50
90.0
 51
180.0
  0
LINE
  5
261
100
AcDbEntity
  8
0
100
AcDbLine
 62
7
  6
CONTINUOUS
 10
73.6306050135
 20
17.1271947048
 11
74.1031279987
 21
17.1271947048
  0
ARC
  5
262
100
AcDbEntity
  8
0
100
AcDbCircle
 62
7
  6
CONTINUOUS
 10
74.1031279976
 20
17.0966929474
 40
0.0305017586
100
AcDbArc
 50
0.0
 51
90.0
  0
LINE
  5
263
100
AcDbEntity
  8
0
100
AcDbLine
 62
7
  6
CONTINUOUS
 10
74.1336297573
 20
16.9439163151
 11
74.2737156303
 21
16.9439163151
  0
ARC
  5
264
100
AcDbEntity
  8
0
100
AcDbCircle
 62
7
  6
CONTINUOUS
 10
74.2737156303
 20
17.0232208873
 40
0.0793045722
100
AcDbArc
 50
270.0
 51
360.0
  0
LINE
  5
265
100
AcDbEntity
  8
0
100
AcDbLine
 62
7
  6
CONTINUOUS
 10
74.1336297573
 20
16.9439163151
 11
74.1336297573
 21
17.0966929462
  0
LINE
  5
266
100
AcDbEntity
  8
0
100
AcDbLine
 62
7
  6
CONTINUOUS
 10
72.6099339835
 20
17.0232208873
 11
72.6099339835
 21
17.8140093381
  0
ARC
  5
267
100
AcDbEntity
  8
0
100
AcDbCircle
 62
7
  6
CONTINUOUS
 10
72.6892385568
 20
17.8140093381
 40
0.0793045722
100
AcDbArc
 50
90.0
 51
180.0
  0
LINE
  5
268
100
AcDbEntity
  8
0
100
AcDbLine
 62
7
  6
CONTINUOUS
 10
72.6892385557
 20
17.8933139103
 11
74.2737156303
 21
17.8933139103
  0
ARC
  5
269
100
AcDbEntity
  8
0
100
AcDbCircle
 62
7
  6
CONTINUOUS
 10
74.273715631
 20
17.8140093374
 40
0.0793045722
100
AcDbArc
 50
0.0000000277
 51
90.0000000277
  0
ARC
  5
26A
100
AcDbEntity
  8
0
100
AcDbCircle
 62
7
  6
CONTINUOUS
 10
75.7540283332
 20
17.6464285589
 40
0.0793045722
100
AcDbArc
 50
180.0
 51
270.0
  0
ARC
  5
26B
100
AcDbEntity
  8
0
100
AcDbCircle
 62
7
  6
CONTINUOUS
 10
76.8281831233
 20
17.0053220198
 40
0.0793045722
100
AcDbArc
 50
270.0
 51
360.0
  0
ARC
  5
26C
100
AcDbEntity
  8
0
100
AcDbCircle
 62
7
  6
CONTINUOUS
 10
78.5634867003
 20
17.012192059
 40
0.0793045722
100
AcDbArc
 50
180.0
 51
270.0
  0
ENDBLK
  5
26D
100
AcDbEntity
  8
0
  6
BYBLOCK
 62
0
100
AcDbBlockEnd
  0
BLOCK
  5
26E
100
AcDbEntity
  8
0
100
AcDbBlockBegin
  2
_FILLED
 70
64
 10
0.0
 20
0.0
  3
_FILLED
  1

  0
SOLID
  5
26F
100
AcDbEntity
  8
0
  6
BYBLOCK
 62
0
100
AcDbTrace
 10
0.0
 20
0.0
 11
-1.0
 21
0.1666666667
 12
-1.0
 22
-0.1666666667
 13
-1.0
 23
-0.1666666667
  0
ENDBLK
  5
270
100
AcDbEntity
  8
0
  6
BYBLOCK
 62
0
100
AcDbBlockEnd
  0
BLOCK
  5
271
100
AcDbEntity
  8
0
100
AcDbBlockBegin
 62
2
  6
CONTINUOUS
  2
*D0
 70
65
 10
0.0
 20
0.0
  3
*D0
  1

  0
MTEXT
  5
272
100
AcDbEntity
  8
0
100
AcDbMText
 62
2
  6
CONTINUOUS
  7
STANDARD
 71
2
 72
1
 10
11.3359485216
 20
51.4971686387
 30
0.0
 11
1.0
 21
0.0
 31
0.0
 44
0.9
  1
434\P[17.1]
 40
1.0016025641
 41
3.3625228938
  0
LINE
  5
273
100
AcDbEntity
  8
0
100
AcDbLine
 62
2
  6
CONTINUOUS
 10
14.8861772405
 20
42.4609736559
 11
11.0712392725
 21
42.4609736559
  0
LINE
  5
274
100
AcDbEntity
  8
0
100
AcDbLine
 62
2
  6
CONTINUOUS
 10
15.8621141906
 20
59.5317610575
 11
11.0712392725
 21
59.5317610575
  0
LINE
  5
275
100
AcDbEntity
  8
0
100
AcDbLine
 62
2
  6
CONTINUOUS
 10
11.8725213238
 20
42.4609736559
 11
11.8725213238
 21
48.4923609464
  0
LINE
  5
276
100
AcDbEntity
  8
0
100
AcDbLine
 62
2
  6
CONTINUOUS
 10
11.8725213238
 20
59.5317610575
 11
11.8725213238
 21
51.9979699208
  0
INSERT
  5
277
100
AcDbEntity
  8
0
100
AcDbBlockReference
 62
2
  6
CONTINUOUS
  2
_FILLED
 10
11.8725213238
 20
42.4609736559
 41
1.2019230769
 42
1.2019230769
 43
1.2019230769
 50
270.0
  0
INSERT
  5
278
100
AcDbEntity
  8
0
100
AcDbBlockReference
 62
2
  6
CONTINUOUS
  2
_FILLED
 10
11.8725213238
 20
59.5317610575
 41
1.2019230769
 42
1.2019230769
 43
1.2019230769
 50
90.0
  0
ENDBLK
  5
279
100
AcDbEntity
  8
0
  6
BYBLOCK
 62
0
100
AcDbBlockEnd
  0
BLOCK
  5
27A
100
AcDbEntity
  8
0
100
AcDbBlockBegin
 62
2
  6
CONTINUOUS
  2
*D1
 70
65
 10
0.0
 20
0.0
  3
*D1
  1

  0
MTEXT
  5
27B
100
AcDbEntity
  8
0
100
AcDbMText
 62
2
  6
CONTINUOUS
  7
STANDARD
 71
2
 72
1
 10
24.0126200889
 20
41.344825392
 30
0.0
 11
1.0
 21
0.0
 31
0.0
 44
0.9
  1
481\P[18.9]
 40
1.0016025641
 41
3.5771520147
  0
LINE
  5
27C
100
AcDbEntity
  8
0
100
AcDbLine
 62
2
  6
CONTINUOUS
 10
34.2021412368
 20
43.0012775121
 11
34.2021412368
 21
40.0427420587
  0
LINE
  5
27D
100
AcDbEntity
  8
0
100
AcDbLine
 62
2
  6
CONTINUOUS
 10
15.2539597468
 20
43.0012775121
 11
15.2539597468
 21
40.0427420587
  0
LINE
  5
27E
100
AcDbEntity
  8
0
100
AcDbLine
 62
2
  6
CONTINUOUS
 10
34.2021412368
 20
40.84402411
 11
27.0174277812
 21
40.84402411
  0
LINE
  5
27F
100
AcDbEntity
  8
0
100
AcDbLine
 62
2
  6
CONTINUOUS
 10
15.2539597468
 20
40.84402411
 11
22.4386732024
 21
40.84402411
  0
INSERT
  5
280
100
AcDbEntity
  8
0
100
AcDbBlockReference
 62
2
  6
CONTINUOUS
  2
_FILLED
 10
34.2021412368
 20
40.84402411
 41
1.2019230769
 42
1.2019230769
 43
1.2019230769
  0
INSERT
  5
281
100
AcDbEntity
  8
0
100
AcDbBlockReference
 62
2
  6
CONTINUOUS
  2
_FILLED
 10
15.2539597468
 20
40.84402411
 41
1.2019230769
 42
1.2019230769
 43
1.2019230769
 50
180.0
  0
ENDBLK
  5
282
100
AcDbEntity
  8
0
  6
BYBLOCK
 62
0
100
AcDbBlockEnd
  0
BLOCK
  5
283
100
AcDbEntity
  8
0
100
AcDbBlockBegin
 62
2
  6
CONTINUOUS
  2
*D2
 70
65
 10
0.0
 20
0.0
  3
*D2
  1

  0
MTEXT
  5
284
100
AcDbEntity
  8
0
100
AcDbMText
 62
2
  6
CONTINUOUS
  7
STANDARD
 71
2
 72
1
 10
24.0841631292
 20
63.0539039538
 30
0.0
 11
1.0
 21
0.0
 31
0.0
 44
0.9
  1
437\P[17.2]
 40
1.0016025641
 41
3.5771520147
  0
LINE
  5
285
100
AcDbEntity
  8
0
100
AcDbLine
 62
2
  6
CONTINUOUS
 10
16.1328339564
 20
59.8024808233
 11
16.1328339564
 21
63.354384723
  0
LINE
  5
286
100
AcDbEntity
  8
0
100
AcDbLine
 62
2
  6
CONTINUOUS
 10
33.3232670272
 20
59.8024808233
 11
33.3232670272
 21
63.354384723
  0
LINE
  5
287
100
AcDbEntity
  8
0
100
AcDbLine
 62
2
  6
CONTINUOUS
 10
16.1328339564
 20
62.5531026718
 11
22.4386732024
 21
62.5531026718
  0
LINE
  5
288
100
AcDbEntity
  8
0
100
AcDbLine
 62
2
  6
CONTINUOUS
 10
33.3232670272
 20
62.5531026718
 11
27.0174277812
 21
62.5531026718
  0
INSERT
  5
289
100
AcDbEntity
  8
0
100
AcDbBlockReference
 62
2
  6
CONTINUOUS
  2
_FILLED
 10
16.1328339564
 20
62.5531026718
 41
1.2019230769
 42
1.2019230769
 43
1.2019230769
 50
180.0
  0
INSERT
  5
28A
100
AcDbEntity
  8
0
100
AcDbBlockReference
 62
2
  6
CONTINUOUS
  2
_FILLED
 10
33.3232670272
 20
62.5531026718
 41
1.2019230769
 42
1.2019230769
 43
1.2019230769
  0
ENDBLK
  5
28B
100
AcDbEntity
  8
0
  6
BYBLOCK
 62
0
100
AcDbBlockEnd
  0
BLOCK
  5
28C
100
AcDbEntity
  8
0
100
AcDbBlockBegin
 62
2
  6
CONTINUOUS
  2
*D3
 70
65
 10
0.0
 20
0.0
  3
*D3
  1

  0
MTEXT
  5
28D
100
AcDbEntity
  8
0
100
AcDbMText
 62
2
  6
CONTINUOUS
  7
STANDARD
 71
2
 72
1
 10
37.0201844589
 20
31.0454925686
 30
0.0
 11
1.0
 21
0.0
 31
0.0
 44
0.9
  1
88\P[3.5]
 40
1.0016025641
 41
2.8617216117
  0
LINE
  5
28E
100
AcDbEntity
  8
0
100
AcDbLine
 62
2
  6
CONTINUOUS
 10
34.5699237431
 20
31.452522282
 11
38.4653538728
 21
31.452522282
  0
LINE
  5
28F
100
AcDbEntity
  8
0
100
AcDbLine
 62
2
  6
CONTINUOUS
 10
34.5699237431
 20
27.9986246442
 11
38.4653538728
 21
27.9986246442
  0
LINE
  5
290
100
AcDbEntity
  8
0
100
AcDbLine
 62
2
  6
CONTINUOUS
 10
37.6640718215
 20
31.452522282
 11
37.6640718215
 21
34.6576504871
  0
LINE
  5
291
100
AcDbEntity
  8
0
100
AcDbLine
 62
2
  6
CONTINUOUS
 10
37.6640718215
 20
27.9986246442
 11
37.6640718215
 21
24.7934964391
  0
INSERT
  5
292
100
AcDbEntity
  8
0
100
AcDbBlockReference
 62
2
  6
CONTINUOUS
  2
_FILLED
 10
37.6640718215
 20
31.452522282
 41
1.2019230769
 42
1.2019230769
 43
1.2019230769
 50
270.0
  0
INSERT
  5
293
100
AcDbEntity
  8
0
100
AcDbBlockReference
 62
2
  6
CONTINUOUS
  2
_FILLED
 10
37.6640718215
 20
27.9986246442
 41
1.2019230769
 42
1.2019230769
 43
1.2019230769
 50
90.0
  0
ENDBLK
  5
294
100
AcDbEntity
  8
0
  6
BYBLOCK
 62
0
100
AcDbBlockEnd
  0
BLOCK
  5
295
100
AcDbEntity
  8
0
100
AcDbBlockBegin
 62
2
  6
CONTINUOUS
  2
*D4
 70
65
 10
0.0
 20
0.0
  3
*D4
  1

  0
MTEXT
  5
296
100
AcDbEntity
  8
0
100
AcDbMText
 62
2
  6
CONTINUOUS
  7
STANDARD
 71
2
 72
1
 10
5.6994530345
 20
30.9278691865
 30
0.0
 11
1.0
 21
0.0
 31
0.0
 44
0.9
  1
2X 76\P[3.0]
 40
1.0016025641
 41
4.0064102564
  0
LINE
  5
297
100
AcDbEntity
  8
0
100
AcDbLine
 62
2
  6
CONTINUOUS
 10
14.8603438148
 20
31.2255734631
 11
5.577829866
 21
31.2255734631
  0
LINE
  5
298
100
AcDbEntity
  8
0
100
AcDbLine
 62
2
  6
CONTINUOUS
 10
14.8636413899
 20
28.2255734631
 11
5.577829866
 21
28.2255734631
  0
LINE
  5
299
100
AcDbEntity
  8
0
100
AcDbLine
 62
2
  6
CONTINUOUS
 10
6.3791119172
 20
31.2255734631
 11
6.3791119172
 21
34.4307016682
  0
LINE
  5
29A
100
AcDbEntity
  8
0
100
AcDbLine
 62
2
  6
CONTINUOUS
 10
6.3791119172
 20
28.2255734631
 11
6.3791119172
 21
25.020445258
  0
INSERT
  5
29B
100
AcDbEntity
  8
0
100
AcDbBlockReference
 62
2
  6
CONTINUOUS
  2
_FILLED
 10
6.3791119172
 20
31.2255734631
 41
1.2019230769
 42
1.2019230769
 43
1.2019230769
 50
270.0
  0
INSERT
  5
29C
100
AcDbEntity
  8
0
100
AcDbBlockReference
 62
2
  6
CONTINUOUS
  2
_FILLED
 10
6.3791119172
 20
28.2255734631
 41
1.2019230769
 42
1.2019230769
 43
1.2019230769
 50
90.0
  0
ENDBLK
  5
29D
100
AcDbEntity
  8
0
  6
BYBLOCK
 62
0
100
AcDbBlockEnd
  0
BLOCK
  5
29E
100
AcDbEntity
  8
0
100
AcDbBlockBegin
 62
2
  6
CONTINUOUS
  2
*D5
 70
65
 10
0.0
 20
0.0
  3
*D5
  1

  0
MTEXT
  5
29F
100
AcDbEntity
  8
0
100
AcDbMText
 62
2
  6
CONTINUOUS
  7
STANDARD
 71
2
 72
1
 10
24.1557061695
 20
35.8049799664
 30
0.0
 11
1.0
 21
0.0
 31
0.0
 44
0.9
  1
2X 469\P[18.5]
 40
1.0016025641
 41
4.7933836996
  0
LINE
  5
2A0
100
AcDbEntity
  8
0
100
AcDbLine
 62
2
  6
CONTINUOUS
 10
15.4941922241
 20
31.8818223718
 11
15.4941922241
 21
36.1054607356
  0
LINE
  5
2A1
100
AcDbEntity
  8
0
100
AcDbLine
 62
2
  6
CONTINUOUS
 10
33.9619087595
 20
31.8693778687
 11
33.9619087595
 21
36.1054607356
  0
LINE
  5
2A2
100
AcDbEntity
  8
0
100
AcDbLine
 62
2
  6
CONTINUOUS
 10
15.4941922241
 20
35.3041786843
 11
21.2582130376
 21
35.3041786843
  0
LINE
  5
2A3
100
AcDbEntity
  8
0
100
AcDbLine
 62
2
  6
CONTINUOUS
 10
33.9619087595
 20
35.3041786843
 11
28.197887946
 21
35.3041786843
  0
INSERT
  5
2A4
100
AcDbEntity
  8
0
100
AcDbBlockReference
 62
2
  6
CONTINUOUS
  2
_FILLED
 10
15.4941922241
 20
35.3041786843
 41
1.2019230769
 42
1.2019230769
 43
1.2019230769
 50
180.0
  0
INSERT
  5
2A5
100
AcDbEntity
  8
0
100
AcDbBlockReference
 62
2
  6
CONTINUOUS
  2
_FILLED
 10
33.9619087595
 20
35.3041786843
 41
1.2019230769
 42
1.2019230769
 43
1.2019230769
  0
ENDBLK
  5
2A6
100
AcDbEntity
  8
0
  6
BYBLOCK
 62
0
100
AcDbBlockEnd
  0
BLOCK
  5
2A7
100
AcDbEntity
  8
0
100
AcDbBlockBegin
 62
2
  6
CONTINUOUS
  2
*D6
 70
65
 10
0.0
 20
0.0
  3
*D6
  1

  0
MTEXT
  5
2A8
100
AcDbEntity
  8
0
100
AcDbMText
 62
2
  6
CONTINUOUS
  7
STANDARD
 71
1
 72
1
 10
19.3791104624
 20
23.224153842
 30
0.0
 11
1.0
 21
0.0
 31
0.0
 44
0.9
  1
4X 3\P[.1]
 40
1.0016025641
 41
3.1478937729
  0
LINE
  5
2A9
100
AcDbEntity
  8
0
100
AcDbLine
 62
2
  6
CONTINUOUS
 10
15.4941922241
 20
27.5727383193
 11
15.4941922241
 21
21.9220705086
  0
LINE
  5
2AA
100
AcDbEntity
  8
0
100
AcDbLine
 62
2
  6
CONTINUOUS
 10
15.6241922241
 20
27.571191876
 11
15.6241922241
 21
21.9220705086
  0
LINE
  5
2AB
100
AcDbEntity
  8
0
100
AcDbLine
 62
2
  6
CONTINUOUS
 10
15.4941922241
 20
22.7233525599
 11
12.289064019
 21
22.7233525599
  0
LINE
  5
2AC
100
AcDbEntity
  8
0
100
AcDbLine
 62
2
  6
CONTINUOUS
 10
15.6241922241
 20
22.7233525599
 11
18.8783091804
 21
22.7233525599
  0
INSERT
  5
2AD
100
AcDbEntity
  8
0
100
AcDbBlockReference
 62
2
  6
CONTINUOUS
  2
_FILLED
 10
15.4941922241
 20
22.7233525599
 41
1.2019230769
 42
1.2019230769
 43
1.2019230769
  0
INSERT
  5
2AE
100
AcDbEntity
  8
0
100
AcDbBlockReference
 62
2
  6
CONTINUOUS
  2
_FILLED
 10
15.6241922241
 20
22.7233525599
 41
1.2019230769
 42
1.2019230769
 43
1.2019230769
 50
180.0
  0
ENDBLK
  5
2AF
100
AcDbEntity
  8
0
  6
BYBLOCK
 62
0
100
AcDbBlockEnd
  0
BLOCK
  5
2B0
100
AcDbEntity
  8
0
100
AcDbBlockBegin
 62
2
  6
CONTINUOUS
  2
*D7
 70
65
 10
0.0
 20
0.0
  3
*D7
  1

  0
MTEXT
  5
2B1
100
AcDbEntity
  8
0
100
AcDbMText
 62
2
  6
CONTINUOUS
  7
STANDARD
 71
3
 72
1
 10
11.2639928809
 20
26.6368714042
 30
0.0
 11
1.0
 21
0.0
 31
0.0
 44
0.9
  1
4X 7\P[.3]
 40
1.0016025641
 41
3.2194368132
  0
LINE
  5
2B2
100
AcDbEntity
  8
0
100
AcDbLine
 62
2
  6
CONTINUOUS
 10
15.0935511984
 20
28.3535655891
 11
12.986678113
 21
28.3535655891
  0
LINE
  5
2B3
100
AcDbEntity
  8
0
100
AcDbLine
 62
2
  6
CONTINUOUS
 10
15.0935511984
 20
28.0975813371
 11
12.986678113
 21
28.0975813371
  0
LINE
  5
2B4
100
AcDbEntity
  8
0
100
AcDbLine
 62
2
  6
CONTINUOUS
 10
13.7879601643
 20
28.3535655891
 11
13.7879601643
 21
31.5586937942
  0
LINE
  5
2B5
100
AcDbEntity
  8
0
100
AcDbLine
 62
2
  6
CONTINUOUS
 10
13.7879601643
 20
28.0975813371
 11
13.7879601643
 21
26.1360701222
  0
LINE
  5
2B6
100
AcDbEntity
  8
0
100
AcDbLine
 62
2
  6
CONTINUOUS
 10
13.7879601643
 20
26.1360701222
 11
13.1241119285
 21
26.1360701222
  0
INSERT
  5
2B7
100
AcDbEntity
  8
0
100
AcDbBlockReference
 62
2
  6
CONTINUOUS
  2
_FILLED
 10
13.7879601643
 20
28.3535655891
 41
1.2019230769
 42
1.2019230769
 43
1.2019230769
 50
270.0
  0
INSERT
  5
2B8
100
AcDbEntity
  8
0
100
AcDbBlockReference
 62
2
  6
CONTINUOUS
  2
_FILLED
 10
13.7879601643
 20
28.0975813371
 41
1.2019230769
 42
1.2019230769
 43
1.2019230769
 50
90.0
  0
ENDBLK
  5
2B9
100
AcDbEntity
  8
0
  6
BYBLOCK
 62
0
100
AcDbBlockEnd
  0
BLOCK
  5
2BA
100
AcDbEntity
  8
0
100
AcDbBlockBegin
 62
2
  6
CONTINUOUS
  2
*D8
 70
65
 10
0.0
 20
0.0
  3
*D8
  1

  0
MTEXT
  5
2BB
100
AcDbEntity
  8
0
100
AcDbMText
 62
2
  6
CONTINUOUS
  7
STANDARD
 71
2
 72
1
 10
60.4703356937
 20
36.6221860991
 30
0.0
 11
1.0
 21
0.0
 31
0.0
 44
0.9
  1
30\P[1.2]
 40
1.0016025641
 41
2.7901785714
  0
LINE
  5
2BC
100
AcDbEntity
  8
0
100
AcDbLine
 62
2
  6
CONTINUOUS
 10
59.1250309396
 20
30.3255734631
 11
61.9155051076
 21
30.3255734631
  0
LINE
  5
2BD
100
AcDbEntity
  8
0
100
AcDbLine
 62
2
  6
CONTINUOUS
 10
59.1369216884
 20
29.1255734631
 11
61.9155051076
 21
29.1255734631
  0
LINE
  5
2BE
100
AcDbEntity
  8
0
100
AcDbLine
 62
2
  6
CONTINUOUS
 10
61.1142230563
 20
30.3255734631
 11
61.1142230563
 21
33.6173784068
  0
LINE
  5
2BF
100
AcDbEntity
  8
0
100
AcDbLine
 62
2
  6
CONTINUOUS
 10
61.1142230563
 20
29.1255734631
 11
61.1142230563
 21
25.920445258
  0
INSERT
  5
2C0
100
AcDbEntity
  8
0
100
AcDbBlockReference
 62
2
  6
CONTINUOUS
  2
_FILLED
 10
61.1142230563
 20
30.3255734631
 41
1.2019230769
 42
1.2019230769
 43
1.2019230769
 50
270.0
  0
INSERT
  5
2C1
100
AcDbEntity
  8
0
100
AcDbBlockReference
 62
2
  6
CONTINUOUS
  2
_FILLED
 10
61.1142230563
 20
29.1255734631
 41
1.2019230769
 42
1.2019230769
 43
1.2019230769
 50
90.0
  0
ENDBLK
  5
2C2
100
AcDbEntity
  8
0
  6
BYBLOCK
 62
0
100
AcDbBlockEnd
  0
BLOCK
  5
2C3
100
AcDbEntity
  8
0
100
AcDbBlockBegin
 62
2
  6
CONTINUOUS
  2
*D9
 70
65
 10
0.0
 20
0.0
  3
*D9
  1

  0
MTEXT
  5
2C4
100
AcDbEntity
  8
0
100
AcDbMText
 62
2
  6
CONTINUOUS
  7
STANDARD
 71
3
 72
1
 10
52.4607094595
 20
27.5443314817
 30
0.0
 11
1.0
 21
0.0
 31
0.0
 44
0.9
  1
2X \Fgdt;{\Fgdt;n}\Ftxt;4\P[.1]
 40
1.0016025641
 41
4.5549068987
  0
LINE
  5
2C5
100
AcDbEntity
  8
0
100
AcDbLine
 62
2
  6
CONTINUOUS
 10
58.4625234631
 20
30.2756982283
 11
55.279505247
 21
27.0435301996
  0
LINE
  5
2C6
100
AcDbEntity
  8
0
100
AcDbLine
 62
2
  6
CONTINUOUS
 10
55.279505247
 20
27.0435301996
 11
54.1777424265
 21
27.0435301996
  0
INSERT
  5
2C7
100
AcDbEntity
  8
0
100
AcDbBlockReference
 62
2
  6
CONTINUOUS
  2
_FILLED
 10
58.4625234631
 20
30.2756982283
 41
1.2019230769
 42
1.2019230769
 43
1.2019230769
 50
45.4389618042
  0
ENDBLK
  5
2C8
100
AcDbEntity
  8
0
  6
BYBLOCK
 62
0
100
AcDbBlockEnd
  0
BLOCK
  5
2C9
100
AcDbEntity
  8
0
100
AcDbBlockBegin
 62
2
  6
CONTINUOUS
  2
*D10
 70
65
 10
0.0
 20
0.0
  3
*D10
  1

  0
MTEXT
  5
2CA
100
AcDbEntity
  8
0
100
AcDbMText
 62
2
  6
CONTINUOUS
  7
STANDARD
 71
2
 72
1
 10
84.7164043457
 20
26.0720708391
 30
0.0
 11
1.0
 21
0.0
 31
0.0
 44
0.9
  1
2X 422\P[16.6]
 40
1.0016025641
 41
4.7933836996
  0
LINE
  5
2CB
100
AcDbEntity
  8
0
100
AcDbLine
 62
2
  6
CONTINUOUS
 10
77.0082800308
 20
28.4037022944
 11
77.0082800308
 21
24.7699875058
  0
LINE
  5
2CC
100
AcDbEntity
  8
0
100
AcDbLine
 62
2
  6
CONTINUOUS
 10
93.6407603457
 20
28.4555140975
 11
93.6407603457
 21
24.7699875058
  0
LINE
  5
2CD
100
AcDbEntity
  8
0
100
AcDbLine
 62
2
  6
CONTINUOUS
 10
77.0082800308
 20
25.571269557
 11
81.8189112139
 21
25.571269557
  0
LINE
  5
2CE
100
AcDbEntity
  8
0
100
AcDbLine
 62
2
  6
CONTINUOUS
 10
93.6407603457
 20
25.571269557
 11
88.8301291626
 21
25.571269557
  0
INSERT
  5
2CF
100
AcDbEntity
  8
0
100
AcDbBlockReference
 62
2
  6
CONTINUOUS
  2
_FILLED
 10
77.0082800308
 20
25.571269557
 41
1.2019230769
 42
1.2019230769
 43
1.2019230769
 50
180.0
  0
INSERT
  5
2D0
100
AcDbEntity
  8
0
100
AcDbBlockReference
 62
2
  6
CONTINUOUS
  2
_FILLED
 10
93.6407603457
 20
25.571269557
 41
1.2019230769
 42
1.2019230769
 43
1.2019230769
  0
ENDBLK
  5
2D1
100
AcDbEntity
  8
0
  6
BYBLOCK
 62
0
100
AcDbBlockEnd
  0
BLOCK
  5
2D2
100
AcDbEntity
  8
0
100
AcDbBlockBegin
 62
2
  6
CONTINUOUS
  2
*D11
 70
65
 10
0.0
 20
0.0
  3
*D11
  1

  0
MTEXT
  5
2D3
100
AcDbEntity
  8
0
100
AcDbMText
 62
2
  6
CONTINUOUS
  7
STANDARD
 71
1
 72
1
 10
97.2350327754
 20
33.9181140543
 30
0.0
 11
1.0
 21
0.0
 31
0.0
 44
0.9
  1
2X 30\P[1.2]
 40
1.0016025641
 41
3.9348672161
  0
LINE
  5
2D4
100
AcDbEntity
  8
0
100
AcDbLine
 62
2
  6
CONTINUOUS
 10
94.3406982721
 20
30.3255734631
 11
96.4337507241
 21
30.3255734631
  0
LINE
  5
2D5
100
AcDbEntity
  8
0
100
AcDbLine
 62
2
  6
CONTINUOUS
 10
94.3310825548
 20
29.1255734631
 11
96.4337507241
 21
29.1255734631
  0
LINE
  5
2D6
100
AcDbEntity
  8
0
100
AcDbLine
 62
2
  6
CONTINUOUS
 10
95.6324686728
 20
30.3255734631
 11
95.6324686728
 21
33.4173127722
  0
LINE
  5
2D7
100
AcDbEntity
  8
0
100
AcDbLine
 62
2
  6
CONTINUOUS
 10
95.6324686728
 20
33.4173127722
 11
96.7342314933
 21
33.4173127722
  0
LINE
  5
2D8
100
AcDbEntity
  8
0
100
AcDbLine
 62
2
  6
CONTINUOUS
 10
95.6324686728
 20
29.1255734631
 11
95.6324686728
 21
25.920445258
  0
INSERT
  5
2D9
100
AcDbEntity
  8
0
100
AcDbBlockReference
 62
2
  6
CONTINUOUS
  2
_FILLED
 10
95.6324686728
 20
30.3255734631
 41
1.2019230769
 42
1.2019230769
 43
1.2019230769
 50
270.0
  0
INSERT
  5
2DA
100
AcDbEntity
  8
0
100
AcDbBlockReference
 62
2
  6
CONTINUOUS
  2
_FILLED
 10
95.6324686728
 20
29.1255734631
 41
1.2019230769
 42
1.2019230769
 43
1.2019230769
 50
90.0
  0
ENDBLK
  5
2DB
100
AcDbEntity
  8
0
  6
BYBLOCK
 62
0
100
AcDbBlockEnd
  0
BLOCK
  5
2DC
100
AcDbEntity
  8
0
100
AcDbBlockBegin
 62
2
  6
CONTINUOUS
  2
*D12
 70
65
 10
0.0
 20
0.0
  3
*D12
  1

  0
MTEXT
  5
2DD
100
AcDbEntity
  8
0
100
AcDbMText
 62
2
  6
CONTINUOUS
  7
STANDARD
 71
1
 72
1
 10
79.8379199221
 20
35.0170374514
 30
0.0
 11
1.0
 21
0.0
 31
0.0
 44
0.9
  1
4X \Fgdt;{\Fgdt;n}\Ftxt;4\P[.1]
 40
1.0016025641
 41
4.5549068987
  0
LINE
  5
2DE
100
AcDbEntity
  8
0
100
AcDbLine
 62
2
  6
CONTINUOUS
 10
77.0279509222
 20
30.3927527458
 11
78.2353558195
 21
34.5162361694
  0
LINE
  5
2DF
100
AcDbEntity
  8
0
100
AcDbLine
 62
2
  6
CONTINUOUS
 10
78.2353558195
 20
34.5162361694
 11
79.33711864
 21
34.5162361694
  0
INSERT
  5
2E0
100
AcDbEntity
  8
0
100
AcDbBlockReference
 62
2
  6
CONTINUOUS
  2
_FILLED
 10
77.0279509222
 20
30.3927527458
 41
1.2019230769
 42
1.2019230769
 43
1.2019230769
 50
253.6793427813
  0
ENDBLK
  5
2E1
100
AcDbEntity
  8
0
  6
BYBLOCK
 62
0
100
AcDbBlockEnd
  0
BLOCK
  5
2E2
100
AcDbEntity
  8
0
100
AcDbBlockBegin
 62
2
  6
CONTINUOUS
  2
*D13
 70
65
 10
0.0
 20
0.0
  3
*D13
  1

  0
MTEXT
  5
2E3
100
AcDbEntity
  8
0
100
AcDbMText
 62
2
  6
CONTINUOUS
  7
STANDARD
 71
2
 72
1
 10
49.7928392572
 20
34.9066081226
 30
0.0
 11
1.0
 21
0.0
 31
0.0
 44
0.9
  1
2X 389\P[15.3]
 40
1.0016025641
 41
4.7218406593
  0
LINE
  5
2E4
100
AcDbEntity
  8
0
100
AcDbLine
 62
2
  6
CONTINUOUS
 10
42.7087268866
 20
31.8531633076
 11
42.7087268866
 21
35.2070888918
  0
LINE
  5
2E5
100
AcDbEntity
  8
0
100
AcDbLine
 62
2
  6
CONTINUOUS
 10
58.0216402725
 20
31.8248782618
 11
58.0216402725
 21
35.2070888918
  0
LINE
  5
2E6
100
AcDbEntity
  8
0
100
AcDbLine
 62
2
  6
CONTINUOUS
 10
42.7087268866
 20
34.4058068406
 11
46.9311176455
 21
34.4058068406
  0
LINE
  5
2E7
100
AcDbEntity
  8
0
100
AcDbLine
 62
2
  6
CONTINUOUS
 10
58.0216402725
 20
34.4058068406
 11
53.7992495136
 21
34.4058068406
  0
INSERT
  5
2E8
100
AcDbEntity
  8
0
100
AcDbBlockReference
 62
2
  6
CONTINUOUS
  2
_FILLED
 10
42.7087268866
 20
34.4058068406
 41
1.2019230769
 42
1.2019230769
 43
1.2019230769
 50
180.0
  0
INSERT
  5
2E9
100
AcDbEntity
  8
0
100
AcDbBlockReference
 62
2
  6
CONTINUOUS
  2
_FILLED
 10
58.0216402725
 20
34.4058068406
 41
1.2019230769
 42
1.2019230769
 43
1.2019230769
  0
ENDBLK
  5
2EA
100
AcDbEntity
  8
0
  6
BYBLOCK
 62
0
100
AcDbBlockEnd
  0
BLOCK
  5
2EB
100
AcDbEntity
  8
0
100
AcDbBlockBegin
 62
2
  6
CONTINUOUS
  2
*D14
 70
65
 10
0.0
 20
0.0
  3
*D14
  1

  0
MTEXT
  5
2EC
100
AcDbEntity
  8
0
100
AcDbMText
 62
2
  6
CONTINUOUS
  7
STANDARD
 71
3
 72
1
 10
53.4160004192
 20
38.6080118244
 30
0.0
 11
1.0
 21
0.0
 31
0.0
 44
0.9
  1
2X 10\P[.4]
 40
1.0016025641
 41
3.7917811355
  0
LINE
  5
2ED
100
AcDbEntity
  8
0
100
AcDbLine
 62
2
  6
CONTINUOUS
 10
58.1216402725
 20
31.8466485626
 11
58.1216402725
 21
38.9084925936
  0
LINE
  5
2EE
100
AcDbEntity
  8
0
100
AcDbLine
 62
2
  6
CONTINUOUS
 10
58.5116402725
 20
30.6963020169
 11
58.5116402725
 21
38.9084925936
  0
LINE
  5
2EF
100
AcDbEntity
  8
0
100
AcDbLine
 62
2
  6
CONTINUOUS
 10
58.1216402725
 20
38.1072105423
 11
54.7753181848
 21
38.1072105423
  0
LINE
  5
2F0
100
AcDbEntity
  8
0
100
AcDbLine
 62
2
  6
CONTINUOUS
 10
58.5116402725
 20
38.1072105423
 11
61.7167684776
 21
38.1072105423
  0
INSERT
  5
2F1
100
AcDbEntity
  8
0
100
AcDbBlockReference
 62
2
  6
CONTINUOUS
  2
_FILLED
 10
58.1216402725
 20
38.1072105423
 41
1.2019230769
 42
1.2019230769
 43
1.2019230769
  0
INSERT
  5
2F2
100
AcDbEntity
  8
0
100
AcDbBlockReference
 62
2
  6
CONTINUOUS
  2
_FILLED
 10
58.5116402725
 20
38.1072105423
 41
1.2019230769
 42
1.2019230769
 43
1.2019230769
 50
180.0
  0
ENDBLK
  5
2F3
100
AcDbEntity
  8
0
  6
BYBLOCK
 62
0
100
AcDbBlockEnd
  0
BLOCK
  5
2F4
100
AcDbEntity
  8
0
100
AcDbBlockBegin
 62
2
  6
CONTINUOUS
  2
*D15
 70
65
 10
0.0
 20
0.0
  3
*D15
  1

  0
MTEXT
  5
2F5
100
AcDbEntity
  8
0
100
AcDbMText
 62
2
  6
CONTINUOUS
  7
STANDARD
 71
1
 72
1
 10
70.9807038842
 20
26.110092006
 30
0.0
 11
1.0
 21
0.0
 31
0.0
 44
0.9
  1
2X 57\P[2.3]
 40
1.0016025641
 41
3.9348672161
  0
LINE
  5
2F6
100
AcDbEntity
  8
0
100
AcDbLine
 62
2
  6
CONTINUOUS
 10
59.2633069391
 20
30.8505734631
 11
70.179421833
 21
30.8505734631
  0
LINE
  5
2F7
100
AcDbEntity
  8
0
100
AcDbLine
 62
2
  6
CONTINUOUS
 10
59.2633069391
 20
28.6005734631
 11
70.179421833
 21
28.6005734631
  0
LINE
  5
2F8
100
AcDbEntity
  8
0
100
AcDbLine
 62
2
  6
CONTINUOUS
 10
69.3781397817
 20
30.8505734631
 11
69.3781397817
 21
34.0557016682
  0
LINE
  5
2F9
100
AcDbEntity
  8
0
100
AcDbLine
 62
2
  6
CONTINUOUS
 10
69.3781397817
 20
28.6005734631
 11
69.3781397817
 21
25.6092907239
  0
LINE
  5
2FA
100
AcDbEntity
  8
0
100
AcDbLine
 62
2
  6
CONTINUOUS
 10
69.3781397817
 20
25.6092907239
 11
70.4799026022
 21
25.6092907239
  0
INSERT
  5
2FB
100
AcDbEntity
  8
0
100
AcDbBlockReference
 62
2
  6
CONTINUOUS
  2
_FILLED
 10
69.3781397817
 20
30.8505734631
 41
1.2019230769
 42
1.2019230769
 43
1.2019230769
 50
270.0
  0
INSERT
  5
2FC
100
AcDbEntity
  8
0
100
AcDbBlockReference
 62
2
  6
CONTINUOUS
  2
_FILLED
 10
69.3781397817
 20
28.6005734631
 41
1.2019230769
 42
1.2019230769
 43
1.2019230769
 50
90.0
  0
ENDBLK
  5
2FD
100
AcDbEntity
  8
0
  6
BYBLOCK
 62
0
100
AcDbBlockEnd
  0
BLOCK
  5
2FE
100
AcDbEntity
  8
0
100
AcDbBlockBegin
 62
2
  6
CONTINUOUS
  2
*D16
 70
65
 10
0.0
 20
0.0
  3
*D16
  1

  0
MTEXT
  5
2FF
100
AcDbEntity
  8
0
100
AcDbMText
 62
2
  6
CONTINUOUS
  7
STANDARD
 71
3
 72
1
 10
53.0795067707
 20
23.8227817772
 30
0.0
 11
1.0
 21
0.0
 31
0.0
 44
0.9
  1
2X 3\P[.1]
 40
1.0016025641
 41
3.1478937729
  0
LINE
  5
300
100
AcDbEntity
  8
0
100
AcDbLine
 62
2
  6
CONTINUOUS
 10
58.0216402725
 20
27.6511272131
 11
58.0216402725
 21
22.5206984439
  0
LINE
  5
301
100
AcDbEntity
  8
0
100
AcDbLine
 62
2
  6
CONTINUOUS
 10
58.1216402725
 20
27.6422783936
 11
58.1216402725
 21
22.5206984439
  0
LINE
  5
302
100
AcDbEntity
  8
0
100
AcDbLine
 62
2
  6
CONTINUOUS
 10
58.0216402725
 20
23.3219804952
 11
54.868082778
 21
23.3219804952
  0
LINE
  5
303
100
AcDbEntity
  8
0
100
AcDbLine
 62
2
  6
CONTINUOUS
 10
58.1216402725
 20
23.3219804952
 11
61.3267684776
 21
23.3219804952
  0
INSERT
  5
304
100
AcDbEntity
  8
0
100
AcDbBlockReference
 62
2
  6
CONTINUOUS
  2
_FILLED
 10
58.0216402725
 20
23.3219804952
 41
1.2019230769
 42
1.2019230769
 43
1.2019230769
  0
INSERT
  5
305
100
AcDbEntity
  8
0
100
AcDbBlockReference
 62
2
  6
CONTINUOUS
  2
_FILLED
 10
58.1216402725
 20
23.3219804952
 41
1.2019230769
 42
1.2019230769
 43
1.2019230769
 50
180.0
  0
ENDBLK
  5
306
100
AcDbEntity
  8
0
  6
BYBLOCK
 62
0
100
AcDbBlockEnd
  0
BLOCK
  5
307
100
AcDbEntity
  8
0
100
AcDbBlockBegin
 62
2
  6
CONTINUOUS
  2
*D17
 70
65
 10
0.0
 20
0.0
  3
*D17
  1

  0
MTEXT
  5
308
100
AcDbEntity
  8
0
100
AcDbMText
 62
2
  6
CONTINUOUS
  7
STANDARD
 71
1
 72
1
 10
64.7750073576
 20
26.163547564
 30
0.0
 11
1.0
 21
0.0
 31
0.0
 44
0.9
  1
2X 5\P[.2]
 40
1.0016025641
 41
3.1478937729
  0
LINE
  5
309
100
AcDbEntity
  8
0
100
AcDbLine
 62
2
  6
CONTINUOUS
 10
58.5222812981
 20
28.7005734631
 11
63.9737253063
 21
28.7005734631
  0
LINE
  5
30A
100
AcDbEntity
  8
0
100
AcDbLine
 62
2
  6
CONTINUOUS
 10
58.5222812981
 20
28.5005734631
 11
63.9737253063
 21
28.5005734631
  0
LINE
  5
30B
100
AcDbEntity
  8
0
100
AcDbLine
 62
2
  6
CONTINUOUS
 10
63.172443255
 20
28.7005734631
 11
63.172443255
 21
31.9057016682
  0
LINE
  5
30C
100
AcDbEntity
  8
0
100
AcDbLine
 62
2
  6
CONTINUOUS
 10
63.172443255
 20
28.5005734631
 11
63.172443255
 21
25.662746282
  0
LINE
  5
30D
100
AcDbEntity
  8
0
100
AcDbLine
 62
2
  6
CONTINUOUS
 10
63.172443255
 20
25.662746282
 11
64.2742060755
 21
25.662746282
  0
INSERT
  5
30E
100
AcDbEntity
  8
0
100
AcDbBlockReference
 62
2
  6
CONTINUOUS
  2
_FILLED
 10
63.172443255
 20
28.7005734631
 41
1.2019230769
 42
1.2019230769
 43
1.2019230769
 50
270.0
  0
INSERT
  5
30F
100
AcDbEntity
  8
0
100
AcDbBlockReference
 62
2
  6
CONTINUOUS
  2
_FILLED
 10
63.172443255
 20
28.5005734631
 41
1.2019230769
 42
1.2019230769
 43
1.2019230769
 50
90.0
  0
ENDBLK
  5
310
100
AcDbEntity
  8
0
  6
BYBLOCK
 62
0
100
AcDbBlockEnd
  0
BLOCK
  5
311
100
AcDbEntity
  8
0
100
AcDbBlockBegin
 62
2
  6
CONTINUOUS
  2
*D18
 70
65
 10
0.0
 20
0.0
  3
*D18
  1

  0
MTEXT
  5
312
100
AcDbEntity
  8
0
100
AcDbMText
 62
2
  6
CONTINUOUS
  7
STANDARD
 71
3
 72
1
 10
38.0097961131
 20
39.156811863
 30
0.0
 11
1.0
 21
0.0
 31
0.0
 44
0.9
  1
2X 7\P[.3]
 40
1.0016025641
 41
3.2194368132
  0
LINE
  5
313
100
AcDbEntity
  8
0
100
AcDbLine
 62
2
  6
CONTINUOUS
 10
42.7087268866
 20
31.8531633076
 11
42.7087268866
 21
39.4572926322
  0
LINE
  5
314
100
AcDbEntity
  8
0
100
AcDbLine
 62
2
  6
CONTINUOUS
 10
42.4502229496
 20
31.8531633076
 11
42.4502229496
 21
39.4572926322
  0
LINE
  5
315
100
AcDbEntity
  8
0
100
AcDbLine
 62
2
  6
CONTINUOUS
 10
42.7087268866
 20
38.656010581
 11
45.9138550918
 21
38.656010581
  0
LINE
  5
316
100
AcDbEntity
  8
0
100
AcDbLine
 62
2
  6
CONTINUOUS
 10
42.4502229496
 20
38.656010581
 11
39.8699151607
 21
38.656010581
  0
INSERT
  5
317
100
AcDbEntity
  8
0
100
AcDbBlockReference
 62
2
  6
CONTINUOUS
  2
_FILLED
 10
42.7087268866
 20
38.656010581
 41
1.2019230769
 42
1.2019230769
 43
1.2019230769
 50
180.0
  0
INSERT
  5
318
100
AcDbEntity
  8
0
100
AcDbBlockReference
 62
2
  6
CONTINUOUS
  2
_FILLED
 10
42.4502229496
 20
38.656010581
 41
1.2019230769
 42
1.2019230769
 43
1.2019230769
  0
ENDBLK
  5
319
100
AcDbEntity
  8
0
  6
BYBLOCK
 62
0
100
AcDbBlockEnd
  0
ENDSEC
  0
SECTION
  2
ENTITIES
  0
MTEXT
  5
31A
100
AcDbEntity
  8
0
100
AcDbMText
 62
2
  6
CONTINUOUS
  7
STANDARD
 71
1
 72
1
 10
15.8400199415
 20
2.5841270925
 30
0.0
 11
1.0
 21
0.0
 31
0.0
 44
0.9
  1
4
 40
1.0016025641
 41
0.7869734432
  0
MTEXT
  5
31B
100
AcDbEntity
  8
0
100
AcDbMText
 62
2
  6
CONTINUOUS
  7
STANDARD
 71
1
 72
1
 10
40.667658852
 20
2.5794412872
 30
0.0
 11
1.0
 21
0.0
 31
0.0
 44
0.9
  1
3
 40
1.0016025641
 41
0.7154304029
  0
MTEXT
  5
31C
100
AcDbEntity
  8
0
100
AcDbMText
 62
2
  6
CONTINUOUS
  7
STANDARD
 71
1
 72
1
 10
65.4378004074
 20
2.5815730832
 30
0.0
 11
1.0
 21
0.0
 31
0.0
 44
0.9
  1
2
 40
1.0016025641
 41
0.7869734432
  0
MTEXT
  5
31D
100
AcDbEntity
  8
0
100
AcDbMText
 62
2
  6
CONTINUOUS
  7
STANDARD
 71
1
 72
1
 10
90.2544762338
 20
2.5816805532
 30
0.0
 11
1.0
 21
0.0
 31
0.0
 44
0.9
  1
1
 40
1.0016025641
 41
0.5723443223
  0
MTEXT
  5
31E
100
AcDbEntity
  8
0
100
AcDbMText
 62
2
  6
CONTINUOUS
  7
STANDARD
 71
1
 72
1
 10
15.8435696883
 20
69.676657022
 30
0.0
 11
1.0
 21
0.0
 31
0.0
 44
0.9
  1
4
 40
1.0016025641
 41
0.7869734432
  0
MTEXT
  5
31F
100
AcDbEntity
  8
0
100
AcDbMText
 62
2
  6
CONTINUOUS
  7
STANDARD
 71
1
 72
1
 10
40.657855983
 20
69.6692117415
 30
0.0
 11
1.0
 21
0.0
 31
0.0
 44
0.9
  1
3
 40
1.0016025641
 41
0.7154304029
  0
MTEXT
  5
320
100
AcDbEntity
  8
0
100
AcDbMText
 62
2
  6
CONTINUOUS
  7
STANDARD
 71
1
 72
1
 10
65.4495632618
 20
69.6679528511
 30
0.0
 11
1.0
 21
0.0
 31
0.0
 44
0.9
  1
2
 40
1.0016025641
 41
0.7869734432
  0
MTEXT
  5
321
100
AcDbEntity
  8
0
100
AcDbMText
 62
2
  6
CONTINUOUS
  7
STANDARD
 71
1
 72
1
 10
90.2555899036
 20
69.6688555995
 30
0.0
 11
1.0
 21
0.0
 31
0.0
 44
0.9
  1
1
 40
1.0016025641
 41
0.5723443223
  0
MTEXT
  5
322
100
AcDbEntity
  8
0
100
AcDbMText
 62
2
  6
CONTINUOUS
  7
STANDARD
 71
1
 72
1
 10
1.6299241446
 20
11.9185660847
 30
0.0
 11
1.0
 21
0.0
 31
0.0
 44
0.9
  1
A
 40
1.0016025641
 41
0.8585164835
  0
MTEXT
  5
323
100
AcDbEntity
  8
0
100
AcDbMText
 62
2
  6
CONTINUOUS
  7
STANDARD
 71
1
 72
1
 10
1.6650463506
 20
27.9504526428
 30
0.0
 11
1.0
 21
0.0
 31
0.0
 44
0.9
  1
B
 40
1.0016025641
 41
0.7869734432
  0
MTEXT
  5
324
100
AcDbEntity
  8
0
100
AcDbMText
 62
2
  6
CONTINUOUS
  7
STANDARD
 71
1
 72
1
 10
1.6557631832
 20
43.9608978426
 30
0.0
 11
1.0
 21
0.0
 31
0.0
 44
0.9
  1
C
 40
1.0016025641
 41
0.8346688034
  0
MTEXT
  5
325
100
AcDbEntity
  8
0
100
AcDbMText
 62
2
  6
CONTINUOUS
  7
STANDARD
 71
1
 72
1
 10
1.6691779778
 20
60.0135108947
 30
0.0
 11
1.0
 21
0.0
 31
0.0
 44
0.9
  1
D
 40
1.0016025641
 41
0.9062118437
  0
MTEXT
  5
326
100
AcDbEntity
  8
0
100
AcDbMText
 62
2
  6
CONTINUOUS
  7
STANDARD
 71
1
 72
1
 10
104.1692232078
 20
11.9166358309
 30
0.0
 11
1.0
 21
0.0
 31
0.0
 44
0.9
  1
A
 40
1.0016025641
 41
0.8585164835
  0
MTEXT
  5
327
100
AcDbEntity
  8
0
100
AcDbMText
 62
2
  6
CONTINUOUS
  7
STANDARD
 71
1
 72
1
 10
104.1632491089
 20
27.9482893707
 30
0.0
 11
1.0
 21
0.0
 31
0.0
 44
0.9
  1
B
 40
1.0016025641
 41
0.7869734432
  0
MTEXT
  5
328
100
AcDbEntity
  8
0
100
AcDbMText
 62
2
  6
CONTINUOUS
  7
STANDARD
 71
1
 72
1
 10
104.1605962068
 20
43.957383078
 30
0.0
 11
1.0
 21
0.0
 31
0.0
 44
0.9
  1
C
 40
1.0016025641
 41
0.8346688034
  0
MTEXT
  5
329
100
AcDbEntity
  8
0
100
AcDbMText
 62
2
  6
CONTINUOUS
  7
STANDARD
 71
1
 72
1
 10
104.1630434858
 20
60.0116590433
 30
0.0
 11
1.0
 21
0.0
 31
0.0
 44
0.9
  1
D
 40
1.0016025641
 41
0.9062118437
  0
MTEXT
  5
32A
100
AcDbEntity
  8
0
100
AcDbMText
 62
5
  6
CONTINUOUS
  7
STANDARD
 71
1
 72
1
 10
3.4887522829
 20
67.0671296161
 30
0.0
 11
1.0
 21
0.0
 31
0.0
 44
0.9
  1
THIS DOCUMENT CONTAINS PROPRIETARY INFORMATION\PWHICH IS THE PROPERTY OF QSC AUDIO PRODUCTS, THAT\PMAY NOT BE DISCLOSED, REPRODUCED OR USED WITHOUT\PEXPRESS WRITTEN CONSENT FROM QSC AUDIO PRODUCTS.
 40
0.4807692308
 41
18.8644688645
  0
MTEXT
  5
32B
100
AcDbEntity
  8
0
100
AcDbMText
 62
2
  6
CONTINUOUS
  7
STANDARD
 71
2
 72
1
 10
46.3778671742
 20
16.6152916578
 30
0.0
 11
1.0
 21
0.0
 31
0.0
 44
0.9
  1
TOLERANCES ARE:
 40
0.5769230769
 41
6.6071428571
  0
MTEXT
  5
32C
100
AcDbEntity
  8
0
100
AcDbMText
 62
2
  6
CONTINUOUS
  7
STANDARD
 71
2
 72
1
 10
52.1108781691
 20
15.144235222
 30
0.0
 11
1.0
 21
0.0
 31
0.0
 44
0.9
  1
ANGLES\P\Fgdt;{\Fgdt;`}\Ftxt; 1/2
 40
0.5769230769
 41
2.7472527473
  0
MTEXT
  5
32D
100
AcDbEntity
  8
0
100
AcDbMText
 62
2
  6
CONTINUOUS
  7
STANDARD
 71
2
 72
1
 10
41.4033620564
 20
10.8091020357
 30
0.0
 11
1.0
 21
0.0
 31
0.0
 44
0.9
  1
MATERIAL
 40
0.5769230769
 41
3.6950549451
  0
MTEXT
  5
32E
100
AcDbEntity
  8
0
100
AcDbMText
 62
2
  6
CONTINUOUS
  7
STANDARD
 71
2
 72
1
 10
40.789357154
 20
6.9047860702
 30
0.0
 11
1.0
 21
0.0
 31
0.0
 44
0.9
  1
FINISH
 40
0.5769230769
 41
2.6236263736
  0
MTEXT
  5
32F
100
AcDbEntity
  8
0
100
AcDbMText
 62
2
  6
CONTINUOUS
  7
STANDARD
 71
2
 72
1
 10
85.0627712487
 20
4.3647600111
 30
0.0
 11
1.0
 21
0.0
 31
0.0
 44
0.9
  1
DO NOT SCALE DRAWING
 40
0.8012820513
 41
13.3165445665
  0
MTEXT
  5
330
100
AcDbEntity
  8
0
100
AcDbMText
 62
2
  6
CONTINUOUS
  7
STANDARD
 71
2
 72
1
 10
55.2817102206
 20
17.4209395421
 30
0.0
 11
1.0
 21
0.0
 31
0.0
 44
0.9
  1
DRAWN
 40
0.5769230769
 41
2.8159340659
  0
MTEXT
  5
331
100
AcDbEntity
  8
0
100
AcDbMText
 62
2
  6
CONTINUOUS
  7
STANDARD
 71
2
 72
1
 10
55.5068646059
 20
14.5795224001
 30
0.0
 11
1.0
 21
0.0
 31
0.0
 44
0.9
  1
CHECKED
 40
0.5769230769
 41
3.3241758242
  0
MTEXT
  5
332
100
AcDbEntity
  8
0
100
AcDbMText
 62
2
  6
CONTINUOUS
  7
STANDARD
 71
2
 72
1
 10
55.4670841431
 20
11.7827515674
 30
0.0
 11
1.0
 21
0.0
 31
0.0
 44
0.9
  1
MFG ENG
 40
0.5769230769
 41
3.2417582418
  0
MTEXT
  5
333
100
AcDbEntity
  8
0
100
AcDbMText
 62
2
  6
CONTINUOUS
  7
STANDARD
 71
2
 72
1
 10
55.756299247
 20
8.9665663256
 30
0.0
 11
1.0
 21
0.0
 31
0.0
 44
0.9
  1
QA CHECK
 40
0.5769230769
 41
3.8324175824
  0
MTEXT
  5
334
100
AcDbEntity
  8
0
100
AcDbMText
 62
2
  6
CONTINUOUS
  7
STANDARD
 71
2
 72
1
 10
57.4136121819
 20
4.3333491593
 30
0.0
 11
1.0
 21
0.0
 31
0.0
 44
0.9
  1
MODEL INFO:
 40
0.5769230769
 41
4.7115384615
  0
MTEXT
  5
335
100
AcDbEntity
  8
0
100
AcDbMText
 62
2
  6
CONTINUOUS
  7
STANDARD
 71
2
 72
1
 10
56.8195570082
 20
5.8869297532
 30
0.0
 11
1.0
 21
0.0
 31
0.0
 44
0.9
  1
DRAWING INFO:
 40
0.5769230769
 41
5.989010989
  0
MTEXT
  5
336
100
AcDbEntity
  8
0
100
AcDbMText
 62
2
  6
CONTINUOUS
  7
STANDARD
 71
2
 72
1
 10
59.2392515742
 20
18.9503414405
 30
0.0
 11
1.0
 21
0.0
 31
0.0
 44
0.9
  1
APPROVALS
 40
0.5769230769
 41
4.217032967
  0
MTEXT
  5
337
100
AcDbEntity
  8
0
100
AcDbMText
 62
2
  6
CONTINUOUS
  7
STANDARD
 71
2
 72
1
 10
67.5901451573
 20
19.4561378534
 30
0.0
 11
1.0
 21
0.0
 31
0.0
 44
0.9
  1
DATE\P(DD-MMM-YY)
 40
0.5769230769
 41
4.8351648352
  0
MTEXT
  5
338
100
AcDbEntity
  8
0
100
AcDbMText
 62
2
  6
CONTINUOUS
  7
STANDARD
 71
2
 72
1
 10
72.0472088551
 20
4.2757713476
 30
0.0
 11
1.0
 21
0.0
 31
0.0
 44
0.9
  1
SCALE:
 40
0.5769230769
 41
2.5274725275
  0
MTEXT
  5
339
100
AcDbEntity
  8
0
100
AcDbMText
 62
2
  6
CONTINUOUS
  7
STANDARD
 71
2
 72
1
 10
93.6938636813
 20
4.2864159392
 30
0.0
 11
1.0
 21
0.0
 31
0.0
 44
0.9
  1
SHEET
 40
0.5769230769
 41
2.3351648352
  0
MTEXT
  5
33A
100
AcDbEntity
  8
0
100
AcDbMText
 62
2
  6
CONTINUOUS
  7
STANDARD
 71
2
 72
1
 10
72.0639708383
 20
7.7585235084
 30
0.0
 11
1.0
 21
0.0
 31
0.0
 44
0.9
  1
SIZE
 40
0.5769230769
 41
1.7994505495
  0
MTEXT
  5
33B
100
AcDbEntity
  8
0
100
AcDbMText
 62
2
  6
CONTINUOUS
  7
STANDARD
 71
2
 72
1
 10
76.8185744145
 20
7.7654900199
 30
0.0
 11
1.0
 21
0.0
 31
0.0
 44
0.9
  1
CAGE CODE
 40
0.5769230769
 41
4.271978022
  0
MTEXT
  5
33C
100
AcDbEntity
  8
0
100
AcDbMText
 62
2
  6
CONTINUOUS
  7
STANDARD
 71
2
 72
1
 10
82.9548060771
 20
7.7521343956
 30
0.0
 11
1.0
 21
0.0
 31
0.0
 44
0.9
  1
DRAWING NO.
 40
0.5769230769
 41
5.3296703297
  0
MTEXT
  5
33D
100
AcDbEntity
  8
0
100
AcDbMText
 62
2
  6
CONTINUOUS
  7
STANDARD
 71
2
 72
1
 10
101.0393119195
 20
7.760730171
 30
0.0
 11
1.0
 21
0.0
 31
0.0
 44
0.9
  1
REV
 40
0.5769230769
 41
1.456043956
  0
MTEXT
  5
33E
100
AcDbEntity
  8
0
100
AcDbMText
 62
2
  6
CONTINUOUS
  7
STANDARD
 71
2
 72
1
 10
91.8852318152
 20
19.1493489371
 30
0.0
 11
1.0
 21
0.0
 31
0.0
 44
0.9
  1
QSC AUDIO PRODUCTS, LLC
 40
1.0016025641
 41
18.2434752747
  0
MTEXT
  5
33F
100
AcDbEntity
  8
0
100
AcDbMText
 62
2
  6
CONTINUOUS
  7
STANDARD
 71
1
 72
1
 10
82.7700795757
 20
17.6557061788
 30
0.0
 11
1.0
 21
0.0
 31
0.0
 44
0.9
  1
1675  MACARTHUR BOULEVARD\PCOSTA MESA, CA  92626
 40
0.8012820513
 41
15.9493284493
  0
MTEXT
  5
340
100
AcDbEntity
  8
0
100
AcDbMText
 62
2
  6
CONTINUOUS
  7
STANDARD
 71
1
 72
1
 10
74.551977493
 20
6.3863877678
 30
0.0
 11
1.0
 21
0.0
 31
0.0
 44
0.9
  1
00PW4
 40
1.0016025641
 41
4.6979929792
  0
MTEXT
  5
341
100
AcDbEntity
  8
0
100
AcDbMText
 62
2
  6
CONTINUOUS
  7
STANDARD
 71
2
 72
1
 10
46.5068517766
 20
19.0498874029
 30
0.0
 11
1.0
 21
0.0
 31
0.0
 44
0.9
  1
UNLESS OTHERWISE SPECIFIED\PDIMENSIONS IN MILLIMETERS [IN]
 40
0.641025641
 41
14.0415140415
  0
MTEXT
  5
342
100
AcDbEntity
  8
0
100
AcDbMText
 62
2
  6
CONTINUOUS
  7
STANDARD
 71
2
 72
1
 10
41.8488959272
 20
15.1533026557
 30
0.0
 11
1.0
 21
0.0
 31
0.0
 44
0.9
  1
DECIMALS\P.X\Fgdt;{\Fgdt;`}\Ftxt;.5[.02]
 40
0.5769230769
 41
3.9697802198
  0
MTEXT
  5
343
100
AcDbEntity
  8
0
100
AcDbMText
 62
2
  6
CONTINUOUS
  7
STANDARD
 71
2
 72
1
 10
47.4410819729
 20
15.1563738048
 30
0.0
 11
1.0
 21
0.0
 31
0.0
 44
0.9
  1
DECIMALS\P.XX\Fgdt;{\Fgdt;`}\Ftxt;.25[.010]
 40
0.5769230769
 41
5.2472527473
  0
MTEXT
  5
344
100
AcDbEntity
  8
0
100
AcDbMText
 62
2
  6
CONTINUOUS
  7
STANDARD
 71
2
 72
1
 10
46.4139182629
 20
12.6382295936
 30
0.0
 11
1.0
 21
0.0
 31
0.0
 44
0.9
  1
DEBURR EDGES .25 [.010] R MAX
 40
0.5769230769
 41
12.5686813187
  0
INSERT
  5
345
100
AcDbEntity
  8
0
100
AcDbBlockReference
 62
7
  6
CONTINUOUS
  2
SYMBOL_0_BL0
 10
76.2103865308
 20
17.3148119562
  0
DIMENSION
  5
346
100
AcDbEntity
  8
0
100
AcDbDimension
 62
2
  6
CONTINUOUS
  2
*D0
 10
11.8725213238
 20
59.5317610575
 11
11.192862441
 21
50.2451654336
 70
160
 71
2
 42
433.598
  3
DIMSTYLE_1
100
AcDbAlignedDimension
 13
14.8861772405
 23
42.4609736559
 14
15.8621141906
 24
59.5317610575
 50
90.0
100
AcDbRotatedDimension
  0
DIMENSION
  5
347
100
AcDbEntity
  8
0
100
AcDbDimension
 62
2
  6
CONTINUOUS
  2
*D1
 10
15.2539597468
 20
40.84402411
 11
24.0841631292
 21
40.0928221869
 70
160
 71
2
 42
481.2838098468
  3
DIMSTYLE_1
100
AcDbAlignedDimension
 13
34.2021412368
 23
43.0012775121
 14
15.2539597468
 24
43.0012775121
 50
180.0
100
AcDbRotatedDimension
  0
DIMENSION
  5
348
100
AcDbEntity
  8
0
100
AcDbDimension
 62
2
  6
CONTINUOUS
  2
*D2
 10
33.3232670272
 20
62.5531026718
 11
24.048391609
 21
61.8019007487
 70
160
 71
2
 42
436.637
  3
DIMSTYLE_1
100
AcDbAlignedDimension
 13
16.1328339564
 23
59.8024808233
 14
33.3232670272
 24
59.8024808233
100
AcDbRotatedDimension
  0
DIMENSION
  5
349
100
AcDbEntity
  8
0
100
AcDbDimension
 62
2
  6
CONTINUOUS
  2
*D3
 10
37.6640718215
 20
27.9986246442
 11
37.1632705395
 21
29.7934893635
 70
160
 71
2
 42
87.729
  3
DIMSTYLE_1
100
AcDbAlignedDimension
 13
34.5699237431
 23
31.452522282
 14
34.5699237431
 24
27.9986246442
 50
270.0
100
AcDbRotatedDimension
  0
DIMENSION
  5
34A
100
AcDbEntity
  8
0
100
AcDbDimension
 62
2
  6
CONTINUOUS
  2
*D4
 10
6.3791119172
 20
28.2255734631
 11
5.6636815143
 21
29.6758659814
 70
160
 71
2
 42
76.2
  1
2X <>
  3
DIMSTYLE_1
100
AcDbAlignedDimension
 13
14.8603438148
 23
31.2255734631
 14
14.8636413899
 24
28.2255734631
 50
270.0
100
AcDbRotatedDimension
  0
DIMENSION
  5
34B
100
AcDbEntity
  8
0
100
AcDbDimension
 62
2
  6
CONTINUOUS
  2
*D5
 10
33.9619087595
 20
35.3041786843
 11
24.0126200889
 21
34.5529767613
 70
160
 71
2
 42
469.08
  1
2X <>
  3
DIMSTYLE_1
100
AcDbAlignedDimension
 13
15.4941922241
 23
31.8818223718
 14
33.9619087595
 24
31.8693778687
100
AcDbRotatedDimension
  0
DIMENSION
  5
34C
100
AcDbEntity
  8
0
100
AcDbDimension
 62
2
  6
CONTINUOUS
  2
*D6
 10
15.6241922241
 20
22.7233525599
 11
21.5969447115
 21
21.9721506369
 70
160
 71
1
 42
3.302
  1
4X <>
  3
DIMSTYLE_1
100
AcDbAlignedDimension
 13
15.4941922241
 23
27.5727383193
 14
15.6241922241
 24
27.571191876
100
AcDbRotatedDimension
  0
DIMENSION
  5
34D
100
AcDbEntity
  8
0
100
AcDbDimension
 62
2
  6
CONTINUOUS
  2
*D7
 10
13.7879601643
 20
28.0975813371
 11
8.9030725513
 21
25.3848681991
 70
160
 71
3
 42
6.502
  1
4X <>
  3
DIMSTYLE_1
100
AcDbAlignedDimension
 13
15.0935511984
 23
28.3535655891
 14
15.0935511984
 24
28.0975813371
 50
270.0
100
AcDbRotatedDimension
  0
DIMENSION
  5
34E
100
AcDbEntity
  8
0
100
AcDbDimension
 62
2
  6
CONTINUOUS
  2
*D8
 10
61.1142230563
 20
29.1255734631
 11
60.6313075344
 21
35.370182894
 70
160
 71
2
 42
30.48
  3
DIMSTYLE_1
100
AcDbAlignedDimension
 13
59.1250309396
 23
30.3255734631
 14
59.1369216884
 24
29.1255734631
 50
270.0
100
AcDbRotatedDimension
  0
DIMENSION
  5
34F
100
AcDbEntity
  8
0
100
AcDbDimension
 62
2
  6
CONTINUOUS
  2
*D9
 10
58.4625234631
 20
30.2756982283
 11
49.3605110468
 21
26.2923282766
 70
163
 71
3
 42
3.556
  1
2X <>
  3
DIMSTYLE_2
100
AcDbDiametricDimension
 15
58.5607570818
 25
30.3754486978
  0
DIMENSION
  5
350
100
AcDbEntity
  8
0
100
AcDbDimension
 62
2
  6
CONTINUOUS
  2
*D10
 10
93.6407603457
 20
25.571269557
 11
84.6090897853
 21
24.820067634
 70
160
 71
2
 42
422.465
  1
2X <>
  3
DIMSTYLE_1
100
AcDbAlignedDimension
 13
77.0082800308
 23
28.4037022944
 14
93.6407603457
 24
28.4555140975
100
AcDbRotatedDimension
  0
DIMENSION
  5
351
100
AcDbEntity
  8
0
100
AcDbDimension
 62
2
  6
CONTINUOUS
  2
*D11
 10
95.6324686728
 20
29.1255734631
 11
99.8463537461
 21
32.6661108492
 70
160
 71
1
 42
30.48
  1
2X <>
  3
DIMSTYLE_1
100
AcDbAlignedDimension
 13
94.3406982721
 23
30.3255734631
 14
94.3310825548
 24
29.1255734631
 50
270.0
100
AcDbRotatedDimension
  0
DIMENSION
  5
352
100
AcDbEntity
  8
0
100
AcDbDimension
 62
2
  6
CONTINUOUS
  2
*D12
 10
77.0279509222
 20
30.3927527458
 11
82.7234892139
 21
33.7650342463
 70
163
 71
1
 42
3.556
  1
4X <>
  3
DIMSTYLE_2
100
AcDbDiametricDimension
 15
76.9886091393
 25
30.2583941804
  0
DIMENSION
  5
353
100
AcDbEntity
  8
0
100
AcDbDimension
 62
2
  6
CONTINUOUS
  2
*D13
 10
58.0216402725
 20
34.4058068406
 11
49.6497531766
 21
33.6546049175
 70
160
 71
2
 42
388.948
  1
2X <>
  3
DIMSTYLE_1
100
AcDbAlignedDimension
 13
42.7087268866
 23
31.8531633076
 14
58.0216402725
 24
31.8248782618
100
AcDbRotatedDimension
  0
DIMENSION
  5
354
100
AcDbEntity
  8
0
100
AcDbDimension
 62
2
  6
CONTINUOUS
  2
*D14
 10
58.5116402725
 20
38.1072105423
 11
50.5185072873
 21
37.3560086192
 70
160
 71
3
 42
9.906
  1
2X <>
  3
DIMSTYLE_1
100
AcDbAlignedDimension
 13
58.1216402725
 23
31.8466485626
 14
58.5116402725
 24
30.6963020169
100
AcDbRotatedDimension
  0
DIMENSION
  5
355
100
AcDbEntity
  8
0
100
AcDbDimension
 62
2
  6
CONTINUOUS
  2
*D15
 10
69.3781397817
 20
28.6005734631
 11
73.6635678952
 21
24.8580888008
 70
160
 71
1
 42
57.15
  1
2X <>
  3
DIMSTYLE_1
100
AcDbAlignedDimension
 13
59.2633069391
 23
30.8505734631
 14
59.2633069391
 24
28.6005734631
 50
270.0
100
AcDbRotatedDimension
  0
DIMENSION
  5
356
100
AcDbEntity
  8
0
100
AcDbDimension
 62
2
  6
CONTINUOUS
  2
*D16
 10
58.1216402725
 20
23.3219804952
 11
50.718586441
 21
22.5707785721
 70
160
 71
3
 42
2.54
  1
2X <>
  3
DIMSTYLE_1
100
AcDbAlignedDimension
 13
58.0216402725
 23
27.6511272131
 14
58.1216402725
 24
27.6422783936
100
AcDbRotatedDimension
  0
DIMENSION
  5
357
100
AcDbEntity
  8
0
100
AcDbDimension
 62
2
  6
CONTINUOUS
  2
*D17
 10
63.172443255
 20
28.5005734631
 11
67.1001561671
 21
24.9115443589
 70
160
 71
1
 42
5.08
  1
2X <>
  3
DIMSTYLE_1
100
AcDbAlignedDimension
 13
58.5222812981
 23
28.7005734631
 14
58.5222812981
 24
28.5005734631
 50
270.0
100
AcDbRotatedDimension
  0
DIMENSION
  5
358
100
AcDbEntity
  8
0
100
AcDbDimension
 62
2
  6
CONTINUOUS
  2
*D18
 10
42.4502229496
 20
38.656010581
 11
35.6488757834
 21
37.9048086579
 70
160
 71
3
 42
6.566
  1
2X <>
  3
DIMSTYLE_1
100
AcDbAlignedDimension
 13
42.7087268866
 23
31.8531633076
 14
42.4502229496
 24
31.8531633076
 50
180.0
100
AcDbRotatedDimension
  0
LWPOLYLINE
  5
359
100
AcDbEntity
  8
0
100
AcDbPolyline
 62
2
  6
CONTINUOUS
 90
2
 70
0
 43
0.1282051282
 10
102.6130212425
 20
67.2899189199
 10
37.9816109861
 20
67.2899189199
  0
LWPOLYLINE
  5
35A
100
AcDbEntity
  8
0
100
AcDbPolyline
 62
2
  6
CONTINUOUS
 90
2
 70
0
 43
0.1282051282
 10
102.5489186784
 20
67.2899189199
 10
102.5489186784
 20
61.2803035353
  0
LWPOLYLINE
  5
35B
100
AcDbEntity
  8
0
100
AcDbPolyline
 62
2
  6
CONTINUOUS
 90
2
 70
0
 43
0.1282051282
 10
102.5489186784
 20
65.2867137917
 10
38.0457135502
 20
65.2867137917
  0
LWPOLYLINE
  5
35C
100
AcDbEntity
  8
0
100
AcDbPolyline
 62
2
  6
CONTINUOUS
 90
2
 70
0
 43
0.1282051282
 10
102.5489186784
 20
63.2835086635
 10
38.0457135502
 20
63.2835086635
  0
LWPOLYLINE
  5
35D
100
AcDbEntity
  8
0
100
AcDbPolyline
 62
2
  6
CONTINUOUS
 90
2
 70
0
 43
0.1282051282
 10
102.6130212425
 20
61.2803035353
 10
37.9816109861
 20
61.2803035353
  0
LWPOLYLINE
  5
35E
100
AcDbEntity
  8
0
100
AcDbPolyline
 62
2
  6
CONTINUOUS
 90
2
 70
0
 43
0.1282051282
 10
97.7412263707
 20
65.2867137917
 10
97.7412263707
 20
61.2803035353
  0
LWPOLYLINE
  5
35F
100
AcDbEntity
  8
0
100
AcDbPolyline
 62
2
  6
CONTINUOUS
 90
2
 70
0
 43
0.1282051282
 10
90.5296879092
 20
65.2867137917
 10
90.5296879092
 20
61.2803035353
  0
LWPOLYLINE
  5
360
100
AcDbEntity
  8
0
100
AcDbPolyline
 62
2
  6
CONTINUOUS
 90
2
 70
0
 43
0.1282051282
 10
87.3245597041
 20
65.2867137917
 10
87.3245597041
 20
61.2803035353
  0
LWPOLYLINE
  5
361
100
AcDbEntity
  8
0
100
AcDbPolyline
 62
2
  6
CONTINUOUS
 90
2
 70
0
 43
0.1282051282
 10
46.4591750887
 20
65.2867137917
 10
46.4591750887
 20
61.2803035353
  0
LWPOLYLINE
  5
362
100
AcDbEntity
  8
0
100
AcDbPolyline
 62
2
  6
CONTINUOUS
 90
2
 70
0
 43
0.1282051282
 10
41.2508417553
 20
65.2867137917
 10
41.2508417553
 20
61.2803035353
  0
LWPOLYLINE
  5
363
100
AcDbEntity
  8
0
100
AcDbPolyline
 62
2
  6
CONTINUOUS
 90
2
 70
0
 43
0.1282051282
 10
38.0457135502
 20
67.2899189199
 10
38.0457135502
 20
61.2803035353
  0
MTEXT
  5
364
100
AcDbEntity
  8
0
100
AcDbMText
 62
2
  6
CONTINUOUS
  7
STANDARD
 71
2
 72
1
 10
70.2973161143
 20
66.7891176378
 30
0.0
 11
1.0
 21
0.0
 31
0.0
 44
0.9
  1
REVISIONS
 40
1.0016025641
 41
6.7727411477
  0
MTEXT
  5
365
100
AcDbEntity
  8
0
100
AcDbMText
 62
2
  6
CONTINUOUS
  7
STANDARD
 71
2
 72
1
 10
100.1450725246
 20
64.7851112276
 30
0.0
 11
1.0
 21
0.0
 31
0.0
 44
0.9
  1
ISSUED
 40
1.0
 41
4.619047619
  0
MTEXT
  5
366
100
AcDbEntity
  8
0
100
AcDbMText
 62
2
  6
CONTINUOUS
  7
STANDARD
 71
2
 72
1
 10
94.13545714
 20
64.7851112276
 30
0.0
 11
1.0
 21
0.0
 31
0.0
 44
0.9
  1
EFF DATE
 40
1.0
 41
6.2619047619
  0
MTEXT
  5
367
100
AcDbEntity
  8
0
100
AcDbMText
 62
2
  6
CONTINUOUS
  7
STANDARD
 71
2
 72
1
 10
88.9271238066
 20
64.7859125096
 30
0.0
 11
1.0
 21
0.0
 31
0.0
 44
0.9
  1
BY
 40
1.0016025641
 41
1.6454899267
  0
MTEXT
  5
368
100
AcDbEntity
  8
0
100
AcDbMText
 62
2
  6
CONTINUOUS
  7
STANDARD
 71
2
 72
1
 10
66.8918673964
 20
64.7851112276
 30
0.0
 11
1.0
 21
0.0
 31
0.0
 44
0.9
  1
DESCRIPTION
 40
1.0
 41
8.5238095238
  0
MTEXT
  5
369
100
AcDbEntity
  8
0
100
AcDbMText
 62
2
  6
CONTINUOUS
  7
STANDARD
 71
2
 72
1
 10
43.855008422
 20
64.7859125096
 30
0.0
 11
1.0
 21
0.0
 31
0.0
 44
0.9
  1
ECO
 40
1.0016025641
 41
2.3370726496
  0
MTEXT
  5
36A
100
AcDbEntity
  8
0
100
AcDbMText
 62
2
  6
CONTINUOUS
  7
STANDARD
 71
2
 72
1
 10
39.6482776528
 20
64.7851112276
 30
0.0
 11
1.0
 21
0.0
 31
0.0
 44
0.9
  1
REV
 40
1.0
 41
2.3333333333
  0
MTEXT
  5
36B
100
AcDbEntity
  8
0
100
AcDbMText
 62
2
  6
CONTINUOUS
  7
STANDARD
 71
2
 72
1
 10
100.1450725246
 20
62.7827073814
 30
0.0
 11
1.0
 21
0.0
 31
0.0
 44
0.9
  1
-
 40
1.0016025641
 41
0.9062118437
  0
MTEXT
  5
36C
100
AcDbEntity
  8
0
100
AcDbMText
 62
2
  6
CONTINUOUS
  7
STANDARD
 71
2
 72
1
 10
94.13545714
 20
62.7827073814
 30
0.0
 11
1.0
 21
0.0
 31
0.0
 44
0.9
  1
09-APR-13
 40
1.0016025641
 41
6.9158272283
  0
MTEXT
  5
36D
100
AcDbEntity
  8
0
100
AcDbMText
 62
2
  6
CONTINUOUS
  7
STANDARD
 71
2
 72
1
 10
88.9271238066
 20
62.7827073814
 30
0.0
 11
1.0
 21
0.0
 31
0.0
 44
0.9
  1
 JD 
 40
1.0016025641
 41
3.3148275336
  0
MTEXT
  5
36E
100
AcDbEntity
  8
0
100
AcDbMText
 62
2
  6
CONTINUOUS
  7
STANDARD
 71
1
 72
1
 10
46.8598161143
 20
62.7827073814
 30
0.0
 11
1.0
 21
0.0
 31
0.0
 44
0.9
  1
RELEASE
 40
1.0016025641
 41
5.4134233822
  0
MTEXT
  5
36F
100
AcDbEntity
  8
0
100
AcDbMText
 62
2
  6
CONTINUOUS
  7
STANDARD
 71
2
 72
1
 10
43.855008422
 20
62.7827073814
 30
0.0
 11
1.0
 21
0.0
 31
0.0
 44
0.9
  1
-
 40
1.0016025641
 41
0.9062118437
  0
MTEXT
  5
370
100
AcDbEntity
  8
0
100
AcDbMText
 62
2
  6
CONTINUOUS
  7
STANDARD
 71
2
 72
1
 10
39.6482776528
 20
62.7827073814
 30
0.0
 11
1.0
 21
0.0
 31
0.0
 44
0.9
  1
A
 40
1.0016025641
 41
1.0492979243
  0
LINE
  5
371
100
AcDbEntity
  8
0
100
AcDbLine
 62
2
  6
CONTINUOUS
 10
39.2628205128
 20
11.2179487179
 11
53.6858974359
 21
11.2179487179
  0
LINE
  5
372
100
AcDbEntity
  8
0
100
AcDbLine
 62
2
  6
CONTINUOUS
 10
39.2628205128
 20
11.2179487179
 11
39.2628205128
 21
7.2115384615
  0
LINE
  5
373
100
AcDbEntity
  8
0
100
AcDbLine
 62
2
  6
CONTINUOUS
 10
39.2628205128
 20
7.2115384615
 11
53.6858974359
 21
7.2115384615
  0
LINE
  5
374
100
AcDbEntity
  8
0
100
AcDbLine
 62
2
  6
CONTINUOUS
 10
53.6858974359
 20
11.2179487179
 11
53.6858974359
 21
7.2115384615
  0
LINE
  5
375
100
AcDbEntity
  8
0
100
AcDbLine
 62
2
  6
CONTINUOUS
 10
39.2628205128
 20
7.2115384615
 11
53.6858974359
 21
7.2115384615
  0
LINE
  5
376
100
AcDbEntity
  8
0
100
AcDbLine
 62
2
  6
CONTINUOUS
 10
39.2628205128
 20
7.2115384615
 11
39.2628205128
 21
3.2051282051
  0
LINE
  5
377
100
AcDbEntity
  8
0
100
AcDbLine
 62
2
  6
CONTINUOUS
 10
39.2628205128
 20
3.2051282051
 11
53.6858974359
 21
3.2051282051
  0
LINE
  5
378
100
AcDbEntity
  8
0
100
AcDbLine
 62
2
  6
CONTINUOUS
 10
53.6858974359
 20
7.2115384615
 11
53.6858974359
 21
3.2051282051
  0
LINE
  5
379
100
AcDbEntity
  8
0
100
AcDbLine
 62
2
  6
CONTINUOUS
 10
53.6858974359
 20
17.6282051282
 11
64.9038461538
 21
17.6282051282
  0
LINE
  5
37A
100
AcDbEntity
  8
0
100
AcDbLine
 62
2
  6
CONTINUOUS
 10
53.6858974359
 20
17.6282051282
 11
53.6858974359
 21
14.8737980769
  0
LINE
  5
37B
100
AcDbEntity
  8
0
100
AcDbLine
 62
2
  6
CONTINUOUS
 10
53.6858974359
 20
14.8737980769
 11
64.9038461538
 21
14.8737980769
  0
LINE
  5
37C
100
AcDbEntity
  8
0
100
AcDbLine
 62
2
  6
CONTINUOUS
 10
64.9038461538
 20
17.6282051282
 11
64.9038461538
 21
14.8737980769
  0
MTEXT
  5
37D
100
AcDbEntity
  8
0
100
AcDbMText
 62
2
  6
CONTINUOUS
  7
STANDARD
 71
1
 72
1
 10
54.0865384615
 20
16.3762019231
 30
0.0
 11
1.0
 21
0.0
 31
0.0
 44
0.9
  1
J. DELARM 
 40
1.0016025641
 41
7.559714591
  0
LINE
  5
37E
100
AcDbEntity
  8
0
100
AcDbLine
 62
2
  6
CONTINUOUS
 10
53.6858974359
 20
14.8237179487
 11
64.9038461538
 21
14.8237179487
  0
LINE
  5
37F
100
AcDbEntity
  8
0
100
AcDbLine
 62
2
  6
CONTINUOUS
 10
53.6858974359
 20
14.8237179487
 11
53.6858974359
 21
12.0032051282
  0
LINE
  5
380
100
AcDbEntity
  8
0
100
AcDbLine
 62
2
  6
CONTINUOUS
 10
53.6858974359
 20
12.0032051282
 11
64.9038461538
 21
12.0032051282
  0
LINE
  5
381
100
AcDbEntity
  8
0
100
AcDbLine
 62
2
  6
CONTINUOUS
 10
64.9038461538
 20
14.8237179487
 11
64.9038461538
 21
12.0032051282
  0
MTEXT
  5
382
100
AcDbEntity
  8
0
100
AcDbMText
 62
2
  6
CONTINUOUS
  7
STANDARD
 71
1
 72
1
 10
54.0865384615
 20
13.5056089744
 30
0.0
 11
1.0
 21
0.0
 31
0.0
 44
0.9
  1
D. TEULIE 
 40
1.0016025641
 41
7.4166285104
  0
LINE
  5
383
100
AcDbEntity
  8
0
100
AcDbLine
 62
2
  6
CONTINUOUS
 10
53.6858974359
 20
12.0192307692
 11
64.9038461538
 21
12.0192307692
  0
LINE
  5
384
100
AcDbEntity
  8
0
100
AcDbLine
 62
2
  6
CONTINUOUS
 10
53.6858974359
 20
12.0192307692
 11
53.6858974359
 21
9.2648237179
  0
LINE
  5
385
100
AcDbEntity
  8
0
100
AcDbLine
 62
2
  6
CONTINUOUS
 10
53.6858974359
 20
9.2648237179
 11
64.9038461538
 21
9.2648237179
  0
LINE
  5
386
100
AcDbEntity
  8
0
100
AcDbLine
 62
2
  6
CONTINUOUS
 10
64.9038461538
 20
12.0192307692
 11
64.9038461538
 21
9.2648237179
  0
MTEXT
  5
387
100
AcDbEntity
  8
0
100
AcDbMText
 62
2
  6
CONTINUOUS
  7
STANDARD
 71
1
 72
1
 10
54.0865384615
 20
10.7672275641
 30
0.0
 11
1.0
 21
0.0
 31
0.0
 44
0.9
  1
-
 40
1.0016025641
 41
0.7154304029
  0
LINE
  5
388
100
AcDbEntity
  8
0
100
AcDbLine
 62
2
  6
CONTINUOUS
 10
53.6858974359
 20
9.2147435897
 11
64.9038461538
 21
9.2147435897
  0
LINE
  5
389
100
AcDbEntity
  8
0
100
AcDbLine
 62
2
  6
CONTINUOUS
 10
53.6858974359
 20
9.2147435897
 11
53.6858974359
 21
6.3942307692
  0
LINE
  5
38A
100
AcDbEntity
  8
0
100
AcDbLine
 62
2
  6
CONTINUOUS
 10
53.6858974359
 20
6.3942307692
 11
64.9038461538
 21
6.3942307692
  0
LINE
  5
38B
100
AcDbEntity
  8
0
100
AcDbLine
 62
2
  6
CONTINUOUS
 10
64.9038461538
 20
9.2147435897
 11
64.9038461538
 21
6.3942307692
  0
MTEXT
  5
38C
100
AcDbEntity
  8
0
100
AcDbMText
 62
2
  6
CONTINUOUS
  7
STANDARD
 71
1
 72
1
 10
54.0865384615
 20
7.8966346154
 30
0.0
 11
1.0
 21
0.0
 31
0.0
 44
0.9
  1
-
 40
1.0016025641
 41
0.7154304029
  0
LINE
  5
38D
100
AcDbEntity
  8
0
100
AcDbLine
 62
2
  6
CONTINUOUS
 10
64.9038461538
 20
17.6282051282
 11
70.5128205128
 21
17.6282051282
  0
LINE
  5
38E
100
AcDbEntity
  8
0
100
AcDbLine
 62
2
  6
CONTINUOUS
 10
64.9038461538
 20
17.6282051282
 11
64.9038461538
 21
14.8076923077
  0
LINE
  5
38F
100
AcDbEntity
  8
0
100
AcDbLine
 62
2
  6
CONTINUOUS
 10
64.9038461538
 20
14.8076923077
 11
70.5128205128
 21
14.8076923077
  0
LINE
  5
390
100
AcDbEntity
  8
0
100
AcDbLine
 62
2
  6
CONTINUOUS
 10
70.5128205128
 20
17.6282051282
 11
70.5128205128
 21
14.8076923077
  0
MTEXT
  5
391
100
AcDbEntity
  8
0
100
AcDbMText
 62
2
  6
CONTINUOUS
  7
STANDARD
 71
2
 72
1
 10
67.7083333333
 20
16.077724359
 30
0.0
 11
1.0
 21
0.0
 31
0.0
 44
0.9
  1
14-MAR-13
 40
0.7692307692
 41
5.0549450549
  0
LINE
  5
392
100
AcDbEntity
  8
0
100
AcDbLine
 62
2
  6
CONTINUOUS
 10
64.9038461538
 20
14.8237179487
 11
70.5128205128
 21
14.8237179487
  0
LINE
  5
393
100
AcDbEntity
  8
0
100
AcDbLine
 62
2
  6
CONTINUOUS
 10
64.9038461538
 20
14.8237179487
 11
64.9038461538
 21
12.0032051282
  0
LINE
  5
394
100
AcDbEntity
  8
0
100
AcDbLine
 62
2
  6
CONTINUOUS
 10
64.9038461538
 20
12.0032051282
 11
70.5128205128
 21
12.0032051282
  0
LINE
  5
395
100
AcDbEntity
  8
0
100
AcDbLine
 62
2
  6
CONTINUOUS
 10
70.5128205128
 20
14.8237179487
 11
70.5128205128
 21
12.0032051282
  0
MTEXT
  5
396
100
AcDbEntity
  8
0
100
AcDbMText
 62
2
  6
CONTINUOUS
  7
STANDARD
 71
2
 72
1
 10
67.7083333333
 20
13.2732371795
 30
0.0
 11
1.0
 21
0.0
 31
0.0
 44
0.9
  1
08-APR-13
 40
0.7692307692
 41
5.1648351648
  0
LINE
  5
397
100
AcDbEntity
  8
0
100
AcDbLine
 62
2
  6
CONTINUOUS
 10
64.9038461538
 20
12.0192307692
 11
70.5128205128
 21
12.0192307692
  0
LINE
  5
398
100
AcDbEntity
  8
0
100
AcDbLine
 62
2
  6
CONTINUOUS
 10
64.9038461538
 20
12.0192307692
 11
64.9038461538
 21
9.1987179487
  0
LINE
  5
399
100
AcDbEntity
  8
0
100
AcDbLine
 62
2
  6
CONTINUOUS
 10
64.9038461538
 20
9.1987179487
 11
70.5128205128
 21
9.1987179487
  0
LINE
  5
39A
100
AcDbEntity
  8
0
100
AcDbLine
 62
2
  6
CONTINUOUS
 10
70.5128205128
 20
12.0192307692
 11
70.5128205128
 21
9.1987179487
  0
MTEXT
  5
39B
100
AcDbEntity
  8
0
100
AcDbMText
 62
2
  6
CONTINUOUS
  7
STANDARD
 71
2
 72
1
 10
67.7083333333
 20
10.46875
 30
0.0
 11
1.0
 21
0.0
 31
0.0
 44
0.9
  1
-
 40
0.7692307692
 41
0.5494505495
  0
LINE
  5
39C
100
AcDbEntity
  8
0
100
AcDbLine
 62
2
  6
CONTINUOUS
 10
64.9038461538
 20
9.2147435897
 11
70.5128205128
 21
9.2147435897
  0
LINE
  5
39D
100
AcDbEntity
  8
0
100
AcDbLine
 62
2
  6
CONTINUOUS
 10
64.9038461538
 20
9.2147435897
 11
64.9038461538
 21
6.4603365385
  0
LINE
  5
39E
100
AcDbEntity
  8
0
100
AcDbLine
 62
2
  6
CONTINUOUS
 10
64.9038461538
 20
6.4603365385
 11
70.5128205128
 21
6.4603365385
  0
LINE
  5
39F
100
AcDbEntity
  8
0
100
AcDbLine
 62
2
  6
CONTINUOUS
 10
70.5128205128
 20
9.2147435897
 11
70.5128205128
 21
6.4603365385
  0
MTEXT
  5
3A0
100
AcDbEntity
  8
0
100
AcDbMText
 62
2
  6
CONTINUOUS
  7
STANDARD
 71
2
 72
1
 10
67.7083333333
 20
7.7303685897
 30
0.0
 11
1.0
 21
0.0
 31
0.0
 44
0.9
  1
-
 40
0.7692307692
 41
0.5494505495
  0
LINE
  5
3A1
100
AcDbEntity
  8
0
100
AcDbLine
 62
2
  6
CONTINUOUS
 10
53.6858974359
 20
6.4102564103
 11
70.5128205128
 21
6.4102564103
  0
LINE
  5
3A2
100
AcDbEntity
  8
0
100
AcDbLine
 62
2
  6
CONTINUOUS
 10
53.6858974359
 20
6.4102564103
 11
53.6858974359
 21
4.8076923077
  0
LINE
  5
3A3
100
AcDbEntity
  8
0
100
AcDbLine
 62
2
  6
CONTINUOUS
 10
53.6858974359
 20
4.8076923077
 11
70.5128205128
 21
4.8076923077
  0
LINE
  5
3A4
100
AcDbEntity
  8
0
100
AcDbLine
 62
2
  6
CONTINUOUS
 10
70.5128205128
 20
6.4102564103
 11
70.5128205128
 21
4.8076923077
  0
MTEXT
  5
3A5
100
AcDbEntity
  8
0
100
AcDbMText
 62
2
  6
CONTINUOUS
  7
STANDARD
 71
3
 72
1
 10
70.1121794872
 20
6.0136217949
 30
0.0
 11
1.0
 21
0.0
 31
0.0
 44
0.9
  1
FG-220007-2D.A.2
 40
0.7051282051
 41
8.5454822955
  0
LINE
  5
3A6
100
AcDbEntity
  8
0
100
AcDbLine
 62
2
  6
CONTINUOUS
 10
53.6858974359
 20
4.8076923077
 11
70.5128205128
 21
4.8076923077
  0
LINE
  5
3A7
100
AcDbEntity
  8
0
100
AcDbLine
 62
2
  6
CONTINUOUS
 10
53.6858974359
 20
4.8076923077
 11
53.6858974359
 21
3.2051282051
  0
LINE
  5
3A8
100
AcDbEntity
  8
0
100
AcDbLine
 62
2
  6
CONTINUOUS
 10
53.6858974359
 20
3.2051282051
 11
70.5128205128
 21
3.2051282051
  0
LINE
  5
3A9
100
AcDbEntity
  8
0
100
AcDbLine
 62
2
  6
CONTINUOUS
 10
70.5128205128
 20
4.8076923077
 11
70.5128205128
 21
3.2051282051
  0
MTEXT
  5
3AA
100
AcDbEntity
  8
0
100
AcDbMText
 62
2
  6
CONTINUOUS
  7
STANDARD
 71
3
 72
1
 10
70.1121794872
 20
4.4110576923
 30
0.0
 11
1.0
 21
0.0
 31
0.0
 44
0.9
  1
FG-220007-3D.A.1
 40
0.7051282051
 41
8.344017094
  0
LINE
  5
3AB
100
AcDbEntity
  8
0
100
AcDbLine
 62
2
  6
CONTINUOUS
 10
70.5128205128
 20
15.2243589744
 11
102.5641025641
 21
15.2243589744
  0
LINE
  5
3AC
100
AcDbEntity
  8
0
100
AcDbLine
 62
2
  6
CONTINUOUS
 10
70.5128205128
 20
15.2243589744
 11
70.5128205128
 21
8.0128205128
  0
LINE
  5
3AD
100
AcDbEntity
  8
0
100
AcDbLine
 62
2
  6
CONTINUOUS
 10
70.5128205128
 20
8.0128205128
 11
102.5641025641
 21
8.0128205128
  0
LINE
  5
3AE
100
AcDbEntity
  8
0
100
AcDbLine
 62
2
  6
CONTINUOUS
 10
102.5641025641
 20
15.2243589744
 11
102.5641025641
 21
8.0128205128
  0
MTEXT
  5
3AF
100
AcDbEntity
  8
0
100
AcDbMText
 62
2
  6
CONTINUOUS
  7
STANDARD
 71
2
 72
1
 10
86.5384615385
 20
13.5737179487
 30
0.0
 11
1.0
 21
0.0
 31
0.0
 44
1.02
  1
AMPLIFIER, FINISHED, \PPLD 4.5
 40
1.2820512821
 41
19.6581196581
  0
LINE
  5
3B0
100
AcDbEntity
  8
0
100
AcDbLine
 62
2
  6
CONTINUOUS
 10
70.5198224547
 20
7.9996183814
 11
73.7249506599
 21
7.9996183814
  0
LINE
  5
3B1
100
AcDbEntity
  8
0
100
AcDbLine
 62
2
  6
CONTINUOUS
 10
70.5198224547
 20
7.9996183814
 11
70.5198224547
 21
4.7944901762
  0
LINE
  5
3B2
100
AcDbEntity
  8
0
100
AcDbLine
 62
2
  6
CONTINUOUS
 10
70.5198224547
 20
4.7944901762
 11
73.7249506599
 21
4.7944901762
  0
LINE
  5
3B3
100
AcDbEntity
  8
0
100
AcDbLine
 62
2
  6
CONTINUOUS
 10
73.7249506599
 20
7.9996183814
 11
73.7249506599
 21
4.7944901762
  0
MTEXT
  5
3B4
100
AcDbEntity
  8
0
100
AcDbMText
 62
2
  6
CONTINUOUS
  7
STANDARD
 71
2
 72
1
 10
72.1223865573
 20
6.5773427403
 30
0.0
 11
1.0
 21
0.0
 31
0.0
 44
0.9
  1
B
 40
1.2820512821
 41
1.0073260073
  0
LINE
  5
3B5
100
AcDbEntity
  8
0
100
AcDbLine
 62
2
  6
CONTINUOUS
 10
80.1315224205
 20
7.9806063405
 11
99.3622916512
 21
7.9806063405
  0
LINE
  5
3B6
100
AcDbEntity
  8
0
100
AcDbLine
 62
2
  6
CONTINUOUS
 10
80.1315224205
 20
7.9806063405
 11
80.1315224205
 21
4.7754781354
  0
LINE
  5
3B7
100
AcDbEntity
  8
0
100
AcDbLine
 62
2
  6
CONTINUOUS
 10
80.1315224205
 20
4.7754781354
 11
99.3622916512
 21
4.7754781354
  0
LINE
  5
3B8
100
AcDbEntity
  8
0
100
AcDbLine
 62
2
  6
CONTINUOUS
 10
99.3622916512
 20
7.9806063405
 11
99.3622916512
 21
4.7754781354
  0
MTEXT
  5
3B9
100
AcDbEntity
  8
0
100
AcDbMText
 62
2
  6
CONTINUOUS
  7
STANDARD
 71
2
 72
1
 10
89.7469070358
 20
6.7506383918
 30
0.0
 11
1.0
 21
0.0
 31
0.0
 44
0.9
  1
FG-220007-2D
 40
1.4743589744
 41
13.7606837607
  0
LINE
  5
3BA
100
AcDbEntity
  8
0
100
AcDbLine
 62
2
  6
CONTINUOUS
 10
99.3506403607
 20
8.0018450168
 11
102.5557685658
 21
8.0018450168
  0
LINE
  5
3BB
100
AcDbEntity
  8
0
100
AcDbLine
 62
2
  6
CONTINUOUS
 10
99.3506403607
 20
8.0018450168
 11
99.3506403607
 21
4.7967168117
  0
LINE
  5
3BC
100
AcDbEntity
  8
0
100
AcDbLine
 62
2
  6
CONTINUOUS
 10
99.3506403607
 20
4.7967168117
 11
102.5557685658
 21
4.7967168117
  0
LINE
  5
3BD
100
AcDbEntity
  8
0
100
AcDbLine
 62
2
  6
CONTINUOUS
 10
102.5557685658
 20
8.0018450168
 11
102.5557685658
 21
4.7967168117
  0
MTEXT
  5
3BE
100
AcDbEntity
  8
0
100
AcDbMText
 62
2
  6
CONTINUOUS
  7
STANDARD
 71
2
 72
1
 10
100.9532044632
 20
6.4513642476
 30
0.0
 11
1.0
 21
0.0
 31
0.0
 44
0.9
  1
A
 40
1.1538461538
 41
0.989010989
  0
LINE
  5
3BF
100
AcDbEntity
  8
0
100
AcDbLine
 62
2
  6
CONTINUOUS
 10
92.1514142267
 20
4.7623646387
 11
102.5680808934
 21
4.7623646387
  0
LINE
  5
3C0
100
AcDbEntity
  8
0
100
AcDbLine
 62
2
  6
CONTINUOUS
 10
92.1514142267
 20
4.7623646387
 11
92.1514142267
 21
3.1598005361
  0
LINE
  5
3C1
100
AcDbEntity
  8
0
100
AcDbLine
 62
2
  6
CONTINUOUS
 10
92.1514142267
 20
3.1598005361
 11
102.5680808934
 21
3.1598005361
  0
LINE
  5
3C2
100
AcDbEntity
  8
0
100
AcDbLine
 62
2
  6
CONTINUOUS
 10
102.5680808934
 20
4.7623646387
 11
102.5680808934
 21
3.1598005361
  0
MTEXT
  5
3C3
100
AcDbEntity
  8
0
100
AcDbMText
 62
2
  6
CONTINUOUS
  7
STANDARD
 71
3
 72
1
 10
102.1674398678
 20
4.5580377156
 30
0.0
 11
1.0
 21
0.0
 31
0.0
 44
0.9
  1
1 OF 1
 40
0.8974358974
 41
3.7820512821
  0
LINE
  5
3C4
100
AcDbEntity
  8
0
100
AcDbLine
 62
2
  6
CONTINUOUS
 10
70.5016654622
 20
4.8001488263
 11
78.1170500776
 21
4.8001488263
  0
LINE
  5
3C5
100
AcDbEntity
  8
0
100
AcDbLine
 62
2
  6
CONTINUOUS
 10
70.5016654622
 20
4.8001488263
 11
70.5016654622
 21
3.1725446597
  0
LINE
  5
3C6
100
AcDbEntity
  8
0
100
AcDbLine
 62
2
  6
CONTINUOUS
 10
70.5016654622
 20
3.1725446597
 11
78.1170500776
 21
3.1725446597
  0
LINE
  5
3C7
100
AcDbEntity
  8
0
100
AcDbLine
 62
2
  6
CONTINUOUS
 10
78.1170500776
 20
4.8001488263
 11
78.1170500776
 21
3.1725446597
  0
MTEXT
  5
3C8
100
AcDbEntity
  8
0
100
AcDbMText
 62
2
  6
CONTINUOUS
  7
STANDARD
 71
3
 72
1
 10
77.7164090519
 20
4.442576711
 30
0.0
 11
1.0
 21
0.0
 31
0.0
 44
0.9
  1
0.156
 40
0.7692307692
 41
2.6373626374
  0
MTEXT
  5
3C9
100
AcDbEntity
  8
0
100
AcDbMText
 62
2
  6
CONTINUOUS
  7
STANDARD
 71
1
 72
1
 10
3.6265186182
 20
11.8722495779
 30
0.0
 11
1.0
 21
0.0
 31
0.0
 44
1.2
  1
3. PARTS ARE SYMMETRICAL ABOUT CENTER LINES \P   UNLESS OTHERWISE NOTED.\P2. TOLERANCES (MM): X \Fgdt;{\Fgdt;`}\Ftxt; 3, ANGLES: \Fgdt;{\Fgdt;`}\Ftxt; 1\Fgdt;{\Fgdt;~}\Ftxt;.\P1. NET WEIGHT APPROX. 9.8 KG (22 LBS) \PNOTE:  UNLESS OTHERWISE SPECIFIED
 40
0.8974358974
 41
30.8974358974
  0
MTEXT
  5
3CA
100
AcDbEntity
  8
0
100
AcDbMText
 62
2
  6
CONTINUOUS
  7
STANDARD
 71
3
 72
1
 10
92.1566308431
 20
43.5821063297
 30
0.0
 11
1.0
 21
0.0
 31
0.0
 44
0.9
  1
SCALE  0.125
 40
1.0016025641
 41
8.8474893162
  0
LINE
  5
3CB
100
AcDbEntity
  8
DEFAULT_3
100
AcDbLine
 62
7
  6
PHANTOM
 10
-0.000012448
 20
-0.0
 11
-0.000012448
 21
70.5127121322
  0
LWPOLYLINE
  5
3CC
100
AcDbEntity
  8
0
100
AcDbPolyline
 62
7
  6
CONTINUOUS
 90
2
 70
0
 43
0.1282051336
 10
1.6827464239
 20
34.1753419147
 10
1.6827464239
 20
36.3375840857
  0
LWPOLYLINE
  5
3CD
100
AcDbEntity
  8
0
100
AcDbPolyline
 62
7
  6
CONTINUOUS
 90
2
 70
0
 43
0.1923076938
 10
3.204278184
 20
67.3053473654
 10
3.204278184
 20
3.2051282051
  0
LINE
  5
3CE
100
AcDbEntity
  8
DEFAULT_3
100
AcDbLine
 62
7
  6
PHANTOM
 10
-0.000012448
 20
-0.0
 11
108.9743589744
 21
-0.0
  0
LWPOLYLINE
  5
3CF
100
AcDbEntity
  8
0
100
AcDbPolyline
 62
7
  6
CONTINUOUS
 90
2
 70
0
 43
0.1923076938
 10
22.7633243274
 20
67.3457287305
 10
22.7633243274
 20
64.1406005254
  0
LWPOLYLINE
  5
3D0
100
AcDbEntity
  8
0
100
AcDbPolyline
 62
7
  6
CONTINUOUS
 90
2
 70
0
 43
0.1282051336
 10
51.8036914104
 20
1.6855344324
 10
53.9659335814
 20
1.6855344324
  0
LWPOLYLINE
  5
3D1
100
AcDbEntity
  8
0
100
AcDbPolyline
 62
7
  6
CONTINUOUS
 90
2
 70
0
 43
0.1923076938
 10
3.204278184
 20
3.2051282051
 10
102.5641025641
 20
3.2051282051
  0
LWPOLYLINE
  5
3D2
100
AcDbEntity
  8
0
100
AcDbPolyline
 62
7
  6
CONTINUOUS
 90
2
 70
0
 43
0.1282051336
 10
53.6858974359
 20
4.8076923077
 10
102.5641025641
 20
4.8076923077
  0
LWPOLYLINE
  5
3D3
100
AcDbEntity
  8
0
100
AcDbPolyline
 62
7
  6
CONTINUOUS
 90
2
 70
0
 43
0.1282051336
 10
28.0442816323
 20
3.2047144413
 10
28.0442816323
 20
-0.0004137639
  0
LWPOLYLINE
  5
3D4
100
AcDbEntity
  8
0
100
AcDbPolyline
 62
7
  6
CONTINUOUS
 90
2
 70
0
 43
0.1282051336
 10
28.0446781033
 20
67.3063607175
 10
28.0446781033
 20
70.5114889227
  0
LWPOLYLINE
  5
3D5
100
AcDbEntity
  8
0
100
AcDbPolyline
 62
7
  6
CONTINUOUS
 90
2
 70
0
 43
0.1282051336
 10
3.2054212821
 20
35.2564630002
 10
1.6827464239
 20
34.1753419147
  0
LINE
  5
3D6
100
AcDbEntity
  8
0
100
AcDbLine
 62
7
  6
CONTINUOUS
 10
53.6432923769
 20
7.1599263765
 11
39.330002568
 21
3.3079115592
  0
LWPOLYLINE
  5
3D7
100
AcDbEntity
  8
0
100
AcDbPolyline
 62
7
  6
CONTINUOUS
 90
2
 70
0
 43
0.1282051336
 10
53.6858974359
 20
6.4102564103
 10
70.5128205128
 20
6.4102564103
  0
LWPOLYLINE
  5
3D8
100
AcDbEntity
  8
0
100
AcDbPolyline
 62
7
  6
CONTINUOUS
 90
2
 70
0
 43
0.1282051336
 10
53.6858974359
 20
7.2115384615
 10
39.2628205128
 20
7.2115384615
  0
LWPOLYLINE
  5
3D9
100
AcDbEntity
  8
0
100
AcDbPolyline
 62
7
  6
CONTINUOUS
 90
2
 70
0
 43
0.1282051336
 10
70.5128205128
 20
8.0128205128
 10
102.5641025641
 20
8.0128205128
  0
LWPOLYLINE
  5
3DA
100
AcDbEntity
  8
0
100
AcDbPolyline
 62
7
  6
CONTINUOUS
 90
2
 70
0
 43
0.1282051336
 10
3.2054212821
 20
35.2564630002
 10
1.6827464239
 20
36.3375840857
  0
LINE
  5
3DB
100
AcDbEntity
  8
0
100
AcDbLine
 62
7
  6
CONTINUOUS
 10
53.63157904
 20
11.1604064653
 11
39.3168821881
 21
7.2716163271
  0
LWPOLYLINE
  5
3DC
100
AcDbEntity
  8
0
100
AcDbPolyline
 62
7
  6
CONTINUOUS
 90
2
 70
0
 43
0.1282051336
 10
53.6858974359
 20
9.2147435897
 10
70.5128205128
 20
9.2147435897
  0
LWPOLYLINE
  5
3DD
100
AcDbEntity
  8
0
100
AcDbPolyline
 62
7
  6
CONTINUOUS
 90
2
 70
0
 43
0.1282051336
 10
39.2628205128
 20
11.2179487179
 10
53.6858974359
 20
11.2179487179
  0
LWPOLYLINE
  5
3DE
100
AcDbEntity
  8
0
100
AcDbPolyline
 62
7
  6
CONTINUOUS
 90
2
 70
0
 43
0.1282051336
 10
53.6858974359
 20
12.0192307692
 10
70.5128205128
 20
12.0192307692
  0
LWPOLYLINE
  5
3DF
100
AcDbEntity
  8
0
100
AcDbPolyline
 62
7
  6
CONTINUOUS
 90
2
 70
0
 43
0.1282051336
 10
52.8826291598
 20
67.3079433889
 10
53.9637502453
 20
68.8306182471
  0
LWPOLYLINE
  5
3E0
100
AcDbEntity
  8
0
100
AcDbPolyline
 62
7
  6
CONTINUOUS
 90
2
 70
0
 43
0.1282051336
 10
53.6858974359
 20
14.8237179487
 10
70.5128205128
 20
14.8237179487
  0
LWPOLYLINE
  5
3E1
100
AcDbEntity
  8
0
100
AcDbPolyline
 62
7
  6
CONTINUOUS
 90
2
 70
0
 43
0.1282051336
 10
70.5128205128
 20
15.2243589744
 10
102.5641025641
 20
15.2243589744
  0
LINE
  5
3E2
100
AcDbEntity
  8
0
100
AcDbLine
 62
7
  6
CONTINUOUS
 10
39.3317214345
 20
19.5652344191
 11
53.630184954
 21
11.2716377083
  0
LWPOLYLINE
  5
3E3
100
AcDbEntity
  8
0
100
AcDbPolyline
 62
7
  6
CONTINUOUS
 90
2
 70
0
 43
0.1282051336
 10
52.8848124959
 20
3.2082092906
 10
53.9659335814
 20
1.6855344324
  0
LWPOLYLINE
  5
3E4
100
AcDbEntity
  8
0
100
AcDbPolyline
 62
7
  6
CONTINUOUS
 90
2
 70
0
 43
0.1282051336
 10
39.2628205128
 20
3.2051282051
 10
39.2628205128
 20
19.6314102564
  0
LWPOLYLINE
  5
3E5
100
AcDbEntity
  8
0
100
AcDbPolyline
 62
7
  6
CONTINUOUS
 90
2
 70
0
 43
0.1282051336
 10
53.6858974359
 20
17.6282051282
 10
70.5128205128
 20
17.6282051282
  0
LWPOLYLINE
  5
3E6
100
AcDbEntity
  8
0
100
AcDbPolyline
 62
7
  6
CONTINUOUS
 90
2
 70
0
 43
0.1282051336
 10
3.2049785157
 20
19.2297236138
 10
-0.0001496895
 20
19.2297236138
  0
LWPOLYLINE
  5
3E7
100
AcDbEntity
  8
0
100
AcDbPolyline
 62
7
  6
CONTINUOUS
 90
2
 70
0
 43
0.1282051336
 10
102.625372573
 20
19.2297848181
 10
105.8305007781
 20
19.2297848181
  0
LWPOLYLINE
  5
3E8
100
AcDbEntity
  8
0
100
AcDbPolyline
 62
7
  6
CONTINUOUS
 90
2
 70
0
 43
0.1282051336
 10
39.2628205128
 20
19.6314102564
 10
102.5641025641
 20
19.6314102564
  0
LWPOLYLINE
  5
3E9
100
AcDbEntity
  8
0
100
AcDbPolyline
 62
7
  6
CONTINUOUS
 90
2
 70
0
 43
0.1282051336
 10
52.8826291598
 20
67.3079433889
 10
52.8826291598
 20
70.513071594
  0
LWPOLYLINE
  5
3EA
100
AcDbEntity
  8
0
100
AcDbPolyline
 62
7
  6
CONTINUOUS
 90
2
 70
0
 43
0.1282051336
 10
52.8848124959
 20
3.2082092906
 10
52.8848124959
 20
0.0030810855
  0
LWPOLYLINE
  5
3EB
100
AcDbEntity
  8
0
100
AcDbPolyline
 62
7
  6
CONTINUOUS
 90
2
 70
0
 43
0.1282051336
 10
53.6858974359
 20
3.2051282051
 10
53.6858974359
 20
19.6314102564
  0
LWPOLYLINE
  5
3EC
100
AcDbEntity
  8
0
100
AcDbPolyline
 62
7
  6
CONTINUOUS
 90
2
 70
0
 43
0.1282051336
 10
102.586139775
 20
35.2563340909
 10
105.7912679801
 20
35.2563340909
  0
LWPOLYLINE
  5
3ED
100
AcDbEntity
  8
0
100
AcDbPolyline
 62
7
  6
CONTINUOUS
 90
2
 70
0
 43
0.1282051336
 10
3.2054212821
 20
35.2564630002
 10
0.000293077
 20
35.2564630002
  0
LWPOLYLINE
  5
3EE
100
AcDbEntity
  8
0
100
AcDbPolyline
 62
7
  6
CONTINUOUS
 90
2
 70
0
 43
0.1282051336
 10
64.9038461538
 20
6.4102564103
 10
64.9038461538
 20
19.6314102564
  0
LINE
  5
3EF
100
AcDbEntity
  8
0
100
AcDbLine
 62
7
  6
CONTINUOUS
 10
53.6366780346
 20
19.5791323515
 11
39.3175096887
 21
11.2666405304
  0
LWPOLYLINE
  5
3F0
100
AcDbEntity
  8
0
100
AcDbPolyline
 62
7
  6
CONTINUOUS
 90
2
 70
0
 43
0.1282051336
 10
70.5128205128
 20
3.2051282051
 10
70.5128205128
 20
19.6314102564
  0
LWPOLYLINE
  5
3F1
100
AcDbEntity
  8
0
100
AcDbPolyline
 62
7
  6
CONTINUOUS
 90
2
 70
0
 43
0.1282051336
 10
73.7179487179
 20
4.8076923077
 10
73.7179487179
 20
8.0128205128
  0
LWPOLYLINE
  5
3F2
100
AcDbEntity
  8
0
100
AcDbPolyline
 62
7
  6
CONTINUOUS
 90
2
 70
0
 43
0.1282051336
 10
52.8848124959
 20
3.2082092906
 10
51.8036914104
 20
1.6855344324
  0
LWPOLYLINE
  5
3F3
100
AcDbEntity
  8
0
100
AcDbPolyline
 62
7
  6
CONTINUOUS
 90
2
 70
0
 43
0.1282051336
 10
102.5931504338
 20
51.280042202
 10
105.7982786389
 20
51.280042202
  0
LWPOLYLINE
  5
3F4
100
AcDbEntity
  8
0
100
AcDbPolyline
 62
7
  6
CONTINUOUS
 90
2
 70
0
 43
0.1282051336
 10
3.2042773829
 20
51.2802503495
 10
-0.0008508222
 20
51.2802503495
  0
LWPOLYLINE
  5
3F5
100
AcDbEntity
  8
0
100
AcDbPolyline
 62
7
  6
CONTINUOUS
 90
2
 70
0
 43
0.1282051336
 10
52.8826291598
 20
67.3079433889
 10
51.8015080743
 20
68.8306182471
  0
LWPOLYLINE
  5
3F6
100
AcDbEntity
  8
0
100
AcDbPolyline
 62
7
  6
CONTINUOUS
 90
2
 70
0
 43
0.1282051336
 10
77.7225187192
 20
67.3168705133
 10
77.7225187192
 20
70.5219987184
  0
LWPOLYLINE
  5
3F7
100
AcDbEntity
  8
0
100
AcDbPolyline
 62
7
  6
CONTINUOUS
 90
2
 70
0
 43
0.1282051336
 10
77.7242986874
 20
3.2030256676
 10
77.7242986874
 20
-0.0021025375
  0
LWPOLYLINE
  5
3F8
100
AcDbEntity
  8
0
100
AcDbPolyline
 62
7
  6
CONTINUOUS
 90
2
 70
0
 43
0.1282051336
 10
78.100185683
 20
3.2355779202
 10
78.100185683
 20
4.8381420228
  0
LWPOLYLINE
  5
3F9
100
AcDbEntity
  8
0
100
AcDbPolyline
 62
7
  6
CONTINUOUS
 90
2
 70
0
 43
0.1282051336
 10
80.1282051282
 20
4.8076923077
 10
80.1282051282
 20
8.0128205128
  0
LWPOLYLINE
  5
3FA
100
AcDbEntity
  8
0
100
AcDbPolyline
 62
7
  6
CONTINUOUS
 90
2
 70
0
 43
0.1282051336
 10
102.586139775
 20
35.2563340909
 10
104.1088146332
 20
36.3374551764
  0
LWPOLYLINE
  5
3FB
100
AcDbEntity
  8
0
100
AcDbPolyline
 62
7
  6
CONTINUOUS
 90
2
 70
0
 43
0.1923076938
 10
22.7633243274
 20
64.1406005254
 10
3.131914071
 20
64.1406005254
  0
LWPOLYLINE
  5
3FC
100
AcDbEntity
  8
0
100
AcDbPolyline
 62
7
  6
CONTINUOUS
 90
2
 70
0
 43
0.1282051336
 10
102.586139775
 20
35.2563340909
 10
104.1088146332
 20
34.1752130054
  0
LWPOLYLINE
  5
3FD
100
AcDbEntity
  8
0
100
AcDbPolyline
 62
7
  6
CONTINUOUS
 90
2
 70
0
 43
0.1923076938
 10
102.5641025641
 20
67.3053473654
 10
3.204278184
 20
67.3053473654
  0
LWPOLYLINE
  5
3FE
100
AcDbEntity
  8
0
100
AcDbPolyline
 62
7
  6
CONTINUOUS
 90
2
 70
0
 43
0.1282051336
 10
51.8015080743
 20
68.8306182471
 10
53.9637502453
 20
68.8306182471
  0
LWPOLYLINE
  5
3FF
100
AcDbEntity
  8
0
100
AcDbPolyline
 62
7
  6
CONTINUOUS
 90
2
 70
0
 43
0.1282051336
 10
92.1474358974
 20
3.2051282051
 10
92.1474358974
 20
4.8076923077
  0
LINE
  5
400
100
AcDbEntity
  8
DEFAULT_3
100
AcDbLine
 62
7
  6
PHANTOM
 10
-0.000012448
 20
70.5127121322
 11
108.9744228761
 21
70.5127121322
  0
LWPOLYLINE
  5
401
100
AcDbEntity
  8
0
100
AcDbPolyline
 62
7
  6
CONTINUOUS
 90
2
 70
0
 43
0.1282051336
 10
99.358974359
 20
4.8076923077
 10
99.358974359
 20
8.0128205128
  0
LWPOLYLINE
  5
402
100
AcDbEntity
  8
0
100
AcDbPolyline
 62
7
  6
CONTINUOUS
 90
2
 70
0
 43
0.1923076938
 10
102.5641025641
 20
67.3053473654
 10
102.5641025641
 20
3.2051282051
  0
LWPOLYLINE
  5
403
100
AcDbEntity
  8
0
100
AcDbPolyline
 62
7
  6
CONTINUOUS
 90
2
 70
0
 43
0.1282051336
 10
104.1088146332
 20
34.1752130054
 10
104.1088146332
 20
36.3374551764
  0
LINE
  5
404
100
AcDbEntity
  8
DEFAULT_3
100
AcDbLine
 62
7
  6
PHANTOM
 10
108.9743589744
 20
-0.0
 11
108.9743589744
 21
70.5104755705
  0
LINE
  5
405
100
AcDbEntity
  8
3_AXES_OTHER
100
AcDbLine
 62
7
  6
CONTINUOUS
 10
77.0263142728
 20
52.1534047275
 11
77.0263142728
 21
50.7064270084
  0
LINE
  5
406
100
AcDbEntity
  8
3_AXES_OTHER
100
AcDbLine
 62
7
  6
CONTINUOUS
 10
77.3994771747
 20
52.3845024595
 11
77.3994771747
 21
52.7907116307
  0
LINE
  5
407
100
AcDbEntity
  8
7_ALL_ROUNDS
100
AcDbLine
 62
7
  6
CONTINUOUS
 10
77.416957098
 20
52.3340170959
 11
77.416957098
 21
52.1570208982
  0
LINE
  5
408
100
AcDbEntity
  8
7_ALL_ROUNDS
100
AcDbLine
 62
7
  6
CONTINUOUS
 10
77.416957098
 20
50.0746210344
 11
77.416957098
 21
50.2516172321
  0
LINE
  5
409
100
AcDbEntity
  8
3_ALL_AXES
100
AcDbLine
 62
7
  6
CONTINUOUS
 10
77.5215245791
 20
52.2736292227
 11
77.5215245791
 21
50.0142331612
  0
LINE
  5
40A
100
AcDbEntity
  8
3_ALL_AXES
100
AcDbLine
 62
7
  6
CONTINUOUS
 10
78.0184516739
 20
52.4393149651
 11
78.0184516739
 21
50.1799189035
  0
LINE
  5
40B
100
AcDbEntity
  8
3_AXES_OTHER
100
AcDbLine
 62
7
  6
CONTINUOUS
 10
78.1094593709
 20
50.5583612413
 11
78.1094593709
 21
52.099548068
  0
LINE
  5
40C
100
AcDbEntity
  8
3_AXES_OTHER
100
AcDbLine
 62
7
  6
CONTINUOUS
 10
78.2125057631
 20
52.031130758
 11
78.2125057631
 21
50.6178706835
  0
LINE
  5
40D
100
AcDbEntity
  8
3_AXES_OTHER
100
AcDbLine
 62
7
  6
CONTINUOUS
 10
80.1156636446
 20
49.2589732636
 11
80.1156636446
 21
50.8001600903
  0
LINE
  5
40E
100
AcDbEntity
  8
3_AXES_OTHER
100
AcDbLine
 62
7
  6
CONTINUOUS
 10
77.5149953546
 20
52.862251404
 11
77.3994771747
 21
52.7907116307
  0
LINE
  5
40F
100
AcDbEntity
  8
3_AXES_OTHER
100
AcDbLine
 62
7
  6
CONTINUOUS
 10
77.5149953546
 20
52.862251404
 11
77.5417634793
 21
52.8777100351
  0
LINE
  5
410
100
AcDbEntity
  8
3_AXES_OTHER
100
AcDbLine
 62
7
  6
CONTINUOUS
 10
77.0263142728
 20
52.1534047275
 11
77.3994771747
 21
52.3845024595
  0
LINE
  5
411
100
AcDbEntity
  8
3_AXES_OTHER
100
AcDbLine
 62
9
  6
CONTINUOUS
 10
77.6547008806
 20
52.5546117838
 11
77.5304762534
 21
52.48287188
  0
LINE
  5
412
100
AcDbEntity
  8
3_AXES_OTHER
100
AcDbLine
 62
7
  6
CONTINUOUS
 10
77.416957098
 20
52.3340170959
 11
77.8036226588
 21
52.5573170227
  0
LINE
  5
413
100
AcDbEntity
  8
3_AXES_OTHER
100
AcDbLine
 62
7
  6
CONTINUOUS
 10
78.0387917874
 20
52.5906754604
 11
86.8719145955
 21
57.6918167978
  0
LINE
  5
414
100
AcDbEntity
  8
3_AXES_OTHER
100
AcDbLine
 62
7
  6
CONTINUOUS
 10
86.5643948801
 20
57.4833064502
 11
86.8986827202
 21
57.6763581666
  0
LINE
  5
415
100
AcDbEntity
  8
7_ALL_ROUNDS
100
AcDbLine
 62
9
  6
CONTINUOUS
 10
77.2184268401
 20
52.042459439
 11
77.4169180979
 21
52.1570884306
  0
LINE
  5
416
100
AcDbEntity
  8
3_ALL_AXES
100
AcDbLine
 62
7
  6
CONTINUOUS
 10
87.2497696417
 20
57.650758294
 11
87.2229908758
 21
57.6352935176
  0
LINE
  5
417
100
AcDbEntity
  8
3_AXES_OTHER
100
AcDbLine
 62
7
  6
CONTINUOUS
 10
87.1309868522
 20
57.4821601195
 11
87.0193637724
 21
57.4176976277
  0
LINE
  5
418
100
AcDbEntity
  8
3_AXES_OTHER
100
AcDbLine
 62
7
  6
CONTINUOUS
 10
77.416957098
 20
50.0746210344
 11
77.5215245791
 21
50.0142331612
  0
LINE
  5
419
100
AcDbEntity
  8
3_AXES_OTHER
100
AcDbLine
 62
7
  6
CONTINUOUS
 10
87.2297567381
 20
44.4077148941
 11
87.3343242192
 21
44.3473270209
  0
LINE
  5
41A
100
AcDbEntity
  8
0
100
AcDbLine
 62
7
  6
CONTINUOUS
 10
82.2406980822
 20
48.1543439074
 11
82.2406980822
 21
49.317149048
  0
LINE
  5
41B
100
AcDbEntity
  8
3_AXES_OTHER
100
AcDbLine
 62
7
  6
CONTINUOUS
 10
87.1042187275
 20
57.3667870759
 11
86.9925956477
 21
57.3023245841
  0
LINE
  5
41C
100
AcDbEntity
  8
3_AXES_OTHER
100
AcDbLine
 62
7
  6
CONTINUOUS
 10
87.1309868522
 20
57.3513284448
 11
87.0193637724
 21
57.286865953
  0
LINE
  5
41D
100
AcDbEntity
  8
3_ALL_AXES
100
AcDbLine
 62
9
  6
CONTINUOUS
 10
87.2246752885
 20
57.3513284448
 11
87.2514434132
 21
57.3667870759
  0
LINE
  5
41E
100
AcDbEntity
  8
3_ALL_AXES
100
AcDbLine
 62
9
  6
CONTINUOUS
 10
87.3997834374
 20
57.0592224682
 11
87.4265515621
 21
57.0746810994
  0
LINE
  5
41F
100
AcDbEntity
  8
7_ALL_ROUNDS
100
AcDbLine
 62
7
  6
CONTINUOUS
 10
87.7249670445
 20
44.5279393893
 11
87.5328544771
 21
44.6388846778
  0
LINE
  5
420
100
AcDbEntity
  8
7_ALL_ROUNDS
100
AcDbLine
 62
7
  6
CONTINUOUS
 10
77.0263142728
 20
50.7064270084
 11
77.2184268401
 21
50.5954817198
  0
LINE
  5
421
100
AcDbEntity
  8
3_AXES_OTHER
100
AcDbLine
 62
7
  6
CONTINUOUS
 10
87.7611584299
 20
44.5474294936
 11
88.1251352642
 21
44.3372323396
  0
LINE
  5
422
100
AcDbEntity
  8
3_AXES_OTHER
100
AcDbLine
 62
7
  6
CONTINUOUS
 10
87.9941361855
 20
44.4776178484
 11
87.9204792291
 21
44.5201548484
  0
LINE
  5
423
100
AcDbEntity
  8
3_AXES_OTHER
100
AcDbLine
 62
7
  6
CONTINUOUS
 10
87.9692061807
 20
44.6594692045
 11
87.9941361855
 21
44.6450720903
  0
LINE
  5
424
100
AcDbEntity
  8
3_AXES_OTHER
100
AcDbLine
 62
7
  6
CONTINUOUS
 10
78.2125057631
 20
50.6178706835
 11
80.1156636446
 21
49.5187942242
  0
LINE
  5
425
100
AcDbEntity
  8
3_AXES_OTHER
100
AcDbLine
 62
7
  6
CONTINUOUS
 10
85.3854709029
 20
46.4754728271
 11
87.2297567381
 21
45.4103950605
  0
LINE
  5
426
100
AcDbEntity
  8
0
100
AcDbLine
 62
7
  6
CONTINUOUS
 10
82.3969414961
 20
48.2444283209
 11
82.3969414961
 21
49.2269535947
  0
LINE
  5
427
100
AcDbEntity
  8
3_AXES_OTHER
100
AcDbLine
 62
7
  6
CONTINUOUS
 10
82.4154359373
 20
49.2179209659
 11
82.4154359373
 21
48.2551088877
  0
LINE
  5
428
100
AcDbEntity
  8
3_AXES_OTHER
100
AcDbLine
 62
7
  6
CONTINUOUS
 10
78.1094593709
 20
50.5583612413
 11
78.2125057631
 21
50.6178706835
  0
LINE
  5
429
100
AcDbEntity
  8
3_ALL_AXES
100
AcDbLine
 62
7
  6
CONTINUOUS
 10
77.5215245791
 20
52.2736292227
 11
78.0184516739
 21
52.4393149651
  0
LINE
  5
42A
100
AcDbEntity
  8
3_AXES_OTHER
100
AcDbLine
 62
7
  6
CONTINUOUS
 10
82.4154359373
 20
48.2551088877
 11
83.8277681106
 21
47.4394849925
  0
LINE
  5
42B
100
AcDbEntity
  8
7_ALL_ROUNDS
100
AcDbLine
 62
7
  6
CONTINUOUS
 10
87.7249670445
 20
45.9749171084
 11
87.5328544771
 21
46.085862397
  0
LINE
  5
42C
100
AcDbEntity
  8
7_ALL_ROUNDS
100
AcDbLine
 62
7
  6
CONTINUOUS
 10
77.0263142728
 20
52.1534047275
 11
77.2184268401
 21
52.042459439
  0
LINE
  5
42D
100
AcDbEntity
  8
0
100
AcDbLine
 62
7
  6
CONTINUOUS
 10
83.8290538775
 20
48.4087243642
 11
83.8290538775
 21
47.2459192236
  0
LINE
  5
42E
100
AcDbEntity
  8
3_AXES_OTHER
100
AcDbLine
 62
7
  6
CONTINUOUS
 10
77.416957098
 20
52.3340170959
 11
77.5215245791
 21
52.2736292227
  0
LINE
  5
42F
100
AcDbEntity
  8
3_AXES_OTHER
100
AcDbLine
 62
7
  6
CONTINUOUS
 10
87.2297567381
 20
46.6671109556
 11
87.3343242192
 21
46.6067230824
  0
LINE
  5
430
100
AcDbEntity
  8
7_ALL_ROUNDS
100
AcDbLine
 62
7
  6
CONTINUOUS
 10
77.3994771747
 20
52.3845024595
 11
77.4519272972
 21
52.3542124371
  0
LINE
  5
431
100
AcDbEntity
  8
7_ALL_ROUNDS
100
AcDbLine
 62
7
  6
CONTINUOUS
 10
87.919520038
 20
46.3091623237
 11
88.1251352642
 21
46.1904192299
  0
LINE
  5
432
100
AcDbEntity
  8
3_AXES_OTHER
100
AcDbLine
 62
7
  6
CONTINUOUS
 10
87.9941361855
 20
46.4400929694
 11
87.9204792291
 21
46.4826299694
  0
LINE
  5
433
100
AcDbEntity
  8
3_AXES_OTHER
100
AcDbLine
 62
7
  6
CONTINUOUS
 10
77.6041332098
 20
52.44033488
 11
77.5304762534
 21
52.48287188
  0
LINE
  5
434
100
AcDbEntity
  8
3_AXES_OTHER
100
AcDbLine
 62
7
  6
CONTINUOUS
 10
77.5304762534
 20
52.6503261219
 11
77.6041332098
 21
52.6077891219
  0
LINE
  5
435
100
AcDbEntity
  8
3_AXES_OTHER
100
AcDbLine
 62
7
  6
CONTINUOUS
 10
87.9204792291
 20
46.6500842113
 11
87.9941361855
 21
46.6075472113
  0
LINE
  5
436
100
AcDbEntity
  8
3_AXES_OTHER
100
AcDbLine
 62
7
  6
CONTINUOUS
 10
77.3994771747
 20
52.7907116307
 11
77.8036226588
 21
52.5573170227
  0
LINE
  5
437
100
AcDbEntity
  8
3_AXES_OTHER
100
AcDbLine
 62
7
  6
CONTINUOUS
 10
87.72098978
 20
46.8300230092
 11
88.1251352642
 21
46.5966284011
  0
LINE
  5
438
100
AcDbEntity
  8
3_AXES_OTHER
100
AcDbLine
 62
7
  6
CONTINUOUS
 10
77.5417634793
 20
52.8777100351
 11
78.0387917874
 21
52.5906754604
  0
LINE
  5
439
100
AcDbEntity
  8
3_AXES_OTHER
100
AcDbLine
 62
7
  6
CONTINUOUS
 10
87.7787531624
 20
46.9658335248
 11
88.2757814705
 21
46.6787989501
  0
LINE
  5
43A
100
AcDbEntity
  8
0
100
AcDbLine
 62
7
  6
CONTINUOUS
 10
82.2406980822
 20
49.317149048
 11
82.3344606768
 21
49.2629556361
  0
LINE
  5
43B
100
AcDbEntity
  8
0
100
AcDbLine
 62
7
  6
CONTINUOUS
 10
82.5953623486
 20
49.1130794728
 11
82.9002941296
 21
48.9361859898
  0
LINE
  5
43C
100
AcDbEntity
  8
3_AXES_OTHER
100
AcDbLine
 62
7
  6
CONTINUOUS
 10
85.1605182598
 20
46.3455623468
 11
85.1605182598
 21
47.8867491735
  0
LINE
  5
43D
100
AcDbEntity
  8
3_AXES_OTHER
100
AcDbLine
 62
7
  6
CONTINUOUS
 10
85.3854709029
 20
47.7680158254
 11
85.3854709029
 21
46.4754728271
  0
LINE
  5
43E
100
AcDbEntity
  8
3_ALL_AXES
100
AcDbLine
 62
7
  6
CONTINUOUS
 10
77.5215245791
 20
50.0142331612
 11
78.0184516739
 21
50.1799189035
  0
LINE
  5
43F
100
AcDbEntity
  8
3_AXES_OTHER
100
AcDbLine
 62
7
  6
CONTINUOUS
 10
87.1309868522
 20
57.7137426383
 11
87.1309868522
 21
57.6712007565
  0
LINE
  5
440
100
AcDbEntity
  8
3_AXES_OTHER
100
AcDbLine
 62
9
  6
CONTINUOUS
 10
87.1309868522
 20
57.1560987579
 11
87.1309868522
 21
57.3513284448
  0
LINE
  5
441
100
AcDbEntity
  8
3_ALL_AXES
100
AcDbLine
 62
9
  6
CONTINUOUS
 10
87.1309868522
 20
57.4821601195
 11
87.1309868522
 21
57.6712007565
  0
LINE
  5
442
100
AcDbEntity
  8
3_ALL_AXES
100
AcDbLine
 62
9
  6
CONTINUOUS
 10
87.2246752885
 20
57.1019935489
 11
87.2246752885
 21
57.3513284448
  0
LINE
  5
443
100
AcDbEntity
  8
3_ALL_AXES
100
AcDbLine
 62
9
  6
CONTINUOUS
 10
87.2246752885
 20
57.4821601195
 11
87.2246752885
 21
57.632529689
  0
LINE
  5
444
100
AcDbEntity
  8
3_ALL_AXES
100
AcDbLine
 62
7
  6
CONTINUOUS
 10
87.2297567381
 20
46.6671109556
 11
87.2297567381
 21
44.4077148941
  0
LINE
  5
445
100
AcDbEntity
  8
7_ALL_ROUNDS
100
AcDbLine
 62
7
  6
CONTINUOUS
 10
87.3343242192
 20
46.6067230824
 11
87.3343242192
 21
46.4297268847
  0
LINE
  5
446
100
AcDbEntity
  8
7_ALL_ROUNDS
100
AcDbLine
 62
7
  6
CONTINUOUS
 10
87.3343242192
 20
44.3473270209
 11
87.3343242192
 21
44.5243232186
  0
LINE
  5
447
100
AcDbEntity
  8
3_ALL_AXES
100
AcDbLine
 62
7
  6
CONTINUOUS
 10
87.3997834374
 20
57.0008683369
 11
87.3997834374
 21
57.0592224682
  0
LINE
  5
448
100
AcDbEntity
  8
3_ALL_AXES
100
AcDbLine
 62
7
  6
CONTINUOUS
 10
87.4265515621
 20
56.9854097057
 11
87.4265515621
 21
57.0746810994
  0
LINE
  5
449
100
AcDbEntity
  8
7_ALL_ROUNDS
100
AcDbLine
 62
7
  6
CONTINUOUS
 10
87.72098978
 20
46.8300230092
 11
87.72098978
 21
46.6530268114
  0
LINE
  5
44A
100
AcDbEntity
  8
3_AXES_OTHER
100
AcDbLine
 62
7
  6
CONTINUOUS
 10
87.7249670445
 20
45.9749171084
 11
87.7249670445
 21
44.5279393893
  0
LINE
  5
44B
100
AcDbEntity
  8
0
100
AcDbLine
 62
7
  6
CONTINUOUS
 10
82.3968982409
 20
48.2444033409
 11
82.4154359373
 21
48.2551088877
  0
LINE
  5
44C
100
AcDbEntity
  8
3_AXES_OTHER
100
AcDbLine
 62
7
  6
CONTINUOUS
 10
88.1251352642
 20
44.3372323396
 11
88.1251352642
 21
44.7434415108
  0
LINE
  5
44D
100
AcDbEntity
  8
3_AXES_OTHER
100
AcDbLine
 62
7
  6
CONTINUOUS
 10
88.1251352642
 20
46.1904192299
 11
88.1251352642
 21
46.5966284011
  0
LINE
  5
44E
100
AcDbEntity
  8
3_AXES_OTHER
100
AcDbLine
 62
7
  6
CONTINUOUS
 10
88.2757814705
 20
44.4194028885
 11
88.2757814705
 21
46.6787989501
  0
LINE
  5
44F
100
AcDbEntity
  8
3_ALL_AXES
100
AcDbLine
 62
7
  6
CONTINUOUS
 10
87.5166577301
 20
46.9540870795
 11
87.2297567381
 21
46.6671109556
  0
LINE
  5
450
100
AcDbEntity
  8
3_AXES_OTHER
100
AcDbLine
 62
7
  6
CONTINUOUS
 10
85.1605182598
 20
46.3455623468
 11
85.3854709029
 21
46.4754728271
  0
LINE
  5
451
100
AcDbEntity
  8
3_AXES_OTHER
100
AcDbLine
 62
7
  6
CONTINUOUS
 10
96.2508200057
 20
51.8893817768
 11
96.5851078458
 21
52.0824334933
  0
LINE
  5
452
100
AcDbEntity
  8
3_AXES_OTHER
100
AcDbLine
 62
7
  6
CONTINUOUS
 10
96.6118759705
 20
52.0669748621
 11
87.7787531624
 21
46.9658335248
  0
LINE
  5
453
100
AcDbEntity
  8
3_ALL_AXES
100
AcDbLine
 62
7
  6
CONTINUOUS
 10
96.8458166557
 20
52.1090271122
 11
96.8413498181
 21
52.106447507
  0
LINE
  5
454
100
AcDbEntity
  8
3_AXES_OTHER
100
AcDbLine
 62
7
  6
CONTINUOUS
 10
87.3343242192
 20
46.6067230824
 11
87.72098978
 21
46.8300230092
  0
LINE
  5
455
100
AcDbEntity
  8
3_ALL_AXES
100
AcDbLine
 62
7
  6
CONTINUOUS
 10
96.8441801025
 20
52.1081688557
 11
96.845816653
 21
52.1090271112
  0
LINE
  5
456
100
AcDbEntity
  8
3_ALL_AXES
100
AcDbLine
 62
9
  6
CONTINUOUS
 10
96.4549269563
 20
50.0452945384
 11
96.4281588316
 21
50.0607531696
  0
LINE
  5
457
100
AcDbEntity
  8
3_ALL_AXES
100
AcDbLine
 62
9
  6
CONTINUOUS
 10
96.5115861535
 20
50.0780153077
 11
96.4848180289
 21
50.0934739388
  0
LINE
  5
458
100
AcDbEntity
  8
3_ALL_AXES
100
AcDbLine
 62
7
  6
CONTINUOUS
 10
87.2246752885
 20
57.632529689
 11
87.2229908758
 21
57.6352935176
  0
LINE
  5
459
100
AcDbEntity
  8
3_ALL_AXES
100
AcDbLine
 62
7
  6
CONTINUOUS
 10
87.2497696421
 20
57.6507582911
 11
87.2514434132
 21
57.6479883201
  0
LINE
  5
45A
100
AcDbEntity
  8
7_ALL_ROUNDS
100
AcDbLine
 62
9
  6
CONTINUOUS
 10
87.3343242192
 20
46.4297268847
 11
87.72098978
 21
46.6530268114
  0
LINE
  5
45B
100
AcDbEntity
  8
3_AXES_OTHER
100
AcDbLine
 62
7
  6
CONTINUOUS
 10
96.8441801025
 20
51.872776815
 11
96.7325570226
 21
51.8083143232
  0
LINE
  5
45C
100
AcDbEntity
  8
3_ALL_AXES
100
AcDbLine
 62
7
  6
CONTINUOUS
 10
96.5115861535
 20
51.6807033232
 11
96.4549269563
 21
51.6479825539
  0
LINE
  5
45D
100
AcDbEntity
  8
3_ALL_AXES
100
AcDbLine
 62
9
  6
CONTINUOUS
 10
96.8174119778
 20
51.8115089804
 11
96.8441801025
 21
51.8269676115
  0
LINE
  5
45E
100
AcDbEntity
  8
3_AXES_OTHER
100
AcDbLine
 62
7
  6
CONTINUOUS
 10
96.8174119778
 20
51.7574037714
 11
96.705788898
 21
51.6929412796
  0
LINE
  5
45F
100
AcDbEntity
  8
3_ALL_AXES
100
AcDbLine
 62
7
  6
CONTINUOUS
 10
96.4281588316
 20
51.5326095103
 11
96.4848180289
 21
51.5653302796
  0
LINE
  5
460
100
AcDbEntity
  8
3_AXES_OTHER
100
AcDbLine
 62
7
  6
CONTINUOUS
 10
96.8441801025
 20
51.7419451403
 11
96.7325570226
 21
51.6774826484
  0
LINE
  5
461
100
AcDbEntity
  8
3_ALL_AXES
100
AcDbLine
 62
7
  6
CONTINUOUS
 10
96.4549269563
 20
51.5171508792
 11
96.5115861535
 21
51.5498716484
  0
LINE
  5
462
100
AcDbEntity
  8
3_AXES_OTHER
100
AcDbLine
 62
9
  6
CONTINUOUS
 10
88.0447038563
 20
46.5543698732
 11
87.9204792291
 21
46.4826299694
  0
LINE
  5
463
100
AcDbEntity
  8
3_AXES_OTHER
100
AcDbLine
 62
7
  6
CONTINUOUS
 10
88.2490133458
 20
46.663340319
 11
88.2757814705
 21
46.6787989501
  0
LINE
  5
464
100
AcDbEntity
  8
3_AXES_OTHER
100
AcDbLine
 62
9
  6
CONTINUOUS
 10
88.0666507697
 20
46.4819702478
 11
87.9941361855
 21
46.4400929694
  0
LINE
  5
465
100
AcDbEntity
  8
7_ALL_ROUNDS
100
AcDbLine
 62
9
  6
CONTINUOUS
 10
87.5328544771
 20
46.085862397
 11
87.919520038
 21
46.3091623237
  0
LINE
  5
466
100
AcDbEntity
  8
7_ALL_ROUNDS
100
AcDbLine
 62
7
  6
CONTINUOUS
 10
96.8441801025
 20
51.1957228983
 11
96.7325570226
 21
51.1312604064
  0
LINE
  5
467
100
AcDbEntity
  8
3_AXES_OTHER
100
AcDbLine
 62
7
  6
CONTINUOUS
 10
88.1251352642
 20
46.5966284011
 11
88.2490133458
 21
46.663340319
  0
LINE
  5
468
100
AcDbEntity
  8
3_AXES_OTHER
100
AcDbLine
 62
7
  6
CONTINUOUS
 10
87.7249670445
 20
45.9749171084
 11
88.1251352642
 21
46.1904192299
  0
LINE
  5
469
100
AcDbEntity
  8
3_AXES_OTHER
100
AcDbLine
 62
9
  6
CONTINUOUS
 10
96.7325570226
 20
50.2056263077
 11
96.705788898
 21
50.2210849388
  0
LINE
  5
46A
100
AcDbEntity
  8
7_ALL_ROUNDS
100
AcDbLine
 62
9
  6
CONTINUOUS
 10
96.7325570226
 20
50.8826802244
 11
96.705788898
 21
50.8981388556
  0
LINE
  5
46B
100
AcDbEntity
  8
7_ALL_ROUNDS
100
AcDbLine
 62
9
  6
CONTINUOUS
 10
96.8284538293
 20
51.0412471333
 11
96.8016857046
 21
51.0257885022
  0
LINE
  5
46C
100
AcDbEntity
  8
7_ALL_ROUNDS
100
AcDbLine
 62
7
  6
CONTINUOUS
 10
96.8174119778
 20
50.9626013474
 11
96.705788898
 21
50.8981388556
  0
LINE
  5
46D
100
AcDbEntity
  8
7_ALL_ROUNDS
100
AcDbLine
 62
7
  6
CONTINUOUS
 10
96.8441801025
 20
50.9471427163
 11
96.7325570226
 21
50.8826802244
  0
LINE
  5
46E
100
AcDbEntity
  8
3_AXES_OTHER
100
AcDbLine
 62
7
  6
CONTINUOUS
 10
96.8441801025
 20
50.4009204743
 11
96.7325570226
 21
50.3364579824
  0
LINE
  5
46F
100
AcDbEntity
  8
3_ALL_AXES
100
AcDbLine
 62
7
  6
CONTINUOUS
 10
96.5115861535
 20
50.2088469824
 11
96.4549269563
 21
50.1761262132
  0
LINE
  5
470
100
AcDbEntity
  8
3_ALL_AXES
100
AcDbLine
 62
9
  6
CONTINUOUS
 10
96.8174119778
 20
50.3396526396
 11
96.8441801025
 21
50.3551112708
  0
LINE
  5
471
100
AcDbEntity
  8
3_AXES_OTHER
100
AcDbLine
 62
7
  6
CONTINUOUS
 10
96.8174119778
 20
50.2855474307
 11
96.705788898
 21
50.2210849388
  0
LINE
  5
472
100
AcDbEntity
  8
3_ALL_AXES
100
AcDbLine
 62
7
  6
CONTINUOUS
 10
96.4281588316
 20
50.0607531696
 11
96.4848180289
 21
50.0934739388
  0
LINE
  5
473
100
AcDbEntity
  8
3_AXES_OTHER
100
AcDbLine
 62
7
  6
CONTINUOUS
 10
96.8441801025
 20
50.2700887995
 11
96.7325570226
 21
50.2056263077
  0
LINE
  5
474
100
AcDbEntity
  8
3_ALL_AXES
100
AcDbLine
 62
7
  6
CONTINUOUS
 10
96.4549269563
 20
50.0452945384
 11
96.5115861535
 21
50.0780153077
  0
LINE
  5
475
100
AcDbEntity
  8
7_ALL_ROUNDS
100
AcDbLine
 62
7
  6
CONTINUOUS
 10
96.8174119778
 20
51.0167065564
 11
96.8016857046
 21
51.0257885022
  0
LINE
  5
476
100
AcDbEntity
  8
7_ALL_ROUNDS
100
AcDbLine
 62
7
  6
CONTINUOUS
 10
96.8441801025
 20
51.0321651875
 11
96.8284538293
 21
51.0412471333
  0
LINE
  5
477
100
AcDbEntity
  8
3_ALL_AXES
100
AcDbLine
 62
9
  6
CONTINUOUS
 10
96.4549269563
 20
51.5171508792
 11
96.4281588316
 21
51.5326095103
  0
LINE
  5
478
100
AcDbEntity
  8
3_ALL_AXES
100
AcDbLine
 62
9
  6
CONTINUOUS
 10
96.5115861535
 20
51.5498716484
 11
96.4848180289
 21
51.5653302796
  0
LINE
  5
479
100
AcDbEntity
  8
3_AXES_OTHER
100
AcDbLine
 62
7
  6
CONTINUOUS
 10
96.2508200057
 20
51.8893817768
 11
86.5643948801
 21
57.4833064502
  0
LINE
  5
47A
100
AcDbEntity
  8
3_AXES_OTHER
100
AcDbLine
 62
9
  6
CONTINUOUS
 10
96.7325570226
 20
51.6774826484
 11
96.705788898
 21
51.6929412796
  0
LINE
  5
47B
100
AcDbEntity
  8
3_AXES_OTHER
100
AcDbLine
 62
9
  6
CONTINUOUS
 10
86.9925956477
 20
57.3023245841
 11
87.0193637724
 21
57.286865953
  0
LINE
  5
47C
100
AcDbEntity
  8
7_ALL_ROUNDS
100
AcDbLine
 62
9
  6
CONTINUOUS
 10
87.3343242192
 20
44.5243232186
 11
87.5328154771
 21
44.6389522103
  0
LINE
  5
47D
100
AcDbEntity
  8
3_AXES_OTHER
100
AcDbLine
 62
7
  6
CONTINUOUS
 10
88.2757814705
 20
44.9934720379
 11
96.6118759705
 21
49.8075788006
  0
LINE
  5
47E
100
AcDbEntity
  8
3_AXES_OTHER
100
AcDbLine
 62
7
  6
CONTINUOUS
 10
87.3343242192
 20
44.3473270209
 11
87.6860195809
 21
44.5504316065
  0
LINE
  5
47F
100
AcDbEntity
  8
3_AXES_OTHER
100
AcDbLine
 62
9
  6
CONTINUOUS
 10
88.0447038563
 20
44.5918947522
 11
87.9204792291
 21
44.5201548484
  0
LINE
  5
480
100
AcDbEntity
  8
3_AXES_OTHER
100
AcDbLine
 62
9
  6
CONTINUOUS
 10
88.0666507697
 20
44.5194951268
 11
87.9941361855
 21
44.4776178484
  0
LINE
  5
481
100
AcDbEntity
  8
3_AXES_OTHER
100
AcDbLine
 62
7
  6
CONTINUOUS
 10
88.2490133458
 20
44.4039442574
 11
88.2757814705
 21
44.4194028885
  0
LINE
  5
482
100
AcDbEntity
  8
3_AXES_OTHER
100
AcDbLine
 62
7
  6
CONTINUOUS
 10
87.7249670445
 20
44.5279393893
 11
88.1251352642
 21
44.7434415108
  0
LINE
  5
483
100
AcDbEntity
  8
3_AXES_OTHER
100
AcDbLine
 62
7
  6
CONTINUOUS
 10
88.1251352642
 20
44.3372323396
 11
88.2490133458
 21
44.4039442574
  0
LINE
  5
484
100
AcDbEntity
  8
3_AXES_OTHER
100
AcDbLine
 62
7
  6
CONTINUOUS
 10
86.8719145955
 20
57.6918167978
 11
86.8986827202
 21
57.6763581666
  0
LINE
  5
485
100
AcDbEntity
  8
3_AXES_OTHER
100
AcDbLine
 62
7
  6
CONTINUOUS
 10
96.5851078458
 20
52.0824334933
 11
96.6118759705
 21
52.0669748621
  0
LINE
  5
486
100
AcDbEntity
  8
3_AXES_OTHER
100
AcDbLine
 62
7
  6
CONTINUOUS
 10
87.1042187275
 20
57.7292012694
 11
87.1309868522
 21
57.7137426383
  0
LINE
  5
487
100
AcDbEntity
  8
3_AXES_OTHER
100
AcDbLine
 62
7
  6
CONTINUOUS
 10
96.8174119778
 20
52.1198179649
 11
96.8441801025
 21
52.1043593338
  0
LINE
  5
488
100
AcDbEntity
  8
3_ALL_AXES
100
AcDbLine
 62
7
  6
CONTINUOUS
 10
96.8746713317
 20
52.1090447079
 11
96.8724447286
 21
52.1066007941
  0
LINE
  5
489
100
AcDbEntity
  8
7_ALL_ROUNDS
100
AcDbLine
 62
7
  6
CONTINUOUS
 10
96.6617330261
 20
51.0085896482
 11
96.6617330261
 21
50.9235490596
  0
LINE
  5
48A
100
AcDbEntity
  8
3_ALL_AXES
100
AcDbLine
 62
9
  6
CONTINUOUS
 10
96.8174119778
 20
50.2855474307
 11
96.8174119778
 21
50.3396526396
  0
LINE
  5
48B
100
AcDbEntity
  8
3_ALL_AXES
100
AcDbLine
 62
9
  6
CONTINUOUS
 10
96.8174119778
 20
50.9626013474
 11
96.8174119778
 21
51.0167065564
  0
LINE
  5
48C
100
AcDbEntity
  8
3_ALL_AXES
100
AcDbLine
 62
9
  6
CONTINUOUS
 10
96.8174119778
 20
51.7574037714
 11
96.8174119778
 21
51.8115089804
  0
LINE
  5
48D
100
AcDbEntity
  8
3_AXES_OTHER
100
AcDbLine
 62
7
  6
CONTINUOUS
 10
96.8441801025
 20
50.0385062808
 11
96.8441801025
 21
50.0413190205
  0
LINE
  5
48E
100
AcDbEntity
  8
3_ALL_AXES
100
AcDbLine
 62
9
  6
CONTINUOUS
 10
96.8441801025
 20
50.0413190205
 11
96.8441801025
 21
50.2700887995
  0
LINE
  5
48F
100
AcDbEntity
  8
3_AXES_OTHER
100
AcDbLine
 62
9
  6
CONTINUOUS
 10
96.8441801025
 20
50.4009204743
 11
96.8441801025
 21
50.9471427163
  0
LINE
  5
490
100
AcDbEntity
  8
3_AXES_OTHER
100
AcDbLine
 62
9
  6
CONTINUOUS
 10
96.8441801025
 20
51.1957228983
 11
96.8441801025
 21
51.7419451403
  0
LINE
  5
491
100
AcDbEntity
  8
3_AXES_OTHER
100
AcDbLine
 62
7
  6
CONTINUOUS
 10
96.8441801025
 20
52.1015465941
 11
96.8441801025
 21
52.1043593338
  0
LINE
  5
492
100
AcDbEntity
  8
3_ALL_AXES
100
AcDbLine
 62
9
  6
CONTINUOUS
 10
96.8441801025
 20
51.872776815
 11
96.8441801025
 21
52.1015465941
  0
LINE
  5
493
100
AcDbEntity
  8
3_ALL_AXES
100
AcDbLine
 62
7
  6
CONTINUOUS
 10
96.8746713333
 20
50.1190356289
 11
96.8746713333
 21
50.3126000351
  0
LINE
  5
494
100
AcDbEntity
  8
3_ALL_AXES
100
AcDbLine
 62
7
  6
CONTINUOUS
 10
96.8746713333
 20
50.4434317099
 11
96.8746713333
 21
50.9896539519
  0
LINE
  5
495
100
AcDbEntity
  8
3_ALL_AXES
100
AcDbLine
 62
7
  6
CONTINUOUS
 10
96.8746713333
 20
51.2382341339
 11
96.8746713333
 21
51.7844563759
  0
LINE
  5
496
100
AcDbEntity
  8
3_ALL_AXES
100
AcDbLine
 62
7
  6
CONTINUOUS
 10
96.8746713333
 20
51.9152880506
 11
96.8746713333
 21
52.1089951394
  0
LINE
  5
497
100
AcDbEntity
  8
3_AXES_OTHER
100
AcDbLine
 62
7
  6
CONTINUOUS
 10
15.2556095469
 20
27.9986246442
 11
15.2556095469
 21
31.452522282
  0
LINE
  5
498
100
AcDbEntity
  8
3_AXES_OTHER
100
AcDbLine
 62
7
  6
CONTINUOUS
 10
15.2629869032
 20
27.9986246442
 11
15.2629869032
 21
28.6195892111
  0
LINE
  5
499
100
AcDbEntity
  8
3_AXES_OTHER
100
AcDbLine
 62
7
  6
CONTINUOUS
 10
15.2629869032
 20
30.8315577151
 11
15.2629869032
 21
31.452522282
  0
LINE
  5
49A
100
AcDbEntity
  8
3_AXES_OTHER
100
AcDbLine
 62
7
  6
CONTINUOUS
 10
15.2868182661
 20
30.8315577151
 11
15.2868182661
 21
28.6195892111
  0
LINE
  5
49B
100
AcDbEntity
  8
3_ALL_AXES
100
AcDbLine
 62
7
  6
CENTER
 10
15.4941922241
 20
31.2255734631
 11
15.4941922241
 21
30.9631228383
  0
LINE
  5
49C
100
AcDbEntity
  8
3_ALL_AXES
100
AcDbLine
 62
7
  6
CENTER
 10
15.4941922241
 20
28.2255734631
 11
15.4941922241
 21
27.973379345
  0
LINE
  5
49D
100
AcDbEntity
  8
3_ALL_AXES
100
AcDbLine
 62
7
  6
CENTER
 10
15.4941922241
 20
28.2255734631
 11
15.4941922241
 21
28.4647926347
  0
LINE
  5
49E
100
AcDbEntity
  8
3_ALL_AXES
100
AcDbLine
 62
7
  6
CENTER
 10
15.4941922241
 20
31.2255734631
 11
15.4941922241
 21
31.4811813461
  0
LINE
  5
49F
100
AcDbEntity
  8
3_ALL_AXES
100
AcDbLine
 62
7
  6
CENTER
 10
15.6241922241
 20
31.2255734631
 11
15.6241922241
 21
30.9480510568
  0
LINE
  5
4A0
100
AcDbEntity
  8
3_ALL_AXES
100
AcDbLine
 62
7
  6
CENTER
 10
15.6241922241
 20
28.2255734631
 11
15.6241922241
 21
27.9718329017
  0
LINE
  5
4A1
100
AcDbEntity
  8
3_ALL_AXES
100
AcDbLine
 62
7
  6
CENTER
 10
15.6241922241
 20
28.2255734631
 11
15.6241922241
 21
28.4632461914
  0
LINE
  5
4A2
100
AcDbEntity
  8
3_ALL_AXES
100
AcDbLine
 62
7
  6
CENTER
 10
15.6241922241
 20
31.2255734631
 11
15.6241922241
 21
31.4738417812
  0
LINE
  5
4A3
100
AcDbEntity
  8
7_ALL_ROUNDS
100
AcDbLine
 62
7
  6
CONTINUOUS
 10
15.9762788383
 20
31.452522282
 11
15.9762788383
 21
31.1819514158
  0
LINE
  5
4A4
100
AcDbEntity
  8
7_ALL_ROUNDS
100
AcDbLine
 62
7
  6
CONTINUOUS
 10
15.9762788383
 20
27.9986246442
 11
15.9762788383
 21
28.2691955103
  0
LINE
  5
4A5
100
AcDbEntity
  8
3_ALL_AXES
100
AcDbLine
 62
7
  6
CONTINUOUS
 10
16.1608340141
 20
31.452522282
 11
16.1608340141
 21
27.9986246442
  0
LINE
  5
4A6
100
AcDbEntity
  8
3_ALL_AXES
100
AcDbLine
 62
7
  6
CONTINUOUS
 10
16.3461755943
 20
31.452522282
 11
16.3461755943
 21
27.9986246442
  0
LINE
  5
4A7
100
AcDbEntity
  8
3_AXES_OTHER
100
AcDbLine
 62
7
  6
CONTINUOUS
 10
16.520137106
 20
28.6708293686
 11
16.520137106
 21
31.0268136206
  0
LINE
  5
4A8
100
AcDbEntity
  8
3_AXES_OTHER
100
AcDbLine
 62
7
  6
CONTINUOUS
 10
20.2761213579
 20
28.6708293686
 11
20.2761213579
 21
31.0268136206
  0
LINE
  5
4A9
100
AcDbEntity
  8
3_AXES_OTHER
100
AcDbLine
 62
7
  6
CONTINUOUS
 10
15.2556095469
 20
27.9986246442
 11
16.1608340141
 21
27.9986246442
  0
LINE
  5
4AA
100
AcDbEntity
  8
3_ALL_AXES
100
AcDbLine
 62
7
  6
CONTINUOUS
 10
16.1608340141
 20
27.9986246442
 11
33.2952669695
 21
27.9986246442
  0
LINE
  5
4AB
100
AcDbEntity
  8
3_AXES_OTHER
100
AcDbLine
 62
7
  6
CONTINUOUS
 10
33.2952669695
 20
27.9986246442
 11
34.2004914367
 21
27.9986246442
  0
LINE
  5
4AC
100
AcDbEntity
  8
3_AXES_OTHER
100
AcDbLine
 62
7
  6
CONTINUOUS
 10
33.9619087595
 20
28.0975813371
 11
33.8319087595
 21
28.0975813371
  0
LINE
  5
4AD
100
AcDbEntity
  8
3_AXES_OTHER
100
AcDbLine
 62
7
  6
CONTINUOUS
 10
15.6241922241
 20
28.0975813371
 11
15.4941922241
 21
28.0975813371
  0
LINE
  5
4AE
100
AcDbEntity
  8
3_ALL_AXES
100
AcDbLine
 62
7
  6
CENTER
 10
33.9619087595
 20
28.2255734631
 11
33.8991249694
 21
28.2255734631
  0
LINE
  5
4AF
100
AcDbEntity
  8
3_ALL_AXES
100
AcDbLine
 62
7
  6
CENTER
 10
33.8319087595
 20
28.2255734631
 11
33.6102688751
 21
28.2255734631
  0
LINE
  5
4B0
100
AcDbEntity
  8
3_ALL_AXES
100
AcDbLine
 62
7
  6
CENTER
 10
15.6241922241
 20
28.2255734631
 11
15.5071917462
 21
28.2255734631
  0
LINE
  5
4B1
100
AcDbEntity
  8
3_ALL_AXES
100
AcDbLine
 62
7
  6
CENTER
 10
15.4941922241
 20
28.2255734631
 11
15.2642824156
 21
28.2255734631
  0
LINE
  5
4B2
100
AcDbEntity
  8
3_ALL_AXES
100
AcDbLine
 62
7
  6
CENTER
 10
15.4941922241
 20
28.2255734631
 11
15.5071917462
 21
28.2255734631
  0
LINE
  5
4B3
100
AcDbEntity
  8
3_ALL_AXES
100
AcDbLine
 62
7
  6
CENTER
 10
15.6241922241
 20
28.2255734631
 11
15.8747892374
 21
28.2255734631
  0
LINE
  5
4B4
100
AcDbEntity
  8
3_ALL_AXES
100
AcDbLine
 62
7
  6
CENTER
 10
33.8319087595
 20
28.2255734631
 11
33.8991249694
 21
28.2255734631
  0
LINE
  5
4B5
100
AcDbEntity
  8
3_ALL_AXES
100
AcDbLine
 62
7
  6
CENTER
 10
33.9619087595
 20
28.2255734631
 11
34.2027499671
 21
28.2255734631
  0
LINE
  5
4B6
100
AcDbEntity
  8
3_AXES_OTHER
100
AcDbLine
 62
7
  6
CONTINUOUS
 10
15.4941922241
 20
28.3535655891
 11
15.6241922241
 21
28.3535655891
  0
LINE
  5
4B7
100
AcDbEntity
  8
3_AXES_OTHER
100
AcDbLine
 62
7
  6
CONTINUOUS
 10
33.8319087595
 20
28.3535655891
 11
33.9619087595
 21
28.3535655891
  0
LINE
  5
4B8
100
AcDbEntity
  8
0
100
AcDbLine
 62
7
  6
CONTINUOUS
 10
24.1032352488
 20
28.9348057466
 11
24.1032352488
 21
30.7123648017
  0
LINE
  5
4B9
100
AcDbEntity
  8
7_ALL_ROUNDS
100
AcDbLine
 62
7
  6
CONTINUOUS
 10
34.1692827175
 20
28.6195892111
 11
33.8302158461
 21
28.6195892111
  0
LINE
  5
4BA
100
AcDbEntity
  8
3_AXES_OTHER
100
AcDbLine
 62
7
  6
CONTINUOUS
 10
15.2868182661
 20
28.6195892111
 11
15.2629869032
 21
28.6195892111
  0
LINE
  5
4BB
100
AcDbEntity
  8
7_ALL_ROUNDS
100
AcDbLine
 62
7
  6
CONTINUOUS
 10
15.2868182661
 20
28.6195892111
 11
15.6258851375
 21
28.6195892111
  0
LINE
  5
4BC
100
AcDbEntity
  8
3_AXES_OTHER
100
AcDbLine
 62
7
  6
CONTINUOUS
 10
34.1692827175
 20
28.6195892111
 11
34.1931140804
 21
28.6195892111
  0
LINE
  5
4BD
100
AcDbEntity
  8
3_AXES_OTHER
100
AcDbLine
 62
7
  6
CONTINUOUS
 10
16.520137106
 20
28.6708293686
 11
20.2761213579
 21
28.6708293686
  0
LINE
  5
4BE
100
AcDbEntity
  8
3_AXES_OTHER
100
AcDbLine
 62
7
  6
CONTINUOUS
 10
29.1799796257
 20
28.6708293686
 11
32.9359638776
 21
28.6708293686
  0
LINE
  5
4BF
100
AcDbEntity
  8
0
100
AcDbLine
 62
7
  6
CONTINUOUS
 10
26.893057311
 20
28.9348057466
 11
24.1032352488
 21
28.9348057466
  0
LINE
  5
4C0
100
AcDbEntity
  8
0
100
AcDbLine
 62
7
  6
CONTINUOUS
 10
26.7530111217
 20
29.0726010221
 11
24.2412000981
 21
29.0726010221
  0
LINE
  5
4C1
100
AcDbEntity
  8
0
100
AcDbLine
 62
7
  6
CONTINUOUS
 10
24.2412000981
 20
29.0726010221
 11
24.2412000981
 21
30.5745695261
  0
LINE
  5
4C2
100
AcDbEntity
  8
3_ALL_AXES
100
AcDbLine
 62
7
  6
CENTER
 10
24.7280504918
 20
29.7255734631
 11
24.7280504918
 21
27.3621279856
  0
LINE
  5
4C3
100
AcDbEntity
  8
3_ALL_AXES
100
AcDbLine
 62
7
  6
CENTER
 10
24.7280504918
 20
29.7255734631
 11
24.7280504918
 21
32.0874332352
  0
LINE
  5
4C4
100
AcDbEntity
  8
3_ALL_AXES
100
AcDbLine
 62
7
  6
CENTER
 10
24.7280504918
 20
29.7255734631
 11
14.7140119165
 21
29.7255734631
  0
LINE
  5
4C5
100
AcDbEntity
  8
3_ALL_AXES
100
AcDbLine
 62
7
  6
CENTER
 10
24.7280504918
 20
29.7255734631
 11
34.9581884639
 21
29.7255734631
  0
LINE
  5
4C6
100
AcDbEntity
  8
0
100
AcDbLine
 62
7
  6
CONTINUOUS
 10
24.2412000981
 20
30.5745695261
 11
26.7530111217
 21
30.5745695261
  0
LINE
  5
4C7
100
AcDbEntity
  8
0
100
AcDbLine
 62
7
  6
CONTINUOUS
 10
24.1032352488
 20
30.7123648017
 11
26.893057311
 21
30.7123648017
  0
LINE
  5
4C8
100
AcDbEntity
  8
7_ALL_ROUNDS
100
AcDbLine
 62
7
  6
CONTINUOUS
 10
34.1692827175
 20
30.8315577151
 11
33.8302158461
 21
30.8315577151
  0
LINE
  5
4C9
100
AcDbEntity
  8
3_AXES_OTHER
100
AcDbLine
 62
7
  6
CONTINUOUS
 10
15.2868182661
 20
30.8315577151
 11
15.2629869032
 21
30.8315577151
  0
LINE
  5
4CA
100
AcDbEntity
  8
7_ALL_ROUNDS
100
AcDbLine
 62
7
  6
CONTINUOUS
 10
15.2868182661
 20
30.8315577151
 11
15.6258851375
 21
30.8315577151
  0
LINE
  5
4CB
100
AcDbEntity
  8
3_AXES_OTHER
100
AcDbLine
 62
7
  6
CONTINUOUS
 10
34.1692827175
 20
30.8315577151
 11
34.1931140804
 21
30.8315577151
  0
LINE
  5
4CC
100
AcDbEntity
  8
3_AXES_OTHER
100
AcDbLine
 62
7
  6
CONTINUOUS
 10
16.520137106
 20
31.0268136206
 11
20.2761213579
 21
31.0268136206
  0
LINE
  5
4CD
100
AcDbEntity
  8
3_AXES_OTHER
100
AcDbLine
 62
7
  6
CONTINUOUS
 10
29.1799796257
 20
31.0268136206
 11
32.9359638776
 21
31.0268136206
  0
LINE
  5
4CE
100
AcDbEntity
  8
3_AXES_OTHER
100
AcDbLine
 62
7
  6
CONTINUOUS
 10
33.9619087595
 20
31.0975813371
 11
33.8319087595
 21
31.0975813371
  0
LINE
  5
4CF
100
AcDbEntity
  8
3_AXES_OTHER
100
AcDbLine
 62
7
  6
CONTINUOUS
 10
15.6241922241
 20
31.0975813371
 11
15.4941922241
 21
31.0975813371
  0
LINE
  5
4D0
100
AcDbEntity
  8
3_ALL_AXES
100
AcDbLine
 62
7
  6
CENTER
 10
33.9619087595
 20
31.2255734631
 11
33.9193409354
 21
31.2255734631
  0
LINE
  5
4D1
100
AcDbEntity
  8
3_ALL_AXES
100
AcDbLine
 62
7
  6
CENTER
 10
33.8319087595
 20
31.2255734631
 11
33.5999909121
 21
31.2255734631
  0
LINE
  5
4D2
100
AcDbEntity
  8
3_ALL_AXES
100
AcDbLine
 62
7
  6
CENTER
 10
15.6241922241
 20
31.2255734631
 11
15.3715650173
 21
31.2255734631
  0
LINE
  5
4D3
100
AcDbEntity
  8
3_ALL_AXES
100
AcDbLine
 62
7
  6
CENTER
 10
15.3715650173
 20
31.2255734631
 11
15.2609848404
 21
31.2255734631
  0
LINE
  5
4D4
100
AcDbEntity
  8
3_ALL_AXES
100
AcDbLine
 62
7
  6
CENTER
 10
15.6241922241
 20
31.2255734631
 11
15.8760921462
 21
31.2255734631
  0
LINE
  5
4D5
100
AcDbEntity
  8
3_ALL_AXES
100
AcDbLine
 62
7
  6
CENTER
 10
33.8319087595
 20
31.2255734631
 11
33.9193409354
 21
31.2255734631
  0
LINE
  5
4D6
100
AcDbEntity
  8
3_ALL_AXES
100
AcDbLine
 62
7
  6
CENTER
 10
33.9619087595
 20
31.2255734631
 11
34.2282335056
 21
31.2255734631
  0
LINE
  5
4D7
100
AcDbEntity
  8
3_AXES_OTHER
100
AcDbLine
 62
7
  6
CONTINUOUS
 10
15.4941922241
 20
31.3535655891
 11
15.6241922241
 21
31.3535655891
  0
LINE
  5
4D8
100
AcDbEntity
  8
3_AXES_OTHER
100
AcDbLine
 62
7
  6
CONTINUOUS
 10
33.8319087595
 20
31.3535655891
 11
33.9619087595
 21
31.3535655891
  0
LINE
  5
4D9
100
AcDbEntity
  8
3_AXES_OTHER
100
AcDbLine
 62
7
  6
CONTINUOUS
 10
15.2556095469
 20
31.452522282
 11
16.1608340141
 21
31.452522282
  0
LINE
  5
4DA
100
AcDbEntity
  8
3_ALL_AXES
100
AcDbLine
 62
7
  6
CONTINUOUS
 10
16.1608340141
 20
31.452522282
 11
33.2952669695
 21
31.452522282
  0
LINE
  5
4DB
100
AcDbEntity
  8
3_AXES_OTHER
100
AcDbLine
 62
7
  6
CONTINUOUS
 10
33.2952669695
 20
31.452522282
 11
34.2004914367
 21
31.452522282
  0
LINE
  5
4DC
100
AcDbEntity
  8
0
100
AcDbLine
 62
7
  6
CONTINUOUS
 10
26.7530111217
 20
30.5745695261
 11
26.7530111217
 21
29.0726010221
  0
LINE
  5
4DD
100
AcDbEntity
  8
0
100
AcDbLine
 62
7
  6
CONTINUOUS
 10
26.893057311
 20
30.7123648017
 11
26.893057311
 21
28.9348057466
  0
LINE
  5
4DE
100
AcDbEntity
  8
3_AXES_OTHER
100
AcDbLine
 62
7
  6
CONTINUOUS
 10
29.1799796257
 20
28.6708293686
 11
29.1799796257
 21
31.0268136206
  0
LINE
  5
4DF
100
AcDbEntity
  8
3_AXES_OTHER
100
AcDbLine
 62
7
  6
CONTINUOUS
 10
32.9359638776
 20
28.6708293686
 11
32.9359638776
 21
31.0268136206
  0
LINE
  5
4E0
100
AcDbEntity
  8
3_ALL_AXES
100
AcDbLine
 62
7
  6
CONTINUOUS
 10
33.1099253893
 20
31.452522282
 11
33.1099253893
 21
27.9986246442
  0
LINE
  5
4E1
100
AcDbEntity
  8
3_ALL_AXES
100
AcDbLine
 62
7
  6
CONTINUOUS
 10
33.2952669695
 20
31.452522282
 11
33.2952669695
 21
27.9986246442
  0
LINE
  5
4E2
100
AcDbEntity
  8
7_ALL_ROUNDS
100
AcDbLine
 62
7
  6
CONTINUOUS
 10
33.4798221454
 20
31.452522282
 11
33.4798221454
 21
31.1819514158
  0
LINE
  5
4E3
100
AcDbEntity
  8
7_ALL_ROUNDS
100
AcDbLine
 62
7
  6
CONTINUOUS
 10
33.4798221454
 20
27.9986246442
 11
33.4798221454
 21
28.2691955103
  0
LINE
  5
4E4
100
AcDbEntity
  8
3_ALL_AXES
100
AcDbLine
 62
7
  6
CENTER
 10
33.8319087595
 20
31.2255734631
 11
33.8319087595
 21
30.9661427682
  0
LINE
  5
4E5
100
AcDbEntity
  8
3_ALL_AXES
100
AcDbLine
 62
7
  6
CENTER
 10
33.8319087595
 20
28.2255734631
 11
33.8319087595
 21
27.9779903045
  0
LINE
  5
4E6
100
AcDbEntity
  8
3_ALL_AXES
100
AcDbLine
 62
7
  6
CENTER
 10
33.8319087595
 20
28.2255734631
 11
33.8319087595
 21
28.4404251797
  0
LINE
  5
4E7
100
AcDbEntity
  8
3_ALL_AXES
100
AcDbLine
 62
7
  6
CENTER
 10
33.8319087595
 20
31.2255734631
 11
33.8319087595
 21
31.4687368431
  0
LINE
  5
4E8
100
AcDbEntity
  8
3_ALL_AXES
100
AcDbLine
 62
7
  6
CENTER
 10
33.9619087595
 20
31.2255734631
 11
33.9619087595
 21
30.9719419306
  0
LINE
  5
4E9
100
AcDbEntity
  8
3_ALL_AXES
100
AcDbLine
 62
7
  6
CENTER
 10
33.9619087595
 20
28.2255734631
 11
33.9619087595
 21
27.9744866439
  0
LINE
  5
4EA
100
AcDbEntity
  8
3_ALL_AXES
100
AcDbLine
 62
7
  6
CENTER
 10
33.9619087595
 20
28.2255734631
 11
33.9619087595
 21
28.4492447392
  0
LINE
  5
4EB
100
AcDbEntity
  8
3_ALL_AXES
100
AcDbLine
 62
7
  6
CENTER
 10
33.9619087595
 20
31.2255734631
 11
33.9619087595
 21
31.4687368431
  0
LINE
  5
4EC
100
AcDbEntity
  8
3_AXES_OTHER
100
AcDbLine
 62
7
  6
CONTINUOUS
 10
34.1692827175
 20
30.8315577151
 11
34.1692827175
 21
28.6195892111
  0
LINE
  5
4ED
100
AcDbEntity
  8
3_AXES_OTHER
100
AcDbLine
 62
7
  6
CONTINUOUS
 10
34.1931140804
 20
27.9986246442
 11
34.1931140804
 21
28.6195892111
  0
LINE
  5
4EE
100
AcDbEntity
  8
3_AXES_OTHER
100
AcDbLine
 62
7
  6
CONTINUOUS
 10
34.1931140804
 20
30.8315577151
 11
34.1931140804
 21
31.452522282
  0
LINE
  5
4EF
100
AcDbEntity
  8
3_AXES_OTHER
100
AcDbLine
 62
7
  6
CONTINUOUS
 10
34.2004914367
 20
27.9986246442
 11
34.2004914367
 21
31.452522282
  0
LINE
  5
4F0
100
AcDbEntity
  8
3_AXES_OTHER
100
AcDbLine
 62
7
  6
CONTINUOUS
 10
41.7677820047
 20
30.8315577151
 11
41.7677820047
 21
28.6195892111
  0
LINE
  5
4F1
100
AcDbEntity
  8
7_ALL_ROUNDS
100
AcDbLine
 62
7
  6
CONTINUOUS
 10
41.7677820047
 20
27.9986246442
 11
41.7677820047
 21
28.6195892111
  0
LINE
  5
4F2
100
AcDbEntity
  8
7_ALL_ROUNDS
100
AcDbLine
 62
7
  6
CONTINUOUS
 10
41.7677820047
 20
30.8315577151
 11
41.7677820047
 21
31.452522282
  0
LINE
  5
4F3
100
AcDbEntity
  8
3_AXES_OTHER
100
AcDbLine
 62
7
  6
CONTINUOUS
 10
42.4502229496
 20
27.9986246442
 11
42.4502229496
 21
28.6195892111
  0
LINE
  5
4F4
100
AcDbEntity
  8
3_AXES_OTHER
100
AcDbLine
 62
7
  6
CONTINUOUS
 10
42.4502229496
 20
30.8315577151
 11
42.4502229496
 21
31.452522282
  0
LINE
  5
4F5
100
AcDbEntity
  8
3_AXES_OTHER
100
AcDbLine
 62
7
  6
CONTINUOUS
 10
42.7087268866
 20
27.9986246442
 11
42.7087268866
 21
31.452522282
  0
LINE
  5
4F6
100
AcDbEntity
  8
3_AXES_OTHER
100
AcDbLine
 62
7
  6
CONTINUOUS
 10
41.7677820047
 20
27.9986246442
 11
58.2986456341
 21
27.9986246442
  0
LINE
  5
4F7
100
AcDbEntity
  8
7_ALL_ROUNDS
100
AcDbLine
 62
9
  6
CONTINUOUS
 10
41.7677820047
 20
28.2691955103
 11
42.4502229496
 21
28.2691955103
  0
LINE
  5
4F8
100
AcDbEntity
  8
3_AXES_OTHER
100
AcDbLine
 62
7
  6
CONTINUOUS
 10
58.7086481465
 20
28.5005734631
 11
58.5116402725
 21
28.5005734631
  0
LINE
  5
4F9
100
AcDbEntity
  8
3_ALL_AXES
100
AcDbLine
 62
7
  6
CONTINUOUS
 10
58.0216402725
 20
28.5005734631
 11
58.1216402725
 21
28.5005734631
  0
LINE
  5
4FA
100
AcDbEntity
  8
3_ALL_AXES
100
AcDbLine
 62
7
  6
CONTINUOUS
 10
58.7086481465
 20
28.5005734631
 11
58.8385694063
 21
28.5005734631
  0
LINE
  5
4FB
100
AcDbEntity
  8
3_AXES_OTHER
100
AcDbLine
 62
7
  6
CONTINUOUS
 10
57.9217538248
 20
28.6000025969
 11
57.9438843669
 21
28.6000025969
  0
LINE
  5
4FC
100
AcDbEntity
  8
3_ALL_AXES
100
AcDbLine
 62
7
  6
CENTER
 10
58.1216402725
 20
28.6005734631
 11
57.3806146314
 21
28.6005734631
  0
LINE
  5
4FD
100
AcDbEntity
  8
3_ALL_AXES
100
AcDbLine
 62
7
  6
CENTER
 10
57.3806146314
 20
28.6005734631
 11
57.2806146314
 21
28.6005734631
  0
LINE
  5
4FE
100
AcDbEntity
  8
3_ALL_AXES
100
AcDbLine
 62
7
  6
CENTER
 10
58.1216402725
 20
28.6005734631
 11
58.7626659135
 21
28.6005734631
  0
LINE
  5
4FF
100
AcDbEntity
  8
3_ALL_AXES
100
AcDbLine
 62
7
  6
CENTER
 10
58.7626659135
 20
28.6005734631
 11
58.8626659135
 21
28.6005734631
  0
LINE
  5
500
100
AcDbEntity
  8
3_AXES_OTHER
100
AcDbLine
 62
7
  6
CONTINUOUS
 10
41.7677820047
 20
28.6195892111
 11
42.4502229496
 21
28.6195892111
  0
LINE
  5
501
100
AcDbEntity
  8
3_AXES_OTHER
100
AcDbLine
 62
7
  6
CONTINUOUS
 10
58.7086481465
 20
28.7005734631
 11
58.5116402725
 21
28.7005734631
  0
LINE
  5
502
100
AcDbEntity
  8
3_ALL_AXES
100
AcDbLine
 62
7
  6
CONTINUOUS
 10
58.1216402725
 20
28.7005734631
 11
58.0216402725
 21
28.7005734631
  0
LINE
  5
503
100
AcDbEntity
  8
3_ALL_AXES
100
AcDbLine
 62
7
  6
CONTINUOUS
 10
58.7086481465
 20
28.7005734631
 11
58.8385694063
 21
28.7005734631
  0
LINE
  5
504
100
AcDbEntity
  8
3_ALL_AXES
100
AcDbLine
 62
7
  6
CENTER
 10
58.5116402725
 20
29.1255734631
 11
58.2567926257
 21
29.1255734631
  0
LINE
  5
505
100
AcDbEntity
  8
3_ALL_AXES
100
AcDbLine
 62
7
  6
CENTER
 10
58.5116402725
 20
29.1255734631
 11
58.7362806628
 21
29.1255734631
  0
LINE
  5
506
100
AcDbEntity
  8
7_ALL_ROUNDS
100
AcDbLine
 62
7
  6
CONTINUOUS
 10
58.7086481465
 20
29.5355734631
 11
58.5116402725
 21
29.5355734631
  0
LINE
  5
507
100
AcDbEntity
  8
3_ALL_AXES
100
AcDbLine
 62
7
  6
CONTINUOUS
 10
58.7086481465
 20
29.5355734631
 11
58.8385694063
 21
29.5355734631
  0
LINE
  5
508
100
AcDbEntity
  8
7_ALL_ROUNDS
100
AcDbLine
 62
9
  6
CONTINUOUS
 10
58.8385694063
 20
29.6605734631
 11
58.7913253118
 21
29.6605734631
  0
LINE
  5
509
100
AcDbEntity
  8
3_ALL_AXES
100
AcDbLine
 62
7
  6
CENTER
 10
41.1267563637
 20
29.7255734631
 11
59.4795950473
 21
29.7255734631
  0
LINE
  5
50A
100
AcDbEntity
  8
7_ALL_ROUNDS
100
AcDbLine
 62
9
  6
CONTINUOUS
 10
58.8385694063
 20
29.7905734631
 11
58.7913253118
 21
29.7905734631
  0
LINE
  5
50B
100
AcDbEntity
  8
7_ALL_ROUNDS
100
AcDbLine
 62
7
  6
CONTINUOUS
 10
58.7086481465
 20
29.9155734631
 11
58.5116402725
 21
29.9155734631
  0
LINE
  5
50C
100
AcDbEntity
  8
3_ALL_AXES
100
AcDbLine
 62
7
  6
CONTINUOUS
 10
58.7086481465
 20
29.9155734631
 11
58.8385694063
 21
29.9155734631
  0
LINE
  5
50D
100
AcDbEntity
  8
3_ALL_AXES
100
AcDbLine
 62
7
  6
CENTER
 10
58.5116402725
 20
30.3255734631
 11
58.2580406042
 21
30.3255734631
  0
LINE
  5
50E
100
AcDbEntity
  8
3_ALL_AXES
100
AcDbLine
 62
7
  6
CENTER
 10
58.5116402725
 20
30.3255734631
 11
58.724389914
 21
30.3255734631
  0
LINE
  5
50F
100
AcDbEntity
  8
3_AXES_OTHER
100
AcDbLine
 62
7
  6
CONTINUOUS
 10
58.7086481465
 20
30.7505734631
 11
58.5116402725
 21
30.7505734631
  0
LINE
  5
510
100
AcDbEntity
  8
3_ALL_AXES
100
AcDbLine
 62
7
  6
CONTINUOUS
 10
58.0216402725
 20
30.7505734631
 11
58.1216402725
 21
30.7505734631
  0
LINE
  5
511
100
AcDbEntity
  8
3_ALL_AXES
100
AcDbLine
 62
7
  6
CONTINUOUS
 10
58.7086481465
 20
30.7505734631
 11
58.8385694063
 21
30.7505734631
  0
LINE
  5
512
100
AcDbEntity
  8
3_AXES_OTHER
100
AcDbLine
 62
7
  6
CONTINUOUS
 10
41.7677820047
 20
30.8315577151
 11
42.4502229496
 21
30.8315577151
  0
LINE
  5
513
100
AcDbEntity
  8
3_ALL_AXES
100
AcDbLine
 62
7
  6
CENTER
 10
58.1216402725
 20
30.8505734631
 11
57.3806146314
 21
30.8505734631
  0
LINE
  5
514
100
AcDbEntity
  8
3_ALL_AXES
100
AcDbLine
 62
7
  6
CENTER
 10
57.3806146314
 20
30.8505734631
 11
57.2806146314
 21
30.8505734631
  0
LINE
  5
515
100
AcDbEntity
  8
3_ALL_AXES
100
AcDbLine
 62
7
  6
CENTER
 10
58.1216402725
 20
30.8505734631
 11
58.7626659135
 21
30.8505734631
  0
LINE
  5
516
100
AcDbEntity
  8
3_ALL_AXES
100
AcDbLine
 62
7
  6
CENTER
 10
58.7626659135
 20
30.8505734631
 11
58.8626659135
 21
30.8505734631
  0
LINE
  5
517
100
AcDbEntity
  8
3_AXES_OTHER
100
AcDbLine
 62
7
  6
CONTINUOUS
 10
58.7086481465
 20
30.9505734631
 11
58.5116402725
 21
30.9505734631
  0
LINE
  5
518
100
AcDbEntity
  8
3_ALL_AXES
100
AcDbLine
 62
7
  6
CONTINUOUS
 10
58.1216402725
 20
30.9505734631
 11
58.0216402725
 21
30.9505734631
  0
LINE
  5
519
100
AcDbEntity
  8
3_ALL_AXES
100
AcDbLine
 62
7
  6
CONTINUOUS
 10
58.7086481465
 20
30.9505734631
 11
58.8385694063
 21
30.9505734631
  0
LINE
  5
51A
100
AcDbEntity
  8
7_ALL_ROUNDS
100
AcDbLine
 62
9
  6
CONTINUOUS
 10
41.7677820047
 20
31.1819514158
 11
42.4502229496
 21
31.1819514158
  0
LINE
  5
51B
100
AcDbEntity
  8
3_AXES_OTHER
100
AcDbLine
 62
7
  6
CONTINUOUS
 10
41.7677820047
 20
31.452522282
 11
58.2986456341
 21
31.452522282
  0
LINE
  5
51C
100
AcDbEntity
  8
3_ALL_AXES
100
AcDbLine
 62
7
  6
CONTINUOUS
 10
58.8385694063
 20
31.1804406871
 11
58.8385365602
 21
31.1832303187
  0
LINE
  5
51D
100
AcDbEntity
  8
3_AXES_OTHER
100
AcDbLine
 62
7
  6
CONTINUOUS
 10
57.9438843669
 20
28.6607402133
 11
57.9438843669
 21
28.5404067129
  0
LINE
  5
51E
100
AcDbEntity
  8
3_ALL_AXES
100
AcDbLine
 62
7
  6
CENTER
 10
58.0216402725
 20
30.8505734631
 11
58.0216402725
 21
30.1095478221
  0
LINE
  5
51F
100
AcDbEntity
  8
3_ALL_AXES
100
AcDbLine
 62
7
  6
CENTER
 10
58.0216402725
 20
28.6005734631
 11
58.0216402725
 21
27.8595478221
  0
LINE
  5
520
100
AcDbEntity
  8
3_ALL_AXES
100
AcDbLine
 62
7
  6
CENTER
 10
58.0216402725
 20
28.6005734631
 11
58.0216402725
 21
29.3415991041
  0
LINE
  5
521
100
AcDbEntity
  8
3_ALL_AXES
100
AcDbLine
 62
7
  6
CENTER
 10
58.0216402725
 20
30.8505734631
 11
58.0216402725
 21
31.5915991041
  0
LINE
  5
522
100
AcDbEntity
  8
3_ALL_AXES
100
AcDbLine
 62
7
  6
CENTER
 10
58.1216402725
 20
30.8505734631
 11
58.1216402725
 21
30.1095478221
  0
LINE
  5
523
100
AcDbEntity
  8
3_ALL_AXES
100
AcDbLine
 62
7
  6
CENTER
 10
58.1216402725
 20
28.6005734631
 11
58.1216402725
 21
27.8595478221
  0
LINE
  5
524
100
AcDbEntity
  8
3_ALL_AXES
100
AcDbLine
 62
7
  6
CENTER
 10
58.1216402725
 20
28.6005734631
 11
58.1216402725
 21
29.3415991041
  0
LINE
  5
525
100
AcDbEntity
  8
3_ALL_AXES
100
AcDbLine
 62
7
  6
CENTER
 10
58.1216402725
 20
30.8505734631
 11
58.1216402725
 21
31.5915991041
  0
LINE
  5
526
100
AcDbEntity
  8
7_ALL_ROUNDS
100
AcDbLine
 62
7
  6
CONTINUOUS
 10
58.3866402725
 20
29.7905734631
 11
58.3866402725
 21
29.6605734631
  0
LINE
  5
527
100
AcDbEntity
  8
3_ALL_AXES
100
AcDbLine
 62
7
  6
CENTER
 10
58.5116402725
 20
30.3255734631
 11
58.5116402725
 21
30.0756610716
  0
LINE
  5
528
100
AcDbEntity
  8
3_ALL_AXES
100
AcDbLine
 62
7
  6
CENTER
 10
58.5116402725
 20
29.1255734631
 11
58.5116402725
 21
28.8915984962
  0
LINE
  5
529
100
AcDbEntity
  8
3_ALL_AXES
100
AcDbLine
 62
7
  6
CENTER
 10
58.5116402725
 20
29.1255734631
 11
58.5116402725
 21
29.378637526
  0
LINE
  5
52A
100
AcDbEntity
  8
3_ALL_AXES
100
AcDbLine
 62
7
  6
CENTER
 10
58.5116402725
 20
30.3255734631
 11
58.5116402725
 21
30.5927530524
  0
LINE
  5
52B
100
AcDbEntity
  8
3_AXES_OTHER
100
AcDbLine
 62
7
  6
CONTINUOUS
 10
58.7086481465
 20
28.1465574815
 11
58.7086481465
 21
28.1508572655
  0
LINE
  5
52C
100
AcDbEntity
  8
3_ALL_AXES
100
AcDbLine
 62
9
  6
CONTINUOUS
 10
58.7086481465
 20
28.1508572655
 11
58.7086481465
 21
28.5005734631
  0
LINE
  5
52D
100
AcDbEntity
  8
3_AXES_OTHER
100
AcDbLine
 62
9
  6
CONTINUOUS
 10
58.7086481465
 20
28.7005734631
 11
58.7086481465
 21
29.5355734631
  0
LINE
  5
52E
100
AcDbEntity
  8
3_AXES_OTHER
100
AcDbLine
 62
9
  6
CONTINUOUS
 10
58.7086481465
 20
29.9155734631
 11
58.7086481465
 21
30.7505734631
  0
LINE
  5
52F
100
AcDbEntity
  8
3_AXES_OTHER
100
AcDbLine
 62
7
  6
CONTINUOUS
 10
58.7086481465
 20
31.3002896607
 11
58.7086481465
 21
31.3045894446
  0
LINE
  5
530
100
AcDbEntity
  8
3_ALL_AXES
100
AcDbLine
 62
9
  6
CONTINUOUS
 10
58.7086481465
 20
30.9505734631
 11
58.7086481465
 21
31.3002896607
  0
LINE
  5
531
100
AcDbEntity
  8
3_ALL_AXES
100
AcDbLine
 62
7
  6
CONTINUOUS
 10
58.7913253118
 20
28.5005734631
 11
58.7913253118
 21
28.7005734631
  0
LINE
  5
532
100
AcDbEntity
  8
7_ALL_ROUNDS
100
AcDbLine
 62
7
  6
CONTINUOUS
 10
58.7913253118
 20
29.5355734631
 11
58.7913253118
 21
29.9155734631
  0
LINE
  5
533
100
AcDbEntity
  8
3_ALL_AXES
100
AcDbLine
 62
7
  6
CONTINUOUS
 10
58.7913253118
 20
30.7505734631
 11
58.7913253118
 21
30.9505734631
  0
LINE
  5
534
100
AcDbEntity
  8
3_ALL_AXES
100
AcDbLine
 62
7
  6
CONTINUOUS
 10
58.8385694063
 20
28.270706239
 11
58.8385694063
 21
29.5355734631
  0
LINE
  5
535
100
AcDbEntity
  8
7_ALL_ROUNDS
100
AcDbLine
 62
7
  6
CONTINUOUS
 10
58.8385694063
 20
29.5355734631
 11
58.8385694063
 21
29.9155734631
  0
LINE
  5
536
100
AcDbEntity
  8
3_ALL_AXES
100
AcDbLine
 62
7
  6
CONTINUOUS
 10
58.8385694063
 20
29.9155734631
 11
58.8385694063
 21
31.1804406871
  0
LINE
  5
537
100
AcDbEntity
  8
3_ALL_AXES
100
AcDbLine
 62
7
  6
CONTINUOUS
 10
58.8385365602
 20
28.2679166076
 11
58.8385694063
 21
28.270706239
  0
LINE
  5
538
100
AcDbEntity
  8
3_AXES_OTHER
100
AcDbLine
 62
7
  6
CONTINUOUS
 10
75.8520792434
 20
27.9986246442
 11
75.8520792434
 21
31.452522282
  0
LINE
  5
539
100
AcDbEntity
  8
3_AXES_OTHER
100
AcDbLine
 62
7
  6
CONTINUOUS
 10
76.7293036528
 20
27.9986246442
 11
76.7293036528
 21
28.1508572655
  0
LINE
  5
53A
100
AcDbEntity
  8
3_ALL_AXES
100
AcDbLine
 62
7
  6
CONTINUOUS
 10
76.7293036528
 20
28.1508572655
 11
76.7293036528
 21
28.5005734631
  0
LINE
  5
53B
100
AcDbEntity
  8
3_ALL_AXES
100
AcDbLine
 62
7
  6
CONTINUOUS
 10
76.7293036528
 20
28.7005734631
 11
76.7293036528
 21
29.5355734631
  0
LINE
  5
53C
100
AcDbEntity
  8
3_AXES_OTHER
100
AcDbLine
 62
7
  6
CONTINUOUS
 10
76.7293036528
 20
28.5005734631
 11
76.7293036528
 21
29.5355734631
  0
LINE
  5
53D
100
AcDbEntity
  8
7_ALL_ROUNDS
100
AcDbLine
 62
7
  6
CONTINUOUS
 10
76.7293036528
 20
29.5355734631
 11
76.7293036528
 21
29.9155734631
  0
LINE
  5
53E
100
AcDbEntity
  8
3_ALL_AXES
100
AcDbLine
 62
7
  6
CONTINUOUS
 10
76.7293036528
 20
29.9155734631
 11
76.7293036528
 21
30.7505734631
  0
LINE
  5
53F
100
AcDbEntity
  8
3_AXES_OTHER
100
AcDbLine
 62
7
  6
CONTINUOUS
 10
76.7293036528
 20
29.9155734631
 11
76.7293036528
 21
30.9505734631
  0
LINE
  5
540
100
AcDbEntity
  8
3_ALL_AXES
100
AcDbLine
 62
7
  6
CONTINUOUS
 10
76.7293036528
 20
30.9505734631
 11
76.7293036528
 21
31.3002896607
  0
LINE
  5
541
100
AcDbEntity
  8
3_AXES_OTHER
100
AcDbLine
 62
7
  6
CONTINUOUS
 10
76.7293036528
 20
31.3002896607
 11
76.7293036528
 21
31.452522282
  0
LINE
  5
542
100
AcDbEntity
  8
3_AXES_OTHER
100
AcDbLine
 62
7
  6
CONTINUOUS
 10
76.7765477473
 20
30.9505734631
 11
76.7765477473
 21
30.7505734631
  0
LINE
  5
543
100
AcDbEntity
  8
7_ALL_ROUNDS
100
AcDbLine
 62
7
  6
CONTINUOUS
 10
76.7765477473
 20
29.9155734631
 11
76.7765477473
 21
29.5355734631
  0
LINE
  5
544
100
AcDbEntity
  8
3_AXES_OTHER
100
AcDbLine
 62
7
  6
CONTINUOUS
 10
76.7765477473
 20
28.7005734631
 11
76.7765477473
 21
28.5005734631
  0
LINE
  5
545
100
AcDbEntity
  8
3_AXES_OTHER
100
AcDbLine
 62
7
  6
CONTINUOUS
 10
76.7765477473
 20
27.9986246442
 11
76.7765477473
 21
28.2115904819
  0
LINE
  5
546
100
AcDbEntity
  8
3_AXES_OTHER
100
AcDbLine
 62
7
  6
CONTINUOUS
 10
76.7765477473
 20
31.2395564443
 11
76.7765477473
 21
31.452522282
  0
LINE
  5
547
100
AcDbEntity
  8
3_ALL_AXES
100
AcDbLine
 62
9
  6
CONTINUOUS
 10
76.8592249126
 20
28.270706239
 11
76.8592249126
 21
28.5005734631
  0
LINE
  5
548
100
AcDbEntity
  8
3_ALL_AXES
100
AcDbLine
 62
9
  6
CONTINUOUS
 10
76.8592249126
 20
28.7005734631
 11
76.8592249126
 21
29.5355734631
  0
LINE
  5
549
100
AcDbEntity
  8
3_ALL_AXES
100
AcDbLine
 62
9
  6
CONTINUOUS
 10
76.8592249126
 20
29.9155734631
 11
76.8592249126
 21
30.7505734631
  0
LINE
  5
54A
100
AcDbEntity
  8
3_ALL_AXES
100
AcDbLine
 62
9
  6
CONTINUOUS
 10
76.8592249126
 20
30.9505734631
 11
76.8592249126
 21
31.1804406871
  0
LINE
  5
54B
100
AcDbEntity
  8
3_ALL_AXES
100
AcDbLine
 62
7
  6
CENTER
 10
77.0082800308
 20
30.3255734631
 11
77.0082800308
 21
29.9975974593
  0
LINE
  5
54C
100
AcDbEntity
  8
3_ALL_AXES
100
AcDbLine
 62
7
  6
CENTER
 10
77.0082800308
 20
29.1255734631
 11
77.0082800308
 21
28.80434332
  0
LINE
  5
54D
100
AcDbEntity
  8
3_ALL_AXES
100
AcDbLine
 62
7
  6
CENTER
 10
77.0082800308
 20
29.1255734631
 11
77.0082800308
 21
29.4697745526
  0
LINE
  5
54E
100
AcDbEntity
  8
3_ALL_AXES
100
AcDbLine
 62
7
  6
CENTER
 10
77.0082800308
 20
30.3255734631
 11
77.0082800308
 21
30.6583093215
  0
LINE
  5
54F
100
AcDbEntity
  8
7_ALL_ROUNDS
100
AcDbLine
 62
7
  6
CONTINUOUS
 10
77.0119808182
 20
29.6605734631
 11
77.0119808182
 21
29.7905734631
  0
LINE
  5
550
100
AcDbEntity
  8
3_ALL_AXES
100
AcDbLine
 62
7
  6
CONTINUOUS
 10
77.1682800308
 20
28.992522282
 11
77.1682800308
 21
30.4586246442
  0
LINE
  5
551
100
AcDbEntity
  8
3_AXES_OTHER
100
AcDbLine
 62
7
  6
CONTINUOUS
 10
77.2390477473
 20
30.8003766127
 11
77.2390477473
 21
30.2767545655
  0
LINE
  5
552
100
AcDbEntity
  8
3_AXES_OTHER
100
AcDbLine
 62
7
  6
CONTINUOUS
 10
77.2646382985
 20
30.3023451166
 11
77.2646382985
 21
30.7747860615
  0
LINE
  5
553
100
AcDbEntity
  8
3_AXES_OTHER
100
AcDbLine
 62
7
  6
CONTINUOUS
 10
77.3138508969
 20
30.7088411796
 11
77.3138508969
 21
30.3682899985
  0
LINE
  5
554
100
AcDbEntity
  8
3_AXES_OTHER
100
AcDbLine
 62
7
  6
CONTINUOUS
 10
77.4083390859
 20
30.6428962977
 11
77.4083390859
 21
30.4342348804
  0
LINE
  5
555
100
AcDbEntity
  8
3_AXES_OTHER
100
AcDbLine
 62
7
  6
CONTINUOUS
 10
77.5264493221
 20
30.4342348804
 11
77.5264493221
 21
30.6428962977
  0
LINE
  5
556
100
AcDbEntity
  8
3_AXES_OTHER
100
AcDbLine
 62
7
  6
CONTINUOUS
 10
77.641409952
 20
30.4273451166
 11
77.641409952
 21
30.6497860615
  0
LINE
  5
557
100
AcDbEntity
  8
3_AXES_OTHER
100
AcDbLine
 62
7
  6
CONTINUOUS
 10
77.6977091646
 20
30.7747860615
 11
77.6977091646
 21
30.3023451166
  0
LINE
  5
558
100
AcDbEntity
  8
3_AXES_OTHER
100
AcDbLine
 62
7
  6
CONTINUOUS
 10
77.7232997158
 20
30.2767545655
 11
77.7232997158
 21
30.8003766127
  0
LINE
  5
559
100
AcDbEntity
  8
3_ALL_AXES
100
AcDbLine
 62
7
  6
CONTINUOUS
 10
78.4436146764
 20
30.6948727906
 11
78.4436146764
 21
30.6633767276
  0
LINE
  5
55A
100
AcDbEntity
  8
3_ALL_AXES
100
AcDbLine
 62
7
  6
CONTINUOUS
 10
78.5735359363
 20
30.6633767276
 11
78.5735359363
 21
30.6948727906
  0
LINE
  5
55B
100
AcDbEntity
  8
3_ALL_AXES
100
AcDbLine
 62
7
  6
CONTINUOUS
 10
79.5066068024
 20
30.6948727906
 11
79.5066068024
 21
30.6633767276
  0
LINE
  5
55C
100
AcDbEntity
  8
3_AXES_OTHER
100
AcDbLine
 62
7
  6
CONTINUOUS
 10
77.5815674323
 20
30.3682899985
 11
77.641409952
 21
30.4273451166
  0
LINE
  5
55D
100
AcDbEntity
  8
3_ALL_AXES
100
AcDbLine
 62
7
  6
CONTINUOUS
 10
79.6365280623
 20
30.6633767276
 11
79.6365280623
 21
30.6948727906
  0
LINE
  5
55E
100
AcDbEntity
  8
3_ALL_AXES
100
AcDbLine
 62
7
  6
CONTINUOUS
 10
80.5695989284
 20
30.6948727906
 11
80.5695989284
 21
30.6633767276
  0
LINE
  5
55F
100
AcDbEntity
  8
3_ALL_AXES
100
AcDbLine
 62
7
  6
CONTINUOUS
 10
80.6995201882
 20
30.6633767276
 11
80.6995201882
 21
30.6948727906
  0
LINE
  5
560
100
AcDbEntity
  8
3_AXES_OTHER
100
AcDbLine
 62
7
  6
CONTINUOUS
 10
77.641409952
 20
30.6497860615
 11
77.5815674323
 21
30.7088411796
  0
LINE
  5
561
100
AcDbEntity
  8
3_ALL_AXES
100
AcDbLine
 62
7
  6
CONTINUOUS
 10
81.6325910544
 20
30.6948727906
 11
81.6325910544
 21
30.6633767276
  0
LINE
  5
562
100
AcDbEntity
  8
3_ALL_AXES
100
AcDbLine
 62
7
  6
CONTINUOUS
 10
81.7625123142
 20
30.6633767276
 11
81.7625123142
 21
30.6948727906
  0
LINE
  5
563
100
AcDbEntity
  8
3_AXES_OTHER
100
AcDbLine
 62
7
  6
CONTINUOUS
 10
83.6457012906
 20
28.648951323
 11
83.6457012906
 21
28.5891088033
  0
LINE
  5
564
100
AcDbEntity
  8
3_AXES_OTHER
100
AcDbLine
 62
7
  6
CONTINUOUS
 10
83.6457012906
 20
30.6975499339
 11
83.6457012906
 21
30.7573924535
  0
LINE
  5
565
100
AcDbEntity
  8
3_AXES_OTHER
100
AcDbLine
 62
7
  6
CONTINUOUS
 10
83.6837721567
 20
29.3796128117
 11
83.6837721567
 21
29.3292191109
  0
LINE
  5
566
100
AcDbEntity
  8
3_AXES_OTHER
100
AcDbLine
 62
7
  6
CONTINUOUS
 10
83.6837721567
 20
29.9668884452
 11
83.6837721567
 21
30.017282146
  0
LINE
  5
567
100
AcDbEntity
  8
3_AXES_OTHER
100
AcDbLine
 62
7
  6
CONTINUOUS
 10
83.8176304245
 20
30.017282146
 11
83.8176304245
 21
29.9668884452
  0
LINE
  5
568
100
AcDbEntity
  8
3_AXES_OTHER
100
AcDbLine
 62
7
  6
CONTINUOUS
 10
83.8176304245
 20
29.3292191109
 11
83.8176304245
 21
29.3796128117
  0
LINE
  5
569
100
AcDbEntity
  8
3_AXES_OTHER
100
AcDbLine
 62
7
  6
CONTINUOUS
 10
83.8557012906
 20
30.7573924535
 11
83.8557012906
 21
30.6975499339
  0
LINE
  5
56A
100
AcDbEntity
  8
3_AXES_OTHER
100
AcDbLine
 62
7
  6
CONTINUOUS
 10
83.8557012906
 20
28.5891088033
 11
83.8557012906
 21
28.648951323
  0
LINE
  5
56B
100
AcDbEntity
  8
7_ALL_ROUNDS
100
AcDbLine
 62
7
  6
CONTINUOUS
 10
93.8724926292
 20
27.9986246442
 11
76.7765477473
 21
27.9986246442
  0
LINE
  5
56C
100
AcDbEntity
  8
3_AXES_OTHER
100
AcDbLine
 62
7
  6
CONTINUOUS
 10
75.8520792434
 20
27.9986246442
 11
76.7765477473
 21
27.9986246442
  0
LINE
  5
56D
100
AcDbEntity
  8
3_AXES_OTHER
100
AcDbLine
 62
7
  6
CONTINUOUS
 10
93.8724926292
 20
27.9986246442
 11
94.7969611331
 21
27.9986246442
  0
LINE
  5
56E
100
AcDbEntity
  8
3_ALL_AXES
100
AcDbLine
 62
7
  6
CONTINUOUS
 10
76.0906619205
 20
28.0975813371
 11
76.2206619205
 21
28.0975813371
  0
LINE
  5
56F
100
AcDbEntity
  8
3_ALL_AXES
100
AcDbLine
 62
7
  6
CONTINUOUS
 10
94.428378456
 20
28.0975813371
 11
94.558378456
 21
28.0975813371
  0
LINE
  5
570
100
AcDbEntity
  8
3_AXES_OTHER
100
AcDbLine
 62
7
  6
CONTINUOUS
 10
76.7293036528
 20
28.1465574815
 11
76.7765477473
 21
28.1465574815
  0
LINE
  5
571
100
AcDbEntity
  8
3_AXES_OTHER
100
AcDbLine
 62
7
  6
CONTINUOUS
 10
93.8724926292
 20
28.1465574815
 11
93.9197367237
 21
28.1465574815
  0
LINE
  5
572
100
AcDbEntity
  8
3_ALL_AXES
100
AcDbLine
 62
7
  6
CONTINUOUS
 10
94.558378456
 20
28.3535655891
 11
94.428378456
 21
28.3535655891
  0
LINE
  5
573
100
AcDbEntity
  8
3_ALL_AXES
100
AcDbLine
 62
7
  6
CONTINUOUS
 10
76.2206619205
 20
28.3535655891
 11
76.0906619205
 21
28.3535655891
  0
LINE
  5
574
100
AcDbEntity
  8
3_AXES_OTHER
100
AcDbLine
 62
7
  6
CONTINUOUS
 10
92.5597186385
 20
28.4974435418
 11
93.274361108
 21
28.4974435418
  0
LINE
  5
575
100
AcDbEntity
  8
3_ALL_AXES
100
AcDbLine
 62
7
  6
CONTINUOUS
 10
93.9197367237
 20
28.5005734631
 11
93.7898154638
 21
28.5005734631
  0
LINE
  5
576
100
AcDbEntity
  8
3_ALL_AXES
100
AcDbLine
 62
7
  6
CONTINUOUS
 10
76.7293036528
 20
28.5005734631
 11
76.8592249126
 21
28.5005734631
  0
LINE
  5
577
100
AcDbEntity
  8
3_AXES_OTHER
100
AcDbLine
 62
7
  6
CONTINUOUS
 10
83.6457012906
 20
28.5891088033
 11
83.8557012906
 21
28.5891088033
  0
LINE
  5
578
100
AcDbEntity
  8
3_AXES_OTHER
100
AcDbLine
 62
7
  6
CONTINUOUS
 10
85.0236540465
 20
28.5891088033
 11
85.2336540465
 21
28.5891088033
  0
LINE
  5
579
100
AcDbEntity
  8
3_AXES_OTHER
100
AcDbLine
 62
7
  6
CONTINUOUS
 10
86.4016068024
 20
28.5891088033
 11
86.6116068024
 21
28.5891088033
  0
LINE
  5
57A
100
AcDbEntity
  8
3_AXES_OTHER
100
AcDbLine
 62
7
  6
CONTINUOUS
 10
92.6060162512
 20
28.6049238568
 11
93.0312131016
 21
28.6049238568
  0
LINE
  5
57B
100
AcDbEntity
  8
3_ALL_AXES
100
AcDbLine
 62
7
  6
CONTINUOUS
 10
93.9197367237
 20
28.7005734631
 11
93.7898154638
 21
28.7005734631
  0
LINE
  5
57C
100
AcDbEntity
  8
3_ALL_AXES
100
AcDbLine
 62
7
  6
CONTINUOUS
 10
76.7293036528
 20
28.7005734631
 11
76.8592249126
 21
28.7005734631
  0
LINE
  5
57D
100
AcDbEntity
  8
3_AXES_OTHER
100
AcDbLine
 62
7
  6
CONTINUOUS
 10
92.7618036528
 20
28.7624041718
 11
92.9192839678
 21
28.7624041718
  0
LINE
  5
57E
100
AcDbEntity
  8
3_AXES_OTHER
100
AcDbLine
 62
7
  6
CONTINUOUS
 10
92.9192839678
 20
28.8411443292
 11
92.7618036528
 21
28.8411443292
  0
LINE
  5
57F
100
AcDbEntity
  8
3_AXES_OTHER
100
AcDbLine
 62
7
  6
CONTINUOUS
 10
92.9170398733
 20
29.0379947229
 11
93.0745201882
 21
29.0379947229
  0
LINE
  5
580
100
AcDbEntity
  8
3_AXES_OTHER
100
AcDbLine
 62
7
  6
CONTINUOUS
 10
93.0745201882
 20
29.1167348804
 11
92.9170398733
 21
29.1167348804
  0
LINE
  5
581
100
AcDbEntity
  8
3_ALL_AXES
100
AcDbLine
 62
7
  6
CENTER
 10
93.6407603457
 20
29.1255734631
 11
93.3696080634
 21
29.1255734631
  0
LINE
  5
582
100
AcDbEntity
  8
3_ALL_AXES
100
AcDbLine
 62
7
  6
CENTER
 10
77.0082800308
 20
29.1255734631
 11
76.6864344486
 21
29.1255734631
  0
LINE
  5
583
100
AcDbEntity
  8
3_ALL_AXES
100
AcDbLine
 62
7
  6
CENTER
 10
77.0082800308
 20
29.1255734631
 11
77.3660237925
 21
29.1255734631
  0
LINE
  5
584
100
AcDbEntity
  8
3_ALL_AXES
100
AcDbLine
 62
7
  6
CENTER
 10
93.6407603457
 20
29.1255734631
 11
93.9304415291
 21
29.1255734631
  0
LINE
  5
585
100
AcDbEntity
  8
3_AXES_OTHER
100
AcDbLine
 62
7
  6
CONTINUOUS
 10
85.0236540465
 20
28.648951323
 11
85.0236540465
 21
28.5891088033
  0
LINE
  5
586
100
AcDbEntity
  8
3_AXES_OTHER
100
AcDbLine
 62
7
  6
CONTINUOUS
 10
85.0236540465
 20
30.6975499339
 11
85.0236540465
 21
30.7573924535
  0
LINE
  5
587
100
AcDbEntity
  8
3_AXES_OTHER
100
AcDbLine
 62
7
  6
CONTINUOUS
 10
85.0617249126
 20
29.3796128117
 11
85.0617249126
 21
29.3292191109
  0
LINE
  5
588
100
AcDbEntity
  8
3_AXES_OTHER
100
AcDbLine
 62
7
  6
CONTINUOUS
 10
85.0617249126
 20
29.9668884452
 11
85.0617249126
 21
30.017282146
  0
LINE
  5
589
100
AcDbEntity
  8
3_AXES_OTHER
100
AcDbLine
 62
7
  6
CONTINUOUS
 10
85.1955831804
 20
30.017282146
 11
85.1955831804
 21
29.9668884452
  0
LINE
  5
58A
100
AcDbEntity
  8
3_AXES_OTHER
100
AcDbLine
 62
7
  6
CONTINUOUS
 10
85.1955831804
 20
29.3292191109
 11
85.1955831804
 21
29.3796128117
  0
LINE
  5
58B
100
AcDbEntity
  8
3_AXES_OTHER
100
AcDbLine
 62
7
  6
CONTINUOUS
 10
85.2336540465
 20
30.7573924535
 11
85.2336540465
 21
30.6975499339
  0
LINE
  5
58C
100
AcDbEntity
  8
3_AXES_OTHER
100
AcDbLine
 62
7
  6
CONTINUOUS
 10
85.2336540465
 20
28.5891088033
 11
85.2336540465
 21
28.648951323
  0
LINE
  5
58D
100
AcDbEntity
  8
3_ALL_AXES
100
AcDbLine
 62
7
  6
CENTER
 10
85.3245201882
 20
29.7255734631
 11
85.3245201882
 21
27.0558137873
  0
LINE
  5
58E
100
AcDbEntity
  8
3_ALL_AXES
100
AcDbLine
 62
7
  6
CENTER
 10
85.3245201882
 20
29.7255734631
 11
85.3245201882
 21
32.0291341195
  0
LINE
  5
58F
100
AcDbEntity
  8
3_AXES_OTHER
100
AcDbLine
 62
7
  6
CONTINUOUS
 10
92.7618036528
 20
29.3135852741
 11
92.9192839678
 21
29.3135852741
  0
LINE
  5
590
100
AcDbEntity
  8
3_AXES_OTHER
100
AcDbLine
 62
7
  6
CONTINUOUS
 10
86.5735359363
 20
29.3796128117
 11
86.4396776686
 21
29.3796128117
  0
LINE
  5
591
100
AcDbEntity
  8
3_AXES_OTHER
100
AcDbLine
 62
7
  6
CONTINUOUS
 10
85.1955831804
 20
29.3796128117
 11
85.0617249126
 21
29.3796128117
  0
LINE
  5
592
100
AcDbEntity
  8
3_AXES_OTHER
100
AcDbLine
 62
7
  6
CONTINUOUS
 10
83.8176304245
 20
29.3796128117
 11
83.6837721567
 21
29.3796128117
  0
LINE
  5
593
100
AcDbEntity
  8
3_AXES_OTHER
100
AcDbLine
 62
7
  6
CONTINUOUS
 10
92.9192839678
 20
29.3923254316
 11
92.7618036528
 21
29.3923254316
  0
LINE
  5
594
100
AcDbEntity
  8
3_ALL_AXES
100
AcDbLine
 62
7
  6
CONTINUOUS
 10
93.9197367237
 20
29.5355734631
 11
93.7898154638
 21
29.5355734631
  0
LINE
  5
595
100
AcDbEntity
  8
7_ALL_ROUNDS
100
AcDbLine
 62
7
  6
CONTINUOUS
 10
93.7898154638
 20
29.5355734631
 11
93.7620595583
 21
29.5355734631
  0
LINE
  5
596
100
AcDbEntity
  8
3_ALL_AXES
100
AcDbLine
 62
7
  6
CONTINUOUS
 10
76.7293036528
 20
29.5355734631
 11
76.8592249126
 21
29.5355734631
  0
LINE
  5
597
100
AcDbEntity
  8
7_ALL_ROUNDS
100
AcDbLine
 62
7
  6
CONTINUOUS
 10
76.8592249126
 20
29.5355734631
 11
76.8869808182
 21
29.5355734631
  0
LINE
  5
598
100
AcDbEntity
  8
3_AXES_OTHER
100
AcDbLine
 62
7
  6
CONTINUOUS
 10
93.0312131016
 20
29.5498057466
 11
92.6060162512
 21
29.5498057466
  0
LINE
  5
599
100
AcDbEntity
  8
3_AXES_OTHER
100
AcDbLine
 62
7
  6
CONTINUOUS
 10
93.274361108
 20
29.6572860615
 11
92.5597186385
 21
29.6572860615
  0
LINE
  5
59A
100
AcDbEntity
  8
7_ALL_ROUNDS
100
AcDbLine
 62
9
  6
CONTINUOUS
 10
76.7293036528
 20
29.6605734631
 11
76.7765477473
 21
29.6605734631
  0
LINE
  5
59B
100
AcDbEntity
  8
7_ALL_ROUNDS
100
AcDbLine
 62
9
  6
CONTINUOUS
 10
93.8724926292
 20
29.6605734631
 11
93.9197367237
 21
29.6605734631
  0
LINE
  5
59C
100
AcDbEntity
  8
3_ALL_AXES
100
AcDbLine
 62
7
  6
CENTER
 10
85.3245201882
 20
29.7255734631
 11
75.1339429672
 21
29.7255734631
  0
LINE
  5
59D
100
AcDbEntity
  8
3_ALL_AXES
100
AcDbLine
 62
7
  6
CENTER
 10
85.3245201882
 20
29.7255734631
 11
95.3203126399
 21
29.7255734631
  0
LINE
  5
59E
100
AcDbEntity
  8
7_ALL_ROUNDS
100
AcDbLine
 62
9
  6
CONTINUOUS
 10
76.7293036528
 20
29.7905734631
 11
76.7765477473
 21
29.7905734631
  0
LINE
  5
59F
100
AcDbEntity
  8
7_ALL_ROUNDS
100
AcDbLine
 62
9
  6
CONTINUOUS
 10
93.8724926292
 20
29.7905734631
 11
93.9197367237
 21
29.7905734631
  0
LINE
  5
5A0
100
AcDbEntity
  8
3_ALL_AXES
100
AcDbLine
 62
7
  6
CONTINUOUS
 10
93.9197367237
 20
29.9155734631
 11
93.7898154638
 21
29.9155734631
  0
LINE
  5
5A1
100
AcDbEntity
  8
7_ALL_ROUNDS
100
AcDbLine
 62
7
  6
CONTINUOUS
 10
93.7898154638
 20
29.9155734631
 11
93.7620595583
 21
29.9155734631
  0
LINE
  5
5A2
100
AcDbEntity
  8
3_ALL_AXES
100
AcDbLine
 62
7
  6
CONTINUOUS
 10
76.7293036528
 20
29.9155734631
 11
76.8592249126
 21
29.9155734631
  0
LINE
  5
5A3
100
AcDbEntity
  8
7_ALL_ROUNDS
100
AcDbLine
 62
7
  6
CONTINUOUS
 10
76.8592249126
 20
29.9155734631
 11
76.8869808182
 21
29.9155734631
  0
LINE
  5
5A4
100
AcDbEntity
  8
3_AXES_OTHER
100
AcDbLine
 62
7
  6
CONTINUOUS
 10
86.5735359363
 20
29.9668884452
 11
86.4396776686
 21
29.9668884452
  0
LINE
  5
5A5
100
AcDbEntity
  8
3_AXES_OTHER
100
AcDbLine
 62
7
  6
CONTINUOUS
 10
85.1955831804
 20
29.9668884452
 11
85.0617249126
 21
29.9668884452
  0
LINE
  5
5A6
100
AcDbEntity
  8
3_AXES_OTHER
100
AcDbLine
 62
7
  6
CONTINUOUS
 10
83.8176304245
 20
29.9668884452
 11
83.6837721567
 21
29.9668884452
  0
LINE
  5
5A7
100
AcDbEntity
  8
3_AXES_OTHER
100
AcDbLine
 62
7
  6
CONTINUOUS
 10
77.2390477473
 20
30.2767545655
 11
77.7232997158
 21
30.2767545655
  0
LINE
  5
5A8
100
AcDbEntity
  8
3_AXES_OTHER
100
AcDbLine
 62
7
  6
CONTINUOUS
 10
77.6977091646
 20
30.3023451166
 11
77.2646382985
 21
30.3023451166
  0
LINE
  5
5A9
100
AcDbEntity
  8
3_ALL_AXES
100
AcDbLine
 62
7
  6
CENTER
 10
93.6407603457
 20
30.3255734631
 11
93.3312584591
 21
30.3255734631
  0
LINE
  5
5AA
100
AcDbEntity
  8
3_ALL_AXES
100
AcDbLine
 62
7
  6
CENTER
 10
77.0082800308
 20
30.3255734631
 11
76.6958731895
 21
30.3255734631
  0
LINE
  5
5AB
100
AcDbEntity
  8
3_ALL_AXES
100
AcDbLine
 62
7
  6
CENTER
 10
77.0082800308
 20
30.3255734631
 11
77.3660237925
 21
30.3255734631
  0
LINE
  5
5AC
100
AcDbEntity
  8
3_ALL_AXES
100
AcDbLine
 62
7
  6
CENTER
 10
93.6407603457
 20
30.3255734631
 11
93.9400572464
 21
30.3255734631
  0
LINE
  5
5AD
100
AcDbEntity
  8
3_AXES_OTHER
100
AcDbLine
 62
7
  6
CONTINUOUS
 10
77.3138508969
 20
30.3682899985
 11
77.5815674323
 21
30.3682899985
  0
LINE
  5
5AE
100
AcDbEntity
  8
3_AXES_OTHER
100
AcDbLine
 62
7
  6
CONTINUOUS
 10
77.4083390859
 20
30.4342348804
 11
77.5264493221
 21
30.4342348804
  0
LINE
  5
5AF
100
AcDbEntity
  8
3_AXES_OTHER
100
AcDbLine
 62
7
  6
CONTINUOUS
 10
86.4016068024
 20
28.648951323
 11
86.4016068024
 21
28.5891088033
  0
LINE
  5
5B0
100
AcDbEntity
  8
3_AXES_OTHER
100
AcDbLine
 62
7
  6
CONTINUOUS
 10
86.4016068024
 20
30.6975499339
 11
86.4016068024
 21
30.7573924535
  0
LINE
  5
5B1
100
AcDbEntity
  8
3_AXES_OTHER
100
AcDbLine
 62
7
  6
CONTINUOUS
 10
86.4396776686
 20
29.3796128117
 11
86.4396776686
 21
29.3292191109
  0
LINE
  5
5B2
100
AcDbEntity
  8
3_AXES_OTHER
100
AcDbLine
 62
7
  6
CONTINUOUS
 10
86.4396776686
 20
29.9668884452
 11
86.4396776686
 21
30.017282146
  0
LINE
  5
5B3
100
AcDbEntity
  8
3_AXES_OTHER
100
AcDbLine
 62
7
  6
CONTINUOUS
 10
86.5735359363
 20
30.017282146
 11
86.5735359363
 21
29.9668884452
  0
LINE
  5
5B4
100
AcDbEntity
  8
3_AXES_OTHER
100
AcDbLine
 62
7
  6
CONTINUOUS
 10
86.5735359363
 20
29.3292191109
 11
86.5735359363
 21
29.3796128117
  0
LINE
  5
5B5
100
AcDbEntity
  8
3_AXES_OTHER
100
AcDbLine
 62
7
  6
CONTINUOUS
 10
86.6116068024
 20
30.7573924535
 11
86.6116068024
 21
30.6975499339
  0
LINE
  5
5B6
100
AcDbEntity
  8
3_AXES_OTHER
100
AcDbLine
 62
7
  6
CONTINUOUS
 10
86.6116068024
 20
28.5891088033
 11
86.6116068024
 21
28.648951323
  0
LINE
  5
5B7
100
AcDbEntity
  8
3_AXES_OTHER
100
AcDbLine
 62
7
  6
CONTINUOUS
 10
77.5264493221
 20
30.6428962977
 11
77.4083390859
 21
30.6428962977
  0
LINE
  5
5B8
100
AcDbEntity
  8
3_ALL_AXES
100
AcDbLine
 62
7
  6
CONTINUOUS
 10
78.4436146764
 20
30.6633767276
 11
78.5735359363
 21
30.6633767276
  0
LINE
  5
5B9
100
AcDbEntity
  8
3_ALL_AXES
100
AcDbLine
 62
7
  6
CONTINUOUS
 10
79.5066068024
 20
30.6633767276
 11
79.6365280623
 21
30.6633767276
  0
LINE
  5
5BA
100
AcDbEntity
  8
3_ALL_AXES
100
AcDbLine
 62
7
  6
CONTINUOUS
 10
80.5695989284
 20
30.6633767276
 11
80.6995201882
 21
30.6633767276
  0
LINE
  5
5BB
100
AcDbEntity
  8
3_ALL_AXES
100
AcDbLine
 62
7
  6
CONTINUOUS
 10
81.6325910544
 20
30.6633767276
 11
81.7625123142
 21
30.6633767276
  0
LINE
  5
5BC
100
AcDbEntity
  8
3_AXES_OTHER
100
AcDbLine
 62
7
  6
CONTINUOUS
 10
77.5815674323
 20
30.7088411796
 11
77.3138508969
 21
30.7088411796
  0
LINE
  5
5BD
100
AcDbEntity
  8
3_ALL_AXES
100
AcDbLine
 62
7
  6
CONTINUOUS
 10
93.9197367237
 20
30.7505734631
 11
93.7898154638
 21
30.7505734631
  0
LINE
  5
5BE
100
AcDbEntity
  8
3_ALL_AXES
100
AcDbLine
 62
7
  6
CONTINUOUS
 10
76.7293036528
 20
30.7505734631
 11
76.8592249126
 21
30.7505734631
  0
LINE
  5
5BF
100
AcDbEntity
  8
3_AXES_OTHER
100
AcDbLine
 62
7
  6
CONTINUOUS
 10
83.6457012906
 20
30.7573924535
 11
83.8557012906
 21
30.7573924535
  0
LINE
  5
5C0
100
AcDbEntity
  8
3_AXES_OTHER
100
AcDbLine
 62
7
  6
CONTINUOUS
 10
85.0236540465
 20
30.7573924535
 11
85.2336540465
 21
30.7573924535
  0
LINE
  5
5C1
100
AcDbEntity
  8
3_AXES_OTHER
100
AcDbLine
 62
7
  6
CONTINUOUS
 10
86.4016068024
 20
30.7573924535
 11
86.6116068024
 21
30.7573924535
  0
LINE
  5
5C2
100
AcDbEntity
  8
3_AXES_OTHER
100
AcDbLine
 62
7
  6
CONTINUOUS
 10
77.2646382985
 20
30.7747860615
 11
77.6977091646
 21
30.7747860615
  0
LINE
  5
5C3
100
AcDbEntity
  8
3_AXES_OTHER
100
AcDbLine
 62
7
  6
CONTINUOUS
 10
77.7232997158
 20
30.8003766127
 11
77.2390477473
 21
30.8003766127
  0
LINE
  5
5C4
100
AcDbEntity
  8
3_ALL_AXES
100
AcDbLine
 62
7
  6
CONTINUOUS
 10
93.9197367237
 20
30.9505734631
 11
93.7898154638
 21
30.9505734631
  0
LINE
  5
5C5
100
AcDbEntity
  8
3_ALL_AXES
100
AcDbLine
 62
7
  6
CONTINUOUS
 10
76.7293036528
 20
30.9505734631
 11
76.8592249126
 21
30.9505734631
  0
LINE
  5
5C6
100
AcDbEntity
  8
3_ALL_AXES
100
AcDbLine
 62
7
  6
CONTINUOUS
 10
76.0906619205
 20
31.0975813371
 11
76.2206619205
 21
31.0975813371
  0
LINE
  5
5C7
100
AcDbEntity
  8
3_ALL_AXES
100
AcDbLine
 62
7
  6
CONTINUOUS
 10
94.428378456
 20
31.0975813371
 11
94.558378456
 21
31.0975813371
  0
LINE
  5
5C8
100
AcDbEntity
  8
3_AXES_OTHER
100
AcDbLine
 62
7
  6
CONTINUOUS
 10
93.9197367237
 20
31.3045894446
 11
93.8724926292
 21
31.3045894446
  0
LINE
  5
5C9
100
AcDbEntity
  8
3_AXES_OTHER
100
AcDbLine
 62
7
  6
CONTINUOUS
 10
76.7765477473
 20
31.3045894446
 11
76.7293036528
 21
31.3045894446
  0
LINE
  5
5CA
100
AcDbEntity
  8
3_ALL_AXES
100
AcDbLine
 62
7
  6
CONTINUOUS
 10
94.558378456
 20
31.3535655891
 11
94.428378456
 21
31.3535655891
  0
LINE
  5
5CB
100
AcDbEntity
  8
3_ALL_AXES
100
AcDbLine
 62
7
  6
CONTINUOUS
 10
76.2206619205
 20
31.3535655891
 11
76.0906619205
 21
31.3535655891
  0
LINE
  5
5CC
100
AcDbEntity
  8
3_AXES_OTHER
100
AcDbLine
 62
7
  6
CONTINUOUS
 10
75.8520792434
 20
31.452522282
 11
94.7969611331
 21
31.452522282
  0
LINE
  5
5CD
100
AcDbEntity
  8
3_AXES_OTHER
100
AcDbLine
 62
7
  6
CONTINUOUS
 10
93.2320005032
 20
29.3529553529
 11
93.0312131016
 21
29.5498057466
  0
LINE
  5
5CE
100
AcDbEntity
  8
3_AXES_OTHER
100
AcDbLine
 62
7
  6
CONTINUOUS
 10
92.487906015
 20
28.6000025969
 11
92.7783645272
 21
28.1851848517
  0
LINE
  5
5CF
100
AcDbEntity
  8
3_AXES_OTHER
100
AcDbLine
 62
7
  6
CONTINUOUS
 10
92.7783645272
 20
29.9695447516
 11
92.487906015
 21
29.5547270064
  0
LINE
  5
5D0
100
AcDbEntity
  8
3_AXES_OTHER
100
AcDbLine
 62
7
  6
CONTINUOUS
 10
93.0312131016
 20
28.6049238568
 11
93.2320005032
 21
28.8017742505
  0
LINE
  5
5D1
100
AcDbEntity
  8
3_AXES_OTHER
100
AcDbLine
 62
7
  6
CONTINUOUS
 10
93.3461737315
 20
29.5547270064
 11
93.0557152194
 21
29.9695447516
  0
LINE
  5
5D2
100
AcDbEntity
  8
3_AXES_OTHER
100
AcDbLine
 62
7
  6
CONTINUOUS
 10
92.487906015
 20
29.5547270064
 11
92.487906015
 21
28.6000025969
  0
LINE
  5
5D3
100
AcDbEntity
  8
3_AXES_OTHER
100
AcDbLine
 62
7
  6
CONTINUOUS
 10
92.6060162512
 20
29.5498057466
 11
92.6060162512
 21
28.6049238568
  0
LINE
  5
5D4
100
AcDbEntity
  8
3_AXES_OTHER
100
AcDbLine
 62
7
  6
CONTINUOUS
 10
92.7618036528
 20
29.3923254316
 11
92.7618036528
 21
29.3135852741
  0
LINE
  5
5D5
100
AcDbEntity
  8
3_AXES_OTHER
100
AcDbLine
 62
7
  6
CONTINUOUS
 10
92.7618036528
 20
28.8411443292
 11
92.7618036528
 21
28.7624041718
  0
LINE
  5
5D6
100
AcDbEntity
  8
3_AXES_OTHER
100
AcDbLine
 62
7
  6
CONTINUOUS
 10
92.9170398733
 20
29.1167348804
 11
92.9170398733
 21
29.0379947229
  0
LINE
  5
5D7
100
AcDbEntity
  8
3_AXES_OTHER
100
AcDbLine
 62
7
  6
CONTINUOUS
 10
92.9192839678
 20
28.7624041718
 11
92.9192839678
 21
28.8411443292
  0
LINE
  5
5D8
100
AcDbEntity
  8
3_AXES_OTHER
100
AcDbLine
 62
7
  6
CONTINUOUS
 10
92.9192839678
 20
29.3135852741
 11
92.9192839678
 21
29.3923254316
  0
LINE
  5
5D9
100
AcDbEntity
  8
3_AXES_OTHER
100
AcDbLine
 62
7
  6
CONTINUOUS
 10
93.0745201882
 20
29.0379947229
 11
93.0745201882
 21
29.1167348804
  0
LINE
  5
5DA
100
AcDbEntity
  8
3_AXES_OTHER
100
AcDbLine
 62
7
  6
CONTINUOUS
 10
93.0557152194
 20
28.1851848517
 11
93.3461737315
 21
28.6000025969
  0
LINE
  5
5DB
100
AcDbEntity
  8
3_AXES_OTHER
100
AcDbLine
 62
7
  6
CONTINUOUS
 10
93.2320005032
 20
28.8017742505
 11
93.2320005032
 21
29.3529553529
  0
LINE
  5
5DC
100
AcDbEntity
  8
3_AXES_OTHER
100
AcDbLine
 62
7
  6
CONTINUOUS
 10
93.3461737315
 20
28.6000025969
 11
93.3461737315
 21
29.5547270064
  0
LINE
  5
5DD
100
AcDbEntity
  8
3_ALL_AXES
100
AcDbLine
 62
7
  6
CONTINUOUS
 10
93.4807603457
 20
28.992522282
 11
93.4807603457
 21
30.4586246442
  0
LINE
  5
5DE
100
AcDbEntity
  8
7_ALL_ROUNDS
100
AcDbLine
 62
7
  6
CONTINUOUS
 10
93.6370595583
 20
29.7905734631
 11
93.6370595583
 21
29.6605734631
  0
LINE
  5
5DF
100
AcDbEntity
  8
3_ALL_AXES
100
AcDbLine
 62
7
  6
CENTER
 10
93.6407603457
 20
30.3255734631
 11
93.6407603457
 21
29.991832943
  0
LINE
  5
5E0
100
AcDbEntity
  8
3_ALL_AXES
100
AcDbLine
 62
7
  6
CENTER
 10
93.6407603457
 20
29.1255734631
 11
93.6407603457
 21
28.8561551232
  0
LINE
  5
5E1
100
AcDbEntity
  8
3_ALL_AXES
100
AcDbLine
 62
7
  6
CENTER
 10
93.6407603457
 20
29.1255734631
 11
93.6407603457
 21
29.4413570582
  0
LINE
  5
5E2
100
AcDbEntity
  8
3_ALL_AXES
100
AcDbLine
 62
7
  6
CENTER
 10
93.6407603457
 20
30.3255734631
 11
93.6407603457
 21
30.6223408343
  0
LINE
  5
5E3
100
AcDbEntity
  8
3_ALL_AXES
100
AcDbLine
 62
9
  6
CONTINUOUS
 10
93.7898154638
 20
28.270706239
 11
93.7898154638
 21
28.5005734631
  0
LINE
  5
5E4
100
AcDbEntity
  8
3_ALL_AXES
100
AcDbLine
 62
9
  6
CONTINUOUS
 10
93.7898154638
 20
28.7005734631
 11
93.7898154638
 21
29.5355734631
  0
LINE
  5
5E5
100
AcDbEntity
  8
3_ALL_AXES
100
AcDbLine
 62
9
  6
CONTINUOUS
 10
93.7898154638
 20
29.9155734631
 11
93.7898154638
 21
30.7505734631
  0
LINE
  5
5E6
100
AcDbEntity
  8
3_ALL_AXES
100
AcDbLine
 62
9
  6
CONTINUOUS
 10
93.7898154638
 20
30.9505734631
 11
93.7898154638
 21
31.1804406871
  0
LINE
  5
5E7
100
AcDbEntity
  8
3_AXES_OTHER
100
AcDbLine
 62
7
  6
CONTINUOUS
 10
93.8724926292
 20
30.9505734631
 11
93.8724926292
 21
30.7505734631
  0
LINE
  5
5E8
100
AcDbEntity
  8
3_AXES_OTHER
100
AcDbLine
 62
7
  6
CONTINUOUS
 10
93.8724926292
 20
28.7005734631
 11
93.8724926292
 21
28.5005734631
  0
LINE
  5
5E9
100
AcDbEntity
  8
3_AXES_OTHER
100
AcDbLine
 62
7
  6
CONTINUOUS
 10
93.8724926292
 20
28.2115904819
 11
93.8724926292
 21
27.9986246442
  0
LINE
  5
5EA
100
AcDbEntity
  8
7_ALL_ROUNDS
100
AcDbLine
 62
7
  6
CONTINUOUS
 10
93.8724926292
 20
29.5355734631
 11
93.8724926292
 21
29.9155734631
  0
LINE
  5
5EB
100
AcDbEntity
  8
3_AXES_OTHER
100
AcDbLine
 62
7
  6
CONTINUOUS
 10
93.8724926292
 20
31.2395564443
 11
93.8724926292
 21
31.452522282
  0
LINE
  5
5EC
100
AcDbEntity
  8
0
100
AcDbLine
 62
7
  6
CONTINUOUS
 10
93.9197367237
 20
31.3002896607
 11
93.9197367237
 21
30.9505734631
  0
LINE
  5
5ED
100
AcDbEntity
  8
0
100
AcDbLine
 62
7
  6
CONTINUOUS
 10
93.9197367237
 20
30.7505734631
 11
93.9197367237
 21
29.9155734631
  0
LINE
  5
5EE
100
AcDbEntity
  8
7_ALL_ROUNDS
100
AcDbLine
 62
7
  6
CONTINUOUS
 10
93.9197367237
 20
29.9155734631
 11
93.9197367237
 21
29.5355734631
  0
LINE
  5
5EF
100
AcDbEntity
  8
0
100
AcDbLine
 62
7
  6
CONTINUOUS
 10
93.9197367237
 20
29.5355734631
 11
93.9197367237
 21
28.7005734631
  0
LINE
  5
5F0
100
AcDbEntity
  8
0
100
AcDbLine
 62
7
  6
CONTINUOUS
 10
93.9197367237
 20
28.5005734631
 11
93.9197367237
 21
28.1508572655
  0
LINE
  5
5F1
100
AcDbEntity
  8
3_AXES_OTHER
100
AcDbLine
 62
7
  6
CONTINUOUS
 10
93.9197367237
 20
27.9986246442
 11
93.9197367237
 21
28.1508572655
  0
LINE
  5
5F2
100
AcDbEntity
  8
3_ALL_AXES
100
AcDbLine
 62
7
  6
CONTINUOUS
 10
93.9197367237
 20
28.1508572655
 11
93.9197367237
 21
28.5005734631
  0
LINE
  5
5F3
100
AcDbEntity
  8
3_AXES_OTHER
100
AcDbLine
 62
7
  6
CONTINUOUS
 10
93.9197367237
 20
28.5005734631
 11
93.9197367237
 21
29.5355734631
  0
LINE
  5
5F4
100
AcDbEntity
  8
3_AXES_OTHER
100
AcDbLine
 62
7
  6
CONTINUOUS
 10
93.9197367237
 20
29.9155734631
 11
93.9197367237
 21
30.9505734631
  0
LINE
  5
5F5
100
AcDbEntity
  8
3_ALL_AXES
100
AcDbLine
 62
7
  6
CONTINUOUS
 10
93.9197367237
 20
30.9505734631
 11
93.9197367237
 21
31.3002896607
  0
LINE
  5
5F6
100
AcDbEntity
  8
3_AXES_OTHER
100
AcDbLine
 62
7
  6
CONTINUOUS
 10
93.9197367237
 20
31.3002896607
 11
93.9197367237
 21
31.452522282
  0
LINE
  5
5F7
100
AcDbEntity
  8
3_AXES_OTHER
100
AcDbLine
 62
7
  6
CONTINUOUS
 10
94.7969611331
 20
31.452522282
 11
94.7969611331
 21
27.9986246442
  0
LINE
  5
5F8
100
AcDbEntity
  8
3_AXES_OTHER
100
AcDbLine
 62
7
  6
CONTINUOUS
 10
15.2868182661
 20
42.4609736559
 11
15.2556095469
 21
43.3546744433
  0
LINE
  5
5F9
100
AcDbEntity
  8
3_AXES_OTHER
100
AcDbLine
 62
7
  6
CONTINUOUS
 10
15.2556095469
 20
43.3546744433
 11
15.2556095469
 21
43.4019185378
  0
LINE
  5
5FA
100
AcDbEntity
  8
7_ALL_ROUNDS
100
AcDbLine
 62
9
  6
CONTINUOUS
 10
15.6258851375
 20
42.4609736559
 11
15.6258851375
 21
43.1434146008
  0
LINE
  5
5FB
100
AcDbEntity
  8
3_AXES_OTHER
100
AcDbLine
 62
7
  6
CONTINUOUS
 10
15.9762788383
 20
42.4609736559
 11
15.9762788383
 21
43.1434146008
  0
LINE
  5
5FC
100
AcDbEntity
  8
3_AXES_OTHER
100
AcDbLine
 62
7
  6
CONTINUOUS
 10
16.1328339564
 20
43.4019185378
 11
16.1328339564
 21
59.4018397976
  0
LINE
  5
5FD
100
AcDbEntity
  8
3_AXES_OTHER
100
AcDbLine
 62
7
  6
CONTINUOUS
 10
16.1800780509
 20
58.4018397976
 11
16.1800780509
 21
59.4018397976
  0
LINE
  5
5FE
100
AcDbEntity
  8
3_ALL_AXES
100
AcDbLine
 62
7
  6
CONTINUOUS
 10
16.2598339564
 20
59.5317282135
 11
16.2598339564
 21
59.4844653379
  0
LINE
  5
5FF
100
AcDbEntity
  8
7_ALL_ROUNDS
100
AcDbLine
 62
7
  6
CONTINUOUS
 10
34.1692827175
 20
42.4609736559
 11
33.4798221454
 21
42.4609736559
  0
LINE
  5
600
100
AcDbEntity
  8
7_ALL_ROUNDS
100
AcDbLine
 62
7
  6
CONTINUOUS
 10
15.2868182661
 20
42.4609736559
 11
15.9762788383
 21
42.4609736559
  0
LINE
  5
601
100
AcDbEntity
  8
3_AXES_OTHER
100
AcDbLine
 62
7
  6
CONTINUOUS
 10
15.9762788383
 20
42.4609736559
 11
16.1608340141
 21
42.4609736559
  0
LINE
  5
602
100
AcDbEntity
  8
3_AXES_OTHER
100
AcDbLine
 62
7
  6
CONTINUOUS
 10
33.2952669695
 20
42.4609736559
 11
33.4798221454
 21
42.4609736559
  0
LINE
  5
603
100
AcDbEntity
  8
3_ALL_AXES
100
AcDbLine
 62
7
  6
CONTINUOUS
 10
16.5718103343
 20
59.484516963
 11
16.5718103343
 21
59.5317610575
  0
LINE
  5
604
100
AcDbEntity
  8
3_AXES_OTHER
100
AcDbLine
 62
7
  6
CONTINUOUS
 10
16.7063969485
 20
58.4018397976
 11
16.7063969485
 21
58.6370760181
  0
LINE
  5
605
100
AcDbEntity
  8
3_AXES_OTHER
100
AcDbLine
 62
7
  6
CONTINUOUS
 10
16.778209572
 20
58.5268397976
 11
16.778209572
 21
58.6370760181
  0
LINE
  5
606
100
AcDbEntity
  8
7_ALL_ROUNDS
100
AcDbLine
 62
9
  6
CONTINUOUS
 10
16.9968554607
 20
58.5268397976
 11
16.9968554607
 21
58.4018397976
  0
LINE
  5
607
100
AcDbEntity
  8
3_AXES_OTHER
100
AcDbLine
 62
7
  6
CONTINUOUS
 10
15.2629869032
 20
43.1434146008
 11
15.9762788383
 21
43.1434146008
  0
LINE
  5
608
100
AcDbEntity
  8
3_AXES_OTHER
100
AcDbLine
 62
7
  6
CONTINUOUS
 10
33.4798221454
 20
43.1434146008
 11
34.1931140804
 21
43.1434146008
  0
LINE
  5
609
100
AcDbEntity
  8
3_AXES_OTHER
100
AcDbLine
 62
7
  6
CONTINUOUS
 10
15.2556095469
 20
43.4019185378
 11
16.1328339564
 21
43.4019185378
  0
LINE
  5
60A
100
AcDbEntity
  8
3_AXES_OTHER
100
AcDbLine
 62
7
  6
CONTINUOUS
 10
33.3232670272
 20
43.4019185378
 11
34.2004914367
 21
43.4019185378
  0
LINE
  5
60B
100
AcDbEntity
  8
7_ALL_ROUNDS
100
AcDbLine
 62
9
  6
CONTINUOUS
 10
17.2742061528
 20
58.5268397976
 11
17.2742061528
 21
58.4018397976
  0
LINE
  5
60C
100
AcDbEntity
  8
3_AXES_OTHER
100
AcDbLine
 62
7
  6
CONTINUOUS
 10
17.4928520415
 20
58.5268397976
 11
17.4928520415
 21
58.6370760181
  0
LINE
  5
60D
100
AcDbEntity
  8
3_AXES_OTHER
100
AcDbLine
 62
7
  6
CONTINUOUS
 10
17.564664665
 20
58.4018397976
 11
17.564664665
 21
58.6370760181
  0
LINE
  5
60E
100
AcDbEntity
  8
3_ALL_AXES
100
AcDbLine
 62
7
  6
CONTINUOUS
 10
16.1608340141
 20
42.4609736559
 11
16.3461755943
 21
43.1526778498
  0
LINE
  5
60F
100
AcDbEntity
  8
3_ALL_AXES
100
AcDbLine
 62
7
  6
CONTINUOUS
 10
33.1099253893
 20
43.1526778498
 11
33.2952669695
 21
42.4609736559
  0
LINE
  5
610
100
AcDbEntity
  8
3_AXES_OTHER
100
AcDbLine
 62
7
  6
CONTINUOUS
 10
33.2760229328
 20
58.4018397976
 11
16.1800780509
 21
58.4018397976
  0
LINE
  5
611
100
AcDbEntity
  8
3_AXES_OTHER
100
AcDbLine
 62
7
  6
CONTINUOUS
 10
16.778209572
 20
58.5268397976
 11
16.9968554607
 21
58.5268397976
  0
LINE
  5
612
100
AcDbEntity
  8
7_ALL_ROUNDS
100
AcDbLine
 62
7
  6
CONTINUOUS
 10
16.9968554607
 20
58.5268397976
 11
17.2742061528
 21
58.5268397976
  0
LINE
  5
613
100
AcDbEntity
  8
3_AXES_OTHER
100
AcDbLine
 62
7
  6
CONTINUOUS
 10
17.2742061528
 20
58.5268397976
 11
17.4928520415
 21
58.5268397976
  0
LINE
  5
614
100
AcDbEntity
  8
3_AXES_OTHER
100
AcDbLine
 62
7
  6
CONTINUOUS
 10
16.7063969485
 20
58.6370760181
 11
17.564664665
 21
58.6370760181
  0
LINE
  5
615
100
AcDbEntity
  8
3_ALL_AXES
100
AcDbLine
 62
7
  6
CONTINUOUS
 10
32.8842906493
 20
59.484516963
 11
32.8842906493
 21
59.5317610575
  0
LINE
  5
616
100
AcDbEntity
  8
3_ALL_AXES
100
AcDbLine
 62
7
  6
CONTINUOUS
 10
32.8854307334
 20
59.484516963
 11
32.8854307334
 21
59.5317610575
  0
LINE
  5
617
100
AcDbEntity
  8
3_ALL_AXES
100
AcDbLine
 62
7
  6
CONTINUOUS
 10
33.1962670272
 20
59.5317282134
 11
33.1962670272
 21
59.4844653379
  0
LINE
  5
618
100
AcDbEntity
  8
3_AXES_OTHER
100
AcDbLine
 62
7
  6
CONTINUOUS
 10
33.2760229328
 20
58.4018397976
 11
33.2760229328
 21
59.4018397976
  0
LINE
  5
619
100
AcDbEntity
  8
3_AXES_OTHER
100
AcDbLine
 62
7
  6
CONTINUOUS
 10
33.3232670272
 20
59.4018397976
 11
33.3232670272
 21
43.4019185378
  0
LINE
  5
61A
100
AcDbEntity
  8
3_AXES_OTHER
100
AcDbLine
 62
7
  6
CONTINUOUS
 10
16.1328339564
 20
58.9918372853
 11
16.1800780509
 21
58.9918372853
  0
LINE
  5
61B
100
AcDbEntity
  8
3_AXES_OTHER
100
AcDbLine
 62
7
  6
CONTINUOUS
 10
33.2760229328
 20
58.9918372853
 11
33.3232670272
 21
58.9918372853
  0
LINE
  5
61C
100
AcDbEntity
  8
3_AXES_OTHER
100
AcDbLine
 62
7
  6
CONTINUOUS
 10
16.1328339564
 20
59.4018397976
 11
16.1800780509
 21
59.4018397976
  0
LINE
  5
61D
100
AcDbEntity
  8
3_AXES_OTHER
100
AcDbLine
 62
7
  6
CONTINUOUS
 10
33.2760229328
 20
59.4018397976
 11
33.3232670272
 21
59.4018397976
  0
LINE
  5
61E
100
AcDbEntity
  8
3_ALL_AXES
100
AcDbLine
 62
7
  6
CONTINUOUS
 10
16.2627552162
 20
59.484516963
 11
16.5715168486
 21
59.484516963
  0
LINE
  5
61F
100
AcDbEntity
  8
3_ALL_AXES
100
AcDbLine
 62
7
  6
CONTINUOUS
 10
32.8845841424
 20
59.484516963
 11
33.1933457674
 21
59.484516963
  0
LINE
  5
620
100
AcDbEntity
  8
3_ALL_AXES
100
AcDbLine
 62
7
  6
CONTINUOUS
 10
16.2627552162
 20
59.5317610575
 11
16.5715168412
 21
59.5317610575
  0
LINE
  5
621
100
AcDbEntity
  8
3_ALL_AXES
100
AcDbLine
 62
7
  6
CONTINUOUS
 10
32.884584135
 20
59.5317610575
 11
33.1933457674
 21
59.5317610575
  0
LINE
  5
622
100
AcDbEntity
  8
3_AXES_OTHER
100
AcDbLine
 62
7
  6
CONTINUOUS
 10
33.4798221454
 20
42.4609736559
 11
33.4798221454
 21
43.1434146008
  0
LINE
  5
623
100
AcDbEntity
  8
7_ALL_ROUNDS
100
AcDbLine
 62
9
  6
CONTINUOUS
 10
33.8302158461
 20
42.4609736559
 11
33.8302158461
 21
43.1434146008
  0
LINE
  5
624
100
AcDbEntity
  8
3_AXES_OTHER
100
AcDbLine
 62
7
  6
CONTINUOUS
 10
34.2004914367
 20
43.3546744433
 11
34.2004914367
 21
43.4019185378
  0
LINE
  5
625
100
AcDbEntity
  8
3_AXES_OTHER
100
AcDbLine
 62
7
  6
CONTINUOUS
 10
34.1692827175
 20
42.4609736559
 11
34.2004914367
 21
43.3546744433
  0
ARC
  5
626
100
AcDbEntity
  8
3_AXES_OTHER
100
AcDbCircle
 62
7
  6
CONTINUOUS
 10
124.4083482898
 20
121.3446625006
 40
83.2853960334
100
AcDbArc
 50
241.884854644
 51
243.5644434946
  0
ARC
  5
627
100
AcDbEntity
  8
3_AXES_OTHER
100
AcDbCircle
 62
7
  6
CONTINUOUS
 10
124.3709869406
 20
119.7325756552
 40
83.2052557023
100
AcDbArc
 50
241.8845389274
 51
243.4877183387
  0
ARC
  5
628
100
AcDbEntity
  8
3_ALL_AXES
100
AcDbCircle
 62
7
  6
CONTINUOUS
 10
123.087320002
 20
119.0857709079
 40
80.4254426558
100
AcDbArc
 50
239.7700279163
 51
243.7504777226
  0
ARC
  5
629
100
AcDbEntity
  8
3_ALL_AXES
100
AcDbCircle
 62
7
  6
CONTINUOUS
 10
122.9763544271
 20
116.6299162595
 40
80.1998321667
100
AcDbArc
 50
239.7678590612
 51
243.5283752395
  0
ARC
  5
62A
100
AcDbEntity
  8
0
100
AcDbCircle
 62
7
  6
CONTINUOUS
 10
121.9179496293
 20
116.5578473234
 40
78.070909639
100
AcDbArc
 50
240.0809397462
 51
240.7973217815
  0
ARC
  5
62B
100
AcDbEntity
  8
0
100
AcDbCircle
 62
7
  6
CONTINUOUS
 10
121.8311161184
 20
115.2398574129
 40
77.8930829089
100
AcDbArc
 50
239.7540483559
 51
240.7990146286
  0
ARC
  5
62C
100
AcDbEntity
  8
0
100
AcDbCircle
 62
7
  6
CONTINUOUS
 10
121.8347747834
 20
115.2464745049
 40
77.7444991094
100
AcDbArc
 50
239.7533424831
 51
240.7325849779
  0
ARC
  5
62D
100
AcDbEntity
  8
0
100
AcDbCircle
 62
7
  6
CONTINUOUS
 10
121.0272046192
 20
116.3166920544
 40
77.4166134904
100
AcDbArc
 50
240.0844501822
 51
240.2359838797
  0
ARC
  5
62E
100
AcDbEntity
  8
0
100
AcDbCircle
 62
7
  6
CONTINUOUS
 10
120.9390059336
 20
115.0001311012
 40
77.2393571705
100
AcDbArc
 50
239.9326271193
 51
240.2361578016
  0
ARC
  5
62F
100
AcDbEntity
  8
0
100
AcDbCircle
 62
7
  6
CONTINUOUS
 10
121.0016192777
 20
115.1089939357
 40
77.2087945881
100
AcDbArc
 50
239.9997225875
 51
240.2360632752
  0
ARC
  5
630
100
AcDbEntity
  8
3_ALL_AXES
100
AcDbCircle
 62
7
  6
CONTINUOUS
 10
118.3125828099
 20
109.9640988364
 40
72.0955281155
100
AcDbArc
 50
236.0202975487
 51
240.3028671967
  0
ARC
  5
631
100
AcDbEntity
  8
3_ALL_AXES
100
AcDbCircle
 62
7
  6
CONTINUOUS
 10
118.3125828099
 20
112.223494898
 40
72.0955281155
100
AcDbArc
 50
236.0202975487
 51
240.3028671967
  0
ARC
  5
632
100
AcDbEntity
  8
3_AXES_OTHER
100
AcDbCircle
 62
7
  6
CONTINUOUS
 10
117.2602260878
 20
110.3483578587
 40
70.1833767822
100
AcDbArc
 50
236.0937722359
 51
238.0451957627
  0
ARC
  5
633
100
AcDbEntity
  8
3_AXES_OTHER
100
AcDbCircle
 62
7
  6
CONTINUOUS
 10
117.2602260878
 20
108.807171032
 40
70.1833767823
100
AcDbArc
 50
236.0937722359
 51
238.0451957627
  0
ARC
  5
634
100
AcDbEntity
  8
3_ALL_AXES
100
AcDbCircle
 62
7
  6
CONTINUOUS
 10
97.9918536729
 20
50.888018738
 40
1.3665321751
100
AcDbArc
 50
204.0014678239
 51
207.1539333218
  0
ARC
  5
635
100
AcDbEntity
  8
3_ALL_AXES
100
AcDbCircle
 62
7
  6
CONTINUOUS
 10
97.9674813194
 20
50.8769570604
 40
1.3397677414
100
AcDbArc
 50
203.6540318112
 51
203.9932769371
  0
ARC
  5
636
100
AcDbEntity
  8
3_AXES_OTHER
100
AcDbCircle
 62
7
  6
CONTINUOUS
 10
87.1092106609
 20
57.1402887301
 40
0.6004103863
100
AcDbArc
 50
111.2823110805
 51
113.2798901241
  0
ARC
  5
637
100
AcDbEntity
  8
3_AXES_OTHER
100
AcDbCircle
 62
7
  6
CONTINUOUS
 10
96.8224039111
 20
51.5309054256
 40
0.6004103863
100
AcDbArc
 50
111.2823110805
 51
113.2798901241
  0
ARC
  5
638
100
AcDbEntity
  8
3_ALL_AXES
100
AcDbCircle
 62
7
  6
CONTINUOUS
 10
84.4048535761
 20
47.3328594587
 40
0.5199385029
100
AcDbArc
 50
55.8230632494
 51
60.2046642637
  0
ARC
  5
639
100
AcDbEntity
  8
3_ALL_AXES
100
AcDbCircle
 62
7
  6
CONTINUOUS
 10
85.06049849
 20
47.7406446581
 40
0.4912102271
100
AcDbArc
 50
180.05324708
 51
184.3826988016
  0
ARC
  5
63A
100
AcDbEntity
  8
3_ALL_AXES
100
AcDbCircle
 62
7
  6
CONTINUOUS
 10
84.5680296087
 20
47.196861758
 40
0.4434624496
100
AcDbArc
 50
0.0004747201
 51
0.4194627998
  0
ARC
  5
63B
100
AcDbEntity
  8
3_AXES_OTHER
100
AcDbCircle
 62
7
  6
CONTINUOUS
 10
87.0825041896
 20
57.4003805999
 40
0.3170904219
100
AcDbArc
 50
81.2050612475
 51
86.0344145176
  0
ARC
  5
63C
100
AcDbEntity
  8
7_ALL_ROUNDS
100
AcDbCircle
 62
7
  6
CONTINUOUS
 10
84.8214599974
 20
47.5518182184
 40
0.2907020786
100
AcDbArc
 50
135.0436785461
 51
150.1267087066
  0
ARC
  5
63D
100
AcDbEntity
  8
7_ALL_ROUNDS
100
AcDbCircle
 62
7
  6
CONTINUOUS
 10
84.8176221103
 20
47.5551162133
 40
0.2856562085
100
AcDbArc
 50
125.3141451191
 51
134.9678778935
  0
ARC
  5
63E
100
AcDbEntity
  8
3_ALL_AXES
100
AcDbCircle
 62
7
  6
CONTINUOUS
 10
96.9683530046
 20
51.8736562751
 40
0.2653583616
100
AcDbArc
 50
117.9009316537
 51
118.5967104732
  0
ARC
  5
63F
100
AcDbEntity
  8
3_ALL_AXES
100
AcDbCircle
 62
7
  6
CONTINUOUS
 10
96.835533166
 20
52.2994141515
 40
0.1980564056
100
AcDbArc
 50
272.5022694457
 51
273.4073953781
  0
ARC
  5
640
100
AcDbEntity
  8
3_ALL_AXES
100
AcDbCircle
 62
7
  6
CONTINUOUS
 10
87.0991156467
 20
57.5549586036
 40
0.1722531371
100
AcDbArc
 50
74.8512226589
 51
78.5008961856
  0
ARC
  5
641
100
AcDbEntity
  8
3_ALL_AXES
100
AcDbCircle
 62
7
  6
CONTINUOUS
 10
87.115194332
 20
57.5513399717
 40
0.1673164688
100
AcDbArc
 50
37.7260446306
 51
38.8064343653
  0
ARC
  5
642
100
AcDbEntity
  8
3_ALL_AXES
100
AcDbCircle
 62
7
  6
CONTINUOUS
 10
87.1180310486
 20
57.5535316589
 40
0.1637317166
100
AcDbArc
 50
36.428325215
 51
37.7268298754
  0
ARC
  5
643
100
AcDbEntity
  8
3_ALL_AXES
100
AcDbCircle
 62
7
  6
CONTINUOUS
 10
87.1030450384
 20
57.5736676713
 40
0.1531363143
100
AcDbArc
 50
78.5461004018
 51
79.8190730048
  0
ARC
  5
644
100
AcDbEntity
  8
3_ALL_AXES
100
AcDbCircle
 62
7
  6
CONTINUOUS
 10
96.9137773086
 20
50.4589422379
 40
0.1256376672
100
AcDbArc
 50
217.2163068555
 51
223.4035869884
  0
ARC
  5
645
100
AcDbEntity
  8
3_ALL_AXES
100
AcDbCircle
 62
7
  6
CONTINUOUS
 10
96.9137773086
 20
51.9307985786
 40
0.1256376672
100
AcDbArc
 50
217.2163068554
 51
223.4035869885
  0
ARC
  5
646
100
AcDbEntity
  8
3_ALL_AXES
100
AcDbCircle
 62
7
  6
CONTINUOUS
 10
96.428412157
 20
51.5365725432
 40
0.0270387125
100
AcDbArc
 50
227.7100354028
 51
239.9079260316
  0
ARC
  5
647
100
AcDbEntity
  8
3_ALL_AXES
100
AcDbCircle
 62
7
  6
CONTINUOUS
 10
96.428412157
 20
50.0647162025
 40
0.0270387125
100
AcDbArc
 50
227.7100354026
 51
239.9079260322
  0
ARC
  5
648
100
AcDbEntity
  8
3_AXES_OTHER
100
AcDbCircle
 62
7
  6
CONTINUOUS
 10
96.7060422233
 20
51.6969043125
 40
0.0270387125
100
AcDbArc
 50
227.7100354023
 51
239.9079260317
  0
ARC
  5
649
100
AcDbEntity
  8
3_AXES_OTHER
100
AcDbCircle
 62
7
  6
CONTINUOUS
 10
96.7060422233
 20
50.2250479717
 40
0.0270387125
100
AcDbArc
 50
227.7100354021
 51
239.907926032
  0
ARC
  5
64A
100
AcDbEntity
  8
3_ALL_AXES
100
AcDbCircle
 62
7
  6
CONTINUOUS
 10
87.2511900879
 20
57.3707501088
 40
0.0270387125
100
AcDbArc
 50
300.0920739687
 51
312.2899645971
  0
ARC
  5
64B
100
AcDbEntity
  8
3_AXES_OTHER
100
AcDbCircle
 62
7
  6
CONTINUOUS
 10
86.992848973
 20
57.306287617
 40
0.0270387125
100
AcDbArc
 50
227.7100354028
 51
239.9079260314
  0
ARC
  5
64C
100
AcDbEntity
  8
3_ALL_AXES
100
AcDbCircle
 62
7
  6
CONTINUOUS
 10
87.2905472516
 20
57.0567440396
 40
0.01890857
100
AcDbArc
 50
119.9105857518
 51
129.727637829
  0
CIRCLE
  5
64D
100
AcDbEntity
  8
3_ALL_AXES
100
AcDbCircle
 62
7
  6
CONTINUOUS
 10
28.3162394682
 20
29.8501600773
 40
0.6102362205
  0
CIRCLE
  5
64E
100
AcDbEntity
  8
7_ALL_ROUNDS
100
AcDbCircle
 62
7
  6
CONTINUOUS
 10
28.3162394682
 20
29.8501600773
 40
0.4330708661
  0
ARC
  5
64F
100
AcDbEntity
  8
7_ALL_ROUNDS
100
AcDbCircle
 62
7
  6
CONTINUOUS
 10
33.8302158461
 20
28.2691955103
 40
0.3503937008
100
AcDbArc
 50
90.0
 51
180.0
  0
ARC
  5
650
100
AcDbEntity
  8
7_ALL_ROUNDS
100
AcDbCircle
 62
7
  6
CONTINUOUS
 10
33.8302158461
 20
31.1819514158
 40
0.3503937008
100
AcDbArc
 50
180.0
 51
270.0
  0
ARC
  5
651
100
AcDbEntity
  8
7_ALL_ROUNDS
100
AcDbCircle
 62
7
  6
CONTINUOUS
 10
15.6258851375
 20
28.2691955103
 40
0.3503937008
100
AcDbArc
 50
0.0
 51
90.0
  0
ARC
  5
652
100
AcDbEntity
  8
7_ALL_ROUNDS
100
AcDbCircle
 62
7
  6
CONTINUOUS
 10
15.6258851375
 20
31.1819514158
 40
0.3503937008
100
AcDbArc
 50
270.0
 51
360.0
  0
CIRCLE
  5
653
100
AcDbEntity
  8
3_ALL_AXES
100
AcDbCircle
 62
7
  6
CONTINUOUS
 10
21.1315937989
 20
29.6370892111
 40
0.2952755906
  0
CIRCLE
  5
654
100
AcDbEntity
  8
7_ALL_ROUNDS
100
AcDbCircle
 62
7
  6
CONTINUOUS
 10
21.1315937989
 20
29.6370892111
 40
0.2381889764
  0
ARC
  5
655
100
AcDbEntity
  8
3_AXES_OTHER
100
AcDbCircle
 62
7
  6
CONTINUOUS
 10
15.6241922241
 20
28.2255734631
 40
0.127992126
100
AcDbArc
 50
270.0
 51
90.0
  0
ARC
  5
656
100
AcDbEntity
  8
3_AXES_OTHER
100
AcDbCircle
 62
7
  6
CONTINUOUS
 10
15.4941922241
 20
28.2255734631
 40
0.127992126
100
AcDbArc
 50
90.0
 51
270.0
  0
ARC
  5
657
100
AcDbEntity
  8
3_AXES_OTHER
100
AcDbCircle
 62
7
  6
CONTINUOUS
 10
15.4941922241
 20
31.2255734631
 40
0.127992126
100
AcDbArc
 50
90.0
 51
270.0
  0
ARC
  5
658
100
AcDbEntity
  8
3_AXES_OTHER
100
AcDbCircle
 62
7
  6
CONTINUOUS
 10
15.6241922241
 20
31.2255734631
 40
0.127992126
100
AcDbArc
 50
270.0
 51
90.0
  0
ARC
  5
659
100
AcDbEntity
  8
3_AXES_OTHER
100
AcDbCircle
 62
7
  6
CONTINUOUS
 10
33.9619087595
 20
28.2255734631
 40
0.127992126
100
AcDbArc
 50
270.0
 51
90.0
  0
ARC
  5
65A
100
AcDbEntity
  8
3_AXES_OTHER
100
AcDbCircle
 62
7
  6
CONTINUOUS
 10
33.8319087595
 20
28.2255734631
 40
0.127992126
100
AcDbArc
 50
90.0
 51
270.0
  0
ARC
  5
65B
100
AcDbEntity
  8
3_AXES_OTHER
100
AcDbCircle
 62
7
  6
CONTINUOUS
 10
33.8319087595
 20
31.2255734631
 40
0.127992126
100
AcDbArc
 50
90.0
 51
270.0
  0
ARC
  5
65C
100
AcDbEntity
  8
3_AXES_OTHER
100
AcDbCircle
 62
7
  6
CONTINUOUS
 10
33.9619087595
 20
31.2255734631
 40
0.127992126
100
AcDbArc
 50
270.0
 51
90.0
  0
CIRCLE
  5
65D
100
AcDbEntity
  8
7_ALL_ROUNDS
100
AcDbCircle
 62
9
  6
CONTINUOUS
 10
28.3162394682
 20
29.8501600773
 40
0.1181102362
  0
CIRCLE
  5
65E
100
AcDbEntity
  8
7_ALL_ROUNDS
100
AcDbCircle
 62
9
  6
CONTINUOUS
 10
21.1315937989
 20
29.6370892111
 40
0.0545369482
  0
ARC
  5
65F
100
AcDbEntity
  8
3_AXES_OTHER
100
AcDbCircle
 62
7
  6
CONTINUOUS
 10
58.1717268866
 20
28.992522282
 40
1.0019685039
100
AcDbArc
 50
277.277171658
 51
302.402687942
  0
ARC
  5
660
100
AcDbEntity
  8
3_AXES_OTHER
100
AcDbCircle
 62
7
  6
CONTINUOUS
 10
58.1717268866
 20
30.4586246442
 40
1.0019685039
100
AcDbArc
 50
57.597312058
 51
82.722828342
  0
ARC
  5
661
100
AcDbEntity
  8
7_ALL_ROUNDS
100
AcDbCircle
 62
7
  6
CONTINUOUS
 10
58.5116402725
 20
29.7905734631
 40
0.125
100
AcDbArc
 50
90.0
 51
180.0
  0
ARC
  5
662
100
AcDbEntity
  8
7_ALL_ROUNDS
100
AcDbCircle
 62
7
  6
CONTINUOUS
 10
58.5116402725
 20
29.6605734631
 40
0.125
100
AcDbArc
 50
180.0
 51
270.0
  0
ARC
  5
663
100
AcDbEntity
  8
3_ALL_AXES
100
AcDbCircle
 62
7
  6
CONTINUOUS
 10
58.0216402725
 20
30.8505734631
 40
0.1
100
AcDbArc
 50
90.0
 51
270.0
  0
ARC
  5
664
100
AcDbEntity
  8
3_ALL_AXES
100
AcDbCircle
 62
7
  6
CONTINUOUS
 10
58.1216402725
 20
30.8505734631
 40
0.1
100
AcDbArc
 50
270.0
 51
90.0
  0
ARC
  5
665
100
AcDbEntity
  8
3_ALL_AXES
100
AcDbCircle
 62
7
  6
CONTINUOUS
 10
58.1216402725
 20
28.6005734631
 40
0.1
100
AcDbArc
 50
270.0
 51
90.0
  0
ARC
  5
666
100
AcDbEntity
  8
3_ALL_AXES
100
AcDbCircle
 62
7
  6
CONTINUOUS
 10
58.0216402725
 20
28.6005734631
 40
0.1
100
AcDbArc
 50
90.0
 51
270.0
  0
ARC
  5
667
100
AcDbEntity
  8
3_AXES_OTHER
100
AcDbCircle
 62
7
  6
CONTINUOUS
 10
58.5116402725
 20
30.8505734631
 40
0.1
100
AcDbArc
 50
90.0
 51
270.0
  0
ARC
  5
668
100
AcDbEntity
  8
3_AXES_OTHER
100
AcDbCircle
 62
7
  6
CONTINUOUS
 10
58.5116402725
 20
28.6005734631
 40
0.1
100
AcDbArc
 50
90.0
 51
270.0
  0
CIRCLE
  5
669
100
AcDbEntity
  8
3_ALL_AXES
100
AcDbCircle
 62
7
  6
CONTINUOUS
 10
58.5116402725
 20
30.3255734631
 40
0.07
  0
CIRCLE
  5
66A
100
AcDbEntity
  8
3_ALL_AXES
100
AcDbCircle
 62
7
  6
CONTINUOUS
 10
58.5116402725
 20
29.1255734631
 40
0.07
  0
ARC
  5
66B
100
AcDbEntity
  8
3_ALL_AXES
100
AcDbCircle
 62
7
  6
CONTINUOUS
 10
76.2206619205
 20
28.2255734631
 40
0.127992126
100
AcDbArc
 50
270.0
 51
90.0
  0
ARC
  5
66C
100
AcDbEntity
  8
3_ALL_AXES
100
AcDbCircle
 62
7
  6
CONTINUOUS
 10
76.0906619205
 20
28.2255734631
 40
0.127992126
100
AcDbArc
 50
90.0
 51
270.0
  0
ARC
  5
66D
100
AcDbEntity
  8
3_ALL_AXES
100
AcDbCircle
 62
7
  6
CONTINUOUS
 10
76.8592249126
 20
28.6005734631
 40
0.1
100
AcDbArc
 50
270.0
 51
90.0
  0
ARC
  5
66E
100
AcDbEntity
  8
3_ALL_AXES
100
AcDbCircle
 62
7
  6
CONTINUOUS
 10
76.1671399467
 20
28.992522282
 40
1.0
100
AcDbArc
 50
313.5639453696
 51
0.1475689987
  0
CIRCLE
  5
66F
100
AcDbEntity
  8
3_ALL_AXES
100
AcDbCircle
 62
7
  6
CONTINUOUS
 10
79.5715674323
 20
29.0531718883
 40
0.4408070866
  0
CIRCLE
  5
670
100
AcDbEntity
  8
3_ALL_AXES
100
AcDbCircle
 62
7
  6
CONTINUOUS
 10
78.5085753063
 20
29.0531718883
 40
0.4408070866
  0
CIRCLE
  5
671
100
AcDbEntity
  8
3_ALL_AXES
100
AcDbCircle
 62
7
  6
CONTINUOUS
 10
79.5715674323
 20
29.0531718883
 40
0.428996063
  0
CIRCLE
  5
672
100
AcDbEntity
  8
3_ALL_AXES
100
AcDbCircle
 62
7
  6
CONTINUOUS
 10
78.5085753063
 20
29.0531718883
 40
0.428996063
  0
CIRCLE
  5
673
100
AcDbEntity
  8
3_ALL_AXES
100
AcDbCircle
 62
7
  6
CONTINUOUS
 10
79.5715674323
 20
29.0531718883
 40
0.32
  0
CIRCLE
  5
674
100
AcDbEntity
  8
3_ALL_AXES
100
AcDbCircle
 62
7
  6
CONTINUOUS
 10
78.5085753063
 20
29.0531718883
 40
0.32
  0
ARC
  5
675
100
AcDbEntity
  8
7_ALL_ROUNDS
100
AcDbCircle
 62
7
  6
CONTINUOUS
 10
76.8869808182
 20
29.6605734631
 40
0.125
100
AcDbArc
 50
270.0
 51
360.0
  0
CIRCLE
  5
676
100
AcDbEntity
  8
3_ALL_AXES
100
AcDbCircle
 62
7
  6
CONTINUOUS
 10
77.0082800308
 20
29.1255734631
 40
0.07
  0
CIRCLE
  5
677
100
AcDbEntity
  8
3_ALL_AXES
100
AcDbCircle
 62
7
  6
CONTINUOUS
 10
78.6660556213
 20
29.0531718883
 40
0.0465
  0
CIRCLE
  5
678
100
AcDbEntity
  8
3_ALL_AXES
100
AcDbCircle
 62
7
  6
CONTINUOUS
 10
78.3510949914
 20
29.0531718883
 40
0.0465
  0
CIRCLE
  5
679
100
AcDbEntity
  8
3_ALL_AXES
100
AcDbCircle
 62
7
  6
CONTINUOUS
 10
78.5085753063
 20
29.2106522032
 40
0.0465
  0
CIRCLE
  5
67A
100
AcDbEntity
  8
3_ALL_AXES
100
AcDbCircle
 62
7
  6
CONTINUOUS
 10
79.7290477473
 20
29.0531718883
 40
0.0465
  0
CIRCLE
  5
67B
100
AcDbEntity
  8
3_ALL_AXES
100
AcDbCircle
 62
7
  6
CONTINUOUS
 10
79.4140871174
 20
29.0531718883
 40
0.0465
  0
CIRCLE
  5
67C
100
AcDbEntity
  8
3_ALL_AXES
100
AcDbCircle
 62
7
  6
CONTINUOUS
 10
79.5715674323
 20
29.2106522032
 40
0.0465
  0
CIRCLE
  5
67D
100
AcDbEntity
  8
3_ALL_AXES
100
AcDbCircle
 62
7
  6
CONTINUOUS
 10
80.4770792434
 20
29.0531718883
 40
0.0465
  0
CIRCLE
  5
67E
100
AcDbEntity
  8
3_ALL_AXES
100
AcDbCircle
 62
7
  6
CONTINUOUS
 10
81.6975516843
 20
29.0531718883
 40
0.4408070866
  0
CIRCLE
  5
67F
100
AcDbEntity
  8
3_ALL_AXES
100
AcDbCircle
 62
7
  6
CONTINUOUS
 10
80.6345595583
 20
29.0531718883
 40
0.4408070866
  0
CIRCLE
  5
680
100
AcDbEntity
  8
3_ALL_AXES
100
AcDbCircle
 62
7
  6
CONTINUOUS
 10
81.6975516843
 20
29.0531718883
 40
0.428996063
  0
CIRCLE
  5
681
100
AcDbEntity
  8
3_ALL_AXES
100
AcDbCircle
 62
7
  6
CONTINUOUS
 10
80.6345595583
 20
29.0531718883
 40
0.428996063
  0
CIRCLE
  5
682
100
AcDbEntity
  8
3_ALL_AXES
100
AcDbCircle
 62
7
  6
CONTINUOUS
 10
81.6975516843
 20
29.0531718883
 40
0.32
  0
CIRCLE
  5
683
100
AcDbEntity
  8
3_ALL_AXES
100
AcDbCircle
 62
7
  6
CONTINUOUS
 10
80.6345595583
 20
29.0531718883
 40
0.32
  0
CIRCLE
  5
684
100
AcDbEntity
  8
3_ALL_AXES
100
AcDbCircle
 62
7
  6
CONTINUOUS
 10
80.7920398733
 20
29.0531718883
 40
0.0465
  0
CIRCLE
  5
685
100
AcDbEntity
  8
3_ALL_AXES
100
AcDbCircle
 62
7
  6
CONTINUOUS
 10
81.8550319993
 20
29.0531718883
 40
0.0465
  0
CIRCLE
  5
686
100
AcDbEntity
  8
3_ALL_AXES
100
AcDbCircle
 62
7
  6
CONTINUOUS
 10
81.5400713693
 20
29.0531718883
 40
0.0465
  0
CIRCLE
  5
687
100
AcDbEntity
  8
3_ALL_AXES
100
AcDbCircle
 62
7
  6
CONTINUOUS
 10
80.6345595583
 20
29.2106522032
 40
0.0465
  0
CIRCLE
  5
688
100
AcDbEntity
  8
3_ALL_AXES
100
AcDbCircle
 62
7
  6
CONTINUOUS
 10
81.6975516843
 20
29.2106522032
 40
0.0465
  0
CIRCLE
  5
689
100
AcDbEntity
  8
3_ALL_AXES
100
AcDbCircle
 62
7
  6
CONTINUOUS
 10
85.1286540465
 20
28.9842742505
 40
0.4724409449
  0
CIRCLE
  5
68A
100
AcDbEntity
  8
3_ALL_AXES
100
AcDbCircle
 62
7
  6
CONTINUOUS
 10
83.7507012906
 20
28.9842742505
 40
0.4724409449
  0
CIRCLE
  5
68B
100
AcDbEntity
  8
3_ALL_AXES
100
AcDbCircle
 62
7
  6
CONTINUOUS
 10
85.1286540465
 20
28.9842742505
 40
0.4625984252
  0
CIRCLE
  5
68C
100
AcDbEntity
  8
3_ALL_AXES
100
AcDbCircle
 62
7
  6
CONTINUOUS
 10
83.7507012906
 20
28.9842742505
 40
0.4625984252
  0
ARC
  5
68D
100
AcDbEntity
  8
3_AXES_OTHER
100
AcDbCircle
 62
7
  6
CONTINUOUS
 10
83.7507012906
 20
28.9842742505
 40
0.3513779528
100
AcDbArc
 50
100.9805754276
 51
252.6130447223
  0
ARC
  5
68E
100
AcDbEntity
  8
3_AXES_OTHER
100
AcDbCircle
 62
7
  6
CONTINUOUS
 10
83.7507012906
 20
28.9842742505
 40
0.3513779528
100
AcDbArc
 50
287.3869552777
 51
79.0194245724
  0
ARC
  5
68F
100
AcDbEntity
  8
3_AXES_OTHER
100
AcDbCircle
 62
7
  6
CONTINUOUS
 10
85.1286540465
 20
28.9842742505
 40
0.3513779528
100
AcDbArc
 50
100.9805754276
 51
252.6130447223
  0
ARC
  5
690
100
AcDbEntity
  8
3_AXES_OTHER
100
AcDbCircle
 62
7
  6
CONTINUOUS
 10
85.1286540465
 20
28.9842742505
 40
0.3513779528
100
AcDbArc
 50
287.3869552777
 51
79.0194245724
  0
CIRCLE
  5
691
100
AcDbEntity
  8
3_ALL_AXES
100
AcDbCircle
 62
7
  6
CONTINUOUS
 10
85.1286540465
 20
28.9842742505
 40
0.24
  0
CIRCLE
  5
692
100
AcDbEntity
  8
3_ALL_AXES
100
AcDbCircle
 62
7
  6
CONTINUOUS
 10
83.7507012906
 20
28.9842742505
 40
0.24
  0
CIRCLE
  5
693
100
AcDbEntity
  8
3_ALL_AXES
100
AcDbCircle
 62
7
  6
CONTINUOUS
 10
85.1286540465
 20
28.9842742505
 40
0.1377952756
  0
CIRCLE
  5
694
100
AcDbEntity
  8
3_ALL_AXES
100
AcDbCircle
 62
7
  6
CONTINUOUS
 10
83.7507012906
 20
28.9842742505
 40
0.1377952756
  0
ARC
  5
695
100
AcDbEntity
  8
3_ALL_AXES
100
AcDbCircle
 62
7
  6
CONTINUOUS
 10
76.1671399467
 20
30.4586246442
 40
1.0
100
AcDbArc
 50
359.8524310245
 51
46.4360546304
  0
CIRCLE
  5
696
100
AcDbEntity
  8
3_ALL_AXES
100
AcDbCircle
 62
7
  6
CONTINUOUS
 10
79.5715674323
 20
30.3917151954
 40
0.4393700787
  0
CIRCLE
  5
697
100
AcDbEntity
  8
3_ALL_AXES
100
AcDbCircle
 62
7
  6
CONTINUOUS
 10
78.5085753063
 20
30.3917151954
 40
0.4393700787
  0
CIRCLE
  5
698
100
AcDbEntity
  8
3_ALL_AXES
100
AcDbCircle
 62
7
  6
CONTINUOUS
 10
79.5715674323
 20
30.3917151954
 40
0.4275590551
  0
CIRCLE
  5
699
100
AcDbEntity
  8
3_ALL_AXES
100
AcDbCircle
 62
7
  6
CONTINUOUS
 10
78.5085753063
 20
30.3917151954
 40
0.4275590551
  0
CIRCLE
  5
69A
100
AcDbEntity
  8
3_ALL_AXES
100
AcDbCircle
 62
7
  6
CONTINUOUS
 10
79.5715674323
 20
30.3917151954
 40
0.3838582677
  0
CIRCLE
  5
69B
100
AcDbEntity
  8
3_ALL_AXES
100
AcDbCircle
 62
7
  6
CONTINUOUS
 10
78.5085753063
 20
30.3917151954
 40
0.3838582677
  0
ARC
  5
69C
100
AcDbEntity
  8
3_ALL_AXES
100
AcDbCircle
 62
7
  6
CONTINUOUS
 10
78.5085753063
 20
30.3917151954
 40
0.3100393701
100
AcDbArc
 50
102.0944477342
 51
77.9055522658
  0
ARC
  5
69D
100
AcDbEntity
  8
3_ALL_AXES
100
AcDbCircle
 62
7
  6
CONTINUOUS
 10
79.5715674323
 20
30.3917151954
 40
0.3100393701
100
AcDbArc
 50
102.0944477342
 51
77.9055522658
  0
ARC
  5
69E
100
AcDbEntity
  8
7_ALL_ROUNDS
100
AcDbCircle
 62
7
  6
CONTINUOUS
 10
76.8869808182
 20
29.7905734631
 40
0.125
100
AcDbArc
 50
0.0
 51
90.0
  0
CIRCLE
  5
69F
100
AcDbEntity
  8
3_ALL_AXES
100
AcDbCircle
 62
7
  6
CONTINUOUS
 10
77.0082800308
 20
30.3255734631
 40
0.07
  0
CIRCLE
  5
6A0
100
AcDbEntity
  8
3_ALL_AXES
100
AcDbCircle
 62
7
  6
CONTINUOUS
 10
80.4724335741
 20
30.3917151954
 40
0.05
  0
CIRCLE
  5
6A1
100
AcDbEntity
  8
3_ALL_AXES
100
AcDbCircle
 62
7
  6
CONTINUOUS
 10
79.4094414481
 20
30.3917151954
 40
0.05
  0
CIRCLE
  5
6A2
100
AcDbEntity
  8
3_ALL_AXES
100
AcDbCircle
 62
7
  6
CONTINUOUS
 10
79.7336934166
 20
30.3917151954
 40
0.05
  0
CIRCLE
  5
6A3
100
AcDbEntity
  8
3_ALL_AXES
100
AcDbCircle
 62
7
  6
CONTINUOUS
 10
79.5715674323
 20
30.2295892111
 40
0.05
  0
CIRCLE
  5
6A4
100
AcDbEntity
  8
3_ALL_AXES
100
AcDbCircle
 62
7
  6
CONTINUOUS
 10
78.3464493221
 20
30.3917151954
 40
0.05
  0
CIRCLE
  5
6A5
100
AcDbEntity
  8
3_ALL_AXES
100
AcDbCircle
 62
7
  6
CONTINUOUS
 10
78.6707012906
 20
30.3917151954
 40
0.05
  0
CIRCLE
  5
6A6
100
AcDbEntity
  8
3_ALL_AXES
100
AcDbCircle
 62
7
  6
CONTINUOUS
 10
78.5085753063
 20
30.2295892111
 40
0.05
  0
ARC
  5
6A7
100
AcDbEntity
  8
3_ALL_AXES
100
AcDbCircle
 62
7
  6
CONTINUOUS
 10
76.0906619205
 20
31.2255734631
 40
0.127992126
100
AcDbArc
 50
90.0
 51
270.0
  0
ARC
  5
6A8
100
AcDbEntity
  8
3_ALL_AXES
100
AcDbCircle
 62
7
  6
CONTINUOUS
 10
76.2206619205
 20
31.2255734631
 40
0.127992126
100
AcDbArc
 50
270.0
 51
90.0
  0
ARC
  5
6A9
100
AcDbEntity
  8
3_ALL_AXES
100
AcDbCircle
 62
7
  6
CONTINUOUS
 10
76.8592249126
 20
30.8505734631
 40
0.1
100
AcDbArc
 50
270.0
 51
90.0
  0
CIRCLE
  5
6AA
100
AcDbEntity
  8
3_ALL_AXES
100
AcDbCircle
 62
7
  6
CONTINUOUS
 10
85.1286540465
 20
30.3622270064
 40
0.4724409449
  0
CIRCLE
  5
6AB
100
AcDbEntity
  8
3_ALL_AXES
100
AcDbCircle
 62
7
  6
CONTINUOUS
 10
83.7507012906
 20
30.3622270064
 40
0.4724409449
  0
CIRCLE
  5
6AC
100
AcDbEntity
  8
3_ALL_AXES
100
AcDbCircle
 62
7
  6
CONTINUOUS
 10
85.1286540465
 20
30.3622270064
 40
0.4625984252
  0
CIRCLE
  5
6AD
100
AcDbEntity
  8
3_ALL_AXES
100
AcDbCircle
 62
7
  6
CONTINUOUS
 10
83.7507012906
 20
30.3622270064
 40
0.4625984252
  0
CIRCLE
  5
6AE
100
AcDbEntity
  8
3_ALL_AXES
100
AcDbCircle
 62
7
  6
CONTINUOUS
 10
81.6975516843
 20
30.3917151954
 40
0.4393700787
  0
CIRCLE
  5
6AF
100
AcDbEntity
  8
3_ALL_AXES
100
AcDbCircle
 62
7
  6
CONTINUOUS
 10
80.6345595583
 20
30.3917151954
 40
0.4393700787
  0
CIRCLE
  5
6B0
100
AcDbEntity
  8
3_ALL_AXES
100
AcDbCircle
 62
7
  6
CONTINUOUS
 10
81.6975516843
 20
30.3917151954
 40
0.4275590551
  0
CIRCLE
  5
6B1
100
AcDbEntity
  8
3_ALL_AXES
100
AcDbCircle
 62
7
  6
CONTINUOUS
 10
80.6345595583
 20
30.3917151954
 40
0.4275590551
  0
CIRCLE
  5
6B2
100
AcDbEntity
  8
3_ALL_AXES
100
AcDbCircle
 62
7
  6
CONTINUOUS
 10
81.6975516843
 20
30.3917151954
 40
0.3838582677
  0
CIRCLE
  5
6B3
100
AcDbEntity
  8
3_ALL_AXES
100
AcDbCircle
 62
7
  6
CONTINUOUS
 10
80.6345595583
 20
30.3917151954
 40
0.3838582677
  0
ARC
  5
6B4
100
AcDbEntity
  8
3_AXES_OTHER
100
AcDbCircle
 62
7
  6
CONTINUOUS
 10
83.7507012906
 20
30.3622270064
 40
0.3513779528
100
AcDbArc
 50
107.3869552777
 51
259.0194245724
  0
ARC
  5
6B5
100
AcDbEntity
  8
3_AXES_OTHER
100
AcDbCircle
 62
7
  6
CONTINUOUS
 10
83.7507012906
 20
30.3622270064
 40
0.3513779528
100
AcDbArc
 50
280.9805754276
 51
72.6130447223
  0
ARC
  5
6B6
100
AcDbEntity
  8
3_AXES_OTHER
100
AcDbCircle
 62
7
  6
CONTINUOUS
 10
85.1286540465
 20
30.3622270064
 40
0.3513779528
100
AcDbArc
 50
107.3869552777
 51
259.0194245724
  0
ARC
  5
6B7
100
AcDbEntity
  8
3_AXES_OTHER
100
AcDbCircle
 62
7
  6
CONTINUOUS
 10
85.1286540465
 20
30.3622270064
 40
0.3513779528
100
AcDbArc
 50
280.9805754276
 51
72.6130447223
  0
ARC
  5
6B8
100
AcDbEntity
  8
3_ALL_AXES
100
AcDbCircle
 62
7
  6
CONTINUOUS
 10
80.6345595583
 20
30.3917151954
 40
0.3100393701
100
AcDbArc
 50
102.0944477342
 51
77.9055522658
  0
ARC
  5
6B9
100
AcDbEntity
  8
3_ALL_AXES
100
AcDbCircle
 62
7
  6
CONTINUOUS
 10
81.6975516843
 20
30.3917151954
 40
0.3100393701
100
AcDbArc
 50
102.0944477342
 51
77.9055522658
  0
CIRCLE
  5
6BA
100
AcDbEntity
  8
3_ALL_AXES
100
AcDbCircle
 62
7
  6
CONTINUOUS
 10
85.1286540465
 20
30.3622270064
 40
0.24
  0
CIRCLE
  5
6BB
100
AcDbEntity
  8
3_ALL_AXES
100
AcDbCircle
 62
7
  6
CONTINUOUS
 10
83.7507012906
 20
30.3622270064
 40
0.24
  0
CIRCLE
  5
6BC
100
AcDbEntity
  8
3_ALL_AXES
100
AcDbCircle
 62
7
  6
CONTINUOUS
 10
85.1286540465
 20
30.3622270064
 40
0.1377952756
  0
CIRCLE
  5
6BD
100
AcDbEntity
  8
3_ALL_AXES
100
AcDbCircle
 62
7
  6
CONTINUOUS
 10
83.7507012906
 20
30.3622270064
 40
0.1377952756
  0
CIRCLE
  5
6BE
100
AcDbEntity
  8
3_ALL_AXES
100
AcDbCircle
 62
7
  6
CONTINUOUS
 10
81.5354257
 20
30.3917151954
 40
0.05
  0
CIRCLE
  5
6BF
100
AcDbEntity
  8
3_ALL_AXES
100
AcDbCircle
 62
7
  6
CONTINUOUS
 10
81.8596776686
 20
30.3917151954
 40
0.05
  0
CIRCLE
  5
6C0
100
AcDbEntity
  8
3_ALL_AXES
100
AcDbCircle
 62
7
  6
CONTINUOUS
 10
81.6975516843
 20
30.2295892111
 40
0.05
  0
CIRCLE
  5
6C1
100
AcDbEntity
  8
3_ALL_AXES
100
AcDbCircle
 62
7
  6
CONTINUOUS
 10
80.7966855426
 20
30.3917151954
 40
0.05
  0
CIRCLE
  5
6C2
100
AcDbEntity
  8
3_ALL_AXES
100
AcDbCircle
 62
7
  6
CONTINUOUS
 10
80.6345595583
 20
30.2295892111
 40
0.05
  0
ARC
  5
6C3
100
AcDbEntity
  8
3_ALL_AXES
100
AcDbCircle
 62
7
  6
CONTINUOUS
 10
94.4819004298
 20
28.992522282
 40
1.0
100
AcDbArc
 50
179.8524310245
 51
226.4360546304
  0
CIRCLE
  5
6C4
100
AcDbEntity
  8
3_ALL_AXES
100
AcDbCircle
 62
7
  6
CONTINUOUS
 10
86.5066068024
 20
28.9842742505
 40
0.4724409449
  0
CIRCLE
  5
6C5
100
AcDbEntity
  8
3_ALL_AXES
100
AcDbCircle
 62
7
  6
CONTINUOUS
 10
86.5066068024
 20
28.9842742505
 40
0.4625984252
  0
ARC
  5
6C6
100
AcDbEntity
  8
3_AXES_OTHER
100
AcDbCircle
 62
7
  6
CONTINUOUS
 10
86.5066068024
 20
28.9842742505
 40
0.3513779528
100
AcDbArc
 50
100.9805754276
 51
252.6130447223
  0
ARC
  5
6C7
100
AcDbEntity
  8
3_AXES_OTHER
100
AcDbCircle
 62
7
  6
CONTINUOUS
 10
86.5066068024
 20
28.9842742505
 40
0.3513779528
100
AcDbArc
 50
287.3869552777
 51
79.0194245724
  0
CIRCLE
  5
6C8
100
AcDbEntity
  8
3_ALL_AXES
100
AcDbCircle
 62
7
  6
CONTINUOUS
 10
86.5066068024
 20
28.9842742505
 40
0.24
  0
ARC
  5
6C9
100
AcDbEntity
  8
7_ALL_ROUNDS
100
AcDbCircle
 62
7
  6
CONTINUOUS
 10
92.9170398733
 20
28.2822863744
 40
0.1692913386
100
AcDbArc
 50
215.0
 51
325.0
  0
CIRCLE
  5
6CA
100
AcDbEntity
  8
3_ALL_AXES
100
AcDbCircle
 62
7
  6
CONTINUOUS
 10
86.5066068024
 20
28.9842742505
 40
0.1377952756
  0
ARC
  5
6CB
100
AcDbEntity
  8
3_ALL_AXES
100
AcDbCircle
 62
7
  6
CONTINUOUS
 10
94.558378456
 20
28.2255734631
 40
0.127992126
100
AcDbArc
 50
270.0
 51
90.0
  0
ARC
  5
6CC
100
AcDbEntity
  8
3_ALL_AXES
100
AcDbCircle
 62
7
  6
CONTINUOUS
 10
94.428378456
 20
28.2255734631
 40
0.127992126
100
AcDbArc
 50
90.0
 51
270.0
  0
ARC
  5
6CD
100
AcDbEntity
  8
7_ALL_ROUNDS
100
AcDbCircle
 62
7
  6
CONTINUOUS
 10
93.7620595583
 20
29.6605734631
 40
0.125
100
AcDbArc
 50
180.0
 51
270.0
  0
ARC
  5
6CE
100
AcDbEntity
  8
3_ALL_AXES
100
AcDbCircle
 62
7
  6
CONTINUOUS
 10
93.7898154638
 20
28.6005734631
 40
0.1
100
AcDbArc
 50
90.0
 51
270.0
  0
CIRCLE
  5
6CF
100
AcDbEntity
  8
3_ALL_AXES
100
AcDbCircle
 62
7
  6
CONTINUOUS
 10
93.6407603457
 20
29.1255734631
 40
0.07
  0
CIRCLE
  5
6D0
100
AcDbEntity
  8
3_ALL_AXES
100
AcDbCircle
 62
7
  6
CONTINUOUS
 10
89.0794414481
 20
29.7255734631
 40
1.5196850394
  0
ARC
  5
6D1
100
AcDbEntity
  8
3_ALL_AXES
100
AcDbCircle
 62
7
  6
CONTINUOUS
 10
94.4819004298
 20
30.4586246442
 40
1.0
100
AcDbArc
 50
133.5639453696
 51
180.1475689987
  0
CIRCLE
  5
6D2
100
AcDbEntity
  8
3_ALL_AXES
100
AcDbCircle
 62
7
  6
CONTINUOUS
 10
86.5066068024
 20
30.3622270064
 40
0.4724409449
  0
CIRCLE
  5
6D3
100
AcDbEntity
  8
3_ALL_AXES
100
AcDbCircle
 62
7
  6
CONTINUOUS
 10
86.5066068024
 20
30.3622270064
 40
0.4625984252
  0
ARC
  5
6D4
100
AcDbEntity
  8
3_AXES_OTHER
100
AcDbCircle
 62
7
  6
CONTINUOUS
 10
86.5066068024
 20
30.3622270064
 40
0.3513779528
100
AcDbArc
 50
107.3869552777
 51
259.0194245724
  0
ARC
  5
6D5
100
AcDbEntity
  8
3_AXES_OTHER
100
AcDbCircle
 62
7
  6
CONTINUOUS
 10
86.5066068024
 20
30.3622270064
 40
0.3513779528
100
AcDbArc
 50
280.9805754276
 51
72.6130447223
  0
CIRCLE
  5
6D6
100
AcDbEntity
  8
3_ALL_AXES
100
AcDbCircle
 62
7
  6
CONTINUOUS
 10
86.5066068024
 20
30.3622270064
 40
0.24
  0
ARC
  5
6D7
100
AcDbEntity
  8
7_ALL_ROUNDS
100
AcDbCircle
 62
7
  6
CONTINUOUS
 10
92.9170398733
 20
29.8724432289
 40
0.1692913386
100
AcDbArc
 50
35.0
 51
145.0
  0
CIRCLE
  5
6D8
100
AcDbEntity
  8
3_ALL_AXES
100
AcDbCircle
 62
7
  6
CONTINUOUS
 10
86.5066068024
 20
30.3622270064
 40
0.1377952756
  0
ARC
  5
6D9
100
AcDbEntity
  8
3_ALL_AXES
100
AcDbCircle
 62
7
  6
CONTINUOUS
 10
94.428378456
 20
31.2255734631
 40
0.127992126
100
AcDbArc
 50
90.0
 51
270.0
  0
ARC
  5
6DA
100
AcDbEntity
  8
3_ALL_AXES
100
AcDbCircle
 62
7
  6
CONTINUOUS
 10
94.558378456
 20
31.2255734631
 40
0.127992126
100
AcDbArc
 50
270.0
 51
90.0
  0
ARC
  5
6DB
100
AcDbEntity
  8
7_ALL_ROUNDS
100
AcDbCircle
 62
7
  6
CONTINUOUS
 10
93.7620595583
 20
29.7905734631
 40
0.125
100
AcDbArc
 50
90.0
 51
180.0
  0
ARC
  5
6DC
100
AcDbEntity
  8
3_ALL_AXES
100
AcDbCircle
 62
7
  6
CONTINUOUS
 10
93.7898154638
 20
30.8505734631
 40
0.1
100
AcDbArc
 50
90.0
 51
270.0
  0
CIRCLE
  5
6DD
100
AcDbEntity
  8
3_ALL_AXES
100
AcDbCircle
 62
7
  6
CONTINUOUS
 10
93.6407603457
 20
30.3255734631
 40
0.07
  0
ARC
  5
6DE
100
AcDbEntity
  8
3_ALL_AXES
100
AcDbCircle
 62
7
  6
CONTINUOUS
 10
25.2273812005
 20
144.8160502721
 40
101.968503937
100
AcDbArc
 50
269.7194265344
 51
274.4335998872
  0
ARC
  5
6DF
100
AcDbEntity
  8
3_ALL_AXES
100
AcDbCircle
 62
7
  6
CONTINUOUS
 10
24.2287197831
 20
144.8160502721
 40
101.968503937
100
AcDbArc
 50
265.5664001128
 51
270.2805734656
  0
ARC
  5
6E0
100
AcDbEntity
  8
3_ALL_AXES
100
AcDbCircle
 62
7
  6
CONTINUOUS
 10
33.1933457674
 20
59.4018397976
 40
0.1299212598
100
AcDbArc
 50
0.0
 51
90.0
  0
ARC
  5
6E1
100
AcDbEntity
  8
3_ALL_AXES
100
AcDbCircle
 62
7
  6
CONTINUOUS
 10
16.2627552162
 20
59.4018397976
 40
0.1299212598
100
AcDbArc
 50
90.0
 51
180.0
  0
ARC
  5
6E2
100
AcDbEntity
  8
3_ALL_AXES
100
AcDbCircle
 62
7
  6
CONTINUOUS
 10
33.1933457674
 20
59.4018397976
 40
0.0826771654
100
AcDbArc
 50
0.0
 51
90.0
  0
ARC
  5
6E3
100
AcDbEntity
  8
3_ALL_AXES
100
AcDbCircle
 62
7
  6
CONTINUOUS
 10
16.2627552162
 20
59.4018397976
 40
0.0826771654
100
AcDbArc
 50
90.0
 51
180.0
  0
SPLINE
  5
6E4
100
AcDbEntity
  8
3_ALL_AXES
100
AcDbSpline
 62
7
  6
CONTINUOUS
 70
0
 71
3
 72
9
 73
5
 74
0
 42
0.0000001
 43
0.0000001
 44
0.0000000001
 40
0.0
 40
0.0
 40
0.0
 40
0.0
 40
0.4328897066
 40
1.0
 40
1.0
 40
1.0
 40
1.0
 10
96.8724320896
 20
52.1065782028
 30
0.0
 10
96.8716108187
 20
52.1061047314
 30
0.0
 10
96.8695951161
 20
52.1052208208
 30
0.0
 10
96.8674969062
 20
52.1045842201
 30
0.0
 10
96.8662949725
 20
52.104271678
 30
0.0
  0
SPLINE
  5
6E5
100
AcDbEntity
  8
3_ALL_AXES
100
AcDbSpline
 62
7
  6
CONTINUOUS
 70
0
 71
3
 72
9
 73
5
 74
0
 42
0.0000001
 43
0.0000001
 44
0.0000000001
 40
0.0
 40
0.0
 40
0.0
 40
0.0
 40
0.2014013721
 40
1.0
 40
1.0
 40
1.0
 40
1.0
 10
96.8662949725
 20
52.104271678
 30
0.0
 10
96.8650488234
 20
52.1039476384
 30
0.0
 10
96.858793146
 20
52.1026038248
 30
0.0
 10
96.8524011861
 20
52.1020120955
 30
0.0
 10
96.847304692
 20
52.101707877
 30
0.0
  0
SPLINE
  5
6E6
100
AcDbEntity
  8
7_ALL_ROUNDS
100
AcDbSpline
 62
7
  6
CONTINUOUS
 70
0
 71
3
 72
9
 73
5
 74
0
 42
0.0000001
 43
0.0000001
 44
0.0000000001
 40
0.0
 40
0.0
 40
0.0
 40
0.0
 40
0.4491830432
 40
1.0
 40
1.0
 40
1.0
 40
1.0
 10
87.3924451295
 20
44.6528048813
 30
0.0
 10
87.4113854601
 20
44.6637429086
 30
0.0
 10
87.4632200832
 20
44.6715849515
 30
0.0
 10
87.5096286552
 20
44.652297624
 30
0.0
 10
87.5328544771
 20
44.6388846778
 30
0.0
  0
SPLINE
  5
6E7
100
AcDbEntity
  8
3_AXES_OTHER
100
AcDbSpline
 62
7
  6
CONTINUOUS
 70
0
 71
3
 72
9
 73
5
 74
0
 42
0.0000001
 43
0.0000001
 44
0.0000000001
 40
0.0
 40
0.0
 40
0.0
 40
0.0
 40
0.23111485
 40
1.0
 40
1.0
 40
1.0
 40
1.0
 10
87.1042187275
 20
57.7292012694
 30
0.0
 10
87.0877426725
 20
57.731759569
 30
0.0
 10
87.0155195767
 20
57.7370015248
 30
0.0
 10
86.9429741111
 20
57.719878637
 30
0.0
 10
86.8912835622
 20
57.6997531273
 30
0.0
  0
SPLINE
  5
6E8
100
AcDbEntity
  8
3_ALL_AXES
100
AcDbSpline
 62
7
  6
CONTINUOUS
 70
0
 71
3
 72
9
 73
5
 74
0
 42
0.0000001
 43
0.0000001
 44
0.0000000001
 40
0.0
 40
0.0
 40
0.0
 40
0.0
 40
0.5318017053
 40
1.0
 40
1.0
 40
1.0
 40
1.0
 10
96.4549269563
 20
51.6479825539
 30
0.0
 10
96.433742153
 20
51.635748299
 30
0.0
 10
96.4044313472
 20
51.5977468315
 30
0.0
 10
96.3936984188
 20
51.5469241282
 30
0.0
 10
96.4025806837
 20
51.5273031104
 30
0.0
  0
SPLINE
  5
6E9
100
AcDbEntity
  8
3_ALL_AXES
100
AcDbSpline
 62
7
  6
CONTINUOUS
 70
0
 71
3
 72
8
 73
4
 74
0
 42
0.0000001
 43
0.0000001
 44
0.0000000001
 40
0.0
 40
0.0
 40
0.0
 40
0.0
 40
1.0
 40
1.0
 40
1.0
 40
1.0
 10
96.4025806837
 20
51.5273031104
 30
0.0
 10
96.4043914899
 20
51.52330302
 30
0.0
 10
96.4069664088
 20
51.5195211333
 30
0.0
 10
96.4102182682
 20
51.5165706837
 30
0.0
  0
SPLINE
  5
6EA
100
AcDbEntity
  8
3_ALL_AXES
100
AcDbSpline
 62
7
  6
CONTINUOUS
 70
0
 71
3
 72
9
 73
5
 74
0
 42
0.0000001
 43
0.0000001
 44
0.0000000001
 40
0.0
 40
0.0
 40
0.0
 40
0.0
 40
0.5318017053
 40
1.0
 40
1.0
 40
1.0
 40
1.0
 10
96.4549269563
 20
50.1761262132
 30
0.0
 10
96.433742153
 20
50.1638919583
 30
0.0
 10
96.4044313472
 20
50.1258904907
 30
0.0
 10
96.3936984188
 20
50.0750677874
 30
0.0
 10
96.4025806837
 20
50.0554467696
 30
0.0
  0
SPLINE
  5
6EB
100
AcDbEntity
  8
3_ALL_AXES
100
AcDbSpline
 62
7
  6
CONTINUOUS
 70
0
 71
3
 72
8
 73
4
 74
0
 42
0.0000001
 43
0.0000001
 44
0.0000000001
 40
0.0
 40
0.0
 40
0.0
 40
0.0
 40
1.0
 40
1.0
 40
1.0
 40
1.0
 10
96.4025806837
 20
50.0554467696
 30
0.0
 10
96.4043914899
 20
50.0514466793
 30
0.0
 10
96.4069664088
 20
50.0476647925
 30
0.0
 10
96.4102182682
 20
50.044714343
 30
0.0
  0
SPLINE
  5
6EC
100
AcDbEntity
  8
3_ALL_AXES
100
AcDbSpline
 62
7
  6
CONTINUOUS
 70
0
 71
3
 72
8
 73
4
 74
0
 42
0.0000001
 43
0.0000001
 44
0.0000000001
 40
0.0
 40
0.0
 40
0.0
 40
0.0
 40
1.0
 40
1.0
 40
1.0
 40
1.0
 10
96.6928955846
 20
51.3765608012
 30
0.0
 10
96.6928955846
 20
51.3705499037
 30
0.0
 10
96.6939357795
 20
51.3642329724
 30
0.0
 10
96.6968233017
 20
51.3589610559
 30
0.0
  0
SPLINE
  5
6ED
100
AcDbEntity
  8
3_ALL_AXES
100
AcDbSpline
 62
7
  6
CONTINUOUS
 70
0
 71
3
 72
8
 73
4
 74
0
 42
0.0000001
 43
0.0000001
 44
0.0000000001
 40
0.0
 40
0.0
 40
0.0
 40
0.0
 40
1.0
 40
1.0
 40
1.0
 40
1.0
 10
96.6968233017
 20
51.3589610559
 30
0.0
 10
96.698614374
 20
51.3556909914
 30
0.0
 10
96.7013142923
 20
51.3527283579
 30
0.0
 10
96.7045468337
 20
51.3508704186
 30
0.0
  0
SPLINE
  5
6EE
100
AcDbEntity
  8
3_ALL_AXES
100
AcDbSpline
 62
7
  6
CONTINUOUS
 70
0
 71
3
 72
8
 73
4
 74
0
 42
0.0000001
 43
0.0000001
 44
0.0000000001
 40
0.0
 40
0.0
 40
0.0
 40
0.0
 40
1.0
 40
1.0
 40
1.0
 40
1.0
 10
96.6928955846
 20
50.5915707528
 30
0.0
 10
96.6928955846
 20
50.5855598553
 30
0.0
 10
96.6939357795
 20
50.579242924
 30
0.0
 10
96.6968233017
 20
50.5739710075
 30
0.0
  0
SPLINE
  5
6EF
100
AcDbEntity
  8
3_ALL_AXES
100
AcDbSpline
 62
7
  6
CONTINUOUS
 70
0
 71
3
 72
8
 73
4
 74
0
 42
0.0000001
 43
0.0000001
 44
0.0000000001
 40
0.0
 40
0.0
 40
0.0
 40
0.0
 40
1.0
 40
1.0
 40
1.0
 40
1.0
 10
96.6968233017
 20
50.5739710075
 30
0.0
 10
96.698614374
 20
50.570700943
 30
0.0
 10
96.7013142923
 20
50.5677383095
 30
0.0
 10
96.7045468337
 20
50.5658803702
 30
0.0
  0
SPLINE
  5
6F0
100
AcDbEntity
  8
3_AXES_OTHER
100
AcDbSpline
 62
7
  6
CONTINUOUS
 70
0
 71
3
 72
9
 73
5
 74
0
 42
0.0000001
 43
0.0000001
 44
0.0000000001
 40
0.0
 40
0.0
 40
0.0
 40
0.0
 40
0.2613973746
 40
1.0
 40
1.0
 40
1.0
 40
1.0
 10
96.8441801025
 20
50.0385062808
 30
0.0
 10
96.8268317975
 20
50.0157752006
 30
0.0
 10
96.757688867
 20
49.9310286009
 30
0.0
 10
96.6772924257
 20
49.8550014857
 30
0.0
 10
96.6118759705
 20
49.8075788006
 30
0.0
  0
SPLINE
  5
6F1
100
AcDbEntity
  8
3_AXES_OTHER
100
AcDbSpline
 62
7
  6
CONTINUOUS
 70
0
 71
3
 72
9
 73
5
 74
0
 42
0.0000001
 43
0.0000001
 44
0.0000000001
 40
0.0
 40
0.0
 40
0.0
 40
0.0
 40
0.5318017053
 40
1.0
 40
1.0
 40
1.0
 40
1.0
 10
96.7325570226
 20
51.8083143232
 30
0.0
 10
96.7113722193
 20
51.7960800683
 30
0.0
 10
96.6820614136
 20
51.7580786008
 30
0.0
 10
96.6713284851
 20
51.7072558974
 30
0.0
 10
96.68021075
 20
51.6876348796
 30
0.0
  0
SPLINE
  5
6F2
100
AcDbEntity
  8
3_AXES_OTHER
100
AcDbSpline
 62
7
  6
CONTINUOUS
 70
0
 71
3
 72
8
 73
4
 74
0
 42
0.0000001
 43
0.0000001
 44
0.0000000001
 40
0.0
 40
0.0
 40
0.0
 40
0.0
 40
1.0
 40
1.0
 40
1.0
 40
1.0
 10
96.68021075
 20
51.6876348796
 30
0.0
 10
96.6820215563
 20
51.6836347893
 30
0.0
 10
96.6845964751
 20
51.6798529025
 30
0.0
 10
96.6878483345
 20
51.676902453
 30
0.0
  0
SPLINE
  5
6F3
100
AcDbEntity
  8
3_AXES_OTHER
100
AcDbSpline
 62
7
  6
CONTINUOUS
 70
0
 71
3
 72
9
 73
5
 74
0
 42
0.0000001
 43
0.0000001
 44
0.0000000001
 40
0.0
 40
0.0
 40
0.0
 40
0.0
 40
0.5318017053
 40
1.0
 40
1.0
 40
1.0
 40
1.0
 10
96.7325570226
 20
50.3364579824
 30
0.0
 10
96.7113722193
 20
50.3242237275
 30
0.0
 10
96.6820614136
 20
50.28622226
 30
0.0
 10
96.6713284851
 20
50.2353995567
 30
0.0
 10
96.68021075
 20
50.2157785389
 30
0.0
  0
SPLINE
  5
6F4
100
AcDbEntity
  8
3_AXES_OTHER
100
AcDbSpline
 62
7
  6
CONTINUOUS
 70
0
 71
3
 72
8
 73
4
 74
0
 42
0.0000001
 43
0.0000001
 44
0.0000000001
 40
0.0
 40
0.0
 40
0.0
 40
0.0
 40
1.0
 40
1.0
 40
1.0
 40
1.0
 10
96.68021075
 20
50.2157785389
 30
0.0
 10
96.6820215563
 20
50.2117784485
 30
0.0
 10
96.6845964751
 20
50.2079965618
 30
0.0
 10
96.6878483345
 20
50.2050461122
 30
0.0
  0
SPLINE
  5
6F5
100
AcDbEntity
  8
3_ALL_AXES
100
AcDbSpline
 62
7
  6
CONTINUOUS
 70
0
 71
3
 72
9
 73
5
 74
0
 42
0.0000001
 43
0.0000001
 44
0.0000000001
 40
0.0
 40
0.0
 40
0.0
 40
0.0
 40
0.5458980768
 40
1.0
 40
1.0
 40
1.0
 40
1.0
 10
85.0114920582
 20
47.1968654323
 30
0.0
 10
85.0114920582
 20
47.1499588476
 30
0.0
 10
84.9991918391
 20
47.0618947593
 30
0.0
 10
84.9405372419
 20
46.9905994225
 30
0.0
 10
84.9067534241
 20
46.9710768153
 30
0.0
  0
SPLINE
  5
6F6
100
AcDbEntity
  8
3_ALL_AXES
100
AcDbSpline
 62
7
  6
CONTINUOUS
 70
0
 71
3
 72
9
 73
5
 74
0
 42
0.0000001
 43
0.0000001
 44
0.0000000001
 40
0.0
 40
0.0
 40
0.0
 40
0.0
 40
0.5548692523
 40
1.0
 40
1.0
 40
1.0
 40
1.0
 10
80.7460614741
 20
49.5020486833
 30
0.0
 10
80.7460614741
 20
49.479538833
 30
0.0
 10
80.7409297349
 20
49.4380727588
 30
0.0
 10
80.7140420623
 20
49.4035695847
 30
0.0
 10
80.6984019308
 20
49.3945430963
 30
0.0
  0
SPLINE
  5
6F7
100
AcDbEntity
  8
3_AXES_OTHER
100
AcDbSpline
 62
7
  6
CONTINUOUS
 70
0
 71
3
 72
10
 73
6
 74
0
 42
0.0000001
 43
0.0000001
 44
0.0000000001
 40
0.0
 40
0.0
 40
0.0
 40
0.0
 40
0.2776453759
 40
0.5773929588
 40
1.0
 40
1.0
 40
1.0
 40
1.0
 10
87.9941361855
 20
46.6075472113
 30
0.0
 10
88.0100012061
 20
46.5983851387
 30
0.0
 10
88.0378222277
 20
46.5697601059
 30
0.0
 10
88.0685585504
 20
46.5150158576
 30
0.0
 10
88.0695656153
 20
46.4489669466
 30
0.0
 10
88.045424893
 20
46.4350081083
 30
0.0
  0
SPLINE
  5
6F8
100
AcDbEntity
  8
3_AXES_OTHER
100
AcDbSpline
 62
7
  6
CONTINUOUS
 70
0
 71
3
 72
10
 73
6
 74
0
 42
0.0000001
 43
0.0000001
 44
0.0000000001
 40
0.0
 40
0.0
 40
0.0
 40
0.0
 40
0.2776453759
 40
0.5773929588
 40
1.0
 40
1.0
 40
1.0
 40
1.0
 10
87.9941361855
 20
44.6450720903
 30
0.0
 10
88.0100012061
 20
44.6359100177
 30
0.0
 10
88.0378222277
 20
44.6072849849
 30
0.0
 10
88.0685585504
 20
44.5525407366
 30
0.0
 10
88.0695656153
 20
44.4864918256
 30
0.0
 10
88.045424893
 20
44.4725329873
 30
0.0
  0
SPLINE
  5
6F9
100
AcDbEntity
  8
3_AXES_OTHER
100
AcDbSpline
 62
7
  6
CONTINUOUS
 70
0
 71
3
 72
9
 73
5
 74
0
 42
0.0000001
 43
0.0000001
 44
0.0000000001
 40
0.0
 40
0.0
 40
0.0
 40
0.0
 40
0.49885983
 40
1.0
 40
1.0
 40
1.0
 40
1.0
 10
77.6041332098
 20
52.6077891219
 30
0.0
 10
77.6253971903
 20
52.5955091421
 30
0.0
 10
77.6591837215
 20
52.5567714551
 30
0.0
 10
77.6762533529
 20
52.5083677645
 30
0.0
 10
77.6766405196
 20
52.4837034216
 30
0.0
  0
SPLINE
  5
6FA
100
AcDbEntity
  8
3_ALL_AXES
100
AcDbSpline
 62
7
  6
CONTINUOUS
 70
0
 71
3
 72
9
 73
5
 74
0
 42
0.0000001
 43
0.0000001
 44
0.0000000001
 40
0.0
 40
0.0
 40
0.0
 40
0.0
 40
0.2949404425
 40
1.0
 40
1.0
 40
1.0
 40
1.0
 10
96.8441801025
 20
51.1957228983
 30
0.0
 10
96.8487393067
 20
51.1983558454
 30
0.0
 10
96.8634006229
 20
51.2081864331
 30
0.0
 10
96.8746713333
 20
51.2256484063
 30
0.0
 10
96.8746713333
 20
51.2382341339
 30
0.0
  0
SPLINE
  5
6FB
100
AcDbEntity
  8
3_ALL_AXES
100
AcDbSpline
 62
7
  6
CONTINUOUS
 70
0
 71
3
 72
9
 73
5
 74
0
 42
0.0000001
 43
0.0000001
 44
0.0000000001
 40
0.0
 40
0.0
 40
0.0
 40
0.0
 40
0.2949404425
 40
1.0
 40
1.0
 40
1.0
 40
1.0
 10
96.8441801025
 20
50.4009204743
 30
0.0
 10
96.8487393067
 20
50.4035534214
 30
0.0
 10
96.8634006229
 20
50.4133840091
 30
0.0
 10
96.8746713333
 20
50.4308459823
 30
0.0
 10
96.8746713333
 20
50.4434317099
 30
0.0
  0
SPLINE
  5
6FC
100
AcDbEntity
  8
3_ALL_AXES
100
AcDbSpline
 62
7
  6
CONTINUOUS
 70
0
 71
3
 72
9
 73
5
 74
0
 42
0.0000001
 43
0.0000001
 44
0.0000000001
 40
0.0
 40
0.0
 40
0.0
 40
0.0
 40
0.3062610914
 40
1.0
 40
1.0
 40
1.0
 40
1.0
 10
96.845816653
 20
52.1090271112
 30
0.0
 10
96.8480134778
 20
52.1095452784
 30
0.0
 10
96.8552239584
 20
52.1110239157
 30
0.0
 10
96.8626301802
 20
52.1119034958
 30
0.0
 10
96.8677361401
 20
52.1116396236
 30
0.0
  0
SPLINE
  5
6FD
100
AcDbEntity
  8
3_ALL_AXES
100
AcDbSpline
 62
7
  6
CONTINUOUS
 70
0
 71
3
 72
9
 73
5
 74
0
 42
0.0000001
 43
0.0000001
 44
0.0000000001
 40
0.0
 40
0.0
 40
0.0
 40
0.0
 40
0.6432372195
 40
1.0
 40
1.0
 40
1.0
 40
1.0
 10
96.8677361401
 20
52.1116396236
 30
0.0
 10
96.8692652718
 20
52.1115605992
 30
0.0
 10
96.8715472181
 20
52.1113274832
 30
0.0
 10
96.8740234029
 20
52.1104035788
 30
0.0
 10
96.8744797736
 20
52.1096873799
 30
0.0
  0
SPLINE
  5
6FE
100
AcDbEntity
  8
3_ALL_AXES
100
AcDbSpline
 62
7
  6
CONTINUOUS
 70
0
 71
3
 72
9
 73
5
 74
0
 42
0.0000001
 43
0.0000001
 44
0.0000000001
 40
0.0
 40
0.0
 40
0.0
 40
0.0
 40
0.2949404425
 40
1.0
 40
1.0
 40
1.0
 40
1.0
 10
96.8441801025
 20
51.872776815
 30
0.0
 10
96.8487393067
 20
51.8754097621
 30
0.0
 10
96.8634006229
 20
51.8852403499
 30
0.0
 10
96.8746713333
 20
51.902702323
 30
0.0
 10
96.8746713333
 20
51.9152880506
 30
0.0
  0
SPLINE
  5
6FF
100
AcDbEntity
  8
3_ALL_AXES
100
AcDbSpline
 62
7
  6
CONTINUOUS
 70
0
 71
3
 72
9
 73
5
 74
0
 42
0.0000001
 43
0.0000001
 44
0.0000000001
 40
0.0
 40
0.0
 40
0.0
 40
0.0
 40
0.2588362098
 40
1.0
 40
1.0
 40
1.0
 40
1.0
 10
96.8441801025
 20
50.0413190205
 30
0.0
 10
96.8490502662
 20
50.0467305391
 30
0.0
 10
96.8661212995
 20
50.0691530886
 30
0.0
 10
96.8746439663
 20
50.0980103793
 30
0.0
 10
96.874656485
 20
50.1188571804
 30
0.0
  0
SPLINE
  5
700
100
AcDbEntity
  8
3_ALL_AXES
100
AcDbSpline
 62
7
  6
CONTINUOUS
 70
0
 71
3
 72
8
 73
4
 74
0
 42
0.0000001
 43
0.0000001
 44
0.0000000001
 40
0.0
 40
0.0
 40
0.0
 40
0.0
 40
1.0
 40
1.0
 40
1.0
 40
1.0
 10
96.8441801025
 20
50.3551112708
 30
0.0
 10
96.8411189422
 20
50.3568790953
 30
0.0
 10
96.8381792429
 20
50.3588676436
 30
0.0
 10
96.8353650067
 20
50.3610067978
 30
0.0
  0
SPLINE
  5
701
100
AcDbEntity
  8
3_ALL_AXES
100
AcDbSpline
 62
7
  6
CONTINUOUS
 70
0
 71
3
 72
8
 73
4
 74
0
 42
0.0000001
 43
0.0000001
 44
0.0000000001
 40
0.0
 40
0.0
 40
0.0
 40
0.0
 40
1.0
 40
1.0
 40
1.0
 40
1.0
 10
96.8353650067
 20
50.3610067978
 30
0.0
 10
96.8307666172
 20
50.3645021206
 30
0.0
 10
96.8264713719
 20
50.3684206332
 30
0.0
 10
96.8224975664
 20
50.3726124512
 30
0.0
  0
SPLINE
  5
702
100
AcDbEntity
  8
3_ALL_AXES
100
AcDbSpline
 62
7
  6
CONTINUOUS
 70
0
 71
3
 72
8
 73
4
 74
0
 42
0.0000001
 43
0.0000001
 44
0.0000000001
 40
0.0
 40
0.0
 40
0.0
 40
0.0
 40
1.0
 40
1.0
 40
1.0
 40
1.0
 10
96.8441801025
 20
51.8269676115
 30
0.0
 10
96.8411189422
 20
51.8287354361
 30
0.0
 10
96.8381792429
 20
51.8307239844
 30
0.0
 10
96.8353650067
 20
51.8328631385
 30
0.0
  0
SPLINE
  5
703
100
AcDbEntity
  8
3_ALL_AXES
100
AcDbSpline
 62
7
  6
CONTINUOUS
 70
0
 71
3
 72
8
 73
4
 74
0
 42
0.0000001
 43
0.0000001
 44
0.0000000001
 40
0.0
 40
0.0
 40
0.0
 40
0.0
 40
1.0
 40
1.0
 40
1.0
 40
1.0
 10
96.8353650067
 20
51.8328631385
 30
0.0
 10
96.8307666172
 20
51.8363584614
 30
0.0
 10
96.8264713719
 20
51.840276974
 30
0.0
 10
96.8224975664
 20
51.8444687919
 30
0.0
  0
SPLINE
  5
704
100
AcDbEntity
  8
3_ALL_AXES
100
AcDbSpline
 62
7
  6
CONTINUOUS
 70
0
 71
3
 72
8
 73
4
 74
0
 42
0.0000001
 43
0.0000001
 44
0.0000000001
 40
0.0
 40
0.0
 40
0.0
 40
0.0
 40
1.0
 40
1.0
 40
1.0
 40
1.0
 10
96.8174119778
 20
51.7574037714
 30
0.0
 10
96.8205090646
 20
51.7591923435
 30
0.0
 10
96.8234706468
 20
51.7612632476
 30
0.0
 10
96.8261417772
 20
51.7636414821
 30
0.0
  0
SPLINE
  5
705
100
AcDbEntity
  8
3_ALL_AXES
100
AcDbSpline
 62
7
  6
CONTINUOUS
 70
0
 71
3
 72
8
 73
4
 74
0
 42
0.0000001
 43
0.0000001
 44
0.0000000001
 40
0.0
 40
0.0
 40
0.0
 40
0.0
 40
1.0
 40
1.0
 40
1.0
 40
1.0
 10
96.8261417772
 20
51.7636414821
 30
0.0
 10
96.8319653688
 20
51.7688265026
 30
0.0
 10
96.8368154883
 20
51.7766590265
 30
0.0
 10
96.8368154883
 20
51.7844563759
 30
0.0
  0
SPLINE
  5
706
100
AcDbEntity
  8
3_ALL_AXES
100
AcDbSpline
 62
7
  6
CONTINUOUS
 70
0
 71
3
 72
8
 73
4
 74
0
 42
0.0000001
 43
0.0000001
 44
0.0000000001
 40
0.0
 40
0.0
 40
0.0
 40
0.0
 40
1.0
 40
1.0
 40
1.0
 40
1.0
 10
96.8174119778
 20
50.9626013474
 30
0.0
 10
96.8205090646
 20
50.9643899195
 30
0.0
 10
96.8234706468
 20
50.9664608236
 30
0.0
 10
96.8261417772
 20
50.9688390581
 30
0.0
  0
SPLINE
  5
707
100
AcDbEntity
  8
3_ALL_AXES
100
AcDbSpline
 62
7
  6
CONTINUOUS
 70
0
 71
3
 72
8
 73
4
 74
0
 42
0.0000001
 43
0.0000001
 44
0.0000000001
 40
0.0
 40
0.0
 40
0.0
 40
0.0
 40
1.0
 40
1.0
 40
1.0
 40
1.0
 10
96.8261417772
 20
50.9688390581
 30
0.0
 10
96.8319653688
 20
50.9740240786
 30
0.0
 10
96.8368154883
 20
50.9818566025
 30
0.0
 10
96.8368154883
 20
50.9896539519
 30
0.0
  0
SPLINE
  5
708
100
AcDbEntity
  8
3_ALL_AXES
100
AcDbSpline
 62
7
  6
CONTINUOUS
 70
0
 71
3
 72
9
 73
5
 74
0
 42
0.0000001
 43
0.0000001
 44
0.0000000001
 40
0.0
 40
0.0
 40
0.0
 40
0.0
 40
0.2097661565
 40
1.0
 40
1.0
 40
1.0
 40
1.0
 10
87.2811185329
 20
57.0731340758
 30
0.0
 10
87.283508699
 20
57.0745078505
 30
0.0
 10
87.2965813631
 20
57.0783389246
 30
0.0
 10
87.3100068371
 20
57.0707712008
 30
0.0
 10
87.3179542221
 20
57.0640854235
 30
0.0
  0
SPLINE
  5
709
100
AcDbEntity
  8
3_ALL_AXES
100
AcDbSpline
 62
7
  6
CONTINUOUS
 70
0
 71
3
 72
8
 73
4
 74
0
 42
0.0000001
 43
0.0000001
 44
0.0000000001
 40
0.0
 40
0.0
 40
0.0
 40
0.0
 40
1.0
 40
1.0
 40
1.0
 40
1.0
 10
87.3179542221
 20
57.0640854235
 30
0.0
 10
87.3269079345
 20
57.0565530682
 30
0.0
 10
87.3341990817
 20
57.0468121767
 30
0.0
 10
87.3395270647
 20
57.0363949824
 30
0.0
  0
SPLINE
  5
70A
100
AcDbEntity
  8
3_ALL_AXES
100
AcDbSpline
 62
7
  6
CONTINUOUS
 70
0
 71
3
 72
8
 73
4
 74
0
 42
0.0000001
 43
0.0000001
 44
0.0000000001
 40
0.0
 40
0.0
 40
0.0
 40
0.0
 40
1.0
 40
1.0
 40
1.0
 40
1.0
 10
96.8174119778
 20
50.2855474307
 30
0.0
 10
96.8205090646
 20
50.2873360028
 30
0.0
 10
96.8234706468
 20
50.2894069069
 30
0.0
 10
96.8261417772
 20
50.2917851413
 30
0.0
  0
SPLINE
  5
70B
100
AcDbEntity
  8
3_ALL_AXES
100
AcDbSpline
 62
7
  6
CONTINUOUS
 70
0
 71
3
 72
8
 73
4
 74
0
 42
0.0000001
 43
0.0000001
 44
0.0000000001
 40
0.0
 40
0.0
 40
0.0
 40
0.0
 40
1.0
 40
1.0
 40
1.0
 40
1.0
 10
96.8261417772
 20
50.2917851413
 30
0.0
 10
96.8319653688
 20
50.2969701619
 30
0.0
 10
96.8368154883
 20
50.3048026858
 30
0.0
 10
96.8368154883
 20
50.3126000351
 30
0.0
  0
SPLINE
  5
70C
100
AcDbEntity
  8
3_ALL_AXES
100
AcDbSpline
 62
7
  6
CONTINUOUS
 70
0
 71
3
 72
8
 73
4
 74
0
 42
0.0000001
 43
0.0000001
 44
0.0000000001
 40
0.0
 40
0.0
 40
0.0
 40
0.0
 40
1.0
 40
1.0
 40
1.0
 40
1.0
 10
96.4848180289
 20
51.5653302796
 30
0.0
 10
96.4878791891
 20
51.5670981041
 30
0.0
 10
96.4908188885
 20
51.5690866524
 30
0.0
 10
96.4936331247
 20
51.5712258066
 30
0.0
  0
SPLINE
  5
70D
100
AcDbEntity
  8
3_ALL_AXES
100
AcDbSpline
 62
7
  6
CONTINUOUS
 70
0
 71
3
 72
8
 73
4
 74
0
 42
0.0000001
 43
0.0000001
 44
0.0000000001
 40
0.0
 40
0.0
 40
0.0
 40
0.0
 40
1.0
 40
1.0
 40
1.0
 40
1.0
 10
96.4936331247
 20
51.5712258066
 30
0.0
 10
96.4982315142
 20
51.5747211294
 30
0.0
 10
96.5025267594
 20
51.578639642
 30
0.0
 10
96.5065005649
 20
51.58283146
 30
0.0
  0
SPLINE
  5
70E
100
AcDbEntity
  8
3_ALL_AXES
100
AcDbSpline
 62
7
  6
CONTINUOUS
 70
0
 71
3
 72
8
 73
4
 74
0
 42
0.0000001
 43
0.0000001
 44
0.0000000001
 40
0.0
 40
0.0
 40
0.0
 40
0.0
 40
1.0
 40
1.0
 40
1.0
 40
1.0
 10
96.5065005649
 20
51.58283146
 30
0.0
 10
96.5205646451
 20
51.597667129
 30
0.0
 10
96.5313393996
 20
51.6163475597
 30
0.0
 10
96.5371643015
 20
51.6359426087
 30
0.0
  0
SPLINE
  5
70F
100
AcDbEntity
  8
3_ALL_AXES
100
AcDbSpline
 62
7
  6
CONTINUOUS
 70
0
 71
3
 72
9
 73
5
 74
0
 42
0.0000001
 43
0.0000001
 44
0.0000000001
 40
0.0
 40
0.0
 40
0.0
 40
0.0
 40
0.2866100916
 40
1.0
 40
1.0
 40
1.0
 40
1.0
 10
96.5371643015
 20
51.6359426087
 30
0.0
 10
96.5385410314
 20
51.6405739469
 30
0.0
 10
96.5423312202
 20
51.6568818881
 30
0.0
 10
96.5421239489
 20
51.675053809
 30
0.0
 10
96.5371643015
 20
51.6860097231
 30
0.0
  0
SPLINE
  5
710
100
AcDbEntity
  8
3_ALL_AXES
100
AcDbSpline
 62
7
  6
CONTINUOUS
 70
0
 71
3
 72
9
 73
5
 74
0
 42
0.0000001
 43
0.0000001
 44
0.0000000001
 40
0.0
 40
0.0
 40
0.0
 40
0.0
 40
0.4916831934
 40
1.0
 40
1.0
 40
1.0
 40
1.0
 10
96.4039203782
 20
50.0530422899
 30
0.0
 10
96.4049338818
 20
50.0530738755
 30
0.0
 10
96.4069932041
 20
50.0532253898
 30
0.0
 10
96.4090338429
 20
50.0535380297
 30
0.0
 10
96.4100637623
 20
50.0537334707
 30
0.0
  0
SPLINE
  5
711
100
AcDbEntity
  8
3_ALL_AXES
100
AcDbSpline
 62
7
  6
CONTINUOUS
 70
0
 71
3
 72
8
 73
4
 74
0
 42
0.0000001
 43
0.0000001
 44
0.0000000001
 40
0.0
 40
0.0
 40
0.0
 40
0.0
 40
1.0
 40
1.0
 40
1.0
 40
1.0
 10
96.4100637623
 20
50.0537334707
 30
0.0
 10
96.4164199834
 20
50.0549396487
 30
0.0
 10
96.4225563145
 20
50.0575177077
 30
0.0
 10
96.4281588316
 20
50.0607531696
 30
0.0
  0
SPLINE
  5
712
100
AcDbEntity
  8
3_ALL_AXES
100
AcDbSpline
 62
7
  6
CONTINUOUS
 70
0
 71
3
 72
8
 73
4
 74
0
 42
0.0000001
 43
0.0000001
 44
0.0000000001
 40
0.0
 40
0.0
 40
0.0
 40
0.0
 40
1.0
 40
1.0
 40
1.0
 40
1.0
 10
96.4848180289
 20
50.0934739388
 30
0.0
 10
96.4878791891
 20
50.0952417633
 30
0.0
 10
96.4908188885
 20
50.0972303117
 30
0.0
 10
96.4936331247
 20
50.0993694658
 30
0.0
  0
SPLINE
  5
713
100
AcDbEntity
  8
3_ALL_AXES
100
AcDbSpline
 62
7
  6
CONTINUOUS
 70
0
 71
3
 72
8
 73
4
 74
0
 42
0.0000001
 43
0.0000001
 44
0.0000000001
 40
0.0
 40
0.0
 40
0.0
 40
0.0
 40
1.0
 40
1.0
 40
1.0
 40
1.0
 10
96.4936331247
 20
50.0993694658
 30
0.0
 10
96.4982315142
 20
50.1028647886
 30
0.0
 10
96.5025267594
 20
50.1067833013
 30
0.0
 10
96.5065005649
 20
50.1109751192
 30
0.0
  0
SPLINE
  5
714
100
AcDbEntity
  8
3_ALL_AXES
100
AcDbSpline
 62
7
  6
CONTINUOUS
 70
0
 71
3
 72
8
 73
4
 74
0
 42
0.0000001
 43
0.0000001
 44
0.0000000001
 40
0.0
 40
0.0
 40
0.0
 40
0.0
 40
1.0
 40
1.0
 40
1.0
 40
1.0
 10
96.5065005649
 20
50.1109751192
 30
0.0
 10
96.5205646451
 20
50.1258107883
 30
0.0
 10
96.5313393996
 20
50.1444912189
 30
0.0
 10
96.5371643015
 20
50.164086268
 30
0.0
  0
SPLINE
  5
715
100
AcDbEntity
  8
3_ALL_AXES
100
AcDbSpline
 62
7
  6
CONTINUOUS
 70
0
 71
3
 72
9
 73
5
 74
0
 42
0.0000001
 43
0.0000001
 44
0.0000000001
 40
0.0
 40
0.0
 40
0.0
 40
0.0
 40
0.2866100916
 40
1.0
 40
1.0
 40
1.0
 40
1.0
 10
96.5371643015
 20
50.164086268
 30
0.0
 10
96.5385410314
 20
50.1687176061
 30
0.0
 10
96.5423312202
 20
50.1850255474
 30
0.0
 10
96.5421239489
 20
50.2031974682
 30
0.0
 10
96.5371643015
 20
50.2141533823
 30
0.0
  0
SPLINE
  5
716
100
AcDbEntity
  8
3_ALL_AXES
100
AcDbSpline
 62
7
  6
CONTINUOUS
 70
0
 71
3
 72
8
 73
4
 74
0
 42
0.0000001
 43
0.0000001
 44
0.0000000001
 40
0.0
 40
0.0
 40
0.0
 40
0.0
 40
1.0
 40
1.0
 40
1.0
 40
1.0
 10
96.745450336
 20
51.4378285092
 30
0.0
 10
96.745450336
 20
51.4419348527
 30
0.0
 10
96.7449624377
 20
51.4461040475
 30
0.0
 10
96.7437637396
 20
51.4500315378
 30
0.0
  0
SPLINE
  5
717
100
AcDbEntity
  8
3_ALL_AXES
100
AcDbSpline
 62
7
  6
CONTINUOUS
 70
0
 71
3
 72
8
 73
4
 74
0
 42
0.0000001
 43
0.0000001
 44
0.0000000001
 40
0.0
 40
0.0
 40
0.0
 40
0.0
 40
1.0
 40
1.0
 40
1.0
 40
1.0
 10
96.745450336
 20
50.6528384608
 30
0.0
 10
96.745450336
 20
50.6569448043
 30
0.0
 10
96.7449624377
 20
50.6611139991
 30
0.0
 10
96.7437637396
 20
50.6650414894
 30
0.0
  0
SPLINE
  5
718
100
AcDbEntity
  8
3_ALL_AXES
100
AcDbSpline
 62
7
  6
CONTINUOUS
 70
0
 71
3
 72
8
 73
4
 74
0
 42
0.0000001
 43
0.0000001
 44
0.0000000001
 40
0.0
 40
0.0
 40
0.0
 40
0.0
 40
1.0
 40
1.0
 40
1.0
 40
1.0
 10
96.5516579213
 20
50.2128197745
 30
0.0
 10
96.5452555468
 20
50.2165218058
 30
0.0
 10
96.5369471918
 20
50.2172454962
 30
0.0
 10
96.5296812229
 20
50.2158666813
 30
0.0
  0
SPLINE
  5
719
100
AcDbEntity
  8
3_ALL_AXES
100
AcDbSpline
 62
7
  6
CONTINUOUS
 70
0
 71
3
 72
8
 73
4
 74
0
 42
0.0000001
 43
0.0000001
 44
0.0000000001
 40
0.0
 40
0.0
 40
0.0
 40
0.0
 40
1.0
 40
1.0
 40
1.0
 40
1.0
 10
96.5296812229
 20
50.2158666813
 30
0.0
 10
96.5233250018
 20
50.2146605032
 30
0.0
 10
96.5171886707
 20
50.2120824443
 30
0.0
 10
96.5115861535
 20
50.2088469824
 30
0.0
  0
SPLINE
  5
71A
100
AcDbEntity
  8
3_ALL_AXES
100
AcDbSpline
 62
7
  6
CONTINUOUS
 70
0
 71
3
 72
8
 73
4
 74
0
 42
0.0000001
 43
0.0000001
 44
0.0000000001
 40
0.0
 40
0.0
 40
0.0
 40
0.0
 40
1.0
 40
1.0
 40
1.0
 40
1.0
 10
96.5516579213
 20
51.6846761153
 30
0.0
 10
96.5452555468
 20
51.6883781466
 30
0.0
 10
96.5369471918
 20
51.689101837
 30
0.0
 10
96.5296812229
 20
51.6877230221
 30
0.0
  0
SPLINE
  5
71B
100
AcDbEntity
  8
3_ALL_AXES
100
AcDbSpline
 62
7
  6
CONTINUOUS
 70
0
 71
3
 72
8
 73
4
 74
0
 42
0.0000001
 43
0.0000001
 44
0.0000000001
 40
0.0
 40
0.0
 40
0.0
 40
0.0
 40
1.0
 40
1.0
 40
1.0
 40
1.0
 10
96.5296812229
 20
51.6877230221
 30
0.0
 10
96.5233250018
 20
51.686516844
 30
0.0
 10
96.5171886707
 20
51.683938785
 30
0.0
 10
96.5115861535
 20
51.6807033232
 30
0.0
  0
SPLINE
  5
71C
100
AcDbEntity
  8
3_ALL_AXES
100
AcDbSpline
 62
7
  6
CONTINUOUS
 70
0
 71
3
 72
9
 73
5
 74
0
 42
0.0000001
 43
0.0000001
 44
0.0000000001
 40
0.0
 40
0.0
 40
0.0
 40
0.0
 40
0.4916831934
 40
1.0
 40
1.0
 40
1.0
 40
1.0
 10
96.4039203782
 20
51.5248986307
 30
0.0
 10
96.4049338818
 20
51.5249302162
 30
0.0
 10
96.4069932041
 20
51.5250817305
 30
0.0
 10
96.4090338429
 20
51.5253943704
 30
0.0
 10
96.4100637623
 20
51.5255898114
 30
0.0
  0
SPLINE
  5
71D
100
AcDbEntity
  8
3_ALL_AXES
100
AcDbSpline
 62
7
  6
CONTINUOUS
 70
0
 71
3
 72
8
 73
4
 74
0
 42
0.0000001
 43
0.0000001
 44
0.0000000001
 40
0.0
 40
0.0
 40
0.0
 40
0.0
 40
1.0
 40
1.0
 40
1.0
 40
1.0
 10
96.4100637623
 20
51.5255898114
 30
0.0
 10
96.4164199834
 20
51.5267959895
 30
0.0
 10
96.4225563145
 20
51.5293740485
 30
0.0
 10
96.4281588316
 20
51.5326095103
 30
0.0
  0
SPLINE
  5
71E
100
AcDbEntity
  8
3_AXES_OTHER
100
AcDbSpline
 62
7
  6
CONTINUOUS
 70
0
 71
3
 72
9
 73
5
 74
0
 42
0.0000001
 43
0.0000001
 44
0.0000000001
 40
0.0
 40
0.0
 40
0.0
 40
0.0
 40
0.23111485
 40
1.0
 40
1.0
 40
1.0
 40
1.0
 10
96.8174119778
 20
52.1198179649
 30
0.0
 10
96.8009359228
 20
52.1223762645
 30
0.0
 10
96.728712827
 20
52.1276182202
 30
0.0
 10
96.6561673614
 20
52.1104953324
 30
0.0
 10
96.6044768125
 20
52.0903698228
 30
0.0
  0
SPLINE
  5
71F
100
AcDbEntity
  8
3_ALL_AXES
100
AcDbSpline
 62
7
  6
CONTINUOUS
 70
0
 71
3
 72
8
 73
4
 74
0
 42
0.0000001
 43
0.0000001
 44
0.0000000001
 40
0.0
 40
0.0
 40
0.0
 40
0.0
 40
1.0
 40
1.0
 40
1.0
 40
1.0
 10
96.6953519376
 20
50.5797304106
 30
0.0
 10
96.7024510048
 20
50.5815877811
 30
0.0
 10
96.7089991106
 20
50.5856637649
 30
0.0
 10
96.7146143982
 20
50.5903876536
 30
0.0
  0
SPLINE
  5
720
100
AcDbEntity
  8
3_ALL_AXES
100
AcDbSpline
 62
7
  6
CONTINUOUS
 70
0
 71
3
 72
8
 73
4
 74
0
 42
0.0000001
 43
0.0000001
 44
0.0000000001
 40
0.0
 40
0.0
 40
0.0
 40
0.0
 40
1.0
 40
1.0
 40
1.0
 40
1.0
 10
96.7146143982
 20
50.5903876536
 30
0.0
 10
96.7207460528
 20
50.5955459387
 30
0.0
 10
96.7260672402
 20
50.6017503355
 30
0.0
 10
96.7305174001
 20
50.6084137557
 30
0.0
  0
SPLINE
  5
721
100
AcDbEntity
  8
3_ALL_AXES
100
AcDbSpline
 62
7
  6
CONTINUOUS
 70
0
 71
3
 72
8
 73
4
 74
0
 42
0.0000001
 43
0.0000001
 44
0.0000000001
 40
0.0
 40
0.0
 40
0.0
 40
0.0
 40
1.0
 40
1.0
 40
1.0
 40
1.0
 10
96.7305174001
 20
50.6084137557
 30
0.0
 10
96.7351191702
 20
50.6153041886
 30
0.0
 10
96.7388872154
 20
50.6228466831
 30
0.0
 10
96.7415226189
 20
50.6307021908
 30
0.0
  0
SPLINE
  5
722
100
AcDbEntity
  8
3_ALL_AXES
100
AcDbSpline
 62
7
  6
CONTINUOUS
 70
0
 71
3
 72
8
 73
4
 74
0
 42
0.0000001
 43
0.0000001
 44
0.0000000001
 40
0.0
 40
0.0
 40
0.0
 40
0.0
 40
1.0
 40
1.0
 40
1.0
 40
1.0
 10
96.7415226189
 20
50.6307021908
 30
0.0
 10
96.7439061852
 20
50.637807032
 30
0.0
 10
96.745450336
 20
50.6453444528
 30
0.0
 10
96.745450336
 20
50.6528384608
 30
0.0
  0
SPLINE
  5
723
100
AcDbEntity
  8
3_ALL_AXES
100
AcDbSpline
 62
7
  6
CONTINUOUS
 70
0
 71
3
 72
8
 73
4
 74
0
 42
0.0000001
 43
0.0000001
 44
0.0000000001
 40
0.0
 40
0.0
 40
0.0
 40
0.0
 40
1.0
 40
1.0
 40
1.0
 40
1.0
 10
87.2962354085
 20
57.0629023244
 30
0.0
 10
87.2962354085
 20
57.0670086679
 30
0.0
 10
87.2967233068
 20
57.0711778626
 30
0.0
 10
87.2979220049
 20
57.0751053529
 30
0.0
  0
SPLINE
  5
724
100
AcDbEntity
  8
3_ALL_AXES
100
AcDbSpline
 62
7
  6
CONTINUOUS
 70
0
 71
3
 72
9
 73
5
 74
0
 42
0.0000001
 43
0.0000001
 44
0.0000000001
 40
0.0
 40
0.0
 40
0.0
 40
0.0
 40
0.2097661565
 40
1.0
 40
1.0
 40
1.0
 40
1.0
 10
96.7605672116
 20
50.6630702123
 30
0.0
 10
96.7581770455
 20
50.664443987
 30
0.0
 10
96.7451043814
 20
50.6682750611
 30
0.0
 10
96.7316789074
 20
50.6607073373
 30
0.0
 10
96.7237315224
 20
50.65402156
 30
0.0
  0
SPLINE
  5
725
100
AcDbEntity
  8
3_ALL_AXES
100
AcDbSpline
 62
7
  6
CONTINUOUS
 70
0
 71
3
 72
8
 73
4
 74
0
 42
0.0000001
 43
0.0000001
 44
0.0000000001
 40
0.0
 40
0.0
 40
0.0
 40
0.0
 40
1.0
 40
1.0
 40
1.0
 40
1.0
 10
96.7237315224
 20
50.65402156
 30
0.0
 10
96.7113679993
 20
50.6436206844
 30
0.0
 10
96.7019621097
 20
50.6290245804
 30
0.0
 10
96.6968233017
 20
50.6137070228
 30
0.0
  0
SPLINE
  5
726
100
AcDbEntity
  8
3_ALL_AXES
100
AcDbSpline
 62
7
  6
CONTINUOUS
 70
0
 71
3
 72
8
 73
4
 74
0
 42
0.0000001
 43
0.0000001
 44
0.0000000001
 40
0.0
 40
0.0
 40
0.0
 40
0.0
 40
1.0
 40
1.0
 40
1.0
 40
1.0
 10
96.6968233017
 20
50.6137070228
 30
0.0
 10
96.6944397354
 20
50.6066021816
 30
0.0
 10
96.6928955846
 20
50.5990647608
 30
0.0
 10
96.6928955846
 20
50.5915707528
 30
0.0
  0
SPLINE
  5
727
100
AcDbEntity
  8
3_ALL_AXES
100
AcDbSpline
 62
7
  6
CONTINUOUS
 70
0
 71
3
 72
9
 73
5
 74
0
 42
0.0000001
 43
0.0000001
 44
0.0000000001
 40
0.0
 40
0.0
 40
0.0
 40
0.0
 40
0.5254770688
 40
1.0
 40
1.0
 40
1.0
 40
1.0
 10
87.2514434132
 20
57.6479883201
 30
0.0
 10
87.305626795
 20
57.5567166446
 30
0.0
 10
87.3894259888
 20
57.3709518595
 30
0.0
 10
87.4263852712
 20
57.1689415559
 30
0.0
 10
87.4263852712
 20
57.0730908751
 30
0.0
  0
SPLINE
  5
728
100
AcDbEntity
  8
3_ALL_AXES
100
AcDbSpline
 62
7
  6
CONTINUOUS
 70
0
 71
3
 72
8
 73
4
 74
0
 42
0.0000001
 43
0.0000001
 44
0.0000000001
 40
0.0
 40
0.0
 40
0.0
 40
0.0
 40
1.0
 40
1.0
 40
1.0
 40
1.0
 10
96.6953519376
 20
51.364720459
 30
0.0
 10
96.7024510048
 20
51.3665778295
 30
0.0
 10
96.7089991106
 20
51.3706538133
 30
0.0
 10
96.7146143982
 20
51.375377702
 30
0.0
  0
SPLINE
  5
729
100
AcDbEntity
  8
3_ALL_AXES
100
AcDbSpline
 62
7
  6
CONTINUOUS
 70
0
 71
3
 72
8
 73
4
 74
0
 42
0.0000001
 43
0.0000001
 44
0.0000000001
 40
0.0
 40
0.0
 40
0.0
 40
0.0
 40
1.0
 40
1.0
 40
1.0
 40
1.0
 10
96.7146143982
 20
51.375377702
 30
0.0
 10
96.7207460528
 20
51.3805359871
 30
0.0
 10
96.7260672402
 20
51.3867403839
 30
0.0
 10
96.7305174001
 20
51.3934038041
 30
0.0
  0
SPLINE
  5
72A
100
AcDbEntity
  8
3_ALL_AXES
100
AcDbSpline
 62
7
  6
CONTINUOUS
 70
0
 71
3
 72
8
 73
4
 74
0
 42
0.0000001
 43
0.0000001
 44
0.0000000001
 40
0.0
 40
0.0
 40
0.0
 40
0.0
 40
1.0
 40
1.0
 40
1.0
 40
1.0
 10
96.7305174001
 20
51.3934038041
 30
0.0
 10
96.7351191702
 20
51.400294237
 30
0.0
 10
96.7388872154
 20
51.4078367315
 30
0.0
 10
96.7415226189
 20
51.4156922392
 30
0.0
  0
SPLINE
  5
72B
100
AcDbEntity
  8
3_ALL_AXES
100
AcDbSpline
 62
7
  6
CONTINUOUS
 70
0
 71
3
 72
8
 73
4
 74
0
 42
0.0000001
 43
0.0000001
 44
0.0000000001
 40
0.0
 40
0.0
 40
0.0
 40
0.0
 40
1.0
 40
1.0
 40
1.0
 40
1.0
 10
96.7415226189
 20
51.4156922392
 30
0.0
 10
96.7439061852
 20
51.4227970804
 30
0.0
 10
96.745450336
 20
51.4303345012
 30
0.0
 10
96.745450336
 20
51.4378285092
 30
0.0
  0
SPLINE
  5
72C
100
AcDbEntity
  8
3_ALL_AXES
100
AcDbSpline
 62
7
  6
CONTINUOUS
 70
0
 71
3
 72
9
 73
5
 74
0
 42
0.0000001
 43
0.0000001
 44
0.0000000001
 40
0.0
 40
0.0
 40
0.0
 40
0.0
 40
0.2097661565
 40
1.0
 40
1.0
 40
1.0
 40
1.0
 10
96.7605672116
 20
51.4480602607
 30
0.0
 10
96.7581770455
 20
51.4494340354
 30
0.0
 10
96.7451043814
 20
51.4532651095
 30
0.0
 10
96.7316789074
 20
51.4456973857
 30
0.0
 10
96.7237315224
 20
51.4390116084
 30
0.0
  0
SPLINE
  5
72D
100
AcDbEntity
  8
3_ALL_AXES
100
AcDbSpline
 62
7
  6
CONTINUOUS
 70
0
 71
3
 72
8
 73
4
 74
0
 42
0.0000001
 43
0.0000001
 44
0.0000000001
 40
0.0
 40
0.0
 40
0.0
 40
0.0
 40
1.0
 40
1.0
 40
1.0
 40
1.0
 10
96.7237315224
 20
51.4390116084
 30
0.0
 10
96.7113679993
 20
51.4286107328
 30
0.0
 10
96.7019621097
 20
51.4140146288
 30
0.0
 10
96.6968233017
 20
51.3986970712
 30
0.0
  0
SPLINE
  5
72E
100
AcDbEntity
  8
3_ALL_AXES
100
AcDbSpline
 62
7
  6
CONTINUOUS
 70
0
 71
3
 72
8
 73
4
 74
0
 42
0.0000001
 43
0.0000001
 44
0.0000000001
 40
0.0
 40
0.0
 40
0.0
 40
0.0
 40
1.0
 40
1.0
 40
1.0
 40
1.0
 10
96.6968233017
 20
51.3986970712
 30
0.0
 10
96.6944397354
 20
51.39159223
 30
0.0
 10
96.6928955846
 20
51.3840548092
 30
0.0
 10
96.6928955846
 20
51.3765608012
 30
0.0
  0
SPLINE
  5
72F
100
AcDbEntity
  8
3_ALL_AXES
100
AcDbSpline
 62
7
  6
CONTINUOUS
 70
0
 71
3
 72
8
 73
4
 74
0
 42
0.0000001
 43
0.0000001
 44
0.0000000001
 40
0.0
 40
0.0
 40
0.0
 40
0.0
 40
1.0
 40
1.0
 40
1.0
 40
1.0
 10
87.1042187275
 20
57.3667870759
 30
0.0
 10
87.1096439182
 20
57.3699201315
 30
0.0
 10
87.1153838158
 20
57.3725369584
 30
0.0
 10
87.1212516775
 20
57.3747317089
 30
0.0
  0
SPLINE
  5
730
100
AcDbEntity
  8
3_ALL_AXES
100
AcDbSpline
 62
7
  6
CONTINUOUS
 70
0
 71
3
 72
9
 73
5
 74
0
 42
0.0000001
 43
0.0000001
 44
0.0000000001
 40
0.0
 40
0.0
 40
0.0
 40
0.0
 40
0.2412937404
 40
1.0
 40
1.0
 40
1.0
 40
1.0
 10
87.1212516775
 20
57.3747317089
 30
0.0
 10
87.1285824705
 20
57.3774736382
 30
0.0
 10
87.1599228317
 20
57.3861028
 30
0.0
 10
87.1937370252
 20
57.3855531091
 30
0.0
 10
87.2176697832
 20
57.3798194464
 30
0.0
  0
SPLINE
  5
731
100
AcDbEntity
  8
3_ALL_AXES
100
AcDbSpline
 62
7
  6
CONTINUOUS
 70
0
 71
3
 72
8
 73
4
 74
0
 42
0.0000001
 43
0.0000001
 44
0.0000000001
 40
0.0
 40
0.0
 40
0.0
 40
0.0
 40
1.0
 40
1.0
 40
1.0
 40
1.0
 10
87.2176697832
 20
57.3798194464
 30
0.0
 10
87.2233415295
 20
57.3784606443
 30
0.0
 10
87.2289478229
 20
57.3767748949
 30
0.0
 10
87.2344104632
 20
57.3747317089
 30
0.0
  0
SPLINE
  5
732
100
AcDbEntity
  8
3_ALL_AXES
100
AcDbSpline
 62
7
  6
CONTINUOUS
 70
0
 71
3
 72
8
 73
4
 74
0
 42
0.0000001
 43
0.0000001
 44
0.0000000001
 40
0.0
 40
0.0
 40
0.0
 40
0.0
 40
1.0
 40
1.0
 40
1.0
 40
1.0
 10
87.2344104632
 20
57.3747317089
 30
0.0
 10
87.2402783249
 20
57.3725369584
 30
0.0
 10
87.2460182225
 20
57.3699201315
 30
0.0
 10
87.2514434132
 20
57.3667870759
 30
0.0
  0
SPLINE
  5
733
100
AcDbEntity
  8
7_ALL_ROUNDS
100
AcDbSpline
 62
7
  6
CONTINUOUS
 70
0
 71
3
 72
8
 73
4
 74
0
 42
0.0000001
 43
0.0000001
 44
0.0000000001
 40
0.0
 40
0.0
 40
0.0
 40
0.0
 40
1.0
 40
1.0
 40
1.0
 40
1.0
 10
96.6711788042
 20
50.8885807561
 30
0.0
 10
96.6736754313
 20
50.8884067289
 30
0.0
 10
96.6761954634
 20
50.8884620622
 30
0.0
 10
96.6786857279
 20
50.8887110904
 30
0.0
  0
SPLINE
  5
734
100
AcDbEntity
  8
7_ALL_ROUNDS
100
AcDbSpline
 62
7
  6
CONTINUOUS
 70
0
 71
3
 72
8
 73
4
 74
0
 42
0.0000001
 43
0.0000001
 44
0.0000000001
 40
0.0
 40
0.0
 40
0.0
 40
0.0
 40
1.0
 40
1.0
 40
1.0
 40
1.0
 10
96.6786857279
 20
50.8887110904
 30
0.0
 10
96.6882036138
 20
50.8896628854
 30
0.0
 10
96.6975055977
 20
50.8933552375
 30
0.0
 10
96.705788898
 20
50.8981388556
 30
0.0
  0
SPLINE
  5
735
100
AcDbEntity
  8
7_ALL_ROUNDS
100
AcDbSpline
 62
7
  6
CONTINUOUS
 70
0
 71
3
 72
8
 73
4
 74
0
 42
0.0000001
 43
0.0000001
 44
0.0000000001
 40
0.0
 40
0.0
 40
0.0
 40
0.0
 40
1.0
 40
1.0
 40
1.0
 40
1.0
 10
96.6824673098
 20
50.877714229
 30
0.0
 10
96.6757152241
 20
50.8816135167
 30
0.0
 10
96.6703336168
 20
50.8882645558
 30
0.0
 10
96.6671241818
 20
50.8953705134
 30
0.0
  0
SPLINE
  5
736
100
AcDbEntity
  8
7_ALL_ROUNDS
100
AcDbSpline
 62
7
  6
CONTINUOUS
 70
0
 71
3
 72
8
 73
4
 74
0
 42
0.0000001
 43
0.0000001
 44
0.0000000001
 40
0.0
 40
0.0
 40
0.0
 40
0.0
 40
1.0
 40
1.0
 40
1.0
 40
1.0
 10
96.6671241818
 20
50.8953705134
 30
0.0
 10
96.6631877929
 20
50.904086008
 30
0.0
 10
96.6617330261
 20
50.9139858487
 30
0.0
 10
96.6617330261
 20
50.9235490596
 30
0.0
  0
SPLINE
  5
737
100
AcDbEntity
  8
3_ALL_AXES
100
AcDbSpline
 62
7
  6
CONTINUOUS
 70
0
 71
3
 72
8
 73
4
 74
0
 42
0.0000001
 43
0.0000001
 44
0.0000000001
 40
0.0
 40
0.0
 40
0.0
 40
0.0
 40
1.0
 40
1.0
 40
1.0
 40
1.0
 10
87.1093402317
 20
57.7264686858
 30
0.0
 10
87.1162985446
 20
57.726391963
 30
0.0
 10
87.1232636598
 20
57.7256219878
 30
0.0
 10
87.1301129699
 20
57.7243927782
 30
0.0
  0
SPLINE
  5
738
100
AcDbEntity
  8
3_ALL_AXES
100
AcDbSpline
 62
7
  6
CONTINUOUS
 70
0
 71
3
 72
9
 73
5
 74
0
 42
0.0000001
 43
0.0000001
 44
0.0000000001
 40
0.0
 40
0.0
 40
0.0
 40
0.0
 40
0.2351634179
 40
1.0
 40
1.0
 40
1.0
 40
1.0
 10
87.1441299295
 20
57.7212260316
 30
0.0
 10
87.1508880074
 20
57.7194028139
 30
0.0
 10
87.1791888589
 20
57.7101616408
 30
0.0
 10
87.2055808876
 20
57.6946906263
 30
0.0
 10
87.2227725345
 20
57.67976691
 30
0.0
  0
SPLINE
  5
739
100
AcDbEntity
  8
3_ALL_AXES
100
AcDbSpline
 62
7
  6
CONTINUOUS
 70
0
 71
3
 72
8
 73
4
 74
0
 42
0.0000001
 43
0.0000001
 44
0.0000000001
 40
0.0
 40
0.0
 40
0.0
 40
0.0
 40
1.0
 40
1.0
 40
1.0
 40
1.0
 10
87.2227725345
 20
57.67976691
 30
0.0
 10
87.2310284897
 20
57.6726000845
 30
0.0
 10
87.2387274584
 20
57.6647154689
 30
0.0
 10
87.2455786338
 20
57.6561957517
 30
0.0
  0
SPLINE
  5
73A
100
AcDbEntity
  8
3_ALL_AXES
100
AcDbSpline
 62
7
  6
CONTINUOUS
 70
0
 71
3
 72
9
 73
5
 74
0
 42
0.0000001
 43
0.0000001
 44
0.0000000001
 40
0.0
 40
0.0
 40
0.0
 40
0.0
 40
0.4916831934
 40
1.0
 40
1.0
 40
1.0
 40
1.0
 10
87.2756818667
 20
57.3590761963
 30
0.0
 10
87.2746683631
 20
57.3591077818
 30
0.0
 10
87.2726090408
 20
57.3592592961
 30
0.0
 10
87.2705684019
 20
57.359571936
 30
0.0
 10
87.2695384826
 20
57.359767377
 30
0.0
  0
SPLINE
  5
73B
100
AcDbEntity
  8
3_ALL_AXES
100
AcDbSpline
 62
7
  6
CONTINUOUS
 70
0
 71
3
 72
8
 73
4
 74
0
 42
0.0000001
 43
0.0000001
 44
0.0000000001
 40
0.0
 40
0.0
 40
0.0
 40
0.0
 40
1.0
 40
1.0
 40
1.0
 40
1.0
 10
87.2695384826
 20
57.359767377
 30
0.0
 10
87.2631822615
 20
57.3609735551
 30
0.0
 10
87.2570459304
 20
57.3635516141
 30
0.0
 10
87.2514434132
 20
57.3667870759
 30
0.0
  0
SPLINE
  5
73C
100
AcDbEntity
  8
3_ALL_AXES
100
AcDbSpline
 62
7
  6
CONTINUOUS
 70
0
 71
3
 72
9
 73
5
 74
0
 42
0.0000001
 43
0.0000001
 44
0.0000000001
 40
0.0
 40
0.0
 40
0.0
 40
0.0
 40
0.5318017053
 40
1.0
 40
1.0
 40
1.0
 40
1.0
 10
87.2246752885
 20
57.4821601195
 30
0.0
 10
87.2458600919
 20
57.4699258646
 30
0.0
 10
87.2751708976
 20
57.4319243971
 30
0.0
 10
87.285903826
 20
57.3811016938
 30
0.0
 10
87.2770215612
 20
57.361480676
 30
0.0
  0
SPLINE
  5
73D
100
AcDbEntity
  8
3_ALL_AXES
100
AcDbSpline
 62
7
  6
CONTINUOUS
 70
0
 71
3
 72
8
 73
4
 74
0
 42
0.0000001
 43
0.0000001
 44
0.0000000001
 40
0.0
 40
0.0
 40
0.0
 40
0.0
 40
1.0
 40
1.0
 40
1.0
 40
1.0
 10
87.2770215612
 20
57.361480676
 30
0.0
 10
87.2752107549
 20
57.3574805856
 30
0.0
 10
87.2726358361
 20
57.3536986989
 30
0.0
 10
87.2693839766
 20
57.3507482493
 30
0.0
  0
SPLINE
  5
73E
100
AcDbEntity
  8
3_ALL_AXES
100
AcDbSpline
 62
7
  6
CONTINUOUS
 70
0
 71
3
 72
9
 73
5
 74
0
 42
0.0000001
 43
0.0000001
 44
0.0000000001
 40
0.0
 40
0.0
 40
0.0
 40
0.0
 40
0.2407003178
 40
1.0
 40
1.0
 40
1.0
 40
1.0
 10
87.1309868522
 20
57.4821601195
 30
0.0
 10
87.1376365964
 20
57.4860003565
 30
0.0
 10
87.1677715996
 20
57.4968715657
 30
0.0
 10
87.2036983797
 20
57.494274315
 30
0.0
 10
87.2246752885
 20
57.4821601195
 30
0.0
  0
SPLINE
  5
73F
100
AcDbEntity
  8
3_AXES_OTHER
100
AcDbSpline
 62
7
  6
CONTINUOUS
 70
0
 71
3
 72
9
 73
5
 74
0
 42
0.0000001
 43
0.0000001
 44
0.0000000001
 40
0.0
 40
0.0
 40
0.0
 40
0.0
 40
0.5318017053
 40
1.0
 40
1.0
 40
1.0
 40
1.0
 10
87.0193637724
 20
57.4176976277
 30
0.0
 10
86.998178969
 20
57.4054633728
 30
0.0
 10
86.9688681633
 20
57.3674619053
 30
0.0
 10
86.9581352348
 20
57.316639202
 30
0.0
 10
86.9670174997
 20
57.2970181842
 30
0.0
  0
SPLINE
  5
740
100
AcDbEntity
  8
3_AXES_OTHER
100
AcDbSpline
 62
7
  6
CONTINUOUS
 70
0
 71
3
 72
8
 73
4
 74
0
 42
0.0000001
 43
0.0000001
 44
0.0000000001
 40
0.0
 40
0.0
 40
0.0
 40
0.0
 40
1.0
 40
1.0
 40
1.0
 40
1.0
 10
86.9670174997
 20
57.2970181842
 30
0.0
 10
86.968828306
 20
57.2930180938
 30
0.0
 10
86.9714032248
 20
57.289236207
 30
0.0
 10
86.9746550842
 20
57.2862857575
 30
0.0
  0
SPLINE
  5
741
100
AcDbEntity
  8
3_AXES_OTHER
100
AcDbSpline
 62
7
  6
CONTINUOUS
 70
0
 71
3
 72
9
 73
5
 74
0
 42
0.0000001
 43
0.0000001
 44
0.0000000001
 40
0.0
 40
0.0
 40
0.0
 40
0.0
 40
0.4916831934
 40
1.0
 40
1.0
 40
1.0
 40
1.0
 10
86.9683571942
 20
57.2946137044
 30
0.0
 10
86.9693706978
 20
57.29464529
 30
0.0
 10
86.9714300201
 20
57.2947968043
 30
0.0
 10
86.973470659
 20
57.2951094442
 30
0.0
 10
86.9745005783
 20
57.2953048852
 30
0.0
  0
SPLINE
  5
742
100
AcDbEntity
  8
3_AXES_OTHER
100
AcDbSpline
 62
7
  6
CONTINUOUS
 70
0
 71
3
 72
8
 73
4
 74
0
 42
0.0000001
 43
0.0000001
 44
0.0000000001
 40
0.0
 40
0.0
 40
0.0
 40
0.0
 40
1.0
 40
1.0
 40
1.0
 40
1.0
 10
86.9745005783
 20
57.2953048852
 30
0.0
 10
86.9808567994
 20
57.2965110633
 30
0.0
 10
86.9869931305
 20
57.2990891222
 30
0.0
 10
86.9925956477
 20
57.3023245841
 30
0.0
  0
SPLINE
  5
743
100
AcDbEntity
  8
3_AXES_OTHER
100
AcDbSpline
 62
7
  6
CONTINUOUS
 70
0
 71
3
 72
9
 73
5
 74
0
 42
0.0000001
 43
0.0000001
 44
0.0000000001
 40
0.0
 40
0.0
 40
0.0
 40
0.0
 40
0.4916831934
 40
1.0
 40
1.0
 40
1.0
 40
1.0
 10
96.6815504445
 20
50.2133740592
 30
0.0
 10
96.6825639481
 20
50.2134056447
 30
0.0
 10
96.6846232704
 20
50.213557159
 30
0.0
 10
96.6866639093
 20
50.2138697989
 30
0.0
 10
96.6876938286
 20
50.2140652399
 30
0.0
  0
SPLINE
  5
744
100
AcDbEntity
  8
3_AXES_OTHER
100
AcDbSpline
 62
7
  6
CONTINUOUS
 70
0
 71
3
 72
8
 73
4
 74
0
 42
0.0000001
 43
0.0000001
 44
0.0000000001
 40
0.0
 40
0.0
 40
0.0
 40
0.0
 40
1.0
 40
1.0
 40
1.0
 40
1.0
 10
96.6876938286
 20
50.2140652399
 30
0.0
 10
96.6940500497
 20
50.215271418
 30
0.0
 10
96.7001863808
 20
50.217849477
 30
0.0
 10
96.705788898
 20
50.2210849388
 30
0.0
  0
SPLINE
  5
745
100
AcDbEntity
  8
3_AXES_OTHER
100
AcDbSpline
 62
7
  6
CONTINUOUS
 70
0
 71
3
 72
9
 73
5
 74
0
 42
0.0000001
 43
0.0000001
 44
0.0000000001
 40
0.0
 40
0.0
 40
0.0
 40
0.0
 40
0.4916831934
 40
1.0
 40
1.0
 40
1.0
 40
1.0
 10
96.6815504445
 20
51.6852303999
 30
0.0
 10
96.6825639481
 20
51.6852619855
 30
0.0
 10
96.6846232704
 20
51.6854134998
 30
0.0
 10
96.6866639093
 20
51.6857261397
 30
0.0
 10
96.6876938286
 20
51.6859215807
 30
0.0
  0
SPLINE
  5
746
100
AcDbEntity
  8
3_AXES_OTHER
100
AcDbSpline
 62
7
  6
CONTINUOUS
 70
0
 71
3
 72
8
 73
4
 74
0
 42
0.0000001
 43
0.0000001
 44
0.0000000001
 40
0.0
 40
0.0
 40
0.0
 40
0.0
 40
1.0
 40
1.0
 40
1.0
 40
1.0
 10
96.6876938286
 20
51.6859215807
 30
0.0
 10
96.6940500497
 20
51.6871277587
 30
0.0
 10
96.7001863808
 20
51.6897058177
 30
0.0
 10
96.705788898
 20
51.6929412796
 30
0.0
  0
SPLINE
  5
747
100
AcDbEntity
  8
7_ALL_ROUNDS
100
AcDbSpline
 62
7
  6
CONTINUOUS
 70
0
 71
3
 72
9
 73
5
 74
0
 42
0.0000001
 43
0.0000001
 44
0.0000000001
 40
0.0
 40
0.0
 40
0.0
 40
0.0
 40
0.2403989587
 40
1.0
 40
1.0
 40
1.0
 40
1.0
 10
96.7589162097
 20
51.1477190269
 30
0.0
 10
96.7600671256
 20
51.140159747
 30
0.0
 10
96.7677551265
 20
51.1092177702
 30
0.0
 10
96.7847296743
 20
51.0806587853
 30
0.0
 10
96.8013506592
 20
51.0631236088
 30
0.0
  0
SPLINE
  5
748
100
AcDbEntity
  8
7_ALL_ROUNDS
100
AcDbSpline
 62
7
  6
CONTINUOUS
 70
0
 71
3
 72
8
 73
4
 74
0
 42
0.0000001
 43
0.0000001
 44
0.0000000001
 40
0.0
 40
0.0
 40
0.0
 40
0.0
 40
1.0
 40
1.0
 40
1.0
 40
1.0
 10
96.8013506592
 20
51.0631236088
 30
0.0
 10
96.8069484662
 20
51.0572179098
 30
0.0
 10
96.8130599529
 20
51.0517389414
 30
0.0
 10
96.8196537234
 20
51.0469708269
 30
0.0
  0
SPLINE
  5
749
100
AcDbEntity
  8
7_ALL_ROUNDS
100
AcDbSpline
 62
7
  6
CONTINUOUS
 70
0
 71
3
 72
8
 73
4
 74
0
 42
0.0000001
 43
0.0000001
 44
0.0000000001
 40
0.0
 40
0.0
 40
0.0
 40
0.0
 40
1.0
 40
1.0
 40
1.0
 40
1.0
 10
96.8196537234
 20
51.0469708269
 30
0.0
 10
96.8224892754
 20
51.0449203708
 30
0.0
 10
96.8254235913
 20
51.0429971001
 30
0.0
 10
96.8284538293
 20
51.0412471333
 30
0.0
  0
SPLINE
  5
74A
100
AcDbEntity
  8
7_ALL_ROUNDS
100
AcDbSpline
 62
7
  6
CONTINUOUS
 70
0
 71
3
 72
9
 73
5
 74
0
 42
0.0000001
 43
0.0000001
 44
0.0000000001
 40
0.0
 40
0.0
 40
0.0
 40
0.0
 40
0.4999743453
 40
1.0
 40
1.0
 40
1.0
 40
1.0
 10
96.6617330261
 20
51.0085896482
 30
0.0
 10
96.6617330261
 20
51.0328619257
 30
0.0
 10
96.6783219147
 20
51.0807916241
 30
0.0
 10
96.7115358328
 20
51.1191206386
 30
0.0
 10
96.7325570226
 20
51.1312604064
 30
0.0
  0
SPLINE
  5
74B
100
AcDbEntity
  8
3_ALL_AXES
100
AcDbSpline
 62
7
  6
CONTINUOUS
 70
0
 71
3
 72
9
 73
5
 74
0
 42
0.0000001
 43
0.0000001
 44
0.0000000001
 40
0.0
 40
0.0
 40
0.0
 40
0.0
 40
0.2208776002
 40
1.0
 40
1.0
 40
1.0
 40
1.0
 10
96.8746713333
 20
51.7844563759
 30
0.0
 10
96.8746713333
 20
51.7884203918
 30
0.0
 10
96.8714626052
 20
51.8064893242
 30
0.0
 10
96.8562886375
 20
51.8199749148
 30
0.0
 10
96.8441801025
 20
51.8269676115
 30
0.0
  0
SPLINE
  5
74C
100
AcDbEntity
  8
3_ALL_AXES
100
AcDbSpline
 62
7
  6
CONTINUOUS
 70
0
 71
3
 72
9
 73
5
 74
0
 42
0.0000001
 43
0.0000001
 44
0.0000000001
 40
0.0
 40
0.0
 40
0.0
 40
0.0
 40
0.2208776002
 40
1.0
 40
1.0
 40
1.0
 40
1.0
 10
96.8746713333
 20
50.9896539519
 30
0.0
 10
96.8746713333
 20
50.9936179678
 30
0.0
 10
96.8714626052
 20
51.0116869002
 30
0.0
 10
96.8562886375
 20
51.0251724908
 30
0.0
 10
96.8441801025
 20
51.0321651875
 30
0.0
  0
SPLINE
  5
74D
100
AcDbEntity
  8
3_ALL_AXES
100
AcDbSpline
 62
7
  6
CONTINUOUS
 70
0
 71
3
 72
9
 73
5
 74
0
 42
0.0000001
 43
0.0000001
 44
0.0000000001
 40
0.0
 40
0.0
 40
0.0
 40
0.0
 40
0.2208776002
 40
1.0
 40
1.0
 40
1.0
 40
1.0
 10
96.8746713333
 20
50.3126000351
 30
0.0
 10
96.8746713333
 20
50.3165640511
 30
0.0
 10
96.8714626052
 20
50.3346329835
 30
0.0
 10
96.8562886375
 20
50.3481185741
 30
0.0
 10
96.8441801025
 20
50.3551112708
 30
0.0
  0
SPLINE
  5
74E
100
AcDbEntity
  8
3_AXES_OTHER
100
AcDbSpline
 62
7
  6
CONTINUOUS
 70
0
 71
3
 72
9
 73
5
 74
0
 42
0.0000001
 43
0.0000001
 44
0.0000000001
 40
0.0
 40
0.0
 40
0.0
 40
0.0
 40
0.2208476161
 40
1.0
 40
1.0
 40
1.0
 40
1.0
 10
77.4791875459
 20
52.655410983
 30
0.0
 10
77.4825680048
 20
52.6573656585
 30
0.0
 10
77.4995672132
 20
52.6635293373
 30
0.0
 10
77.5185462101
 20
52.6572157394
 30
0.0
 10
77.5304762534
 20
52.6503261219
 30
0.0
  0
SPLINE
  5
74F
100
AcDbEntity
  8
3_AXES_OTHER
100
AcDbSpline
 62
7
  6
CONTINUOUS
 70
0
 71
3
 72
9
 73
5
 74
0
 42
0.0000001
 43
0.0000001
 44
0.0000000001
 40
0.0
 40
0.0
 40
0.0
 40
0.0
 40
0.2208476161
 40
1.0
 40
1.0
 40
1.0
 40
1.0
 10
87.8691905216
 20
46.6551690724
 30
0.0
 10
87.8725709805
 20
46.657123748
 30
0.0
 10
87.8895701889
 20
46.6632874267
 30
0.0
 10
87.9085491858
 20
46.6569738288
 30
0.0
 10
87.9204792291
 20
46.6500842113
 30
0.0
  0
SPLINE
  5
750
100
AcDbEntity
  8
7_ALL_ROUNDS
100
AcDbSpline
 62
7
  6
CONTINUOUS
 70
0
 71
3
 72
8
 73
4
 74
0
 42
0.0000001
 43
0.0000001
 44
0.0000000001
 40
0.0
 40
0.0
 40
0.0
 40
0.0
 40
1.0
 40
1.0
 40
1.0
 40
1.0
 10
84.5693837868
 20
47.6966121497
 30
0.0
 10
84.5426077306
 20
47.649994872
 30
0.0
 10
84.5288304946
 20
47.5942740746
 30
0.0
 10
84.5288304957
 20
47.540514166
 30
0.0
  0
SPLINE
  5
751
100
AcDbEntity
  8
7_ALL_ROUNDS
100
AcDbSpline
 62
7
  6
CONTINUOUS
 70
0
 71
3
 72
11
 73
7
 74
0
 42
0.0000001
 43
0.0000001
 44
0.0000000001
 40
0.0
 40
0.0
 40
0.0
 40
0.0
 40
0.2511232594
 40
0.5034431262
 40
0.7517341725
 40
1.0
 40
1.0
 40
1.0
 40
1.0
 10
84.5288304957
 20
47.540514166
 30
0.0
 10
84.5288304969
 20
47.4820377855
 30
0.0
 10
84.5595731831
 20
47.363941218
 30
0.0
 10
84.6716975778
 20
47.222961859
 30
0.0
 10
84.8381742229
 20
47.147511117
 30
0.0
 10
84.9607910521
 20
47.1690866884
 30
0.0
 10
85.0119506017
 20
47.1960090269
 30
0.0
  0
SPLINE
  5
752
100
AcDbEntity
  8
3_ALL_AXES
100
AcDbSpline
 62
7
  6
CONTINUOUS
 70
0
 71
3
 72
9
 73
5
 74
0
 42
0.0000001
 43
0.0000001
 44
0.0000000001
 40
0.0
 40
0.0
 40
0.0
 40
0.0
 40
0.4491880558
 40
1.0
 40
1.0
 40
1.0
 40
1.0
 10
84.4027286103
 20
47.8093014871
 30
0.0
 10
84.4378361095
 20
47.829589007
 30
0.0
 10
84.5339002621
 20
47.8440020964
 30
0.0
 10
84.6200455529
 20
47.8087389314
 30
0.0
 10
84.6632127431
 20
47.7840651631
 30
0.0
  0
SPLINE
  5
753
100
AcDbEntity
  8
3_ALL_AXES
100
AcDbSpline
 62
7
  6
CONTINUOUS
 70
0
 71
3
 72
9
 73
5
 74
0
 42
0.0000001
 43
0.0000001
 44
0.0000000001
 40
0.0
 40
0.0
 40
0.0
 40
0.0
 40
0.5085010517
 40
1.0
 40
1.0
 40
1.0
 40
1.0
 10
84.6969292422
 20
47.7630080983
 30
0.0
 10
84.7896618616
 20
47.7001410013
 30
0.0
 10
84.9368230268
 20
47.5262704192
 30
0.0
 10
85.0106882953
 20
47.3083934585
 30
0.0
 10
85.0114801741
 20
47.2001083207
 30
0.0
  0
SPLINE
  5
754
100
AcDbEntity
  8
3_ALL_AXES
100
AcDbSpline
 62
7
  6
CONTINUOUS
 70
0
 71
3
 72
12
 73
8
 74
0
 42
0.0000001
 43
0.0000001
 44
0.0000000001
 40
0.0
 40
0.0
 40
0.0
 40
0.0
 40
0.0851187163
 40
0.1832431885
 40
0.3651628868
 40
0.5801538608
 40
1.0
 40
1.0
 40
1.0
 40
1.0
 10
80.4690444175
 20
49.8085188422
 30
0.0
 10
80.4804539286
 20
49.8151036768
 30
0.0
 10
80.5094194944
 20
49.8222046775
 30
0.0
 10
80.5657402982
 20
49.8092828325
 30
0.0
 10
80.6300692894
 20
49.7640861316
 30
0.0
 10
80.7093334432
 20
49.6654418893
 30
0.0
 10
80.7460614741
 20
49.5670259038
 30
0.0
 10
80.7460614741
 20
49.5020486833
 30
0.0
  0
SPLINE
  5
755
100
AcDbEntity
  8
7_ALL_ROUNDS
100
AcDbSpline
 62
7
  6
CONTINUOUS
 70
0
 71
3
 72
9
 73
5
 74
0
 42
0.0000001
 43
0.0000001
 44
0.0000000001
 40
0.0
 40
0.0
 40
0.0
 40
0.0
 40
0.5000256547
 40
1.0
 40
1.0
 40
1.0
 40
1.0
 10
77.2184268401
 20
50.5954817198
 30
0.0
 10
77.27735238
 20
50.5614521344
 30
0.0
 10
77.3704559615
 20
50.4540101726
 30
0.0
 10
77.416957098
 20
50.3196560574
 30
0.0
 10
77.416957098
 20
50.2516172321
 30
0.0
  0
SPLINE
  5
756
100
AcDbEntity
  8
7_ALL_ROUNDS
100
AcDbSpline
 62
7
  6
CONTINUOUS
 70
0
 71
3
 72
9
 73
5
 74
0
 42
0.0000001
 43
0.0000001
 44
0.0000000001
 40
0.0
 40
0.0
 40
0.0
 40
0.0
 40
0.550784148
 40
1.0
 40
1.0
 40
1.0
 40
1.0
 10
77.416957098
 20
52.1570208982
 30
0.0
 10
77.416957098
 20
52.130217887
 30
0.0
 10
77.4104534373
 20
52.0804141143
 30
0.0
 10
77.3777665897
 20
52.039471529
 30
0.0
 10
77.3588361877
 20
52.0285392355
 30
0.0
  0
SPLINE
  5
757
100
AcDbEntity
  8
3_ALL_AXES
100
AcDbSpline
 62
7
  6
CONTINUOUS
 70
0
 71
3
 72
9
 73
5
 74
0
 42
0.0000001
 43
0.0000001
 44
0.0000000001
 40
0.0
 40
0.0
 40
0.0
 40
0.0
 40
0.2407003178
 40
1.0
 40
1.0
 40
1.0
 40
1.0
 10
87.1309868522
 20
57.3513284448
 30
0.0
 10
87.1376365964
 20
57.3551686818
 30
0.0
 10
87.1677715996
 20
57.366039891
 30
0.0
 10
87.2036983797
 20
57.3634426403
 30
0.0
 10
87.2246752885
 20
57.3513284448
 30
0.0
  0
SPLINE
  5
758
100
AcDbEntity
  8
3_ALL_AXES
100
AcDbSpline
 62
7
  6
CONTINUOUS
 70
0
 71
3
 72
9
 73
5
 74
0
 42
0.0000001
 43
0.0000001
 44
0.0000000001
 40
0.0
 40
0.0
 40
0.0
 40
0.0
 40
0.2946434926
 40
1.0
 40
1.0
 40
1.0
 40
1.0
 10
96.7722184607
 20
51.4223698781
 30
0.0
 10
96.7722184607
 20
51.425205947
 30
0.0
 10
96.7715737134
 20
51.4347017118
 30
0.0
 10
96.7664535548
 20
51.4446770191
 30
0.0
 10
96.7605672116
 20
51.4480602607
 30
0.0
  0
SPLINE
  5
759
100
AcDbEntity
  8
3_ALL_AXES
100
AcDbSpline
 62
7
  6
CONTINUOUS
 70
0
 71
3
 72
9
 73
5
 74
0
 42
0.0000001
 43
0.0000001
 44
0.0000000001
 40
0.0
 40
0.0
 40
0.0
 40
0.0
 40
0.2747318005
 40
1.0
 40
1.0
 40
1.0
 40
1.0
 10
87.2229908758
 20
57.6352935176
 30
0.0
 10
87.217367194
 20
57.6427790808
 30
0.0
 10
87.1947469634
 20
57.6668973848
 30
0.0
 10
87.1523906718
 20
57.6835614936
 30
0.0
 10
87.1309868522
 20
57.6712007565
 30
0.0
  0
SPLINE
  5
75A
100
AcDbEntity
  8
3_ALL_AXES
100
AcDbSpline
 62
7
  6
CONTINUOUS
 70
0
 71
3
 72
9
 73
5
 74
0
 42
0.0000001
 43
0.0000001
 44
0.0000000001
 40
0.0
 40
0.0
 40
0.0
 40
0.0
 40
0.2946434926
 40
1.0
 40
1.0
 40
1.0
 40
1.0
 10
96.7722184607
 20
50.6373798297
 30
0.0
 10
96.7722184607
 20
50.6402158986
 30
0.0
 10
96.7715737134
 20
50.6497116634
 30
0.0
 10
96.7664535548
 20
50.6596869707
 30
0.0
 10
96.7605672116
 20
50.6630702123
 30
0.0
  0
SPLINE
  5
75B
100
AcDbEntity
  8
3_ALL_AXES
100
AcDbSpline
 62
7
  6
CONTINUOUS
 70
0
 71
3
 72
9
 73
5
 74
0
 42
0.0000001
 43
0.0000001
 44
0.0000000001
 40
0.0
 40
0.0
 40
0.0
 40
0.0
 40
0.2949404425
 40
1.0
 40
1.0
 40
1.0
 40
1.0
 10
96.8441801025
 20
51.7419451403
 30
0.0
 10
96.8487393067
 20
51.7445780874
 30
0.0
 10
96.8634006229
 20
51.7544086751
 30
0.0
 10
96.8746713333
 20
51.7718706483
 30
0.0
 10
96.8746713333
 20
51.7844563759
 30
0.0
  0
SPLINE
  5
75C
100
AcDbEntity
  8
3_ALL_AXES
100
AcDbSpline
 62
7
  6
CONTINUOUS
 70
0
 71
3
 72
9
 73
5
 74
0
 42
0.0000001
 43
0.0000001
 44
0.0000000001
 40
0.0
 40
0.0
 40
0.0
 40
0.0
 40
0.2949404425
 40
1.0
 40
1.0
 40
1.0
 40
1.0
 10
96.8441801025
 20
50.9471427163
 30
0.0
 10
96.8487393067
 20
50.9497756634
 30
0.0
 10
96.8634006229
 20
50.9596062511
 30
0.0
 10
96.8746713333
 20
50.9770682243
 30
0.0
 10
96.8746713333
 20
50.9896539519
 30
0.0
  0
SPLINE
  5
75D
100
AcDbEntity
  8
3_AXES_OTHER
100
AcDbSpline
 62
7
  6
CONTINUOUS
 70
0
 71
3
 72
8
 73
4
 74
0
 42
0.0000001
 43
0.0000001
 44
0.0000000001
 40
0.0
 40
0.0
 40
0.0
 40
0.0
 40
1.0
 40
1.0
 40
1.0
 40
1.0
 10
87.1044333
 20
57.7167118342
 30
0.0
 10
87.0889173461
 20
57.7177953326
 30
0.0
 10
87.073294988
 20
57.717778105
 30
0.0
 10
87.0577721629
 20
57.7167979551
 30
0.0
  0
SPLINE
  5
75E
100
AcDbEntity
  8
3_AXES_OTHER
100
AcDbSpline
 62
7
  6
CONTINUOUS
 70
0
 71
3
 72
9
 73
5
 74
0
 42
0.0000001
 43
0.0000001
 44
0.0000000001
 40
0.0
 40
0.0
 40
0.0
 40
0.0
 40
0.235021614
 40
1.0
 40
1.0
 40
1.0
 40
1.0
 10
87.0577721629
 20
57.7167979551
 30
0.0
 10
87.0449014821
 20
57.7159852683
 30
0.0
 10
86.9903159369
 20
57.7097122583
 30
0.0
 10
86.9372443499
 20
57.6929422825
 30
0.0
 10
86.8986827202
 20
57.6763581666
 30
0.0
  0
SPLINE
  5
75F
100
AcDbEntity
  8
3_ALL_AXES
100
AcDbSpline
 62
7
  6
CONTINUOUS
 70
0
 71
3
 72
9
 73
5
 74
0
 42
0.0000001
 43
0.0000001
 44
0.0000000001
 40
0.0
 40
0.0
 40
0.0
 40
0.0
 40
0.5471757656
 40
1.0
 40
1.0
 40
1.0
 40
1.0
 10
84.2990247677
 20
47.5841104723
 30
0.0
 10
84.2990247677
 20
47.6309388043
 30
0.0
 10
84.3110014198
 20
47.7186256463
 30
0.0
 10
84.3691745841
 20
47.7899116703
 30
0.0
 10
84.4027286103
 20
47.8093014871
 30
0.0
  0
SPLINE
  5
760
100
AcDbEntity
  8
3_ALL_AXES
100
AcDbSpline
 62
7
  6
CONTINUOUS
 70
0
 71
3
 72
9
 73
5
 74
0
 42
0.0000001
 43
0.0000001
 44
0.0000000001
 40
0.0
 40
0.0
 40
0.0
 40
0.0
 40
0.2949404425
 40
1.0
 40
1.0
 40
1.0
 40
1.0
 10
96.8441801025
 20
50.2700887995
 30
0.0
 10
96.8487393067
 20
50.2727217466
 30
0.0
 10
96.8634006229
 20
50.2825523344
 30
0.0
 10
96.8746713333
 20
50.3000143075
 30
0.0
 10
96.8746713333
 20
50.3126000351
 30
0.0
  0
SPLINE
  5
761
100
AcDbEntity
  8
3_AXES_OTHER
100
AcDbSpline
 62
7
  6
CONTINUOUS
 70
0
 71
3
 72
8
 73
4
 74
0
 42
0.0000001
 43
0.0000001
 44
0.0000000001
 40
0.0
 40
0.0
 40
0.0
 40
0.0
 40
1.0
 40
1.0
 40
1.0
 40
1.0
 10
96.8441801025
 20
52.1043593338
 30
0.0
 10
96.8200432019
 20
52.1081071619
 30
0.0
 10
96.7953430025
 20
52.1089539123
 30
0.0
 10
96.7709654132
 20
52.1074146506
 30
0.0
  0
SPLINE
  5
762
100
AcDbEntity
  8
3_AXES_OTHER
100
AcDbSpline
 62
7
  6
CONTINUOUS
 70
0
 71
3
 72
9
 73
5
 74
0
 42
0.0000001
 43
0.0000001
 44
0.0000000001
 40
0.0
 40
0.0
 40
0.0
 40
0.0
 40
0.235021614
 40
1.0
 40
1.0
 40
1.0
 40
1.0
 10
96.7709654132
 20
52.1074146506
 30
0.0
 10
96.7580947324
 20
52.1066019638
 30
0.0
 10
96.7035091872
 20
52.1003289538
 30
0.0
 10
96.6504376002
 20
52.083558978
 30
0.0
 10
96.6118759705
 20
52.0669748621
 30
0.0
  0
SPLINE
  5
763
100
AcDbEntity
  8
3_AXES_OTHER
100
AcDbSpline
 62
7
  6
CONTINUOUS
 70
0
 71
3
 72
8
 73
4
 74
0
 42
0.0000001
 43
0.0000001
 44
0.0000000001
 40
0.0
 40
0.0
 40
0.0
 40
0.0
 40
1.0
 40
1.0
 40
1.0
 40
1.0
 10
86.9792920046
 20
57.2828931609
 30
0.0
 10
86.9853771087
 20
57.2793745841
 30
0.0
 10
86.9931893225
 20
57.2785203668
 30
0.0
 10
87.000127844
 20
57.2796454423
 30
0.0
  0
SPLINE
  5
764
100
AcDbEntity
  8
3_AXES_OTHER
100
AcDbSpline
 62
7
  6
CONTINUOUS
 70
0
 71
3
 72
8
 73
4
 74
0
 42
0.0000001
 43
0.0000001
 44
0.0000000001
 40
0.0
 40
0.0
 40
0.0
 40
0.0
 40
1.0
 40
1.0
 40
1.0
 40
1.0
 10
87.000127844
 20
57.2796454423
 30
0.0
 10
87.0068883632
 20
57.2807416548
 30
0.0
 10
87.0134329107
 20
57.2834408717
 30
0.0
 10
87.0193637724
 20
57.286865953
 30
0.0
  0
SPLINE
  5
765
100
AcDbEntity
  8
3_AXES_OTHER
100
AcDbSpline
 62
7
  6
CONTINUOUS
 70
0
 71
3
 72
8
 73
4
 74
0
 42
0.0000001
 43
0.0000001
 44
0.0000000001
 40
0.0
 40
0.0
 40
0.0
 40
0.0
 40
1.0
 40
1.0
 40
1.0
 40
1.0
 10
96.6924852548
 20
50.2016535156
 30
0.0
 10
96.698570359
 20
50.1981349388
 30
0.0
 10
96.7063825728
 20
50.1972807215
 30
0.0
 10
96.7133210943
 20
50.198405797
 30
0.0
  0
SPLINE
  5
766
100
AcDbEntity
  8
3_AXES_OTHER
100
AcDbSpline
 62
7
  6
CONTINUOUS
 70
0
 71
3
 72
8
 73
4
 74
0
 42
0.0000001
 43
0.0000001
 44
0.0000000001
 40
0.0
 40
0.0
 40
0.0
 40
0.0
 40
1.0
 40
1.0
 40
1.0
 40
1.0
 10
96.7133210943
 20
50.198405797
 30
0.0
 10
96.7200816135
 20
50.1995020095
 30
0.0
 10
96.726626161
 20
50.2022012264
 30
0.0
 10
96.7325570226
 20
50.2056263077
 30
0.0
  0
SPLINE
  5
767
100
AcDbEntity
  8
3_AXES_OTHER
100
AcDbSpline
 62
7
  6
CONTINUOUS
 70
0
 71
3
 72
8
 73
4
 74
0
 42
0.0000001
 43
0.0000001
 44
0.0000000001
 40
0.0
 40
0.0
 40
0.0
 40
0.0
 40
1.0
 40
1.0
 40
1.0
 40
1.0
 10
96.6924852548
 20
51.6735098563
 30
0.0
 10
96.698570359
 20
51.6699912795
 30
0.0
 10
96.7063825728
 20
51.6691370623
 30
0.0
 10
96.7133210943
 20
51.6702621377
 30
0.0
  0
SPLINE
  5
768
100
AcDbEntity
  8
3_AXES_OTHER
100
AcDbSpline
 62
7
  6
CONTINUOUS
 70
0
 71
3
 72
8
 73
4
 74
0
 42
0.0000001
 43
0.0000001
 44
0.0000000001
 40
0.0
 40
0.0
 40
0.0
 40
0.0
 40
1.0
 40
1.0
 40
1.0
 40
1.0
 10
96.7133210943
 20
51.6702621377
 30
0.0
 10
96.7200816135
 20
51.6713583502
 30
0.0
 10
96.726626161
 20
51.6740575672
 30
0.0
 10
96.7325570226
 20
51.6774826484
 30
0.0
  0
SPLINE
  5
769
100
AcDbEntity
  8
3_ALL_AXES
100
AcDbSpline
 62
7
  6
CONTINUOUS
 70
0
 71
3
 72
8
 73
4
 74
0
 42
0.0000001
 43
0.0000001
 44
0.0000000001
 40
0.0
 40
0.0
 40
0.0
 40
0.0
 40
1.0
 40
1.0
 40
1.0
 40
1.0
 10
96.8368154883
 20
51.7844563759
 30
0.0
 10
96.8368154883
 20
51.7922537253
 30
0.0
 10
96.8319653688
 20
51.8000862492
 30
0.0
 10
96.8261417772
 20
51.8052712697
 30
0.0
  0
SPLINE
  5
76A
100
AcDbEntity
  8
3_ALL_AXES
100
AcDbSpline
 62
7
  6
CONTINUOUS
 70
0
 71
3
 72
8
 73
4
 74
0
 42
0.0000001
 43
0.0000001
 44
0.0000000001
 40
0.0
 40
0.0
 40
0.0
 40
0.0
 40
1.0
 40
1.0
 40
1.0
 40
1.0
 10
96.8261417772
 20
51.8052712697
 30
0.0
 10
96.8234706468
 20
51.8076495042
 30
0.0
 10
96.8205090646
 20
51.8097204082
 30
0.0
 10
96.8174119778
 20
51.8115089804
 30
0.0
  0
SPLINE
  5
76B
100
AcDbEntity
  8
3_ALL_AXES
100
AcDbSpline
 62
7
  6
CONTINUOUS
 70
0
 71
3
 72
9
 73
5
 74
0
 42
0.0000001
 43
0.0000001
 44
0.0000000001
 40
0.0
 40
0.0
 40
0.0
 40
0.0
 40
0.2208776002
 40
1.0
 40
1.0
 40
1.0
 40
1.0
 10
96.8368154883
 20
50.9896539519
 30
0.0
 10
96.8368154883
 20
50.9921765075
 30
0.0
 10
96.8347735704
 20
51.003674919
 30
0.0
 10
96.8251174092
 20
51.0122566585
 30
0.0
 10
96.8174119778
 20
51.0167065564
 30
0.0
  0
SPLINE
  5
76C
100
AcDbEntity
  8
3_ALL_AXES
100
AcDbSpline
 62
7
  6
CONTINUOUS
 70
0
 71
3
 72
8
 73
4
 74
0
 42
0.0000001
 43
0.0000001
 44
0.0000000001
 40
0.0
 40
0.0
 40
0.0
 40
0.0
 40
1.0
 40
1.0
 40
1.0
 40
1.0
 10
96.8368154883
 20
50.3126000351
 30
0.0
 10
96.8368154883
 20
50.3203973845
 30
0.0
 10
96.8319653688
 20
50.3282299084
 30
0.0
 10
96.8261417772
 20
50.333414929
 30
0.0
  0
SPLINE
  5
76D
100
AcDbEntity
  8
3_ALL_AXES
100
AcDbSpline
 62
7
  6
CONTINUOUS
 70
0
 71
3
 72
8
 73
4
 74
0
 42
0.0000001
 43
0.0000001
 44
0.0000000001
 40
0.0
 40
0.0
 40
0.0
 40
0.0
 40
1.0
 40
1.0
 40
1.0
 40
1.0
 10
96.8261417772
 20
50.333414929
 30
0.0
 10
96.8234706468
 20
50.3357931634
 30
0.0
 10
96.8205090646
 20
50.3378640675
 30
0.0
 10
96.8174119778
 20
50.3396526396
 30
0.0
  0
SPLINE
  5
76E
100
AcDbEntity
  8
7_ALL_ROUNDS
100
AcDbSpline
 62
7
  6
CONTINUOUS
 70
0
 71
3
 72
9
 73
5
 74
0
 42
0.0000001
 43
0.0000001
 44
0.0000000001
 40
0.0
 40
0.0
 40
0.0
 40
0.0
 40
0.2307007362
 40
1.0
 40
1.0
 40
1.0
 40
1.0
 10
96.8016857046
 20
51.0257885022
 30
0.0
 10
96.794276485
 20
51.0300673373
 30
0.0
 10
96.7647549956
 20
51.0528719848
 30
0.0
 10
96.744371256
 20
51.0867023469
 30
0.0
 10
96.7362528638
 20
51.1140539136
 30
0.0
  0
SPLINE
  5
76F
100
AcDbEntity
  8
7_ALL_ROUNDS
100
AcDbSpline
 62
7
  6
CONTINUOUS
 70
0
 71
3
 72
8
 73
4
 74
0
 42
0.0000001
 43
0.0000001
 44
0.0000000001
 40
0.0
 40
0.0
 40
0.0
 40
0.0
 40
1.0
 40
1.0
 40
1.0
 40
1.0
 10
96.7362528638
 20
51.1140539136
 30
0.0
 10
96.7344826545
 20
51.1200179021
 30
0.0
 10
96.7330844781
 20
51.1261101138
 30
0.0
 10
96.732148085
 20
51.1322603958
 30
0.0
  0
SPLINE
  5
770
100
AcDbEntity
  8
7_ALL_ROUNDS
100
AcDbSpline
 62
7
  6
CONTINUOUS
 70
0
 71
3
 72
8
 73
4
 74
0
 42
0.0000001
 43
0.0000001
 44
0.0000000001
 40
0.0
 40
0.0
 40
0.0
 40
0.0
 40
1.0
 40
1.0
 40
1.0
 40
1.0
 10
96.7325570226
 20
50.8826802244
 30
0.0
 10
96.7264954297
 20
50.8791796457
 30
0.0
 10
96.7199589448
 20
50.8763124881
 30
0.0
 10
96.7131679002
 20
50.8746158227
 30
0.0
  0
SPLINE
  5
771
100
AcDbEntity
  8
7_ALL_ROUNDS
100
AcDbSpline
 62
7
  6
CONTINUOUS
 70
0
 71
3
 72
8
 73
4
 74
0
 42
0.0000001
 43
0.0000001
 44
0.0000000001
 40
0.0
 40
0.0
 40
0.0
 40
0.0
 40
1.0
 40
1.0
 40
1.0
 40
1.0
 10
96.7131679002
 20
50.8746158227
 30
0.0
 10
96.7091185244
 20
50.873604132
 30
0.0
 10
96.7049221657
 20
50.8730077276
 30
0.0
 10
96.7007483443
 20
50.8730210518
 30
0.0
  0
SPLINE
  5
772
100
AcDbEntity
  8
7_ALL_ROUNDS
100
AcDbSpline
 62
7
  6
CONTINUOUS
 70
0
 71
3
 72
8
 73
4
 74
0
 42
0.0000001
 43
0.0000001
 44
0.0000000001
 40
0.0
 40
0.0
 40
0.0
 40
0.0
 40
1.0
 40
1.0
 40
1.0
 40
1.0
 10
96.7007483443
 20
50.8730210518
 30
0.0
 10
96.6944570937
 20
50.8730411354
 30
0.0
 10
96.6879153818
 20
50.8745680013
 30
0.0
 10
96.6824673098
 20
50.877714229
 30
0.0
  0
SPLINE
  5
773
100
AcDbEntity
  8
3_ALL_AXES
100
AcDbSpline
 62
7
  6
CONTINUOUS
 70
0
 71
3
 72
9
 73
5
 74
0
 42
0.0000001
 43
0.0000001
 44
0.0000000001
 40
0.0
 40
0.0
 40
0.0
 40
0.0
 40
0.2310457641
 40
1.0
 40
1.0
 40
1.0
 40
1.0
 10
96.8174119778
 20
51.8115089804
 30
0.0
 10
96.8146497693
 20
51.8131041599
 30
0.0
 10
96.8031435475
 20
51.8207786031
 30
0.0
 10
96.7933866375
 20
51.8309040047
 30
0.0
 10
96.7869566463
 20
51.8393510463
 30
0.0
  0
SPLINE
  5
774
100
AcDbEntity
  8
3_ALL_AXES
100
AcDbSpline
 62
7
  6
CONTINUOUS
 70
0
 71
3
 72
9
 73
5
 74
0
 42
0.0000001
 43
0.0000001
 44
0.0000000001
 40
0.0
 40
0.0
 40
0.0
 40
0.0
 40
0.2310457641
 40
1.0
 40
1.0
 40
1.0
 40
1.0
 10
96.8174119778
 20
50.3396526396
 30
0.0
 10
96.8146497693
 20
50.3412478191
 30
0.0
 10
96.8031435475
 20
50.3489222624
 30
0.0
 10
96.7933866375
 20
50.3590476639
 30
0.0
 10
96.7869566463
 20
50.3674947055
 30
0.0
  0
SPLINE
  5
775
100
AcDbEntity
  8
3_AXES_OTHER
100
AcDbSpline
 62
7
  6
CONTINUOUS
 70
0
 71
3
 72
9
 73
5
 74
0
 42
0.0000001
 43
0.0000001
 44
0.0000000001
 40
0.0
 40
0.0
 40
0.0
 40
0.0
 40
0.2208476161
 40
1.0
 40
1.0
 40
1.0
 40
1.0
 10
88.045424893
 20
44.4725329873
 30
0.0
 10
88.042044434
 20
44.4705783117
 30
0.0
 10
88.0250452256
 20
44.464414633
 30
0.0
 10
88.0060662287
 20
44.4707282309
 30
0.0
 10
87.9941361855
 20
44.4776178484
 30
0.0
  0
SPLINE
  5
776
100
AcDbEntity
  8
3_AXES_OTHER
100
AcDbSpline
 62
7
  6
CONTINUOUS
 70
0
 71
3
 72
9
 73
5
 74
0
 42
0.0000001
 43
0.0000001
 44
0.0000000001
 40
0.0
 40
0.0
 40
0.0
 40
0.0
 40
0.2208476161
 40
1.0
 40
1.0
 40
1.0
 40
1.0
 10
88.045424893
 20
46.4350081083
 30
0.0
 10
88.042044434
 20
46.4330534327
 30
0.0
 10
88.0250452256
 20
46.426889754
 30
0.0
 10
88.0060662287
 20
46.4332033519
 30
0.0
 10
87.9941361855
 20
46.4400929694
 30
0.0
  0
SPLINE
  5
777
100
AcDbEntity
  8
7_ALL_ROUNDS
100
AcDbSpline
 62
7
  6
CONTINUOUS
 70
0
 71
3
 72
9
 73
5
 74
0
 42
0.0000001
 43
0.0000001
 44
0.0000000001
 40
0.0
 40
0.0
 40
0.0
 40
0.0
 40
0.4491830432
 40
1.0
 40
1.0
 40
1.0
 40
1.0
 10
77.3588361877
 20
52.0285392355
 30
0.0
 10
77.3398958572
 20
52.0176012082
 30
0.0
 10
77.288061234
 20
52.0097591653
 30
0.0
 10
77.241652662
 20
52.0290464929
 30
0.0
 10
77.2184268401
 20
52.042459439
 30
0.0
  0
SPLINE
  5
778
100
AcDbEntity
  8
0
100
AcDbSpline
 62
7
  6
CONTINUOUS
 70
0
 71
3
 72
9
 73
5
 74
0
 42
0.0000001
 43
0.0000001
 44
0.0000000001
 40
0.0
 40
0.0
 40
0.0
 40
0.0
 40
0.6362967925
 40
1.0
 40
1.0
 40
1.0
 40
1.0
 10
83.8277681106
 20
48.4094902794
 30
0.0
 10
83.8282031514
 20
48.4096880391
 30
0.0
 10
83.8281264741
 20
48.4074548092
 30
0.0
 10
83.8288144865
 20
48.408592817
 30
0.0
 10
83.8290538775
 20
48.4087243642
 30
0.0
  0
LINE
  5
779
100
AcDbEntity
  8
0
100
AcDbLine
 62
7
  6
CONTINUOUS
 10
82.3969414961
 20
48.2444283209
 11
82.2406980822
 21
48.1543439074
  0
LINE
  5
77A
100
AcDbEntity
  8
0
100
AcDbLine
 62
7
  6
CONTINUOUS
 10
83.8277681106
 20
47.4269650056
 11
83.8290538775
 21
47.2459192236
  0
SPLINE
  5
77B
100
AcDbEntity
  8
3_ALL_AXES
100
AcDbSpline
 62
7
  6
CONTINUOUS
 70
0
 71
3
 72
13
 73
9
 74
0
 42
0.0000001
 43
0.0000001
 44
0.0000000001
 40
0.0
 40
0.0
 40
0.0
 40
0.0
 40
0.0894994775
 40
0.1911302167
 40
0.3097245191
 40
0.4437847019
 40
0.7329818703
 40
1.0
 40
1.0
 40
1.0
 40
1.0
 10
84.9067534241
 20
46.9710768153
 30
0.0
 10
84.8814449637
 20
46.956451851
 30
0.0
 10
84.8184868156
 20
46.9395399273
 30
0.0
 10
84.7167180637
 20
46.9571610544
 30
0.0
 10
84.6125350646
 20
47.0103783233
 30
0.0
 10
84.4764276116
 20
47.1253398258
 30
0.0
 10
84.3483384176
 20
47.3158323241
 30
0.0
 10
84.2990247677
 20
47.4969031726
 30
0.0
 10
84.2990247677
 20
47.5841104723
 30
0.0
  0
SPLINE
  5
77C
100
AcDbEntity
  8
3_ALL_AXES
100
AcDbSpline
 62
7
  6
CONTINUOUS
 70
0
 71
3
 72
8
 73
4
 74
0
 42
0.0000001
 43
0.0000001
 44
0.0000000001
 40
0.0
 40
0.0
 40
0.0
 40
0.0
 40
1.0
 40
1.0
 40
1.0
 40
1.0
 10
96.4148551885
 20
50.0413217463
 30
0.0
 10
96.4209402927
 20
50.0378031695
 30
0.0
 10
96.4287525064
 20
50.0369489523
 30
0.0
 10
96.4356910279
 20
50.0380740277
 30
0.0
  0
SPLINE
  5
77D
100
AcDbEntity
  8
3_ALL_AXES
100
AcDbSpline
 62
7
  6
CONTINUOUS
 70
0
 71
3
 72
8
 73
4
 74
0
 42
0.0000001
 43
0.0000001
 44
0.0000000001
 40
0.0
 40
0.0
 40
0.0
 40
0.0
 40
1.0
 40
1.0
 40
1.0
 40
1.0
 10
96.4356910279
 20
50.0380740277
 30
0.0
 10
96.4424515471
 20
50.0391702402
 30
0.0
 10
96.4489960947
 20
50.0418694572
 30
0.0
 10
96.4549269563
 20
50.0452945384
 30
0.0
  0
SPLINE
  5
77E
100
AcDbEntity
  8
3_ALL_AXES
100
AcDbSpline
 62
7
  6
CONTINUOUS
 70
0
 71
3
 72
9
 73
5
 74
0
 42
0.0000001
 43
0.0000001
 44
0.0000000001
 40
0.0
 40
0.0
 40
0.0
 40
0.0
 40
0.2396424691
 40
1.0
 40
1.0
 40
1.0
 40
1.0
 10
84.5770283261
 20
47.819682091
 30
0.0
 10
84.5757249886
 20
47.8134299797
 30
0.0
 10
84.5710516193
 20
47.7871828516
 30
0.0
 10
84.569288475
 20
47.7604518262
 30
0.0
 10
84.569288475
 20
47.7401881584
 30
0.0
  0
SPLINE
  5
77F
100
AcDbEntity
  8
3_ALL_AXES
100
AcDbSpline
 62
7
  6
CONTINUOUS
 70
0
 71
3
 72
12
 73
8
 74
0
 42
0.0000001
 43
0.0000001
 44
0.0000000001
 40
0.0
 40
0.0
 40
0.0
 40
0.0
 40
0.1793180694
 40
0.2965253773
 40
0.431186791
 40
0.7260194163
 40
1.0
 40
1.0
 40
1.0
 40
1.0
 10
80.6984019308
 20
49.3945430963
 30
0.0
 10
80.6743849451
 20
49.3806820209
 30
0.0
 10
80.6211853462
 20
49.3845667362
 30
0.0
 10
80.5644741898
 20
49.4189601452
 30
0.0
 10
80.5018356836
 20
49.4769347844
 30
0.0
 10
80.4441068132
 20
49.5711267843
 30
0.0
 10
80.4216276229
 20
49.6587849103
 30
0.0
 10
80.4216276229
 20
49.7011534382
 30
0.0
  0
LINE
  5
780
100
AcDbEntity
  8
0
100
AcDbLine
 62
7
  6
CONTINUOUS
 10
82.3344606768
 20
49.2629556362
 11
82.4125284232
 21
49.2179675838
  0
LINE
  5
781
100
AcDbEntity
  8
0
100
AcDbLine
 62
7
  6
CONTINUOUS
 10
82.4125284232
 20
49.2179675838
 11
82.4177594092
 21
49.214957465
  0
SPLINE
  5
782
100
AcDbEntity
  8
3_ALL_AXES
100
AcDbSpline
 62
7
  6
CONTINUOUS
 70
0
 71
3
 72
9
 73
5
 74
0
 42
0.0000001
 43
0.0000001
 44
0.0000000001
 40
0.0
 40
0.0
 40
0.0
 40
0.0
 40
0.2674387841
 40
1.0
 40
1.0
 40
1.0
 40
1.0
 10
84.8826280552
 20
47.1618053706
 30
0.0
 10
84.8922796807
 20
47.1551810995
 30
0.0
 10
84.9291540682
 20
47.1316333862
 30
0.0
 10
84.9695346277
 20
47.113135656
 30
0.0
 10
85.0003841029
 20
47.1043896828
 30
0.0
  0
LINE
  5
783
100
AcDbEntity
  8
0
100
AcDbLine
 62
7
  6
CONTINUOUS
 10
82.9002941324
 20
48.9361859914
 11
82.9780459783
 21
48.8913797379
  0
LINE
  5
784
100
AcDbEntity
  8
0
100
AcDbLine
 62
7
  6
CONTINUOUS
 10
83.8271167288
 20
48.4098071402
 11
83.8290538775
 21
48.4087243642
  0
SPLINE
  5
785
100
AcDbEntity
  8
7_ALL_ROUNDS
100
AcDbSpline
 62
7
  6
CONTINUOUS
 70
0
 71
3
 72
9
 73
5
 74
0
 42
0.0000001
 43
0.0000001
 44
0.0000000001
 40
0.0
 40
0.0
 40
0.0
 40
0.0
 40
0.550784148
 40
1.0
 40
1.0
 40
1.0
 40
1.0
 10
87.3343242192
 20
44.5243232186
 30
0.0
 10
87.3343242192
 20
44.5511262298
 30
0.0
 10
87.3408278799
 20
44.6009300025
 30
0.0
 10
87.3735147276
 20
44.6418725878
 30
0.0
 10
87.3924451295
 20
44.6528048813
 30
0.0
  0
SPLINE
  5
786
100
AcDbEntity
  8
7_ALL_ROUNDS
100
AcDbSpline
 62
7
  6
CONTINUOUS
 70
0
 71
3
 72
9
 73
5
 74
0
 42
0.0000001
 43
0.0000001
 44
0.0000000001
 40
0.0
 40
0.0
 40
0.0
 40
0.0
 40
0.5000256547
 40
1.0
 40
1.0
 40
1.0
 40
1.0
 10
87.5328544771
 20
46.085862397
 30
0.0
 10
87.4739289372
 20
46.1198919824
 30
0.0
 10
87.3808253557
 20
46.2273339442
 30
0.0
 10
87.3343242192
 20
46.3616880594
 30
0.0
 10
87.3343242192
 20
46.4297268847
 30
0.0
  0
SPLINE
  5
787
100
AcDbEntity
  8
3_ALL_AXES
100
AcDbSpline
 62
7
  6
CONTINUOUS
 70
0
 71
3
 72
8
 73
4
 74
0
 42
0.0000001
 43
0.0000001
 44
0.0000000001
 40
0.0
 40
0.0
 40
0.0
 40
0.0
 40
1.0
 40
1.0
 40
1.0
 40
1.0
 10
96.4148551885
 20
51.5131780871
 30
0.0
 10
96.4209402927
 20
51.5096595103
 30
0.0
 10
96.4287525064
 20
51.508805293
 30
0.0
 10
96.4356910279
 20
51.5099303685
 30
0.0
  0
SPLINE
  5
788
100
AcDbEntity
  8
3_ALL_AXES
100
AcDbSpline
 62
7
  6
CONTINUOUS
 70
0
 71
3
 72
8
 73
4
 74
0
 42
0.0000001
 43
0.0000001
 44
0.0000000001
 40
0.0
 40
0.0
 40
0.0
 40
0.0
 40
1.0
 40
1.0
 40
1.0
 40
1.0
 10
96.4356910279
 20
51.5099303685
 30
0.0
 10
96.4424515471
 20
51.511026581
 30
0.0
 10
96.4489960947
 20
51.5137257979
 30
0.0
 10
96.4549269563
 20
51.5171508792
 30
0.0
  0
SPLINE
  5
789
100
AcDbEntity
  8
7_ALL_ROUNDS
100
AcDbSpline
 62
9
  6
CONTINUOUS
 70
0
 71
3
 72
12
 73
8
 74
0
 42
0.0000001
 43
0.0000001
 44
0.0000000001
 40
0.0
 40
0.0
 40
0.0
 40
0.0
 40
0.2949495864
 40
0.4512403509
 40
0.5923317178
 40
0.796191974
 40
1.0
 40
1.0
 40
1.0
 40
1.0
 10
84.6027486309
 20
47.437456632
 30
0.0
 10
84.6027486309
 20
47.4145228781
 30
0.0
 10
84.6147384296
 20
47.3794014672
 30
0.0
 10
84.6425375609
 20
47.3421987948
 30
0.0
 10
84.6709930626
 20
47.3166636102
 30
0.0
 10
84.7234394658
 20
47.3047397077
 30
0.0
 10
84.7365892542
 20
47.3443164186
 30
0.0
 10
84.7365892542
 20
47.3601634764
 30
0.0
  0
SPLINE
  5
78A
100
AcDbEntity
  8
7_ALL_ROUNDS
100
AcDbSpline
 62
9
  6
CONTINUOUS
 70
0
 71
3
 72
12
 73
8
 74
0
 42
0.0000001
 43
0.0000001
 44
0.0000000001
 40
0.0
 40
0.0
 40
0.0
 40
0.0
 40
0.2949495864
 40
0.4512403509
 40
0.5923317178
 40
0.796191974
 40
1.0
 40
1.0
 40
1.0
 40
1.0
 10
84.7365892542
 20
47.3601634764
 30
0.0
 10
84.7365892542
 20
47.3830972303
 30
0.0
 10
84.7245994555
 20
47.4182186412
 30
0.0
 10
84.6968003242
 20
47.4554213136
 30
0.0
 10
84.6683448225
 20
47.4809564982
 30
0.0
 10
84.6158984192
 20
47.4928804007
 30
0.0
 10
84.6027486309
 20
47.4533036897
 30
0.0
 10
84.6027486309
 20
47.437456632
 30
0.0
  0
SPLINE
  5
78B
100
AcDbEntity
  8
3_ALL_AXES
100
AcDbSpline
 62
7
  6
CONTINUOUS
 70
0
 71
3
 72
10
 73
6
 74
0
 42
0.0000001
 43
0.0000001
 44
0.0000000001
 40
0.0
 40
0.0
 40
0.0
 40
0.0
 40
0.1828044885
 40
0.5550807712
 40
1.0
 40
1.0
 40
1.0
 40
1.0
 10
96.7045468337
 20
50.5658803702
 30
0.0
 10
96.7092060095
 20
50.5632024567
 30
0.0
 10
96.7271450682
 20
50.5623316066
 30
0.0
 10
96.7515717744
 20
50.5818937325
 30
0.0
 10
96.7641306841
 20
50.6028434174
 30
0.0
 10
96.7682907436
 20
50.6152435596
 30
0.0
  0
SPLINE
  5
78C
100
AcDbEntity
  8
3_ALL_AXES
100
AcDbSpline
 62
7
  6
CONTINUOUS
 70
0
 71
3
 72
8
 73
4
 74
0
 42
0.0000001
 43
0.0000001
 44
0.0000000001
 40
0.0
 40
0.0
 40
0.0
 40
0.0
 40
1.0
 40
1.0
 40
1.0
 40
1.0
 10
96.7682907436
 20
50.6152435596
 30
0.0
 10
96.7706743099
 20
50.6223484009
 30
0.0
 10
96.7722184607
 20
50.6298858216
 30
0.0
 10
96.7722184607
 20
50.6373798297
 30
0.0
  0
SPLINE
  5
78D
100
AcDbEntity
  8
3_ALL_AXES
100
AcDbSpline
 62
7
  6
CONTINUOUS
 70
0
 71
3
 72
9
 73
5
 74
0
 42
0.0000001
 43
0.0000001
 44
0.0000000001
 40
0.0
 40
0.0
 40
0.0
 40
0.0
 40
0.5318017053
 40
1.0
 40
1.0
 40
1.0
 40
1.0
 10
96.5115861535
 20
51.5498716484
 30
0.0
 10
96.5327709569
 20
51.5621059033
 30
0.0
 10
96.5620817626
 20
51.6001073708
 30
0.0
 10
96.572814691
 20
51.6509300742
 30
0.0
 10
96.5639324261
 20
51.6705510919
 30
0.0
  0
SPLINE
  5
78E
100
AcDbEntity
  8
3_ALL_AXES
100
AcDbSpline
 62
7
  6
CONTINUOUS
 70
0
 71
3
 72
8
 73
4
 74
0
 42
0.0000001
 43
0.0000001
 44
0.0000000001
 40
0.0
 40
0.0
 40
0.0
 40
0.0
 40
1.0
 40
1.0
 40
1.0
 40
1.0
 10
96.5639324261
 20
51.6705510919
 30
0.0
 10
96.5613599839
 20
51.6762336444
 30
0.0
 10
96.557057872
 20
51.6815537133
 30
0.0
 10
96.5516579213
 20
51.6846761153
 30
0.0
  0
SPLINE
  5
78F
100
AcDbEntity
  8
7_ALL_ROUNDS
100
AcDbSpline
 62
7
  6
CONTINUOUS
 70
0
 71
3
 72
9
 73
5
 74
0
 42
0.0000001
 43
0.0000001
 44
0.0000000001
 40
0.0
 40
0.0
 40
0.0
 40
0.0
 40
0.4999743453
 40
1.0
 40
1.0
 40
1.0
 40
1.0
 10
87.72098978
 20
46.6530268114
 30
0.0
 10
87.72098978
 20
46.5849879861
 30
0.0
 10
87.7674909165
 20
46.4506338709
 30
0.0
 10
87.860594498
 20
46.3431919092
 30
0.0
 10
87.919520038
 20
46.3091623237
 30
0.0
  0
SPLINE
  5
790
100
AcDbEntity
  8
3_ALL_AXES
100
AcDbSpline
 62
7
  6
CONTINUOUS
 70
0
 71
3
 72
10
 73
6
 74
0
 42
0.0000001
 43
0.0000001
 44
0.0000000001
 40
0.0
 40
0.0
 40
0.0
 40
0.0
 40
0.1828044885
 40
0.5550807712
 40
1.0
 40
1.0
 40
1.0
 40
1.0
 10
96.7045468337
 20
51.3508704186
 30
0.0
 10
96.7092060095
 20
51.3481925051
 30
0.0
 10
96.7271450682
 20
51.347321655
 30
0.0
 10
96.7515717744
 20
51.3668837809
 30
0.0
 10
96.7641306841
 20
51.3878334658
 30
0.0
 10
96.7682907436
 20
51.400233608
 30
0.0
  0
SPLINE
  5
791
100
AcDbEntity
  8
3_ALL_AXES
100
AcDbSpline
 62
7
  6
CONTINUOUS
 70
0
 71
3
 72
8
 73
4
 74
0
 42
0.0000001
 43
0.0000001
 44
0.0000000001
 40
0.0
 40
0.0
 40
0.0
 40
0.0
 40
1.0
 40
1.0
 40
1.0
 40
1.0
 10
96.7682907436
 20
51.400233608
 30
0.0
 10
96.7706743099
 20
51.4073384493
 30
0.0
 10
96.7722184607
 20
51.41487587
 30
0.0
 10
96.7722184607
 20
51.4223698781
 30
0.0
  0
SPLINE
  5
792
100
AcDbEntity
  8
3_AXES_OTHER
100
AcDbSpline
 62
7
  6
CONTINUOUS
 70
0
 71
3
 72
10
 73
6
 74
0
 42
0.0000001
 43
0.0000001
 44
0.0000000001
 40
0.0
 40
0.0
 40
0.0
 40
0.0
 40
0.2776453759
 40
0.5773929588
 40
1.0
 40
1.0
 40
1.0
 40
1.0
 10
87.9204792291
 20
46.4826299694
 30
0.0
 10
87.9046142085
 20
46.491792042
 30
0.0
 10
87.8767931868
 20
46.5204170748
 30
0.0
 10
87.8460568642
 20
46.5751613231
 30
0.0
 10
87.8450497993
 20
46.6412102341
 30
0.0
 10
87.8691905216
 20
46.6551690724
 30
0.0
  0
SPLINE
  5
793
100
AcDbEntity
  8
3_AXES_OTHER
100
AcDbSpline
 62
7
  6
CONTINUOUS
 70
0
 71
3
 72
9
 73
5
 74
0
 42
0.0000001
 43
0.0000001
 44
0.0000000001
 40
0.0
 40
0.0
 40
0.0
 40
0.0
 40
0.2293116875
 40
1.0
 40
1.0
 40
1.0
 40
1.0
 10
87.9204792291
 20
44.5201548484
 30
0.0
 10
87.9136835298
 20
44.5240793747
 30
0.0
 10
87.8861809965
 20
44.5447494719
 30
0.0
 10
87.8665096225
 20
44.5749465661
 30
0.0
 10
87.8571718884
 20
44.5996127765
 30
0.0
  0
SPLINE
  5
794
100
AcDbEntity
  8
3_ALL_AXES
100
AcDbSpline
 62
7
  6
CONTINUOUS
 70
0
 71
3
 72
9
 73
5
 74
0
 42
0.0000001
 43
0.0000001
 44
0.0000000001
 40
0.0
 40
0.0
 40
0.0
 40
0.0
 40
0.5555358319
 40
1.0
 40
1.0
 40
1.0
 40
1.0
 10
80.4216276229
 20
49.7011534382
 30
0.0
 10
80.4216276229
 20
49.7236458316
 30
0.0
 10
80.4266875402
 20
49.7650216579
 30
0.0
 10
80.4534585366
 20
49.799523676
 30
0.0
 10
80.4690444175
 20
49.8085188422
 30
0.0
  0
SPLINE
  5
795
100
AcDbEntity
  8
3_ALL_AXES
100
AcDbSpline
 62
7
  6
CONTINUOUS
 70
0
 71
3
 72
9
 73
5
 74
0
 42
0.0000001
 43
0.0000001
 44
0.0000000001
 40
0.0
 40
0.0
 40
0.0
 40
0.0
 40
0.5318017053
 40
1.0
 40
1.0
 40
1.0
 40
1.0
 10
96.5115861535
 20
50.0780153077
 30
0.0
 10
96.5327709569
 20
50.0902495626
 30
0.0
 10
96.5620817626
 20
50.1282510301
 30
0.0
 10
96.572814691
 20
50.1790737334
 30
0.0
 10
96.5639324261
 20
50.1986947512
 30
0.0
  0
SPLINE
  5
796
100
AcDbEntity
  8
3_ALL_AXES
100
AcDbSpline
 62
7
  6
CONTINUOUS
 70
0
 71
3
 72
8
 73
4
 74
0
 42
0.0000001
 43
0.0000001
 44
0.0000000001
 40
0.0
 40
0.0
 40
0.0
 40
0.0
 40
1.0
 40
1.0
 40
1.0
 40
1.0
 10
96.5639324261
 20
50.1986947512
 30
0.0
 10
96.5613599839
 20
50.2043773036
 30
0.0
 10
96.557057872
 20
50.2096973726
 30
0.0
 10
96.5516579213
 20
50.2128197745
 30
0.0
  0
SPLINE
  5
797
100
AcDbEntity
  8
3_ALL_AXES
100
AcDbSpline
 62
7
  6
CONTINUOUS
 70
0
 71
3
 72
8
 73
4
 74
0
 42
0.0000001
 43
0.0000001
 44
0.0000000001
 40
0.0
 40
0.0
 40
0.0
 40
0.0
 40
1.0
 40
1.0
 40
1.0
 40
1.0
 10
87.2647470563
 20
57.3473556527
 30
0.0
 10
87.2586619521
 20
57.3438370759
 30
0.0
 10
87.2508497384
 20
57.3429828587
 30
0.0
 10
87.2439112169
 20
57.3441079341
 30
0.0
  0
SPLINE
  5
798
100
AcDbEntity
  8
3_ALL_AXES
100
AcDbSpline
 62
7
  6
CONTINUOUS
 70
0
 71
3
 72
8
 73
4
 74
0
 42
0.0000001
 43
0.0000001
 44
0.0000000001
 40
0.0
 40
0.0
 40
0.0
 40
0.0
 40
1.0
 40
1.0
 40
1.0
 40
1.0
 10
87.2439112169
 20
57.3441079341
 30
0.0
 10
87.2371506977
 20
57.3452041466
 30
0.0
 10
87.2306061502
 20
57.3479033635
 30
0.0
 10
87.2246752885
 20
57.3513284448
 30
0.0
  0
SPLINE
  5
799
100
AcDbEntity
  8
3_ALL_AXES
100
AcDbSpline
 62
7
  6
CONTINUOUS
 70
0
 71
3
 72
9
 73
5
 74
0
 42
0.0000001
 43
0.0000001
 44
0.0000000001
 40
0.0
 40
0.0
 40
0.0
 40
0.0
 40
0.5254770666
 40
1.0
 40
1.0
 40
1.0
 40
1.0
 10
87.2246752885
 20
57.632529689
 30
0.0
 10
87.2788586704
 20
57.5412580135
 30
0.0
 10
87.3626578624
 20
57.355493227
 30
0.0
 10
87.3996171508
 20
57.1534829235
 30
0.0
 10
87.3996171508
 20
57.0576322418
 30
0.0
  0
SPLINE
  5
79A
100
AcDbEntity
  8
3_AXES_OTHER
100
AcDbSpline
 62
7
  6
CONTINUOUS
 70
0
 71
3
 72
10
 73
6
 74
0
 42
0.0000001
 43
0.0000001
 44
0.0000000001
 40
0.0
 40
0.0
 40
0.0
 40
0.0
 40
0.2776453759
 40
0.5773929588
 40
1.0
 40
1.0
 40
1.0
 40
1.0
 10
77.5304762534
 20
52.48287188
 30
0.0
 10
77.5146112328
 20
52.4920339526
 30
0.0
 10
77.4867902111
 20
52.5206589854
 30
0.0
 10
77.4560538885
 20
52.5754032337
 30
0.0
 10
77.4550468236
 20
52.6414521447
 30
0.0
 10
77.4791875459
 20
52.655410983
 30
0.0
  0
SPLINE
  5
79B
100
AcDbEntity
  8
0
100
AcDbSpline
 62
7
  6
CONTINUOUS
 70
0
 71
3
 72
9
 73
5
 74
0
 42
0.0000001
 43
0.0000001
 44
0.0000000001
 40
0.0
 40
0.0
 40
0.0
 40
0.0
 40
0.4983740696
 40
1.0
 40
1.0
 40
1.0
 40
1.0
 10
26.7530111217
 20
29.0726010221
 30
0.0
 10
26.7761065573
 20
29.0495363573
 30
0.0
 10
26.8243173988
 20
29.0051595647
 30
0.0
 10
26.8698266597
 20
28.9580363979
 30
0.0
 10
26.893057311
 20
28.9348057466
 30
0.0
  0
LINE
  5
79C
100
AcDbEntity
  8
0
100
AcDbLine
 62
7
  6
CONTINUOUS
 10
24.2412000981
 20
29.0726010221
 11
24.1032352488
 21
28.9348057466
  0
LINE
  5
79D
100
AcDbEntity
  8
0
100
AcDbLine
 62
7
  6
CONTINUOUS
 10
24.2412000981
 20
30.5745695261
 11
24.1032352488
 21
30.7123648017
  0
SPLINE
  5
79E
100
AcDbEntity
  8
0
100
AcDbSpline
 62
7
  6
CONTINUOUS
 70
0
 71
3
 72
9
 73
5
 74
0
 42
0.0000001
 43
0.0000001
 44
0.0000000001
 40
0.0
 40
0.0
 40
0.0
 40
0.0
 40
0.4983740722
 40
1.0
 40
1.0
 40
1.0
 40
1.0
 10
26.7530111217
 20
30.5745695261
 30
0.0
 10
26.7761065574
 20
30.597634191
 30
0.0
 10
26.8243173975
 20
30.6420109851
 30
0.0
 10
26.8698266598
 20
30.6891341505
 30
0.0
 10
26.893057311
 20
30.7123648017
 30
0.0
  0
SPLINE
  5
79F
100
AcDbEntity
  8
3_ALL_AXES
100
AcDbSpline
 62
7
  6
CONTINUOUS
 70
0
 71
3
 72
10
 73
6
 74
0
 42
0.0000001
 43
0.0000001
 44
0.0000000001
 40
0.0
 40
0.0
 40
0.0
 40
0.0
 40
0.4048056276
 40
0.6842130526
 40
1.0
 40
1.0
 40
1.0
 40
1.0
 10
58.8385365602
 20
31.1832303187
 30
0.0
 10
58.8377662656
 20
31.2075869776
 30
0.0
 10
58.8085139607
 20
31.2450271305
 30
0.0
 10
58.7579873722
 20
31.2757333883
 30
0.0
 10
58.7259039881
 20
31.2923136627
 30
0.0
 10
58.7086481465
 20
31.3002896607
 30
0.0
  0
SPLINE
  5
7A0
100
AcDbEntity
  8
3_ALL_AXES
100
AcDbSpline
 62
7
  6
CONTINUOUS
 70
0
 71
3
 72
10
 73
6
 74
0
 42
0.0000001
 43
0.0000001
 44
0.0000000001
 40
0.0
 40
0.0
 40
0.0
 40
0.0
 40
0.3158586175
 40
0.5953288435
 40
1.0
 40
1.0
 40
1.0
 40
1.0
 10
58.7086481465
 20
28.1508572655
 30
0.0
 10
58.7259049983
 20
28.1588337305
 30
0.0
 10
58.7580111646
 20
28.175388415
 30
0.0
 10
58.8084287252
 20
28.2062190659
 30
0.0
 10
58.8377666512
 20
28.2435721393
 30
0.0
 10
58.8385365602
 20
28.2679166076
 30
0.0
  0
SPLINE
  5
7A1
100
AcDbEntity
  8
3_ALL_AXES
100
AcDbSpline
 62
7
  6
CONTINUOUS
 70
0
 71
3
 72
8
 73
4
 74
0
 42
0.0000001
 43
0.0000001
 44
0.0000000001
 40
0.0
 40
0.0
 40
0.0
 40
0.0
 40
1.0
 40
1.0
 40
1.0
 40
1.0
 10
93.9197367237
 20
31.3002896607
 30
0.0
 10
93.9197367237
 20
31.2933921959
 30
0.0
 10
93.9171657819
 20
31.2866879127
 30
0.0
 10
93.9135740741
 20
31.2805440117
 30
0.0
  0
LINE
  5
7A2
100
AcDbEntity
  8
3_ALL_AXES
100
AcDbLine
 62
7
  6
CONTINUOUS
 10
93.9135740741
 20
31.2805440117
 11
93.9094696499
 21
31.2742812525
  0
SPLINE
  5
7A3
100
AcDbEntity
  8
3_ALL_AXES
100
AcDbSpline
 62
7
  6
CONTINUOUS
 70
0
 71
3
 72
8
 73
4
 74
0
 42
0.0000001
 43
0.0000001
 44
0.0000000001
 40
0.0
 40
0.0
 40
0.0
 40
0.0
 40
1.0
 40
1.0
 40
1.0
 40
1.0
 10
93.9094696499
 20
31.2742812525
 30
0.0
 10
93.9054320809
 20
31.2686957616
 30
0.0
 10
93.9008424347
 20
31.263721015
 30
0.0
 10
93.8959486893
 20
31.2590859498
 30
0.0
  0
SPLINE
  5
7A4
100
AcDbEntity
  8
3_ALL_AXES
100
AcDbSpline
 62
7
  6
CONTINUOUS
 70
0
 71
3
 72
9
 73
5
 74
0
 42
0.0000001
 43
0.0000001
 44
0.0000000001
 40
0.0
 40
0.0
 40
0.0
 40
0.0
 40
0.4761219339
 40
1.0
 40
1.0
 40
1.0
 40
1.0
 10
93.8959486893
 20
31.2590859498
 30
0.0
 10
93.8918376431
 20
31.2551922109
 30
0.0
 10
93.8827524705
 20
31.2475176545
 30
0.0
 10
93.8733691229
 20
31.2401916722
 30
0.0
 10
93.8683935314
 20
31.2364273457
 30
0.0
  0
SPLINE
  5
7A5
100
AcDbEntity
  8
3_ALL_AXES
100
AcDbSpline
 62
7
  6
CONTINUOUS
 70
0
 71
3
 72
9
 73
5
 74
0
 42
0.0000001
 43
0.0000001
 44
0.0000000001
 40
0.0
 40
0.0
 40
0.0
 40
0.0
 40
0.3524517062
 40
1.0
 40
1.0
 40
1.0
 40
1.0
 10
93.8683935314
 20
31.2364273457
 30
0.0
 10
93.8597288177
 20
31.2298719822
 30
0.0
 10
93.8346296301
 20
31.2119058964
 30
0.0
 10
93.8090031611
 20
31.1947981714
 30
0.0
 10
93.7927367209
 20
31.1832303185
 30
0.0
  0
SPLINE
  5
7A6
100
AcDbEntity
  8
3_ALL_AXES
100
AcDbSpline
 62
7
  6
CONTINUOUS
 70
0
 71
3
 72
8
 73
4
 74
0
 42
0.0000001
 43
0.0000001
 44
0.0000000001
 40
0.0
 40
0.0
 40
0.0
 40
0.0
 40
1.0
 40
1.0
 40
1.0
 40
1.0
 10
76.7293036528
 20
28.1508572655
 30
0.0
 10
76.7293036528
 20
28.1577547303
 30
0.0
 10
76.7318745945
 20
28.1644590135
 30
0.0
 10
76.7354663024
 20
28.1706029145
 30
0.0
  0
LINE
  5
7A7
100
AcDbEntity
  8
3_ALL_AXES
100
AcDbLine
 62
7
  6
CONTINUOUS
 10
76.7354663024
 20
28.1706029145
 11
76.7395707266
 21
28.1768656737
  0
SPLINE
  5
7A8
100
AcDbEntity
  8
3_ALL_AXES
100
AcDbSpline
 62
7
  6
CONTINUOUS
 70
0
 71
3
 72
8
 73
4
 74
0
 42
0.0000001
 43
0.0000001
 44
0.0000000001
 40
0.0
 40
0.0
 40
0.0
 40
0.0
 40
1.0
 40
1.0
 40
1.0
 40
1.0
 10
76.7395707266
 20
28.1768656737
 30
0.0
 10
76.7436082956
 20
28.1824511646
 30
0.0
 10
76.7481979418
 20
28.1874259112
 30
0.0
 10
76.7530916872
 20
28.1920609763
 30
0.0
  0
SPLINE
  5
7A9
100
AcDbEntity
  8
3_ALL_AXES
100
AcDbSpline
 62
7
  6
CONTINUOUS
 70
0
 71
3
 72
9
 73
5
 74
0
 42
0.0000001
 43
0.0000001
 44
0.0000000001
 40
0.0
 40
0.0
 40
0.0
 40
0.0
 40
0.4761219339
 40
1.0
 40
1.0
 40
1.0
 40
1.0
 10
76.7530916872
 20
28.1920609763
 30
0.0
 10
76.7572027334
 20
28.1959547152
 30
0.0
 10
76.7662879059
 20
28.2036292717
 30
0.0
 10
76.7756712535
 20
28.210955254
 30
0.0
 10
76.7806468451
 20
28.2147195805
 30
0.0
  0
SPLINE
  5
7AA
100
AcDbEntity
  8
3_ALL_AXES
100
AcDbSpline
 62
7
  6
CONTINUOUS
 70
0
 71
3
 72
9
 73
5
 74
0
 42
0.0000001
 43
0.0000001
 44
0.0000000001
 40
0.0
 40
0.0
 40
0.0
 40
0.0
 40
0.3524517062
 40
1.0
 40
1.0
 40
1.0
 40
1.0
 10
76.7806468451
 20
28.2147195805
 30
0.0
 10
76.7893115588
 20
28.221274944
 30
0.0
 10
76.8144107464
 20
28.2392410298
 30
0.0
 10
76.8400372154
 20
28.2563487548
 30
0.0
 10
76.8563036556
 20
28.2679166077
 30
0.0
  0
SPLINE
  5
7AB
100
AcDbEntity
  8
3_ALL_AXES
100
AcDbSpline
 62
7
  6
CONTINUOUS
 70
0
 71
3
 72
10
 73
6
 74
0
 42
0.0000001
 43
0.0000001
 44
0.0000000001
 40
0.0
 40
0.0
 40
0.0
 40
0.0
 40
0.5352383063
 40
0.9938493575
 40
1.0
 40
1.0
 40
1.0
 40
1.0
 10
93.792736721
 20
28.2679166076
 30
0.0
 10
93.8090031611
 20
28.2563487547
 30
0.0
 10
93.839816184
 20
28.2357785888
 30
0.0
 10
93.8700528685
 20
28.213832471
 30
0.0
 10
93.8834740921
 20
28.2028943658
 30
0.0
 10
93.8836515878
 20
28.2027494712
 30
0.0
  0
SPLINE
  5
7AC
100
AcDbEntity
  8
3_ALL_AXES
100
AcDbSpline
 62
7
  6
CONTINUOUS
 70
0
 71
3
 72
9
 73
5
 74
0
 42
0.0000001
 43
0.0000001
 44
0.0000000001
 40
0.0
 40
0.0
 40
0.0
 40
0.0
 40
0.7400775099
 40
1.0
 40
1.0
 40
1.0
 40
1.0
 10
93.8836515878
 20
28.2027494712
 30
0.0
 10
93.8935053598
 20
28.1947055727
 30
0.0
 10
93.9063186662
 20
28.183253732
 30
0.0
 10
93.9154142875
 20
28.1676908532
 30
0.0
 10
93.9171047312
 20
28.1634680621
 30
0.0
  0
SPLINE
  5
7AD
100
AcDbEntity
  8
3_ALL_AXES
100
AcDbSpline
 62
7
  6
CONTINUOUS
 70
0
 71
3
 72
8
 73
4
 74
0
 42
0.0000001
 43
0.0000001
 44
0.0000000001
 40
0.0
 40
0.0
 40
0.0
 40
0.0
 40
1.0
 40
1.0
 40
1.0
 40
1.0
 10
93.9171047312
 20
28.1634680621
 30
0.0
 10
93.9187334225
 20
28.1593995306
 30
0.0
 10
93.9197367237
 20
28.1551660922
 30
0.0
 10
93.9197367237
 20
28.1508572655
 30
0.0
  0
SPLINE
  5
7AE
100
AcDbEntity
  8
3_ALL_AXES
100
AcDbSpline
 62
7
  6
CONTINUOUS
 70
0
 71
3
 72
10
 73
6
 74
0
 42
0.0000001
 43
0.0000001
 44
0.0000000001
 40
0.0
 40
0.0
 40
0.0
 40
0.0
 40
0.5352383063
 40
0.9938493575
 40
1.0
 40
1.0
 40
1.0
 40
1.0
 10
76.8563036555
 20
31.1832303186
 30
0.0
 10
76.8400372153
 20
31.1947981715
 30
0.0
 10
76.8092241925
 20
31.2153683374
 30
0.0
 10
76.778987508
 20
31.2373144552
 30
0.0
 10
76.7655662844
 20
31.2482525604
 30
0.0
 10
76.7653887887
 20
31.2483974549
 30
0.0
  0
SPLINE
  5
7AF
100
AcDbEntity
  8
3_ALL_AXES
100
AcDbSpline
 62
7
  6
CONTINUOUS
 70
0
 71
3
 72
9
 73
5
 74
0
 42
0.0000001
 43
0.0000001
 44
0.0000000001
 40
0.0
 40
0.0
 40
0.0
 40
0.0
 40
0.7400775099
 40
1.0
 40
1.0
 40
1.0
 40
1.0
 10
76.7653887887
 20
31.2483974549
 30
0.0
 10
76.7555350167
 20
31.2564413535
 30
0.0
 10
76.7427217102
 20
31.2678931941
 30
0.0
 10
76.7336260889
 20
31.283456073
 30
0.0
 10
76.7319356453
 20
31.2876788641
 30
0.0
  0
SPLINE
  5
7B0
100
AcDbEntity
  8
3_ALL_AXES
100
AcDbSpline
 62
7
  6
CONTINUOUS
 70
0
 71
3
 72
8
 73
4
 74
0
 42
0.0000001
 43
0.0000001
 44
0.0000000001
 40
0.0
 40
0.0
 40
0.0
 40
0.0
 40
1.0
 40
1.0
 40
1.0
 40
1.0
 10
76.7319356453
 20
31.2876788641
 30
0.0
 10
76.730306954
 20
31.2917473956
 30
0.0
 10
76.7293036528
 20
31.2959808339
 30
0.0
 10
76.7293036528
 20
31.3002896607
 30
0.0
  0
ENDSEC
  0
SECTION
  2
OBJECTS
  0
DICTIONARY
  5
C
100
AcDbDictionary
280
0
281
1
  3
ACAD_GROUP
350
D
  3
ACAD_MLINESTYLE
350
17
  3
ACAD_LAYOUT
350
1A
  3
ACAD_PLOTSETTINGS
350
19
  3
ACAD_PLOTSTYLENAME
350
E
  0
DICTIONARY
  5
D
102
{ACAD_REACTORS
330
C
102
}
100
AcDbDictionary
280
0
281
1
  0
ACDBDICTIONARYWDFLT
  5
E
102
{ACAD_REACTORS
330
C
102
}
100
AcDbDictionary
281
1
  3
Normal
350
F
100
AcDbDictionaryWithDefault
340
F
  0
DICTIONARY
  5
17
102
{ACAD_REACTORS
330
C
102
}
100
AcDbDictionary
280
0
281
1
  3
Standard
350
18
  0
DICTIONARY
  5
19
102
{ACAD_REACTORS
330
C
102
}
100
AcDbDictionary
281
1
  0
DICTIONARY
  5
1A
102
{ACAD_REACTORS
330
C
102
}
100
AcDbDictionary
281
1
  3
Model
350
7B1
  3
Layout1
350
7B2
  0
ACDBPLACEHOLDER
  5
F
102
{ACAD_REACTORS
330
E
102
}
  0
MLINESTYLE
  5
18
102
{ACAD_REACTORS
330
17
102
}
100
AcDbMlineStyle
  2
STANDARD
 70
0
  3

 62
256
 51
90.0
 52
90.0
 71
2
 49
0.5
 62
256
  6
BYLAYER
 49
-0.5
 62
256
  6
BYLAYER
  0
LAYOUT
  5
7B1
102
{ACAD_REACTORS
330
1A
102
}
100
AcDbPlotSettings
  1

  2
none_device
  4
ANSI_B_(17.00_x_11.00_Inches)
  6

 40
0.0
 41
0.0
 42
0.0
 43
0.0
 44
431.8
 45
279.4
 46
0.0
 47
0.0
 48
0.0
 49
0.0
140
0.0
141
0.0
142
1.0
143
1.0
 70
1024
 72
0
 73
0
 74
0
  7

 75
0
147
1.0
148
0.0
149
0.0
100
AcDbLayout
  1
Model
 70
0
 71
0
 10
0.0
 20
0.0
 11
17.0
 21
11.0
 12
0.0
 22
0.0
 32
0.0
 14
0.0
 24
0.0
 34
0.0
 15
0.0
 25
0.0
 35
0.0
146
0.0
 13
0.0
 23
0.0
 33
0.0
 16
1.0
 26
0.0
 36
0.0
 17
0.0
 27
1.0
 37
0.0
 76
0
330
211
345
0
346
0
  0
LAYOUT
  5
7B2
102
{ACAD_REACTORS
330
1A
102
}
100
AcDbPlotSettings
  1

  2
none_device
  4
ANSI_B_(17.00_x_11.00_Inches)
  6

 40
0.0
 41
0.0
 42
0.0
 43
0.0
 44
431.8
 45
279.4
 46
0.0
 47
0.0
 48
0.0
 49
0.0
140
0.0
141
0.0
142
1.0
143
1.0
 70
0
 72
0
 73
0
 74
0
  7

 75
0
147
1.0
148
0.0
149
0.0
100
AcDbLayout
  1
Layout1
 70
0
 71
1
 10
0.0
 20
0.0
 11
17.0
 21
11.0
 12
0.0
 22
0.0
 32
0.0
 14
0.0
 24
0.0
 34
0.0
 15
0.0
 25
0.0
 35
0.0
146
0.0
 13
0.0
 23
0.0
 33
0.0
 16
1.0
 26
0.0
 36
0.0
 17
0.0
 27
1.0
 37
0.0
 76
0
330
212
345
0
346
0
  0
ENDSEC
  0
EOF
