999
DXF file: fg-220009-2d-A.dxf
999
Pro/ENGINEER 2010370 by Parametric Technology Corporation
  0
SECTION
  2
HEADER
  9
$ACADVER
  1
AC1015
  9
$DWGCODEPAGE
  3
ANSI_1252
  9
$EXTMAX
 10
108.9743589744
 20
70.5128205128
 30
0.0
  9
$EXTMIN
 10
0.0
 20
-0.0
 30
0.0
  9
$LIMMIN
 10
0.0
 20
-0.0
  9
$LIMMAX
 10
108.9743589744
 20
70.5128205128
  9
$VIEWCTR
 10
54.4871794872
 20
35.2564102564
  9
$VIEWSIZE
 40
70.5128205128
  9
$CLAYER
  8
0
  9
$LTSCALE
 40
5.9935897436
  9
$CELTYPE
  6
BYLAYER
  9
$DIMSCALE
 40
1.0
  9
$DIMASZ
 40
1.2019230769
  9
$DIMEXO
 40
0.6810897436
  9
$DIMDLI
 40
4.141025641
  9
$DIMEXE
 40
1.9615384615
  9
$DIMCEN
 40
0.9807692308
  9
$DIMLFAC
 40
1.0
  9
$DIMBLK
  1
_FILLED
  9
$DIMTXT
 40
1.0016025641
  9
$DIMTOL
 70
1
  9
$DIMLIM
 70
0
  9
$DIMTFAC
 40
1.0
  9
$DIMTP
 40
0.01
  9
$DIMTM
 40
0.01
  9
$PDMODE
 70
3
  9
$PDSIZE
 40
0.3125
  9
$HANDSEED
  5
7AC
  9
$TILEMODE
 70
1
  9
$MEASUREMENT
 70
0
  9
$INSUNITS
 70
1
  0
ENDSEC
  0
SECTION
  2
CLASSES
  0
CLASS
  1
ACDBDICTIONARYWDFLT
  2
AcDbDictionaryWithDefault
  3
AutoCAD 2000
 90
0
280
0
281
0
  0
CLASS
  1
ACDBPLACEHOLDER
  2
AcDbPlaceHolder
  3
AutoCAD 2000
 90
0
280
0
281
0
  0
CLASS
  1
LAYOUT
  2
AcDbLayout
  3
AutoCAD 2000
 90
0
280
0
281
0
  0
ENDSEC
  0
SECTION
  2
TABLES
  0
TABLE
  2
VPORT
  5
8
100
AcDbSymbolTable
 70
2
  0
VPORT
  5
1F4
100
AcDbSymbolTableRecord
100
AcDbViewportTableRecord
  2
*ACTIVE
 70
0
 10
0.0
 20
0.0
 11
1.0
 21
1.0
 12
54.4871794872
 22
35.2564102564
 13
0.0
 23
0.0
 14
1.0
 24
1.0
 15
0.0
 25
0.0
 16
0.0
 26
0.0
 36
1.0
 17
0.0
 27
0.0
 37
0.0
 40
70.5128205128
 41
1.5454545455
 42
50.0
 43
0.0
 44
0.0
 50
0.0
 51
0.0
 71
0
 72
100
 73
1
 74
1
 75
0
 76
0
 77
0
 78
0
  0
ENDTAB
  0
TABLE
  2
LTYPE
  5
5
100
AcDbSymbolTable
 70
6
  0
LTYPE
  5
14
100
AcDbSymbolTableRecord
100
AcDbLinetypeTableRecord
  2
BYBLOCK
 70
0
  3

 72
65
 73
0
 40
0.0
  0
LTYPE
  5
15
100
AcDbSymbolTableRecord
100
AcDbLinetypeTableRecord
  2
BYLAYER
 70
0
  3

 72
65
 73
0
 40
0.0
  0
LTYPE
  5
16
100
AcDbSymbolTableRecord
100
AcDbLinetypeTableRecord
  2
CONTINUOUS
 70
64
  3
Solid line
 72
65
 73
0
 40
0.0
  0
LTYPE
  5
1F5
100
AcDbSymbolTableRecord
100
AcDbLinetypeTableRecord
  2
CENTER
 70
64
  3
____ _ ____ _ ____ _ ____ _ ____ _ ____ _ ____
 72
65
 73
4
 40
0.6
 49
0.375
 74
0
 49
-0.075
 74
0
 49
0.075
 74
0
 49
-0.075
 74
0
  0
LTYPE
  5
1F6
100
AcDbSymbolTableRecord
100
AcDbLinetypeTableRecord
  2
HIDDEN
 70
64
  3
- - - - - - - - - - - - - - - - - - - -
 72
65
 73
2
 40
0.2
 49
0.1
 74
0
 49
-0.1
 74
0
  0
LTYPE
  5
1F7
100
AcDbSymbolTableRecord
100
AcDbLinetypeTableRecord
  2
PHANTOM
 70
64
  3
_____ _ _ _____ _ _ _____ _ _ _____
 72
65
 73
6
 40
0.8
 49
0.45
 74
0
 49
-0.05
 74
0
 49
0.1
 74
0
 49
-0.05
 74
0
 49
0.1
 74
0
 49
-0.05
 74
0
  0
LTYPE
  5
1F8
100
AcDbSymbolTableRecord
100
AcDbLinetypeTableRecord
  2
DOT
 70
64
  3
. . . . . . . . . . . . . . . . . . . .
 72
65
 73
2
 40
0.2
 49
0.1
 74
0
 49
-0.1
 74
0
  0
LTYPE
  5
1F9
100
AcDbSymbolTableRecord
100
AcDbLinetypeTableRecord
  2
DASHED
 70
64
  3
- - - - - - - - - - - - - - - - - - - -
 72
65
 73
2
 40
0.2
 49
0.1
 74
0
 49
-0.1
 74
0
  0
ENDTAB
  0
TABLE
  2
LAYER
  5
2
100
AcDbSymbolTable
 70
36
  0
LAYER
  5
10
100
AcDbSymbolTableRecord
100
AcDbLayerTableRecord
  2
0
 70
0
 62
7
  6
CONTINUOUS
370
-3
390
F
  0
LAYER
  5
1FA
100
AcDbSymbolTableRecord
100
AcDbLayerTableRecord
  2
DEFAULT_1
 70
0
 62
7
  6
CENTER
370
-3
390
F
  0
LAYER
  5
1FB
100
AcDbSymbolTableRecord
100
AcDbLayerTableRecord
  2
DEFAULT_2
 70
0
 62
8
  6
HIDDEN
370
-3
390
F
  0
LAYER
  5
1FC
100
AcDbSymbolTableRecord
100
AcDbLayerTableRecord
  2
DEFAULT_3
 70
0
 62
7
  6
PHANTOM
370
-3
390
F
  0
LAYER
  5
1FD
100
AcDbSymbolTableRecord
100
AcDbLayerTableRecord
  2
0_SNAPLINES
 70
0
 62
7
  6
CONTINUOUS
370
-3
390
F
  0
LAYER
  5
1FE
100
AcDbSymbolTableRecord
100
AcDbLayerTableRecord
  2
1_ALL_PLANES
 70
0
 62
7
  6
CONTINUOUS
370
-3
390
F
  0
LAYER
  5
1FF
100
AcDbSymbolTableRecord
100
AcDbLayerTableRecord
  2
1__DEF_PLANES
 70
0
 62
7
  6
CONTINUOUS
370
-3
390
F
  0
LAYER
  5
200
100
AcDbSymbolTableRecord
100
AcDbLayerTableRecord
  2
2_ALL_CSYS
 70
0
 62
7
  6
CONTINUOUS
370
-3
390
F
  0
LAYER
  5
201
100
AcDbSymbolTableRecord
100
AcDbLayerTableRecord
  2
2__DEF_CSYS
 70
0
 62
7
  6
CONTINUOUS
370
-3
390
F
  0
LAYER
  5
202
100
AcDbSymbolTableRecord
100
AcDbLayerTableRecord
  2
3_ALL_AXES
 70
0
 62
7
  6
CONTINUOUS
370
-3
390
F
  0
LAYER
  5
203
100
AcDbSymbolTableRecord
100
AcDbLayerTableRecord
  2
3_AXES_OTHER
 70
0
 62
7
  6
CONTINUOUS
370
-3
390
F
  0
LAYER
  5
204
100
AcDbSymbolTableRecord
100
AcDbLayerTableRecord
  2
3_HOLES
 70
0
 62
7
  6
CONTINUOUS
370
-3
390
F
  0
LAYER
  5
205
100
AcDbSymbolTableRecord
100
AcDbLayerTableRecord
  2
4_ALL_POINTS
 70
0
 62
7
  6
CONTINUOUS
370
-3
390
F
  0
LAYER
  5
206
100
AcDbSymbolTableRecord
100
AcDbLayerTableRecord
  2
5_ALL_CURVES
 70
0
 62
7
  6
CONTINUOUS
370
-3
390
F
  0
LAYER
  5
207
100
AcDbSymbolTableRecord
100
AcDbLayerTableRecord
  2
6_ALL_SURFS
 70
0
 62
7
  6
CONTINUOUS
370
-3
390
F
  0
LAYER
  5
208
100
AcDbSymbolTableRecord
100
AcDbLayerTableRecord
  2
6_COPYGEOM
 70
0
 62
7
  6
CONTINUOUS
370
-3
390
F
  0
LAYER
  5
209
100
AcDbSymbolTableRecord
100
AcDbLayerTableRecord
  2
7_ALL_ROUNDS
 70
0
 62
7
  6
CONTINUOUS
370
-3
390
F
  0
LAYER
  5
20A
100
AcDbSymbolTableRecord
100
AcDbLayerTableRecord
  2
7_MERGES
 70
0
 62
7
  6
CONTINUOUS
370
-3
390
F
  0
LAYER
  5
20B
100
AcDbSymbolTableRecord
100
AcDbLayerTableRecord
  2
8_GDT
 70
0
 62
7
  6
CONTINUOUS
370
-3
390
F
  0
LAYER
  5
20C
100
AcDbSymbolTableRecord
100
AcDbLayerTableRecord
  2
8_SET_DATUMS
 70
0
 62
7
  6
CONTINUOUS
370
-3
390
F
  0
LAYER
  5
20D
100
AcDbSymbolTableRecord
100
AcDbLayerTableRecord
  2
9_COSMETICS
 70
0
 62
7
  6
CONTINUOUS
370
-3
390
F
  0
LAYER
  5
20E
100
AcDbSymbolTableRecord
100
AcDbLayerTableRecord
  2
9_THREADS
 70
0
 62
7
  6
CONTINUOUS
370
-3
390
F
  0
ENDTAB
  0
TABLE
  2
STYLE
  5
3
100
AcDbSymbolTable
 70
1
  0
STYLE
  5
11
100
AcDbSymbolTableRecord
100
AcDbTextStyleTableRecord
  2
STANDARD
 70
0
 40
0.0
 41
0.8
 50
0.0
 71
0
 42
0.2
  3
txt
  4

  0
STYLE
  5
20F
100
AcDbSymbolTableRecord
100
AcDbTextStyleTableRecord
  2
TEXTSTYLE_1
 70
0
 40
0.0
 41
0.8
 50
0.0
 71
0
 42
0.2
  3
gdt
  4

  0
ENDTAB
  0
TABLE
  2
VIEW
  5
6
100
AcDbSymbolTable
 70
0
  0
ENDTAB
  0
TABLE
  2
UCS
  5
7
100
AcDbSymbolTable
 70
0
  0
ENDTAB
  0
TABLE
  2
APPID
  5
9
100
AcDbSymbolTable
 70
1
  0
APPID
  5
210
100
AcDbSymbolTableRecord
100
AcDbRegAppTableRecord
  2
ACAD
 70
0
  0
ENDTAB
  0
TABLE
  2
BLOCK_RECORD
  5
1
100
AcDbSymbolTable
 70
0
  0
BLOCK_RECORD
  5
211
100
AcDbSymbolTableRecord
100
AcDbBlockTableRecord
  2
*Model_Space
  0
BLOCK_RECORD
  5
212
100
AcDbSymbolTableRecord
100
AcDbBlockTableRecord
  2
*Paper_Space
  0
BLOCK_RECORD
  5
213
100
AcDbSymbolTableRecord
100
AcDbBlockTableRecord
  2
_FILLED
  0
BLOCK_RECORD
  5
214
100
AcDbSymbolTableRecord
100
AcDbBlockTableRecord
  2
*D0
  0
BLOCK_RECORD
  5
215
100
AcDbSymbolTableRecord
100
AcDbBlockTableRecord
  2
*D1
  0
BLOCK_RECORD
  5
216
100
AcDbSymbolTableRecord
100
AcDbBlockTableRecord
  2
*D2
  0
BLOCK_RECORD
  5
217
100
AcDbSymbolTableRecord
100
AcDbBlockTableRecord
  2
*D3
  0
BLOCK_RECORD
  5
218
100
AcDbSymbolTableRecord
100
AcDbBlockTableRecord
  2
*D4
  0
BLOCK_RECORD
  5
219
100
AcDbSymbolTableRecord
100
AcDbBlockTableRecord
  2
*D5
  0
BLOCK_RECORD
  5
21A
100
AcDbSymbolTableRecord
100
AcDbBlockTableRecord
  2
*D6
  0
BLOCK_RECORD
  5
21B
100
AcDbSymbolTableRecord
100
AcDbBlockTableRecord
  2
*D7
  0
BLOCK_RECORD
  5
21C
100
AcDbSymbolTableRecord
100
AcDbBlockTableRecord
  2
*D8
  0
BLOCK_RECORD
  5
21D
100
AcDbSymbolTableRecord
100
AcDbBlockTableRecord
  2
*D9
  0
BLOCK_RECORD
  5
21E
100
AcDbSymbolTableRecord
100
AcDbBlockTableRecord
  2
*D10
  0
BLOCK_RECORD
  5
21F
100
AcDbSymbolTableRecord
100
AcDbBlockTableRecord
  2
*D11
  0
BLOCK_RECORD
  5
220
100
AcDbSymbolTableRecord
100
AcDbBlockTableRecord
  2
*D12
  0
BLOCK_RECORD
  5
221
100
AcDbSymbolTableRecord
100
AcDbBlockTableRecord
  2
*D13
  0
BLOCK_RECORD
  5
222
100
AcDbSymbolTableRecord
100
AcDbBlockTableRecord
  2
*D14
  0
BLOCK_RECORD
  5
223
100
AcDbSymbolTableRecord
100
AcDbBlockTableRecord
  2
*D15
  0
BLOCK_RECORD
  5
224
100
AcDbSymbolTableRecord
100
AcDbBlockTableRecord
  2
*D16
  0
BLOCK_RECORD
  5
225
100
AcDbSymbolTableRecord
100
AcDbBlockTableRecord
  2
*D17
  0
BLOCK_RECORD
  5
226
100
AcDbSymbolTableRecord
100
AcDbBlockTableRecord
  2
*D18
  0
BLOCK_RECORD
  5
227
100
AcDbSymbolTableRecord
100
AcDbBlockTableRecord
  2
SYMBOL_0_BL0
  0
ENDTAB
  0
TABLE
  2
DIMSTYLE
  5
A
100
AcDbSymbolTable
 70
1
100
AcDbDimStyleTable
 71
0
  0
DIMSTYLE
105
228
100
AcDbSymbolTableRecord
100
AcDbDimStyleTableRecord
  2
STANDARD
 70
0
  3

  4

 40
1.0
 41
1.2019230769
 42
0.0625
 43
0.38
 44
0.18
 45
0.0
 46
0.0
 47
0.01
 48
0.01
140
1.0016025641
141
0.09
142
0.0
143
25.4
144
1.0
145
0.0
146
1.0
147
0.09
 71
1.0
 72
0.0
 73
1
 74
1
 75
0
 76
0
 77
0
 78
4
170
0
171
2
172
0
173
0
174
0
175
0
176
0
177
0
178
0
270
2
271
3
272
3
273
2
274
2
275
0
280
0
281
0
282
0
283
1
284
4
285
0
286
0
287
3
288
0
340
11
341
213
342
213
343
213
344
213
  0
DIMSTYLE
105
229
100
AcDbSymbolTableRecord
100
AcDbDimStyleTableRecord
  2
DIMSTYLE_1
 70
0
  3

  4

 40
1.0
 41
1.2019230769
 42
0.0625
 43
0.38
 44
0.18
 45
0.0
 46
0.0
 47
0.01
 48
0.01
140
1.0016025641
141
0.09
142
0.0
143
25.4
144
1.0
145
0.0
146
1.0
147
0.09
 71
0.0
 72
0.0
 73
1
 74
1
 75
0
 76
0
 77
0
 78
4
170
0
171
2
172
0
173
0
174
0
175
0
176
0
177
0
178
0
270
2
271
0
272
0
273
2
274
2
275
0
280
0
281
0
282
0
283
1
284
4
285
0
286
0
287
3
288
0
340
11
341
213
342
213
343
213
344
213
  0
DIMSTYLE
105
22A
100
AcDbSymbolTableRecord
100
AcDbDimStyleTableRecord
  2
DIMSTYLE_2
 70
0
  3

  4

 40
1.0
 41
1.2019230769
 42
0.0625
 43
0.38
 44
0.18
 45
0.0
 46
0.0
 47
0.01
 48
0.01
140
1.0016025641
141
0.09
142
0.0
143
25.4
144
1.0
145
0.0
146
1.0
147
0.09
 71
0.0
 72
0.0
 73
1
 74
1
 75
0
 76
0
 77
0
 78
4
170
0
171
2
172
0
173
0
174
0
175
0
176
0
177
0
178
0
270
2
271
0
272
0
273
2
274
2
275
0
280
0
281
0
282
0
283
1
284
4
285
0
286
0
287
3
288
0
340
11
341
213
342
213
343
213
344
213
  0
ENDTAB
  0
ENDSEC
  0
SECTION
  2
BLOCKS
  0
BLOCK
  5
20
100
AcDbEntity
  8
0
100
AcDbBlockBegin
  2
*Model_Space
 70
0
 10
0.0
 20
0.0
 30
0.0
  3
*Model_Space
  1

  0
ENDBLK
  5
21
100
AcDbEntity
  8
0
100
AcDbBlockEnd
  0
BLOCK
  5
1C
100
AcDbEntity
  8
0
100
AcDbBlockBegin
  2
*Paper_Space
 70
0
 10
0.0
 20
0.0
 30
0.0
  3
*Paper_Space
  1

  0
ENDBLK
  5
1D
100
AcDbEntity
  8
0
100
AcDbBlockEnd
  0
BLOCK
  5
22B
100
AcDbEntity
  8
0
100
AcDbBlockBegin
 62
7
  6
CONTINUOUS
  2
SYMBOL_0_BL0
 70
64
 10
76.2103865308
 20
17.3148119562
  3
SYMBOL_0_BL0
  1

  0
ARC
  5
22C
100
AcDbEntity
  8
0
100
AcDbCircle
 62
7
  6
CONTINUOUS
 10
80.3909094131
 20
17.9582539917
 40
0.0793045722
100
AcDbArc
 50
270.0
 51
360.0
  0
LINE
  5
22D
100
AcDbEntity
  8
0
100
AcDbLine
 62
7
  6
CONTINUOUS
 10
80.4702139854
 20
17.9582539917
 11
80.4702139854
 21
18.1169176404
  0
ARC
  5
22E
100
AcDbEntity
  8
0
100
AcDbCircle
 62
7
  6
CONTINUOUS
 10
80.3909094131
 20
18.1169176404
 40
0.0793045722
100
AcDbArc
 50
0.0
 51
90.0
  0
LINE
  5
22F
100
AcDbEntity
  8
0
100
AcDbLine
 62
7
  6
CONTINUOUS
 10
80.3909094131
 20
18.1962222126
 11
78.2589008733
 21
18.1962222126
  0
SPLINE
  5
230
100
AcDbEntity
  8
0
100
AcDbSpline
 62
7
  6
CONTINUOUS
 70
0
 71
3
 72
13
 73
9
 74
0
 42
0.0000001
 43
0.0000001
 44
0.0000000001
 40
0.0
 40
0.0
 40
0.0
 40
0.0
 40
0.1310616762
 40
0.2699656353
 40
0.4157607805
 40
0.5899807757
 40
0.76586761
 40
0.9948829976
 40
0.9948829976
 40
0.9948829976
 40
0.9948829976
 10
78.2589008733
 20
18.1962222126
 30
0.0
 10
78.2140841136
 20
18.1928842307
 30
0.0
 10
78.1217689137
 20
18.1860085341
 30
0.0
 10
77.996663434
 20
18.1084860478
 30
0.0
 10
77.9068526286
 20
17.978339756
 30
0.0
 10
77.8484530027
 20
17.8191994893
 30
0.0
 10
77.815558768
 20
17.6246639265
 30
0.0
 10
77.8125300983
 20
17.4872016818
 30
0.0
 10
77.8109604095
 20
17.4094419101
 30
0.0
  0
LINE
  5
231
100
AcDbEntity
  8
0
100
AcDbLine
 62
7
  6
CONTINUOUS
 10
77.8109604095
 20
17.4094419101
 11
77.8110995976
 21
17.3973750582
  0
SPLINE
  5
232
100
AcDbEntity
  8
0
100
AcDbSpline
 62
7
  6
CONTINUOUS
 70
0
 71
3
 72
13
 73
9
 74
0
 42
0.0000001
 43
0.0000001
 44
0.0000000001
 40
0.0
 40
0.0
 40
0.0
 40
0.0
 40
0.2222860645
 40
0.3981728988
 40
0.572392894
 40
0.7181880393
 40
0.8570919984
 40
0.9881536746
 40
0.9881536746
 40
0.9881536746
 40
0.9881536746
 10
77.8110995976
 20
17.3973750582
 30
0.0
 10
77.8126383503
 20
17.3219011567
 30
0.0
 10
77.8159403181
 20
17.1867485929
 30
0.0
 10
77.8484529759
 20
16.9944680496
 30
0.0
 10
77.9068533009
 20
16.8353455812
 30
0.0
 10
77.996661305
 20
16.7051440556
 30
0.0
 10
78.121776333
 20
16.6278068809
 30
0.0
 10
78.2140690262
 20
16.6204948347
 30
0.0
 10
78.2589008733
 20
16.6171557303
 30
0.0
  0
LINE
  5
233
100
AcDbEntity
  8
0
100
AcDbLine
 62
7
  6
CONTINUOUS
 10
78.2589008733
 20
16.6171557303
 11
80.3910825033
 21
16.6218094336
  0
ARC
  5
234
100
AcDbEntity
  8
0
100
AcDbCircle
 62
7
  6
CONTINUOUS
 10
80.3909094131
 20
16.7011138168
 40
0.079304572
100
AcDbArc
 50
270.125053868
 51
360.0
  0
LINE
  5
235
100
AcDbEntity
  8
0
100
AcDbLine
 62
7
  6
CONTINUOUS
 10
80.4702139854
 20
16.7011138168
 11
80.4702139854
 21
16.8535829145
  0
ARC
  5
236
100
AcDbEntity
  8
0
100
AcDbCircle
 62
7
  6
CONTINUOUS
 10
80.3909094131
 20
16.8535829145
 40
0.0793045722
100
AcDbArc
 50
0.0
 51
90.0
  0
LINE
  5
237
100
AcDbEntity
  8
0
100
AcDbLine
 62
7
  6
CONTINUOUS
 10
80.3909094131
 20
16.9328874868
 11
78.5634867003
 21
16.9328874868
  0
LINE
  5
238
100
AcDbEntity
  8
0
100
AcDbLine
 62
7
  6
CONTINUOUS
 10
78.4841821281
 20
17.012192059
 11
78.4841821281
 21
17.7996448472
  0
ARC
  5
239
100
AcDbEntity
  8
0
100
AcDbCircle
 62
7
  6
CONTINUOUS
 10
78.563486701
 20
17.7996448472
 40
0.0793045722
100
AcDbArc
 50
90.0
 51
180.0
  0
LINE
  5
23A
100
AcDbEntity
  8
0
100
AcDbLine
 62
7
  6
CONTINUOUS
 10
78.5634867003
 20
17.8789494195
 11
80.3909094131
 21
17.8789494195
  0
LINE
  5
23B
100
AcDbEntity
  8
0
100
AcDbLine
 62
7
  6
CONTINUOUS
 10
75.3050296988
 20
17.2465583371
 11
76.8281831233
 21
17.2465583371
  0
ARC
  5
23C
100
AcDbEntity
  8
0
100
AcDbCircle
 62
7
  6
CONTINUOUS
 10
76.8281831231
 20
17.167253765
 40
0.0793045722
100
AcDbArc
 50
0.0
 51
90.0
  0
LINE
  5
23D
100
AcDbEntity
  8
0
100
AcDbLine
 62
7
  6
CONTINUOUS
 10
76.9074876955
 20
17.1672537648
 11
76.9074876955
 21
17.0053220198
  0
LINE
  5
23E
100
AcDbEntity
  8
0
100
AcDbLine
 62
7
  6
CONTINUOUS
 10
76.8281831233
 20
16.9260174476
 11
75.0526694061
 21
16.9260174476
  0
ARC
  5
23F
100
AcDbEntity
  8
0
100
AcDbCircle
 62
7
  6
CONTINUOUS
 10
75.0526694061
 20
16.8467128754
 40
0.0793045722
100
AcDbArc
 50
90.0
 51
180.0
  0
LINE
  5
240
100
AcDbEntity
  8
0
100
AcDbLine
 62
7
  6
CONTINUOUS
 10
74.9733648339
 20
16.8467128754
 11
74.9733648339
 21
16.6964595022
  0
ARC
  5
241
100
AcDbEntity
  8
0
100
AcDbCircle
 62
7
  6
CONTINUOUS
 10
75.0526694061
 20
16.6964595022
 40
0.0793045722
100
AcDbArc
 50
180.0
 51
270.0
  0
LINE
  5
242
100
AcDbEntity
  8
0
100
AcDbLine
 62
7
  6
CONTINUOUS
 10
75.0526694061
 20
16.6171549299
 11
77.2568791308
 21
16.6171549299
  0
SPLINE
  5
243
100
AcDbEntity
  8
0
100
AcDbSpline
 62
7
  6
CONTINUOUS
 70
0
 71
3
 72
13
 73
9
 74
0
 42
0.0000001
 43
0.0000001
 44
0.0000000001
 40
0.0
 40
0.0
 40
0.0
 40
0.0
 40
0.1604571392
 40
0.3334692485
 40
0.4767982758
 40
0.6242014838
 40
0.7505998515
 40
1.0
 40
1.0
 40
1.0
 40
1.0
 10
77.2568791308
 20
16.6171549299
 30
0.0
 10
77.2940423819
 20
16.6189442741
 30
0.0
 10
77.3712767217
 20
16.622662968
 30
0.0
 10
77.4751350315
 20
16.6677534834
 30
0.0
 10
77.5533956896
 20
16.7435468762
 30
0.0
 10
77.5974986483
 20
16.8304410729
 30
0.0
 10
77.631311729
 20
16.9470105282
 30
0.0
 10
77.6326838653
 20
17.0342455784
 30
0.0
 10
77.633594488
 20
17.0921394583
 30
0.0
  0
SPLINE
  5
244
100
AcDbEntity
  8
0
100
AcDbSpline
 62
7
  6
CONTINUOUS
 70
0
 71
3
 72
13
 73
9
 74
0
 42
0.0000001
 43
0.0000001
 44
0.0000000001
 40
0.0
 40
0.0
 40
0.0
 40
0.0
 40
0.2494001485
 40
0.3757985162
 40
0.5232017242
 40
0.6665307515
 40
0.8395428608
 40
1.0
 40
1.0
 40
1.0
 40
1.0
 10
77.633594488
 20
17.0921394583
 30
0.0
 10
77.6326838653
 20
17.1500333394
 30
0.0
 10
77.631311729
 20
17.2372683884
 30
0.0
 10
77.5974986483
 20
17.3538378448
 30
0.0
 10
77.5533956896
 20
17.4407320415
 30
0.0
 10
77.4751350315
 20
17.5165254331
 30
0.0
 10
77.3712767217
 20
17.5616159485
 30
0.0
 10
77.2940423819
 20
17.5653346436
 30
0.0
 10
77.2568791308
 20
17.5671239866
 30
0.0
  0
LINE
  5
245
100
AcDbEntity
  8
0
100
AcDbLine
 62
7
  6
CONTINUOUS
 10
77.2568791308
 20
17.5671239866
 11
75.7540283332
 21
17.5671239866
  0
LINE
  5
246
100
AcDbEntity
  8
0
100
AcDbLine
 62
7
  6
CONTINUOUS
 10
75.674723761
 20
17.6464285589
 11
75.674723761
 21
17.7964807656
  0
ARC
  5
247
100
AcDbEntity
  8
0
100
AcDbCircle
 62
7
  6
CONTINUOUS
 10
75.7540283326
 20
17.7964807656
 40
0.0793045722
100
AcDbArc
 50
90.0
 51
180.0
  0
LINE
  5
248
100
AcDbEntity
  8
0
100
AcDbLine
 62
7
  6
CONTINUOUS
 10
75.7540283332
 20
17.8757853379
 11
77.5319520492
 21
17.8757853379
  0
ARC
  5
249
100
AcDbEntity
  8
0
100
AcDbCircle
 62
7
  6
CONTINUOUS
 10
77.5319520492
 20
17.9550899101
 40
0.0793045722
100
AcDbArc
 50
270.0
 51
360.0
  0
LINE
  5
24A
100
AcDbEntity
  8
0
100
AcDbLine
 62
7
  6
CONTINUOUS
 10
77.6112566215
 20
17.9550899101
 11
77.6112566215
 21
18.1169176404
  0
ARC
  5
24B
100
AcDbEntity
  8
0
100
AcDbCircle
 62
7
  6
CONTINUOUS
 10
77.5319520492
 20
18.1169176404
 40
0.0793045722
100
AcDbArc
 50
0.0
 51
90.0
  0
LINE
  5
24C
100
AcDbEntity
  8
0
100
AcDbLine
 62
7
  6
CONTINUOUS
 10
77.5319520492
 20
18.1962222126
 11
75.3050296988
 21
18.1962222126
  0
SPLINE
  5
24D
100
AcDbEntity
  8
0
100
AcDbSpline
 62
7
  6
CONTINUOUS
 70
0
 71
3
 72
13
 73
9
 74
0
 42
0.0000001
 43
0.0000001
 44
0.0000000001
 40
0.0
 40
0.0
 40
0.0
 40
0.0
 40
0.1133740464
 40
0.2392044088
 40
0.3655787964
 40
0.4912154373
 40
0.7445390876
 40
1.0
 40
1.0
 40
1.0
 40
1.0
 10
75.3050296988
 20
18.1962222126
 30
0.0
 10
75.2795897876
 20
18.1949691784
 30
0.0
 10
75.2259149036
 20
18.1923254385
 30
0.0
 10
75.1461861727
 20
18.1685048754
 30
0.0
 10
75.0748610533
 20
18.1204037401
 30
0.0
 10
75.0020018076
 20
18.0317996136
 30
0.0
 10
74.9561541483
 20
17.8927029235
 30
0.0
 10
74.9511819627
 20
17.7786541873
 30
0.0
 10
74.9486854279
 20
17.7213902749
 30
0.0
  0
SPLINE
  5
24E
100
AcDbEntity
  8
0
100
AcDbSpline
 62
7
  6
CONTINUOUS
 70
0
 71
3
 72
13
 73
9
 74
0
 42
0.0000001
 43
0.0000001
 44
0.0000000001
 40
0.0
 40
0.0
 40
0.0
 40
0.0
 40
0.2554609124
 40
0.5087845627
 40
0.6344212036
 40
0.7607955912
 40
0.8866259536
 40
1.0
 40
1.0
 40
1.0
 40
1.0
 10
74.9486854279
 20
17.7213902749
 30
0.0
 10
74.9511819627
 20
17.6641263624
 30
0.0
 10
74.9561541483
 20
17.550077625
 30
0.0
 10
75.0020018076
 20
17.4109809361
 30
0.0
 10
75.0748610533
 20
17.3223768096
 30
0.0
 10
75.1461861727
 20
17.2742756743
 30
0.0
 10
75.2259149036
 20
17.2504551112
 30
0.0
 10
75.2795897876
 20
17.2478113713
 30
0.0
 10
75.3050296988
 20
17.2465583371
 30
0.0
  0
LINE
  5
24F
100
AcDbEntity
  8
0
100
AcDbLine
 62
7
  6
CONTINUOUS
 10
72.3748128577
 20
16.6171549299
 11
73.6070404017
 21
16.6171549299
  0
LINE
  5
250
100
AcDbEntity
  8
0
100
AcDbLine
 62
7
  6
CONTINUOUS
 10
73.6070404017
 20
16.6171549299
 11
73.6070404017
 21
16.4639034584
  0
ARC
  5
251
100
AcDbEntity
  8
0
100
AcDbCircle
 62
7
  6
CONTINUOUS
 10
73.6375421603
 20
16.4639034584
 40
0.0305017586
100
AcDbArc
 50
180.0
 51
270.0
  0
LINE
  5
252
100
AcDbEntity
  8
0
100
AcDbLine
 62
7
  6
CONTINUOUS
 10
73.6375421603
 20
16.4334016998
 11
74.1124855637
 21
16.4334016998
  0
ARC
  5
253
100
AcDbEntity
  8
0
100
AcDbCircle
 62
7
  6
CONTINUOUS
 10
74.1124855637
 20
16.4639034584
 40
0.0305017586
100
AcDbArc
 50
270.0
 51
360.0
  0
LINE
  5
254
100
AcDbEntity
  8
0
100
AcDbLine
 62
7
  6
CONTINUOUS
 10
74.1429873222
 20
16.4639034584
 11
74.1429873222
 21
16.6171549299
  0
LINE
  5
255
100
AcDbEntity
  8
0
100
AcDbLine
 62
7
  6
CONTINUOUS
 10
74.1429873222
 20
16.6171549299
 11
74.3852893758
 21
16.6171549299
  0
SPLINE
  5
256
100
AcDbEntity
  8
0
100
AcDbSpline
 62
7
  6
CONTINUOUS
 70
0
 71
3
 72
12
 73
8
 74
0
 42
0.0000001
 43
0.0000001
 44
0.0000000001
 40
0.0
 40
0.0
 40
0.0
 40
0.0
 40
0.2415790084
 40
0.4893269843
 40
0.7378634303
 40
0.8656387112
 40
1.0
 40
1.0
 40
1.0
 40
1.0
 10
74.3852893758
 20
16.6171549299
 30
0.0
 10
74.4287365211
 20
16.6185056527
 30
0.0
 10
74.5167402803
 20
16.6212415909
 30
0.0
 10
74.6455245991
 20
16.6671695041
 30
0.0
 10
74.7237378513
 20
16.7538692496
 30
0.0
 10
74.7581960137
 20
16.8404983336
 30
0.0
 10
74.7588170003
 20
16.8879535625
 30
0.0
 10
74.7591352946
 20
16.9122773168
 30
0.0
  0
LINE
  5
257
100
AcDbEntity
  8
0
100
AcDbLine
 62
7
  6
CONTINUOUS
 10
74.7591352946
 20
16.9122773168
 11
74.7591352946
 21
17.8992477688
  0
SPLINE
  5
258
100
AcDbEntity
  8
0
100
AcDbSpline
 62
7
  6
CONTINUOUS
 70
0
 71
3
 72
12
 73
8
 74
0
 42
0.0000001
 43
0.0000001
 44
0.0000000001
 40
0.0
 40
0.0
 40
0.0
 40
0.0
 40
0.1343612888
 40
0.2621365697
 40
0.5106730157
 40
0.7584209916
 40
1.0
 40
1.0
 40
1.0
 40
1.0
 10
74.7591352946
 20
17.8992477688
 30
0.0
 10
74.7588170003
 20
17.9235715243
 30
0.0
 10
74.7581960137
 20
17.9710267532
 30
0.0
 10
74.7237378513
 20
18.0576558372
 30
0.0
 10
74.6455245991
 20
18.1443555827
 30
0.0
 10
74.5167402803
 20
18.1902834946
 30
0.0
 10
74.4287365211
 20
18.1930194328
 30
0.0
 10
74.3852893758
 20
18.1943701556
 30
0.0
  0
LINE
  5
259
100
AcDbEntity
  8
0
100
AcDbLine
 62
7
  6
CONTINUOUS
 10
74.3852893758
 20
18.1943701556
 11
72.3748128577
 21
18.1943701556
  0
SPLINE
  5
25A
100
AcDbEntity
  8
0
100
AcDbSpline
 62
7
  6
CONTINUOUS
 70
0
 71
3
 72
12
 73
8
 74
0
 42
0.0000001
 43
0.0000001
 44
0.0000000001
 40
0.0
 40
0.0
 40
0.0
 40
0.0
 40
0.1341799809
 40
0.290831959
 40
0.5815217441
 40
0.760783857
 40
1.0
 40
1.0
 40
1.0
 40
1.0
 10
72.3748128577
 20
18.1943701556
 30
0.0
 10
72.3309607954
 20
18.1868754221
 30
0.0
 10
72.2359124806
 20
18.1706307614
 30
0.0
 10
72.0759138969
 20
18.0510961912
 30
0.0
 10
72.0001304476
 20
17.8499912805
 30
0.0
 10
71.9557902291
 20
17.6220203294
 30
0.0
 10
71.9524617479
 20
17.4841331073
 30
0.0
 10
71.9505590762
 20
17.4053121672
 30
0.0
  0
SPLINE
  5
25B
100
AcDbEntity
  8
0
100
AcDbSpline
 62
7
  6
CONTINUOUS
 70
0
 71
3
 72
12
 73
8
 74
0
 42
0.0000001
 43
0.0000001
 44
0.0000000001
 40
0.0
 40
0.0
 40
0.0
 40
0.0
 40
0.2392679579
 40
0.4185688994
 40
0.7093216488
 40
0.8660075581
 40
1.0
 40
1.0
 40
1.0
 40
1.0
 10
71.9505590762
 20
17.4053121672
 30
0.0
 10
71.952462508
 20
17.3264942994
 30
0.0
 10
71.9557923179
 20
17.1886124516
 30
0.0
 10
72.0001229686
 20
16.9606028145
 30
0.0
 10
72.0759527195
 20
16.7596851297
 30
0.0
 10
72.2357847222
 20
16.6397624064
 30
0.0
 10
72.3309465975
 20
16.6242880578
 30
0.0
 10
72.3748128577
 20
16.6171549299
 30
0.0
  0
LINE
  5
25C
100
AcDbEntity
  8
0
100
AcDbLine
 62
7
  6
CONTINUOUS
 10
74.3530202026
 20
17.0232208873
 11
74.3530202026
 21
17.8140093381
  0
ARC
  5
25D
100
AcDbEntity
  8
0
100
AcDbCircle
 62
7
  6
CONTINUOUS
 10
72.6892385557
 20
17.0232208873
 40
0.0793045722
100
AcDbArc
 50
180.0
 51
270.0
  0
LINE
  5
25E
100
AcDbEntity
  8
0
100
AcDbLine
 62
7
  6
CONTINUOUS
 10
72.6892385557
 20
16.9439163151
 11
73.600103255
 21
16.9439163151
  0
LINE
  5
25F
100
AcDbEntity
  8
0
100
AcDbLine
 62
7
  6
CONTINUOUS
 10
73.600103255
 20
16.9439163151
 11
73.600103255
 21
17.0966929462
  0
ARC
  5
260
100
AcDbEntity
  8
0
100
AcDbCircle
 62
7
  6
CONTINUOUS
 10
73.6306050141
 20
17.0966929462
 40
0.0305017586
100
AcDbArc
 50
90.0
 51
180.0
  0
LINE
  5
261
100
AcDbEntity
  8
0
100
AcDbLine
 62
7
  6
CONTINUOUS
 10
73.6306050135
 20
17.1271947048
 11
74.1031279987
 21
17.1271947048
  0
ARC
  5
262
100
AcDbEntity
  8
0
100
AcDbCircle
 62
7
  6
CONTINUOUS
 10
74.1031279976
 20
17.0966929474
 40
0.0305017586
100
AcDbArc
 50
0.0
 51
90.0
  0
LINE
  5
263
100
AcDbEntity
  8
0
100
AcDbLine
 62
7
  6
CONTINUOUS
 10
74.1336297573
 20
16.9439163151
 11
74.2737156303
 21
16.9439163151
  0
ARC
  5
264
100
AcDbEntity
  8
0
100
AcDbCircle
 62
7
  6
CONTINUOUS
 10
74.2737156303
 20
17.0232208873
 40
0.0793045722
100
AcDbArc
 50
270.0
 51
360.0
  0
LINE
  5
265
100
AcDbEntity
  8
0
100
AcDbLine
 62
7
  6
CONTINUOUS
 10
74.1336297573
 20
16.9439163151
 11
74.1336297573
 21
17.0966929462
  0
LINE
  5
266
100
AcDbEntity
  8
0
100
AcDbLine
 62
7
  6
CONTINUOUS
 10
72.6099339835
 20
17.0232208873
 11
72.6099339835
 21
17.8140093381
  0
ARC
  5
267
100
AcDbEntity
  8
0
100
AcDbCircle
 62
7
  6
CONTINUOUS
 10
72.6892385568
 20
17.8140093381
 40
0.0793045722
100
AcDbArc
 50
90.0
 51
180.0
  0
LINE
  5
268
100
AcDbEntity
  8
0
100
AcDbLine
 62
7
  6
CONTINUOUS
 10
72.6892385557
 20
17.8933139103
 11
74.2737156303
 21
17.8933139103
  0
ARC
  5
269
100
AcDbEntity
  8
0
100
AcDbCircle
 62
7
  6
CONTINUOUS
 10
74.273715631
 20
17.8140093374
 40
0.0793045722
100
AcDbArc
 50
0.0000000277
 51
90.0000000277
  0
ARC
  5
26A
100
AcDbEntity
  8
0
100
AcDbCircle
 62
7
  6
CONTINUOUS
 10
75.7540283332
 20
17.6464285589
 40
0.0793045722
100
AcDbArc
 50
180.0
 51
270.0
  0
ARC
  5
26B
100
AcDbEntity
  8
0
100
AcDbCircle
 62
7
  6
CONTINUOUS
 10
76.8281831233
 20
17.0053220198
 40
0.0793045722
100
AcDbArc
 50
270.0
 51
360.0
  0
ARC
  5
26C
100
AcDbEntity
  8
0
100
AcDbCircle
 62
7
  6
CONTINUOUS
 10
78.5634867003
 20
17.012192059
 40
0.0793045722
100
AcDbArc
 50
180.0
 51
270.0
  0
ENDBLK
  5
26D
100
AcDbEntity
  8
0
  6
BYBLOCK
 62
0
100
AcDbBlockEnd
  0
BLOCK
  5
26E
100
AcDbEntity
  8
0
100
AcDbBlockBegin
  2
_FILLED
 70
64
 10
0.0
 20
0.0
  3
_FILLED
  1

  0
SOLID
  5
26F
100
AcDbEntity
  8
0
  6
BYBLOCK
 62
0
100
AcDbTrace
 10
0.0
 20
0.0
 11
-1.0
 21
0.1666666667
 12
-1.0
 22
-0.1666666667
 13
-1.0
 23
-0.1666666667
  0
ENDBLK
  5
270
100
AcDbEntity
  8
0
  6
BYBLOCK
 62
0
100
AcDbBlockEnd
  0
BLOCK
  5
271
100
AcDbEntity
  8
0
100
AcDbBlockBegin
 62
2
  6
CONTINUOUS
  2
*D0
 70
65
 10
0.0
 20
0.0
  3
*D0
  1

  0
MTEXT
  5
272
100
AcDbEntity
  8
0
100
AcDbMText
 62
2
  6
CONTINUOUS
  7
STANDARD
 71
2
 72
1
 10
11.3331803422
 20
51.1836807567
 30
0.0
 11
1.0
 21
0.0
 31
0.0
 44
0.9
  1
281\P[11.1]
 40
1.0016025641
 41
3.1478937729
  0
LINE
  5
273
100
AcDbEntity
  8
0
100
AcDbLine
 62
2
  6
CONTINUOUS
 10
14.8476375409
 20
45.1474464038
 11
11.0326995729
 21
45.1474464038
  0
LINE
  5
274
100
AcDbEntity
  8
0
100
AcDbLine
 62
2
  6
CONTINUOUS
 10
15.823574491
 20
56.2183125456
 11
11.0326995729
 21
56.2183125456
  0
LINE
  5
275
100
AcDbEntity
  8
0
100
AcDbLine
 62
2
  6
CONTINUOUS
 10
11.8339816242
 20
45.1474464038
 11
11.8339816242
 21
48.1788730644
  0
LINE
  5
276
100
AcDbEntity
  8
0
100
AcDbLine
 62
2
  6
CONTINUOUS
 10
11.8339816242
 20
56.2183125456
 11
11.8339816242
 21
51.6844820388
  0
INSERT
  5
277
100
AcDbEntity
  8
0
100
AcDbBlockReference
 62
2
  6
CONTINUOUS
  2
_FILLED
 10
11.8339816242
 20
45.1474464038
 41
1.2019230769
 42
1.2019230769
 43
1.2019230769
 50
270.0
  0
INSERT
  5
278
100
AcDbEntity
  8
0
100
AcDbBlockReference
 62
2
  6
CONTINUOUS
  2
_FILLED
 10
11.8339816242
 20
56.2183125456
 41
1.2019230769
 42
1.2019230769
 43
1.2019230769
 50
90.0
  0
ENDBLK
  5
279
100
AcDbEntity
  8
0
  6
BYBLOCK
 62
0
100
AcDbBlockEnd
  0
BLOCK
  5
27A
100
AcDbEntity
  8
0
100
AcDbBlockBegin
 62
2
  6
CONTINUOUS
  2
*D1
 70
65
 10
0.0
 20
0.0
  3
*D1
  1

  0
MTEXT
  5
27B
100
AcDbEntity
  8
0
100
AcDbMText
 62
2
  6
CONTINUOUS
  7
STANDARD
 71
2
 72
1
 10
23.9740803893
 20
44.03129814
 30
0.0
 11
1.0
 21
0.0
 31
0.0
 44
0.9
  1
481\P[18.9]
 40
1.0016025641
 41
3.5771520147
  0
LINE
  5
27C
100
AcDbEntity
  8
0
100
AcDbLine
 62
2
  6
CONTINUOUS
 10
34.1636015372
 20
45.6877502601
 11
34.1636015372
 21
42.7292148066
  0
LINE
  5
27D
100
AcDbEntity
  8
0
100
AcDbLine
 62
2
  6
CONTINUOUS
 10
15.2154200472
 20
45.6877502601
 11
15.2154200472
 21
42.7292148066
  0
LINE
  5
27E
100
AcDbEntity
  8
0
100
AcDbLine
 62
2
  6
CONTINUOUS
 10
34.1636015372
 20
43.5304968579
 11
26.9788880816
 21
43.5304968579
  0
LINE
  5
27F
100
AcDbEntity
  8
0
100
AcDbLine
 62
2
  6
CONTINUOUS
 10
15.2154200472
 20
43.5304968579
 11
22.4001335028
 21
43.5304968579
  0
INSERT
  5
280
100
AcDbEntity
  8
0
100
AcDbBlockReference
 62
2
  6
CONTINUOUS
  2
_FILLED
 10
34.1636015372
 20
43.5304968579
 41
1.2019230769
 42
1.2019230769
 43
1.2019230769
  0
INSERT
  5
281
100
AcDbEntity
  8
0
100
AcDbBlockReference
 62
2
  6
CONTINUOUS
  2
_FILLED
 10
15.2154200472
 20
43.5304968579
 41
1.2019230769
 42
1.2019230769
 43
1.2019230769
 50
180.0
  0
ENDBLK
  5
282
100
AcDbEntity
  8
0
  6
BYBLOCK
 62
0
100
AcDbBlockEnd
  0
BLOCK
  5
283
100
AcDbEntity
  8
0
100
AcDbBlockBegin
 62
2
  6
CONTINUOUS
  2
*D2
 70
65
 10
0.0
 20
0.0
  3
*D2
  1

  0
MTEXT
  5
284
100
AcDbEntity
  8
0
100
AcDbMText
 62
2
  6
CONTINUOUS
  7
STANDARD
 71
2
 72
1
 10
24.0456234296
 20
59.7404554419
 30
0.0
 11
1.0
 21
0.0
 31
0.0
 44
0.9
  1
437\P[17.2]
 40
1.0016025641
 41
3.5771520147
  0
LINE
  5
285
100
AcDbEntity
  8
0
100
AcDbLine
 62
2
  6
CONTINUOUS
 10
16.0942942568
 20
56.4890323114
 11
16.0942942568
 21
60.0409362111
  0
LINE
  5
286
100
AcDbEntity
  8
0
100
AcDbLine
 62
2
  6
CONTINUOUS
 10
33.2847273277
 20
56.4890323114
 11
33.2847273277
 21
60.0409362111
  0
LINE
  5
287
100
AcDbEntity
  8
0
100
AcDbLine
 62
2
  6
CONTINUOUS
 10
16.0942942568
 20
59.2396541598
 11
22.4001335028
 21
59.2396541598
  0
LINE
  5
288
100
AcDbEntity
  8
0
100
AcDbLine
 62
2
  6
CONTINUOUS
 10
33.2847273277
 20
59.2396541598
 11
26.9788880816
 21
59.2396541598
  0
INSERT
  5
289
100
AcDbEntity
  8
0
100
AcDbBlockReference
 62
2
  6
CONTINUOUS
  2
_FILLED
 10
16.0942942568
 20
59.2396541598
 41
1.2019230769
 42
1.2019230769
 43
1.2019230769
 50
180.0
  0
INSERT
  5
28A
100
AcDbEntity
  8
0
100
AcDbBlockReference
 62
2
  6
CONTINUOUS
  2
_FILLED
 10
33.2847273277
 20
59.2396541598
 41
1.2019230769
 42
1.2019230769
 43
1.2019230769
  0
ENDBLK
  5
28B
100
AcDbEntity
  8
0
  6
BYBLOCK
 62
0
100
AcDbBlockEnd
  0
BLOCK
  5
28C
100
AcDbEntity
  8
0
100
AcDbBlockBegin
 62
2
  6
CONTINUOUS
  2
*D3
 70
65
 10
0.0
 20
0.0
  3
*D3
  1

  0
MTEXT
  5
28D
100
AcDbEntity
  8
0
100
AcDbMText
 62
2
  6
CONTINUOUS
  7
STANDARD
 71
2
 72
1
 10
36.9816447593
 20
30.9544985986
 30
0.0
 11
1.0
 21
0.0
 31
0.0
 44
0.9
  1
88\P[3.5]
 40
1.0016025641
 41
2.8617216117
  0
LINE
  5
28E
100
AcDbEntity
  8
0
100
AcDbLine
 62
2
  6
CONTINUOUS
 10
34.5313840436
 20
31.3615283119
 11
38.4268141732
 21
31.3615283119
  0
LINE
  5
28F
100
AcDbEntity
  8
0
100
AcDbLine
 62
2
  6
CONTINUOUS
 10
34.5313840436
 20
27.9076306742
 11
38.4268141732
 21
27.9076306742
  0
LINE
  5
290
100
AcDbEntity
  8
0
100
AcDbLine
 62
2
  6
CONTINUOUS
 10
37.6255321219
 20
31.3615283119
 11
37.6255321219
 21
34.5666565171
  0
LINE
  5
291
100
AcDbEntity
  8
0
100
AcDbLine
 62
2
  6
CONTINUOUS
 10
37.6255321219
 20
27.9076306742
 11
37.6255321219
 21
24.702502469
  0
INSERT
  5
292
100
AcDbEntity
  8
0
100
AcDbBlockReference
 62
2
  6
CONTINUOUS
  2
_FILLED
 10
37.6255321219
 20
31.3615283119
 41
1.2019230769
 42
1.2019230769
 43
1.2019230769
 50
270.0
  0
INSERT
  5
293
100
AcDbEntity
  8
0
100
AcDbBlockReference
 62
2
  6
CONTINUOUS
  2
_FILLED
 10
37.6255321219
 20
27.9076306742
 41
1.2019230769
 42
1.2019230769
 43
1.2019230769
 50
90.0
  0
ENDBLK
  5
294
100
AcDbEntity
  8
0
  6
BYBLOCK
 62
0
100
AcDbBlockEnd
  0
BLOCK
  5
295
100
AcDbEntity
  8
0
100
AcDbBlockBegin
 62
2
  6
CONTINUOUS
  2
*D4
 70
65
 10
0.0
 20
0.0
  3
*D4
  1

  0
MTEXT
  5
296
100
AcDbEntity
  8
0
100
AcDbMText
 62
2
  6
CONTINUOUS
  7
STANDARD
 71
2
 72
1
 10
5.6609133349
 20
30.8368752165
 30
0.0
 11
1.0
 21
0.0
 31
0.0
 44
0.9
  1
2X 76\P[3.0]
 40
1.0016025641
 41
4.0064102564
  0
LINE
  5
297
100
AcDbEntity
  8
0
100
AcDbLine
 62
2
  6
CONTINUOUS
 10
14.8218041152
 20
31.1345794931
 11
5.5392901664
 21
31.1345794931
  0
LINE
  5
298
100
AcDbEntity
  8
0
100
AcDbLine
 62
2
  6
CONTINUOUS
 10
14.8251016904
 20
28.1345794931
 11
5.5392901664
 21
28.1345794931
  0
LINE
  5
299
100
AcDbEntity
  8
0
100
AcDbLine
 62
2
  6
CONTINUOUS
 10
6.3405722177
 20
31.1345794931
 11
6.3405722177
 21
34.3397076982
  0
LINE
  5
29A
100
AcDbEntity
  8
0
100
AcDbLine
 62
2
  6
CONTINUOUS
 10
6.3405722177
 20
28.1345794931
 11
6.3405722177
 21
24.9294512879
  0
INSERT
  5
29B
100
AcDbEntity
  8
0
100
AcDbBlockReference
 62
2
  6
CONTINUOUS
  2
_FILLED
 10
6.3405722177
 20
31.1345794931
 41
1.2019230769
 42
1.2019230769
 43
1.2019230769
 50
270.0
  0
INSERT
  5
29C
100
AcDbEntity
  8
0
100
AcDbBlockReference
 62
2
  6
CONTINUOUS
  2
_FILLED
 10
6.3405722177
 20
28.1345794931
 41
1.2019230769
 42
1.2019230769
 43
1.2019230769
 50
90.0
  0
ENDBLK
  5
29D
100
AcDbEntity
  8
0
  6
BYBLOCK
 62
0
100
AcDbBlockEnd
  0
BLOCK
  5
29E
100
AcDbEntity
  8
0
100
AcDbBlockBegin
 62
2
  6
CONTINUOUS
  2
*D5
 70
65
 10
0.0
 20
0.0
  3
*D5
  1

  0
MTEXT
  5
29F
100
AcDbEntity
  8
0
100
AcDbMText
 62
2
  6
CONTINUOUS
  7
STANDARD
 71
2
 72
1
 10
24.1171664699
 20
35.7139859963
 30
0.0
 11
1.0
 21
0.0
 31
0.0
 44
0.9
  1
2X 469\P[18.5]
 40
1.0016025641
 41
4.7933836996
  0
LINE
  5
2A0
100
AcDbEntity
  8
0
100
AcDbLine
 62
2
  6
CONTINUOUS
 10
15.4556525245
 20
31.7908284017
 11
15.4556525245
 21
36.0144667656
  0
LINE
  5
2A1
100
AcDbEntity
  8
0
100
AcDbLine
 62
2
  6
CONTINUOUS
 10
33.9233690599
 20
31.7783838987
 11
33.9233690599
 21
36.0144667656
  0
LINE
  5
2A2
100
AcDbEntity
  8
0
100
AcDbLine
 62
2
  6
CONTINUOUS
 10
15.4556525245
 20
35.2131847143
 11
21.219673338
 21
35.2131847143
  0
LINE
  5
2A3
100
AcDbEntity
  8
0
100
AcDbLine
 62
2
  6
CONTINUOUS
 10
33.9233690599
 20
35.2131847143
 11
28.1593482464
 21
35.2131847143
  0
INSERT
  5
2A4
100
AcDbEntity
  8
0
100
AcDbBlockReference
 62
2
  6
CONTINUOUS
  2
_FILLED
 10
15.4556525245
 20
35.2131847143
 41
1.2019230769
 42
1.2019230769
 43
1.2019230769
 50
180.0
  0
INSERT
  5
2A5
100
AcDbEntity
  8
0
100
AcDbBlockReference
 62
2
  6
CONTINUOUS
  2
_FILLED
 10
33.9233690599
 20
35.2131847143
 41
1.2019230769
 42
1.2019230769
 43
1.2019230769
  0
ENDBLK
  5
2A6
100
AcDbEntity
  8
0
  6
BYBLOCK
 62
0
100
AcDbBlockEnd
  0
BLOCK
  5
2A7
100
AcDbEntity
  8
0
100
AcDbBlockBegin
 62
2
  6
CONTINUOUS
  2
*D6
 70
65
 10
0.0
 20
0.0
  3
*D6
  1

  0
MTEXT
  5
2A8
100
AcDbEntity
  8
0
100
AcDbMText
 62
2
  6
CONTINUOUS
  7
STANDARD
 71
1
 72
1
 10
19.3405707628
 20
23.1331598719
 30
0.0
 11
1.0
 21
0.0
 31
0.0
 44
0.9
  1
4X 3\P[.1]
 40
1.0016025641
 41
3.1478937729
  0
LINE
  5
2A9
100
AcDbEntity
  8
0
100
AcDbLine
 62
2
  6
CONTINUOUS
 10
15.4556525245
 20
27.4817443493
 11
15.4556525245
 21
21.8310765386
  0
LINE
  5
2AA
100
AcDbEntity
  8
0
100
AcDbLine
 62
2
  6
CONTINUOUS
 10
15.5856525245
 20
27.480197906
 11
15.5856525245
 21
21.8310765386
  0
LINE
  5
2AB
100
AcDbEntity
  8
0
100
AcDbLine
 62
2
  6
CONTINUOUS
 10
15.4556525245
 20
22.6323585899
 11
12.2505243194
 21
22.6323585899
  0
LINE
  5
2AC
100
AcDbEntity
  8
0
100
AcDbLine
 62
2
  6
CONTINUOUS
 10
15.5856525245
 20
22.6323585899
 11
18.8397694808
 21
22.6323585899
  0
INSERT
  5
2AD
100
AcDbEntity
  8
0
100
AcDbBlockReference
 62
2
  6
CONTINUOUS
  2
_FILLED
 10
15.4556525245
 20
22.6323585899
 41
1.2019230769
 42
1.2019230769
 43
1.2019230769
  0
INSERT
  5
2AE
100
AcDbEntity
  8
0
100
AcDbBlockReference
 62
2
  6
CONTINUOUS
  2
_FILLED
 10
15.5856525245
 20
22.6323585899
 41
1.2019230769
 42
1.2019230769
 43
1.2019230769
 50
180.0
  0
ENDBLK
  5
2AF
100
AcDbEntity
  8
0
  6
BYBLOCK
 62
0
100
AcDbBlockEnd
  0
BLOCK
  5
2B0
100
AcDbEntity
  8
0
100
AcDbBlockBegin
 62
2
  6
CONTINUOUS
  2
*D7
 70
65
 10
0.0
 20
0.0
  3
*D7
  1

  0
MTEXT
  5
2B1
100
AcDbEntity
  8
0
100
AcDbMText
 62
2
  6
CONTINUOUS
  7
STANDARD
 71
3
 72
1
 10
11.2254531813
 20
26.5458774342
 30
0.0
 11
1.0
 21
0.0
 31
0.0
 44
0.9
  1
4X 7\P[.3]
 40
1.0016025641
 41
3.2194368132
  0
LINE
  5
2B2
100
AcDbEntity
  8
0
100
AcDbLine
 62
2
  6
CONTINUOUS
 10
15.0550114989
 20
28.262571619
 11
12.9481384134
 21
28.262571619
  0
LINE
  5
2B3
100
AcDbEntity
  8
0
100
AcDbLine
 62
2
  6
CONTINUOUS
 10
15.0550114989
 20
28.0065873671
 11
12.9481384134
 21
28.0065873671
  0
LINE
  5
2B4
100
AcDbEntity
  8
0
100
AcDbLine
 62
2
  6
CONTINUOUS
 10
13.7494204647
 20
28.262571619
 11
13.7494204647
 21
31.4676998242
  0
LINE
  5
2B5
100
AcDbEntity
  8
0
100
AcDbLine
 62
2
  6
CONTINUOUS
 10
13.7494204647
 20
28.0065873671
 11
13.7494204647
 21
26.0450761521
  0
LINE
  5
2B6
100
AcDbEntity
  8
0
100
AcDbLine
 62
2
  6
CONTINUOUS
 10
13.7494204647
 20
26.0450761521
 11
13.085572229
 21
26.0450761521
  0
INSERT
  5
2B7
100
AcDbEntity
  8
0
100
AcDbBlockReference
 62
2
  6
CONTINUOUS
  2
_FILLED
 10
13.7494204647
 20
28.262571619
 41
1.2019230769
 42
1.2019230769
 43
1.2019230769
 50
270.0
  0
INSERT
  5
2B8
100
AcDbEntity
  8
0
100
AcDbBlockReference
 62
2
  6
CONTINUOUS
  2
_FILLED
 10
13.7494204647
 20
28.0065873671
 41
1.2019230769
 42
1.2019230769
 43
1.2019230769
 50
90.0
  0
ENDBLK
  5
2B9
100
AcDbEntity
  8
0
  6
BYBLOCK
 62
0
100
AcDbBlockEnd
  0
BLOCK
  5
2BA
100
AcDbEntity
  8
0
100
AcDbBlockBegin
 62
2
  6
CONTINUOUS
  2
*D8
 70
65
 10
0.0
 20
0.0
  3
*D8
  1

  0
MTEXT
  5
2BB
100
AcDbEntity
  8
0
100
AcDbMText
 62
2
  6
CONTINUOUS
  7
STANDARD
 71
2
 72
1
 10
59.070206335
 20
36.2125777573
 30
0.0
 11
1.0
 21
0.0
 31
0.0
 44
0.9
  1
30\P[1.2]
 40
1.0016025641
 41
2.7901785714
  0
LINE
  5
2BC
100
AcDbEntity
  8
0
100
AcDbLine
 62
2
  6
CONTINUOUS
 10
57.8655917778
 20
30.2345794931
 11
60.5153757489
 21
30.2345794931
  0
LINE
  5
2BD
100
AcDbEntity
  8
0
100
AcDbLine
 62
2
  6
CONTINUOUS
 10
57.8774825266
 20
29.0345794931
 11
60.5153757489
 21
29.0345794931
  0
LINE
  5
2BE
100
AcDbEntity
  8
0
100
AcDbLine
 62
2
  6
CONTINUOUS
 10
59.7140936977
 20
30.2345794931
 11
59.7140936977
 21
33.207770065
  0
LINE
  5
2BF
100
AcDbEntity
  8
0
100
AcDbLine
 62
2
  6
CONTINUOUS
 10
59.7140936977
 20
29.0345794931
 11
59.7140936977
 21
25.8294512879
  0
INSERT
  5
2C0
100
AcDbEntity
  8
0
100
AcDbBlockReference
 62
2
  6
CONTINUOUS
  2
_FILLED
 10
59.7140936977
 20
30.2345794931
 41
1.2019230769
 42
1.2019230769
 43
1.2019230769
 50
270.0
  0
INSERT
  5
2C1
100
AcDbEntity
  8
0
100
AcDbBlockReference
 62
2
  6
CONTINUOUS
  2
_FILLED
 10
59.7140936977
 20
29.0345794931
 41
1.2019230769
 42
1.2019230769
 43
1.2019230769
 50
90.0
  0
ENDBLK
  5
2C2
100
AcDbEntity
  8
0
  6
BYBLOCK
 62
0
100
AcDbBlockEnd
  0
BLOCK
  5
2C3
100
AcDbEntity
  8
0
100
AcDbBlockBegin
 62
2
  6
CONTINUOUS
  2
*D9
 70
65
 10
0.0
 20
0.0
  3
*D9
  1

  0
MTEXT
  5
2C4
100
AcDbEntity
  8
0
100
AcDbMText
 62
2
  6
CONTINUOUS
  7
STANDARD
 71
3
 72
1
 10
51.2012702977
 20
27.4533375117
 30
0.0
 11
1.0
 21
0.0
 31
0.0
 44
0.9
  1
2X \Fgdt;{\Fgdt;n}\Ftxt;4\P[.1]
 40
1.0016025641
 41
4.5549068987
  0
LINE
  5
2C5
100
AcDbEntity
  8
0
100
AcDbLine
 62
2
  6
CONTINUOUS
 10
57.2030843013
 20
30.1847042583
 11
54.0200660852
 21
26.9525362296
  0
LINE
  5
2C6
100
AcDbEntity
  8
0
100
AcDbLine
 62
2
  6
CONTINUOUS
 10
54.0200660852
 20
26.9525362296
 11
52.9183032647
 21
26.9525362296
  0
INSERT
  5
2C7
100
AcDbEntity
  8
0
100
AcDbBlockReference
 62
2
  6
CONTINUOUS
  2
_FILLED
 10
57.2030843013
 20
30.1847042583
 41
1.2019230769
 42
1.2019230769
 43
1.2019230769
 50
45.4389618042
  0
ENDBLK
  5
2C8
100
AcDbEntity
  8
0
  6
BYBLOCK
 62
0
100
AcDbBlockEnd
  0
BLOCK
  5
2C9
100
AcDbEntity
  8
0
100
AcDbBlockBegin
 62
2
  6
CONTINUOUS
  2
*D10
 70
65
 10
0.0
 20
0.0
  3
*D10
  1

  0
MTEXT
  5
2CA
100
AcDbEntity
  8
0
100
AcDbMText
 62
2
  6
CONTINUOUS
  7
STANDARD
 71
2
 72
1
 10
84.0845001153
 20
25.9810768691
 30
0.0
 11
1.0
 21
0.0
 31
0.0
 44
0.9
  1
2X 422\P[16.6]
 40
1.0016025641
 41
4.7933836996
  0
LINE
  5
2CB
100
AcDbEntity
  8
0
100
AcDbLine
 62
2
  6
CONTINUOUS
 10
76.3763758003
 20
28.3127083243
 11
76.3763758003
 21
24.6789935357
  0
LINE
  5
2CC
100
AcDbEntity
  8
0
100
AcDbLine
 62
2
  6
CONTINUOUS
 10
93.0088561153
 20
28.3645201275
 11
93.0088561153
 21
24.6789935357
  0
LINE
  5
2CD
100
AcDbEntity
  8
0
100
AcDbLine
 62
2
  6
CONTINUOUS
 10
76.3763758003
 20
25.480275587
 11
81.1870069834
 21
25.480275587
  0
LINE
  5
2CE
100
AcDbEntity
  8
0
100
AcDbLine
 62
2
  6
CONTINUOUS
 10
93.0088561153
 20
25.480275587
 11
88.1982249321
 21
25.480275587
  0
INSERT
  5
2CF
100
AcDbEntity
  8
0
100
AcDbBlockReference
 62
2
  6
CONTINUOUS
  2
_FILLED
 10
76.3763758003
 20
25.480275587
 41
1.2019230769
 42
1.2019230769
 43
1.2019230769
 50
180.0
  0
INSERT
  5
2D0
100
AcDbEntity
  8
0
100
AcDbBlockReference
 62
2
  6
CONTINUOUS
  2
_FILLED
 10
93.0088561153
 20
25.480275587
 41
1.2019230769
 42
1.2019230769
 43
1.2019230769
  0
ENDBLK
  5
2D1
100
AcDbEntity
  8
0
  6
BYBLOCK
 62
0
100
AcDbBlockEnd
  0
BLOCK
  5
2D2
100
AcDbEntity
  8
0
100
AcDbBlockBegin
 62
2
  6
CONTINUOUS
  2
*D11
 70
65
 10
0.0
 20
0.0
  3
*D11
  1

  0
MTEXT
  5
2D3
100
AcDbEntity
  8
0
100
AcDbMText
 62
2
  6
CONTINUOUS
  7
STANDARD
 71
1
 72
1
 10
96.8191641793
 20
32.8387570572
 30
0.0
 11
1.0
 21
0.0
 31
0.0
 44
0.9
  1
2X 30\P[1.2]
 40
1.0016025641
 41
3.9348672161
  0
LINE
  5
2D4
100
AcDbEntity
  8
0
100
AcDbLine
 62
2
  6
CONTINUOUS
 10
93.7087940416
 20
30.2345794931
 11
96.017882128
 21
30.2345794931
  0
LINE
  5
2D5
100
AcDbEntity
  8
0
100
AcDbLine
 62
2
  6
CONTINUOUS
 10
93.6991783243
 20
29.0345794931
 11
96.017882128
 21
29.0345794931
  0
LINE
  5
2D6
100
AcDbEntity
  8
0
100
AcDbLine
 62
2
  6
CONTINUOUS
 10
95.2166000767
 20
30.2345794931
 11
95.2166000767
 21
32.3379557751
  0
LINE
  5
2D7
100
AcDbEntity
  8
0
100
AcDbLine
 62
2
  6
CONTINUOUS
 10
95.2166000767
 20
32.3379557751
 11
96.3183628972
 21
32.3379557751
  0
LINE
  5
2D8
100
AcDbEntity
  8
0
100
AcDbLine
 62
2
  6
CONTINUOUS
 10
95.2166000767
 20
29.0345794931
 11
95.2166000767
 21
25.8294512879
  0
INSERT
  5
2D9
100
AcDbEntity
  8
0
100
AcDbBlockReference
 62
2
  6
CONTINUOUS
  2
_FILLED
 10
95.2166000767
 20
30.2345794931
 41
1.2019230769
 42
1.2019230769
 43
1.2019230769
 50
270.0
  0
INSERT
  5
2DA
100
AcDbEntity
  8
0
100
AcDbBlockReference
 62
2
  6
CONTINUOUS
  2
_FILLED
 10
95.2166000767
 20
29.0345794931
 41
1.2019230769
 42
1.2019230769
 43
1.2019230769
 50
90.0
  0
ENDBLK
  5
2DB
100
AcDbEntity
  8
0
  6
BYBLOCK
 62
0
100
AcDbBlockEnd
  0
BLOCK
  5
2DC
100
AcDbEntity
  8
0
100
AcDbBlockBegin
 62
2
  6
CONTINUOUS
  2
*D12
 70
65
 10
0.0
 20
0.0
  3
*D12
  1

  0
MTEXT
  5
2DD
100
AcDbEntity
  8
0
100
AcDbMText
 62
2
  6
CONTINUOUS
  7
STANDARD
 71
1
 72
1
 10
79.2060156916
 20
34.9260434814
 30
0.0
 11
1.0
 21
0.0
 31
0.0
 44
0.9
  1
4X \Fgdt;{\Fgdt;n}\Ftxt;4\P[.1]
 40
1.0016025641
 41
4.5549068987
  0
LINE
  5
2DE
100
AcDbEntity
  8
0
100
AcDbLine
 62
2
  6
CONTINUOUS
 10
76.3960466918
 20
30.3017587758
 11
77.603451589
 21
34.4252421993
  0
LINE
  5
2DF
100
AcDbEntity
  8
0
100
AcDbLine
 62
2
  6
CONTINUOUS
 10
77.603451589
 20
34.4252421993
 11
78.7052144096
 21
34.4252421993
  0
INSERT
  5
2E0
100
AcDbEntity
  8
0
100
AcDbBlockReference
 62
2
  6
CONTINUOUS
  2
_FILLED
 10
76.3960466918
 20
30.3017587758
 41
1.2019230769
 42
1.2019230769
 43
1.2019230769
 50
253.6793427813
  0
ENDBLK
  5
2E1
100
AcDbEntity
  8
0
  6
BYBLOCK
 62
0
100
AcDbBlockEnd
  0
BLOCK
  5
2E2
100
AcDbEntity
  8
0
100
AcDbBlockBegin
 62
2
  6
CONTINUOUS
  2
*D13
 70
65
 10
0.0
 20
0.0
  3
*D13
  1

  0
MTEXT
  5
2E3
100
AcDbEntity
  8
0
100
AcDbMText
 62
2
  6
CONTINUOUS
  7
STANDARD
 71
2
 72
1
 10
51.7837613663
 20
34.8156141526
 30
0.0
 11
1.0
 21
0.0
 31
0.0
 44
0.9
  1
2X 237\P[9.3]
 40
1.0016025641
 41
4.7218406593
  0
LINE
  5
2E4
100
AcDbEntity
  8
0
100
AcDbLine
 62
2
  6
CONTINUOUS
 10
47.4492089846
 20
31.7621693376
 11
47.4492089846
 21
35.1160949218
  0
LINE
  5
2E5
100
AcDbEntity
  8
0
100
AcDbLine
 62
2
  6
CONTINUOUS
 10
56.7622011106
 20
31.7338842918
 11
56.7622011106
 21
35.1160949218
  0
LINE
  5
2E6
100
AcDbEntity
  8
0
100
AcDbLine
 62
2
  6
CONTINUOUS
 10
47.4492089846
 20
34.3148128705
 11
48.9220397546
 21
34.3148128705
  0
LINE
  5
2E7
100
AcDbEntity
  8
0
100
AcDbLine
 62
2
  6
CONTINUOUS
 10
56.7622011106
 20
34.3148128705
 11
55.2893703407
 21
34.3148128705
  0
INSERT
  5
2E8
100
AcDbEntity
  8
0
100
AcDbBlockReference
 62
2
  6
CONTINUOUS
  2
_FILLED
 10
47.4492089846
 20
34.3148128705
 41
1.2019230769
 42
1.2019230769
 43
1.2019230769
 50
180.0
  0
INSERT
  5
2E9
100
AcDbEntity
  8
0
100
AcDbBlockReference
 62
2
  6
CONTINUOUS
  2
_FILLED
 10
56.7622011106
 20
34.3148128705
 41
1.2019230769
 42
1.2019230769
 43
1.2019230769
  0
ENDBLK
  5
2EA
100
AcDbEntity
  8
0
  6
BYBLOCK
 62
0
100
AcDbBlockEnd
  0
BLOCK
  5
2EB
100
AcDbEntity
  8
0
100
AcDbBlockBegin
 62
2
  6
CONTINUOUS
  2
*D14
 70
65
 10
0.0
 20
0.0
  3
*D14
  1

  0
MTEXT
  5
2EC
100
AcDbEntity
  8
0
100
AcDbMText
 62
2
  6
CONTINUOUS
  7
STANDARD
 71
3
 72
1
 10
52.2117598481
 20
39.2713985942
 30
0.0
 11
1.0
 21
0.0
 31
0.0
 44
0.9
  1
2X 10\P[.4]
 40
1.0016025641
 41
3.7917811355
  0
LINE
  5
2ED
100
AcDbEntity
  8
0
100
AcDbLine
 62
2
  6
CONTINUOUS
 10
56.8622011106
 20
31.7556545926
 11
56.8622011106
 21
39.5718793634
  0
LINE
  5
2EE
100
AcDbEntity
  8
0
100
AcDbLine
 62
2
  6
CONTINUOUS
 10
57.2522011106
 20
30.6053080469
 11
57.2522011106
 21
39.5718793634
  0
LINE
  5
2EF
100
AcDbEntity
  8
0
100
AcDbLine
 62
2
  6
CONTINUOUS
 10
56.8622011106
 20
38.7705973121
 11
53.5710776136
 21
38.7705973121
  0
LINE
  5
2F0
100
AcDbEntity
  8
0
100
AcDbLine
 62
2
  6
CONTINUOUS
 10
57.2522011106
 20
38.7705973121
 11
60.4573293157
 21
38.7705973121
  0
INSERT
  5
2F1
100
AcDbEntity
  8
0
100
AcDbBlockReference
 62
2
  6
CONTINUOUS
  2
_FILLED
 10
56.8622011106
 20
38.7705973121
 41
1.2019230769
 42
1.2019230769
 43
1.2019230769
  0
INSERT
  5
2F2
100
AcDbEntity
  8
0
100
AcDbBlockReference
 62
2
  6
CONTINUOUS
  2
_FILLED
 10
57.2522011106
 20
38.7705973121
 41
1.2019230769
 42
1.2019230769
 43
1.2019230769
 50
180.0
  0
ENDBLK
  5
2F3
100
AcDbEntity
  8
0
  6
BYBLOCK
 62
0
100
AcDbBlockEnd
  0
BLOCK
  5
2F4
100
AcDbEntity
  8
0
100
AcDbBlockBegin
 62
2
  6
CONTINUOUS
  2
*D15
 70
65
 10
0.0
 20
0.0
  3
*D15
  1

  0
MTEXT
  5
2F5
100
AcDbEntity
  8
0
100
AcDbMText
 62
2
  6
CONTINUOUS
  7
STANDARD
 71
1
 72
1
 10
69.4623237324
 20
26.3939198615
 30
0.0
 11
1.0
 21
0.0
 31
0.0
 44
0.9
  1
2X 57\P[2.3]
 40
1.0016025641
 41
3.9348672161
  0
LINE
  5
2F6
100
AcDbEntity
  8
0
100
AcDbLine
 62
2
  6
CONTINUOUS
 10
58.0038677773
 20
30.7595794931
 11
68.6610416811
 21
30.7595794931
  0
LINE
  5
2F7
100
AcDbEntity
  8
0
100
AcDbLine
 62
2
  6
CONTINUOUS
 10
58.0038677773
 20
28.5095794931
 11
68.6610416811
 21
28.5095794931
  0
LINE
  5
2F8
100
AcDbEntity
  8
0
100
AcDbLine
 62
2
  6
CONTINUOUS
 10
67.8597596298
 20
30.7595794931
 11
67.8597596298
 21
33.9647076982
  0
LINE
  5
2F9
100
AcDbEntity
  8
0
100
AcDbLine
 62
2
  6
CONTINUOUS
 10
67.8597596298
 20
28.5095794931
 11
67.8597596298
 21
25.8931185794
  0
LINE
  5
2FA
100
AcDbEntity
  8
0
100
AcDbLine
 62
2
  6
CONTINUOUS
 10
67.8597596298
 20
25.8931185794
 11
68.9615224503
 21
25.8931185794
  0
INSERT
  5
2FB
100
AcDbEntity
  8
0
100
AcDbBlockReference
 62
2
  6
CONTINUOUS
  2
_FILLED
 10
67.8597596298
 20
30.7595794931
 41
1.2019230769
 42
1.2019230769
 43
1.2019230769
 50
270.0
  0
INSERT
  5
2FC
100
AcDbEntity
  8
0
100
AcDbBlockReference
 62
2
  6
CONTINUOUS
  2
_FILLED
 10
67.8597596298
 20
28.5095794931
 41
1.2019230769
 42
1.2019230769
 43
1.2019230769
 50
90.0
  0
ENDBLK
  5
2FD
100
AcDbEntity
  8
0
  6
BYBLOCK
 62
0
100
AcDbBlockEnd
  0
BLOCK
  5
2FE
100
AcDbEntity
  8
0
100
AcDbBlockBegin
 62
2
  6
CONTINUOUS
  2
*D16
 70
65
 10
0.0
 20
0.0
  3
*D16
  1

  0
MTEXT
  5
2FF
100
AcDbEntity
  8
0
100
AcDbMText
 62
2
  6
CONTINUOUS
  7
STANDARD
 71
3
 72
1
 10
51.8200676089
 20
23.7317878072
 30
0.0
 11
1.0
 21
0.0
 31
0.0
 44
0.9
  1
2X 3\P[.1]
 40
1.0016025641
 41
3.1478937729
  0
LINE
  5
300
100
AcDbEntity
  8
0
100
AcDbLine
 62
2
  6
CONTINUOUS
 10
56.7622011106
 20
27.5601332431
 11
56.7622011106
 21
22.4297044739
  0
LINE
  5
301
100
AcDbEntity
  8
0
100
AcDbLine
 62
2
  6
CONTINUOUS
 10
56.8622011106
 20
27.5512844235
 11
56.8622011106
 21
22.4297044739
  0
LINE
  5
302
100
AcDbEntity
  8
0
100
AcDbLine
 62
2
  6
CONTINUOUS
 10
56.7622011106
 20
23.2309865251
 11
53.6086436162
 21
23.2309865251
  0
LINE
  5
303
100
AcDbEntity
  8
0
100
AcDbLine
 62
2
  6
CONTINUOUS
 10
56.8622011106
 20
23.2309865251
 11
60.0673293157
 21
23.2309865251
  0
INSERT
  5
304
100
AcDbEntity
  8
0
100
AcDbBlockReference
 62
2
  6
CONTINUOUS
  2
_FILLED
 10
56.7622011106
 20
23.2309865251
 41
1.2019230769
 42
1.2019230769
 43
1.2019230769
  0
INSERT
  5
305
100
AcDbEntity
  8
0
100
AcDbBlockReference
 62
2
  6
CONTINUOUS
  2
_FILLED
 10
56.8622011106
 20
23.2309865251
 41
1.2019230769
 42
1.2019230769
 43
1.2019230769
 50
180.0
  0
ENDBLK
  5
306
100
AcDbEntity
  8
0
  6
BYBLOCK
 62
0
100
AcDbBlockEnd
  0
BLOCK
  5
307
100
AcDbEntity
  8
0
100
AcDbBlockBegin
 62
2
  6
CONTINUOUS
  2
*D17
 70
65
 10
0.0
 20
0.0
  3
*D17
  1

  0
MTEXT
  5
308
100
AcDbEntity
  8
0
100
AcDbMText
 62
2
  6
CONTINUOUS
  7
STANDARD
 71
1
 72
1
 10
63.4242439021
 20
26.3954542739
 30
0.0
 11
1.0
 21
0.0
 31
0.0
 44
0.9
  1
2X 5\P[.2]
 40
1.0016025641
 41
3.1478937729
  0
LINE
  5
309
100
AcDbEntity
  8
0
100
AcDbLine
 62
2
  6
CONTINUOUS
 10
57.2628421362
 20
28.6095794931
 11
62.6229618508
 21
28.6095794931
  0
LINE
  5
30A
100
AcDbEntity
  8
0
100
AcDbLine
 62
2
  6
CONTINUOUS
 10
57.2628421362
 20
28.4095794931
 11
62.6229618508
 21
28.4095794931
  0
LINE
  5
30B
100
AcDbEntity
  8
0
100
AcDbLine
 62
2
  6
CONTINUOUS
 10
61.8216797995
 20
28.6095794931
 11
61.8216797995
 21
31.8147076982
  0
LINE
  5
30C
100
AcDbEntity
  8
0
100
AcDbLine
 62
2
  6
CONTINUOUS
 10
61.8216797995
 20
28.4095794931
 11
61.8216797995
 21
25.8946529919
  0
LINE
  5
30D
100
AcDbEntity
  8
0
100
AcDbLine
 62
2
  6
CONTINUOUS
 10
61.8216797995
 20
25.8946529919
 11
62.92344262
 21
25.8946529919
  0
INSERT
  5
30E
100
AcDbEntity
  8
0
100
AcDbBlockReference
 62
2
  6
CONTINUOUS
  2
_FILLED
 10
61.8216797995
 20
28.6095794931
 41
1.2019230769
 42
1.2019230769
 43
1.2019230769
 50
270.0
  0
INSERT
  5
30F
100
AcDbEntity
  8
0
100
AcDbBlockReference
 62
2
  6
CONTINUOUS
  2
_FILLED
 10
61.8216797995
 20
28.4095794931
 41
1.2019230769
 42
1.2019230769
 43
1.2019230769
 50
90.0
  0
ENDBLK
  5
310
100
AcDbEntity
  8
0
  6
BYBLOCK
 62
0
100
AcDbBlockEnd
  0
BLOCK
  5
311
100
AcDbEntity
  8
0
100
AcDbBlockBegin
 62
2
  6
CONTINUOUS
  2
*D18
 70
65
 10
0.0
 20
0.0
  3
*D18
  1

  0
MTEXT
  5
312
100
AcDbEntity
  8
0
100
AcDbMText
 62
2
  6
CONTINUOUS
  7
STANDARD
 71
3
 72
1
 10
42.5617752308
 20
41.3270851571
 30
0.0
 11
1.0
 21
0.0
 31
0.0
 44
0.9
  1
2X 7\P[.3]
 40
1.0016025641
 41
3.2194368132
  0
LINE
  5
313
100
AcDbEntity
  8
0
100
AcDbLine
 62
2
  6
CONTINUOUS
 10
47.4492089846
 20
31.7621693376
 11
47.4492089846
 21
41.6275659263
  0
LINE
  5
314
100
AcDbEntity
  8
0
100
AcDbLine
 62
2
  6
CONTINUOUS
 10
47.1907050476
 20
31.7621693376
 11
47.1907050476
 21
41.6275659263
  0
LINE
  5
315
100
AcDbEntity
  8
0
100
AcDbLine
 62
2
  6
CONTINUOUS
 10
47.4492089846
 20
40.8262838751
 11
50.6543371897
 21
40.8262838751
  0
LINE
  5
316
100
AcDbEntity
  8
0
100
AcDbLine
 62
2
  6
CONTINUOUS
 10
47.1907050476
 20
40.8262838751
 11
44.4218942784
 21
40.8262838751
  0
INSERT
  5
317
100
AcDbEntity
  8
0
100
AcDbBlockReference
 62
2
  6
CONTINUOUS
  2
_FILLED
 10
47.4492089846
 20
40.8262838751
 41
1.2019230769
 42
1.2019230769
 43
1.2019230769
 50
180.0
  0
INSERT
  5
318
100
AcDbEntity
  8
0
100
AcDbBlockReference
 62
2
  6
CONTINUOUS
  2
_FILLED
 10
47.1907050476
 20
40.8262838751
 41
1.2019230769
 42
1.2019230769
 43
1.2019230769
  0
ENDBLK
  5
319
100
AcDbEntity
  8
0
  6
BYBLOCK
 62
0
100
AcDbBlockEnd
  0
ENDSEC
  0
SECTION
  2
ENTITIES
  0
MTEXT
  5
31A
100
AcDbEntity
  8
0
100
AcDbMText
 62
2
  6
CONTINUOUS
  7
STANDARD
 71
1
 72
1
 10
15.8400199415
 20
2.5841270925
 30
0.0
 11
1.0
 21
0.0
 31
0.0
 44
0.9
  1
4
 40
1.0016025641
 41
0.7869734432
  0
MTEXT
  5
31B
100
AcDbEntity
  8
0
100
AcDbMText
 62
2
  6
CONTINUOUS
  7
STANDARD
 71
1
 72
1
 10
40.667658852
 20
2.5794412872
 30
0.0
 11
1.0
 21
0.0
 31
0.0
 44
0.9
  1
3
 40
1.0016025641
 41
0.7154304029
  0
MTEXT
  5
31C
100
AcDbEntity
  8
0
100
AcDbMText
 62
2
  6
CONTINUOUS
  7
STANDARD
 71
1
 72
1
 10
65.4378004074
 20
2.5815730832
 30
0.0
 11
1.0
 21
0.0
 31
0.0
 44
0.9
  1
2
 40
1.0016025641
 41
0.7869734432
  0
MTEXT
  5
31D
100
AcDbEntity
  8
0
100
AcDbMText
 62
2
  6
CONTINUOUS
  7
STANDARD
 71
1
 72
1
 10
90.2544762338
 20
2.5816805532
 30
0.0
 11
1.0
 21
0.0
 31
0.0
 44
0.9
  1
1
 40
1.0016025641
 41
0.5723443223
  0
MTEXT
  5
31E
100
AcDbEntity
  8
0
100
AcDbMText
 62
2
  6
CONTINUOUS
  7
STANDARD
 71
1
 72
1
 10
15.8435696883
 20
69.676657022
 30
0.0
 11
1.0
 21
0.0
 31
0.0
 44
0.9
  1
4
 40
1.0016025641
 41
0.7869734432
  0
MTEXT
  5
31F
100
AcDbEntity
  8
0
100
AcDbMText
 62
2
  6
CONTINUOUS
  7
STANDARD
 71
1
 72
1
 10
40.657855983
 20
69.6692117415
 30
0.0
 11
1.0
 21
0.0
 31
0.0
 44
0.9
  1
3
 40
1.0016025641
 41
0.7154304029
  0
MTEXT
  5
320
100
AcDbEntity
  8
0
100
AcDbMText
 62
2
  6
CONTINUOUS
  7
STANDARD
 71
1
 72
1
 10
65.4495632618
 20
69.6679528511
 30
0.0
 11
1.0
 21
0.0
 31
0.0
 44
0.9
  1
2
 40
1.0016025641
 41
0.7869734432
  0
MTEXT
  5
321
100
AcDbEntity
  8
0
100
AcDbMText
 62
2
  6
CONTINUOUS
  7
STANDARD
 71
1
 72
1
 10
90.2555899036
 20
69.6688555995
 30
0.0
 11
1.0
 21
0.0
 31
0.0
 44
0.9
  1
1
 40
1.0016025641
 41
0.5723443223
  0
MTEXT
  5
322
100
AcDbEntity
  8
0
100
AcDbMText
 62
2
  6
CONTINUOUS
  7
STANDARD
 71
1
 72
1
 10
1.6299241446
 20
11.9185660847
 30
0.0
 11
1.0
 21
0.0
 31
0.0
 44
0.9
  1
A
 40
1.0016025641
 41
0.8585164835
  0
MTEXT
  5
323
100
AcDbEntity
  8
0
100
AcDbMText
 62
2
  6
CONTINUOUS
  7
STANDARD
 71
1
 72
1
 10
1.6650463506
 20
27.9504526428
 30
0.0
 11
1.0
 21
0.0
 31
0.0
 44
0.9
  1
B
 40
1.0016025641
 41
0.7869734432
  0
MTEXT
  5
324
100
AcDbEntity
  8
0
100
AcDbMText
 62
2
  6
CONTINUOUS
  7
STANDARD
 71
1
 72
1
 10
1.6557631832
 20
43.9608978426
 30
0.0
 11
1.0
 21
0.0
 31
0.0
 44
0.9
  1
C
 40
1.0016025641
 41
0.8346688034
  0
MTEXT
  5
325
100
AcDbEntity
  8
0
100
AcDbMText
 62
2
  6
CONTINUOUS
  7
STANDARD
 71
1
 72
1
 10
1.6691779778
 20
60.0135108947
 30
0.0
 11
1.0
 21
0.0
 31
0.0
 44
0.9
  1
D
 40
1.0016025641
 41
0.9062118437
  0
MTEXT
  5
326
100
AcDbEntity
  8
0
100
AcDbMText
 62
2
  6
CONTINUOUS
  7
STANDARD
 71
1
 72
1
 10
104.1692232078
 20
11.9166358309
 30
0.0
 11
1.0
 21
0.0
 31
0.0
 44
0.9
  1
A
 40
1.0016025641
 41
0.8585164835
  0
MTEXT
  5
327
100
AcDbEntity
  8
0
100
AcDbMText
 62
2
  6
CONTINUOUS
  7
STANDARD
 71
1
 72
1
 10
104.1632491089
 20
27.9482893707
 30
0.0
 11
1.0
 21
0.0
 31
0.0
 44
0.9
  1
B
 40
1.0016025641
 41
0.7869734432
  0
MTEXT
  5
328
100
AcDbEntity
  8
0
100
AcDbMText
 62
2
  6
CONTINUOUS
  7
STANDARD
 71
1
 72
1
 10
104.1605962068
 20
43.957383078
 30
0.0
 11
1.0
 21
0.0
 31
0.0
 44
0.9
  1
C
 40
1.0016025641
 41
0.8346688034
  0
MTEXT
  5
329
100
AcDbEntity
  8
0
100
AcDbMText
 62
2
  6
CONTINUOUS
  7
STANDARD
 71
1
 72
1
 10
104.1630434858
 20
60.0116590433
 30
0.0
 11
1.0
 21
0.0
 31
0.0
 44
0.9
  1
D
 40
1.0016025641
 41
0.9062118437
  0
MTEXT
  5
32A
100
AcDbEntity
  8
0
100
AcDbMText
 62
5
  6
CONTINUOUS
  7
STANDARD
 71
1
 72
1
 10
3.4887522829
 20
67.0671296161
 30
0.0
 11
1.0
 21
0.0
 31
0.0
 44
0.9
  1
THIS DOCUMENT CONTAINS PROPRIETARY INFORMATION\PWHICH IS THE PROPERTY OF QSC AUDIO PRODUCTS, THAT\PMAY NOT BE DISCLOSED, REPRODUCED OR USED WITHOUT\PEXPRESS WRITTEN CONSENT FROM QSC AUDIO PRODUCTS.
 40
0.4807692308
 41
18.8644688645
  0
MTEXT
  5
32B
100
AcDbEntity
  8
0
100
AcDbMText
 62
2
  6
CONTINUOUS
  7
STANDARD
 71
2
 72
1
 10
46.3778671742
 20
16.6152916578
 30
0.0
 11
1.0
 21
0.0
 31
0.0
 44
0.9
  1
TOLERANCES ARE:
 40
0.5769230769
 41
6.6071428571
  0
MTEXT
  5
32C
100
AcDbEntity
  8
0
100
AcDbMText
 62
2
  6
CONTINUOUS
  7
STANDARD
 71
2
 72
1
 10
52.1108781691
 20
15.144235222
 30
0.0
 11
1.0
 21
0.0
 31
0.0
 44
0.9
  1
ANGLES\P\Fgdt;{\Fgdt;`}\Ftxt; 1/2
 40
0.5769230769
 41
2.7472527473
  0
MTEXT
  5
32D
100
AcDbEntity
  8
0
100
AcDbMText
 62
2
  6
CONTINUOUS
  7
STANDARD
 71
2
 72
1
 10
41.4033620564
 20
10.8091020357
 30
0.0
 11
1.0
 21
0.0
 31
0.0
 44
0.9
  1
MATERIAL
 40
0.5769230769
 41
3.6950549451
  0
MTEXT
  5
32E
100
AcDbEntity
  8
0
100
AcDbMText
 62
2
  6
CONTINUOUS
  7
STANDARD
 71
2
 72
1
 10
40.789357154
 20
6.9047860702
 30
0.0
 11
1.0
 21
0.0
 31
0.0
 44
0.9
  1
FINISH
 40
0.5769230769
 41
2.6236263736
  0
MTEXT
  5
32F
100
AcDbEntity
  8
0
100
AcDbMText
 62
2
  6
CONTINUOUS
  7
STANDARD
 71
2
 72
1
 10
85.0627712487
 20
4.3647600111
 30
0.0
 11
1.0
 21
0.0
 31
0.0
 44
0.9
  1
DO NOT SCALE DRAWING
 40
0.8012820513
 41
13.3165445665
  0
MTEXT
  5
330
100
AcDbEntity
  8
0
100
AcDbMText
 62
2
  6
CONTINUOUS
  7
STANDARD
 71
2
 72
1
 10
55.2817102206
 20
17.4209395421
 30
0.0
 11
1.0
 21
0.0
 31
0.0
 44
0.9
  1
DRAWN
 40
0.5769230769
 41
2.8159340659
  0
MTEXT
  5
331
100
AcDbEntity
  8
0
100
AcDbMText
 62
2
  6
CONTINUOUS
  7
STANDARD
 71
2
 72
1
 10
55.5068646059
 20
14.5795224001
 30
0.0
 11
1.0
 21
0.0
 31
0.0
 44
0.9
  1
CHECKED
 40
0.5769230769
 41
3.3241758242
  0
MTEXT
  5
332
100
AcDbEntity
  8
0
100
AcDbMText
 62
2
  6
CONTINUOUS
  7
STANDARD
 71
2
 72
1
 10
55.4670841431
 20
11.7827515674
 30
0.0
 11
1.0
 21
0.0
 31
0.0
 44
0.9
  1
MFG ENG
 40
0.5769230769
 41
3.2417582418
  0
MTEXT
  5
333
100
AcDbEntity
  8
0
100
AcDbMText
 62
2
  6
CONTINUOUS
  7
STANDARD
 71
2
 72
1
 10
55.756299247
 20
8.9665663256
 30
0.0
 11
1.0
 21
0.0
 31
0.0
 44
0.9
  1
QA CHECK
 40
0.5769230769
 41
3.8324175824
  0
MTEXT
  5
334
100
AcDbEntity
  8
0
100
AcDbMText
 62
2
  6
CONTINUOUS
  7
STANDARD
 71
2
 72
1
 10
57.4136121819
 20
4.3333491593
 30
0.0
 11
1.0
 21
0.0
 31
0.0
 44
0.9
  1
MODEL INFO:
 40
0.5769230769
 41
4.7115384615
  0
MTEXT
  5
335
100
AcDbEntity
  8
0
100
AcDbMText
 62
2
  6
CONTINUOUS
  7
STANDARD
 71
2
 72
1
 10
56.8195570082
 20
5.8869297532
 30
0.0
 11
1.0
 21
0.0
 31
0.0
 44
0.9
  1
DRAWING INFO:
 40
0.5769230769
 41
5.989010989
  0
MTEXT
  5
336
100
AcDbEntity
  8
0
100
AcDbMText
 62
2
  6
CONTINUOUS
  7
STANDARD
 71
2
 72
1
 10
59.2392515742
 20
18.9503414405
 30
0.0
 11
1.0
 21
0.0
 31
0.0
 44
0.9
  1
APPROVALS
 40
0.5769230769
 41
4.217032967
  0
MTEXT
  5
337
100
AcDbEntity
  8
0
100
AcDbMText
 62
2
  6
CONTINUOUS
  7
STANDARD
 71
2
 72
1
 10
67.5901451573
 20
19.4561378534
 30
0.0
 11
1.0
 21
0.0
 31
0.0
 44
0.9
  1
DATE\P(DD-MMM-YY)
 40
0.5769230769
 41
4.8351648352
  0
MTEXT
  5
338
100
AcDbEntity
  8
0
100
AcDbMText
 62
2
  6
CONTINUOUS
  7
STANDARD
 71
2
 72
1
 10
72.0472088551
 20
4.2757713476
 30
0.0
 11
1.0
 21
0.0
 31
0.0
 44
0.9
  1
SCALE:
 40
0.5769230769
 41
2.5274725275
  0
MTEXT
  5
339
100
AcDbEntity
  8
0
100
AcDbMText
 62
2
  6
CONTINUOUS
  7
STANDARD
 71
2
 72
1
 10
93.6938636813
 20
4.2864159392
 30
0.0
 11
1.0
 21
0.0
 31
0.0
 44
0.9
  1
SHEET
 40
0.5769230769
 41
2.3351648352
  0
MTEXT
  5
33A
100
AcDbEntity
  8
0
100
AcDbMText
 62
2
  6
CONTINUOUS
  7
STANDARD
 71
2
 72
1
 10
72.0639708383
 20
7.7585235084
 30
0.0
 11
1.0
 21
0.0
 31
0.0
 44
0.9
  1
SIZE
 40
0.5769230769
 41
1.7994505495
  0
MTEXT
  5
33B
100
AcDbEntity
  8
0
100
AcDbMText
 62
2
  6
CONTINUOUS
  7
STANDARD
 71
2
 72
1
 10
76.8185744145
 20
7.7654900199
 30
0.0
 11
1.0
 21
0.0
 31
0.0
 44
0.9
  1
CAGE CODE
 40
0.5769230769
 41
4.271978022
  0
MTEXT
  5
33C
100
AcDbEntity
  8
0
100
AcDbMText
 62
2
  6
CONTINUOUS
  7
STANDARD
 71
2
 72
1
 10
82.9548060771
 20
7.7521343956
 30
0.0
 11
1.0
 21
0.0
 31
0.0
 44
0.9
  1
DRAWING NO.
 40
0.5769230769
 41
5.3296703297
  0
MTEXT
  5
33D
100
AcDbEntity
  8
0
100
AcDbMText
 62
2
  6
CONTINUOUS
  7
STANDARD
 71
2
 72
1
 10
101.0393119195
 20
7.760730171
 30
0.0
 11
1.0
 21
0.0
 31
0.0
 44
0.9
  1
REV
 40
0.5769230769
 41
1.456043956
  0
MTEXT
  5
33E
100
AcDbEntity
  8
0
100
AcDbMText
 62
2
  6
CONTINUOUS
  7
STANDARD
 71
2
 72
1
 10
91.8852318152
 20
19.1493489371
 30
0.0
 11
1.0
 21
0.0
 31
0.0
 44
0.9
  1
QSC AUDIO PRODUCTS, LLC
 40
1.0016025641
 41
18.2434752747
  0
MTEXT
  5
33F
100
AcDbEntity
  8
0
100
AcDbMText
 62
2
  6
CONTINUOUS
  7
STANDARD
 71
1
 72
1
 10
82.7700795757
 20
17.6557061788
 30
0.0
 11
1.0
 21
0.0
 31
0.0
 44
0.9
  1
1675  MACARTHUR BOULEVARD\PCOSTA MESA, CA  92626
 40
0.8012820513
 41
15.9493284493
  0
MTEXT
  5
340
100
AcDbEntity
  8
0
100
AcDbMText
 62
2
  6
CONTINUOUS
  7
STANDARD
 71
1
 72
1
 10
74.551977493
 20
6.3863877678
 30
0.0
 11
1.0
 21
0.0
 31
0.0
 44
0.9
  1
00PW4
 40
1.0016025641
 41
4.6979929792
  0
MTEXT
  5
341
100
AcDbEntity
  8
0
100
AcDbMText
 62
2
  6
CONTINUOUS
  7
STANDARD
 71
2
 72
1
 10
46.5068517766
 20
19.0498874029
 30
0.0
 11
1.0
 21
0.0
 31
0.0
 44
0.9
  1
UNLESS OTHERWISE SPECIFIED\PDIMENSIONS IN MILLIMETERS [IN]
 40
0.641025641
 41
14.0415140415
  0
MTEXT
  5
342
100
AcDbEntity
  8
0
100
AcDbMText
 62
2
  6
CONTINUOUS
  7
STANDARD
 71
2
 72
1
 10
41.8488959272
 20
15.1533026557
 30
0.0
 11
1.0
 21
0.0
 31
0.0
 44
0.9
  1
DECIMALS\P.X\Fgdt;{\Fgdt;`}\Ftxt;.5[.02]
 40
0.5769230769
 41
3.9697802198
  0
MTEXT
  5
343
100
AcDbEntity
  8
0
100
AcDbMText
 62
2
  6
CONTINUOUS
  7
STANDARD
 71
2
 72
1
 10
47.4410819729
 20
15.1563738048
 30
0.0
 11
1.0
 21
0.0
 31
0.0
 44
0.9
  1
DECIMALS\P.XX\Fgdt;{\Fgdt;`}\Ftxt;.25[.010]
 40
0.5769230769
 41
5.2472527473
  0
MTEXT
  5
344
100
AcDbEntity
  8
0
100
AcDbMText
 62
2
  6
CONTINUOUS
  7
STANDARD
 71
2
 72
1
 10
46.4139182629
 20
12.6382295936
 30
0.0
 11
1.0
 21
0.0
 31
0.0
 44
0.9
  1
DEBURR EDGES .25 [.010] R MAX
 40
0.5769230769
 41
12.5686813187
  0
INSERT
  5
345
100
AcDbEntity
  8
0
100
AcDbBlockReference
 62
7
  6
CONTINUOUS
  2
SYMBOL_0_BL0
 10
76.2103865308
 20
17.3148119562
  0
DIMENSION
  5
346
100
AcDbEntity
  8
0
100
AcDbDimension
 62
2
  6
CONTINUOUS
  2
*D0
 10
11.8339816242
 20
56.2183125456
 11
11.1900942616
 21
49.9316775516
 70
160
 71
2
 42
281.2
  3
DIMSTYLE_1
100
AcDbAlignedDimension
 13
14.8476375409
 23
45.1474464038
 14
15.823574491
 24
56.2183125456
 50
90.0
100
AcDbRotatedDimension
  0
DIMENSION
  5
347
100
AcDbEntity
  8
0
100
AcDbDimension
 62
2
  6
CONTINUOUS
  2
*D1
 10
15.2154200472
 20
43.5304968579
 11
24.0456234296
 21
42.7792949348
 70
160
 71
2
 42
481.2838098468
  3
DIMSTYLE_1
100
AcDbAlignedDimension
 13
34.1636015372
 23
45.6877502601
 14
15.2154200472
 24
45.6877502601
 50
180.0
100
AcDbRotatedDimension
  0
DIMENSION
  5
348
100
AcDbEntity
  8
0
100
AcDbDimension
 62
2
  6
CONTINUOUS
  2
*D2
 10
33.2847273277
 20
59.2396541598
 11
24.0098519094
 21
58.4884522368
 70
160
 71
2
 42
436.637
  3
DIMSTYLE_1
100
AcDbAlignedDimension
 13
16.0942942568
 23
56.4890323114
 14
33.2847273277
 24
56.4890323114
100
AcDbRotatedDimension
  0
DIMENSION
  5
349
100
AcDbEntity
  8
0
100
AcDbDimension
 62
2
  6
CONTINUOUS
  2
*D3
 10
37.6255321219
 20
27.9076306742
 11
37.1247308399
 21
29.7024953934
 70
160
 71
2
 42
87.729
  3
DIMSTYLE_1
100
AcDbAlignedDimension
 13
34.5313840436
 23
31.3615283119
 14
34.5313840436
 24
27.9076306742
 50
270.0
100
AcDbRotatedDimension
  0
DIMENSION
  5
34A
100
AcDbEntity
  8
0
100
AcDbDimension
 62
2
  6
CONTINUOUS
  2
*D4
 10
6.3405722177
 20
28.1345794931
 11
5.6251418147
 21
29.5848720114
 70
160
 71
2
 42
76.2
  1
2X <>
  3
DIMSTYLE_1
100
AcDbAlignedDimension
 13
14.8218041152
 23
31.1345794931
 14
14.8251016904
 24
28.1345794931
 50
270.0
100
AcDbRotatedDimension
  0
DIMENSION
  5
34B
100
AcDbEntity
  8
0
100
AcDbDimension
 62
2
  6
CONTINUOUS
  2
*D5
 10
33.9233690599
 20
35.2131847143
 11
23.9740803893
 21
34.4619827912
 70
160
 71
2
 42
469.08
  1
2X <>
  3
DIMSTYLE_1
100
AcDbAlignedDimension
 13
15.4556525245
 23
31.7908284017
 14
33.9233690599
 24
31.7783838987
100
AcDbRotatedDimension
  0
DIMENSION
  5
34C
100
AcDbEntity
  8
0
100
AcDbDimension
 62
2
  6
CONTINUOUS
  2
*D6
 10
15.5856525245
 20
22.6323585899
 11
21.5584050119
 21
21.8811566668
 70
160
 71
1
 42
3.302
  1
4X <>
  3
DIMSTYLE_1
100
AcDbAlignedDimension
 13
15.4556525245
 23
27.4817443493
 14
15.5856525245
 24
27.480197906
100
AcDbRotatedDimension
  0
DIMENSION
  5
34D
100
AcDbEntity
  8
0
100
AcDbDimension
 62
2
  6
CONTINUOUS
  2
*D7
 10
13.7494204647
 20
28.0065873671
 11
8.8645328517
 21
25.293874229
 70
160
 71
3
 42
6.502
  1
4X <>
  3
DIMSTYLE_1
100
AcDbAlignedDimension
 13
15.0550114989
 23
28.262571619
 14
15.0550114989
 24
28.0065873671
 50
270.0
100
AcDbRotatedDimension
  0
DIMENSION
  5
34E
100
AcDbEntity
  8
0
100
AcDbDimension
 62
2
  6
CONTINUOUS
  2
*D8
 10
59.7140936977
 20
29.0345794931
 11
59.2311781757
 21
34.9605745521
 70
160
 71
2
 42
30.48
  3
DIMSTYLE_1
100
AcDbAlignedDimension
 13
57.8655917778
 23
30.2345794931
 14
57.8774825266
 24
29.0345794931
 50
270.0
100
AcDbRotatedDimension
  0
DIMENSION
  5
34F
100
AcDbEntity
  8
0
100
AcDbDimension
 62
2
  6
CONTINUOUS
  2
*D9
 10
57.2030843013
 20
30.1847042583
 11
48.101071885
 21
26.2013343065
 70
163
 71
3
 42
3.556
  1
2X <>
  3
DIMSTYLE_2
100
AcDbDiametricDimension
 15
57.3013179199
 25
30.2844547278
  0
DIMENSION
  5
350
100
AcDbEntity
  8
0
100
AcDbDimension
 62
2
  6
CONTINUOUS
  2
*D10
 10
93.0088561153
 20
25.480275587
 11
83.9771855549
 21
24.7290736639
 70
160
 71
2
 42
422.465
  1
2X <>
  3
DIMSTYLE_1
100
AcDbAlignedDimension
 13
76.3763758003
 23
28.3127083243
 14
93.0088561153
 24
28.3645201275
100
AcDbRotatedDimension
  0
DIMENSION
  5
351
100
AcDbEntity
  8
0
100
AcDbDimension
 62
2
  6
CONTINUOUS
  2
*D11
 10
95.2166000767
 20
29.0345794931
 11
99.43048515
 21
31.586753852
 70
160
 71
1
 42
30.48
  1
2X <>
  3
DIMSTYLE_1
100
AcDbAlignedDimension
 13
93.7087940416
 23
30.2345794931
 14
93.6991783243
 24
29.0345794931
 50
270.0
100
AcDbRotatedDimension
  0
DIMENSION
  5
352
100
AcDbEntity
  8
0
100
AcDbDimension
 62
2
  6
CONTINUOUS
  2
*D12
 10
76.3960466918
 20
30.3017587758
 11
82.0915849834
 21
33.6740402762
 70
163
 71
1
 42
3.556
  1
4X <>
  3
DIMSTYLE_2
100
AcDbDiametricDimension
 15
76.3567049088
 25
30.1674002103
  0
DIMENSION
  5
353
100
AcDbEntity
  8
0
100
AcDbDimension
 62
2
  6
CONTINUOUS
  2
*D13
 10
56.7622011106
 20
34.3148128705
 11
51.3902746447
 21
33.5636109474
 70
160
 71
2
 42
236.55
  1
2X <>
  3
DIMSTYLE_1
100
AcDbAlignedDimension
 13
47.4492089846
 23
31.7621693376
 14
56.7622011106
 24
31.7338842918
100
AcDbRotatedDimension
  0
DIMENSION
  5
354
100
AcDbEntity
  8
0
100
AcDbDimension
 62
2
  6
CONTINUOUS
  2
*D14
 10
57.2522011106
 20
38.7705973121
 11
49.3142667162
 21
38.0193953891
 70
160
 71
3
 42
9.906
  1
2X <>
  3
DIMSTYLE_1
100
AcDbAlignedDimension
 13
56.8622011106
 23
31.7556545926
 14
57.2522011106
 24
30.6053080469
100
AcDbRotatedDimension
  0
DIMENSION
  5
355
100
AcDbEntity
  8
0
100
AcDbDimension
 62
2
  6
CONTINUOUS
  2
*D15
 10
67.8597596298
 20
28.5095794931
 11
72.1451877434
 21
25.1419166564
 70
160
 71
1
 42
57.15
  1
2X <>
  3
DIMSTYLE_1
100
AcDbAlignedDimension
 13
58.0038677773
 23
30.7595794931
 14
58.0038677773
 24
28.5095794931
 50
270.0
100
AcDbRotatedDimension
  0
DIMENSION
  5
356
100
AcDbEntity
  8
0
100
AcDbDimension
 62
2
  6
CONTINUOUS
  2
*D16
 10
56.8622011106
 20
23.2309865251
 11
49.4591472792
 21
22.4797846021
 70
160
 71
3
 42
2.54
  1
2X <>
  3
DIMSTYLE_1
100
AcDbAlignedDimension
 13
56.7622011106
 23
27.5601332431
 14
56.8622011106
 24
27.5512844235
100
AcDbRotatedDimension
  0
DIMENSION
  5
357
100
AcDbEntity
  8
0
100
AcDbDimension
 62
2
  6
CONTINUOUS
  2
*D17
 10
61.8216797995
 20
28.4095794931
 11
65.7493927116
 21
25.1434510688
 70
160
 71
1
 42
5.08
  1
2X <>
  3
DIMSTYLE_1
100
AcDbAlignedDimension
 13
57.2628421362
 23
28.6095794931
 14
57.2628421362
 24
28.4095794931
 50
270.0
100
AcDbRotatedDimension
  0
DIMENSION
  5
358
100
AcDbEntity
  8
0
100
AcDbDimension
 62
2
  6
CONTINUOUS
  2
*D18
 10
47.1907050476
 20
40.8262838751
 11
40.2008549011
 21
40.075081952
 70
160
 71
3
 42
6.566
  1
2X <>
  3
DIMSTYLE_1
100
AcDbAlignedDimension
 13
47.4492089846
 23
31.7621693376
 14
47.1907050476
 24
31.7621693376
 50
180.0
100
AcDbRotatedDimension
  0
LWPOLYLINE
  5
359
100
AcDbEntity
  8
0
100
AcDbPolyline
 62
2
  6
CONTINUOUS
 90
2
 70
0
 43
0.1282051282
 10
102.6130212425
 20
67.2899189199
 10
37.9816109861
 20
67.2899189199
  0
LWPOLYLINE
  5
35A
100
AcDbEntity
  8
0
100
AcDbPolyline
 62
2
  6
CONTINUOUS
 90
2
 70
0
 43
0.1282051282
 10
102.5489186784
 20
67.2899189199
 10
102.5489186784
 20
61.2803035353
  0
LWPOLYLINE
  5
35B
100
AcDbEntity
  8
0
100
AcDbPolyline
 62
2
  6
CONTINUOUS
 90
2
 70
0
 43
0.1282051282
 10
102.5489186784
 20
65.2867137917
 10
38.0457135502
 20
65.2867137917
  0
LWPOLYLINE
  5
35C
100
AcDbEntity
  8
0
100
AcDbPolyline
 62
2
  6
CONTINUOUS
 90
2
 70
0
 43
0.1282051282
 10
102.5489186784
 20
63.2835086635
 10
38.0457135502
 20
63.2835086635
  0
LWPOLYLINE
  5
35D
100
AcDbEntity
  8
0
100
AcDbPolyline
 62
2
  6
CONTINUOUS
 90
2
 70
0
 43
0.1282051282
 10
102.6130212425
 20
61.2803035353
 10
37.9816109861
 20
61.2803035353
  0
LWPOLYLINE
  5
35E
100
AcDbEntity
  8
0
100
AcDbPolyline
 62
2
  6
CONTINUOUS
 90
2
 70
0
 43
0.1282051282
 10
97.7412263707
 20
65.2867137917
 10
97.7412263707
 20
61.2803035353
  0
LWPOLYLINE
  5
35F
100
AcDbEntity
  8
0
100
AcDbPolyline
 62
2
  6
CONTINUOUS
 90
2
 70
0
 43
0.1282051282
 10
90.5296879092
 20
65.2867137917
 10
90.5296879092
 20
61.2803035353
  0
LWPOLYLINE
  5
360
100
AcDbEntity
  8
0
100
AcDbPolyline
 62
2
  6
CONTINUOUS
 90
2
 70
0
 43
0.1282051282
 10
87.3245597041
 20
65.2867137917
 10
87.3245597041
 20
61.2803035353
  0
LWPOLYLINE
  5
361
100
AcDbEntity
  8
0
100
AcDbPolyline
 62
2
  6
CONTINUOUS
 90
2
 70
0
 43
0.1282051282
 10
46.4591750887
 20
65.2867137917
 10
46.4591750887
 20
61.2803035353
  0
LWPOLYLINE
  5
362
100
AcDbEntity
  8
0
100
AcDbPolyline
 62
2
  6
CONTINUOUS
 90
2
 70
0
 43
0.1282051282
 10
41.2508417553
 20
65.2867137917
 10
41.2508417553
 20
61.2803035353
  0
LWPOLYLINE
  5
363
100
AcDbEntity
  8
0
100
AcDbPolyline
 62
2
  6
CONTINUOUS
 90
2
 70
0
 43
0.1282051282
 10
38.0457135502
 20
67.2899189199
 10
38.0457135502
 20
61.2803035353
  0
MTEXT
  5
364
100
AcDbEntity
  8
0
100
AcDbMText
 62
2
  6
CONTINUOUS
  7
STANDARD
 71
2
 72
1
 10
70.2973161143
 20
66.7891176378
 30
0.0
 11
1.0
 21
0.0
 31
0.0
 44
0.9
  1
REVISIONS
 40
1.0016025641
 41
6.7727411477
  0
MTEXT
  5
365
100
AcDbEntity
  8
0
100
AcDbMText
 62
2
  6
CONTINUOUS
  7
STANDARD
 71
2
 72
1
 10
100.1450725246
 20
64.7851112276
 30
0.0
 11
1.0
 21
0.0
 31
0.0
 44
0.9
  1
ISSUED
 40
1.0
 41
4.619047619
  0
MTEXT
  5
366
100
AcDbEntity
  8
0
100
AcDbMText
 62
2
  6
CONTINUOUS
  7
STANDARD
 71
2
 72
1
 10
94.13545714
 20
64.7851112276
 30
0.0
 11
1.0
 21
0.0
 31
0.0
 44
0.9
  1
EFF DATE
 40
1.0
 41
6.2619047619
  0
MTEXT
  5
367
100
AcDbEntity
  8
0
100
AcDbMText
 62
2
  6
CONTINUOUS
  7
STANDARD
 71
2
 72
1
 10
88.9271238066
 20
64.7859125096
 30
0.0
 11
1.0
 21
0.0
 31
0.0
 44
0.9
  1
BY
 40
1.0016025641
 41
1.6454899267
  0
MTEXT
  5
368
100
AcDbEntity
  8
0
100
AcDbMText
 62
2
  6
CONTINUOUS
  7
STANDARD
 71
2
 72
1
 10
66.8918673964
 20
64.7851112276
 30
0.0
 11
1.0
 21
0.0
 31
0.0
 44
0.9
  1
DESCRIPTION
 40
1.0
 41
8.5238095238
  0
MTEXT
  5
369
100
AcDbEntity
  8
0
100
AcDbMText
 62
2
  6
CONTINUOUS
  7
STANDARD
 71
2
 72
1
 10
43.855008422
 20
64.7859125096
 30
0.0
 11
1.0
 21
0.0
 31
0.0
 44
0.9
  1
ECO
 40
1.0016025641
 41
2.3370726496
  0
MTEXT
  5
36A
100
AcDbEntity
  8
0
100
AcDbMText
 62
2
  6
CONTINUOUS
  7
STANDARD
 71
2
 72
1
 10
39.6482776528
 20
64.7851112276
 30
0.0
 11
1.0
 21
0.0
 31
0.0
 44
0.9
  1
REV
 40
1.0
 41
2.3333333333
  0
MTEXT
  5
36B
100
AcDbEntity
  8
0
100
AcDbMText
 62
2
  6
CONTINUOUS
  7
STANDARD
 71
2
 72
1
 10
100.1450725246
 20
62.7827073814
 30
0.0
 11
1.0
 21
0.0
 31
0.0
 44
0.9
  1
-
 40
1.0016025641
 41
0.9062118437
  0
MTEXT
  5
36C
100
AcDbEntity
  8
0
100
AcDbMText
 62
2
  6
CONTINUOUS
  7
STANDARD
 71
2
 72
1
 10
94.13545714
 20
62.7827073814
 30
0.0
 11
1.0
 21
0.0
 31
0.0
 44
0.9
  1
09-APR-13
 40
1.0016025641
 41
6.9158272283
  0
MTEXT
  5
36D
100
AcDbEntity
  8
0
100
AcDbMText
 62
2
  6
CONTINUOUS
  7
STANDARD
 71
2
 72
1
 10
88.9271238066
 20
62.7827073814
 30
0.0
 11
1.0
 21
0.0
 31
0.0
 44
0.9
  1
 JD 
 40
1.0016025641
 41
3.3148275336
  0
MTEXT
  5
36E
100
AcDbEntity
  8
0
100
AcDbMText
 62
2
  6
CONTINUOUS
  7
STANDARD
 71
1
 72
1
 10
46.8598161143
 20
62.7827073814
 30
0.0
 11
1.0
 21
0.0
 31
0.0
 44
0.9
  1
RELEASE
 40
1.0016025641
 41
5.4134233822
  0
MTEXT
  5
36F
100
AcDbEntity
  8
0
100
AcDbMText
 62
2
  6
CONTINUOUS
  7
STANDARD
 71
2
 72
1
 10
43.855008422
 20
62.7827073814
 30
0.0
 11
1.0
 21
0.0
 31
0.0
 44
0.9
  1
-
 40
1.0016025641
 41
0.9062118437
  0
MTEXT
  5
370
100
AcDbEntity
  8
0
100
AcDbMText
 62
2
  6
CONTINUOUS
  7
STANDARD
 71
2
 72
1
 10
39.6482776528
 20
62.7827073814
 30
0.0
 11
1.0
 21
0.0
 31
0.0
 44
0.9
  1
A
 40
1.0016025641
 41
1.0492979243
  0
LINE
  5
371
100
AcDbEntity
  8
0
100
AcDbLine
 62
2
  6
CONTINUOUS
 10
39.2628205128
 20
11.2179487179
 11
53.6858974359
 21
11.2179487179
  0
LINE
  5
372
100
AcDbEntity
  8
0
100
AcDbLine
 62
2
  6
CONTINUOUS
 10
39.2628205128
 20
11.2179487179
 11
39.2628205128
 21
7.2115384615
  0
LINE
  5
373
100
AcDbEntity
  8
0
100
AcDbLine
 62
2
  6
CONTINUOUS
 10
39.2628205128
 20
7.2115384615
 11
53.6858974359
 21
7.2115384615
  0
LINE
  5
374
100
AcDbEntity
  8
0
100
AcDbLine
 62
2
  6
CONTINUOUS
 10
53.6858974359
 20
11.2179487179
 11
53.6858974359
 21
7.2115384615
  0
LINE
  5
375
100
AcDbEntity
  8
0
100
AcDbLine
 62
2
  6
CONTINUOUS
 10
39.2628205128
 20
7.2115384615
 11
53.6858974359
 21
7.2115384615
  0
LINE
  5
376
100
AcDbEntity
  8
0
100
AcDbLine
 62
2
  6
CONTINUOUS
 10
39.2628205128
 20
7.2115384615
 11
39.2628205128
 21
3.2051282051
  0
LINE
  5
377
100
AcDbEntity
  8
0
100
AcDbLine
 62
2
  6
CONTINUOUS
 10
39.2628205128
 20
3.2051282051
 11
53.6858974359
 21
3.2051282051
  0
LINE
  5
378
100
AcDbEntity
  8
0
100
AcDbLine
 62
2
  6
CONTINUOUS
 10
53.6858974359
 20
7.2115384615
 11
53.6858974359
 21
3.2051282051
  0
LINE
  5
379
100
AcDbEntity
  8
0
100
AcDbLine
 62
2
  6
CONTINUOUS
 10
53.6858974359
 20
17.6282051282
 11
64.9038461538
 21
17.6282051282
  0
LINE
  5
37A
100
AcDbEntity
  8
0
100
AcDbLine
 62
2
  6
CONTINUOUS
 10
53.6858974359
 20
17.6282051282
 11
53.6858974359
 21
14.8737980769
  0
LINE
  5
37B
100
AcDbEntity
  8
0
100
AcDbLine
 62
2
  6
CONTINUOUS
 10
53.6858974359
 20
14.8737980769
 11
64.9038461538
 21
14.8737980769
  0
LINE
  5
37C
100
AcDbEntity
  8
0
100
AcDbLine
 62
2
  6
CONTINUOUS
 10
64.9038461538
 20
17.6282051282
 11
64.9038461538
 21
14.8737980769
  0
MTEXT
  5
37D
100
AcDbEntity
  8
0
100
AcDbMText
 62
2
  6
CONTINUOUS
  7
STANDARD
 71
1
 72
1
 10
54.0865384615
 20
16.3762019231
 30
0.0
 11
1.0
 21
0.0
 31
0.0
 44
0.9
  1
J. DELARM 
 40
1.0016025641
 41
7.559714591
  0
LINE
  5
37E
100
AcDbEntity
  8
0
100
AcDbLine
 62
2
  6
CONTINUOUS
 10
53.6858974359
 20
14.8237179487
 11
64.9038461538
 21
14.8237179487
  0
LINE
  5
37F
100
AcDbEntity
  8
0
100
AcDbLine
 62
2
  6
CONTINUOUS
 10
53.6858974359
 20
14.8237179487
 11
53.6858974359
 21
12.0032051282
  0
LINE
  5
380
100
AcDbEntity
  8
0
100
AcDbLine
 62
2
  6
CONTINUOUS
 10
53.6858974359
 20
12.0032051282
 11
64.9038461538
 21
12.0032051282
  0
LINE
  5
381
100
AcDbEntity
  8
0
100
AcDbLine
 62
2
  6
CONTINUOUS
 10
64.9038461538
 20
14.8237179487
 11
64.9038461538
 21
12.0032051282
  0
MTEXT
  5
382
100
AcDbEntity
  8
0
100
AcDbMText
 62
2
  6
CONTINUOUS
  7
STANDARD
 71
1
 72
1
 10
54.0865384615
 20
13.5056089744
 30
0.0
 11
1.0
 21
0.0
 31
0.0
 44
0.9
  1
D. TEULIE 
 40
1.0016025641
 41
7.4166285104
  0
LINE
  5
383
100
AcDbEntity
  8
0
100
AcDbLine
 62
2
  6
CONTINUOUS
 10
53.6858974359
 20
12.0192307692
 11
64.9038461538
 21
12.0192307692
  0
LINE
  5
384
100
AcDbEntity
  8
0
100
AcDbLine
 62
2
  6
CONTINUOUS
 10
53.6858974359
 20
12.0192307692
 11
53.6858974359
 21
9.2648237179
  0
LINE
  5
385
100
AcDbEntity
  8
0
100
AcDbLine
 62
2
  6
CONTINUOUS
 10
53.6858974359
 20
9.2648237179
 11
64.9038461538
 21
9.2648237179
  0
LINE
  5
386
100
AcDbEntity
  8
0
100
AcDbLine
 62
2
  6
CONTINUOUS
 10
64.9038461538
 20
12.0192307692
 11
64.9038461538
 21
9.2648237179
  0
MTEXT
  5
387
100
AcDbEntity
  8
0
100
AcDbMText
 62
2
  6
CONTINUOUS
  7
STANDARD
 71
1
 72
1
 10
54.0865384615
 20
10.7672275641
 30
0.0
 11
1.0
 21
0.0
 31
0.0
 44
0.9
  1
-
 40
1.0016025641
 41
0.7154304029
  0
LINE
  5
388
100
AcDbEntity
  8
0
100
AcDbLine
 62
2
  6
CONTINUOUS
 10
53.6858974359
 20
9.2147435897
 11
64.9038461538
 21
9.2147435897
  0
LINE
  5
389
100
AcDbEntity
  8
0
100
AcDbLine
 62
2
  6
CONTINUOUS
 10
53.6858974359
 20
9.2147435897
 11
53.6858974359
 21
6.3942307692
  0
LINE
  5
38A
100
AcDbEntity
  8
0
100
AcDbLine
 62
2
  6
CONTINUOUS
 10
53.6858974359
 20
6.3942307692
 11
64.9038461538
 21
6.3942307692
  0
LINE
  5
38B
100
AcDbEntity
  8
0
100
AcDbLine
 62
2
  6
CONTINUOUS
 10
64.9038461538
 20
9.2147435897
 11
64.9038461538
 21
6.3942307692
  0
MTEXT
  5
38C
100
AcDbEntity
  8
0
100
AcDbMText
 62
2
  6
CONTINUOUS
  7
STANDARD
 71
1
 72
1
 10
54.0865384615
 20
7.8966346154
 30
0.0
 11
1.0
 21
0.0
 31
0.0
 44
0.9
  1
-
 40
1.0016025641
 41
0.7154304029
  0
LINE
  5
38D
100
AcDbEntity
  8
0
100
AcDbLine
 62
2
  6
CONTINUOUS
 10
64.9038461538
 20
17.6282051282
 11
70.5128205128
 21
17.6282051282
  0
LINE
  5
38E
100
AcDbEntity
  8
0
100
AcDbLine
 62
2
  6
CONTINUOUS
 10
64.9038461538
 20
17.6282051282
 11
64.9038461538
 21
14.8076923077
  0
LINE
  5
38F
100
AcDbEntity
  8
0
100
AcDbLine
 62
2
  6
CONTINUOUS
 10
64.9038461538
 20
14.8076923077
 11
70.5128205128
 21
14.8076923077
  0
LINE
  5
390
100
AcDbEntity
  8
0
100
AcDbLine
 62
2
  6
CONTINUOUS
 10
70.5128205128
 20
17.6282051282
 11
70.5128205128
 21
14.8076923077
  0
MTEXT
  5
391
100
AcDbEntity
  8
0
100
AcDbMText
 62
2
  6
CONTINUOUS
  7
STANDARD
 71
2
 72
1
 10
67.7083333333
 20
16.077724359
 30
0.0
 11
1.0
 21
0.0
 31
0.0
 44
0.9
  1
14-MAR-13
 40
0.7692307692
 41
5.0549450549
  0
LINE
  5
392
100
AcDbEntity
  8
0
100
AcDbLine
 62
2
  6
CONTINUOUS
 10
64.9038461538
 20
14.8237179487
 11
70.5128205128
 21
14.8237179487
  0
LINE
  5
393
100
AcDbEntity
  8
0
100
AcDbLine
 62
2
  6
CONTINUOUS
 10
64.9038461538
 20
14.8237179487
 11
64.9038461538
 21
12.0032051282
  0
LINE
  5
394
100
AcDbEntity
  8
0
100
AcDbLine
 62
2
  6
CONTINUOUS
 10
64.9038461538
 20
12.0032051282
 11
70.5128205128
 21
12.0032051282
  0
LINE
  5
395
100
AcDbEntity
  8
0
100
AcDbLine
 62
2
  6
CONTINUOUS
 10
70.5128205128
 20
14.8237179487
 11
70.5128205128
 21
12.0032051282
  0
MTEXT
  5
396
100
AcDbEntity
  8
0
100
AcDbMText
 62
2
  6
CONTINUOUS
  7
STANDARD
 71
2
 72
1
 10
67.7083333333
 20
13.2732371795
 30
0.0
 11
1.0
 21
0.0
 31
0.0
 44
0.9
  1
08-APR-13
 40
0.7692307692
 41
5.1648351648
  0
LINE
  5
397
100
AcDbEntity
  8
0
100
AcDbLine
 62
2
  6
CONTINUOUS
 10
64.9038461538
 20
12.0192307692
 11
70.5128205128
 21
12.0192307692
  0
LINE
  5
398
100
AcDbEntity
  8
0
100
AcDbLine
 62
2
  6
CONTINUOUS
 10
64.9038461538
 20
12.0192307692
 11
64.9038461538
 21
9.1987179487
  0
LINE
  5
399
100
AcDbEntity
  8
0
100
AcDbLine
 62
2
  6
CONTINUOUS
 10
64.9038461538
 20
9.1987179487
 11
70.5128205128
 21
9.1987179487
  0
LINE
  5
39A
100
AcDbEntity
  8
0
100
AcDbLine
 62
2
  6
CONTINUOUS
 10
70.5128205128
 20
12.0192307692
 11
70.5128205128
 21
9.1987179487
  0
MTEXT
  5
39B
100
AcDbEntity
  8
0
100
AcDbMText
 62
2
  6
CONTINUOUS
  7
STANDARD
 71
2
 72
1
 10
67.7083333333
 20
10.46875
 30
0.0
 11
1.0
 21
0.0
 31
0.0
 44
0.9
  1
-
 40
0.7692307692
 41
0.5494505495
  0
LINE
  5
39C
100
AcDbEntity
  8
0
100
AcDbLine
 62
2
  6
CONTINUOUS
 10
64.9038461538
 20
9.2147435897
 11
70.5128205128
 21
9.2147435897
  0
LINE
  5
39D
100
AcDbEntity
  8
0
100
AcDbLine
 62
2
  6
CONTINUOUS
 10
64.9038461538
 20
9.2147435897
 11
64.9038461538
 21
6.4603365385
  0
LINE
  5
39E
100
AcDbEntity
  8
0
100
AcDbLine
 62
2
  6
CONTINUOUS
 10
64.9038461538
 20
6.4603365385
 11
70.5128205128
 21
6.4603365385
  0
LINE
  5
39F
100
AcDbEntity
  8
0
100
AcDbLine
 62
2
  6
CONTINUOUS
 10
70.5128205128
 20
9.2147435897
 11
70.5128205128
 21
6.4603365385
  0
MTEXT
  5
3A0
100
AcDbEntity
  8
0
100
AcDbMText
 62
2
  6
CONTINUOUS
  7
STANDARD
 71
2
 72
1
 10
67.7083333333
 20
7.7303685897
 30
0.0
 11
1.0
 21
0.0
 31
0.0
 44
0.9
  1
-
 40
0.7692307692
 41
0.5494505495
  0
LINE
  5
3A1
100
AcDbEntity
  8
0
100
AcDbLine
 62
2
  6
CONTINUOUS
 10
53.6858974359
 20
6.4102564103
 11
70.5128205128
 21
6.4102564103
  0
LINE
  5
3A2
100
AcDbEntity
  8
0
100
AcDbLine
 62
2
  6
CONTINUOUS
 10
53.6858974359
 20
6.4102564103
 11
53.6858974359
 21
4.8076923077
  0
LINE
  5
3A3
100
AcDbEntity
  8
0
100
AcDbLine
 62
2
  6
CONTINUOUS
 10
53.6858974359
 20
4.8076923077
 11
70.5128205128
 21
4.8076923077
  0
LINE
  5
3A4
100
AcDbEntity
  8
0
100
AcDbLine
 62
2
  6
CONTINUOUS
 10
70.5128205128
 20
6.4102564103
 11
70.5128205128
 21
4.8076923077
  0
MTEXT
  5
3A5
100
AcDbEntity
  8
0
100
AcDbMText
 62
2
  6
CONTINUOUS
  7
STANDARD
 71
3
 72
1
 10
70.1121794872
 20
6.0136217949
 30
0.0
 11
1.0
 21
0.0
 31
0.0
 44
0.9
  1
FG-220009-2D.A.2
 40
0.7051282051
 41
8.5454822955
  0
LINE
  5
3A6
100
AcDbEntity
  8
0
100
AcDbLine
 62
2
  6
CONTINUOUS
 10
53.6858974359
 20
4.8076923077
 11
70.5128205128
 21
4.8076923077
  0
LINE
  5
3A7
100
AcDbEntity
  8
0
100
AcDbLine
 62
2
  6
CONTINUOUS
 10
53.6858974359
 20
4.8076923077
 11
53.6858974359
 21
3.2051282051
  0
LINE
  5
3A8
100
AcDbEntity
  8
0
100
AcDbLine
 62
2
  6
CONTINUOUS
 10
53.6858974359
 20
3.2051282051
 11
70.5128205128
 21
3.2051282051
  0
LINE
  5
3A9
100
AcDbEntity
  8
0
100
AcDbLine
 62
2
  6
CONTINUOUS
 10
70.5128205128
 20
4.8076923077
 11
70.5128205128
 21
3.2051282051
  0
MTEXT
  5
3AA
100
AcDbEntity
  8
0
100
AcDbMText
 62
2
  6
CONTINUOUS
  7
STANDARD
 71
3
 72
1
 10
70.1121794872
 20
4.4110576923
 30
0.0
 11
1.0
 21
0.0
 31
0.0
 44
0.9
  1
FG-220009-3D.A.1
 40
0.7051282051
 41
8.344017094
  0
LINE
  5
3AB
100
AcDbEntity
  8
0
100
AcDbLine
 62
2
  6
CONTINUOUS
 10
70.5128205128
 20
15.2243589744
 11
102.5641025641
 21
15.2243589744
  0
LINE
  5
3AC
100
AcDbEntity
  8
0
100
AcDbLine
 62
2
  6
CONTINUOUS
 10
70.5128205128
 20
15.2243589744
 11
70.5128205128
 21
8.0128205128
  0
LINE
  5
3AD
100
AcDbEntity
  8
0
100
AcDbLine
 62
2
  6
CONTINUOUS
 10
70.5128205128
 20
8.0128205128
 11
102.5641025641
 21
8.0128205128
  0
LINE
  5
3AE
100
AcDbEntity
  8
0
100
AcDbLine
 62
2
  6
CONTINUOUS
 10
102.5641025641
 20
15.2243589744
 11
102.5641025641
 21
8.0128205128
  0
MTEXT
  5
3AF
100
AcDbEntity
  8
0
100
AcDbMText
 62
2
  6
CONTINUOUS
  7
STANDARD
 71
2
 72
1
 10
86.5384615385
 20
13.5737179487
 30
0.0
 11
1.0
 21
0.0
 31
0.0
 44
1.02
  1
AMPLIFIER, FINISHED, \PPLD 4.2
 40
1.2820512821
 41
19.6581196581
  0
LINE
  5
3B0
100
AcDbEntity
  8
0
100
AcDbLine
 62
2
  6
CONTINUOUS
 10
70.5198224547
 20
7.9996183814
 11
73.7249506599
 21
7.9996183814
  0
LINE
  5
3B1
100
AcDbEntity
  8
0
100
AcDbLine
 62
2
  6
CONTINUOUS
 10
70.5198224547
 20
7.9996183814
 11
70.5198224547
 21
4.7944901762
  0
LINE
  5
3B2
100
AcDbEntity
  8
0
100
AcDbLine
 62
2
  6
CONTINUOUS
 10
70.5198224547
 20
4.7944901762
 11
73.7249506599
 21
4.7944901762
  0
LINE
  5
3B3
100
AcDbEntity
  8
0
100
AcDbLine
 62
2
  6
CONTINUOUS
 10
73.7249506599
 20
7.9996183814
 11
73.7249506599
 21
4.7944901762
  0
MTEXT
  5
3B4
100
AcDbEntity
  8
0
100
AcDbMText
 62
2
  6
CONTINUOUS
  7
STANDARD
 71
2
 72
1
 10
72.1223865573
 20
6.5773427403
 30
0.0
 11
1.0
 21
0.0
 31
0.0
 44
0.9
  1
B
 40
1.2820512821
 41
1.0073260073
  0
LINE
  5
3B5
100
AcDbEntity
  8
0
100
AcDbLine
 62
2
  6
CONTINUOUS
 10
80.1315224205
 20
7.9806063405
 11
99.3622916512
 21
7.9806063405
  0
LINE
  5
3B6
100
AcDbEntity
  8
0
100
AcDbLine
 62
2
  6
CONTINUOUS
 10
80.1315224205
 20
7.9806063405
 11
80.1315224205
 21
4.7754781354
  0
LINE
  5
3B7
100
AcDbEntity
  8
0
100
AcDbLine
 62
2
  6
CONTINUOUS
 10
80.1315224205
 20
4.7754781354
 11
99.3622916512
 21
4.7754781354
  0
LINE
  5
3B8
100
AcDbEntity
  8
0
100
AcDbLine
 62
2
  6
CONTINUOUS
 10
99.3622916512
 20
7.9806063405
 11
99.3622916512
 21
4.7754781354
  0
MTEXT
  5
3B9
100
AcDbEntity
  8
0
100
AcDbMText
 62
2
  6
CONTINUOUS
  7
STANDARD
 71
2
 72
1
 10
89.7469070358
 20
6.7506383918
 30
0.0
 11
1.0
 21
0.0
 31
0.0
 44
0.9
  1
FG-220009-2D
 40
1.4743589744
 41
13.7606837607
  0
LINE
  5
3BA
100
AcDbEntity
  8
0
100
AcDbLine
 62
2
  6
CONTINUOUS
 10
99.3506403607
 20
8.0018450168
 11
102.5557685658
 21
8.0018450168
  0
LINE
  5
3BB
100
AcDbEntity
  8
0
100
AcDbLine
 62
2
  6
CONTINUOUS
 10
99.3506403607
 20
8.0018450168
 11
99.3506403607
 21
4.7967168117
  0
LINE
  5
3BC
100
AcDbEntity
  8
0
100
AcDbLine
 62
2
  6
CONTINUOUS
 10
99.3506403607
 20
4.7967168117
 11
102.5557685658
 21
4.7967168117
  0
LINE
  5
3BD
100
AcDbEntity
  8
0
100
AcDbLine
 62
2
  6
CONTINUOUS
 10
102.5557685658
 20
8.0018450168
 11
102.5557685658
 21
4.7967168117
  0
MTEXT
  5
3BE
100
AcDbEntity
  8
0
100
AcDbMText
 62
2
  6
CONTINUOUS
  7
STANDARD
 71
2
 72
1
 10
100.9532044632
 20
6.4513642476
 30
0.0
 11
1.0
 21
0.0
 31
0.0
 44
0.9
  1
A
 40
1.1538461538
 41
0.989010989
  0
LINE
  5
3BF
100
AcDbEntity
  8
0
100
AcDbLine
 62
2
  6
CONTINUOUS
 10
92.1514142267
 20
4.7623646387
 11
102.5680808934
 21
4.7623646387
  0
LINE
  5
3C0
100
AcDbEntity
  8
0
100
AcDbLine
 62
2
  6
CONTINUOUS
 10
92.1514142267
 20
4.7623646387
 11
92.1514142267
 21
3.1598005361
  0
LINE
  5
3C1
100
AcDbEntity
  8
0
100
AcDbLine
 62
2
  6
CONTINUOUS
 10
92.1514142267
 20
3.1598005361
 11
102.5680808934
 21
3.1598005361
  0
LINE
  5
3C2
100
AcDbEntity
  8
0
100
AcDbLine
 62
2
  6
CONTINUOUS
 10
102.5680808934
 20
4.7623646387
 11
102.5680808934
 21
3.1598005361
  0
MTEXT
  5
3C3
100
AcDbEntity
  8
0
100
AcDbMText
 62
2
  6
CONTINUOUS
  7
STANDARD
 71
3
 72
1
 10
102.1674398678
 20
4.5580377156
 30
0.0
 11
1.0
 21
0.0
 31
0.0
 44
0.9
  1
1 OF 1
 40
0.8974358974
 41
3.7820512821
  0
LINE
  5
3C4
100
AcDbEntity
  8
0
100
AcDbLine
 62
2
  6
CONTINUOUS
 10
70.5016654622
 20
4.8001488263
 11
78.1170500776
 21
4.8001488263
  0
LINE
  5
3C5
100
AcDbEntity
  8
0
100
AcDbLine
 62
2
  6
CONTINUOUS
 10
70.5016654622
 20
4.8001488263
 11
70.5016654622
 21
3.1725446597
  0
LINE
  5
3C6
100
AcDbEntity
  8
0
100
AcDbLine
 62
2
  6
CONTINUOUS
 10
70.5016654622
 20
3.1725446597
 11
78.1170500776
 21
3.1725446597
  0
LINE
  5
3C7
100
AcDbEntity
  8
0
100
AcDbLine
 62
2
  6
CONTINUOUS
 10
78.1170500776
 20
4.8001488263
 11
78.1170500776
 21
3.1725446597
  0
MTEXT
  5
3C8
100
AcDbEntity
  8
0
100
AcDbMText
 62
2
  6
CONTINUOUS
  7
STANDARD
 71
3
 72
1
 10
77.7164090519
 20
4.442576711
 30
0.0
 11
1.0
 21
0.0
 31
0.0
 44
0.9
  1
0.156
 40
0.7692307692
 41
2.6373626374
  0
MTEXT
  5
3C9
100
AcDbEntity
  8
0
100
AcDbMText
 62
2
  6
CONTINUOUS
  7
STANDARD
 71
1
 72
1
 10
3.7856403673
 20
11.7495816505
 30
0.0
 11
1.0
 21
0.0
 31
0.0
 44
1.2
  1
3. PARTS ARE SYMMETRICAL ABOUT CENTER LINES \P   UNLESS OTHERWISE NOTED.\P2. TOLERANCES (MM): X \Fgdt;{\Fgdt;`}\Ftxt; 3, ANGLES: \Fgdt;{\Fgdt;`}\Ftxt; 1\Fgdt;{\Fgdt;~}\Ftxt;.\P1. NET WEIGHT APPROX. 5.9 KG (13 LBS)\PNOTE:  UNLESS OTHERWISE SPECIFIED
 40
0.8974358974
 41
30.8974358974
  0
MTEXT
  5
3CA
100
AcDbEntity
  8
0
100
AcDbMText
 62
2
  6
CONTINUOUS
  7
STANDARD
 71
3
 72
1
 10
91.2647151389
 20
44.5637165246
 30
0.0
 11
1.0
 21
0.0
 31
0.0
 44
0.9
  1
SCALE  0.125
 40
1.0016025641
 41
8.8474893162
  0
LINE
  5
3CB
100
AcDbEntity
  8
DEFAULT_3
100
AcDbLine
 62
7
  6
PHANTOM
 10
-0.000012448
 20
-0.0
 11
-0.000012448
 21
70.5127121322
  0
LWPOLYLINE
  5
3CC
100
AcDbEntity
  8
0
100
AcDbPolyline
 62
7
  6
CONTINUOUS
 90
2
 70
0
 43
0.1282051336
 10
1.6827464239
 20
34.1753419147
 10
1.6827464239
 20
36.3375840857
  0
LWPOLYLINE
  5
3CD
100
AcDbEntity
  8
0
100
AcDbPolyline
 62
7
  6
CONTINUOUS
 90
2
 70
0
 43
0.1923076938
 10
3.204278184
 20
67.3053473654
 10
3.204278184
 20
3.2051282051
  0
LINE
  5
3CE
100
AcDbEntity
  8
DEFAULT_3
100
AcDbLine
 62
7
  6
PHANTOM
 10
-0.000012448
 20
-0.0
 11
108.9743589744
 21
-0.0
  0
LWPOLYLINE
  5
3CF
100
AcDbEntity
  8
0
100
AcDbPolyline
 62
7
  6
CONTINUOUS
 90
2
 70
0
 43
0.1923076938
 10
22.7633243274
 20
67.3457287305
 10
22.7633243274
 20
64.1406005254
  0
LWPOLYLINE
  5
3D0
100
AcDbEntity
  8
0
100
AcDbPolyline
 62
7
  6
CONTINUOUS
 90
2
 70
0
 43
0.1282051336
 10
51.8036914104
 20
1.6855344324
 10
53.9659335814
 20
1.6855344324
  0
LWPOLYLINE
  5
3D1
100
AcDbEntity
  8
0
100
AcDbPolyline
 62
7
  6
CONTINUOUS
 90
2
 70
0
 43
0.1923076938
 10
3.204278184
 20
3.2051282051
 10
102.5641025641
 20
3.2051282051
  0
LWPOLYLINE
  5
3D2
100
AcDbEntity
  8
0
100
AcDbPolyline
 62
7
  6
CONTINUOUS
 90
2
 70
0
 43
0.1282051336
 10
53.6858974359
 20
4.8076923077
 10
102.5641025641
 20
4.8076923077
  0
LWPOLYLINE
  5
3D3
100
AcDbEntity
  8
0
100
AcDbPolyline
 62
7
  6
CONTINUOUS
 90
2
 70
0
 43
0.1282051336
 10
28.0442816323
 20
3.2047144413
 10
28.0442816323
 20
-0.0004137639
  0
LWPOLYLINE
  5
3D4
100
AcDbEntity
  8
0
100
AcDbPolyline
 62
7
  6
CONTINUOUS
 90
2
 70
0
 43
0.1282051336
 10
28.0446781033
 20
67.3063607175
 10
28.0446781033
 20
70.5114889227
  0
LWPOLYLINE
  5
3D5
100
AcDbEntity
  8
0
100
AcDbPolyline
 62
7
  6
CONTINUOUS
 90
2
 70
0
 43
0.1282051336
 10
3.2054212821
 20
35.2564630002
 10
1.6827464239
 20
34.1753419147
  0
LINE
  5
3D6
100
AcDbEntity
  8
0
100
AcDbLine
 62
7
  6
CONTINUOUS
 10
53.6432923769
 20
7.1599263765
 11
39.330002568
 21
3.3079115592
  0
LWPOLYLINE
  5
3D7
100
AcDbEntity
  8
0
100
AcDbPolyline
 62
7
  6
CONTINUOUS
 90
2
 70
0
 43
0.1282051336
 10
53.6858974359
 20
6.4102564103
 10
70.5128205128
 20
6.4102564103
  0
LWPOLYLINE
  5
3D8
100
AcDbEntity
  8
0
100
AcDbPolyline
 62
7
  6
CONTINUOUS
 90
2
 70
0
 43
0.1282051336
 10
53.6858974359
 20
7.2115384615
 10
39.2628205128
 20
7.2115384615
  0
LWPOLYLINE
  5
3D9
100
AcDbEntity
  8
0
100
AcDbPolyline
 62
7
  6
CONTINUOUS
 90
2
 70
0
 43
0.1282051336
 10
70.5128205128
 20
8.0128205128
 10
102.5641025641
 20
8.0128205128
  0
LWPOLYLINE
  5
3DA
100
AcDbEntity
  8
0
100
AcDbPolyline
 62
7
  6
CONTINUOUS
 90
2
 70
0
 43
0.1282051336
 10
3.2054212821
 20
35.2564630002
 10
1.6827464239
 20
36.3375840857
  0
LINE
  5
3DB
100
AcDbEntity
  8
0
100
AcDbLine
 62
7
  6
CONTINUOUS
 10
53.63157904
 20
11.1604064653
 11
39.3168821881
 21
7.2716163271
  0
LWPOLYLINE
  5
3DC
100
AcDbEntity
  8
0
100
AcDbPolyline
 62
7
  6
CONTINUOUS
 90
2
 70
0
 43
0.1282051336
 10
53.6858974359
 20
9.2147435897
 10
70.5128205128
 20
9.2147435897
  0
LWPOLYLINE
  5
3DD
100
AcDbEntity
  8
0
100
AcDbPolyline
 62
7
  6
CONTINUOUS
 90
2
 70
0
 43
0.1282051336
 10
39.2628205128
 20
11.2179487179
 10
53.6858974359
 20
11.2179487179
  0
LWPOLYLINE
  5
3DE
100
AcDbEntity
  8
0
100
AcDbPolyline
 62
7
  6
CONTINUOUS
 90
2
 70
0
 43
0.1282051336
 10
53.6858974359
 20
12.0192307692
 10
70.5128205128
 20
12.0192307692
  0
LWPOLYLINE
  5
3DF
100
AcDbEntity
  8
0
100
AcDbPolyline
 62
7
  6
CONTINUOUS
 90
2
 70
0
 43
0.1282051336
 10
52.8826291598
 20
67.3079433889
 10
53.9637502453
 20
68.8306182471
  0
LWPOLYLINE
  5
3E0
100
AcDbEntity
  8
0
100
AcDbPolyline
 62
7
  6
CONTINUOUS
 90
2
 70
0
 43
0.1282051336
 10
53.6858974359
 20
14.8237179487
 10
70.5128205128
 20
14.8237179487
  0
LWPOLYLINE
  5
3E1
100
AcDbEntity
  8
0
100
AcDbPolyline
 62
7
  6
CONTINUOUS
 90
2
 70
0
 43
0.1282051336
 10
70.5128205128
 20
15.2243589744
 10
102.5641025641
 20
15.2243589744
  0
LINE
  5
3E2
100
AcDbEntity
  8
0
100
AcDbLine
 62
7
  6
CONTINUOUS
 10
39.3317214345
 20
19.5652344191
 11
53.630184954
 21
11.2716377083
  0
LWPOLYLINE
  5
3E3
100
AcDbEntity
  8
0
100
AcDbPolyline
 62
7
  6
CONTINUOUS
 90
2
 70
0
 43
0.1282051336
 10
52.8848124959
 20
3.2082092906
 10
53.9659335814
 20
1.6855344324
  0
LWPOLYLINE
  5
3E4
100
AcDbEntity
  8
0
100
AcDbPolyline
 62
7
  6
CONTINUOUS
 90
2
 70
0
 43
0.1282051336
 10
39.2628205128
 20
3.2051282051
 10
39.2628205128
 20
19.6314102564
  0
LWPOLYLINE
  5
3E5
100
AcDbEntity
  8
0
100
AcDbPolyline
 62
7
  6
CONTINUOUS
 90
2
 70
0
 43
0.1282051336
 10
53.6858974359
 20
17.6282051282
 10
70.5128205128
 20
17.6282051282
  0
LWPOLYLINE
  5
3E6
100
AcDbEntity
  8
0
100
AcDbPolyline
 62
7
  6
CONTINUOUS
 90
2
 70
0
 43
0.1282051336
 10
3.2049785157
 20
19.2297236138
 10
-0.0001496895
 20
19.2297236138
  0
LWPOLYLINE
  5
3E7
100
AcDbEntity
  8
0
100
AcDbPolyline
 62
7
  6
CONTINUOUS
 90
2
 70
0
 43
0.1282051336
 10
102.625372573
 20
19.2297848181
 10
105.8305007781
 20
19.2297848181
  0
LWPOLYLINE
  5
3E8
100
AcDbEntity
  8
0
100
AcDbPolyline
 62
7
  6
CONTINUOUS
 90
2
 70
0
 43
0.1282051336
 10
39.2628205128
 20
19.6314102564
 10
102.5641025641
 20
19.6314102564
  0
LWPOLYLINE
  5
3E9
100
AcDbEntity
  8
0
100
AcDbPolyline
 62
7
  6
CONTINUOUS
 90
2
 70
0
 43
0.1282051336
 10
52.8826291598
 20
67.3079433889
 10
52.8826291598
 20
70.513071594
  0
LWPOLYLINE
  5
3EA
100
AcDbEntity
  8
0
100
AcDbPolyline
 62
7
  6
CONTINUOUS
 90
2
 70
0
 43
0.1282051336
 10
52.8848124959
 20
3.2082092906
 10
52.8848124959
 20
0.0030810855
  0
LWPOLYLINE
  5
3EB
100
AcDbEntity
  8
0
100
AcDbPolyline
 62
7
  6
CONTINUOUS
 90
2
 70
0
 43
0.1282051336
 10
53.6858974359
 20
3.2051282051
 10
53.6858974359
 20
19.6314102564
  0
LWPOLYLINE
  5
3EC
100
AcDbEntity
  8
0
100
AcDbPolyline
 62
7
  6
CONTINUOUS
 90
2
 70
0
 43
0.1282051336
 10
102.586139775
 20
35.2563340909
 10
105.7912679801
 20
35.2563340909
  0
LWPOLYLINE
  5
3ED
100
AcDbEntity
  8
0
100
AcDbPolyline
 62
7
  6
CONTINUOUS
 90
2
 70
0
 43
0.1282051336
 10
3.2054212821
 20
35.2564630002
 10
0.000293077
 20
35.2564630002
  0
LWPOLYLINE
  5
3EE
100
AcDbEntity
  8
0
100
AcDbPolyline
 62
7
  6
CONTINUOUS
 90
2
 70
0
 43
0.1282051336
 10
64.9038461538
 20
6.4102564103
 10
64.9038461538
 20
19.6314102564
  0
LINE
  5
3EF
100
AcDbEntity
  8
0
100
AcDbLine
 62
7
  6
CONTINUOUS
 10
53.6366780346
 20
19.5791323515
 11
39.3175096887
 21
11.2666405304
  0
LWPOLYLINE
  5
3F0
100
AcDbEntity
  8
0
100
AcDbPolyline
 62
7
  6
CONTINUOUS
 90
2
 70
0
 43
0.1282051336
 10
70.5128205128
 20
3.2051282051
 10
70.5128205128
 20
19.6314102564
  0
LWPOLYLINE
  5
3F1
100
AcDbEntity
  8
0
100
AcDbPolyline
 62
7
  6
CONTINUOUS
 90
2
 70
0
 43
0.1282051336
 10
73.7179487179
 20
4.8076923077
 10
73.7179487179
 20
8.0128205128
  0
LWPOLYLINE
  5
3F2
100
AcDbEntity
  8
0
100
AcDbPolyline
 62
7
  6
CONTINUOUS
 90
2
 70
0
 43
0.1282051336
 10
52.8848124959
 20
3.2082092906
 10
51.8036914104
 20
1.6855344324
  0
LWPOLYLINE
  5
3F3
100
AcDbEntity
  8
0
100
AcDbPolyline
 62
7
  6
CONTINUOUS
 90
2
 70
0
 43
0.1282051336
 10
102.5931504338
 20
51.280042202
 10
105.7982786389
 20
51.280042202
  0
LWPOLYLINE
  5
3F4
100
AcDbEntity
  8
0
100
AcDbPolyline
 62
7
  6
CONTINUOUS
 90
2
 70
0
 43
0.1282051336
 10
3.2042773829
 20
51.2802503495
 10
-0.0008508222
 20
51.2802503495
  0
LWPOLYLINE
  5
3F5
100
AcDbEntity
  8
0
100
AcDbPolyline
 62
7
  6
CONTINUOUS
 90
2
 70
0
 43
0.1282051336
 10
52.8826291598
 20
67.3079433889
 10
51.8015080743
 20
68.8306182471
  0
LWPOLYLINE
  5
3F6
100
AcDbEntity
  8
0
100
AcDbPolyline
 62
7
  6
CONTINUOUS
 90
2
 70
0
 43
0.1282051336
 10
77.7225187192
 20
67.3168705133
 10
77.7225187192
 20
70.5219987184
  0
LWPOLYLINE
  5
3F7
100
AcDbEntity
  8
0
100
AcDbPolyline
 62
7
  6
CONTINUOUS
 90
2
 70
0
 43
0.1282051336
 10
77.7242986874
 20
3.2030256676
 10
77.7242986874
 20
-0.0021025375
  0
LWPOLYLINE
  5
3F8
100
AcDbEntity
  8
0
100
AcDbPolyline
 62
7
  6
CONTINUOUS
 90
2
 70
0
 43
0.1282051336
 10
78.100185683
 20
3.2355779202
 10
78.100185683
 20
4.8381420228
  0
LWPOLYLINE
  5
3F9
100
AcDbEntity
  8
0
100
AcDbPolyline
 62
7
  6
CONTINUOUS
 90
2
 70
0
 43
0.1282051336
 10
80.1282051282
 20
4.8076923077
 10
80.1282051282
 20
8.0128205128
  0
LWPOLYLINE
  5
3FA
100
AcDbEntity
  8
0
100
AcDbPolyline
 62
7
  6
CONTINUOUS
 90
2
 70
0
 43
0.1282051336
 10
102.586139775
 20
35.2563340909
 10
104.1088146332
 20
36.3374551764
  0
LWPOLYLINE
  5
3FB
100
AcDbEntity
  8
0
100
AcDbPolyline
 62
7
  6
CONTINUOUS
 90
2
 70
0
 43
0.1923076938
 10
22.7633243274
 20
64.1406005254
 10
3.131914071
 20
64.1406005254
  0
LWPOLYLINE
  5
3FC
100
AcDbEntity
  8
0
100
AcDbPolyline
 62
7
  6
CONTINUOUS
 90
2
 70
0
 43
0.1282051336
 10
102.586139775
 20
35.2563340909
 10
104.1088146332
 20
34.1752130054
  0
LWPOLYLINE
  5
3FD
100
AcDbEntity
  8
0
100
AcDbPolyline
 62
7
  6
CONTINUOUS
 90
2
 70
0
 43
0.1923076938
 10
102.5641025641
 20
67.3053473654
 10
3.204278184
 20
67.3053473654
  0
LWPOLYLINE
  5
3FE
100
AcDbEntity
  8
0
100
AcDbPolyline
 62
7
  6
CONTINUOUS
 90
2
 70
0
 43
0.1282051336
 10
51.8015080743
 20
68.8306182471
 10
53.9637502453
 20
68.8306182471
  0
LWPOLYLINE
  5
3FF
100
AcDbEntity
  8
0
100
AcDbPolyline
 62
7
  6
CONTINUOUS
 90
2
 70
0
 43
0.1282051336
 10
92.1474358974
 20
3.2051282051
 10
92.1474358974
 20
4.8076923077
  0
LINE
  5
400
100
AcDbEntity
  8
DEFAULT_3
100
AcDbLine
 62
7
  6
PHANTOM
 10
-0.000012448
 20
70.5127121322
 11
108.9744228761
 21
70.5127121322
  0
LWPOLYLINE
  5
401
100
AcDbEntity
  8
0
100
AcDbPolyline
 62
7
  6
CONTINUOUS
 90
2
 70
0
 43
0.1282051336
 10
99.358974359
 20
4.8076923077
 10
99.358974359
 20
8.0128205128
  0
LWPOLYLINE
  5
402
100
AcDbEntity
  8
0
100
AcDbPolyline
 62
7
  6
CONTINUOUS
 90
2
 70
0
 43
0.1923076938
 10
102.5641025641
 20
67.3053473654
 10
102.5641025641
 20
3.2051282051
  0
LWPOLYLINE
  5
403
100
AcDbEntity
  8
0
100
AcDbPolyline
 62
7
  6
CONTINUOUS
 90
2
 70
0
 43
0.1282051336
 10
104.1088146332
 20
34.1752130054
 10
104.1088146332
 20
36.3374551764
  0
LINE
  5
404
100
AcDbEntity
  8
DEFAULT_3
100
AcDbLine
 62
7
  6
PHANTOM
 10
108.9743589744
 20
-0.0
 11
108.9743589744
 21
70.5104755705
  0
LINE
  5
405
100
AcDbEntity
  8
3_AXES_OTHER
100
AcDbLine
 62
7
  6
CONTINUOUS
 10
78.7265247962
 20
53.1350149224
 11
78.7265247962
 21
51.6880372032
  0
LINE
  5
406
100
AcDbEntity
  8
3_AXES_OTHER
100
AcDbLine
 62
7
  6
CONTINUOUS
 10
79.0996876981
 20
53.3661126544
 11
79.0996876981
 21
53.7723218256
  0
LINE
  5
407
100
AcDbEntity
  8
7_ALL_ROUNDS
100
AcDbLine
 62
7
  6
CONTINUOUS
 10
79.1171676215
 20
53.3156272908
 11
79.1171676215
 21
53.138631093
  0
LINE
  5
408
100
AcDbEntity
  8
7_ALL_ROUNDS
100
AcDbLine
 62
7
  6
CONTINUOUS
 10
79.1171676215
 20
51.0562312292
 11
79.1171676215
 21
51.233227427
  0
LINE
  5
409
100
AcDbEntity
  8
3_ALL_AXES
100
AcDbLine
 62
7
  6
CONTINUOUS
 10
79.2217351026
 20
53.2552394176
 11
79.2217351026
 21
50.995843356
  0
LINE
  5
40A
100
AcDbEntity
  8
3_ALL_AXES
100
AcDbLine
 62
7
  6
CONTINUOUS
 10
79.7186621973
 20
53.4209251599
 11
79.7186621973
 21
51.1615290984
  0
LINE
  5
40B
100
AcDbEntity
  8
3_AXES_OTHER
100
AcDbLine
 62
7
  6
CONTINUOUS
 10
79.8096698943
 20
51.5399714362
 11
79.8096698943
 21
53.0811582628
  0
LINE
  5
40C
100
AcDbEntity
  8
3_AXES_OTHER
100
AcDbLine
 62
7
  6
CONTINUOUS
 10
79.9127162866
 20
53.0127409524
 11
79.9127162866
 21
51.5994808784
  0
LINE
  5
40D
100
AcDbEntity
  8
3_AXES_OTHER
100
AcDbLine
 62
7
  6
CONTINUOUS
 10
79.2152058781
 20
53.8438615989
 11
79.0996876981
 21
53.7723218256
  0
LINE
  5
40E
100
AcDbEntity
  8
3_AXES_OTHER
100
AcDbLine
 62
7
  6
CONTINUOUS
 10
78.7265247962
 20
53.1350149224
 11
79.0996876981
 21
53.3661126544
  0
LINE
  5
40F
100
AcDbEntity
  8
3_AXES_OTHER
100
AcDbLine
 62
7
  6
CONTINUOUS
 10
79.2152058781
 20
53.8438615989
 11
79.2419740027
 21
53.85932023
  0
LINE
  5
410
100
AcDbEntity
  8
3_AXES_OTHER
100
AcDbLine
 62
9
  6
CONTINUOUS
 10
79.3544952387
 20
53.5359816426
 11
79.2306867768
 21
53.4644820748
  0
LINE
  5
411
100
AcDbEntity
  8
3_AXES_OTHER
100
AcDbLine
 62
7
  6
CONTINUOUS
 10
79.1171676215
 20
53.3156272908
 11
79.5038331823
 21
53.5389272175
  0
LINE
  5
412
100
AcDbEntity
  8
3_AXES_OTHER
100
AcDbLine
 62
7
  6
CONTINUOUS
 10
79.7390023109
 20
53.5722856553
 11
85.1726178999
 21
56.7102066029
  0
LINE
  5
413
100
AcDbEntity
  8
3_AXES_OTHER
100
AcDbLine
 62
7
  6
CONTINUOUS
 10
84.8650981845
 20
56.5016962553
 11
85.1993860245
 21
56.6947479718
  0
LINE
  5
414
100
AcDbEntity
  8
7_ALL_ROUNDS
100
AcDbLine
 62
9
  6
CONTINUOUS
 10
78.9186373635
 20
53.0240696338
 11
79.1171286214
 21
53.1386986255
  0
LINE
  5
415
100
AcDbEntity
  8
3_ALL_AXES
100
AcDbLine
 62
7
  6
CONTINUOUS
 10
85.5504729461
 20
56.6691480991
 11
85.5236941802
 21
56.6536833227
  0
LINE
  5
416
100
AcDbEntity
  8
3_AXES_OTHER
100
AcDbLine
 62
7
  6
CONTINUOUS
 10
85.4316901566
 20
56.5005499247
 11
85.3200670767
 21
56.4360874328
  0
LINE
  5
417
100
AcDbEntity
  8
3_AXES_OTHER
100
AcDbLine
 62
7
  6
CONTINUOUS
 10
85.4049220319
 20
56.3851768811
 11
85.2932989521
 21
56.3207143892
  0
LINE
  5
418
100
AcDbEntity
  8
3_AXES_OTHER
100
AcDbLine
 62
7
  6
CONTINUOUS
 10
85.4316901566
 20
56.3697182499
 11
85.3200670767
 21
56.3052557581
  0
LINE
  5
419
100
AcDbEntity
  8
3_ALL_AXES
100
AcDbLine
 62
9
  6
CONTINUOUS
 10
85.5253785929
 20
56.3697182499
 11
85.5521467176
 21
56.3851768811
  0
LINE
  5
41A
100
AcDbEntity
  8
3_AXES_OTHER
100
AcDbLine
 62
7
  6
CONTINUOUS
 10
81.8158741681
 20
50.2405834585
 11
81.8158741681
 21
51.7817702851
  0
LINE
  5
41B
100
AcDbEntity
  8
3_ALL_AXES
100
AcDbLine
 62
9
  6
CONTINUOUS
 10
85.7004867418
 20
56.0776122734
 11
85.7272548664
 21
56.0930709045
  0
LINE
  5
41C
100
AcDbEntity
  8
3_AXES_OTHER
100
AcDbLine
 62
7
  6
CONTINUOUS
 10
79.8096698943
 20
51.5399714362
 11
79.9127162866
 21
51.5994808784
  0
LINE
  5
41D
100
AcDbEntity
  8
3_ALL_AXES
100
AcDbLine
 62
7
  6
CONTINUOUS
 10
79.2217351026
 20
53.2552394176
 11
79.7186621973
 21
53.4209251599
  0
LINE
  5
41E
100
AcDbEntity
  8
3_AXES_OTHER
100
AcDbLine
 62
7
  6
CONTINUOUS
 10
79.1171676215
 20
51.0562312292
 11
79.2217351026
 21
50.995843356
  0
LINE
  5
41F
100
AcDbEntity
  8
3_AXES_OTHER
100
AcDbLine
 62
7
  6
CONTINUOUS
 10
88.9299672616
 20
45.389325089
 11
89.0345347427
 21
45.3289372157
  0
LINE
  5
420
100
AcDbEntity
  8
7_ALL_ROUNDS
100
AcDbLine
 62
7
  6
CONTINUOUS
 10
89.4251775679
 20
45.5095495842
 11
89.2330650006
 21
45.6204948727
  0
LINE
  5
421
100
AcDbEntity
  8
7_ALL_ROUNDS
100
AcDbLine
 62
7
  6
CONTINUOUS
 10
78.7265247962
 20
51.6880372032
 11
78.9186373635
 21
51.5770919147
  0
LINE
  5
422
100
AcDbEntity
  8
3_AXES_OTHER
100
AcDbLine
 62
7
  6
CONTINUOUS
 10
89.4613689533
 20
45.5290396885
 11
89.8253457877
 21
45.3188425344
  0
LINE
  5
423
100
AcDbEntity
  8
3_AXES_OTHER
100
AcDbLine
 62
7
  6
CONTINUOUS
 10
89.6943467089
 20
45.4592280432
 11
89.6206897525
 21
45.5017650433
  0
LINE
  5
424
100
AcDbEntity
  8
3_AXES_OTHER
100
AcDbLine
 62
7
  6
CONTINUOUS
 10
89.6694167042
 20
45.6410793994
 11
89.6943467089
 21
45.6266822852
  0
LINE
  5
425
100
AcDbEntity
  8
0
100
AcDbLine
 62
7
  6
CONTINUOUS
 10
83.9409086057
 20
49.1359541023
 11
83.9409086057
 21
50.2987592429
  0
LINE
  5
426
100
AcDbEntity
  8
0
100
AcDbLine
 62
7
  6
CONTINUOUS
 10
84.0971520196
 20
49.2260385157
 11
84.0971520196
 21
50.2085637896
  0
LINE
  5
427
100
AcDbEntity
  8
3_AXES_OTHER
100
AcDbLine
 62
7
  6
CONTINUOUS
 10
84.1156464607
 20
50.1995311478
 11
84.1156464607
 21
49.2367190826
  0
LINE
  5
428
100
AcDbEntity
  8
3_AXES_OTHER
100
AcDbLine
 62
7
  6
CONTINUOUS
 10
79.9127162866
 20
51.5994808784
 11
81.8158741681
 21
50.500404419
  0
LINE
  5
429
100
AcDbEntity
  8
3_AXES_OTHER
100
AcDbLine
 62
7
  6
CONTINUOUS
 10
87.0856814263
 20
47.457083022
 11
88.9299672616
 21
46.3920052554
  0
LINE
  5
42A
100
AcDbEntity
  8
3_AXES_OTHER
100
AcDbLine
 62
7
  6
CONTINUOUS
 10
84.1156464607
 20
49.2367190826
 11
85.5279786341
 21
48.4210951874
  0
LINE
  5
42B
100
AcDbEntity
  8
3_ALL_AXES
100
AcDbLine
 62
7
  6
CONTINUOUS
 10
79.2217351026
 20
50.995843356
 11
79.7186621973
 21
51.1615290984
  0
LINE
  5
42C
100
AcDbEntity
  8
7_ALL_ROUNDS
100
AcDbLine
 62
7
  6
CONTINUOUS
 10
89.4251775679
 20
46.9565273033
 11
89.2330650006
 21
47.0674725918
  0
LINE
  5
42D
100
AcDbEntity
  8
7_ALL_ROUNDS
100
AcDbLine
 62
7
  6
CONTINUOUS
 10
78.7265247962
 20
53.1350149224
 11
78.9186373635
 21
53.0240696338
  0
LINE
  5
42E
100
AcDbEntity
  8
3_AXES_OTHER
100
AcDbLine
 62
7
  6
CONTINUOUS
 10
79.1171676215
 20
53.3156272908
 11
79.2217351026
 21
53.2552394176
  0
LINE
  5
42F
100
AcDbEntity
  8
3_AXES_OTHER
100
AcDbLine
 62
7
  6
CONTINUOUS
 10
88.9299672616
 20
47.6487211505
 11
89.0345347427
 21
47.5883332773
  0
LINE
  5
430
100
AcDbEntity
  8
0
100
AcDbLine
 62
7
  6
CONTINUOUS
 10
83.9409086057
 20
50.2987592429
 11
84.0346712009
 21
50.2445658306
  0
LINE
  5
431
100
AcDbEntity
  8
0
100
AcDbLine
 62
7
  6
CONTINUOUS
 10
84.295572872
 20
50.0946896677
 11
84.6005047662
 21
49.9177961193
  0
LINE
  5
432
100
AcDbEntity
  8
3_AXES_OTHER
100
AcDbLine
 62
7
  6
CONTINUOUS
 10
85.4316901566
 20
56.7321324434
 11
85.4316901566
 21
56.6895905617
  0
LINE
  5
433
100
AcDbEntity
  8
3_AXES_OTHER
100
AcDbLine
 62
9
  6
CONTINUOUS
 10
85.4316901566
 20
56.174488563
 11
85.4316901566
 21
56.3697182499
  0
LINE
  5
434
100
AcDbEntity
  8
3_ALL_AXES
100
AcDbLine
 62
9
  6
CONTINUOUS
 10
85.4316901566
 20
56.5005499247
 11
85.4316901566
 21
56.6895905617
  0
LINE
  5
435
100
AcDbEntity
  8
3_ALL_AXES
100
AcDbLine
 62
9
  6
CONTINUOUS
 10
85.5253785929
 20
56.120383354
 11
85.5253785929
 21
56.3697182499
  0
LINE
  5
436
100
AcDbEntity
  8
3_ALL_AXES
100
AcDbLine
 62
9
  6
CONTINUOUS
 10
85.5253785929
 20
56.5005499247
 11
85.5253785929
 21
56.6509194941
  0
LINE
  5
437
100
AcDbEntity
  8
0
100
AcDbLine
 62
7
  6
CONTINUOUS
 10
85.5279786341
 20
49.3911004743
 11
85.5279786341
 21
48.4085752004
  0
LINE
  5
438
100
AcDbEntity
  8
0
100
AcDbLine
 62
7
  6
CONTINUOUS
 10
85.5292644009
 20
49.3903345591
 11
85.5292644009
 21
48.2275294185
  0
LINE
  5
439
100
AcDbEntity
  8
3_ALL_AXES
100
AcDbLine
 62
7
  6
CONTINUOUS
 10
85.7004867418
 20
56.019258142
 11
85.7004867418
 21
56.0776122734
  0
LINE
  5
43A
100
AcDbEntity
  8
7_ALL_ROUNDS
100
AcDbLine
 62
7
  6
CONTINUOUS
 10
79.0996876981
 20
53.3661126544
 11
79.1521378206
 21
53.3358226319
  0
LINE
  5
43B
100
AcDbEntity
  8
7_ALL_ROUNDS
100
AcDbLine
 62
7
  6
CONTINUOUS
 10
89.6197305614
 20
47.2907725186
 11
89.8253457877
 21
47.1720294248
  0
LINE
  5
43C
100
AcDbEntity
  8
3_AXES_OTHER
100
AcDbLine
 62
7
  6
CONTINUOUS
 10
89.6943467089
 20
47.4217031642
 11
89.6206897525
 21
47.4642401643
  0
LINE
  5
43D
100
AcDbEntity
  8
3_AXES_OTHER
100
AcDbLine
 62
7
  6
CONTINUOUS
 10
79.3028054737
 20
53.4228334219
 11
79.2306867768
 21
53.4644820748
  0
LINE
  5
43E
100
AcDbEntity
  8
3_AXES_OTHER
100
AcDbLine
 62
7
  6
CONTINUOUS
 10
79.2306867768
 20
53.6319363168
 11
79.3043437332
 21
53.5893993168
  0
LINE
  5
43F
100
AcDbEntity
  8
3_AXES_OTHER
100
AcDbLine
 62
7
  6
CONTINUOUS
 10
89.6206897525
 20
47.6316944062
 11
89.6943467089
 21
47.5891574062
  0
LINE
  5
440
100
AcDbEntity
  8
3_AXES_OTHER
100
AcDbLine
 62
7
  6
CONTINUOUS
 10
79.0996876981
 20
53.7723218256
 11
79.5038331823
 21
53.5389272175
  0
LINE
  5
441
100
AcDbEntity
  8
3_AXES_OTHER
100
AcDbLine
 62
7
  6
CONTINUOUS
 10
89.4212003035
 20
47.811633204
 11
89.8253457877
 21
47.578238596
  0
LINE
  5
442
100
AcDbEntity
  8
3_AXES_OTHER
100
AcDbLine
 62
7
  6
CONTINUOUS
 10
79.2419740027
 20
53.85932023
 11
79.7390023109
 21
53.5722856553
  0
LINE
  5
443
100
AcDbEntity
  8
3_AXES_OTHER
100
AcDbLine
 62
7
  6
CONTINUOUS
 10
89.4789636858
 20
47.9474437197
 11
89.975991994
 21
47.660409145
  0
LINE
  5
444
100
AcDbEntity
  8
3_ALL_AXES
100
AcDbLine
 62
7
  6
CONTINUOUS
 10
85.7272548664
 20
56.0037995109
 11
85.7272548664
 21
56.0930709045
  0
LINE
  5
445
100
AcDbEntity
  8
3_AXES_OTHER
100
AcDbLine
 62
7
  6
CONTINUOUS
 10
86.8607287833
 20
47.3271725417
 11
86.8607287833
 21
48.8683593683
  0
LINE
  5
446
100
AcDbEntity
  8
3_AXES_OTHER
100
AcDbLine
 62
7
  6
CONTINUOUS
 10
87.0856814263
 20
48.749626022
 11
87.0856814263
 21
47.457083022
  0
LINE
  5
447
100
AcDbEntity
  8
0
100
AcDbLine
 62
7
  6
CONTINUOUS
 10
84.0971087643
 20
49.2260135358
 11
84.1156464607
 21
49.2367190826
  0
LINE
  5
448
100
AcDbEntity
  8
3_ALL_AXES
100
AcDbLine
 62
7
  6
CONTINUOUS
 10
88.9299672616
 20
47.6487211505
 11
88.9299672616
 21
45.389325089
  0
LINE
  5
449
100
AcDbEntity
  8
7_ALL_ROUNDS
100
AcDbLine
 62
7
  6
CONTINUOUS
 10
89.0345347427
 20
47.5883332773
 11
89.0345347427
 21
47.4113370795
  0
LINE
  5
44A
100
AcDbEntity
  8
7_ALL_ROUNDS
100
AcDbLine
 62
7
  6
CONTINUOUS
 10
89.0345347427
 20
45.3289372157
 11
89.0345347427
 21
45.5059334135
  0
LINE
  5
44B
100
AcDbEntity
  8
3_ALL_AXES
100
AcDbLine
 62
7
  6
CONTINUOUS
 10
85.5253785929
 20
56.6509194941
 11
85.5236941802
 21
56.6536833227
  0
LINE
  5
44C
100
AcDbEntity
  8
3_ALL_AXES
100
AcDbLine
 62
7
  6
CONTINUOUS
 10
85.5504729465
 20
56.6691480962
 11
85.5521467176
 21
56.6663781252
  0
LINE
  5
44D
100
AcDbEntity
  8
7_ALL_ROUNDS
100
AcDbLine
 62
7
  6
CONTINUOUS
 10
89.4212003035
 20
47.811633204
 11
89.4212003035
 21
47.6346370063
  0
LINE
  5
44E
100
AcDbEntity
  8
3_AXES_OTHER
100
AcDbLine
 62
7
  6
CONTINUOUS
 10
89.4251775679
 20
46.9565273033
 11
89.4251775679
 21
45.5095495842
  0
LINE
  5
44F
100
AcDbEntity
  8
3_ALL_AXES
100
AcDbLine
 62
9
  6
CONTINUOUS
 10
94.7556302607
 20
49.0636843436
 11
94.728862136
 21
49.0791429747
  0
LINE
  5
450
100
AcDbEntity
  8
3_ALL_AXES
100
AcDbLine
 62
9
  6
CONTINUOUS
 10
94.8122894579
 20
49.0964051128
 11
94.7855213332
 21
49.1118637439
  0
LINE
  5
451
100
AcDbEntity
  8
3_AXES_OTHER
100
AcDbLine
 62
9
  6
CONTINUOUS
 10
95.033260327
 20
49.2240161128
 11
95.0064922023
 21
49.239474744
  0
LINE
  5
452
100
AcDbEntity
  8
3_AXES_OTHER
100
AcDbLine
 62
7
  6
CONTINUOUS
 10
89.8253457877
 20
45.3188425344
 11
89.8253457877
 21
45.7250517056
  0
LINE
  5
453
100
AcDbEntity
  8
3_AXES_OTHER
100
AcDbLine
 62
7
  6
CONTINUOUS
 10
89.8253457877
 20
47.1720294248
 11
89.8253457877
 21
47.578238596
  0
LINE
  5
454
100
AcDbEntity
  8
3_AXES_OTHER
100
AcDbLine
 62
7
  6
CONTINUOUS
 10
89.975991994
 20
45.4010130834
 11
89.975991994
 21
47.660409145
  0
LINE
  5
455
100
AcDbEntity
  8
3_AXES_OTHER
100
AcDbLine
 62
7
  6
CONTINUOUS
 10
86.8607287833
 20
47.3271725417
 11
87.0856814263
 21
47.457083022
  0
LINE
  5
456
100
AcDbEntity
  8
7_ALL_ROUNDS
100
AcDbLine
 62
9
  6
CONTINUOUS
 10
95.033260327
 20
49.9010700296
 11
95.0064922023
 21
49.9165286607
  0
LINE
  5
457
100
AcDbEntity
  8
7_ALL_ROUNDS
100
AcDbLine
 62
7
  6
CONTINUOUS
 10
95.1181152822
 20
50.0350963615
 11
95.102389009
 21
50.0441783073
  0
LINE
  5
458
100
AcDbEntity
  8
7_ALL_ROUNDS
100
AcDbLine
 62
7
  6
CONTINUOUS
 10
95.1448834069
 20
50.0505549926
 11
95.1291571336
 21
50.0596369384
  0
LINE
  5
459
100
AcDbEntity
  8
3_ALL_AXES
100
AcDbLine
 62
7
  6
CONTINUOUS
 10
89.2168682535
 20
47.9356972743
 11
88.9299672616
 21
47.6487211505
  0
LINE
  5
45A
100
AcDbEntity
  8
3_AXES_OTHER
100
AcDbLine
 62
7
  6
CONTINUOUS
 10
94.5515233101
 20
50.907771582
 11
94.8858111502
 21
51.1008232984
  0
LINE
  5
45B
100
AcDbEntity
  8
3_AXES_OTHER
100
AcDbLine
 62
7
  6
CONTINUOUS
 10
94.9125792748
 20
51.0853646673
 11
89.4789636858
 21
47.9474437197
  0
LINE
  5
45C
100
AcDbEntity
  8
3_ALL_AXES
100
AcDbLine
 62
7
  6
CONTINUOUS
 10
95.1465199601
 20
51.1274169173
 11
95.1420531225
 21
51.1248373121
  0
LINE
  5
45D
100
AcDbEntity
  8
3_AXES_OTHER
100
AcDbLine
 62
7
  6
CONTINUOUS
 10
89.0345347427
 20
47.5883332773
 11
89.4212003035
 21
47.811633204
  0
LINE
  5
45E
100
AcDbEntity
  8
3_ALL_AXES
100
AcDbLine
 62
7
  6
CONTINUOUS
 10
95.1448834069
 20
51.1265586608
 11
95.1465199573
 21
51.1274169163
  0
LINE
  5
45F
100
AcDbEntity
  8
3_ALL_AXES
100
AcDbLine
 62
9
  6
CONTINUOUS
 10
94.7556302607
 20
50.5355406843
 11
94.728862136
 21
50.5509993155
  0
LINE
  5
460
100
AcDbEntity
  8
3_ALL_AXES
100
AcDbLine
 62
9
  6
CONTINUOUS
 10
94.8122894579
 20
50.5682614536
 11
94.7855213332
 21
50.5837200847
  0
LINE
  5
461
100
AcDbEntity
  8
3_AXES_OTHER
100
AcDbLine
 62
7
  6
CONTINUOUS
 10
94.5515233101
 20
50.907771582
 11
84.8650981845
 21
56.5016962553
  0
LINE
  5
462
100
AcDbEntity
  8
3_AXES_OTHER
100
AcDbLine
 62
9
  6
CONTINUOUS
 10
95.033260327
 20
50.6958724536
 11
95.0064922023
 21
50.7113310847
  0
LINE
  5
463
100
AcDbEntity
  8
3_AXES_OTHER
100
AcDbLine
 62
9
  6
CONTINUOUS
 10
85.2932989521
 20
56.3207143892
 11
85.3200670767
 21
56.3052557581
  0
LINE
  5
464
100
AcDbEntity
  8
3_AXES_OTHER
100
AcDbLine
 62
7
  6
CONTINUOUS
 10
85.1726178999
 20
56.7102066029
 11
85.1993860245
 21
56.6947479718
  0
LINE
  5
465
100
AcDbEntity
  8
3_AXES_OTHER
100
AcDbLine
 62
7
  6
CONTINUOUS
 10
94.8858111502
 20
51.1008232984
 11
94.9125792748
 21
51.0853646673
  0
LINE
  5
466
100
AcDbEntity
  8
7_ALL_ROUNDS
100
AcDbLine
 62
9
  6
CONTINUOUS
 10
89.0345347427
 20
47.4113370795
 11
89.4212003035
 21
47.6346370063
  0
LINE
  5
467
100
AcDbEntity
  8
3_AXES_OTHER
100
AcDbLine
 62
7
  6
CONTINUOUS
 10
95.1448834069
 20
50.8911666201
 11
95.033260327
 21
50.8267041283
  0
LINE
  5
468
100
AcDbEntity
  8
3_ALL_AXES
100
AcDbLine
 62
7
  6
CONTINUOUS
 10
94.8122894579
 20
50.6990931283
 11
94.7556302607
 21
50.6663723591
  0
LINE
  5
469
100
AcDbEntity
  8
3_ALL_AXES
100
AcDbLine
 62
9
  6
CONTINUOUS
 10
95.1181152822
 20
50.8298987855
 11
95.1448834069
 21
50.8453574166
  0
LINE
  5
46A
100
AcDbEntity
  8
3_AXES_OTHER
100
AcDbLine
 62
7
  6
CONTINUOUS
 10
95.1181152822
 20
50.7757935765
 11
95.0064922023
 21
50.7113310847
  0
LINE
  5
46B
100
AcDbEntity
  8
3_ALL_AXES
100
AcDbLine
 62
7
  6
CONTINUOUS
 10
94.728862136
 20
50.5509993155
 11
94.7855213332
 21
50.5837200847
  0
LINE
  5
46C
100
AcDbEntity
  8
3_AXES_OTHER
100
AcDbLine
 62
7
  6
CONTINUOUS
 10
95.1448834069
 20
50.7603349454
 11
95.033260327
 21
50.6958724536
  0
LINE
  5
46D
100
AcDbEntity
  8
3_ALL_AXES
100
AcDbLine
 62
7
  6
CONTINUOUS
 10
94.7556302607
 20
50.5355406843
 11
94.8122894579
 21
50.5682614536
  0
LINE
  5
46E
100
AcDbEntity
  8
3_AXES_OTHER
100
AcDbLine
 62
9
  6
CONTINUOUS
 10
89.7444982144
 20
47.535739732
 11
89.6206897525
 21
47.4642401643
  0
LINE
  5
46F
100
AcDbEntity
  8
3_AXES_OTHER
100
AcDbLine
 62
7
  6
CONTINUOUS
 10
89.9492238693
 20
47.6449505138
 11
89.975991994
 21
47.660409145
  0
LINE
  5
470
100
AcDbEntity
  8
3_AXES_OTHER
100
AcDbLine
 62
9
  6
CONTINUOUS
 10
89.7657642887
 20
47.462946921
 11
89.6943467089
 21
47.4217031642
  0
LINE
  5
471
100
AcDbEntity
  8
7_ALL_ROUNDS
100
AcDbLine
 62
9
  6
CONTINUOUS
 10
89.2330650006
 20
47.0674725918
 11
89.6197305614
 21
47.2907725186
  0
LINE
  5
472
100
AcDbEntity
  8
3_AXES_OTHER
100
AcDbLine
 62
7
  6
CONTINUOUS
 10
89.8253457877
 20
47.578238596
 11
89.9492238693
 21
47.6449505138
  0
LINE
  5
473
100
AcDbEntity
  8
3_AXES_OTHER
100
AcDbLine
 62
7
  6
CONTINUOUS
 10
85.4049220319
 20
56.7475910745
 11
85.4316901566
 21
56.7321324434
  0
LINE
  5
474
100
AcDbEntity
  8
3_AXES_OTHER
100
AcDbLine
 62
7
  6
CONTINUOUS
 10
95.1181152822
 20
51.13820777
 11
95.1448834069
 21
51.1227491389
  0
LINE
  5
475
100
AcDbEntity
  8
7_ALL_ROUNDS
100
AcDbLine
 62
7
  6
CONTINUOUS
 10
95.1448834069
 20
50.2141127034
 11
95.033260327
 21
50.1496502116
  0
LINE
  5
476
100
AcDbEntity
  8
7_ALL_ROUNDS
100
AcDbLine
 62
9
  6
CONTINUOUS
 10
95.1291571336
 20
50.0596369384
 11
95.102389009
 21
50.0441783073
  0
LINE
  5
477
100
AcDbEntity
  8
7_ALL_ROUNDS
100
AcDbLine
 62
7
  6
CONTINUOUS
 10
95.1181152822
 20
49.9809911525
 11
95.0064922023
 21
49.9165286607
  0
LINE
  5
478
100
AcDbEntity
  8
7_ALL_ROUNDS
100
AcDbLine
 62
7
  6
CONTINUOUS
 10
95.1448834069
 20
49.9655325214
 11
95.033260327
 21
49.9010700296
  0
LINE
  5
479
100
AcDbEntity
  8
3_AXES_OTHER
100
AcDbLine
 62
7
  6
CONTINUOUS
 10
89.4251775679
 20
46.9565273033
 11
89.8253457877
 21
47.1720294248
  0
LINE
  5
47A
100
AcDbEntity
  8
3_AXES_OTHER
100
AcDbLine
 62
7
  6
CONTINUOUS
 10
95.1448834069
 20
49.4193102794
 11
95.033260327
 21
49.3548477876
  0
LINE
  5
47B
100
AcDbEntity
  8
3_ALL_AXES
100
AcDbLine
 62
7
  6
CONTINUOUS
 10
94.8122894579
 20
49.2272367875
 11
94.7556302607
 21
49.1945160183
  0
LINE
  5
47C
100
AcDbEntity
  8
3_ALL_AXES
100
AcDbLine
 62
9
  6
CONTINUOUS
 10
95.1181152822
 20
49.3580424448
 11
95.1448834069
 21
49.3735010759
  0
LINE
  5
47D
100
AcDbEntity
  8
3_AXES_OTHER
100
AcDbLine
 62
7
  6
CONTINUOUS
 10
95.1181152822
 20
49.3039372358
 11
95.0064922023
 21
49.239474744
  0
LINE
  5
47E
100
AcDbEntity
  8
3_ALL_AXES
100
AcDbLine
 62
7
  6
CONTINUOUS
 10
94.728862136
 20
49.0791429747
 11
94.7855213332
 21
49.1118637439
  0
LINE
  5
47F
100
AcDbEntity
  8
3_AXES_OTHER
100
AcDbLine
 62
7
  6
CONTINUOUS
 10
95.1448834069
 20
49.2884786047
 11
95.033260327
 21
49.2240161128
  0
LINE
  5
480
100
AcDbEntity
  8
3_ALL_AXES
100
AcDbLine
 62
7
  6
CONTINUOUS
 10
94.7556302607
 20
49.0636843436
 11
94.8122894579
 21
49.0964051128
  0
LINE
  5
481
100
AcDbEntity
  8
7_ALL_ROUNDS
100
AcDbLine
 62
9
  6
CONTINUOUS
 10
89.0345347427
 20
45.5059334135
 11
89.2330260005
 21
45.6205624051
  0
LINE
  5
482
100
AcDbEntity
  8
3_AXES_OTHER
100
AcDbLine
 62
7
  6
CONTINUOUS
 10
89.975991994
 20
45.9750822328
 11
94.9125792748
 21
48.8259686057
  0
LINE
  5
483
100
AcDbEntity
  8
3_AXES_OTHER
100
AcDbLine
 62
7
  6
CONTINUOUS
 10
89.0345347427
 20
45.3289372157
 11
89.3862301043
 21
45.5320418013
  0
LINE
  5
484
100
AcDbEntity
  8
3_AXES_OTHER
100
AcDbLine
 62
7
  6
CONTINUOUS
 10
89.4251775679
 20
45.5095495842
 11
89.8253457877
 21
45.7250517056
  0
LINE
  5
485
100
AcDbEntity
  8
3_AXES_OTHER
100
AcDbLine
 62
9
  6
CONTINUOUS
 10
89.7444982144
 20
45.573264611
 11
89.6206897525
 21
45.5017650433
  0
LINE
  5
486
100
AcDbEntity
  8
3_AXES_OTHER
100
AcDbLine
 62
9
  6
CONTINUOUS
 10
89.7657642887
 20
45.5004718
 11
89.6943467089
 21
45.4592280432
  0
LINE
  5
487
100
AcDbEntity
  8
3_AXES_OTHER
100
AcDbLine
 62
7
  6
CONTINUOUS
 10
89.9492238693
 20
45.3855544523
 11
89.975991994
 21
45.4010130834
  0
LINE
  5
488
100
AcDbEntity
  8
3_AXES_OTHER
100
AcDbLine
 62
7
  6
CONTINUOUS
 10
89.8253457877
 20
45.3188425344
 11
89.9492238693
 21
45.3855544523
  0
LINE
  5
489
100
AcDbEntity
  8
7_ALL_ROUNDS
100
AcDbLine
 62
7
  6
CONTINUOUS
 10
94.9624363305
 20
50.0269794533
 11
94.9624363305
 21
49.9419388647
  0
LINE
  5
48A
100
AcDbEntity
  8
3_ALL_AXES
100
AcDbLine
 62
9
  6
CONTINUOUS
 10
95.1181152822
 20
49.3039372358
 11
95.1181152822
 21
49.3580424448
  0
LINE
  5
48B
100
AcDbEntity
  8
3_ALL_AXES
100
AcDbLine
 62
9
  6
CONTINUOUS
 10
95.1181152822
 20
49.9809911525
 11
95.1181152822
 21
50.0350963615
  0
LINE
  5
48C
100
AcDbEntity
  8
3_ALL_AXES
100
AcDbLine
 62
9
  6
CONTINUOUS
 10
95.1181152822
 20
50.7757935765
 11
95.1181152822
 21
50.8298987855
  0
LINE
  5
48D
100
AcDbEntity
  8
3_AXES_OTHER
100
AcDbLine
 62
7
  6
CONTINUOUS
 10
95.1448834069
 20
49.0568960859
 11
95.1448834069
 21
49.0597088256
  0
LINE
  5
48E
100
AcDbEntity
  8
3_ALL_AXES
100
AcDbLine
 62
9
  6
CONTINUOUS
 10
95.1448834069
 20
49.0597088256
 11
95.1448834069
 21
49.2884786047
  0
LINE
  5
48F
100
AcDbEntity
  8
3_AXES_OTHER
100
AcDbLine
 62
9
  6
CONTINUOUS
 10
95.1448834069
 20
49.4193102794
 11
95.1448834069
 21
49.9655325214
  0
LINE
  5
490
100
AcDbEntity
  8
3_AXES_OTHER
100
AcDbLine
 62
9
  6
CONTINUOUS
 10
95.1448834069
 20
50.2141127034
 11
95.1448834069
 21
50.7603349454
  0
LINE
  5
491
100
AcDbEntity
  8
3_AXES_OTHER
100
AcDbLine
 62
7
  6
CONTINUOUS
 10
95.1448834069
 20
51.1199363992
 11
95.1448834069
 21
51.1227491389
  0
LINE
  5
492
100
AcDbEntity
  8
3_ALL_AXES
100
AcDbLine
 62
9
  6
CONTINUOUS
 10
95.1448834069
 20
50.8911666201
 11
95.1448834069
 21
51.1199363992
  0
LINE
  5
493
100
AcDbEntity
  8
3_ALL_AXES
100
AcDbLine
 62
7
  6
CONTINUOUS
 10
95.1753746376
 20
49.1374254922
 11
95.1753746376
 21
49.3309898403
  0
LINE
  5
494
100
AcDbEntity
  8
3_ALL_AXES
100
AcDbLine
 62
7
  6
CONTINUOUS
 10
95.1753746376
 20
49.461821515
 11
95.1753746376
 21
50.008043757
  0
LINE
  5
495
100
AcDbEntity
  8
3_ALL_AXES
100
AcDbLine
 62
7
  6
CONTINUOUS
 10
95.1753746376
 20
50.256623939
 11
95.1753746376
 21
50.802846181
  0
LINE
  5
496
100
AcDbEntity
  8
3_ALL_AXES
100
AcDbLine
 62
7
  6
CONTINUOUS
 10
95.1753746376
 20
50.9336778558
 11
95.1753746376
 21
51.1272440834
  0
LINE
  5
497
100
AcDbEntity
  8
3_AXES_OTHER
100
AcDbLine
 62
7
  6
CONTINUOUS
 10
15.2170698473
 20
27.9076306742
 11
15.2170698473
 21
31.3615283119
  0
LINE
  5
498
100
AcDbEntity
  8
3_AXES_OTHER
100
AcDbLine
 62
7
  6
CONTINUOUS
 10
15.2244472036
 20
27.9076306742
 11
15.2244472036
 21
28.5285952411
  0
LINE
  5
499
100
AcDbEntity
  8
3_AXES_OTHER
100
AcDbLine
 62
7
  6
CONTINUOUS
 10
15.2244472036
 20
30.740563745
 11
15.2244472036
 21
31.3615283119
  0
LINE
  5
49A
100
AcDbEntity
  8
3_AXES_OTHER
100
AcDbLine
 62
7
  6
CONTINUOUS
 10
15.2482785665
 20
30.740563745
 11
15.2482785665
 21
28.5285952411
  0
LINE
  5
49B
100
AcDbEntity
  8
3_ALL_AXES
100
AcDbLine
 62
7
  6
CENTER
 10
15.4556525245
 20
31.1345794931
 11
15.4556525245
 21
30.8721288682
  0
LINE
  5
49C
100
AcDbEntity
  8
3_ALL_AXES
100
AcDbLine
 62
7
  6
CENTER
 10
15.4556525245
 20
28.1345794931
 11
15.4556525245
 21
27.8823853749
  0
LINE
  5
49D
100
AcDbEntity
  8
3_ALL_AXES
100
AcDbLine
 62
7
  6
CENTER
 10
15.4556525245
 20
28.1345794931
 11
15.4556525245
 21
28.3737986646
  0
LINE
  5
49E
100
AcDbEntity
  8
3_ALL_AXES
100
AcDbLine
 62
7
  6
CENTER
 10
15.4556525245
 20
31.1345794931
 11
15.4556525245
 21
31.3901873761
  0
LINE
  5
49F
100
AcDbEntity
  8
3_ALL_AXES
100
AcDbLine
 62
7
  6
CENTER
 10
15.5856525245
 20
31.1345794931
 11
15.5856525245
 21
30.8570570868
  0
LINE
  5
4A0
100
AcDbEntity
  8
3_ALL_AXES
100
AcDbLine
 62
7
  6
CENTER
 10
15.5856525245
 20
28.1345794931
 11
15.5856525245
 21
27.8808389316
  0
LINE
  5
4A1
100
AcDbEntity
  8
3_ALL_AXES
100
AcDbLine
 62
7
  6
CENTER
 10
15.5856525245
 20
28.1345794931
 11
15.5856525245
 21
28.3722522213
  0
LINE
  5
4A2
100
AcDbEntity
  8
3_ALL_AXES
100
AcDbLine
 62
7
  6
CENTER
 10
15.5856525245
 20
31.1345794931
 11
15.5856525245
 21
31.3828478112
  0
LINE
  5
4A3
100
AcDbEntity
  8
7_ALL_ROUNDS
100
AcDbLine
 62
7
  6
CONTINUOUS
 10
15.9377391387
 20
31.3615283119
 11
15.9377391387
 21
31.0909574458
  0
LINE
  5
4A4
100
AcDbEntity
  8
7_ALL_ROUNDS
100
AcDbLine
 62
7
  6
CONTINUOUS
 10
15.9377391387
 20
27.9076306742
 11
15.9377391387
 21
28.1782015403
  0
LINE
  5
4A5
100
AcDbEntity
  8
3_ALL_AXES
100
AcDbLine
 62
7
  6
CONTINUOUS
 10
16.1222943146
 20
31.3615283119
 11
16.1222943146
 21
27.9076306742
  0
LINE
  5
4A6
100
AcDbEntity
  8
3_ALL_AXES
100
AcDbLine
 62
7
  6
CONTINUOUS
 10
16.3076358947
 20
31.3615283119
 11
16.3076358947
 21
27.9076306742
  0
LINE
  5
4A7
100
AcDbEntity
  8
3_AXES_OTHER
100
AcDbLine
 62
7
  6
CONTINUOUS
 10
16.4815974064
 20
28.5798353986
 11
16.4815974064
 21
30.9358196505
  0
LINE
  5
4A8
100
AcDbEntity
  8
3_AXES_OTHER
100
AcDbLine
 62
7
  6
CONTINUOUS
 10
20.2375816584
 20
28.5798353986
 11
20.2375816584
 21
30.9358196505
  0
LINE
  5
4A9
100
AcDbEntity
  8
3_AXES_OTHER
100
AcDbLine
 62
7
  6
CONTINUOUS
 10
15.2170698473
 20
27.9076306742
 11
16.1222943146
 21
27.9076306742
  0
LINE
  5
4AA
100
AcDbEntity
  8
3_ALL_AXES
100
AcDbLine
 62
7
  6
CONTINUOUS
 10
16.1222943146
 20
27.9076306742
 11
33.2567272699
 21
27.9076306742
  0
LINE
  5
4AB
100
AcDbEntity
  8
3_AXES_OTHER
100
AcDbLine
 62
7
  6
CONTINUOUS
 10
33.2567272699
 20
27.9076306742
 11
34.1619517371
 21
27.9076306742
  0
LINE
  5
4AC
100
AcDbEntity
  8
3_AXES_OTHER
100
AcDbLine
 62
7
  6
CONTINUOUS
 10
33.9233690599
 20
28.0065873671
 11
33.7933690599
 21
28.0065873671
  0
LINE
  5
4AD
100
AcDbEntity
  8
3_AXES_OTHER
100
AcDbLine
 62
7
  6
CONTINUOUS
 10
15.5856525245
 20
28.0065873671
 11
15.4556525245
 21
28.0065873671
  0
LINE
  5
4AE
100
AcDbEntity
  8
3_ALL_AXES
100
AcDbLine
 62
7
  6
CENTER
 10
33.9233690599
 20
28.1345794931
 11
33.8605852698
 21
28.1345794931
  0
LINE
  5
4AF
100
AcDbEntity
  8
3_ALL_AXES
100
AcDbLine
 62
7
  6
CENTER
 10
33.7933690599
 20
28.1345794931
 11
33.5717291755
 21
28.1345794931
  0
LINE
  5
4B0
100
AcDbEntity
  8
3_ALL_AXES
100
AcDbLine
 62
7
  6
CENTER
 10
15.5856525245
 20
28.1345794931
 11
15.4686520466
 21
28.1345794931
  0
LINE
  5
4B1
100
AcDbEntity
  8
3_ALL_AXES
100
AcDbLine
 62
7
  6
CENTER
 10
15.4556525245
 20
28.1345794931
 11
15.225742716
 21
28.1345794931
  0
LINE
  5
4B2
100
AcDbEntity
  8
3_ALL_AXES
100
AcDbLine
 62
7
  6
CENTER
 10
15.4556525245
 20
28.1345794931
 11
15.4686520466
 21
28.1345794931
  0
LINE
  5
4B3
100
AcDbEntity
  8
3_ALL_AXES
100
AcDbLine
 62
7
  6
CENTER
 10
15.5856525245
 20
28.1345794931
 11
15.8362495378
 21
28.1345794931
  0
LINE
  5
4B4
100
AcDbEntity
  8
3_ALL_AXES
100
AcDbLine
 62
7
  6
CENTER
 10
33.7933690599
 20
28.1345794931
 11
33.8605852698
 21
28.1345794931
  0
LINE
  5
4B5
100
AcDbEntity
  8
3_ALL_AXES
100
AcDbLine
 62
7
  6
CENTER
 10
33.9233690599
 20
28.1345794931
 11
34.1642102675
 21
28.1345794931
  0
LINE
  5
4B6
100
AcDbEntity
  8
3_AXES_OTHER
100
AcDbLine
 62
7
  6
CONTINUOUS
 10
15.4556525245
 20
28.262571619
 11
15.5856525245
 21
28.262571619
  0
LINE
  5
4B7
100
AcDbEntity
  8
3_AXES_OTHER
100
AcDbLine
 62
7
  6
CONTINUOUS
 10
33.7933690599
 20
28.262571619
 11
33.9233690599
 21
28.262571619
  0
LINE
  5
4B8
100
AcDbEntity
  8
0
100
AcDbLine
 62
7
  6
CONTINUOUS
 10
24.0646955492
 20
28.8438117765
 11
24.0646955492
 21
30.6213708316
  0
LINE
  5
4B9
100
AcDbEntity
  8
7_ALL_ROUNDS
100
AcDbLine
 62
7
  6
CONTINUOUS
 10
34.1307430179
 20
28.5285952411
 11
33.7916761466
 21
28.5285952411
  0
LINE
  5
4BA
100
AcDbEntity
  8
3_AXES_OTHER
100
AcDbLine
 62
7
  6
CONTINUOUS
 10
15.2482785665
 20
28.5285952411
 11
15.2244472036
 21
28.5285952411
  0
LINE
  5
4BB
100
AcDbEntity
  8
7_ALL_ROUNDS
100
AcDbLine
 62
7
  6
CONTINUOUS
 10
15.2482785665
 20
28.5285952411
 11
15.5873454379
 21
28.5285952411
  0
LINE
  5
4BC
100
AcDbEntity
  8
3_AXES_OTHER
100
AcDbLine
 62
7
  6
CONTINUOUS
 10
34.1307430179
 20
28.5285952411
 11
34.1545743808
 21
28.5285952411
  0
LINE
  5
4BD
100
AcDbEntity
  8
3_AXES_OTHER
100
AcDbLine
 62
7
  6
CONTINUOUS
 10
16.4815974064
 20
28.5798353986
 11
20.2375816584
 21
28.5798353986
  0
LINE
  5
4BE
100
AcDbEntity
  8
3_AXES_OTHER
100
AcDbLine
 62
7
  6
CONTINUOUS
 10
29.1414399261
 20
28.5798353986
 11
32.8974241781
 21
28.5798353986
  0
LINE
  5
4BF
100
AcDbEntity
  8
0
100
AcDbLine
 62
7
  6
CONTINUOUS
 10
26.8545176114
 20
28.8438117765
 11
24.0646955492
 21
28.8438117765
  0
LINE
  5
4C0
100
AcDbEntity
  8
0
100
AcDbLine
 62
7
  6
CONTINUOUS
 10
26.7144714221
 20
28.9816070521
 11
24.2026603985
 21
28.9816070521
  0
LINE
  5
4C1
100
AcDbEntity
  8
0
100
AcDbLine
 62
7
  6
CONTINUOUS
 10
24.2026603985
 20
28.9816070521
 11
24.2026603985
 21
30.483575556
  0
LINE
  5
4C2
100
AcDbEntity
  8
3_ALL_AXES
100
AcDbLine
 62
7
  6
CENTER
 10
24.6895107922
 20
29.6345794931
 11
24.6895107922
 21
27.2711340156
  0
LINE
  5
4C3
100
AcDbEntity
  8
3_ALL_AXES
100
AcDbLine
 62
7
  6
CENTER
 10
24.6895107922
 20
29.6345794931
 11
24.6895107922
 21
31.9964392652
  0
LINE
  5
4C4
100
AcDbEntity
  8
3_ALL_AXES
100
AcDbLine
 62
7
  6
CENTER
 10
24.6895107922
 20
29.6345794931
 11
14.6754722169
 21
29.6345794931
  0
LINE
  5
4C5
100
AcDbEntity
  8
3_ALL_AXES
100
AcDbLine
 62
7
  6
CENTER
 10
24.6895107922
 20
29.6345794931
 11
34.9196487643
 21
29.6345794931
  0
LINE
  5
4C6
100
AcDbEntity
  8
0
100
AcDbLine
 62
7
  6
CONTINUOUS
 10
24.2026603985
 20
30.483575556
 11
26.7144714221
 21
30.483575556
  0
LINE
  5
4C7
100
AcDbEntity
  8
0
100
AcDbLine
 62
7
  6
CONTINUOUS
 10
24.0646955492
 20
30.6213708316
 11
26.8545176114
 21
30.6213708316
  0
LINE
  5
4C8
100
AcDbEntity
  8
7_ALL_ROUNDS
100
AcDbLine
 62
7
  6
CONTINUOUS
 10
34.1307430179
 20
30.740563745
 11
33.7916761466
 21
30.740563745
  0
LINE
  5
4C9
100
AcDbEntity
  8
3_AXES_OTHER
100
AcDbLine
 62
7
  6
CONTINUOUS
 10
15.2482785665
 20
30.740563745
 11
15.2244472036
 21
30.740563745
  0
LINE
  5
4CA
100
AcDbEntity
  8
7_ALL_ROUNDS
100
AcDbLine
 62
7
  6
CONTINUOUS
 10
15.2482785665
 20
30.740563745
 11
15.5873454379
 21
30.740563745
  0
LINE
  5
4CB
100
AcDbEntity
  8
3_AXES_OTHER
100
AcDbLine
 62
7
  6
CONTINUOUS
 10
34.1307430179
 20
30.740563745
 11
34.1545743808
 21
30.740563745
  0
LINE
  5
4CC
100
AcDbEntity
  8
3_AXES_OTHER
100
AcDbLine
 62
7
  6
CONTINUOUS
 10
16.4815974064
 20
30.9358196505
 11
20.2375816584
 21
30.9358196505
  0
LINE
  5
4CD
100
AcDbEntity
  8
3_AXES_OTHER
100
AcDbLine
 62
7
  6
CONTINUOUS
 10
29.1414399261
 20
30.9358196505
 11
32.8974241781
 21
30.9358196505
  0
LINE
  5
4CE
100
AcDbEntity
  8
3_AXES_OTHER
100
AcDbLine
 62
7
  6
CONTINUOUS
 10
33.9233690599
 20
31.0065873671
 11
33.7933690599
 21
31.0065873671
  0
LINE
  5
4CF
100
AcDbEntity
  8
3_AXES_OTHER
100
AcDbLine
 62
7
  6
CONTINUOUS
 10
15.5856525245
 20
31.0065873671
 11
15.4556525245
 21
31.0065873671
  0
LINE
  5
4D0
100
AcDbEntity
  8
3_ALL_AXES
100
AcDbLine
 62
7
  6
CENTER
 10
33.9233690599
 20
31.1345794931
 11
33.8808012358
 21
31.1345794931
  0
LINE
  5
4D1
100
AcDbEntity
  8
3_ALL_AXES
100
AcDbLine
 62
7
  6
CENTER
 10
33.7933690599
 20
31.1345794931
 11
33.5614512125
 21
31.1345794931
  0
LINE
  5
4D2
100
AcDbEntity
  8
3_ALL_AXES
100
AcDbLine
 62
7
  6
CENTER
 10
15.5856525245
 20
31.1345794931
 11
15.3330253177
 21
31.1345794931
  0
LINE
  5
4D3
100
AcDbEntity
  8
3_ALL_AXES
100
AcDbLine
 62
7
  6
CENTER
 10
15.3330253177
 20
31.1345794931
 11
15.2224451409
 21
31.1345794931
  0
LINE
  5
4D4
100
AcDbEntity
  8
3_ALL_AXES
100
AcDbLine
 62
7
  6
CENTER
 10
15.5856525245
 20
31.1345794931
 11
15.8375524466
 21
31.1345794931
  0
LINE
  5
4D5
100
AcDbEntity
  8
3_ALL_AXES
100
AcDbLine
 62
7
  6
CENTER
 10
33.7933690599
 20
31.1345794931
 11
33.8808012358
 21
31.1345794931
  0
LINE
  5
4D6
100
AcDbEntity
  8
3_ALL_AXES
100
AcDbLine
 62
7
  6
CENTER
 10
33.9233690599
 20
31.1345794931
 11
34.189693806
 21
31.1345794931
  0
LINE
  5
4D7
100
AcDbEntity
  8
3_AXES_OTHER
100
AcDbLine
 62
7
  6
CONTINUOUS
 10
15.4556525245
 20
31.262571619
 11
15.5856525245
 21
31.262571619
  0
LINE
  5
4D8
100
AcDbEntity
  8
3_AXES_OTHER
100
AcDbLine
 62
7
  6
CONTINUOUS
 10
33.7933690599
 20
31.262571619
 11
33.9233690599
 21
31.262571619
  0
LINE
  5
4D9
100
AcDbEntity
  8
3_AXES_OTHER
100
AcDbLine
 62
7
  6
CONTINUOUS
 10
15.2170698473
 20
31.3615283119
 11
16.1222943146
 21
31.3615283119
  0
LINE
  5
4DA
100
AcDbEntity
  8
3_ALL_AXES
100
AcDbLine
 62
7
  6
CONTINUOUS
 10
16.1222943146
 20
31.3615283119
 11
33.2567272699
 21
31.3615283119
  0
LINE
  5
4DB
100
AcDbEntity
  8
3_AXES_OTHER
100
AcDbLine
 62
7
  6
CONTINUOUS
 10
33.2567272699
 20
31.3615283119
 11
34.1619517371
 21
31.3615283119
  0
LINE
  5
4DC
100
AcDbEntity
  8
0
100
AcDbLine
 62
7
  6
CONTINUOUS
 10
26.7144714221
 20
30.483575556
 11
26.7144714221
 21
28.9816070521
  0
LINE
  5
4DD
100
AcDbEntity
  8
0
100
AcDbLine
 62
7
  6
CONTINUOUS
 10
26.8545176114
 20
30.6213708316
 11
26.8545176114
 21
28.8438117765
  0
LINE
  5
4DE
100
AcDbEntity
  8
3_AXES_OTHER
100
AcDbLine
 62
7
  6
CONTINUOUS
 10
29.1414399261
 20
28.5798353986
 11
29.1414399261
 21
30.9358196505
  0
LINE
  5
4DF
100
AcDbEntity
  8
3_AXES_OTHER
100
AcDbLine
 62
7
  6
CONTINUOUS
 10
32.8974241781
 20
28.5798353986
 11
32.8974241781
 21
30.9358196505
  0
LINE
  5
4E0
100
AcDbEntity
  8
3_ALL_AXES
100
AcDbLine
 62
7
  6
CONTINUOUS
 10
33.0713856897
 20
31.3615283119
 11
33.0713856897
 21
27.9076306742
  0
LINE
  5
4E1
100
AcDbEntity
  8
3_ALL_AXES
100
AcDbLine
 62
7
  6
CONTINUOUS
 10
33.2567272699
 20
31.3615283119
 11
33.2567272699
 21
27.9076306742
  0
LINE
  5
4E2
100
AcDbEntity
  8
7_ALL_ROUNDS
100
AcDbLine
 62
7
  6
CONTINUOUS
 10
33.4412824458
 20
31.3615283119
 11
33.4412824458
 21
31.0909574458
  0
LINE
  5
4E3
100
AcDbEntity
  8
7_ALL_ROUNDS
100
AcDbLine
 62
7
  6
CONTINUOUS
 10
33.4412824458
 20
27.9076306742
 11
33.4412824458
 21
28.1782015403
  0
LINE
  5
4E4
100
AcDbEntity
  8
3_ALL_AXES
100
AcDbLine
 62
7
  6
CENTER
 10
33.7933690599
 20
31.1345794931
 11
33.7933690599
 21
30.8751487982
  0
LINE
  5
4E5
100
AcDbEntity
  8
3_ALL_AXES
100
AcDbLine
 62
7
  6
CENTER
 10
33.7933690599
 20
28.1345794931
 11
33.7933690599
 21
27.8869963345
  0
LINE
  5
4E6
100
AcDbEntity
  8
3_ALL_AXES
100
AcDbLine
 62
7
  6
CENTER
 10
33.7933690599
 20
28.1345794931
 11
33.7933690599
 21
28.3494312097
  0
LINE
  5
4E7
100
AcDbEntity
  8
3_ALL_AXES
100
AcDbLine
 62
7
  6
CENTER
 10
33.7933690599
 20
31.1345794931
 11
33.7933690599
 21
31.377742873
  0
LINE
  5
4E8
100
AcDbEntity
  8
3_ALL_AXES
100
AcDbLine
 62
7
  6
CENTER
 10
33.9233690599
 20
31.1345794931
 11
33.9233690599
 21
30.8809479606
  0
LINE
  5
4E9
100
AcDbEntity
  8
3_ALL_AXES
100
AcDbLine
 62
7
  6
CENTER
 10
33.9233690599
 20
28.1345794931
 11
33.9233690599
 21
27.8834926739
  0
LINE
  5
4EA
100
AcDbEntity
  8
3_ALL_AXES
100
AcDbLine
 62
7
  6
CENTER
 10
33.9233690599
 20
28.1345794931
 11
33.9233690599
 21
28.3582507691
  0
LINE
  5
4EB
100
AcDbEntity
  8
3_ALL_AXES
100
AcDbLine
 62
7
  6
CENTER
 10
33.9233690599
 20
31.1345794931
 11
33.9233690599
 21
31.377742873
  0
LINE
  5
4EC
100
AcDbEntity
  8
3_AXES_OTHER
100
AcDbLine
 62
7
  6
CONTINUOUS
 10
34.1307430179
 20
30.740563745
 11
34.1307430179
 21
28.5285952411
  0
LINE
  5
4ED
100
AcDbEntity
  8
3_AXES_OTHER
100
AcDbLine
 62
7
  6
CONTINUOUS
 10
34.1545743808
 20
27.9076306742
 11
34.1545743808
 21
28.5285952411
  0
LINE
  5
4EE
100
AcDbEntity
  8
3_AXES_OTHER
100
AcDbLine
 62
7
  6
CONTINUOUS
 10
34.1545743808
 20
30.740563745
 11
34.1545743808
 21
31.3615283119
  0
LINE
  5
4EF
100
AcDbEntity
  8
3_AXES_OTHER
100
AcDbLine
 62
7
  6
CONTINUOUS
 10
34.1619517371
 20
27.9076306742
 11
34.1619517371
 21
31.3615283119
  0
LINE
  5
4F0
100
AcDbEntity
  8
3_AXES_OTHER
100
AcDbLine
 62
7
  6
CONTINUOUS
 10
46.5082641027
 20
30.740563745
 11
46.5082641027
 21
28.5285952411
  0
LINE
  5
4F1
100
AcDbEntity
  8
7_ALL_ROUNDS
100
AcDbLine
 62
7
  6
CONTINUOUS
 10
46.5082641027
 20
27.9076306742
 11
46.5082641027
 21
28.5285952411
  0
LINE
  5
4F2
100
AcDbEntity
  8
7_ALL_ROUNDS
100
AcDbLine
 62
7
  6
CONTINUOUS
 10
46.5082641027
 20
30.740563745
 11
46.5082641027
 21
31.3615283119
  0
LINE
  5
4F3
100
AcDbEntity
  8
3_AXES_OTHER
100
AcDbLine
 62
7
  6
CONTINUOUS
 10
47.1907050476
 20
27.9076306742
 11
47.1907050476
 21
28.5285952411
  0
LINE
  5
4F4
100
AcDbEntity
  8
3_AXES_OTHER
100
AcDbLine
 62
7
  6
CONTINUOUS
 10
47.1907050476
 20
30.740563745
 11
47.1907050476
 21
31.3615283119
  0
LINE
  5
4F5
100
AcDbEntity
  8
3_AXES_OTHER
100
AcDbLine
 62
7
  6
CONTINUOUS
 10
47.4492089846
 20
27.9076306742
 11
47.4492089846
 21
31.3615283119
  0
LINE
  5
4F6
100
AcDbEntity
  8
3_AXES_OTHER
100
AcDbLine
 62
7
  6
CONTINUOUS
 10
46.5082641027
 20
27.9076306742
 11
57.0392064723
 21
27.9076306742
  0
LINE
  5
4F7
100
AcDbEntity
  8
7_ALL_ROUNDS
100
AcDbLine
 62
9
  6
CONTINUOUS
 10
46.5082641027
 20
28.1782015403
 11
47.1907050476
 21
28.1782015403
  0
LINE
  5
4F8
100
AcDbEntity
  8
3_AXES_OTHER
100
AcDbLine
 62
7
  6
CONTINUOUS
 10
57.4492089846
 20
28.4095794931
 11
57.2522011106
 21
28.4095794931
  0
LINE
  5
4F9
100
AcDbEntity
  8
3_ALL_AXES
100
AcDbLine
 62
7
  6
CONTINUOUS
 10
56.7622011106
 20
28.4095794931
 11
56.8622011106
 21
28.4095794931
  0
LINE
  5
4FA
100
AcDbEntity
  8
3_ALL_AXES
100
AcDbLine
 62
7
  6
CONTINUOUS
 10
57.4492089846
 20
28.4095794931
 11
57.5791302445
 21
28.4095794931
  0
LINE
  5
4FB
100
AcDbEntity
  8
3_AXES_OTHER
100
AcDbLine
 62
7
  6
CONTINUOUS
 10
56.6623146629
 20
28.5090086269
 11
56.6844452051
 21
28.5090086269
  0
LINE
  5
4FC
100
AcDbEntity
  8
3_ALL_AXES
100
AcDbLine
 62
7
  6
CENTER
 10
56.8622011106
 20
28.5095794931
 11
56.1211754696
 21
28.5095794931
  0
LINE
  5
4FD
100
AcDbEntity
  8
3_ALL_AXES
100
AcDbLine
 62
7
  6
CENTER
 10
56.1211754696
 20
28.5095794931
 11
56.0211754696
 21
28.5095794931
  0
LINE
  5
4FE
100
AcDbEntity
  8
3_ALL_AXES
100
AcDbLine
 62
7
  6
CENTER
 10
56.8622011106
 20
28.5095794931
 11
57.5032267516
 21
28.5095794931
  0
LINE
  5
4FF
100
AcDbEntity
  8
3_ALL_AXES
100
AcDbLine
 62
7
  6
CENTER
 10
57.5032267516
 20
28.5095794931
 11
57.6032267516
 21
28.5095794931
  0
LINE
  5
500
100
AcDbEntity
  8
3_AXES_OTHER
100
AcDbLine
 62
7
  6
CONTINUOUS
 10
46.5082641027
 20
28.5285952411
 11
47.1907050476
 21
28.5285952411
  0
LINE
  5
501
100
AcDbEntity
  8
3_AXES_OTHER
100
AcDbLine
 62
7
  6
CONTINUOUS
 10
57.4492089846
 20
28.6095794931
 11
57.2522011106
 21
28.6095794931
  0
LINE
  5
502
100
AcDbEntity
  8
3_ALL_AXES
100
AcDbLine
 62
7
  6
CONTINUOUS
 10
56.8622011106
 20
28.6095794931
 11
56.7622011106
 21
28.6095794931
  0
LINE
  5
503
100
AcDbEntity
  8
3_ALL_AXES
100
AcDbLine
 62
7
  6
CONTINUOUS
 10
57.4492089846
 20
28.6095794931
 11
57.5791302445
 21
28.6095794931
  0
LINE
  5
504
100
AcDbEntity
  8
3_ALL_AXES
100
AcDbLine
 62
7
  6
CENTER
 10
57.2522011106
 20
29.0345794931
 11
56.9973534638
 21
29.0345794931
  0
LINE
  5
505
100
AcDbEntity
  8
3_ALL_AXES
100
AcDbLine
 62
7
  6
CENTER
 10
57.2522011106
 20
29.0345794931
 11
57.4768415009
 21
29.0345794931
  0
LINE
  5
506
100
AcDbEntity
  8
7_ALL_ROUNDS
100
AcDbLine
 62
7
  6
CONTINUOUS
 10
57.4492089846
 20
29.4445794931
 11
57.2522011106
 21
29.4445794931
  0
LINE
  5
507
100
AcDbEntity
  8
3_ALL_AXES
100
AcDbLine
 62
7
  6
CONTINUOUS
 10
57.4492089846
 20
29.4445794931
 11
57.5791302445
 21
29.4445794931
  0
LINE
  5
508
100
AcDbEntity
  8
7_ALL_ROUNDS
100
AcDbLine
 62
9
  6
CONTINUOUS
 10
57.5791302445
 20
29.5695794931
 11
57.53188615
 21
29.5695794931
  0
LINE
  5
509
100
AcDbEntity
  8
3_ALL_AXES
100
AcDbLine
 62
7
  6
CENTER
 10
45.8672384617
 20
29.6345794931
 11
58.2201558855
 21
29.6345794931
  0
LINE
  5
50A
100
AcDbEntity
  8
7_ALL_ROUNDS
100
AcDbLine
 62
9
  6
CONTINUOUS
 10
57.5791302445
 20
29.6995794931
 11
57.53188615
 21
29.6995794931
  0
LINE
  5
50B
100
AcDbEntity
  8
7_ALL_ROUNDS
100
AcDbLine
 62
7
  6
CONTINUOUS
 10
57.4492089846
 20
29.8245794931
 11
57.2522011106
 21
29.8245794931
  0
LINE
  5
50C
100
AcDbEntity
  8
3_ALL_AXES
100
AcDbLine
 62
7
  6
CONTINUOUS
 10
57.4492089846
 20
29.8245794931
 11
57.5791302445
 21
29.8245794931
  0
LINE
  5
50D
100
AcDbEntity
  8
3_ALL_AXES
100
AcDbLine
 62
7
  6
CENTER
 10
57.2522011106
 20
30.2345794931
 11
56.9986014423
 21
30.2345794931
  0
LINE
  5
50E
100
AcDbEntity
  8
3_ALL_AXES
100
AcDbLine
 62
7
  6
CENTER
 10
57.2522011106
 20
30.2345794931
 11
57.4649507521
 21
30.2345794931
  0
LINE
  5
50F
100
AcDbEntity
  8
3_AXES_OTHER
100
AcDbLine
 62
7
  6
CONTINUOUS
 10
57.4492089846
 20
30.6595794931
 11
57.2522011106
 21
30.6595794931
  0
LINE
  5
510
100
AcDbEntity
  8
3_ALL_AXES
100
AcDbLine
 62
7
  6
CONTINUOUS
 10
56.7622011106
 20
30.6595794931
 11
56.8622011106
 21
30.6595794931
  0
LINE
  5
511
100
AcDbEntity
  8
3_ALL_AXES
100
AcDbLine
 62
7
  6
CONTINUOUS
 10
57.4492089846
 20
30.6595794931
 11
57.5791302445
 21
30.6595794931
  0
LINE
  5
512
100
AcDbEntity
  8
3_AXES_OTHER
100
AcDbLine
 62
7
  6
CONTINUOUS
 10
46.5082641027
 20
30.740563745
 11
47.1907050476
 21
30.740563745
  0
LINE
  5
513
100
AcDbEntity
  8
3_ALL_AXES
100
AcDbLine
 62
7
  6
CENTER
 10
56.8622011106
 20
30.7595794931
 11
56.1211754696
 21
30.7595794931
  0
LINE
  5
514
100
AcDbEntity
  8
3_ALL_AXES
100
AcDbLine
 62
7
  6
CENTER
 10
56.1211754696
 20
30.7595794931
 11
56.0211754696
 21
30.7595794931
  0
LINE
  5
515
100
AcDbEntity
  8
3_ALL_AXES
100
AcDbLine
 62
7
  6
CENTER
 10
56.8622011106
 20
30.7595794931
 11
57.5032267516
 21
30.7595794931
  0
LINE
  5
516
100
AcDbEntity
  8
3_ALL_AXES
100
AcDbLine
 62
7
  6
CENTER
 10
57.5032267516
 20
30.7595794931
 11
57.6032267516
 21
30.7595794931
  0
LINE
  5
517
100
AcDbEntity
  8
3_AXES_OTHER
100
AcDbLine
 62
7
  6
CONTINUOUS
 10
57.4492089846
 20
30.8595794931
 11
57.2522011106
 21
30.8595794931
  0
LINE
  5
518
100
AcDbEntity
  8
3_ALL_AXES
100
AcDbLine
 62
7
  6
CONTINUOUS
 10
56.8622011106
 20
30.8595794931
 11
56.7622011106
 21
30.8595794931
  0
LINE
  5
519
100
AcDbEntity
  8
3_ALL_AXES
100
AcDbLine
 62
7
  6
CONTINUOUS
 10
57.4492089846
 20
30.8595794931
 11
57.5791302445
 21
30.8595794931
  0
LINE
  5
51A
100
AcDbEntity
  8
7_ALL_ROUNDS
100
AcDbLine
 62
9
  6
CONTINUOUS
 10
46.5082641027
 20
31.0909574458
 11
47.1907050476
 21
31.0909574458
  0
LINE
  5
51B
100
AcDbEntity
  8
3_AXES_OTHER
100
AcDbLine
 62
7
  6
CONTINUOUS
 10
46.5082641027
 20
31.3615283119
 11
57.0392064723
 21
31.3615283119
  0
LINE
  5
51C
100
AcDbEntity
  8
3_AXES_OTHER
100
AcDbLine
 62
7
  6
CONTINUOUS
 10
56.6844452051
 20
28.5697462433
 11
56.6844452051
 21
28.4494127428
  0
LINE
  5
51D
100
AcDbEntity
  8
3_ALL_AXES
100
AcDbLine
 62
7
  6
CENTER
 10
56.7622011106
 20
30.7595794931
 11
56.7622011106
 21
30.018553852
  0
LINE
  5
51E
100
AcDbEntity
  8
3_ALL_AXES
100
AcDbLine
 62
7
  6
CENTER
 10
56.7622011106
 20
28.5095794931
 11
56.7622011106
 21
27.768553852
  0
LINE
  5
51F
100
AcDbEntity
  8
3_ALL_AXES
100
AcDbLine
 62
7
  6
CENTER
 10
56.7622011106
 20
28.5095794931
 11
56.7622011106
 21
29.2506051341
  0
LINE
  5
520
100
AcDbEntity
  8
3_ALL_AXES
100
AcDbLine
 62
7
  6
CENTER
 10
56.7622011106
 20
30.7595794931
 11
56.7622011106
 21
31.5006051341
  0
LINE
  5
521
100
AcDbEntity
  8
3_ALL_AXES
100
AcDbLine
 62
7
  6
CENTER
 10
56.8622011106
 20
30.7595794931
 11
56.8622011106
 21
30.018553852
  0
LINE
  5
522
100
AcDbEntity
  8
3_ALL_AXES
100
AcDbLine
 62
7
  6
CENTER
 10
56.8622011106
 20
28.5095794931
 11
56.8622011106
 21
27.768553852
  0
LINE
  5
523
100
AcDbEntity
  8
3_ALL_AXES
100
AcDbLine
 62
7
  6
CENTER
 10
56.8622011106
 20
28.5095794931
 11
56.8622011106
 21
29.2506051341
  0
LINE
  5
524
100
AcDbEntity
  8
3_ALL_AXES
100
AcDbLine
 62
7
  6
CENTER
 10
56.8622011106
 20
30.7595794931
 11
56.8622011106
 21
31.5006051341
  0
LINE
  5
525
100
AcDbEntity
  8
3_ALL_AXES
100
AcDbLine
 62
7
  6
CONTINUOUS
 10
57.5791302445
 20
31.0894467171
 11
57.5790973983
 21
31.0922363485
  0
LINE
  5
526
100
AcDbEntity
  8
7_ALL_ROUNDS
100
AcDbLine
 62
7
  6
CONTINUOUS
 10
57.1272011106
 20
29.6995794931
 11
57.1272011106
 21
29.5695794931
  0
LINE
  5
527
100
AcDbEntity
  8
3_ALL_AXES
100
AcDbLine
 62
7
  6
CENTER
 10
57.2522011106
 20
30.2345794931
 11
57.2522011106
 21
29.9846671016
  0
LINE
  5
528
100
AcDbEntity
  8
3_ALL_AXES
100
AcDbLine
 62
7
  6
CENTER
 10
57.2522011106
 20
29.0345794931
 11
57.2522011106
 21
28.8006045262
  0
LINE
  5
529
100
AcDbEntity
  8
3_ALL_AXES
100
AcDbLine
 62
7
  6
CENTER
 10
57.2522011106
 20
29.0345794931
 11
57.2522011106
 21
29.287643556
  0
LINE
  5
52A
100
AcDbEntity
  8
3_ALL_AXES
100
AcDbLine
 62
7
  6
CENTER
 10
57.2522011106
 20
30.2345794931
 11
57.2522011106
 21
30.5017590824
  0
LINE
  5
52B
100
AcDbEntity
  8
3_AXES_OTHER
100
AcDbLine
 62
7
  6
CONTINUOUS
 10
57.4492089846
 20
28.0555635115
 11
57.4492089846
 21
28.0598632954
  0
LINE
  5
52C
100
AcDbEntity
  8
3_ALL_AXES
100
AcDbLine
 62
9
  6
CONTINUOUS
 10
57.4492089846
 20
28.0598632954
 11
57.4492089846
 21
28.4095794931
  0
LINE
  5
52D
100
AcDbEntity
  8
3_AXES_OTHER
100
AcDbLine
 62
9
  6
CONTINUOUS
 10
57.4492089846
 20
28.6095794931
 11
57.4492089846
 21
29.4445794931
  0
LINE
  5
52E
100
AcDbEntity
  8
3_AXES_OTHER
100
AcDbLine
 62
9
  6
CONTINUOUS
 10
57.4492089846
 20
29.8245794931
 11
57.4492089846
 21
30.6595794931
  0
LINE
  5
52F
100
AcDbEntity
  8
3_AXES_OTHER
100
AcDbLine
 62
7
  6
CONTINUOUS
 10
57.4492089846
 20
31.2092956907
 11
57.4492089846
 21
31.2135954746
  0
LINE
  5
530
100
AcDbEntity
  8
3_ALL_AXES
100
AcDbLine
 62
9
  6
CONTINUOUS
 10
57.4492089846
 20
30.8595794931
 11
57.4492089846
 21
31.2092956907
  0
LINE
  5
531
100
AcDbEntity
  8
3_ALL_AXES
100
AcDbLine
 62
7
  6
CONTINUOUS
 10
57.53188615
 20
28.4095794931
 11
57.53188615
 21
28.6095794931
  0
LINE
  5
532
100
AcDbEntity
  8
7_ALL_ROUNDS
100
AcDbLine
 62
7
  6
CONTINUOUS
 10
57.53188615
 20
29.4445794931
 11
57.53188615
 21
29.8245794931
  0
LINE
  5
533
100
AcDbEntity
  8
3_ALL_AXES
100
AcDbLine
 62
7
  6
CONTINUOUS
 10
57.53188615
 20
30.6595794931
 11
57.53188615
 21
30.8595794931
  0
LINE
  5
534
100
AcDbEntity
  8
3_ALL_AXES
100
AcDbLine
 62
7
  6
CONTINUOUS
 10
57.5791302445
 20
28.179712269
 11
57.5791302445
 21
29.4445794931
  0
LINE
  5
535
100
AcDbEntity
  8
7_ALL_ROUNDS
100
AcDbLine
 62
7
  6
CONTINUOUS
 10
57.5791302445
 20
29.4445794931
 11
57.5791302445
 21
29.8245794931
  0
LINE
  5
536
100
AcDbEntity
  8
3_ALL_AXES
100
AcDbLine
 62
7
  6
CONTINUOUS
 10
57.5791302445
 20
29.8245794931
 11
57.5791302445
 21
31.0894467171
  0
LINE
  5
537
100
AcDbEntity
  8
3_ALL_AXES
100
AcDbLine
 62
7
  6
CONTINUOUS
 10
57.5790973983
 20
28.1769226376
 11
57.5791302445
 21
28.179712269
  0
LINE
  5
538
100
AcDbEntity
  8
3_AXES_OTHER
100
AcDbLine
 62
7
  6
CONTINUOUS
 10
75.2201750129
 20
27.9076306742
 11
75.2201750129
 21
31.3615283119
  0
LINE
  5
539
100
AcDbEntity
  8
3_AXES_OTHER
100
AcDbLine
 62
7
  6
CONTINUOUS
 10
76.0973994224
 20
27.9076306742
 11
76.0973994224
 21
28.0598632954
  0
LINE
  5
53A
100
AcDbEntity
  8
3_ALL_AXES
100
AcDbLine
 62
7
  6
CONTINUOUS
 10
76.0973994224
 20
28.0598632954
 11
76.0973994224
 21
28.4095794931
  0
LINE
  5
53B
100
AcDbEntity
  8
3_ALL_AXES
100
AcDbLine
 62
7
  6
CONTINUOUS
 10
76.0973994224
 20
28.6095794931
 11
76.0973994224
 21
29.4445794931
  0
LINE
  5
53C
100
AcDbEntity
  8
3_AXES_OTHER
100
AcDbLine
 62
7
  6
CONTINUOUS
 10
76.0973994224
 20
28.4095794931
 11
76.0973994224
 21
29.4445794931
  0
LINE
  5
53D
100
AcDbEntity
  8
7_ALL_ROUNDS
100
AcDbLine
 62
7
  6
CONTINUOUS
 10
76.0973994224
 20
29.4445794931
 11
76.0973994224
 21
29.8245794931
  0
LINE
  5
53E
100
AcDbEntity
  8
3_ALL_AXES
100
AcDbLine
 62
7
  6
CONTINUOUS
 10
76.0973994224
 20
29.8245794931
 11
76.0973994224
 21
30.6595794931
  0
LINE
  5
53F
100
AcDbEntity
  8
3_AXES_OTHER
100
AcDbLine
 62
7
  6
CONTINUOUS
 10
76.0973994224
 20
29.8245794931
 11
76.0973994224
 21
30.8595794931
  0
LINE
  5
540
100
AcDbEntity
  8
3_ALL_AXES
100
AcDbLine
 62
7
  6
CONTINUOUS
 10
76.0973994224
 20
30.8595794931
 11
76.0973994224
 21
31.2092956907
  0
LINE
  5
541
100
AcDbEntity
  8
3_AXES_OTHER
100
AcDbLine
 62
7
  6
CONTINUOUS
 10
76.0973994224
 20
31.2092956907
 11
76.0973994224
 21
31.3615283119
  0
LINE
  5
542
100
AcDbEntity
  8
3_AXES_OTHER
100
AcDbLine
 62
7
  6
CONTINUOUS
 10
76.1446435168
 20
30.8595794931
 11
76.1446435168
 21
30.6595794931
  0
LINE
  5
543
100
AcDbEntity
  8
7_ALL_ROUNDS
100
AcDbLine
 62
7
  6
CONTINUOUS
 10
76.1446435168
 20
29.8245794931
 11
76.1446435168
 21
29.4445794931
  0
LINE
  5
544
100
AcDbEntity
  8
3_AXES_OTHER
100
AcDbLine
 62
7
  6
CONTINUOUS
 10
76.1446435168
 20
28.6095794931
 11
76.1446435168
 21
28.4095794931
  0
LINE
  5
545
100
AcDbEntity
  8
3_AXES_OTHER
100
AcDbLine
 62
7
  6
CONTINUOUS
 10
76.1446435168
 20
27.9076306742
 11
76.1446435168
 21
28.1205965119
  0
LINE
  5
546
100
AcDbEntity
  8
3_AXES_OTHER
100
AcDbLine
 62
7
  6
CONTINUOUS
 10
76.1446435168
 20
31.1485624742
 11
76.1446435168
 21
31.3615283119
  0
LINE
  5
547
100
AcDbEntity
  8
3_ALL_AXES
100
AcDbLine
 62
9
  6
CONTINUOUS
 10
76.2273206822
 20
28.179712269
 11
76.2273206822
 21
28.4095794931
  0
LINE
  5
548
100
AcDbEntity
  8
3_ALL_AXES
100
AcDbLine
 62
9
  6
CONTINUOUS
 10
76.2273206822
 20
28.6095794931
 11
76.2273206822
 21
29.4445794931
  0
LINE
  5
549
100
AcDbEntity
  8
3_ALL_AXES
100
AcDbLine
 62
9
  6
CONTINUOUS
 10
76.2273206822
 20
29.8245794931
 11
76.2273206822
 21
30.6595794931
  0
LINE
  5
54A
100
AcDbEntity
  8
3_ALL_AXES
100
AcDbLine
 62
9
  6
CONTINUOUS
 10
76.2273206822
 20
30.8595794931
 11
76.2273206822
 21
31.0894467171
  0
LINE
  5
54B
100
AcDbEntity
  8
3_ALL_AXES
100
AcDbLine
 62
7
  6
CENTER
 10
76.3763758003
 20
30.2345794931
 11
76.3763758003
 21
29.9066034893
  0
LINE
  5
54C
100
AcDbEntity
  8
3_ALL_AXES
100
AcDbLine
 62
7
  6
CENTER
 10
76.3763758003
 20
29.0345794931
 11
76.3763758003
 21
28.71334935
  0
LINE
  5
54D
100
AcDbEntity
  8
3_ALL_AXES
100
AcDbLine
 62
7
  6
CENTER
 10
76.3763758003
 20
29.0345794931
 11
76.3763758003
 21
29.3787805826
  0
LINE
  5
54E
100
AcDbEntity
  8
3_ALL_AXES
100
AcDbLine
 62
7
  6
CENTER
 10
76.3763758003
 20
30.2345794931
 11
76.3763758003
 21
30.5673153514
  0
LINE
  5
54F
100
AcDbEntity
  8
7_ALL_ROUNDS
100
AcDbLine
 62
7
  6
CONTINUOUS
 10
76.3800765877
 20
29.5695794931
 11
76.3800765877
 21
29.6995794931
  0
LINE
  5
550
100
AcDbEntity
  8
3_ALL_AXES
100
AcDbLine
 62
7
  6
CONTINUOUS
 10
76.5363758003
 20
28.9015283119
 11
76.5363758003
 21
30.3676306742
  0
LINE
  5
551
100
AcDbEntity
  8
3_AXES_OTHER
100
AcDbLine
 62
7
  6
CONTINUOUS
 10
76.6071435168
 20
30.7093826427
 11
76.6071435168
 21
30.1857605954
  0
LINE
  5
552
100
AcDbEntity
  8
3_AXES_OTHER
100
AcDbLine
 62
7
  6
CONTINUOUS
 10
76.632734068
 20
30.2113511466
 11
76.632734068
 21
30.6837920915
  0
LINE
  5
553
100
AcDbEntity
  8
3_AXES_OTHER
100
AcDbLine
 62
7
  6
CONTINUOUS
 10
76.6819466665
 20
30.6178472096
 11
76.6819466665
 21
30.2772960285
  0
LINE
  5
554
100
AcDbEntity
  8
3_AXES_OTHER
100
AcDbLine
 62
7
  6
CONTINUOUS
 10
76.7764348554
 20
30.5519023277
 11
76.7764348554
 21
30.3432409104
  0
LINE
  5
555
100
AcDbEntity
  8
3_AXES_OTHER
100
AcDbLine
 62
7
  6
CONTINUOUS
 10
76.8945450916
 20
30.3432409104
 11
76.8945450916
 21
30.5519023277
  0
LINE
  5
556
100
AcDbEntity
  8
3_AXES_OTHER
100
AcDbLine
 62
7
  6
CONTINUOUS
 10
77.0095057216
 20
30.3363511466
 11
77.0095057216
 21
30.5587920915
  0
LINE
  5
557
100
AcDbEntity
  8
3_AXES_OTHER
100
AcDbLine
 62
7
  6
CONTINUOUS
 10
77.0658049342
 20
30.6837920915
 11
77.0658049342
 21
30.2113511466
  0
LINE
  5
558
100
AcDbEntity
  8
3_AXES_OTHER
100
AcDbLine
 62
7
  6
CONTINUOUS
 10
77.0913954854
 20
30.1857605954
 11
77.0913954854
 21
30.7093826427
  0
LINE
  5
559
100
AcDbEntity
  8
3_ALL_AXES
100
AcDbLine
 62
7
  6
CONTINUOUS
 10
77.811710446
 20
30.6038788206
 11
77.811710446
 21
30.5723827576
  0
LINE
  5
55A
100
AcDbEntity
  8
3_ALL_AXES
100
AcDbLine
 62
7
  6
CONTINUOUS
 10
77.9416317058
 20
30.5723827576
 11
77.9416317058
 21
30.6038788206
  0
LINE
  5
55B
100
AcDbEntity
  8
3_ALL_AXES
100
AcDbLine
 62
7
  6
CONTINUOUS
 10
78.874702572
 20
30.6038788206
 11
78.874702572
 21
30.5723827576
  0
LINE
  5
55C
100
AcDbEntity
  8
3_AXES_OTHER
100
AcDbLine
 62
7
  6
CONTINUOUS
 10
76.9496632019
 20
30.2772960285
 11
77.0095057216
 21
30.3363511466
  0
LINE
  5
55D
100
AcDbEntity
  8
3_ALL_AXES
100
AcDbLine
 62
7
  6
CONTINUOUS
 10
79.0046238318
 20
30.5723827576
 11
79.0046238318
 21
30.6038788206
  0
LINE
  5
55E
100
AcDbEntity
  8
3_ALL_AXES
100
AcDbLine
 62
7
  6
CONTINUOUS
 10
79.9376946979
 20
30.6038788206
 11
79.9376946979
 21
30.5723827576
  0
LINE
  5
55F
100
AcDbEntity
  8
3_ALL_AXES
100
AcDbLine
 62
7
  6
CONTINUOUS
 10
80.0676159578
 20
30.5723827576
 11
80.0676159578
 21
30.6038788206
  0
LINE
  5
560
100
AcDbEntity
  8
3_AXES_OTHER
100
AcDbLine
 62
7
  6
CONTINUOUS
 10
77.0095057216
 20
30.5587920915
 11
76.9496632019
 21
30.6178472096
  0
LINE
  5
561
100
AcDbEntity
  8
3_ALL_AXES
100
AcDbLine
 62
7
  6
CONTINUOUS
 10
81.0006868239
 20
30.6038788206
 11
81.0006868239
 21
30.5723827576
  0
LINE
  5
562
100
AcDbEntity
  8
3_ALL_AXES
100
AcDbLine
 62
7
  6
CONTINUOUS
 10
81.1306080838
 20
30.5723827576
 11
81.1306080838
 21
30.6038788206
  0
LINE
  5
563
100
AcDbEntity
  8
7_ALL_ROUNDS
100
AcDbLine
 62
7
  6
CONTINUOUS
 10
93.2405883987
 20
27.9076306742
 11
76.1446435168
 21
27.9076306742
  0
LINE
  5
564
100
AcDbEntity
  8
3_AXES_OTHER
100
AcDbLine
 62
7
  6
CONTINUOUS
 10
75.2201750129
 20
27.9076306742
 11
76.1446435168
 21
27.9076306742
  0
LINE
  5
565
100
AcDbEntity
  8
3_AXES_OTHER
100
AcDbLine
 62
7
  6
CONTINUOUS
 10
93.2405883987
 20
27.9076306742
 11
94.1650569027
 21
27.9076306742
  0
LINE
  5
566
100
AcDbEntity
  8
3_ALL_AXES
100
AcDbLine
 62
7
  6
CONTINUOUS
 10
75.4587576901
 20
28.0065873671
 11
75.5887576901
 21
28.0065873671
  0
LINE
  5
567
100
AcDbEntity
  8
3_ALL_AXES
100
AcDbLine
 62
7
  6
CONTINUOUS
 10
93.7964742255
 20
28.0065873671
 11
93.9264742255
 21
28.0065873671
  0
LINE
  5
568
100
AcDbEntity
  8
3_AXES_OTHER
100
AcDbLine
 62
7
  6
CONTINUOUS
 10
76.0973994224
 20
28.0555635115
 11
76.1446435168
 21
28.0555635115
  0
LINE
  5
569
100
AcDbEntity
  8
3_AXES_OTHER
100
AcDbLine
 62
7
  6
CONTINUOUS
 10
93.2405883987
 20
28.0555635115
 11
93.2878324932
 21
28.0555635115
  0
LINE
  5
56A
100
AcDbEntity
  8
3_ALL_AXES
100
AcDbLine
 62
7
  6
CONTINUOUS
 10
93.9264742255
 20
28.262571619
 11
93.7964742255
 21
28.262571619
  0
LINE
  5
56B
100
AcDbEntity
  8
3_ALL_AXES
100
AcDbLine
 62
7
  6
CONTINUOUS
 10
75.5887576901
 20
28.262571619
 11
75.4587576901
 21
28.262571619
  0
LINE
  5
56C
100
AcDbEntity
  8
3_AXES_OTHER
100
AcDbLine
 62
7
  6
CONTINUOUS
 10
91.9278144081
 20
28.4064495718
 11
92.6424568776
 21
28.4064495718
  0
LINE
  5
56D
100
AcDbEntity
  8
3_ALL_AXES
100
AcDbLine
 62
7
  6
CONTINUOUS
 10
93.2878324932
 20
28.4095794931
 11
93.1579112334
 21
28.4095794931
  0
LINE
  5
56E
100
AcDbEntity
  8
3_ALL_AXES
100
AcDbLine
 62
7
  6
CONTINUOUS
 10
76.0973994224
 20
28.4095794931
 11
76.2273206822
 21
28.4095794931
  0
LINE
  5
56F
100
AcDbEntity
  8
3_AXES_OTHER
100
AcDbLine
 62
7
  6
CONTINUOUS
 10
86.5571041468
 20
28.4981148333
 11
86.7671041468
 21
28.4981148333
  0
LINE
  5
570
100
AcDbEntity
  8
3_AXES_OTHER
100
AcDbLine
 62
7
  6
CONTINUOUS
 10
87.9350569027
 20
28.4981148333
 11
88.1450569027
 21
28.4981148333
  0
LINE
  5
571
100
AcDbEntity
  8
3_AXES_OTHER
100
AcDbLine
 62
7
  6
CONTINUOUS
 10
89.3130096586
 20
28.4981148333
 11
89.5230096586
 21
28.4981148333
  0
LINE
  5
572
100
AcDbEntity
  8
3_AXES_OTHER
100
AcDbLine
 62
7
  6
CONTINUOUS
 10
91.9741120208
 20
28.5139298868
 11
92.3993088712
 21
28.5139298868
  0
LINE
  5
573
100
AcDbEntity
  8
3_ALL_AXES
100
AcDbLine
 62
7
  6
CONTINUOUS
 10
93.2878324932
 20
28.6095794931
 11
93.1579112334
 21
28.6095794931
  0
LINE
  5
574
100
AcDbEntity
  8
3_ALL_AXES
100
AcDbLine
 62
7
  6
CONTINUOUS
 10
76.0973994224
 20
28.6095794931
 11
76.2273206822
 21
28.6095794931
  0
LINE
  5
575
100
AcDbEntity
  8
3_AXES_OTHER
100
AcDbLine
 62
7
  6
CONTINUOUS
 10
92.1298994224
 20
28.6714102017
 11
92.2873797373
 21
28.6714102017
  0
LINE
  5
576
100
AcDbEntity
  8
3_AXES_OTHER
100
AcDbLine
 62
7
  6
CONTINUOUS
 10
92.2873797373
 20
28.7501503592
 11
92.1298994224
 21
28.7501503592
  0
LINE
  5
577
100
AcDbEntity
  8
3_AXES_OTHER
100
AcDbLine
 62
7
  6
CONTINUOUS
 10
92.2851356428
 20
28.9470007529
 11
92.4426159578
 21
28.9470007529
  0
LINE
  5
578
100
AcDbEntity
  8
3_AXES_OTHER
100
AcDbLine
 62
7
  6
CONTINUOUS
 10
92.4426159578
 20
29.0257409104
 11
92.2851356428
 21
29.0257409104
  0
LINE
  5
579
100
AcDbEntity
  8
3_ALL_AXES
100
AcDbLine
 62
7
  6
CENTER
 10
93.0088561153
 20
29.0345794931
 11
92.7377038329
 21
29.0345794931
  0
LINE
  5
57A
100
AcDbEntity
  8
3_ALL_AXES
100
AcDbLine
 62
7
  6
CENTER
 10
76.3763758003
 20
29.0345794931
 11
76.0545302182
 21
29.0345794931
  0
LINE
  5
57B
100
AcDbEntity
  8
3_ALL_AXES
100
AcDbLine
 62
7
  6
CENTER
 10
76.3763758003
 20
29.0345794931
 11
76.7341195621
 21
29.0345794931
  0
LINE
  5
57C
100
AcDbEntity
  8
3_ALL_AXES
100
AcDbLine
 62
7
  6
CENTER
 10
93.0088561153
 20
29.0345794931
 11
93.2985372987
 21
29.0345794931
  0
LINE
  5
57D
100
AcDbEntity
  8
3_ALL_AXES
100
AcDbLine
 62
7
  6
CENTER
 10
84.6926159578
 20
29.6345794931
 11
84.6926159578
 21
26.9648198173
  0
LINE
  5
57E
100
AcDbEntity
  8
3_ALL_AXES
100
AcDbLine
 62
7
  6
CENTER
 10
84.6926159578
 20
29.6345794931
 11
84.6926159578
 21
31.9381401495
  0
LINE
  5
57F
100
AcDbEntity
  8
3_AXES_OTHER
100
AcDbLine
 62
7
  6
CONTINUOUS
 10
92.1298994224
 20
29.2225913041
 11
92.2873797373
 21
29.2225913041
  0
LINE
  5
580
100
AcDbEntity
  8
3_AXES_OTHER
100
AcDbLine
 62
7
  6
CONTINUOUS
 10
89.4849387924
 20
29.2886188417
 11
89.3510805247
 21
29.2886188417
  0
LINE
  5
581
100
AcDbEntity
  8
3_AXES_OTHER
100
AcDbLine
 62
7
  6
CONTINUOUS
 10
88.1069860365
 20
29.2886188417
 11
87.9731277688
 21
29.2886188417
  0
LINE
  5
582
100
AcDbEntity
  8
3_AXES_OTHER
100
AcDbLine
 62
7
  6
CONTINUOUS
 10
86.7290332806
 20
29.2886188417
 11
86.5951750129
 21
29.2886188417
  0
LINE
  5
583
100
AcDbEntity
  8
3_AXES_OTHER
100
AcDbLine
 62
7
  6
CONTINUOUS
 10
92.2873797373
 20
29.3013314616
 11
92.1298994224
 21
29.3013314616
  0
LINE
  5
584
100
AcDbEntity
  8
3_ALL_AXES
100
AcDbLine
 62
7
  6
CONTINUOUS
 10
93.2878324932
 20
29.4445794931
 11
93.1579112334
 21
29.4445794931
  0
LINE
  5
585
100
AcDbEntity
  8
7_ALL_ROUNDS
100
AcDbLine
 62
7
  6
CONTINUOUS
 10
93.1579112334
 20
29.4445794931
 11
93.1301553279
 21
29.4445794931
  0
LINE
  5
586
100
AcDbEntity
  8
3_ALL_AXES
100
AcDbLine
 62
7
  6
CONTINUOUS
 10
76.0973994224
 20
29.4445794931
 11
76.2273206822
 21
29.4445794931
  0
LINE
  5
587
100
AcDbEntity
  8
7_ALL_ROUNDS
100
AcDbLine
 62
7
  6
CONTINUOUS
 10
76.2273206822
 20
29.4445794931
 11
76.2550765877
 21
29.4445794931
  0
LINE
  5
588
100
AcDbEntity
  8
3_AXES_OTHER
100
AcDbLine
 62
7
  6
CONTINUOUS
 10
92.3993088712
 20
29.4588117765
 11
91.9741120208
 21
29.4588117765
  0
LINE
  5
589
100
AcDbEntity
  8
3_AXES_OTHER
100
AcDbLine
 62
7
  6
CONTINUOUS
 10
92.6424568776
 20
29.5662920915
 11
91.9278144081
 21
29.5662920915
  0
LINE
  5
58A
100
AcDbEntity
  8
7_ALL_ROUNDS
100
AcDbLine
 62
9
  6
CONTINUOUS
 10
76.0973994224
 20
29.5695794931
 11
76.1446435168
 21
29.5695794931
  0
LINE
  5
58B
100
AcDbEntity
  8
7_ALL_ROUNDS
100
AcDbLine
 62
9
  6
CONTINUOUS
 10
93.2405883987
 20
29.5695794931
 11
93.2878324932
 21
29.5695794931
  0
LINE
  5
58C
100
AcDbEntity
  8
3_ALL_AXES
100
AcDbLine
 62
7
  6
CENTER
 10
84.6926159578
 20
29.6345794931
 11
74.5020387367
 21
29.6345794931
  0
LINE
  5
58D
100
AcDbEntity
  8
3_ALL_AXES
100
AcDbLine
 62
7
  6
CENTER
 10
84.6926159578
 20
29.6345794931
 11
94.6884084095
 21
29.6345794931
  0
LINE
  5
58E
100
AcDbEntity
  8
7_ALL_ROUNDS
100
AcDbLine
 62
9
  6
CONTINUOUS
 10
76.0973994224
 20
29.6995794931
 11
76.1446435168
 21
29.6995794931
  0
LINE
  5
58F
100
AcDbEntity
  8
7_ALL_ROUNDS
100
AcDbLine
 62
9
  6
CONTINUOUS
 10
93.2405883987
 20
29.6995794931
 11
93.2878324932
 21
29.6995794931
  0
LINE
  5
590
100
AcDbEntity
  8
3_ALL_AXES
100
AcDbLine
 62
7
  6
CONTINUOUS
 10
93.2878324932
 20
29.8245794931
 11
93.1579112334
 21
29.8245794931
  0
LINE
  5
591
100
AcDbEntity
  8
7_ALL_ROUNDS
100
AcDbLine
 62
7
  6
CONTINUOUS
 10
93.1579112334
 20
29.8245794931
 11
93.1301553279
 21
29.8245794931
  0
LINE
  5
592
100
AcDbEntity
  8
3_ALL_AXES
100
AcDbLine
 62
7
  6
CONTINUOUS
 10
76.0973994224
 20
29.8245794931
 11
76.2273206822
 21
29.8245794931
  0
LINE
  5
593
100
AcDbEntity
  8
7_ALL_ROUNDS
100
AcDbLine
 62
7
  6
CONTINUOUS
 10
76.2273206822
 20
29.8245794931
 11
76.2550765877
 21
29.8245794931
  0
LINE
  5
594
100
AcDbEntity
  8
3_AXES_OTHER
100
AcDbLine
 62
7
  6
CONTINUOUS
 10
89.4849387924
 20
29.8758944752
 11
89.3510805247
 21
29.8758944752
  0
LINE
  5
595
100
AcDbEntity
  8
3_AXES_OTHER
100
AcDbLine
 62
7
  6
CONTINUOUS
 10
88.1069860365
 20
29.8758944752
 11
87.9731277688
 21
29.8758944752
  0
LINE
  5
596
100
AcDbEntity
  8
3_AXES_OTHER
100
AcDbLine
 62
7
  6
CONTINUOUS
 10
86.7290332806
 20
29.8758944752
 11
86.5951750129
 21
29.8758944752
  0
LINE
  5
597
100
AcDbEntity
  8
3_AXES_OTHER
100
AcDbLine
 62
7
  6
CONTINUOUS
 10
76.6071435168
 20
30.1857605954
 11
77.0913954854
 21
30.1857605954
  0
LINE
  5
598
100
AcDbEntity
  8
3_AXES_OTHER
100
AcDbLine
 62
7
  6
CONTINUOUS
 10
77.0658049342
 20
30.2113511466
 11
76.632734068
 21
30.2113511466
  0
LINE
  5
599
100
AcDbEntity
  8
3_ALL_AXES
100
AcDbLine
 62
7
  6
CENTER
 10
93.0088561153
 20
30.2345794931
 11
92.6993542287
 21
30.2345794931
  0
LINE
  5
59A
100
AcDbEntity
  8
3_ALL_AXES
100
AcDbLine
 62
7
  6
CENTER
 10
76.3763758003
 20
30.2345794931
 11
76.063968959
 21
30.2345794931
  0
LINE
  5
59B
100
AcDbEntity
  8
3_ALL_AXES
100
AcDbLine
 62
7
  6
CENTER
 10
76.3763758003
 20
30.2345794931
 11
76.7341195621
 21
30.2345794931
  0
LINE
  5
59C
100
AcDbEntity
  8
3_ALL_AXES
100
AcDbLine
 62
7
  6
CENTER
 10
93.0088561153
 20
30.2345794931
 11
93.308153016
 21
30.2345794931
  0
LINE
  5
59D
100
AcDbEntity
  8
3_AXES_OTHER
100
AcDbLine
 62
7
  6
CONTINUOUS
 10
76.6819466665
 20
30.2772960285
 11
76.9496632019
 21
30.2772960285
  0
LINE
  5
59E
100
AcDbEntity
  8
3_AXES_OTHER
100
AcDbLine
 62
7
  6
CONTINUOUS
 10
76.7764348554
 20
30.3432409104
 11
76.8945450916
 21
30.3432409104
  0
LINE
  5
59F
100
AcDbEntity
  8
3_AXES_OTHER
100
AcDbLine
 62
7
  6
CONTINUOUS
 10
76.8945450916
 20
30.5519023277
 11
76.7764348554
 21
30.5519023277
  0
LINE
  5
5A0
100
AcDbEntity
  8
3_ALL_AXES
100
AcDbLine
 62
7
  6
CONTINUOUS
 10
77.811710446
 20
30.5723827576
 11
77.9416317058
 21
30.5723827576
  0
LINE
  5
5A1
100
AcDbEntity
  8
3_ALL_AXES
100
AcDbLine
 62
7
  6
CONTINUOUS
 10
78.874702572
 20
30.5723827576
 11
79.0046238318
 21
30.5723827576
  0
LINE
  5
5A2
100
AcDbEntity
  8
3_ALL_AXES
100
AcDbLine
 62
7
  6
CONTINUOUS
 10
79.9376946979
 20
30.5723827576
 11
80.0676159578
 21
30.5723827576
  0
LINE
  5
5A3
100
AcDbEntity
  8
3_ALL_AXES
100
AcDbLine
 62
7
  6
CONTINUOUS
 10
81.0006868239
 20
30.5723827576
 11
81.1306080838
 21
30.5723827576
  0
LINE
  5
5A4
100
AcDbEntity
  8
3_AXES_OTHER
100
AcDbLine
 62
7
  6
CONTINUOUS
 10
76.9496632019
 20
30.6178472096
 11
76.6819466665
 21
30.6178472096
  0
LINE
  5
5A5
100
AcDbEntity
  8
3_ALL_AXES
100
AcDbLine
 62
7
  6
CONTINUOUS
 10
93.2878324932
 20
30.6595794931
 11
93.1579112334
 21
30.6595794931
  0
LINE
  5
5A6
100
AcDbEntity
  8
3_ALL_AXES
100
AcDbLine
 62
7
  6
CONTINUOUS
 10
76.0973994224
 20
30.6595794931
 11
76.2273206822
 21
30.6595794931
  0
LINE
  5
5A7
100
AcDbEntity
  8
3_AXES_OTHER
100
AcDbLine
 62
7
  6
CONTINUOUS
 10
86.5571041468
 20
30.6663984835
 11
86.7671041468
 21
30.6663984835
  0
LINE
  5
5A8
100
AcDbEntity
  8
3_AXES_OTHER
100
AcDbLine
 62
7
  6
CONTINUOUS
 10
87.9350569027
 20
30.6663984835
 11
88.1450569027
 21
30.6663984835
  0
LINE
  5
5A9
100
AcDbEntity
  8
3_AXES_OTHER
100
AcDbLine
 62
7
  6
CONTINUOUS
 10
89.3130096586
 20
30.6663984835
 11
89.5230096586
 21
30.6663984835
  0
LINE
  5
5AA
100
AcDbEntity
  8
3_AXES_OTHER
100
AcDbLine
 62
7
  6
CONTINUOUS
 10
76.632734068
 20
30.6837920915
 11
77.0658049342
 21
30.6837920915
  0
LINE
  5
5AB
100
AcDbEntity
  8
3_AXES_OTHER
100
AcDbLine
 62
7
  6
CONTINUOUS
 10
77.0913954854
 20
30.7093826427
 11
76.6071435168
 21
30.7093826427
  0
LINE
  5
5AC
100
AcDbEntity
  8
3_ALL_AXES
100
AcDbLine
 62
7
  6
CONTINUOUS
 10
93.2878324932
 20
30.8595794931
 11
93.1579112334
 21
30.8595794931
  0
LINE
  5
5AD
100
AcDbEntity
  8
3_ALL_AXES
100
AcDbLine
 62
7
  6
CONTINUOUS
 10
76.0973994224
 20
30.8595794931
 11
76.2273206822
 21
30.8595794931
  0
LINE
  5
5AE
100
AcDbEntity
  8
3_AXES_OTHER
100
AcDbLine
 62
7
  6
CONTINUOUS
 10
86.5571041468
 20
28.557957353
 11
86.5571041468
 21
28.4981148333
  0
LINE
  5
5AF
100
AcDbEntity
  8
3_AXES_OTHER
100
AcDbLine
 62
7
  6
CONTINUOUS
 10
86.5571041468
 20
30.6065559638
 11
86.5571041468
 21
30.6663984835
  0
LINE
  5
5B0
100
AcDbEntity
  8
3_AXES_OTHER
100
AcDbLine
 62
7
  6
CONTINUOUS
 10
86.5951750129
 20
29.2886188417
 11
86.5951750129
 21
29.2382251409
  0
LINE
  5
5B1
100
AcDbEntity
  8
3_AXES_OTHER
100
AcDbLine
 62
7
  6
CONTINUOUS
 10
86.5951750129
 20
29.8758944752
 11
86.5951750129
 21
29.9262881759
  0
LINE
  5
5B2
100
AcDbEntity
  8
3_ALL_AXES
100
AcDbLine
 62
7
  6
CONTINUOUS
 10
75.4587576901
 20
31.0065873671
 11
75.5887576901
 21
31.0065873671
  0
LINE
  5
5B3
100
AcDbEntity
  8
3_ALL_AXES
100
AcDbLine
 62
7
  6
CONTINUOUS
 10
93.7964742255
 20
31.0065873671
 11
93.9264742255
 21
31.0065873671
  0
LINE
  5
5B4
100
AcDbEntity
  8
3_AXES_OTHER
100
AcDbLine
 62
7
  6
CONTINUOUS
 10
93.2878324932
 20
31.2135954746
 11
93.2405883987
 21
31.2135954746
  0
LINE
  5
5B5
100
AcDbEntity
  8
3_AXES_OTHER
100
AcDbLine
 62
7
  6
CONTINUOUS
 10
76.1446435168
 20
31.2135954746
 11
76.0973994224
 21
31.2135954746
  0
LINE
  5
5B6
100
AcDbEntity
  8
3_ALL_AXES
100
AcDbLine
 62
7
  6
CONTINUOUS
 10
93.9264742255
 20
31.262571619
 11
93.7964742255
 21
31.262571619
  0
LINE
  5
5B7
100
AcDbEntity
  8
3_ALL_AXES
100
AcDbLine
 62
7
  6
CONTINUOUS
 10
75.5887576901
 20
31.262571619
 11
75.4587576901
 21
31.262571619
  0
LINE
  5
5B8
100
AcDbEntity
  8
3_AXES_OTHER
100
AcDbLine
 62
7
  6
CONTINUOUS
 10
75.2201750129
 20
31.3615283119
 11
94.1650569027
 21
31.3615283119
  0
LINE
  5
5B9
100
AcDbEntity
  8
3_AXES_OTHER
100
AcDbLine
 62
7
  6
CONTINUOUS
 10
86.7290332806
 20
29.9262881759
 11
86.7290332806
 21
29.8758944752
  0
LINE
  5
5BA
100
AcDbEntity
  8
3_AXES_OTHER
100
AcDbLine
 62
7
  6
CONTINUOUS
 10
86.7290332806
 20
29.2382251409
 11
86.7290332806
 21
29.2886188417
  0
LINE
  5
5BB
100
AcDbEntity
  8
3_AXES_OTHER
100
AcDbLine
 62
7
  6
CONTINUOUS
 10
86.7671041468
 20
30.6663984835
 11
86.7671041468
 21
30.6065559638
  0
LINE
  5
5BC
100
AcDbEntity
  8
3_AXES_OTHER
100
AcDbLine
 62
7
  6
CONTINUOUS
 10
86.7671041468
 20
28.4981148333
 11
86.7671041468
 21
28.557957353
  0
LINE
  5
5BD
100
AcDbEntity
  8
3_AXES_OTHER
100
AcDbLine
 62
7
  6
CONTINUOUS
 10
87.9350569027
 20
28.557957353
 11
87.9350569027
 21
28.4981148333
  0
LINE
  5
5BE
100
AcDbEntity
  8
3_AXES_OTHER
100
AcDbLine
 62
7
  6
CONTINUOUS
 10
87.9350569027
 20
30.6065559638
 11
87.9350569027
 21
30.6663984835
  0
LINE
  5
5BF
100
AcDbEntity
  8
3_AXES_OTHER
100
AcDbLine
 62
7
  6
CONTINUOUS
 10
87.9731277688
 20
29.2886188417
 11
87.9731277688
 21
29.2382251409
  0
LINE
  5
5C0
100
AcDbEntity
  8
3_AXES_OTHER
100
AcDbLine
 62
7
  6
CONTINUOUS
 10
87.9731277688
 20
29.8758944752
 11
87.9731277688
 21
29.9262881759
  0
LINE
  5
5C1
100
AcDbEntity
  8
3_AXES_OTHER
100
AcDbLine
 62
7
  6
CONTINUOUS
 10
88.1069860365
 20
29.9262881759
 11
88.1069860365
 21
29.8758944752
  0
LINE
  5
5C2
100
AcDbEntity
  8
3_AXES_OTHER
100
AcDbLine
 62
7
  6
CONTINUOUS
 10
88.1069860365
 20
29.2382251409
 11
88.1069860365
 21
29.2886188417
  0
LINE
  5
5C3
100
AcDbEntity
  8
3_AXES_OTHER
100
AcDbLine
 62
7
  6
CONTINUOUS
 10
88.1450569027
 20
30.6663984835
 11
88.1450569027
 21
30.6065559638
  0
LINE
  5
5C4
100
AcDbEntity
  8
3_AXES_OTHER
100
AcDbLine
 62
7
  6
CONTINUOUS
 10
88.1450569027
 20
28.4981148333
 11
88.1450569027
 21
28.557957353
  0
LINE
  5
5C5
100
AcDbEntity
  8
3_AXES_OTHER
100
AcDbLine
 62
7
  6
CONTINUOUS
 10
89.3130096586
 20
28.557957353
 11
89.3130096586
 21
28.4981148333
  0
LINE
  5
5C6
100
AcDbEntity
  8
3_AXES_OTHER
100
AcDbLine
 62
7
  6
CONTINUOUS
 10
89.3130096586
 20
30.6065559638
 11
89.3130096586
 21
30.6663984835
  0
LINE
  5
5C7
100
AcDbEntity
  8
3_AXES_OTHER
100
AcDbLine
 62
7
  6
CONTINUOUS
 10
89.3510805247
 20
29.2886188417
 11
89.3510805247
 21
29.2382251409
  0
LINE
  5
5C8
100
AcDbEntity
  8
3_AXES_OTHER
100
AcDbLine
 62
7
  6
CONTINUOUS
 10
89.3510805247
 20
29.8758944752
 11
89.3510805247
 21
29.9262881759
  0
LINE
  5
5C9
100
AcDbEntity
  8
3_AXES_OTHER
100
AcDbLine
 62
7
  6
CONTINUOUS
 10
89.4849387924
 20
29.9262881759
 11
89.4849387924
 21
29.8758944752
  0
LINE
  5
5CA
100
AcDbEntity
  8
3_AXES_OTHER
100
AcDbLine
 62
7
  6
CONTINUOUS
 10
89.4849387924
 20
29.2382251409
 11
89.4849387924
 21
29.2886188417
  0
LINE
  5
5CB
100
AcDbEntity
  8
3_AXES_OTHER
100
AcDbLine
 62
7
  6
CONTINUOUS
 10
89.5230096586
 20
30.6663984835
 11
89.5230096586
 21
30.6065559638
  0
LINE
  5
5CC
100
AcDbEntity
  8
3_AXES_OTHER
100
AcDbLine
 62
7
  6
CONTINUOUS
 10
89.5230096586
 20
28.4981148333
 11
89.5230096586
 21
28.557957353
  0
LINE
  5
5CD
100
AcDbEntity
  8
3_AXES_OTHER
100
AcDbLine
 62
7
  6
CONTINUOUS
 10
92.6000962728
 20
29.2619613828
 11
92.3993088712
 21
29.4588117765
  0
LINE
  5
5CE
100
AcDbEntity
  8
3_AXES_OTHER
100
AcDbLine
 62
7
  6
CONTINUOUS
 10
91.8560017846
 20
28.5090086269
 11
92.1464602967
 21
28.0941908817
  0
LINE
  5
5CF
100
AcDbEntity
  8
3_AXES_OTHER
100
AcDbLine
 62
7
  6
CONTINUOUS
 10
92.1464602967
 20
29.8785507816
 11
91.8560017846
 21
29.4637330364
  0
LINE
  5
5D0
100
AcDbEntity
  8
3_AXES_OTHER
100
AcDbLine
 62
7
  6
CONTINUOUS
 10
92.3993088712
 20
28.5139298868
 11
92.6000962728
 21
28.7107802805
  0
LINE
  5
5D1
100
AcDbEntity
  8
3_AXES_OTHER
100
AcDbLine
 62
7
  6
CONTINUOUS
 10
92.7142695011
 20
29.4637330364
 11
92.4238109889
 21
29.8785507816
  0
LINE
  5
5D2
100
AcDbEntity
  8
3_AXES_OTHER
100
AcDbLine
 62
7
  6
CONTINUOUS
 10
91.8560017846
 20
29.4637330364
 11
91.8560017846
 21
28.5090086269
  0
LINE
  5
5D3
100
AcDbEntity
  8
3_AXES_OTHER
100
AcDbLine
 62
7
  6
CONTINUOUS
 10
91.9741120208
 20
29.4588117765
 11
91.9741120208
 21
28.5139298868
  0
LINE
  5
5D4
100
AcDbEntity
  8
3_AXES_OTHER
100
AcDbLine
 62
7
  6
CONTINUOUS
 10
92.1298994224
 20
29.3013314616
 11
92.1298994224
 21
29.2225913041
  0
LINE
  5
5D5
100
AcDbEntity
  8
3_AXES_OTHER
100
AcDbLine
 62
7
  6
CONTINUOUS
 10
92.1298994224
 20
28.7501503592
 11
92.1298994224
 21
28.6714102017
  0
LINE
  5
5D6
100
AcDbEntity
  8
3_AXES_OTHER
100
AcDbLine
 62
7
  6
CONTINUOUS
 10
92.2851356428
 20
29.0257409104
 11
92.2851356428
 21
28.9470007529
  0
LINE
  5
5D7
100
AcDbEntity
  8
3_AXES_OTHER
100
AcDbLine
 62
7
  6
CONTINUOUS
 10
92.2873797373
 20
28.6714102017
 11
92.2873797373
 21
28.7501503592
  0
LINE
  5
5D8
100
AcDbEntity
  8
3_AXES_OTHER
100
AcDbLine
 62
7
  6
CONTINUOUS
 10
92.2873797373
 20
29.2225913041
 11
92.2873797373
 21
29.3013314616
  0
LINE
  5
5D9
100
AcDbEntity
  8
3_AXES_OTHER
100
AcDbLine
 62
7
  6
CONTINUOUS
 10
92.4426159578
 20
28.9470007529
 11
92.4426159578
 21
29.0257409104
  0
LINE
  5
5DA
100
AcDbEntity
  8
3_AXES_OTHER
100
AcDbLine
 62
7
  6
CONTINUOUS
 10
92.4238109889
 20
28.0941908817
 11
92.7142695011
 21
28.5090086269
  0
LINE
  5
5DB
100
AcDbEntity
  8
3_AXES_OTHER
100
AcDbLine
 62
7
  6
CONTINUOUS
 10
92.6000962728
 20
28.7107802805
 11
92.6000962728
 21
29.2619613828
  0
LINE
  5
5DC
100
AcDbEntity
  8
3_AXES_OTHER
100
AcDbLine
 62
7
  6
CONTINUOUS
 10
92.7142695011
 20
28.5090086269
 11
92.7142695011
 21
29.4637330364
  0
LINE
  5
5DD
100
AcDbEntity
  8
3_ALL_AXES
100
AcDbLine
 62
7
  6
CONTINUOUS
 10
92.8488561153
 20
28.9015283119
 11
92.8488561153
 21
30.3676306742
  0
LINE
  5
5DE
100
AcDbEntity
  8
7_ALL_ROUNDS
100
AcDbLine
 62
7
  6
CONTINUOUS
 10
93.0051553279
 20
29.6995794931
 11
93.0051553279
 21
29.5695794931
  0
LINE
  5
5DF
100
AcDbEntity
  8
3_ALL_AXES
100
AcDbLine
 62
7
  6
CENTER
 10
93.0088561153
 20
30.2345794931
 11
93.0088561153
 21
29.900838973
  0
LINE
  5
5E0
100
AcDbEntity
  8
3_ALL_AXES
100
AcDbLine
 62
7
  6
CENTER
 10
93.0088561153
 20
29.0345794931
 11
93.0088561153
 21
28.7651611531
  0
LINE
  5
5E1
100
AcDbEntity
  8
3_ALL_AXES
100
AcDbLine
 62
7
  6
CENTER
 10
93.0088561153
 20
29.0345794931
 11
93.0088561153
 21
29.3503630882
  0
LINE
  5
5E2
100
AcDbEntity
  8
3_ALL_AXES
100
AcDbLine
 62
7
  6
CENTER
 10
93.0088561153
 20
30.2345794931
 11
93.0088561153
 21
30.5313468643
  0
LINE
  5
5E3
100
AcDbEntity
  8
3_ALL_AXES
100
AcDbLine
 62
9
  6
CONTINUOUS
 10
93.1579112334
 20
28.179712269
 11
93.1579112334
 21
28.4095794931
  0
LINE
  5
5E4
100
AcDbEntity
  8
3_ALL_AXES
100
AcDbLine
 62
9
  6
CONTINUOUS
 10
93.1579112334
 20
28.6095794931
 11
93.1579112334
 21
29.4445794931
  0
LINE
  5
5E5
100
AcDbEntity
  8
3_ALL_AXES
100
AcDbLine
 62
9
  6
CONTINUOUS
 10
93.1579112334
 20
29.8245794931
 11
93.1579112334
 21
30.6595794931
  0
LINE
  5
5E6
100
AcDbEntity
  8
3_ALL_AXES
100
AcDbLine
 62
9
  6
CONTINUOUS
 10
93.1579112334
 20
30.8595794931
 11
93.1579112334
 21
31.0894467171
  0
LINE
  5
5E7
100
AcDbEntity
  8
3_AXES_OTHER
100
AcDbLine
 62
7
  6
CONTINUOUS
 10
93.2405883987
 20
30.8595794931
 11
93.2405883987
 21
30.6595794931
  0
LINE
  5
5E8
100
AcDbEntity
  8
3_AXES_OTHER
100
AcDbLine
 62
7
  6
CONTINUOUS
 10
93.2405883987
 20
28.6095794931
 11
93.2405883987
 21
28.4095794931
  0
LINE
  5
5E9
100
AcDbEntity
  8
3_AXES_OTHER
100
AcDbLine
 62
7
  6
CONTINUOUS
 10
93.2405883987
 20
28.1205965119
 11
93.2405883987
 21
27.9076306742
  0
LINE
  5
5EA
100
AcDbEntity
  8
7_ALL_ROUNDS
100
AcDbLine
 62
7
  6
CONTINUOUS
 10
93.2405883987
 20
29.4445794931
 11
93.2405883987
 21
29.8245794931
  0
LINE
  5
5EB
100
AcDbEntity
  8
3_AXES_OTHER
100
AcDbLine
 62
7
  6
CONTINUOUS
 10
93.2405883987
 20
31.1485624742
 11
93.2405883987
 21
31.3615283119
  0
LINE
  5
5EC
100
AcDbEntity
  8
0
100
AcDbLine
 62
7
  6
CONTINUOUS
 10
93.2878324932
 20
31.2092956907
 11
93.2878324932
 21
30.8595794931
  0
LINE
  5
5ED
100
AcDbEntity
  8
0
100
AcDbLine
 62
7
  6
CONTINUOUS
 10
93.2878324932
 20
30.6595794931
 11
93.2878324932
 21
29.8245794931
  0
LINE
  5
5EE
100
AcDbEntity
  8
7_ALL_ROUNDS
100
AcDbLine
 62
7
  6
CONTINUOUS
 10
93.2878324932
 20
29.8245794931
 11
93.2878324932
 21
29.4445794931
  0
LINE
  5
5EF
100
AcDbEntity
  8
0
100
AcDbLine
 62
7
  6
CONTINUOUS
 10
93.2878324932
 20
29.4445794931
 11
93.2878324932
 21
28.6095794931
  0
LINE
  5
5F0
100
AcDbEntity
  8
0
100
AcDbLine
 62
7
  6
CONTINUOUS
 10
93.2878324932
 20
28.4095794931
 11
93.2878324932
 21
28.0598632954
  0
LINE
  5
5F1
100
AcDbEntity
  8
3_AXES_OTHER
100
AcDbLine
 62
7
  6
CONTINUOUS
 10
93.2878324932
 20
27.9076306742
 11
93.2878324932
 21
28.0598632954
  0
LINE
  5
5F2
100
AcDbEntity
  8
3_ALL_AXES
100
AcDbLine
 62
7
  6
CONTINUOUS
 10
93.2878324932
 20
28.0598632954
 11
93.2878324932
 21
28.4095794931
  0
LINE
  5
5F3
100
AcDbEntity
  8
3_AXES_OTHER
100
AcDbLine
 62
7
  6
CONTINUOUS
 10
93.2878324932
 20
28.4095794931
 11
93.2878324932
 21
29.4445794931
  0
LINE
  5
5F4
100
AcDbEntity
  8
3_AXES_OTHER
100
AcDbLine
 62
7
  6
CONTINUOUS
 10
93.2878324932
 20
29.8245794931
 11
93.2878324932
 21
30.8595794931
  0
LINE
  5
5F5
100
AcDbEntity
  8
3_ALL_AXES
100
AcDbLine
 62
7
  6
CONTINUOUS
 10
93.2878324932
 20
30.8595794931
 11
93.2878324932
 21
31.2092956907
  0
LINE
  5
5F6
100
AcDbEntity
  8
3_AXES_OTHER
100
AcDbLine
 62
7
  6
CONTINUOUS
 10
93.2878324932
 20
31.2092956907
 11
93.2878324932
 21
31.3615283119
  0
LINE
  5
5F7
100
AcDbEntity
  8
3_AXES_OTHER
100
AcDbLine
 62
7
  6
CONTINUOUS
 10
94.1650569027
 20
31.3615283119
 11
94.1650569027
 21
27.9076306742
  0
LINE
  5
5F8
100
AcDbEntity
  8
3_AXES_OTHER
100
AcDbLine
 62
7
  6
CONTINUOUS
 10
15.2482785665
 20
45.1474464038
 11
15.2170698473
 21
46.0411471912
  0
LINE
  5
5F9
100
AcDbEntity
  8
3_AXES_OTHER
100
AcDbLine
 62
7
  6
CONTINUOUS
 10
15.2170698473
 20
46.0411471912
 11
15.2170698473
 21
46.0883912857
  0
LINE
  5
5FA
100
AcDbEntity
  8
7_ALL_ROUNDS
100
AcDbLine
 62
9
  6
CONTINUOUS
 10
15.5873454379
 20
45.1474464038
 11
15.5873454379
 21
45.8298873487
  0
LINE
  5
5FB
100
AcDbEntity
  8
3_AXES_OTHER
100
AcDbLine
 62
7
  6
CONTINUOUS
 10
15.9377391387
 20
45.1474464038
 11
15.9377391387
 21
45.8298873487
  0
LINE
  5
5FC
100
AcDbEntity
  8
3_AXES_OTHER
100
AcDbLine
 62
7
  6
CONTINUOUS
 10
16.0942942568
 20
46.0883912857
 11
16.0942942568
 21
56.0883912857
  0
LINE
  5
5FD
100
AcDbEntity
  8
3_AXES_OTHER
100
AcDbLine
 62
7
  6
CONTINUOUS
 10
16.1415383513
 20
55.0883912857
 11
16.1415383513
 21
56.0883912857
  0
LINE
  5
5FE
100
AcDbEntity
  8
3_ALL_AXES
100
AcDbLine
 62
7
  6
CONTINUOUS
 10
16.2212942568
 20
56.2182797015
 11
16.2212942568
 21
56.171016826
  0
LINE
  5
5FF
100
AcDbEntity
  8
3_ALL_AXES
100
AcDbLine
 62
7
  6
CONTINUOUS
 10
16.5332706347
 20
56.1710684511
 11
16.5332706347
 21
56.2183125456
  0
LINE
  5
600
100
AcDbEntity
  8
3_AXES_OTHER
100
AcDbLine
 62
7
  6
CONTINUOUS
 10
16.6678572489
 20
55.0883912857
 11
16.6678572489
 21
55.3236275062
  0
LINE
  5
601
100
AcDbEntity
  8
3_AXES_OTHER
100
AcDbLine
 62
7
  6
CONTINUOUS
 10
16.7396698724
 20
55.2133912857
 11
16.7396698724
 21
55.3236275062
  0
LINE
  5
602
100
AcDbEntity
  8
7_ALL_ROUNDS
100
AcDbLine
 62
9
  6
CONTINUOUS
 10
16.9583157611
 20
55.2133912857
 11
16.9583157611
 21
55.0883912857
  0
LINE
  5
603
100
AcDbEntity
  8
7_ALL_ROUNDS
100
AcDbLine
 62
9
  6
CONTINUOUS
 10
17.2356664533
 20
55.2133912857
 11
17.2356664533
 21
55.0883912857
  0
LINE
  5
604
100
AcDbEntity
  8
3_AXES_OTHER
100
AcDbLine
 62
7
  6
CONTINUOUS
 10
17.4543123419
 20
55.2133912857
 11
17.4543123419
 21
55.3236275062
  0
LINE
  5
605
100
AcDbEntity
  8
3_AXES_OTHER
100
AcDbLine
 62
7
  6
CONTINUOUS
 10
17.5261249655
 20
55.0883912857
 11
17.5261249655
 21
55.3236275062
  0
LINE
  5
606
100
AcDbEntity
  8
3_ALL_AXES
100
AcDbLine
 62
7
  6
CONTINUOUS
 10
16.1222943146
 20
45.1474464038
 11
16.3076358947
 21
45.8391505978
  0
LINE
  5
607
100
AcDbEntity
  8
7_ALL_ROUNDS
100
AcDbLine
 62
7
  6
CONTINUOUS
 10
34.1307430179
 20
45.1474464038
 11
33.4412824458
 21
45.1474464038
  0
LINE
  5
608
100
AcDbEntity
  8
7_ALL_ROUNDS
100
AcDbLine
 62
7
  6
CONTINUOUS
 10
15.2482785665
 20
45.1474464038
 11
15.9377391387
 21
45.1474464038
  0
LINE
  5
609
100
AcDbEntity
  8
3_AXES_OTHER
100
AcDbLine
 62
7
  6
CONTINUOUS
 10
15.9377391387
 20
45.1474464038
 11
16.1222943146
 21
45.1474464038
  0
LINE
  5
60A
100
AcDbEntity
  8
3_AXES_OTHER
100
AcDbLine
 62
7
  6
CONTINUOUS
 10
33.2567272699
 20
45.1474464038
 11
33.4412824458
 21
45.1474464038
  0
LINE
  5
60B
100
AcDbEntity
  8
3_AXES_OTHER
100
AcDbLine
 62
7
  6
CONTINUOUS
 10
15.2244472036
 20
45.8298873487
 11
15.9377391387
 21
45.8298873487
  0
LINE
  5
60C
100
AcDbEntity
  8
3_AXES_OTHER
100
AcDbLine
 62
7
  6
CONTINUOUS
 10
33.4412824458
 20
45.8298873487
 11
34.1545743808
 21
45.8298873487
  0
LINE
  5
60D
100
AcDbEntity
  8
3_AXES_OTHER
100
AcDbLine
 62
7
  6
CONTINUOUS
 10
15.2170698473
 20
46.0883912857
 11
16.0942942568
 21
46.0883912857
  0
LINE
  5
60E
100
AcDbEntity
  8
3_AXES_OTHER
100
AcDbLine
 62
7
  6
CONTINUOUS
 10
33.2847273277
 20
46.0883912857
 11
34.1619517371
 21
46.0883912857
  0
LINE
  5
60F
100
AcDbEntity
  8
3_AXES_OTHER
100
AcDbLine
 62
7
  6
CONTINUOUS
 10
33.2374832332
 20
55.0883912857
 11
16.1415383513
 21
55.0883912857
  0
LINE
  5
610
100
AcDbEntity
  8
3_AXES_OTHER
100
AcDbLine
 62
7
  6
CONTINUOUS
 10
16.7396698724
 20
55.2133912857
 11
16.9583157611
 21
55.2133912857
  0
LINE
  5
611
100
AcDbEntity
  8
7_ALL_ROUNDS
100
AcDbLine
 62
7
  6
CONTINUOUS
 10
16.9583157611
 20
55.2133912857
 11
17.2356664533
 21
55.2133912857
  0
LINE
  5
612
100
AcDbEntity
  8
3_AXES_OTHER
100
AcDbLine
 62
7
  6
CONTINUOUS
 10
17.2356664533
 20
55.2133912857
 11
17.4543123419
 21
55.2133912857
  0
LINE
  5
613
100
AcDbEntity
  8
3_AXES_OTHER
100
AcDbLine
 62
7
  6
CONTINUOUS
 10
16.6678572489
 20
55.3236275062
 11
17.5261249655
 21
55.3236275062
  0
LINE
  5
614
100
AcDbEntity
  8
3_AXES_OTHER
100
AcDbLine
 62
7
  6
CONTINUOUS
 10
16.0942942568
 20
55.6783887734
 11
16.1415383513
 21
55.6783887734
  0
LINE
  5
615
100
AcDbEntity
  8
3_AXES_OTHER
100
AcDbLine
 62
7
  6
CONTINUOUS
 10
33.2374832332
 20
55.6783887734
 11
33.2847273277
 21
55.6783887734
  0
LINE
  5
616
100
AcDbEntity
  8
3_AXES_OTHER
100
AcDbLine
 62
7
  6
CONTINUOUS
 10
16.0942942568
 20
56.0883912857
 11
16.1415383513
 21
56.0883912857
  0
LINE
  5
617
100
AcDbEntity
  8
3_AXES_OTHER
100
AcDbLine
 62
7
  6
CONTINUOUS
 10
33.2374832332
 20
56.0883912857
 11
33.2847273277
 21
56.0883912857
  0
LINE
  5
618
100
AcDbEntity
  8
3_ALL_AXES
100
AcDbLine
 62
7
  6
CONTINUOUS
 10
16.2242155166
 20
56.1710684511
 11
16.5329586779
 21
56.1710684511
  0
LINE
  5
619
100
AcDbEntity
  8
3_ALL_AXES
100
AcDbLine
 62
7
  6
CONTINUOUS
 10
32.8460629269
 20
56.1710684511
 11
33.1548060678
 21
56.1710684511
  0
LINE
  5
61A
100
AcDbEntity
  8
3_ALL_AXES
100
AcDbLine
 62
7
  6
CONTINUOUS
 10
16.2242155166
 20
56.2183125456
 11
16.5329586575
 21
56.2183125456
  0
LINE
  5
61B
100
AcDbEntity
  8
3_ALL_AXES
100
AcDbLine
 62
7
  6
CONTINUOUS
 10
32.8460629065
 20
56.2183125456
 11
33.1548060678
 21
56.2183125456
  0
LINE
  5
61C
100
AcDbEntity
  8
3_ALL_AXES
100
AcDbLine
 62
7
  6
CONTINUOUS
 10
33.0713856897
 20
45.8391505978
 11
33.2567272699
 21
45.1474464038
  0
LINE
  5
61D
100
AcDbEntity
  8
3_ALL_AXES
100
AcDbLine
 62
7
  6
CONTINUOUS
 10
32.8457509497
 20
56.1710684511
 11
32.8457509497
 21
56.2183125456
  0
LINE
  5
61E
100
AcDbEntity
  8
3_ALL_AXES
100
AcDbLine
 62
7
  6
CONTINUOUS
 10
32.8468910338
 20
56.1710684511
 11
32.8468910338
 21
56.2183125456
  0
LINE
  5
61F
100
AcDbEntity
  8
3_ALL_AXES
100
AcDbLine
 62
7
  6
CONTINUOUS
 10
33.1577273277
 20
56.2182797015
 11
33.1577273277
 21
56.171016826
  0
LINE
  5
620
100
AcDbEntity
  8
3_AXES_OTHER
100
AcDbLine
 62
7
  6
CONTINUOUS
 10
33.2374832332
 20
55.0883912857
 11
33.2374832332
 21
56.0883912857
  0
LINE
  5
621
100
AcDbEntity
  8
3_AXES_OTHER
100
AcDbLine
 62
7
  6
CONTINUOUS
 10
33.2847273277
 20
56.0883912857
 11
33.2847273277
 21
46.0883912857
  0
LINE
  5
622
100
AcDbEntity
  8
3_AXES_OTHER
100
AcDbLine
 62
7
  6
CONTINUOUS
 10
33.4412824458
 20
45.1474464038
 11
33.4412824458
 21
45.8298873487
  0
LINE
  5
623
100
AcDbEntity
  8
7_ALL_ROUNDS
100
AcDbLine
 62
9
  6
CONTINUOUS
 10
33.7916761466
 20
45.1474464038
 11
33.7916761466
 21
45.8298873487
  0
LINE
  5
624
100
AcDbEntity
  8
3_AXES_OTHER
100
AcDbLine
 62
7
  6
CONTINUOUS
 10
34.1619517371
 20
46.0411471912
 11
34.1619517371
 21
46.0883912857
  0
LINE
  5
625
100
AcDbEntity
  8
3_AXES_OTHER
100
AcDbLine
 62
7
  6
CONTINUOUS
 10
34.1307430179
 20
45.1474464038
 11
34.1619517371
 21
46.0411471912
  0
ARC
  5
626
100
AcDbEntity
  8
3_AXES_OTHER
100
AcDbCircle
 62
7
  6
CONTINUOUS
 10
126.1085588136
 20
122.3262726963
 40
83.2853960343
100
AcDbArc
 50
241.884854644
 51
243.5644434946
  0
ARC
  5
627
100
AcDbEntity
  8
3_AXES_OTHER
100
AcDbCircle
 62
7
  6
CONTINUOUS
 10
126.0711974647
 20
120.7141858513
 40
83.2052557037
100
AcDbArc
 50
241.8845389274
 51
243.4877183392
  0
ARC
  5
628
100
AcDbEntity
  8
3_ALL_AXES
100
AcDbCircle
 62
7
  6
CONTINUOUS
 10
124.7875305255
 20
120.0673811028
 40
80.4254426558
100
AcDbArc
 50
239.7700279163
 51
243.7504777226
  0
ARC
  5
629
100
AcDbEntity
  8
3_ALL_AXES
100
AcDbCircle
 62
7
  6
CONTINUOUS
 10
124.6765649505
 20
117.6115264544
 40
80.1998321667
100
AcDbArc
 50
239.7678590612
 51
243.5283752395
  0
ARC
  5
62A
100
AcDbEntity
  8
0
100
AcDbCircle
 62
7
  6
CONTINUOUS
 10
123.5487898052
 20
117.4171492018
 40
77.9303009789
100
AcDbArc
 50
240.0802929216
 51
240.7979680689
  0
ARC
  5
62B
100
AcDbEntity
  8
0
100
AcDbCircle
 62
7
  6
CONTINUOUS
 10
123.531326642
 20
116.221467608
 40
77.8930829092
100
AcDbArc
 50
239.7540483559
 51
240.7990146286
  0
ARC
  5
62C
100
AcDbEntity
  8
0
100
AcDbCircle
 62
7
  6
CONTINUOUS
 10
123.534985111
 20
116.2280843514
 40
77.7444987098
100
AcDbArc
 50
239.7533424833
 51
240.7325849783
  0
ARC
  5
62D
100
AcDbEntity
  8
0
100
AcDbCircle
 62
7
  6
CONTINUOUS
 10
122.7274151468
 20
117.2983022566
 40
77.4166134989
100
AcDbArc
 50
240.0844501844
 51
240.2359838797
  0
ARC
  5
62E
100
AcDbEntity
  8
0
100
AcDbCircle
 62
7
  6
CONTINUOUS
 10
122.639216454
 20
115.9817412908
 40
77.2393571644
100
AcDbArc
 50
239.9326271193
 51
240.2361578016
  0
ARC
  5
62F
100
AcDbEntity
  8
0
100
AcDbCircle
 62
7
  6
CONTINUOUS
 10
122.7018305946
 20
116.090605508
 40
77.2087961777
100
AcDbArc
 50
239.9997225887
 51
240.2360632764
  0
ARC
  5
630
100
AcDbEntity
  8
3_ALL_AXES
100
AcDbCircle
 62
7
  6
CONTINUOUS
 10
120.0127933333
 20
110.9457090313
 40
72.0955281155
100
AcDbArc
 50
236.0202975487
 51
240.3028671967
  0
ARC
  5
631
100
AcDbEntity
  8
3_ALL_AXES
100
AcDbCircle
 62
7
  6
CONTINUOUS
 10
120.0127933333
 20
113.2051050928
 40
72.0955281155
100
AcDbArc
 50
236.0202975487
 51
240.3028671967
  0
ARC
  5
632
100
AcDbEntity
  8
3_AXES_OTHER
100
AcDbCircle
 62
7
  6
CONTINUOUS
 10
118.9604366112
 20
111.3299680534
 40
70.1833767821
100
AcDbArc
 50
236.0937722359
 51
238.0451957627
  0
ARC
  5
633
100
AcDbEntity
  8
3_AXES_OTHER
100
AcDbCircle
 62
7
  6
CONTINUOUS
 10
118.9604366112
 20
109.7887812268
 40
70.1833767821
100
AcDbArc
 50
236.0937722359
 51
238.0451957627
  0
ARC
  5
634
100
AcDbEntity
  8
3_ALL_AXES
100
AcDbCircle
 62
7
  6
CONTINUOUS
 10
96.2925795369
 20
49.906419664
 40
1.3665573076
100
AcDbArc
 50
204.0015090338
 51
207.1539165349
  0
ARC
  5
635
100
AcDbEntity
  8
3_ALL_AXES
100
AcDbCircle
 62
7
  6
CONTINUOUS
 10
96.2682183954
 20
49.8953631191
 40
1.3398052041
100
AcDbArc
 50
203.6540890329
 51
203.9933246858
  0
ARC
  5
636
100
AcDbEntity
  8
3_AXES_OTHER
100
AcDbCircle
 62
7
  6
CONTINUOUS
 10
85.4099139652
 20
56.1586785353
 40
0.6004103863
100
AcDbArc
 50
111.2823110805
 51
113.2798901241
  0
ARC
  5
637
100
AcDbEntity
  8
3_AXES_OTHER
100
AcDbCircle
 62
7
  6
CONTINUOUS
 10
95.1231072155
 20
50.5492952307
 40
0.6004103863
100
AcDbArc
 50
111.2823110805
 51
113.2798901241
  0
ARC
  5
638
100
AcDbEntity
  8
3_ALL_AXES
100
AcDbCircle
 62
7
  6
CONTINUOUS
 10
86.1075991549
 20
48.3187019352
 40
0.5150071819
100
AcDbArc
 50
56.5388659142
 51
60.1792194992
  0
ARC
  5
639
100
AcDbEntity
  8
3_ALL_AXES
100
AcDbCircle
 62
7
  6
CONTINUOUS
 10
86.7607090335
 20
48.7222548549
 40
0.4912102471
100
AcDbArc
 50
180.0532472971
 51
184.3827043327
  0
ARC
  5
63A
100
AcDbEntity
  8
3_ALL_AXES
100
AcDbCircle
 62
7
  6
CONTINUOUS
 10
86.2671188696
 20
48.178471666
 40
0.4445837121
100
AcDbArc
 50
0.0005104958
 51
0.4387059154
  0
ARC
  5
63B
100
AcDbEntity
  8
3_AXES_OTHER
100
AcDbCircle
 62
7
  6
CONTINUOUS
 10
85.383200969
 20
56.4187183143
 40
0.3171428978
100
AcDbArc
 50
81.2053351879
 51
86.054943368
  0
ARC
  5
63C
100
AcDbEntity
  8
3_AXES_OTHER
100
AcDbCircle
 62
7
  6
CONTINUOUS
 10
95.0963942193
 20
50.8093350098
 40
0.3171428978
100
AcDbArc
 50
81.2053351879
 51
86.054943368
  0
ARC
  5
63D
100
AcDbEntity
  8
3_ALL_AXES
100
AcDbCircle
 62
7
  6
CONTINUOUS
 10
95.269038966
 20
50.8920786038
 40
0.2653215031
100
AcDbArc
 50
117.900908371
 51
118.3012284339
  0
ARC
  5
63E
100
AcDbEntity
  8
3_ALL_AXES
100
AcDbCircle
 62
7
  6
CONTINUOUS
 10
95.1371709709
 20
51.2961720566
 40
0.1764043328
100
AcDbArc
 50
272.5057827142
 51
273.429153564
  0
ARC
  5
63F
100
AcDbEntity
  8
3_ALL_AXES
100
AcDbCircle
 62
7
  6
CONTINUOUS
 10
85.4174228059
 20
56.5709315254
 40
0.1653748309
100
AcDbArc
 50
36.4344528188
 51
38.8127150775
  0
ARC
  5
640
100
AcDbEntity
  8
3_ALL_AXES
100
AcDbCircle
 62
7
  6
CONTINUOUS
 10
85.4037469534
 20
56.5920474646
 40
0.1531464116
100
AcDbArc
 50
78.5461628335
 51
79.8179661468
  0
ARC
  5
641
100
AcDbEntity
  8
3_ALL_AXES
100
AcDbCircle
 62
7
  6
CONTINUOUS
 10
95.214480613
 20
49.477332043
 40
0.1256376672
100
AcDbArc
 50
217.2163068551
 51
223.4035869887
  0
ARC
  5
642
100
AcDbEntity
  8
3_ALL_AXES
100
AcDbCircle
 62
7
  6
CONTINUOUS
 10
95.214480613
 20
50.9491883838
 40
0.1256376672
100
AcDbArc
 50
217.2163068554
 51
223.4035869885
  0
ARC
  5
643
100
AcDbEntity
  8
3_ALL_AXES
100
AcDbCircle
 62
7
  6
CONTINUOUS
 10
85.5541391937
 20
56.0107724675
 40
0.0966890624
100
AcDbArc
 50
27.0774431121
 51
33.7208518172
  0
ARC
  5
644
100
AcDbEntity
  8
3_ALL_AXES
100
AcDbCircle
 62
7
  6
CONTINUOUS
 10
85.5912505559
 20
56.0751338448
 40
0.01890857
100
AcDbArc
 50
119.910585752
 51
129.7276378297
  0
CIRCLE
  5
645
100
AcDbEntity
  8
3_ALL_AXES
100
AcDbCircle
 62
7
  6
CONTINUOUS
 10
28.2776997686
 20
29.7591661072
 40
0.6102362205
  0
CIRCLE
  5
646
100
AcDbEntity
  8
7_ALL_ROUNDS
100
AcDbCircle
 62
7
  6
CONTINUOUS
 10
28.2776997686
 20
29.7591661072
 40
0.4330708661
  0
ARC
  5
647
100
AcDbEntity
  8
7_ALL_ROUNDS
100
AcDbCircle
 62
7
  6
CONTINUOUS
 10
33.7916761466
 20
28.1782015403
 40
0.3503937008
100
AcDbArc
 50
90.0
 51
180.0
  0
ARC
  5
648
100
AcDbEntity
  8
7_ALL_ROUNDS
100
AcDbCircle
 62
7
  6
CONTINUOUS
 10
33.7916761466
 20
31.0909574458
 40
0.3503937008
100
AcDbArc
 50
180.0
 51
270.0
  0
ARC
  5
649
100
AcDbEntity
  8
7_ALL_ROUNDS
100
AcDbCircle
 62
7
  6
CONTINUOUS
 10
15.5873454379
 20
28.1782015403
 40
0.3503937008
100
AcDbArc
 50
0.0
 51
90.0
  0
ARC
  5
64A
100
AcDbEntity
  8
7_ALL_ROUNDS
100
AcDbCircle
 62
7
  6
CONTINUOUS
 10
15.5873454379
 20
31.0909574458
 40
0.3503937008
100
AcDbArc
 50
270.0
 51
360.0
  0
CIRCLE
  5
64B
100
AcDbEntity
  8
3_ALL_AXES
100
AcDbCircle
 62
7
  6
CONTINUOUS
 10
21.0930540993
 20
29.5460952411
 40
0.2952755906
  0
CIRCLE
  5
64C
100
AcDbEntity
  8
7_ALL_ROUNDS
100
AcDbCircle
 62
7
  6
CONTINUOUS
 10
21.0930540993
 20
29.5460952411
 40
0.2381889764
  0
ARC
  5
64D
100
AcDbEntity
  8
3_AXES_OTHER
100
AcDbCircle
 62
7
  6
CONTINUOUS
 10
15.5856525245
 20
28.1345794931
 40
0.127992126
100
AcDbArc
 50
270.0
 51
90.0
  0
ARC
  5
64E
100
AcDbEntity
  8
3_AXES_OTHER
100
AcDbCircle
 62
7
  6
CONTINUOUS
 10
15.4556525245
 20
28.1345794931
 40
0.127992126
100
AcDbArc
 50
90.0
 51
270.0
  0
ARC
  5
64F
100
AcDbEntity
  8
3_AXES_OTHER
100
AcDbCircle
 62
7
  6
CONTINUOUS
 10
15.4556525245
 20
31.1345794931
 40
0.127992126
100
AcDbArc
 50
90.0
 51
270.0
  0
ARC
  5
650
100
AcDbEntity
  8
3_AXES_OTHER
100
AcDbCircle
 62
7
  6
CONTINUOUS
 10
15.5856525245
 20
31.1345794931
 40
0.127992126
100
AcDbArc
 50
270.0
 51
90.0
  0
ARC
  5
651
100
AcDbEntity
  8
3_AXES_OTHER
100
AcDbCircle
 62
7
  6
CONTINUOUS
 10
33.9233690599
 20
28.1345794931
 40
0.127992126
100
AcDbArc
 50
270.0
 51
90.0
  0
ARC
  5
652
100
AcDbEntity
  8
3_AXES_OTHER
100
AcDbCircle
 62
7
  6
CONTINUOUS
 10
33.7933690599
 20
28.1345794931
 40
0.127992126
100
AcDbArc
 50
90.0
 51
270.0
  0
ARC
  5
653
100
AcDbEntity
  8
3_AXES_OTHER
100
AcDbCircle
 62
7
  6
CONTINUOUS
 10
33.7933690599
 20
31.1345794931
 40
0.127992126
100
AcDbArc
 50
90.0
 51
270.0
  0
ARC
  5
654
100
AcDbEntity
  8
3_AXES_OTHER
100
AcDbCircle
 62
7
  6
CONTINUOUS
 10
33.9233690599
 20
31.1345794931
 40
0.127992126
100
AcDbArc
 50
270.0
 51
90.0
  0
CIRCLE
  5
655
100
AcDbEntity
  8
7_ALL_ROUNDS
100
AcDbCircle
 62
9
  6
CONTINUOUS
 10
28.2776997686
 20
29.7591661072
 40
0.1181102362
  0
CIRCLE
  5
656
100
AcDbEntity
  8
7_ALL_ROUNDS
100
AcDbCircle
 62
9
  6
CONTINUOUS
 10
21.0930540993
 20
29.5460952411
 40
0.0545369482
  0
ARC
  5
657
100
AcDbEntity
  8
3_AXES_OTHER
100
AcDbCircle
 62
7
  6
CONTINUOUS
 10
56.9122877248
 20
28.9015283119
 40
1.0019685039
100
AcDbArc
 50
277.277171658
 51
302.402687942
  0
ARC
  5
658
100
AcDbEntity
  8
3_AXES_OTHER
100
AcDbCircle
 62
7
  6
CONTINUOUS
 10
56.9122877248
 20
30.3676306742
 40
1.0019685039
100
AcDbArc
 50
57.597312058
 51
82.722828342
  0
ARC
  5
659
100
AcDbEntity
  8
7_ALL_ROUNDS
100
AcDbCircle
 62
7
  6
CONTINUOUS
 10
57.2522011106
 20
29.6995794931
 40
0.125
100
AcDbArc
 50
90.0
 51
180.0
  0
ARC
  5
65A
100
AcDbEntity
  8
7_ALL_ROUNDS
100
AcDbCircle
 62
7
  6
CONTINUOUS
 10
57.2522011106
 20
29.5695794931
 40
0.125
100
AcDbArc
 50
180.0
 51
270.0
  0
ARC
  5
65B
100
AcDbEntity
  8
3_ALL_AXES
100
AcDbCircle
 62
7
  6
CONTINUOUS
 10
56.7622011106
 20
30.7595794931
 40
0.1
100
AcDbArc
 50
90.0
 51
270.0
  0
ARC
  5
65C
100
AcDbEntity
  8
3_ALL_AXES
100
AcDbCircle
 62
7
  6
CONTINUOUS
 10
56.8622011106
 20
30.7595794931
 40
0.1
100
AcDbArc
 50
270.0
 51
90.0
  0
ARC
  5
65D
100
AcDbEntity
  8
3_ALL_AXES
100
AcDbCircle
 62
7
  6
CONTINUOUS
 10
56.8622011106
 20
28.5095794931
 40
0.1
100
AcDbArc
 50
270.0
 51
90.0
  0
ARC
  5
65E
100
AcDbEntity
  8
3_ALL_AXES
100
AcDbCircle
 62
7
  6
CONTINUOUS
 10
56.7622011106
 20
28.5095794931
 40
0.1
100
AcDbArc
 50
90.0
 51
270.0
  0
ARC
  5
65F
100
AcDbEntity
  8
3_AXES_OTHER
100
AcDbCircle
 62
7
  6
CONTINUOUS
 10
57.2522011106
 20
30.7595794931
 40
0.1
100
AcDbArc
 50
90.0
 51
270.0
  0
ARC
  5
660
100
AcDbEntity
  8
3_AXES_OTHER
100
AcDbCircle
 62
7
  6
CONTINUOUS
 10
57.2522011106
 20
28.5095794931
 40
0.1
100
AcDbArc
 50
90.0
 51
270.0
  0
CIRCLE
  5
661
100
AcDbEntity
  8
3_ALL_AXES
100
AcDbCircle
 62
7
  6
CONTINUOUS
 10
57.2522011106
 20
30.2345794931
 40
0.07
  0
CIRCLE
  5
662
100
AcDbEntity
  8
3_ALL_AXES
100
AcDbCircle
 62
7
  6
CONTINUOUS
 10
57.2522011106
 20
29.0345794931
 40
0.07
  0
ARC
  5
663
100
AcDbEntity
  8
3_ALL_AXES
100
AcDbCircle
 62
7
  6
CONTINUOUS
 10
75.5887576901
 20
28.1345794931
 40
0.127992126
100
AcDbArc
 50
270.0
 51
90.0
  0
ARC
  5
664
100
AcDbEntity
  8
3_ALL_AXES
100
AcDbCircle
 62
7
  6
CONTINUOUS
 10
75.4587576901
 20
28.1345794931
 40
0.127992126
100
AcDbArc
 50
90.0
 51
270.0
  0
ARC
  5
665
100
AcDbEntity
  8
3_ALL_AXES
100
AcDbCircle
 62
7
  6
CONTINUOUS
 10
76.2273206822
 20
28.5095794931
 40
0.1
100
AcDbArc
 50
270.0
 51
90.0
  0
ARC
  5
666
100
AcDbEntity
  8
3_ALL_AXES
100
AcDbCircle
 62
7
  6
CONTINUOUS
 10
75.5352357162
 20
28.9015283119
 40
1.0
100
AcDbArc
 50
313.5639453696
 51
0.1272368631
  0
CIRCLE
  5
667
100
AcDbEntity
  8
3_ALL_AXES
100
AcDbCircle
 62
7
  6
CONTINUOUS
 10
77.8766710759
 20
28.9621779182
 40
0.4408070866
  0
CIRCLE
  5
668
100
AcDbEntity
  8
3_ALL_AXES
100
AcDbCircle
 62
7
  6
CONTINUOUS
 10
77.8766710759
 20
28.9621779182
 40
0.428996063
  0
CIRCLE
  5
669
100
AcDbEntity
  8
3_ALL_AXES
100
AcDbCircle
 62
7
  6
CONTINUOUS
 10
77.8766710759
 20
28.9621779182
 40
0.32
  0
ARC
  5
66A
100
AcDbEntity
  8
7_ALL_ROUNDS
100
AcDbCircle
 62
7
  6
CONTINUOUS
 10
76.2550765877
 20
29.5695794931
 40
0.125
100
AcDbArc
 50
270.0
 51
360.0
  0
CIRCLE
  5
66B
100
AcDbEntity
  8
3_ALL_AXES
100
AcDbCircle
 62
7
  6
CONTINUOUS
 10
76.3763758003
 20
29.0345794931
 40
0.07
  0
CIRCLE
  5
66C
100
AcDbEntity
  8
3_ALL_AXES
100
AcDbCircle
 62
7
  6
CONTINUOUS
 10
78.0341513909
 20
28.9621779182
 40
0.0465
  0
CIRCLE
  5
66D
100
AcDbEntity
  8
3_ALL_AXES
100
AcDbCircle
 62
7
  6
CONTINUOUS
 10
77.7191907609
 20
28.9621779182
 40
0.0465
  0
CIRCLE
  5
66E
100
AcDbEntity
  8
3_ALL_AXES
100
AcDbCircle
 62
7
  6
CONTINUOUS
 10
77.8766710759
 20
29.1196582332
 40
0.0465
  0
CIRCLE
  5
66F
100
AcDbEntity
  8
3_ALL_AXES
100
AcDbCircle
 62
7
  6
CONTINUOUS
 10
81.0656474539
 20
28.9621779182
 40
0.4408070866
  0
CIRCLE
  5
670
100
AcDbEntity
  8
3_ALL_AXES
100
AcDbCircle
 62
7
  6
CONTINUOUS
 10
80.0026553279
 20
28.9621779182
 40
0.4408070866
  0
CIRCLE
  5
671
100
AcDbEntity
  8
3_ALL_AXES
100
AcDbCircle
 62
7
  6
CONTINUOUS
 10
78.9396632019
 20
28.9621779182
 40
0.4408070866
  0
CIRCLE
  5
672
100
AcDbEntity
  8
3_ALL_AXES
100
AcDbCircle
 62
7
  6
CONTINUOUS
 10
81.0656474539
 20
28.9621779182
 40
0.428996063
  0
CIRCLE
  5
673
100
AcDbEntity
  8
3_ALL_AXES
100
AcDbCircle
 62
7
  6
CONTINUOUS
 10
80.0026553279
 20
28.9621779182
 40
0.428996063
  0
CIRCLE
  5
674
100
AcDbEntity
  8
3_ALL_AXES
100
AcDbCircle
 62
7
  6
CONTINUOUS
 10
78.9396632019
 20
28.9621779182
 40
0.428996063
  0
CIRCLE
  5
675
100
AcDbEntity
  8
3_ALL_AXES
100
AcDbCircle
 62
7
  6
CONTINUOUS
 10
81.0656474539
 20
28.9621779182
 40
0.32
  0
CIRCLE
  5
676
100
AcDbEntity
  8
3_ALL_AXES
100
AcDbCircle
 62
7
  6
CONTINUOUS
 10
80.0026553279
 20
28.9621779182
 40
0.32
  0
CIRCLE
  5
677
100
AcDbEntity
  8
3_ALL_AXES
100
AcDbCircle
 62
7
  6
CONTINUOUS
 10
78.9396632019
 20
28.9621779182
 40
0.32
  0
CIRCLE
  5
678
100
AcDbEntity
  8
3_ALL_AXES
100
AcDbCircle
 62
7
  6
CONTINUOUS
 10
79.0971435168
 20
28.9621779182
 40
0.0465
  0
CIRCLE
  5
679
100
AcDbEntity
  8
3_ALL_AXES
100
AcDbCircle
 62
7
  6
CONTINUOUS
 10
78.7821828869
 20
28.9621779182
 40
0.0465
  0
CIRCLE
  5
67A
100
AcDbEntity
  8
3_ALL_AXES
100
AcDbCircle
 62
7
  6
CONTINUOUS
 10
78.9396632019
 20
29.1196582332
 40
0.0465
  0
CIRCLE
  5
67B
100
AcDbEntity
  8
3_ALL_AXES
100
AcDbCircle
 62
7
  6
CONTINUOUS
 10
80.1601356428
 20
28.9621779182
 40
0.0465
  0
CIRCLE
  5
67C
100
AcDbEntity
  8
3_ALL_AXES
100
AcDbCircle
 62
7
  6
CONTINUOUS
 10
79.8451750129
 20
28.9621779182
 40
0.0465
  0
CIRCLE
  5
67D
100
AcDbEntity
  8
3_ALL_AXES
100
AcDbCircle
 62
7
  6
CONTINUOUS
 10
80.0026553279
 20
29.1196582332
 40
0.0465
  0
CIRCLE
  5
67E
100
AcDbEntity
  8
3_ALL_AXES
100
AcDbCircle
 62
7
  6
CONTINUOUS
 10
81.2231277688
 20
28.9621779182
 40
0.0465
  0
CIRCLE
  5
67F
100
AcDbEntity
  8
3_ALL_AXES
100
AcDbCircle
 62
7
  6
CONTINUOUS
 10
80.9081671389
 20
28.9621779182
 40
0.0465
  0
CIRCLE
  5
680
100
AcDbEntity
  8
3_ALL_AXES
100
AcDbCircle
 62
7
  6
CONTINUOUS
 10
81.0656474539
 20
29.1196582332
 40
0.0465
  0
ARC
  5
681
100
AcDbEntity
  8
3_ALL_AXES
100
AcDbCircle
 62
7
  6
CONTINUOUS
 10
75.5352357162
 20
30.3676306742
 40
1.0
100
AcDbArc
 50
359.8727632002
 51
46.4360546304
  0
CIRCLE
  5
682
100
AcDbEntity
  8
3_ALL_AXES
100
AcDbCircle
 62
7
  6
CONTINUOUS
 10
78.9396632019
 20
30.3007212253
 40
0.4393700787
  0
CIRCLE
  5
683
100
AcDbEntity
  8
3_ALL_AXES
100
AcDbCircle
 62
7
  6
CONTINUOUS
 10
77.8766710759
 20
30.3007212253
 40
0.4393700787
  0
CIRCLE
  5
684
100
AcDbEntity
  8
3_ALL_AXES
100
AcDbCircle
 62
7
  6
CONTINUOUS
 10
78.9396632019
 20
30.3007212253
 40
0.4275590551
  0
CIRCLE
  5
685
100
AcDbEntity
  8
3_ALL_AXES
100
AcDbCircle
 62
7
  6
CONTINUOUS
 10
77.8766710759
 20
30.3007212253
 40
0.4275590551
  0
CIRCLE
  5
686
100
AcDbEntity
  8
3_ALL_AXES
100
AcDbCircle
 62
7
  6
CONTINUOUS
 10
78.9396632019
 20
30.3007212253
 40
0.3838582677
  0
CIRCLE
  5
687
100
AcDbEntity
  8
3_ALL_AXES
100
AcDbCircle
 62
7
  6
CONTINUOUS
 10
77.8766710759
 20
30.3007212253
 40
0.3838582677
  0
ARC
  5
688
100
AcDbEntity
  8
3_ALL_AXES
100
AcDbCircle
 62
7
  6
CONTINUOUS
 10
77.8766710759
 20
30.3007212253
 40
0.3100393701
100
AcDbArc
 50
102.0944477342
 51
77.9055522658
  0
ARC
  5
689
100
AcDbEntity
  8
3_ALL_AXES
100
AcDbCircle
 62
7
  6
CONTINUOUS
 10
78.9396632019
 20
30.3007212253
 40
0.3100393701
100
AcDbArc
 50
102.0944477342
 51
77.9055522658
  0
ARC
  5
68A
100
AcDbEntity
  8
7_ALL_ROUNDS
100
AcDbCircle
 62
7
  6
CONTINUOUS
 10
76.2550765877
 20
29.6995794931
 40
0.125
100
AcDbArc
 50
0.0
 51
90.0
  0
CIRCLE
  5
68B
100
AcDbEntity
  8
3_ALL_AXES
100
AcDbCircle
 62
7
  6
CONTINUOUS
 10
76.3763758003
 20
30.2345794931
 40
0.07
  0
CIRCLE
  5
68C
100
AcDbEntity
  8
3_ALL_AXES
100
AcDbCircle
 62
7
  6
CONTINUOUS
 10
78.7775372176
 20
30.3007212253
 40
0.05
  0
CIRCLE
  5
68D
100
AcDbEntity
  8
3_ALL_AXES
100
AcDbCircle
 62
7
  6
CONTINUOUS
 10
79.1017891861
 20
30.3007212253
 40
0.05
  0
CIRCLE
  5
68E
100
AcDbEntity
  8
3_ALL_AXES
100
AcDbCircle
 62
7
  6
CONTINUOUS
 10
78.9396632019
 20
30.1385952411
 40
0.05
  0
CIRCLE
  5
68F
100
AcDbEntity
  8
3_ALL_AXES
100
AcDbCircle
 62
7
  6
CONTINUOUS
 10
77.7145450916
 20
30.3007212253
 40
0.05
  0
CIRCLE
  5
690
100
AcDbEntity
  8
3_ALL_AXES
100
AcDbCircle
 62
7
  6
CONTINUOUS
 10
78.0387970602
 20
30.3007212253
 40
0.05
  0
CIRCLE
  5
691
100
AcDbEntity
  8
3_ALL_AXES
100
AcDbCircle
 62
7
  6
CONTINUOUS
 10
77.8766710759
 20
30.1385952411
 40
0.05
  0
ARC
  5
692
100
AcDbEntity
  8
3_ALL_AXES
100
AcDbCircle
 62
7
  6
CONTINUOUS
 10
75.4587576901
 20
31.1345794931
 40
0.127992126
100
AcDbArc
 50
90.0
 51
270.0
  0
ARC
  5
693
100
AcDbEntity
  8
3_ALL_AXES
100
AcDbCircle
 62
7
  6
CONTINUOUS
 10
75.5887576901
 20
31.1345794931
 40
0.127992126
100
AcDbArc
 50
270.0
 51
90.0
  0
ARC
  5
694
100
AcDbEntity
  8
3_ALL_AXES
100
AcDbCircle
 62
7
  6
CONTINUOUS
 10
76.2273206822
 20
30.7595794931
 40
0.1
100
AcDbArc
 50
270.0
 51
90.0
  0
CIRCLE
  5
695
100
AcDbEntity
  8
3_ALL_AXES
100
AcDbCircle
 62
7
  6
CONTINUOUS
 10
83.6443876113
 20
29.6345794931
 40
1.5196850394
  0
CIRCLE
  5
696
100
AcDbEntity
  8
3_ALL_AXES
100
AcDbCircle
 62
7
  6
CONTINUOUS
 10
81.0656474539
 20
30.3007212253
 40
0.4393700787
  0
CIRCLE
  5
697
100
AcDbEntity
  8
3_ALL_AXES
100
AcDbCircle
 62
7
  6
CONTINUOUS
 10
80.0026553279
 20
30.3007212253
 40
0.4393700787
  0
CIRCLE
  5
698
100
AcDbEntity
  8
3_ALL_AXES
100
AcDbCircle
 62
7
  6
CONTINUOUS
 10
81.0656474539
 20
30.3007212253
 40
0.4275590551
  0
CIRCLE
  5
699
100
AcDbEntity
  8
3_ALL_AXES
100
AcDbCircle
 62
7
  6
CONTINUOUS
 10
80.0026553279
 20
30.3007212253
 40
0.4275590551
  0
CIRCLE
  5
69A
100
AcDbEntity
  8
3_ALL_AXES
100
AcDbCircle
 62
7
  6
CONTINUOUS
 10
81.0656474539
 20
30.3007212253
 40
0.3838582677
  0
CIRCLE
  5
69B
100
AcDbEntity
  8
3_ALL_AXES
100
AcDbCircle
 62
7
  6
CONTINUOUS
 10
80.0026553279
 20
30.3007212253
 40
0.3838582677
  0
ARC
  5
69C
100
AcDbEntity
  8
3_ALL_AXES
100
AcDbCircle
 62
7
  6
CONTINUOUS
 10
80.0026553279
 20
30.3007212253
 40
0.3100393701
100
AcDbArc
 50
102.0944477342
 51
77.9055522658
  0
ARC
  5
69D
100
AcDbEntity
  8
3_ALL_AXES
100
AcDbCircle
 62
7
  6
CONTINUOUS
 10
81.0656474539
 20
30.3007212253
 40
0.3100393701
100
AcDbArc
 50
102.0944477342
 51
77.9055522658
  0
CIRCLE
  5
69E
100
AcDbEntity
  8
3_ALL_AXES
100
AcDbCircle
 62
7
  6
CONTINUOUS
 10
80.9035214696
 20
30.3007212253
 40
0.05
  0
CIRCLE
  5
69F
100
AcDbEntity
  8
3_ALL_AXES
100
AcDbCircle
 62
7
  6
CONTINUOUS
 10
81.2277734381
 20
30.3007212253
 40
0.05
  0
CIRCLE
  5
6A0
100
AcDbEntity
  8
3_ALL_AXES
100
AcDbCircle
 62
7
  6
CONTINUOUS
 10
81.0656474539
 20
30.1385952411
 40
0.05
  0
CIRCLE
  5
6A1
100
AcDbEntity
  8
3_ALL_AXES
100
AcDbCircle
 62
7
  6
CONTINUOUS
 10
79.8405293436
 20
30.3007212253
 40
0.05
  0
CIRCLE
  5
6A2
100
AcDbEntity
  8
3_ALL_AXES
100
AcDbCircle
 62
7
  6
CONTINUOUS
 10
80.1647813121
 20
30.3007212253
 40
0.05
  0
CIRCLE
  5
6A3
100
AcDbEntity
  8
3_ALL_AXES
100
AcDbCircle
 62
7
  6
CONTINUOUS
 10
80.0026553279
 20
30.1385952411
 40
0.05
  0
ARC
  5
6A4
100
AcDbEntity
  8
3_ALL_AXES
100
AcDbCircle
 62
7
  6
CONTINUOUS
 10
93.8499961994
 20
28.9015283119
 40
1.0
100
AcDbArc
 50
179.8727632002
 51
226.4360546304
  0
CIRCLE
  5
6A5
100
AcDbEntity
  8
3_ALL_AXES
100
AcDbCircle
 62
7
  6
CONTINUOUS
 10
89.4180096586
 20
28.8932802805
 40
0.4724409449
  0
CIRCLE
  5
6A6
100
AcDbEntity
  8
3_ALL_AXES
100
AcDbCircle
 62
7
  6
CONTINUOUS
 10
88.0400569027
 20
28.8932802805
 40
0.4724409449
  0
CIRCLE
  5
6A7
100
AcDbEntity
  8
3_ALL_AXES
100
AcDbCircle
 62
7
  6
CONTINUOUS
 10
86.6621041468
 20
28.8932802805
 40
0.4724409449
  0
CIRCLE
  5
6A8
100
AcDbEntity
  8
3_ALL_AXES
100
AcDbCircle
 62
7
  6
CONTINUOUS
 10
89.4180096586
 20
28.8932802805
 40
0.4625984252
  0
CIRCLE
  5
6A9
100
AcDbEntity
  8
3_ALL_AXES
100
AcDbCircle
 62
7
  6
CONTINUOUS
 10
88.0400569027
 20
28.8932802805
 40
0.4625984252
  0
CIRCLE
  5
6AA
100
AcDbEntity
  8
3_ALL_AXES
100
AcDbCircle
 62
7
  6
CONTINUOUS
 10
86.6621041468
 20
28.8932802805
 40
0.4625984252
  0
ARC
  5
6AB
100
AcDbEntity
  8
3_AXES_OTHER
100
AcDbCircle
 62
7
  6
CONTINUOUS
 10
86.6621041468
 20
28.8932802805
 40
0.3513779528
100
AcDbArc
 50
100.9805754276
 51
252.6130447223
  0
ARC
  5
6AC
100
AcDbEntity
  8
3_AXES_OTHER
100
AcDbCircle
 62
7
  6
CONTINUOUS
 10
86.6621041468
 20
28.8932802805
 40
0.3513779528
100
AcDbArc
 50
287.3869552777
 51
79.0194245724
  0
ARC
  5
6AD
100
AcDbEntity
  8
3_AXES_OTHER
100
AcDbCircle
 62
7
  6
CONTINUOUS
 10
88.0400569027
 20
28.8932802805
 40
0.3513779528
100
AcDbArc
 50
100.9805754276
 51
252.6130447223
  0
ARC
  5
6AE
100
AcDbEntity
  8
3_AXES_OTHER
100
AcDbCircle
 62
7
  6
CONTINUOUS
 10
88.0400569027
 20
28.8932802805
 40
0.3513779528
100
AcDbArc
 50
287.3869552777
 51
79.0194245724
  0
ARC
  5
6AF
100
AcDbEntity
  8
3_AXES_OTHER
100
AcDbCircle
 62
7
  6
CONTINUOUS
 10
89.4180096586
 20
28.8932802805
 40
0.3513779528
100
AcDbArc
 50
100.9805754276
 51
252.6130447223
  0
ARC
  5
6B0
100
AcDbEntity
  8
3_AXES_OTHER
100
AcDbCircle
 62
7
  6
CONTINUOUS
 10
89.4180096586
 20
28.8932802805
 40
0.3513779528
100
AcDbArc
 50
287.3869552777
 51
79.0194245724
  0
CIRCLE
  5
6B1
100
AcDbEntity
  8
3_ALL_AXES
100
AcDbCircle
 62
7
  6
CONTINUOUS
 10
89.4180096586
 20
28.8932802805
 40
0.24
  0
CIRCLE
  5
6B2
100
AcDbEntity
  8
3_ALL_AXES
100
AcDbCircle
 62
7
  6
CONTINUOUS
 10
88.0400569027
 20
28.8932802805
 40
0.24
  0
CIRCLE
  5
6B3
100
AcDbEntity
  8
3_ALL_AXES
100
AcDbCircle
 62
7
  6
CONTINUOUS
 10
86.6621041468
 20
28.8932802805
 40
0.24
  0
ARC
  5
6B4
100
AcDbEntity
  8
7_ALL_ROUNDS
100
AcDbCircle
 62
7
  6
CONTINUOUS
 10
92.2851356428
 20
28.1912924044
 40
0.1692913386
100
AcDbArc
 50
215.0
 51
325.0
  0
CIRCLE
  5
6B5
100
AcDbEntity
  8
3_ALL_AXES
100
AcDbCircle
 62
7
  6
CONTINUOUS
 10
89.4180096586
 20
28.8932802805
 40
0.1377952756
  0
CIRCLE
  5
6B6
100
AcDbEntity
  8
3_ALL_AXES
100
AcDbCircle
 62
7
  6
CONTINUOUS
 10
88.0400569027
 20
28.8932802805
 40
0.1377952756
  0
CIRCLE
  5
6B7
100
AcDbEntity
  8
3_ALL_AXES
100
AcDbCircle
 62
7
  6
CONTINUOUS
 10
86.6621041468
 20
28.8932802805
 40
0.1377952756
  0
ARC
  5
6B8
100
AcDbEntity
  8
3_ALL_AXES
100
AcDbCircle
 62
7
  6
CONTINUOUS
 10
93.9264742255
 20
28.1345794931
 40
0.127992126
100
AcDbArc
 50
270.0
 51
90.0
  0
ARC
  5
6B9
100
AcDbEntity
  8
3_ALL_AXES
100
AcDbCircle
 62
7
  6
CONTINUOUS
 10
93.7964742255
 20
28.1345794931
 40
0.127992126
100
AcDbArc
 50
90.0
 51
270.0
  0
ARC
  5
6BA
100
AcDbEntity
  8
7_ALL_ROUNDS
100
AcDbCircle
 62
7
  6
CONTINUOUS
 10
93.1301553279
 20
29.5695794931
 40
0.125
100
AcDbArc
 50
180.0
 51
270.0
  0
ARC
  5
6BB
100
AcDbEntity
  8
3_ALL_AXES
100
AcDbCircle
 62
7
  6
CONTINUOUS
 10
93.1579112334
 20
28.5095794931
 40
0.1
100
AcDbArc
 50
90.0
 51
270.0
  0
CIRCLE
  5
6BC
100
AcDbEntity
  8
3_ALL_AXES
100
AcDbCircle
 62
7
  6
CONTINUOUS
 10
93.0088561153
 20
29.0345794931
 40
0.07
  0
ARC
  5
6BD
100
AcDbEntity
  8
3_ALL_AXES
100
AcDbCircle
 62
7
  6
CONTINUOUS
 10
93.8499961994
 20
30.3676306742
 40
1.0
100
AcDbArc
 50
133.5639453696
 51
180.1272368631
  0
CIRCLE
  5
6BE
100
AcDbEntity
  8
3_ALL_AXES
100
AcDbCircle
 62
7
  6
CONTINUOUS
 10
89.4180096586
 20
30.2712330364
 40
0.4724409449
  0
CIRCLE
  5
6BF
100
AcDbEntity
  8
3_ALL_AXES
100
AcDbCircle
 62
7
  6
CONTINUOUS
 10
88.0400569027
 20
30.2712330364
 40
0.4724409449
  0
CIRCLE
  5
6C0
100
AcDbEntity
  8
3_ALL_AXES
100
AcDbCircle
 62
7
  6
CONTINUOUS
 10
86.6621041468
 20
30.2712330364
 40
0.4724409449
  0
CIRCLE
  5
6C1
100
AcDbEntity
  8
3_ALL_AXES
100
AcDbCircle
 62
7
  6
CONTINUOUS
 10
89.4180096586
 20
30.2712330364
 40
0.4625984252
  0
CIRCLE
  5
6C2
100
AcDbEntity
  8
3_ALL_AXES
100
AcDbCircle
 62
7
  6
CONTINUOUS
 10
88.0400569027
 20
30.2712330364
 40
0.4625984252
  0
CIRCLE
  5
6C3
100
AcDbEntity
  8
3_ALL_AXES
100
AcDbCircle
 62
7
  6
CONTINUOUS
 10
86.6621041468
 20
30.2712330364
 40
0.4625984252
  0
ARC
  5
6C4
100
AcDbEntity
  8
3_AXES_OTHER
100
AcDbCircle
 62
7
  6
CONTINUOUS
 10
86.6621041468
 20
30.2712330364
 40
0.3513779528
100
AcDbArc
 50
107.3869552777
 51
259.0194245724
  0
ARC
  5
6C5
100
AcDbEntity
  8
3_AXES_OTHER
100
AcDbCircle
 62
7
  6
CONTINUOUS
 10
86.6621041468
 20
30.2712330364
 40
0.3513779528
100
AcDbArc
 50
280.9805754276
 51
72.6130447223
  0
ARC
  5
6C6
100
AcDbEntity
  8
3_AXES_OTHER
100
AcDbCircle
 62
7
  6
CONTINUOUS
 10
88.0400569027
 20
30.2712330364
 40
0.3513779528
100
AcDbArc
 50
107.3869552777
 51
259.0194245724
  0
ARC
  5
6C7
100
AcDbEntity
  8
3_AXES_OTHER
100
AcDbCircle
 62
7
  6
CONTINUOUS
 10
88.0400569027
 20
30.2712330364
 40
0.3513779528
100
AcDbArc
 50
280.9805754276
 51
72.6130447223
  0
ARC
  5
6C8
100
AcDbEntity
  8
3_AXES_OTHER
100
AcDbCircle
 62
7
  6
CONTINUOUS
 10
89.4180096586
 20
30.2712330364
 40
0.3513779528
100
AcDbArc
 50
107.3869552777
 51
259.0194245724
  0
ARC
  5
6C9
100
AcDbEntity
  8
3_AXES_OTHER
100
AcDbCircle
 62
7
  6
CONTINUOUS
 10
89.4180096586
 20
30.2712330364
 40
0.3513779528
100
AcDbArc
 50
280.9805754276
 51
72.6130447223
  0
CIRCLE
  5
6CA
100
AcDbEntity
  8
3_ALL_AXES
100
AcDbCircle
 62
7
  6
CONTINUOUS
 10
89.4180096586
 20
30.2712330364
 40
0.24
  0
CIRCLE
  5
6CB
100
AcDbEntity
  8
3_ALL_AXES
100
AcDbCircle
 62
7
  6
CONTINUOUS
 10
88.0400569027
 20
30.2712330364
 40
0.24
  0
CIRCLE
  5
6CC
100
AcDbEntity
  8
3_ALL_AXES
100
AcDbCircle
 62
7
  6
CONTINUOUS
 10
86.6621041468
 20
30.2712330364
 40
0.24
  0
ARC
  5
6CD
100
AcDbEntity
  8
7_ALL_ROUNDS
100
AcDbCircle
 62
7
  6
CONTINUOUS
 10
92.2851356428
 20
29.7814492589
 40
0.1692913386
100
AcDbArc
 50
35.0
 51
145.0
  0
CIRCLE
  5
6CE
100
AcDbEntity
  8
3_ALL_AXES
100
AcDbCircle
 62
7
  6
CONTINUOUS
 10
89.4180096586
 20
30.2712330364
 40
0.1377952756
  0
CIRCLE
  5
6CF
100
AcDbEntity
  8
3_ALL_AXES
100
AcDbCircle
 62
7
  6
CONTINUOUS
 10
88.0400569027
 20
30.2712330364
 40
0.1377952756
  0
CIRCLE
  5
6D0
100
AcDbEntity
  8
3_ALL_AXES
100
AcDbCircle
 62
7
  6
CONTINUOUS
 10
86.6621041468
 20
30.2712330364
 40
0.1377952756
  0
ARC
  5
6D1
100
AcDbEntity
  8
3_ALL_AXES
100
AcDbCircle
 62
7
  6
CONTINUOUS
 10
93.7964742255
 20
31.1345794931
 40
0.127992126
100
AcDbArc
 50
90.0
 51
270.0
  0
ARC
  5
6D2
100
AcDbEntity
  8
3_ALL_AXES
100
AcDbCircle
 62
7
  6
CONTINUOUS
 10
93.9264742255
 20
31.1345794931
 40
0.127992126
100
AcDbArc
 50
270.0
 51
90.0
  0
ARC
  5
6D3
100
AcDbEntity
  8
7_ALL_ROUNDS
100
AcDbCircle
 62
7
  6
CONTINUOUS
 10
93.1301553279
 20
29.6995794931
 40
0.125
100
AcDbArc
 50
90.0
 51
180.0
  0
ARC
  5
6D4
100
AcDbEntity
  8
3_ALL_AXES
100
AcDbCircle
 62
7
  6
CONTINUOUS
 10
93.1579112334
 20
30.7595794931
 40
0.1
100
AcDbArc
 50
90.0
 51
270.0
  0
CIRCLE
  5
6D5
100
AcDbEntity
  8
3_ALL_AXES
100
AcDbCircle
 62
7
  6
CONTINUOUS
 10
93.0088561153
 20
30.2345794931
 40
0.07
  0
ARC
  5
6D6
100
AcDbEntity
  8
3_ALL_AXES
100
AcDbCircle
 62
7
  6
CONTINUOUS
 10
25.1888415009
 20
147.50252302
 40
101.968503937
100
AcDbArc
 50
269.7194265344
 51
274.4335998872
  0
ARC
  5
6D7
100
AcDbEntity
  8
3_ALL_AXES
100
AcDbCircle
 62
7
  6
CONTINUOUS
 10
24.1901800836
 20
147.50252302
 40
101.968503937
100
AcDbArc
 50
265.5664001128
 51
270.2805734656
  0
ARC
  5
6D8
100
AcDbEntity
  8
3_ALL_AXES
100
AcDbCircle
 62
7
  6
CONTINUOUS
 10
33.1548060678
 20
56.0883912857
 40
0.1299212598
100
AcDbArc
 50
0.0
 51
90.0
  0
ARC
  5
6D9
100
AcDbEntity
  8
3_ALL_AXES
100
AcDbCircle
 62
7
  6
CONTINUOUS
 10
16.2242155166
 20
56.0883912857
 40
0.1299212598
100
AcDbArc
 50
90.0
 51
180.0
  0
ARC
  5
6DA
100
AcDbEntity
  8
3_ALL_AXES
100
AcDbCircle
 62
7
  6
CONTINUOUS
 10
33.1548060678
 20
56.0883912857
 40
0.0826771654
100
AcDbArc
 50
0.0
 51
90.0
  0
ARC
  5
6DB
100
AcDbEntity
  8
3_ALL_AXES
100
AcDbCircle
 62
7
  6
CONTINUOUS
 10
16.2242155166
 20
56.0883912857
 40
0.0826771654
100
AcDbArc
 50
90.0
 51
180.0
  0
SPLINE
  5
6DC
100
AcDbEntity
  8
3_ALL_AXES
100
AcDbSpline
 62
7
  6
CONTINUOUS
 70
0
 71
3
 72
9
 73
5
 74
0
 42
0.0000001
 43
0.0000001
 44
0.0000000001
 40
0.0
 40
0.0
 40
0.0
 40
0.0
 40
0.1863527626
 40
1.0
 40
1.0
 40
1.0
 40
1.0
 10
95.1731356343
 20
51.1248319394
 30
0.0
 10
95.1725956138
 20
51.124530535
 30
0.0
 10
95.1695595366
 20
51.1231658885
 30
0.0
 10
95.1662851573
 20
51.1224474267
 30
0.0
 10
95.1636325577
 20
51.1219426132
 30
0.0
  0
SPLINE
  5
6DD
100
AcDbEntity
  8
3_ALL_AXES
100
AcDbSpline
 62
7
  6
CONTINUOUS
 70
0
 71
3
 72
8
 73
4
 74
0
 42
0.0000001
 43
0.0000001
 44
0.0000000001
 40
0.0
 40
0.0
 40
0.0
 40
0.0
 40
1.0
 40
1.0
 40
1.0
 40
1.0
 10
95.1636325577
 20
51.1219426132
 30
0.0
 10
95.1583872558
 20
51.1209443852
 30
0.0
 10
95.1530523272
 20
51.1204034069
 30
0.0
 10
95.1477224719
 20
51.1200835719
 30
0.0
  0
SPLINE
  5
6DE
100
AcDbEntity
  8
7_ALL_ROUNDS
100
AcDbSpline
 62
7
  6
CONTINUOUS
 70
0
 71
3
 72
9
 73
5
 74
0
 42
0.0000001
 43
0.0000001
 44
0.0000000001
 40
0.0
 40
0.0
 40
0.0
 40
0.0
 40
0.4491830432
 40
1.0
 40
1.0
 40
1.0
 40
1.0
 10
89.092655653
 20
45.6344150762
 30
0.0
 10
89.1115959835
 20
45.6453531034
 30
0.0
 10
89.1634306067
 20
45.6531951464
 30
0.0
 10
89.2098391787
 20
45.6339078188
 30
0.0
 10
89.2330650006
 20
45.6204948727
 30
0.0
  0
SPLINE
  5
6DF
100
AcDbEntity
  8
3_AXES_OTHER
100
AcDbSpline
 62
7
  6
CONTINUOUS
 70
0
 71
3
 72
9
 73
5
 74
0
 42
0.0000001
 43
0.0000001
 44
0.0000000001
 40
0.0
 40
0.0
 40
0.0
 40
0.0
 40
0.23111485
 40
1.0
 40
1.0
 40
1.0
 40
1.0
 10
85.4049220319
 20
56.7475910745
 30
0.0
 10
85.3884459769
 20
56.7501493741
 30
0.0
 10
85.3162228811
 20
56.7553913299
 30
0.0
 10
85.2436774155
 20
56.7382684421
 30
0.0
 10
85.1919868666
 20
56.7181429324
 30
0.0
  0
SPLINE
  5
6E0
100
AcDbEntity
  8
3_ALL_AXES
100
AcDbSpline
 62
7
  6
CONTINUOUS
 70
0
 71
3
 72
9
 73
5
 74
0
 42
0.0000001
 43
0.0000001
 44
0.0000000001
 40
0.0
 40
0.0
 40
0.0
 40
0.0
 40
0.2407105712
 40
1.0
 40
1.0
 40
1.0
 40
1.0
 10
94.7556302607
 20
50.6663723591
 30
0.0
 10
94.7475870336
 20
50.6617273837
 30
0.0
 10
94.7179801983
 20
50.6367320775
 30
0.0
 10
94.6989710635
 20
50.5975339109
 30
0.0
 10
94.6989710635
 20
50.5682357525
 30
0.0
  0
SPLINE
  5
6E1
100
AcDbEntity
  8
3_ALL_AXES
100
AcDbSpline
 62
7
  6
CONTINUOUS
 70
0
 71
3
 72
9
 73
5
 74
0
 42
0.0000001
 43
0.0000001
 44
0.0000000001
 40
0.0
 40
0.0
 40
0.0
 40
0.0
 40
0.2955543642
 40
1.0
 40
1.0
 40
1.0
 40
1.0
 10
94.6989710635
 20
50.5682357525
 30
0.0
 10
94.6989710635
 20
50.5641768139
 30
0.0
 10
94.699869364
 20
50.5506240624
 30
0.0
 10
94.7071834292
 20
50.5364105874
 30
0.0
 10
94.7155584929
 20
50.5315678922
 30
0.0
  0
SPLINE
  5
6E2
100
AcDbEntity
  8
3_ALL_AXES
100
AcDbSpline
 62
7
  6
CONTINUOUS
 70
0
 71
3
 72
9
 73
5
 74
0
 42
0.0000001
 43
0.0000001
 44
0.0000000001
 40
0.0
 40
0.0
 40
0.0
 40
0.0
 40
0.2407105712
 40
1.0
 40
1.0
 40
1.0
 40
1.0
 10
94.7556302607
 20
49.1945160183
 30
0.0
 10
94.7475870336
 20
49.1898710429
 30
0.0
 10
94.7179801983
 20
49.1648757368
 30
0.0
 10
94.6989710635
 20
49.1256775701
 30
0.0
 10
94.6989710635
 20
49.0963794117
 30
0.0
  0
SPLINE
  5
6E3
100
AcDbEntity
  8
3_ALL_AXES
100
AcDbSpline
 62
7
  6
CONTINUOUS
 70
0
 71
3
 72
9
 73
5
 74
0
 42
0.0000001
 43
0.0000001
 44
0.0000000001
 40
0.0
 40
0.0
 40
0.0
 40
0.0
 40
0.2955543642
 40
1.0
 40
1.0
 40
1.0
 40
1.0
 10
94.6989710635
 20
49.0963794117
 30
0.0
 10
94.6989710635
 20
49.0923204731
 30
0.0
 10
94.699869364
 20
49.0787677217
 30
0.0
 10
94.7071834292
 20
49.0645542466
 30
0.0
 10
94.7155584929
 20
49.0597115515
 30
0.0
  0
SPLINE
  5
6E4
100
AcDbEntity
  8
3_ALL_AXES
100
AcDbSpline
 62
7
  6
CONTINUOUS
 70
0
 71
3
 72
8
 73
4
 74
0
 42
0.0000001
 43
0.0000001
 44
0.0000000001
 40
0.0
 40
0.0
 40
0.0
 40
0.0
 40
1.0
 40
1.0
 40
1.0
 40
1.0
 10
94.993598889
 20
50.3949506063
 30
0.0
 10
94.993598889
 20
50.3889397088
 30
0.0
 10
94.9946390839
 20
50.3826227775
 30
0.0
 10
94.9975266061
 20
50.377350861
 30
0.0
  0
SPLINE
  5
6E5
100
AcDbEntity
  8
3_ALL_AXES
100
AcDbSpline
 62
7
  6
CONTINUOUS
 70
0
 71
3
 72
8
 73
4
 74
0
 42
0.0000001
 43
0.0000001
 44
0.0000000001
 40
0.0
 40
0.0
 40
0.0
 40
0.0
 40
1.0
 40
1.0
 40
1.0
 40
1.0
 10
94.9975266061
 20
50.377350861
 30
0.0
 10
94.9993176784
 20
50.3740807965
 30
0.0
 10
95.0020175967
 20
50.371118163
 30
0.0
 10
95.005250138
 20
50.3692602237
 30
0.0
  0
SPLINE
  5
6E6
100
AcDbEntity
  8
3_ALL_AXES
100
AcDbSpline
 62
7
  6
CONTINUOUS
 70
0
 71
3
 72
8
 73
4
 74
0
 42
0.0000001
 43
0.0000001
 44
0.0000000001
 40
0.0
 40
0.0
 40
0.0
 40
0.0
 40
1.0
 40
1.0
 40
1.0
 40
1.0
 10
94.993598889
 20
49.6099605579
 30
0.0
 10
94.993598889
 20
49.6039496604
 30
0.0
 10
94.9946390839
 20
49.5976327291
 30
0.0
 10
94.9975266061
 20
49.5923608126
 30
0.0
  0
SPLINE
  5
6E7
100
AcDbEntity
  8
3_ALL_AXES
100
AcDbSpline
 62
7
  6
CONTINUOUS
 70
0
 71
3
 72
8
 73
4
 74
0
 42
0.0000001
 43
0.0000001
 44
0.0000000001
 40
0.0
 40
0.0
 40
0.0
 40
0.0
 40
1.0
 40
1.0
 40
1.0
 40
1.0
 10
94.9975266061
 20
49.5923608126
 30
0.0
 10
94.9993176784
 20
49.5890907481
 30
0.0
 10
95.0020175967
 20
49.5861281146
 30
0.0
 10
95.005250138
 20
49.5842701753
 30
0.0
  0
SPLINE
  5
6E8
100
AcDbEntity
  8
3_AXES_OTHER
100
AcDbSpline
 62
7
  6
CONTINUOUS
 70
0
 71
3
 72
9
 73
5
 74
0
 42
0.0000001
 43
0.0000001
 44
0.0000000001
 40
0.0
 40
0.0
 40
0.0
 40
0.0
 40
0.2613973746
 40
1.0
 40
1.0
 40
1.0
 40
1.0
 10
95.1448834069
 20
49.0568960859
 30
0.0
 10
95.1275351019
 20
49.0341650058
 30
0.0
 10
95.0583921714
 20
48.949418406
 30
0.0
 10
94.9779957301
 20
48.8733912908
 30
0.0
 10
94.9125792748
 20
48.8259686057
 30
0.0
  0
SPLINE
  5
6E9
100
AcDbEntity
  8
3_AXES_OTHER
100
AcDbSpline
 62
7
  6
CONTINUOUS
 70
0
 71
3
 72
9
 73
5
 74
0
 42
0.0000001
 43
0.0000001
 44
0.0000000001
 40
0.0
 40
0.0
 40
0.0
 40
0.0
 40
0.2407105712
 40
1.0
 40
1.0
 40
1.0
 40
1.0
 10
95.033260327
 20
50.8267041283
 30
0.0
 10
95.0252170999
 20
50.8220591529
 30
0.0
 10
94.9956102646
 20
50.7970638468
 30
0.0
 10
94.9766011298
 20
50.7578656801
 30
0.0
 10
94.9766011298
 20
50.7285675217
 30
0.0
  0
SPLINE
  5
6EA
100
AcDbEntity
  8
3_AXES_OTHER
100
AcDbSpline
 62
7
  6
CONTINUOUS
 70
0
 71
3
 72
9
 73
5
 74
0
 42
0.0000001
 43
0.0000001
 44
0.0000000001
 40
0.0
 40
0.0
 40
0.0
 40
0.0
 40
0.2955543642
 40
1.0
 40
1.0
 40
1.0
 40
1.0
 10
94.9766011298
 20
50.7285675217
 30
0.0
 10
94.9766011298
 20
50.7245085831
 30
0.0
 10
94.9774994304
 20
50.7109558317
 30
0.0
 10
94.9848134955
 20
50.6967423566
 30
0.0
 10
94.9931885592
 20
50.6918996615
 30
0.0
  0
SPLINE
  5
6EB
100
AcDbEntity
  8
3_AXES_OTHER
100
AcDbSpline
 62
7
  6
CONTINUOUS
 70
0
 71
3
 72
9
 73
5
 74
0
 42
0.0000001
 43
0.0000001
 44
0.0000000001
 40
0.0
 40
0.0
 40
0.0
 40
0.0
 40
0.2407105712
 40
1.0
 40
1.0
 40
1.0
 40
1.0
 10
95.033260327
 20
49.3548477876
 30
0.0
 10
95.0252170999
 20
49.3502028122
 30
0.0
 10
94.9956102646
 20
49.325207506
 30
0.0
 10
94.9766011298
 20
49.2860093394
 30
0.0
 10
94.9766011298
 20
49.256711181
 30
0.0
  0
SPLINE
  5
6EC
100
AcDbEntity
  8
3_AXES_OTHER
100
AcDbSpline
 62
7
  6
CONTINUOUS
 70
0
 71
3
 72
9
 73
5
 74
0
 42
0.0000001
 43
0.0000001
 44
0.0000000001
 40
0.0
 40
0.0
 40
0.0
 40
0.0
 40
0.2955543642
 40
1.0
 40
1.0
 40
1.0
 40
1.0
 10
94.9766011298
 20
49.256711181
 30
0.0
 10
94.9766011298
 20
49.2526522424
 30
0.0
 10
94.9774994304
 20
49.2390994909
 30
0.0
 10
94.9848134955
 20
49.2248860159
 30
0.0
 10
94.9931885592
 20
49.2200433207
 30
0.0
  0
SPLINE
  5
6ED
100
AcDbEntity
  8
3_ALL_AXES
100
AcDbSpline
 62
7
  6
CONTINUOUS
 70
0
 71
3
 72
9
 73
5
 74
0
 42
0.0000001
 43
0.0000001
 44
0.0000000001
 40
0.0
 40
0.0
 40
0.0
 40
0.0
 40
0.5458887142
 40
1.0
 40
1.0
 40
1.0
 40
1.0
 10
86.7117025817
 20
48.1784756272
 30
0.0
 10
86.7117025817
 20
48.1315501786
 30
0.0
 10
86.6993978666
 20
48.0434394531
 30
0.0
 10
86.6406727459
 20
47.9721489353
 30
0.0
 10
86.6068671005
 20
47.9526297966
 30
0.0
  0
SPLINE
  5
6EE
100
AcDbEntity
  8
3_ALL_AXES
100
AcDbSpline
 62
7
  6
CONTINUOUS
 70
0
 71
3
 72
9
 73
5
 74
0
 42
0.0000001
 43
0.0000001
 44
0.0000000001
 40
0.0
 40
0.0
 40
0.0
 40
0.0
 40
0.5548704078
 40
1.0
 40
1.0
 40
1.0
 40
1.0
 10
82.4462719976
 20
50.4836588782
 30
0.0
 10
82.4462719976
 20
50.461148918
 30
0.0
 10
82.4411404418
 20
50.4196825712
 30
0.0
 10
82.4142522724
 20
50.385179685
 30
0.0
 10
82.3986121519
 20
50.3761531703
 30
0.0
  0
SPLINE
  5
6EF
100
AcDbEntity
  8
3_AXES_OTHER
100
AcDbSpline
 62
7
  6
CONTINUOUS
 70
0
 71
3
 72
10
 73
6
 74
0
 42
0.0000001
 43
0.0000001
 44
0.0000000001
 40
0.0
 40
0.0
 40
0.0
 40
0.0
 40
0.2776708414
 40
0.5774718644
 40
1.0
 40
1.0
 40
1.0
 40
1.0
 10
89.6943467089
 20
47.5891574062
 30
0.0
 10
89.7102151705
 20
47.5799933464
 30
0.0
 10
89.738041954
 20
47.5513588182
 30
0.0
 10
89.7687797139
 20
47.4966076998
 30
0.0
 10
89.7697522087
 20
47.4305365319
 30
0.0
 10
89.7455995286
 20
47.4166018299
 30
0.0
  0
SPLINE
  5
6F0
100
AcDbEntity
  8
3_AXES_OTHER
100
AcDbSpline
 62
7
  6
CONTINUOUS
 70
0
 71
3
 72
10
 73
6
 74
0
 42
0.0000001
 43
0.0000001
 44
0.0000000001
 40
0.0
 40
0.0
 40
0.0
 40
0.0
 40
0.2776708414
 40
0.5774718644
 40
1.0
 40
1.0
 40
1.0
 40
1.0
 10
89.6943467089
 20
45.6266822852
 30
0.0
 10
89.7102151705
 20
45.6175182254
 30
0.0
 10
89.738041954
 20
45.5888836972
 30
0.0
 10
89.7687797139
 20
45.5341325788
 30
0.0
 10
89.7697522087
 20
45.4680614109
 30
0.0
 10
89.7455995286
 20
45.4541267089
 30
0.0
  0
SPLINE
  5
6F1
100
AcDbEntity
  8
3_AXES_OTHER
100
AcDbSpline
 62
7
  6
CONTINUOUS
 70
0
 71
3
 72
9
 73
5
 74
0
 42
0.0000001
 43
0.0000001
 44
0.0000000001
 40
0.0
 40
0.0
 40
0.0
 40
0.0
 40
0.4995989254
 40
1.0
 40
1.0
 40
1.0
 40
1.0
 10
79.3043437332
 20
53.5893993168
 30
0.0
 10
79.3257736986
 20
53.5770234804
 30
0.0
 10
79.3596995329
 20
53.5379589349
 30
0.0
 10
79.3767198024
 20
53.4891263092
 30
0.0
 10
79.3768584183
 20
53.4643401509
 30
0.0
  0
SPLINE
  5
6F2
100
AcDbEntity
  8
3_ALL_AXES
100
AcDbSpline
 62
7
  6
CONTINUOUS
 70
0
 71
3
 72
8
 73
4
 74
0
 42
0.0000001
 43
0.0000001
 44
0.0000000001
 40
0.0
 40
0.0
 40
0.0
 40
0.0
 40
1.0
 40
1.0
 40
1.0
 40
1.0
 10
95.1448834069
 20
49.3735010759
 30
0.0
 10
95.1418222466
 20
49.3752689004
 30
0.0
 10
95.1388825473
 20
49.3772574488
 30
0.0
 10
95.1360683111
 20
49.3793966029
 30
0.0
  0
SPLINE
  5
6F3
100
AcDbEntity
  8
3_ALL_AXES
100
AcDbSpline
 62
7
  6
CONTINUOUS
 70
0
 71
3
 72
8
 73
4
 74
0
 42
0.0000001
 43
0.0000001
 44
0.0000000001
 40
0.0
 40
0.0
 40
0.0
 40
0.0
 40
1.0
 40
1.0
 40
1.0
 40
1.0
 10
95.1360683111
 20
49.3793966029
 30
0.0
 10
95.1314699216
 20
49.3828919257
 30
0.0
 10
95.1271746763
 20
49.3868104384
 30
0.0
 10
95.1232008708
 20
49.3910022563
 30
0.0
  0
SPLINE
  5
6F4
100
AcDbEntity
  8
3_ALL_AXES
100
AcDbSpline
 62
7
  6
CONTINUOUS
 70
0
 71
3
 72
8
 73
4
 74
0
 42
0.0000001
 43
0.0000001
 44
0.0000000001
 40
0.0
 40
0.0
 40
0.0
 40
0.0
 40
1.0
 40
1.0
 40
1.0
 40
1.0
 10
95.1448834069
 20
50.8453574166
 30
0.0
 10
95.1418222466
 20
50.8471252412
 30
0.0
 10
95.1388825473
 20
50.8491137895
 30
0.0
 10
95.1360683111
 20
50.8512529437
 30
0.0
  0
SPLINE
  5
6F5
100
AcDbEntity
  8
3_ALL_AXES
100
AcDbSpline
 62
7
  6
CONTINUOUS
 70
0
 71
3
 72
8
 73
4
 74
0
 42
0.0000001
 43
0.0000001
 44
0.0000000001
 40
0.0
 40
0.0
 40
0.0
 40
0.0
 40
1.0
 40
1.0
 40
1.0
 40
1.0
 10
95.1360683111
 20
50.8512529437
 30
0.0
 10
95.1314699216
 20
50.8547482665
 30
0.0
 10
95.1271746763
 20
50.8586667791
 30
0.0
 10
95.1232008708
 20
50.8628585971
 30
0.0
  0
SPLINE
  5
6F6
100
AcDbEntity
  8
3_ALL_AXES
100
AcDbSpline
 62
7
  6
CONTINUOUS
 70
0
 71
3
 72
9
 73
5
 74
0
 42
0.0000001
 43
0.0000001
 44
0.0000000001
 40
0.0
 40
0.0
 40
0.0
 40
0.0
 40
0.2953286985
 40
1.0
 40
1.0
 40
1.0
 40
1.0
 10
95.1448834069
 20
50.2141127034
 30
0.0
 10
95.1494487942
 20
50.2167492212
 30
0.0
 10
95.1641202997
 20
50.2265689946
 30
0.0
 10
95.1753698012
 20
50.2440446423
 30
0.0
 10
95.1753698012
 20
50.256623939
 30
0.0
  0
SPLINE
  5
6F7
100
AcDbEntity
  8
3_ALL_AXES
100
AcDbSpline
 62
7
  6
CONTINUOUS
 70
0
 71
3
 72
9
 73
5
 74
0
 42
0.0000001
 43
0.0000001
 44
0.0000000001
 40
0.0
 40
0.0
 40
0.0
 40
0.0
 40
0.2953286985
 40
1.0
 40
1.0
 40
1.0
 40
1.0
 10
95.1448834069
 20
49.4193102794
 30
0.0
 10
95.1494487942
 20
49.4219467972
 30
0.0
 10
95.1641202997
 20
49.4317665706
 30
0.0
 10
95.1753698012
 20
49.4492422183
 30
0.0
 10
95.1753698012
 20
49.461821515
 30
0.0
  0
SPLINE
  5
6F8
100
AcDbEntity
  8
3_ALL_AXES
100
AcDbSpline
 62
7
  6
CONTINUOUS
 70
0
 71
3
 72
9
 73
5
 74
0
 42
0.0000001
 43
0.0000001
 44
0.0000000001
 40
0.0
 40
0.0
 40
0.0
 40
0.0
 40
0.6597885416
 40
1.0
 40
1.0
 40
1.0
 40
1.0
 10
95.1465199573
 20
51.1274169163
 30
0.0
 10
95.1525590522
 20
51.1288413636
 30
0.0
 10
95.1615006882
 20
51.129882754
 30
0.0
 10
95.1717937998
 20
51.1305546344
 30
0.0
 10
95.1744608098
 20
51.1287873129
 30
0.0
  0
SPLINE
  5
6F9
100
AcDbEntity
  8
3_ALL_AXES
100
AcDbSpline
 62
7
  6
CONTINUOUS
 70
0
 71
3
 72
9
 73
5
 74
0
 42
0.0000001
 43
0.0000001
 44
0.0000000001
 40
0.0
 40
0.0
 40
0.0
 40
0.0
 40
0.5454907468
 40
1.0
 40
1.0
 40
1.0
 40
1.0
 10
95.1744608098
 20
51.1287873129
 30
0.0
 10
95.1747229618
 20
51.1286135952
 30
0.0
 10
95.1751750218
 20
51.1282230985
 30
0.0
 10
95.1753616411
 20
51.1276376049
 30
0.0
 10
95.1753596216
 20
51.1273755791
 30
0.0
  0
SPLINE
  5
6FA
100
AcDbEntity
  8
3_ALL_AXES
100
AcDbSpline
 62
7
  6
CONTINUOUS
 70
0
 71
3
 72
9
 73
5
 74
0
 42
0.0000001
 43
0.0000001
 44
0.0000000001
 40
0.0
 40
0.0
 40
0.0
 40
0.0
 40
0.2953286985
 40
1.0
 40
1.0
 40
1.0
 40
1.0
 10
95.1448834069
 20
50.8911666201
 30
0.0
 10
95.1494487942
 20
50.893803138
 30
0.0
 10
95.1641202997
 20
50.9036229114
 30
0.0
 10
95.1753698012
 20
50.921098559
 30
0.0
 10
95.1753698012
 20
50.9336778558
 30
0.0
  0
SPLINE
  5
6FB
100
AcDbEntity
  8
3_ALL_AXES
100
AcDbSpline
 62
7
  6
CONTINUOUS
 70
0
 71
3
 72
9
 73
5
 74
0
 42
0.0000001
 43
0.0000001
 44
0.0000000001
 40
0.0
 40
0.0
 40
0.0
 40
0.0
 40
0.2588361404
 40
1.0
 40
1.0
 40
1.0
 40
1.0
 10
95.1448834069
 20
49.0597088256
 30
0.0
 10
95.1497535692
 20
49.0651203427
 30
0.0
 10
95.1668245821
 20
49.0875429033
 30
0.0
 10
95.1753472979
 20
49.1164001828
 30
0.0
 10
95.1753597958
 20
49.1372469856
 30
0.0
  0
SPLINE
  5
6FC
100
AcDbEntity
  8
3_ALL_AXES
100
AcDbSpline
 62
7
  6
CONTINUOUS
 70
0
 71
3
 72
9
 73
5
 74
0
 42
0.0000001
 43
0.0000001
 44
0.0000000001
 40
0.0
 40
0.0
 40
0.0
 40
0.0
 40
0.2097661565
 40
1.0
 40
1.0
 40
1.0
 40
1.0
 10
85.5818218373
 20
56.0915238809
 30
0.0
 10
85.5842120033
 20
56.0928976556
 30
0.0
 10
85.5972846675
 20
56.0967287298
 30
0.0
 10
85.6107101415
 20
56.0891610059
 30
0.0
 10
85.6186575265
 20
56.0824752286
 30
0.0
  0
SPLINE
  5
6FD
100
AcDbEntity
  8
3_ALL_AXES
100
AcDbSpline
 62
7
  6
CONTINUOUS
 70
0
 71
3
 72
8
 73
4
 74
0
 42
0.0000001
 43
0.0000001
 44
0.0000000001
 40
0.0
 40
0.0
 40
0.0
 40
0.0
 40
1.0
 40
1.0
 40
1.0
 40
1.0
 10
85.6186575265
 20
56.0824752286
 30
0.0
 10
85.624789181
 20
56.0773169436
 30
0.0
 10
85.6301103685
 20
56.0711125467
 30
0.0
 10
85.6345605284
 20
56.0644491265
 30
0.0
  0
SPLINE
  5
6FE
100
AcDbEntity
  8
3_ALL_AXES
100
AcDbSpline
 62
7
  6
CONTINUOUS
 70
0
 71
3
 72
9
 73
5
 74
0
 42
0.0000001
 43
0.0000001
 44
0.0000000001
 40
0.0
 40
0.0
 40
0.0
 40
0.0
 40
0.2949404425
 40
1.0
 40
1.0
 40
1.0
 40
1.0
 10
95.1181152822
 20
50.7757935765
 30
0.0
 10
95.121016594
 20
50.7774690883
 30
0.0
 10
95.1303465224
 20
50.7837249169
 30
0.0
 10
95.1375187927
 20
50.7948370816
 30
0.0
 10
95.1375187927
 20
50.802846181
 30
0.0
  0
SPLINE
  5
6FF
100
AcDbEntity
  8
3_ALL_AXES
100
AcDbSpline
 62
7
  6
CONTINUOUS
 70
0
 71
3
 72
9
 73
5
 74
0
 42
0.0000001
 43
0.0000001
 44
0.0000000001
 40
0.0
 40
0.0
 40
0.0
 40
0.0
 40
0.2949404425
 40
1.0
 40
1.0
 40
1.0
 40
1.0
 10
95.1181152822
 20
49.9809911525
 30
0.0
 10
95.121016594
 20
49.9826666643
 30
0.0
 10
95.1303465224
 20
49.9889224929
 30
0.0
 10
95.1375187927
 20
50.0000346576
 30
0.0
 10
95.1375187927
 20
50.008043757
 30
0.0
  0
SPLINE
  5
700
100
AcDbEntity
  8
3_ALL_AXES
100
AcDbSpline
 62
7
  6
CONTINUOUS
 70
0
 71
3
 72
9
 73
5
 74
0
 42
0.0000001
 43
0.0000001
 44
0.0000000001
 40
0.0
 40
0.0
 40
0.0
 40
0.0
 40
0.2949404425
 40
1.0
 40
1.0
 40
1.0
 40
1.0
 10
95.1181152822
 20
49.3039372358
 30
0.0
 10
95.121016594
 20
49.3056127476
 30
0.0
 10
95.1303465224
 20
49.3118685762
 30
0.0
 10
95.1375187927
 20
49.3229807409
 30
0.0
 10
95.1375187927
 20
49.3309898403
 30
0.0
  0
SPLINE
  5
701
100
AcDbEntity
  8
3_ALL_AXES
100
AcDbSpline
 62
7
  6
CONTINUOUS
 70
0
 71
3
 72
8
 73
4
 74
0
 42
0.0000001
 43
0.0000001
 44
0.0000000001
 40
0.0
 40
0.0
 40
0.0
 40
0.0
 40
1.0
 40
1.0
 40
1.0
 40
1.0
 10
94.7046236826
 20
49.071432095
 30
0.0
 10
94.7066833971
 20
49.0714962855
 30
0.0
 10
94.7087424825
 20
49.0717390839
 30
0.0
 10
94.7107670666
 20
49.0721232758
 30
0.0
  0
SPLINE
  5
702
100
AcDbEntity
  8
3_ALL_AXES
100
AcDbSpline
 62
7
  6
CONTINUOUS
 70
0
 71
3
 72
8
 73
4
 74
0
 42
0.0000001
 43
0.0000001
 44
0.0000000001
 40
0.0
 40
0.0
 40
0.0
 40
0.0
 40
1.0
 40
1.0
 40
1.0
 40
1.0
 10
94.7107670666
 20
49.0721232758
 30
0.0
 10
94.7171232877
 20
49.0733294539
 30
0.0
 10
94.7232596188
 20
49.0759075129
 30
0.0
 10
94.728862136
 20
49.0791429747
 30
0.0
  0
SPLINE
  5
703
100
AcDbEntity
  8
3_ALL_AXES
100
AcDbSpline
 62
7
  6
CONTINUOUS
 70
0
 71
3
 72
8
 73
4
 74
0
 42
0.0000001
 43
0.0000001
 44
0.0000000001
 40
0.0
 40
0.0
 40
0.0
 40
0.0
 40
1.0
 40
1.0
 40
1.0
 40
1.0
 10
94.7855213332
 20
50.5837200847
 30
0.0
 10
94.7885824935
 20
50.5854879092
 30
0.0
 10
94.7915221928
 20
50.5874764575
 30
0.0
 10
94.794336429
 20
50.5896156117
 30
0.0
  0
SPLINE
  5
704
100
AcDbEntity
  8
3_ALL_AXES
100
AcDbSpline
 62
7
  6
CONTINUOUS
 70
0
 71
3
 72
8
 73
4
 74
0
 42
0.0000001
 43
0.0000001
 44
0.0000000001
 40
0.0
 40
0.0
 40
0.0
 40
0.0
 40
1.0
 40
1.0
 40
1.0
 40
1.0
 10
94.794336429
 20
50.5896156117
 30
0.0
 10
94.7989348185
 20
50.5931109345
 30
0.0
 10
94.8032300638
 20
50.5970294472
 30
0.0
 10
94.8072038693
 20
50.6012212651
 30
0.0
  0
SPLINE
  5
705
100
AcDbEntity
  8
3_ALL_AXES
100
AcDbSpline
 62
7
  6
CONTINUOUS
 70
0
 71
3
 72
9
 73
5
 74
0
 42
0.0000001
 43
0.0000001
 44
0.0000000001
 40
0.0
 40
0.0
 40
0.0
 40
0.0
 40
0.259242584
 40
1.0
 40
1.0
 40
1.0
 40
1.0
 10
94.8072038693
 20
50.6012212651
 30
0.0
 10
94.8124902864
 20
50.6067977076
 30
0.0
 10
94.8306693824
 20
50.6301357051
 30
0.0
 10
94.8421805304
 20
50.6599006736
 30
0.0
 10
94.8421805304
 20
50.6818566913
 30
0.0
  0
SPLINE
  5
706
100
AcDbEntity
  8
3_ALL_AXES
100
AcDbSpline
 62
7
  6
CONTINUOUS
 70
0
 71
3
 72
8
 73
4
 74
0
 42
0.0000001
 43
0.0000001
 44
0.0000000001
 40
0.0
 40
0.0
 40
0.0
 40
0.0
 40
1.0
 40
1.0
 40
1.0
 40
1.0
 10
94.8421805304
 20
50.6818566913
 30
0.0
 10
94.8421805304
 20
50.6903210403
 30
0.0
 10
94.8407540344
 20
50.6992046145
 30
0.0
 10
94.8367507478
 20
50.7066624225
 30
0.0
  0
SPLINE
  5
707
100
AcDbEntity
  8
3_ALL_AXES
100
AcDbSpline
 62
7
  6
CONTINUOUS
 70
0
 71
3
 72
8
 73
4
 74
0
 42
0.0000001
 43
0.0000001
 44
0.0000000001
 40
0.0
 40
0.0
 40
0.0
 40
0.0
 40
1.0
 40
1.0
 40
1.0
 40
1.0
 10
94.8523612257
 20
49.2312095796
 30
0.0
 10
94.8459588512
 20
49.234911611
 30
0.0
 10
94.8376504962
 20
49.2356353014
 30
0.0
 10
94.8303845273
 20
49.2342564864
 30
0.0
  0
SPLINE
  5
708
100
AcDbEntity
  8
3_ALL_AXES
100
AcDbSpline
 62
7
  6
CONTINUOUS
 70
0
 71
3
 72
8
 73
4
 74
0
 42
0.0000001
 43
0.0000001
 44
0.0000000001
 40
0.0
 40
0.0
 40
0.0
 40
0.0
 40
1.0
 40
1.0
 40
1.0
 40
1.0
 10
94.8303845273
 20
49.2342564864
 30
0.0
 10
94.8240283062
 20
49.2330503084
 30
0.0
 10
94.8178919751
 20
49.2304722494
 30
0.0
 10
94.8122894579
 20
49.2272367875
 30
0.0
  0
SPLINE
  5
709
100
AcDbEntity
  8
3_ALL_AXES
100
AcDbSpline
 62
7
  6
CONTINUOUS
 70
0
 71
3
 72
8
 73
4
 74
0
 42
0.0000001
 43
0.0000001
 44
0.0000000001
 40
0.0
 40
0.0
 40
0.0
 40
0.0
 40
1.0
 40
1.0
 40
1.0
 40
1.0
 10
94.7855213332
 20
49.1118637439
 30
0.0
 10
94.7885824935
 20
49.1136315685
 30
0.0
 10
94.7915221928
 20
49.1156201168
 30
0.0
 10
94.794336429
 20
49.117759271
 30
0.0
  0
SPLINE
  5
70A
100
AcDbEntity
  8
3_ALL_AXES
100
AcDbSpline
 62
7
  6
CONTINUOUS
 70
0
 71
3
 72
8
 73
4
 74
0
 42
0.0000001
 43
0.0000001
 44
0.0000000001
 40
0.0
 40
0.0
 40
0.0
 40
0.0
 40
1.0
 40
1.0
 40
1.0
 40
1.0
 10
94.794336429
 20
49.117759271
 30
0.0
 10
94.7989348185
 20
49.1212545938
 30
0.0
 10
94.8032300638
 20
49.1251731064
 30
0.0
 10
94.8072038693
 20
49.1293649243
 30
0.0
  0
SPLINE
  5
70B
100
AcDbEntity
  8
3_ALL_AXES
100
AcDbSpline
 62
7
  6
CONTINUOUS
 70
0
 71
3
 72
9
 73
5
 74
0
 42
0.0000001
 43
0.0000001
 44
0.0000000001
 40
0.0
 40
0.0
 40
0.0
 40
0.0
 40
0.259242584
 40
1.0
 40
1.0
 40
1.0
 40
1.0
 10
94.8072038693
 20
49.1293649243
 30
0.0
 10
94.8124902864
 20
49.1349413669
 30
0.0
 10
94.8306693824
 20
49.1582793644
 30
0.0
 10
94.8421805304
 20
49.1880443329
 30
0.0
 10
94.8421805304
 20
49.2100003505
 30
0.0
  0
SPLINE
  5
70C
100
AcDbEntity
  8
3_ALL_AXES
100
AcDbSpline
 62
7
  6
CONTINUOUS
 70
0
 71
3
 72
8
 73
4
 74
0
 42
0.0000001
 43
0.0000001
 44
0.0000000001
 40
0.0
 40
0.0
 40
0.0
 40
0.0
 40
1.0
 40
1.0
 40
1.0
 40
1.0
 10
94.8421805304
 20
49.2100003505
 30
0.0
 10
94.8421805304
 20
49.2184646996
 30
0.0
 10
94.8407540344
 20
49.2273482737
 30
0.0
 10
94.8367507478
 20
49.2348060817
 30
0.0
  0
SPLINE
  5
70D
100
AcDbEntity
  8
3_ALL_AXES
100
AcDbSpline
 62
7
  6
CONTINUOUS
 70
0
 71
3
 72
8
 73
4
 74
0
 42
0.0000001
 43
0.0000001
 44
0.0000000001
 40
0.0
 40
0.0
 40
0.0
 40
0.0
 40
1.0
 40
1.0
 40
1.0
 40
1.0
 10
95.0461536404
 20
50.4562183144
 30
0.0
 10
95.0461536404
 20
50.4586286762
 30
0.0
 10
95.0459839853
 20
50.4610480724
 30
0.0
 10
95.0456062423
 20
50.463428651
 30
0.0
  0
LINE
  5
70E
100
AcDbEntity
  8
3_ALL_AXES
100
AcDbLine
 62
7
  6
CONTINUOUS
 10
95.0456062423
 20
50.463428651
 11
95.044467044
 21
50.4684213429
  0
SPLINE
  5
70F
100
AcDbEntity
  8
3_ALL_AXES
100
AcDbSpline
 62
7
  6
CONTINUOUS
 70
0
 71
3
 72
8
 73
4
 74
0
 42
0.0000001
 43
0.0000001
 44
0.0000000001
 40
0.0
 40
0.0
 40
0.0
 40
0.0
 40
1.0
 40
1.0
 40
1.0
 40
1.0
 10
95.0461536404
 20
49.671228266
 30
0.0
 10
95.0461536404
 20
49.6736386278
 30
0.0
 10
95.0459839853
 20
49.676058024
 30
0.0
 10
95.0456062423
 20
49.6784386026
 30
0.0
  0
LINE
  5
710
100
AcDbEntity
  8
3_ALL_AXES
100
AcDbLine
 62
7
  6
CONTINUOUS
 10
95.0456062423
 20
49.6784386026
 11
95.044467044
 21
49.6834312945
  0
SPLINE
  5
711
100
AcDbEntity
  8
3_ALL_AXES
100
AcDbSpline
 62
7
  6
CONTINUOUS
 70
0
 71
3
 72
8
 73
4
 74
0
 42
0.0000001
 43
0.0000001
 44
0.0000000001
 40
0.0
 40
0.0
 40
0.0
 40
0.0
 40
1.0
 40
1.0
 40
1.0
 40
1.0
 10
94.8523612257
 20
50.7030659204
 30
0.0
 10
94.8459588512
 20
50.7067679517
 30
0.0
 10
94.8376504962
 20
50.7074916421
 30
0.0
 10
94.8303845273
 20
50.7061128272
 30
0.0
  0
SPLINE
  5
712
100
AcDbEntity
  8
3_ALL_AXES
100
AcDbSpline
 62
7
  6
CONTINUOUS
 70
0
 71
3
 72
8
 73
4
 74
0
 42
0.0000001
 43
0.0000001
 44
0.0000000001
 40
0.0
 40
0.0
 40
0.0
 40
0.0
 40
1.0
 40
1.0
 40
1.0
 40
1.0
 10
94.8303845273
 20
50.7061128272
 30
0.0
 10
94.8240283062
 20
50.7049066491
 30
0.0
 10
94.8178919751
 20
50.7023285901
 30
0.0
 10
94.8122894579
 20
50.6990931283
 30
0.0
  0
SPLINE
  5
713
100
AcDbEntity
  8
3_ALL_AXES
100
AcDbSpline
 62
7
  6
CONTINUOUS
 70
0
 71
3
 72
8
 73
4
 74
0
 42
0.0000001
 43
0.0000001
 44
0.0000000001
 40
0.0
 40
0.0
 40
0.0
 40
0.0
 40
1.0
 40
1.0
 40
1.0
 40
1.0
 10
94.7046236826
 20
50.5432884358
 30
0.0
 10
94.7066833971
 20
50.5433526262
 30
0.0
 10
94.7087424825
 20
50.5435954246
 30
0.0
 10
94.7107670666
 20
50.5439796166
 30
0.0
  0
SPLINE
  5
714
100
AcDbEntity
  8
3_ALL_AXES
100
AcDbSpline
 62
7
  6
CONTINUOUS
 70
0
 71
3
 72
8
 73
4
 74
0
 42
0.0000001
 43
0.0000001
 44
0.0000000001
 40
0.0
 40
0.0
 40
0.0
 40
0.0
 40
1.0
 40
1.0
 40
1.0
 40
1.0
 10
94.7107670666
 20
50.5439796166
 30
0.0
 10
94.7171232877
 20
50.5451857946
 30
0.0
 10
94.7232596188
 20
50.5477638536
 30
0.0
 10
94.728862136
 20
50.5509993155
 30
0.0
  0
SPLINE
  5
715
100
AcDbEntity
  8
3_ALL_AXES
100
AcDbSpline
 62
7
  6
CONTINUOUS
 70
0
 71
3
 72
8
 73
4
 74
0
 42
0.0000001
 43
0.0000001
 44
0.0000000001
 40
0.0
 40
0.0
 40
0.0
 40
0.0
 40
1.0
 40
1.0
 40
1.0
 40
1.0
 10
94.996055242
 20
49.5981202158
 30
0.0
 10
95.0031543092
 20
49.5999775862
 30
0.0
 10
95.009702415
 20
49.60405357
 30
0.0
 10
95.0153177026
 20
49.6087774588
 30
0.0
  0
SPLINE
  5
716
100
AcDbEntity
  8
3_ALL_AXES
100
AcDbSpline
 62
7
  6
CONTINUOUS
 70
0
 71
3
 72
8
 73
4
 74
0
 42
0.0000001
 43
0.0000001
 44
0.0000000001
 40
0.0
 40
0.0
 40
0.0
 40
0.0
 40
1.0
 40
1.0
 40
1.0
 40
1.0
 10
95.0153177026
 20
49.6087774588
 30
0.0
 10
95.0214493571
 20
49.6139357438
 30
0.0
 10
95.0267705446
 20
49.6201401407
 30
0.0
 10
95.0312207045
 20
49.6268035609
 30
0.0
  0
SPLINE
  5
717
100
AcDbEntity
  8
3_ALL_AXES
100
AcDbSpline
 62
7
  6
CONTINUOUS
 70
0
 71
3
 72
8
 73
4
 74
0
 42
0.0000001
 43
0.0000001
 44
0.0000000001
 40
0.0
 40
0.0
 40
0.0
 40
0.0
 40
1.0
 40
1.0
 40
1.0
 40
1.0
 10
95.0312207045
 20
49.6268035609
 30
0.0
 10
95.0358224746
 20
49.6336939937
 30
0.0
 10
95.0395905197
 20
49.6412364882
 30
0.0
 10
95.0422259233
 20
49.6490919959
 30
0.0
  0
SPLINE
  5
718
100
AcDbEntity
  8
3_ALL_AXES
100
AcDbSpline
 62
7
  6
CONTINUOUS
 70
0
 71
3
 72
8
 73
4
 74
0
 42
0.0000001
 43
0.0000001
 44
0.0000000001
 40
0.0
 40
0.0
 40
0.0
 40
0.0
 40
1.0
 40
1.0
 40
1.0
 40
1.0
 10
95.0422259233
 20
49.6490919959
 30
0.0
 10
95.0446094896
 20
49.6561968371
 30
0.0
 10
95.0461536404
 20
49.6637342579
 30
0.0
 10
95.0461536404
 20
49.671228266
 30
0.0
  0
SPLINE
  5
719
100
AcDbEntity
  8
3_AXES_OTHER
100
AcDbSpline
 62
7
  6
CONTINUOUS
 70
0
 71
3
 72
9
 73
5
 74
0
 42
0.0000001
 43
0.0000001
 44
0.0000000001
 40
0.0
 40
0.0
 40
0.0
 40
0.0
 40
0.23111485
 40
1.0
 40
1.0
 40
1.0
 40
1.0
 10
95.1181152822
 20
51.13820777
 30
0.0
 10
95.1016392272
 20
51.1407660696
 30
0.0
 10
95.0294161314
 20
51.1460080254
 30
0.0
 10
94.9568706658
 20
51.1288851376
 30
0.0
 10
94.9051801169
 20
51.1087596279
 30
0.0
  0
SPLINE
  5
71A
100
AcDbEntity
  8
3_ALL_AXES
100
AcDbSpline
 62
7
  6
CONTINUOUS
 70
0
 71
3
 72
8
 73
4
 74
0
 42
0.0000001
 43
0.0000001
 44
0.0000000001
 40
0.0
 40
0.0
 40
0.0
 40
0.0
 40
1.0
 40
1.0
 40
1.0
 40
1.0
 10
85.5969387129
 20
56.0812921295
 30
0.0
 10
85.5969387129
 20
56.0837024913
 30
0.0
 10
85.597108368
 20
56.0861218875
 30
0.0
 10
85.5974861109
 20
56.0885024661
 30
0.0
  0
LINE
  5
71B
100
AcDbEntity
  8
3_ALL_AXES
100
AcDbLine
 62
7
  6
CONTINUOUS
 10
85.5974861109
 20
56.0885024661
 11
85.5986253092
 21
56.093495158
  0
SPLINE
  5
71C
100
AcDbEntity
  8
3_ALL_AXES
100
AcDbSpline
 62
7
  6
CONTINUOUS
 70
0
 71
3
 72
9
 73
5
 74
0
 42
0.0000001
 43
0.0000001
 44
0.0000000001
 40
0.0
 40
0.0
 40
0.0
 40
0.0
 40
0.2097661565
 40
1.0
 40
1.0
 40
1.0
 40
1.0
 10
95.061270516
 20
49.6814600174
 30
0.0
 10
95.0588803499
 20
49.6828337921
 30
0.0
 10
95.0458076858
 20
49.6866648662
 30
0.0
 10
95.0323822117
 20
49.6790971424
 30
0.0
 10
95.0244348268
 20
49.6724113651
 30
0.0
  0
SPLINE
  5
71D
100
AcDbEntity
  8
3_ALL_AXES
100
AcDbSpline
 62
7
  6
CONTINUOUS
 70
0
 71
3
 72
8
 73
4
 74
0
 42
0.0000001
 43
0.0000001
 44
0.0000000001
 40
0.0
 40
0.0
 40
0.0
 40
0.0
 40
1.0
 40
1.0
 40
1.0
 40
1.0
 10
95.0244348268
 20
49.6724113651
 30
0.0
 10
95.0183031722
 20
49.6672530801
 30
0.0
 10
95.0129819847
 20
49.6610486832
 30
0.0
 10
95.0085318249
 20
49.654385263
 30
0.0
  0
SPLINE
  5
71E
100
AcDbEntity
  8
3_ALL_AXES
100
AcDbSpline
 62
7
  6
CONTINUOUS
 70
0
 71
3
 72
8
 73
4
 74
0
 42
0.0000001
 43
0.0000001
 44
0.0000000001
 40
0.0
 40
0.0
 40
0.0
 40
0.0
 40
1.0
 40
1.0
 40
1.0
 40
1.0
 10
95.0085318249
 20
49.654385263
 30
0.0
 10
95.0039300548
 20
49.6474948301
 30
0.0
 10
95.0001620096
 20
49.6399523357
 30
0.0
 10
94.9975266061
 20
49.632096828
 30
0.0
  0
SPLINE
  5
71F
100
AcDbEntity
  8
3_ALL_AXES
100
AcDbSpline
 62
7
  6
CONTINUOUS
 70
0
 71
3
 72
8
 73
4
 74
0
 42
0.0000001
 43
0.0000001
 44
0.0000000001
 40
0.0
 40
0.0
 40
0.0
 40
0.0
 40
1.0
 40
1.0
 40
1.0
 40
1.0
 10
94.9975266061
 20
49.632096828
 30
0.0
 10
94.9951430397
 20
49.6249919867
 30
0.0
 10
94.993598889
 20
49.617454566
 30
0.0
 10
94.993598889
 20
49.6099605579
 30
0.0
  0
SPLINE
  5
720
100
AcDbEntity
  8
3_ALL_AXES
100
AcDbSpline
 62
7
  6
CONTINUOUS
 70
0
 71
3
 72
9
 73
5
 74
0
 42
0.0000001
 43
0.0000001
 44
0.0000000001
 40
0.0
 40
0.0
 40
0.0
 40
0.0
 40
0.525460643
 40
1.0
 40
1.0
 40
1.0
 40
1.0
 10
85.5521467176
 20
56.6663781252
 30
0.0
 10
85.6063071934
 20
56.5751450349
 30
0.0
 10
85.6900704079
 20
56.3894586993
 30
0.0
 10
85.7270781026
 20
56.1875355611
 30
0.0
 10
85.7270781026
 20
56.0917190895
 30
0.0
  0
SPLINE
  5
721
100
AcDbEntity
  8
3_ALL_AXES
100
AcDbSpline
 62
7
  6
CONTINUOUS
 70
0
 71
3
 72
8
 73
4
 74
0
 42
0.0000001
 43
0.0000001
 44
0.0000000001
 40
0.0
 40
0.0
 40
0.0
 40
0.0
 40
1.0
 40
1.0
 40
1.0
 40
1.0
 10
94.996055242
 20
50.3831102642
 30
0.0
 10
95.0031543092
 20
50.3849676346
 30
0.0
 10
95.009702415
 20
50.3890436184
 30
0.0
 10
95.0153177026
 20
50.3937675072
 30
0.0
  0
SPLINE
  5
722
100
AcDbEntity
  8
3_ALL_AXES
100
AcDbSpline
 62
7
  6
CONTINUOUS
 70
0
 71
3
 72
8
 73
4
 74
0
 42
0.0000001
 43
0.0000001
 44
0.0000000001
 40
0.0
 40
0.0
 40
0.0
 40
0.0
 40
1.0
 40
1.0
 40
1.0
 40
1.0
 10
95.0153177026
 20
50.3937675072
 30
0.0
 10
95.0214493571
 20
50.3989257922
 30
0.0
 10
95.0267705446
 20
50.4051301891
 30
0.0
 10
95.0312207045
 20
50.4117936093
 30
0.0
  0
SPLINE
  5
723
100
AcDbEntity
  8
3_ALL_AXES
100
AcDbSpline
 62
7
  6
CONTINUOUS
 70
0
 71
3
 72
8
 73
4
 74
0
 42
0.0000001
 43
0.0000001
 44
0.0000000001
 40
0.0
 40
0.0
 40
0.0
 40
0.0
 40
1.0
 40
1.0
 40
1.0
 40
1.0
 10
95.0312207045
 20
50.4117936093
 30
0.0
 10
95.0358224746
 20
50.4186840421
 30
0.0
 10
95.0395905197
 20
50.4262265366
 30
0.0
 10
95.0422259233
 20
50.4340820443
 30
0.0
  0
SPLINE
  5
724
100
AcDbEntity
  8
3_ALL_AXES
100
AcDbSpline
 62
7
  6
CONTINUOUS
 70
0
 71
3
 72
8
 73
4
 74
0
 42
0.0000001
 43
0.0000001
 44
0.0000000001
 40
0.0
 40
0.0
 40
0.0
 40
0.0
 40
1.0
 40
1.0
 40
1.0
 40
1.0
 10
95.0422259233
 20
50.4340820443
 30
0.0
 10
95.0446094896
 20
50.4411868855
 30
0.0
 10
95.0461536404
 20
50.4487243063
 30
0.0
 10
95.0461536404
 20
50.4562183144
 30
0.0
  0
SPLINE
  5
725
100
AcDbEntity
  8
3_ALL_AXES
100
AcDbSpline
 62
7
  6
CONTINUOUS
 70
0
 71
3
 72
9
 73
5
 74
0
 42
0.0000001
 43
0.0000001
 44
0.0000000001
 40
0.0
 40
0.0
 40
0.0
 40
0.0
 40
0.2097661565
 40
1.0
 40
1.0
 40
1.0
 40
1.0
 10
95.061270516
 20
50.4664500658
 30
0.0
 10
95.0588803499
 20
50.4678238405
 30
0.0
 10
95.0458076858
 20
50.4716549146
 30
0.0
 10
95.0323822117
 20
50.4640871908
 30
0.0
 10
95.0244348268
 20
50.4574014135
 30
0.0
  0
SPLINE
  5
726
100
AcDbEntity
  8
3_ALL_AXES
100
AcDbSpline
 62
7
  6
CONTINUOUS
 70
0
 71
3
 72
8
 73
4
 74
0
 42
0.0000001
 43
0.0000001
 44
0.0000000001
 40
0.0
 40
0.0
 40
0.0
 40
0.0
 40
1.0
 40
1.0
 40
1.0
 40
1.0
 10
95.0244348268
 20
50.4574014135
 30
0.0
 10
95.0183031722
 20
50.4522431285
 30
0.0
 10
95.0129819847
 20
50.4460387316
 30
0.0
 10
95.0085318249
 20
50.4393753114
 30
0.0
  0
SPLINE
  5
727
100
AcDbEntity
  8
3_ALL_AXES
100
AcDbSpline
 62
7
  6
CONTINUOUS
 70
0
 71
3
 72
8
 73
4
 74
0
 42
0.0000001
 43
0.0000001
 44
0.0000000001
 40
0.0
 40
0.0
 40
0.0
 40
0.0
 40
1.0
 40
1.0
 40
1.0
 40
1.0
 10
95.0085318249
 20
50.4393753114
 30
0.0
 10
95.0039300548
 20
50.4324848785
 30
0.0
 10
95.0001620096
 20
50.4249423841
 30
0.0
 10
94.9975266061
 20
50.4170868764
 30
0.0
  0
SPLINE
  5
728
100
AcDbEntity
  8
3_ALL_AXES
100
AcDbSpline
 62
7
  6
CONTINUOUS
 70
0
 71
3
 72
8
 73
4
 74
0
 42
0.0000001
 43
0.0000001
 44
0.0000000001
 40
0.0
 40
0.0
 40
0.0
 40
0.0
 40
1.0
 40
1.0
 40
1.0
 40
1.0
 10
94.9975266061
 20
50.4170868764
 30
0.0
 10
94.9951430397
 20
50.4099820351
 30
0.0
 10
94.993598889
 20
50.4024446144
 30
0.0
 10
94.993598889
 20
50.3949506063
 30
0.0
  0
SPLINE
  5
729
100
AcDbEntity
  8
3_ALL_AXES
100
AcDbSpline
 62
7
  6
CONTINUOUS
 70
0
 71
3
 72
9
 73
5
 74
0
 42
0.0000001
 43
0.0000001
 44
0.0000000001
 40
0.0
 40
0.0
 40
0.0
 40
0.0
 40
0.2344635291
 40
1.0
 40
1.0
 40
1.0
 40
1.0
 10
85.4049220319
 20
56.3851768811
 30
0.0
 10
85.4139231716
 20
56.3903750524
 30
0.0
 10
85.4555218644
 20
56.4064590362
 30
0.0
 10
85.5037883241
 20
56.4049739021
 30
0.0
 10
85.5355325144
 20
56.3929700549
 30
0.0
  0
SPLINE
  5
72A
100
AcDbEntity
  8
3_ALL_AXES
100
AcDbSpline
 62
7
  6
CONTINUOUS
 70
0
 71
3
 72
8
 73
4
 74
0
 42
0.0000001
 43
0.0000001
 44
0.0000000001
 40
0.0
 40
0.0
 40
0.0
 40
0.0
 40
1.0
 40
1.0
 40
1.0
 40
1.0
 10
85.5355325144
 20
56.3929700549
 30
0.0
 10
85.5412541577
 20
56.3908064548
 30
0.0
 10
85.546849539
 20
56.3882360094
 30
0.0
 10
85.5521467176
 20
56.3851768811
 30
0.0
  0
SPLINE
  5
72B
100
AcDbEntity
  8
7_ALL_ROUNDS
100
AcDbSpline
 62
7
  6
CONTINUOUS
 70
0
 71
3
 72
8
 73
4
 74
0
 42
0.0000001
 43
0.0000001
 44
0.0000000001
 40
0.0
 40
0.0
 40
0.0
 40
0.0
 40
1.0
 40
1.0
 40
1.0
 40
1.0
 10
94.9718097837
 20
49.9069747158
 30
0.0
 10
94.9760755441
 20
49.9066722507
 30
0.0
 10
94.9804152456
 20
49.9070416332
 30
0.0
 10
94.9846063838
 20
49.9078916672
 30
0.0
  0
SPLINE
  5
72C
100
AcDbEntity
  8
7_ALL_ROUNDS
100
AcDbSpline
 62
7
  6
CONTINUOUS
 70
0
 71
3
 72
8
 73
4
 74
0
 42
0.0000001
 43
0.0000001
 44
0.0000000001
 40
0.0
 40
0.0
 40
0.0
 40
0.0
 40
1.0
 40
1.0
 40
1.0
 40
1.0
 10
94.9846063838
 20
49.9078916672
 30
0.0
 10
94.9922926975
 20
49.9094505823
 30
0.0
 10
94.9997005762
 20
49.9126064867
 30
0.0
 10
95.0064922023
 20
49.9165286607
 30
0.0
  0
SPLINE
  5
72D
100
AcDbEntity
  8
7_ALL_ROUNDS
100
AcDbSpline
 62
7
  6
CONTINUOUS
 70
0
 71
3
 72
8
 73
4
 74
0
 42
0.0000001
 43
0.0000001
 44
0.0000000001
 40
0.0
 40
0.0
 40
0.0
 40
0.0
 40
1.0
 40
1.0
 40
1.0
 40
1.0
 10
94.9831726092
 20
49.8961082555
 30
0.0
 10
94.9749705474
 20
49.9008449663
 30
0.0
 10
94.9689158381
 20
49.909692952
 30
0.0
 10
94.9659027036
 20
49.9186724435
 30
0.0
  0
SPLINE
  5
72E
100
AcDbEntity
  8
7_ALL_ROUNDS
100
AcDbSpline
 62
7
  6
CONTINUOUS
 70
0
 71
3
 72
8
 73
4
 74
0
 42
0.0000001
 43
0.0000001
 44
0.0000000001
 40
0.0
 40
0.0
 40
0.0
 40
0.0
 40
1.0
 40
1.0
 40
1.0
 40
1.0
 10
94.9659027036
 20
49.9186724435
 30
0.0
 10
94.9634082634
 20
49.9261061655
 30
0.0
 10
94.9624363305
 20
49.9340977898
 30
0.0
 10
94.9624363305
 20
49.9419388647
 30
0.0
  0
SPLINE
  5
72F
100
AcDbEntity
  8
3_ALL_AXES
100
AcDbSpline
 62
7
  6
CONTINUOUS
 70
0
 71
3
 72
8
 73
4
 74
0
 42
0.0000001
 43
0.0000001
 44
0.0000000001
 40
0.0
 40
0.0
 40
0.0
 40
0.0
 40
1.0
 40
1.0
 40
1.0
 40
1.0
 10
85.4100436063
 20
56.7448584869
 30
0.0
 10
85.4170030124
 20
56.7447817395
 30
0.0
 10
85.4239692195
 20
56.7440115236
 30
0.0
 10
85.4308195817
 20
56.7427819868
 30
0.0
  0
SPLINE
  5
730
100
AcDbEntity
  8
3_ALL_AXES
100
AcDbSpline
 62
7
  6
CONTINUOUS
 70
0
 71
3
 72
9
 73
5
 74
0
 42
0.0000001
 43
0.0000001
 44
0.0000000001
 40
0.0
 40
0.0
 40
0.0
 40
0.0
 40
0.2305900742
 40
1.0
 40
1.0
 40
1.0
 40
1.0
 10
85.4341585153
 20
56.7421439679
 30
0.0
 10
85.4441192433
 20
56.740126963
 30
0.0
 10
85.4864177136
 20
56.7276426111
 30
0.0
 10
85.5250322625
 20
56.7010108092
 30
0.0
 10
85.5462826905
 20
56.6745846239
 30
0.0
  0
SPLINE
  5
731
100
AcDbEntity
  8
3_ALL_AXES
100
AcDbSpline
 62
7
  6
CONTINUOUS
 70
0
 71
3
 72
8
 73
4
 74
0
 42
0.0000001
 43
0.0000001
 44
0.0000000001
 40
0.0
 40
0.0
 40
0.0
 40
0.0
 40
1.0
 40
1.0
 40
1.0
 40
1.0
 10
85.576385171
 20
56.3774660014
 30
0.0
 10
85.5743254565
 20
56.3775301918
 30
0.0
 10
85.5722663711
 20
56.3777729902
 30
0.0
 10
85.570241787
 20
56.3781571822
 30
0.0
  0
SPLINE
  5
732
100
AcDbEntity
  8
3_ALL_AXES
100
AcDbSpline
 62
7
  6
CONTINUOUS
 70
0
 71
3
 72
8
 73
4
 74
0
 42
0.0000001
 43
0.0000001
 44
0.0000000001
 40
0.0
 40
0.0
 40
0.0
 40
0.0
 40
1.0
 40
1.0
 40
1.0
 40
1.0
 10
85.570241787
 20
56.3781571822
 30
0.0
 10
85.5638855659
 20
56.3793633602
 30
0.0
 10
85.5577492348
 20
56.3819414192
 30
0.0
 10
85.5521467176
 20
56.3851768811
 30
0.0
  0
SPLINE
  5
733
100
AcDbEntity
  8
3_ALL_AXES
100
AcDbSpline
 62
7
  6
CONTINUOUS
 70
0
 71
3
 72
9
 73
5
 74
0
 42
0.0000001
 43
0.0000001
 44
0.0000000001
 40
0.0
 40
0.0
 40
0.0
 40
0.0
 40
0.2407105712
 40
1.0
 40
1.0
 40
1.0
 40
1.0
 10
85.5253785929
 20
56.5005499247
 30
0.0
 10
85.53342182
 20
56.4959049493
 30
0.0
 10
85.5630286553
 20
56.4709096431
 30
0.0
 10
85.5820377901
 20
56.4317114765
 30
0.0
 10
85.5820377901
 20
56.4024133181
 30
0.0
  0
SPLINE
  5
734
100
AcDbEntity
  8
3_ALL_AXES
100
AcDbSpline
 62
7
  6
CONTINUOUS
 70
0
 71
3
 72
9
 73
5
 74
0
 42
0.0000001
 43
0.0000001
 44
0.0000000001
 40
0.0
 40
0.0
 40
0.0
 40
0.0
 40
0.2955543642
 40
1.0
 40
1.0
 40
1.0
 40
1.0
 10
85.5820377901
 20
56.4024133181
 30
0.0
 10
85.5820377901
 20
56.3983543795
 30
0.0
 10
85.5811394895
 20
56.384801628
 30
0.0
 10
85.5738254244
 20
56.370588153
 30
0.0
 10
85.5654503607
 20
56.3657454578
 30
0.0
  0
SPLINE
  5
735
100
AcDbEntity
  8
3_ALL_AXES
100
AcDbSpline
 62
7
  6
CONTINUOUS
 70
0
 71
3
 72
9
 73
5
 74
0
 42
0.0000001
 43
0.0000001
 44
0.0000000001
 40
0.0
 40
0.0
 40
0.0
 40
0.0
 40
0.2407003178
 40
1.0
 40
1.0
 40
1.0
 40
1.0
 10
85.4316901566
 20
56.5005499247
 30
0.0
 10
85.4383399007
 20
56.5043901616
 30
0.0
 10
85.468474904
 20
56.5152613708
 30
0.0
 10
85.5044016841
 20
56.5126641202
 30
0.0
 10
85.5253785929
 20
56.5005499247
 30
0.0
  0
SPLINE
  5
736
100
AcDbEntity
  8
3_AXES_OTHER
100
AcDbSpline
 62
7
  6
CONTINUOUS
 70
0
 71
3
 72
9
 73
5
 74
0
 42
0.0000001
 43
0.0000001
 44
0.0000000001
 40
0.0
 40
0.0
 40
0.0
 40
0.0
 40
0.2407105712
 40
1.0
 40
1.0
 40
1.0
 40
1.0
 10
85.3200670767
 20
56.4360874328
 30
0.0
 10
85.3120238496
 20
56.4314424574
 30
0.0
 10
85.2824170143
 20
56.4064471513
 30
0.0
 10
85.2634078795
 20
56.3672489847
 30
0.0
 10
85.2634078795
 20
56.3379508262
 30
0.0
  0
SPLINE
  5
737
100
AcDbEntity
  8
3_AXES_OTHER
100
AcDbSpline
 62
7
  6
CONTINUOUS
 70
0
 71
3
 72
9
 73
5
 74
0
 42
0.0000001
 43
0.0000001
 44
0.0000000001
 40
0.0
 40
0.0
 40
0.0
 40
0.0
 40
0.2955543642
 40
1.0
 40
1.0
 40
1.0
 40
1.0
 10
85.2634078795
 20
56.3379508262
 30
0.0
 10
85.2634078795
 20
56.3338918877
 30
0.0
 10
85.2643061801
 20
56.3203391362
 30
0.0
 10
85.2716202453
 20
56.3061256612
 30
0.0
 10
85.2799953089
 20
56.301282966
 30
0.0
  0
SPLINE
  5
738
100
AcDbEntity
  8
3_AXES_OTHER
100
AcDbSpline
 62
7
  6
CONTINUOUS
 70
0
 71
3
 72
8
 73
4
 74
0
 42
0.0000001
 43
0.0000001
 44
0.0000000001
 40
0.0
 40
0.0
 40
0.0
 40
0.0
 40
1.0
 40
1.0
 40
1.0
 40
1.0
 10
85.2690604986
 20
56.3130035096
 30
0.0
 10
85.2711202131
 20
56.3130677
 30
0.0
 10
85.2731792986
 20
56.3133104984
 30
0.0
 10
85.2752038827
 20
56.3136946903
 30
0.0
  0
SPLINE
  5
739
100
AcDbEntity
  8
3_AXES_OTHER
100
AcDbSpline
 62
7
  6
CONTINUOUS
 70
0
 71
3
 72
8
 73
4
 74
0
 42
0.0000001
 43
0.0000001
 44
0.0000000001
 40
0.0
 40
0.0
 40
0.0
 40
0.0
 40
1.0
 40
1.0
 40
1.0
 40
1.0
 10
85.2752038827
 20
56.3136946903
 30
0.0
 10
85.2815601038
 20
56.3149008684
 30
0.0
 10
85.2876964349
 20
56.3174789274
 30
0.0
 10
85.2932989521
 20
56.3207143892
 30
0.0
  0
SPLINE
  5
73A
100
AcDbEntity
  8
3_AXES_OTHER
100
AcDbSpline
 62
7
  6
CONTINUOUS
 70
0
 71
3
 72
8
 73
4
 74
0
 42
0.0000001
 43
0.0000001
 44
0.0000000001
 40
0.0
 40
0.0
 40
0.0
 40
0.0
 40
1.0
 40
1.0
 40
1.0
 40
1.0
 10
94.9822537489
 20
49.2317638643
 30
0.0
 10
94.9843134634
 20
49.2318280547
 30
0.0
 10
94.9863725488
 20
49.2320708531
 30
0.0
 10
94.988397133
 20
49.2324550451
 30
0.0
  0
SPLINE
  5
73B
100
AcDbEntity
  8
3_AXES_OTHER
100
AcDbSpline
 62
7
  6
CONTINUOUS
 70
0
 71
3
 72
8
 73
4
 74
0
 42
0.0000001
 43
0.0000001
 44
0.0000000001
 40
0.0
 40
0.0
 40
0.0
 40
0.0
 40
1.0
 40
1.0
 40
1.0
 40
1.0
 10
94.988397133
 20
49.2324550451
 30
0.0
 10
94.9947533541
 20
49.2336612231
 30
0.0
 10
95.0008896852
 20
49.2362392821
 30
0.0
 10
95.0064922023
 20
49.239474744
 30
0.0
  0
SPLINE
  5
73C
100
AcDbEntity
  8
3_AXES_OTHER
100
AcDbSpline
 62
7
  6
CONTINUOUS
 70
0
 71
3
 72
8
 73
4
 74
0
 42
0.0000001
 43
0.0000001
 44
0.0000000001
 40
0.0
 40
0.0
 40
0.0
 40
0.0
 40
1.0
 40
1.0
 40
1.0
 40
1.0
 10
94.9822537489
 20
50.703620205
 30
0.0
 10
94.9843134634
 20
50.7036843955
 30
0.0
 10
94.9863725488
 20
50.7039271939
 30
0.0
 10
94.988397133
 20
50.7043113858
 30
0.0
  0
SPLINE
  5
73D
100
AcDbEntity
  8
3_AXES_OTHER
100
AcDbSpline
 62
7
  6
CONTINUOUS
 70
0
 71
3
 72
8
 73
4
 74
0
 42
0.0000001
 43
0.0000001
 44
0.0000000001
 40
0.0
 40
0.0
 40
0.0
 40
0.0
 40
1.0
 40
1.0
 40
1.0
 40
1.0
 10
94.988397133
 20
50.7043113858
 30
0.0
 10
94.9947533541
 20
50.7055175639
 30
0.0
 10
95.0008896852
 20
50.7080956229
 30
0.0
 10
95.0064922023
 20
50.7113310847
 30
0.0
  0
SPLINE
  5
73E
100
AcDbEntity
  8
7_ALL_ROUNDS
100
AcDbSpline
 62
7
  6
CONTINUOUS
 70
0
 71
3
 72
9
 73
5
 74
0
 42
0.0000001
 43
0.0000001
 44
0.0000000001
 40
0.0
 40
0.0
 40
0.0
 40
0.0
 40
0.241922384
 40
1.0
 40
1.0
 40
1.0
 40
1.0
 10
95.0596845947
 20
50.1656527685
 30
0.0
 10
95.0609534308
 20
50.1575090724
 30
0.0
 10
95.0695486238
 20
50.1244607638
 30
0.0
 10
95.0885674585
 20
50.0940876784
 30
0.0
 10
95.1072713151
 20
50.0762781294
 30
0.0
  0
SPLINE
  5
73F
100
AcDbEntity
  8
7_ALL_ROUNDS
100
AcDbSpline
 62
7
  6
CONTINUOUS
 70
0
 71
3
 72
8
 73
4
 74
0
 42
0.0000001
 43
0.0000001
 44
0.0000000001
 40
0.0
 40
0.0
 40
0.0
 40
0.0
 40
1.0
 40
1.0
 40
1.0
 40
1.0
 10
95.1072713151
 20
50.0762781294
 30
0.0
 10
95.1111385118
 20
50.0725958391
 30
0.0
 10
95.1152272012
 20
50.0691280788
 30
0.0
 10
95.1195273087
 20
50.0659620801
 30
0.0
  0
SPLINE
  5
740
100
AcDbEntity
  8
7_ALL_ROUNDS
100
AcDbSpline
 62
7
  6
CONTINUOUS
 70
0
 71
3
 72
8
 73
4
 74
0
 42
0.0000001
 43
0.0000001
 44
0.0000000001
 40
0.0
 40
0.0
 40
0.0
 40
0.0
 40
1.0
 40
1.0
 40
1.0
 40
1.0
 10
95.1195273087
 20
50.0659620801
 30
0.0
 10
95.1226199378
 20
50.0636850999
 30
0.0
 10
95.1258314311
 20
50.0615575365
 30
0.0
 10
95.1291571336
 20
50.0596369384
 30
0.0
  0
SPLINE
  5
741
100
AcDbEntity
  8
7_ALL_ROUNDS
100
AcDbSpline
 62
7
  6
CONTINUOUS
 70
0
 71
3
 72
9
 73
5
 74
0
 42
0.0000001
 43
0.0000001
 44
0.0000000001
 40
0.0
 40
0.0
 40
0.0
 40
0.0
 40
0.499974349
 40
1.0
 40
1.0
 40
1.0
 40
1.0
 10
94.9624363305
 20
50.0269794533
 30
0.0
 10
94.9624363305
 20
50.0512515228
 30
0.0
 10
94.9790297817
 20
50.0991787954
 30
0.0
 10
95.0122393177
 20
50.1375105479
 30
0.0
 10
95.033260327
 20
50.1496502116
 30
0.0
  0
SPLINE
  5
742
100
AcDbEntity
  8
3_ALL_AXES
100
AcDbSpline
 62
7
  6
CONTINUOUS
 70
0
 71
3
 72
9
 73
5
 74
0
 42
0.0000001
 43
0.0000001
 44
0.0000000001
 40
0.0
 40
0.0
 40
0.0
 40
0.0
 40
0.2209565774
 40
1.0
 40
1.0
 40
1.0
 40
1.0
 10
95.1753698012
 20
50.802846181
 30
0.0
 10
95.1753698012
 20
50.8068117209
 30
0.0
 10
95.1721818833
 20
50.8248851984
 30
0.0
 10
95.15699104
 20
50.8383652408
 30
0.0
 10
95.1448834069
 20
50.8453574166
 30
0.0
  0
SPLINE
  5
743
100
AcDbEntity
  8
3_ALL_AXES
100
AcDbSpline
 62
7
  6
CONTINUOUS
 70
0
 71
3
 72
9
 73
5
 74
0
 42
0.0000001
 43
0.0000001
 44
0.0000000001
 40
0.0
 40
0.0
 40
0.0
 40
0.0
 40
0.2209565774
 40
1.0
 40
1.0
 40
1.0
 40
1.0
 10
95.1753698012
 20
50.008043757
 30
0.0
 10
95.1753698012
 20
50.0120092969
 30
0.0
 10
95.1721818833
 20
50.0300827744
 30
0.0
 10
95.15699104
 20
50.0435628168
 30
0.0
 10
95.1448834069
 20
50.0505549926
 30
0.0
  0
SPLINE
  5
744
100
AcDbEntity
  8
3_ALL_AXES
100
AcDbSpline
 62
7
  6
CONTINUOUS
 70
0
 71
3
 72
9
 73
5
 74
0
 42
0.0000001
 43
0.0000001
 44
0.0000000001
 40
0.0
 40
0.0
 40
0.0
 40
0.0
 40
0.2209565774
 40
1.0
 40
1.0
 40
1.0
 40
1.0
 10
95.1753698012
 20
49.3309898403
 30
0.0
 10
95.1753698012
 20
49.3349553802
 30
0.0
 10
95.1721818833
 20
49.3530288577
 30
0.0
 10
95.15699104
 20
49.3665089001
 30
0.0
 10
95.1448834069
 20
49.3735010759
 30
0.0
  0
SPLINE
  5
745
100
AcDbEntity
  8
3_AXES_OTHER
100
AcDbSpline
 62
7
  6
CONTINUOUS
 70
0
 71
3
 72
9
 73
5
 74
0
 42
0.0000001
 43
0.0000001
 44
0.0000000001
 40
0.0
 40
0.0
 40
0.0
 40
0.0
 40
0.2208594661
 40
1.0
 40
1.0
 40
1.0
 40
1.0
 10
79.1794339571
 20
53.6370376511
 30
0.0
 10
79.1828141328
 20
53.6389878173
 30
0.0
 10
79.1998042134
 20
53.6451379815
 30
0.0
 10
79.2187651944
 20
53.6388210481
 30
0.0
 10
79.2306867768
 20
53.6319363168
 30
0.0
  0
SPLINE
  5
746
100
AcDbEntity
  8
3_AXES_OTHER
100
AcDbSpline
 62
7
  6
CONTINUOUS
 70
0
 71
3
 72
9
 73
5
 74
0
 42
0.0000001
 43
0.0000001
 44
0.0000000001
 40
0.0
 40
0.0
 40
0.0
 40
0.0
 40
0.2208594661
 40
1.0
 40
1.0
 40
1.0
 40
1.0
 10
89.5694369328
 20
47.6367957406
 30
0.0
 10
89.5728171085
 20
47.6387459068
 30
0.0
 10
89.5898071891
 20
47.6448960709
 30
0.0
 10
89.6087681701
 20
47.6385791375
 30
0.0
 10
89.6206897525
 20
47.6316944062
 30
0.0
  0
SPLINE
  5
747
100
AcDbEntity
  8
7_ALL_ROUNDS
100
AcDbSpline
 62
7
  6
CONTINUOUS
 70
0
 71
3
 72
8
 73
4
 74
0
 42
0.0000001
 43
0.0000001
 44
0.0000000001
 40
0.0
 40
0.0
 40
0.0
 40
0.0
 40
1.0
 40
1.0
 40
1.0
 40
1.0
 10
86.3532625715
 20
48.7702132826
 30
0.0
 10
86.3286493685
 20
48.7528692415
 30
0.0
 10
86.3065700984
 20
48.7313035299
 30
0.0
 10
86.2885830898
 20
48.7071562102
 30
0.0
  0
SPLINE
  5
748
100
AcDbEntity
  8
7_ALL_ROUNDS
100
AcDbSpline
 62
7
  6
CONTINUOUS
 70
0
 71
3
 72
8
 73
4
 74
0
 42
0.0000001
 43
0.0000001
 44
0.0000000001
 40
0.0
 40
0.0
 40
0.0
 40
0.0
 40
1.0
 40
1.0
 40
1.0
 40
1.0
 10
86.2885830898
 20
48.7071562102
 30
0.0
 10
86.249878145
 20
48.6551953367
 30
0.0
 10
86.2290410165
 20
48.586916368
 30
0.0
 10
86.2290410191
 20
48.5221243537
 30
0.0
  0
SPLINE
  5
749
100
AcDbEntity
  8
7_ALL_ROUNDS
100
AcDbSpline
 62
7
  6
CONTINUOUS
 70
0
 71
3
 72
11
 73
7
 74
0
 42
0.0000001
 43
0.0000001
 44
0.0000000001
 40
0.0
 40
0.0
 40
0.0
 40
0.0
 40
0.2511245984
 40
0.5034438798
 40
0.7517345424
 40
1.0
 40
1.0
 40
1.0
 40
1.0
 10
86.2290410191
 20
48.5221243536
 30
0.0
 10
86.2290410216
 20
48.4636476603
 30
0.0
 10
86.2597837743
 20
48.3455508535
 30
0.0
 10
86.3719086096
 20
48.2045717386
 30
0.0
 10
86.5383850022
 20
48.1291213366
 30
0.0
 10
86.6610016249
 20
48.1506969074
 30
0.0
 10
86.7121610987
 20
48.1776192071
 30
0.0
  0
SPLINE
  5
74A
100
AcDbEntity
  8
3_ALL_AXES
100
AcDbSpline
 62
7
  6
CONTINUOUS
 70
0
 71
3
 72
9
 73
5
 74
0
 42
0.0000001
 43
0.0000001
 44
0.0000000001
 40
0.0
 40
0.0
 40
0.0
 40
0.0
 40
0.4491446795
 40
1.0
 40
1.0
 40
1.0
 40
1.0
 10
86.1030347432
 20
48.7909681855
 30
0.0
 10
86.1381735533
 20
48.8112571211
 30
0.0
 10
86.2343370858
 20
48.8255793055
 30
0.0
 10
86.3205187332
 20
48.7902387925
 30
0.0
 10
86.3637063845
 20
48.7655145182
 30
0.0
  0
SPLINE
  5
74B
100
AcDbEntity
  8
3_ALL_AXES
100
AcDbSpline
 62
7
  6
CONTINUOUS
 70
0
 71
3
 72
9
 73
5
 74
0
 42
0.0000001
 43
0.0000001
 44
0.0000000001
 40
0.0
 40
0.0
 40
0.0
 40
0.0
 40
0.5076421124
 40
1.0
 40
1.0
 40
1.0
 40
1.0
 10
86.3915592837
 20
48.7483518423
 30
0.0
 10
86.4857946318
 20
48.6861401165
 30
0.0
 10
86.6355400708
 20
48.5112383333
 30
0.0
 10
86.7108519567
 20
48.2913913173
 30
0.0
 10
86.7116895493
 20
48.1818757492
 30
0.0
  0
SPLINE
  5
74C
100
AcDbEntity
  8
3_ALL_AXES
100
AcDbSpline
 62
7
  6
CONTINUOUS
 70
0
 71
3
 72
13
 73
9
 74
0
 42
0.0000001
 43
0.0000001
 44
0.0000000001
 40
0.0
 40
0.0
 40
0.0
 40
0.0
 40
0.0848448998
 40
0.1826537625
 40
0.299368338
 40
0.4335406733
 40
0.7272288678
 40
1.0
 40
1.0
 40
1.0
 40
1.0
 10
82.1692552435
 20
50.790129158
 30
0.0
 10
82.1806647446
 20
50.7967140105
 30
0.0
 10
82.2096238741
 20
50.8038092216
 30
0.0
 10
82.2559810559
 20
50.7932119899
 30
0.0
 10
82.3032402325
 20
50.7656562699
 30
0.0
 10
82.3654505051
 20
50.7076051537
 30
0.0
 10
82.4237093562
 20
50.6136742487
 30
0.0
 10
82.4462719976
 20
50.5260103691
 30
0.0
 10
82.4462719976
 20
50.4836588782
 30
0.0
  0
SPLINE
  5
74D
100
AcDbEntity
  8
7_ALL_ROUNDS
100
AcDbSpline
 62
7
  6
CONTINUOUS
 70
0
 71
3
 72
9
 73
5
 74
0
 42
0.0000001
 43
0.0000001
 44
0.0000000001
 40
0.0
 40
0.0
 40
0.0
 40
0.0
 40
0.5000256547
 40
1.0
 40
1.0
 40
1.0
 40
1.0
 10
78.9186373635
 20
51.5770919147
 30
0.0
 10
78.9775629035
 20
51.5430623292
 30
0.0
 10
79.070666485
 20
51.4356203675
 30
0.0
 10
79.1171676215
 20
51.3012662523
 30
0.0
 10
79.1171676215
 20
51.233227427
 30
0.0
  0
SPLINE
  5
74E
100
AcDbEntity
  8
7_ALL_ROUNDS
100
AcDbSpline
 62
7
  6
CONTINUOUS
 70
0
 71
3
 72
9
 73
5
 74
0
 42
0.0000001
 43
0.0000001
 44
0.0000000001
 40
0.0
 40
0.0
 40
0.0
 40
0.0
 40
0.550784148
 40
1.0
 40
1.0
 40
1.0
 40
1.0
 10
79.1171676215
 20
53.138631093
 30
0.0
 10
79.1171676215
 20
53.1118280819
 30
0.0
 10
79.1106639608
 20
53.0620243092
 30
0.0
 10
79.0779771131
 20
53.0210817239
 30
0.0
 10
79.0590467112
 20
53.0101494304
 30
0.0
  0
SPLINE
  5
74F
100
AcDbEntity
  8
3_ALL_AXES
100
AcDbSpline
 62
7
  6
CONTINUOUS
 70
0
 71
3
 72
9
 73
5
 74
0
 42
0.0000001
 43
0.0000001
 44
0.0000000001
 40
0.0
 40
0.0
 40
0.0
 40
0.0
 40
0.2946434926
 40
1.0
 40
1.0
 40
1.0
 40
1.0
 10
95.0729217651
 20
50.4407596832
 30
0.0
 10
95.0729217651
 20
50.4435957522
 30
0.0
 10
95.0722770178
 20
50.453091517
 30
0.0
 10
95.0671568592
 20
50.4630668242
 30
0.0
 10
95.061270516
 20
50.4664500658
 30
0.0
  0
SPLINE
  5
750
100
AcDbEntity
  8
3_ALL_AXES
100
AcDbSpline
 62
7
  6
CONTINUOUS
 70
0
 71
3
 72
9
 73
5
 74
0
 42
0.0000001
 43
0.0000001
 44
0.0000000001
 40
0.0
 40
0.0
 40
0.0
 40
0.0
 40
0.2407003178
 40
1.0
 40
1.0
 40
1.0
 40
1.0
 10
85.4316901566
 20
56.3697182499
 30
0.0
 10
85.4383399007
 20
56.3735584869
 30
0.0
 10
85.468474904
 20
56.3844296961
 30
0.0
 10
85.5044016841
 20
56.3818324454
 30
0.0
 10
85.5253785929
 20
56.3697182499
 30
0.0
  0
SPLINE
  5
751
100
AcDbEntity
  8
3_ALL_AXES
100
AcDbSpline
 62
7
  6
CONTINUOUS
 70
0
 71
3
 72
9
 73
5
 74
0
 42
0.0000001
 43
0.0000001
 44
0.0000000001
 40
0.0
 40
0.0
 40
0.0
 40
0.0
 40
0.2946434926
 40
1.0
 40
1.0
 40
1.0
 40
1.0
 10
95.0729217651
 20
49.6557696348
 30
0.0
 10
95.0729217651
 20
49.6586057038
 30
0.0
 10
95.0722770178
 20
49.6681014686
 30
0.0
 10
95.0671568592
 20
49.6780767758
 30
0.0
 10
95.061270516
 20
49.6814600174
 30
0.0
  0
SPLINE
  5
752
100
AcDbEntity
  8
3_ALL_AXES
100
AcDbSpline
 62
7
  6
CONTINUOUS
 70
0
 71
3
 72
9
 73
5
 74
0
 42
0.0000001
 43
0.0000001
 44
0.0000000001
 40
0.0
 40
0.0
 40
0.0
 40
0.0
 40
0.2749095527
 40
1.0
 40
1.0
 40
1.0
 40
1.0
 10
85.5236941802
 20
56.6536833227
 30
0.0
 10
85.5180666478
 20
56.6611740114
 30
0.0
 10
85.4954496684
 20
56.68529786
 30
0.0
 10
85.4530895368
 20
56.701948735
 30
0.0
 10
85.4316901566
 20
56.6895905617
 30
0.0
  0
SPLINE
  5
753
100
AcDbEntity
  8
3_ALL_AXES
100
AcDbSpline
 62
7
  6
CONTINUOUS
 70
0
 71
3
 72
9
 73
5
 74
0
 42
0.0000001
 43
0.0000001
 44
0.0000000001
 40
0.0
 40
0.0
 40
0.0
 40
0.0
 40
0.5471670405
 40
1.0
 40
1.0
 40
1.0
 40
1.0
 10
85.9992352912
 20
48.5657206672
 30
0.0
 10
85.9992352912
 20
48.6125677045
 30
0.0
 10
86.0112160208
 20
48.7003006991
 30
0.0
 10
86.0694592305
 20
48.7715818884
 30
0.0
 10
86.1030347432
 20
48.7909681855
 30
0.0
  0
SPLINE
  5
754
100
AcDbEntity
  8
3_AXES_OTHER
100
AcDbSpline
 62
7
  6
CONTINUOUS
 70
0
 71
3
 72
9
 73
5
 74
0
 42
0.0000001
 43
0.0000001
 44
0.0000000001
 40
0.0
 40
0.0
 40
0.0
 40
0.0
 40
0.2312514161
 40
1.0
 40
1.0
 40
1.0
 40
1.0
 10
85.4050203481
 20
56.735109737
 30
0.0
 10
85.3888158466
 20
56.7362355535
 30
0.0
 10
85.3183648892
 20
56.7359137734
 30
0.0
 10
85.2489915072
 20
56.7160816933
 30
0.0
 10
85.1993860245
 20
56.6947479718
 30
0.0
  0
SPLINE
  5
755
100
AcDbEntity
  8
3_AXES_OTHER
100
AcDbSpline
 62
7
  6
CONTINUOUS
 70
0
 71
3
 72
9
 73
5
 74
0
 42
0.0000001
 43
0.0000001
 44
0.0000000001
 40
0.0
 40
0.0
 40
0.0
 40
0.0
 40
0.2312514161
 40
1.0
 40
1.0
 40
1.0
 40
1.0
 10
95.1182135983
 20
51.1257264324
 30
0.0
 10
95.1020090969
 20
51.126852249
 30
0.0
 10
95.0315581395
 20
51.1265304689
 30
0.0
 10
94.9621847575
 20
51.1066983888
 30
0.0
 10
94.9125792748
 20
51.0853646673
 30
0.0
  0
SPLINE
  5
756
100
AcDbEntity
  8
3_ALL_AXES
100
AcDbSpline
 62
7
  6
CONTINUOUS
 70
0
 71
3
 72
9
 73
5
 74
0
 42
0.0000001
 43
0.0000001
 44
0.0000000001
 40
0.0
 40
0.0
 40
0.0
 40
0.0
 40
0.2953286985
 40
1.0
 40
1.0
 40
1.0
 40
1.0
 10
95.1448834069
 20
50.7603349454
 30
0.0
 10
95.1494487942
 20
50.7629714632
 30
0.0
 10
95.1641202997
 20
50.7727912367
 30
0.0
 10
95.1753698012
 20
50.7902668843
 30
0.0
 10
95.1753698012
 20
50.802846181
 30
0.0
  0
SPLINE
  5
757
100
AcDbEntity
  8
3_AXES_OTHER
100
AcDbSpline
 62
7
  6
CONTINUOUS
 70
0
 71
3
 72
8
 73
4
 74
0
 42
0.0000001
 43
0.0000001
 44
0.0000000001
 40
0.0
 40
0.0
 40
0.0
 40
0.0
 40
1.0
 40
1.0
 40
1.0
 40
1.0
 10
85.2799953089
 20
56.301282966
 30
0.0
 10
85.2860804131
 20
56.2977643892
 30
0.0
 10
85.2938926268
 20
56.296910172
 30
0.0
 10
85.3008311484
 20
56.2980352474
 30
0.0
  0
SPLINE
  5
758
100
AcDbEntity
  8
3_AXES_OTHER
100
AcDbSpline
 62
7
  6
CONTINUOUS
 70
0
 71
3
 72
8
 73
4
 74
0
 42
0.0000001
 43
0.0000001
 44
0.0000000001
 40
0.0
 40
0.0
 40
0.0
 40
0.0
 40
1.0
 40
1.0
 40
1.0
 40
1.0
 10
85.3008311484
 20
56.2980352474
 30
0.0
 10
85.3075916676
 20
56.2991314599
 30
0.0
 10
85.3141362151
 20
56.3018306768
 30
0.0
 10
85.3200670767
 20
56.3052557581
 30
0.0
  0
SPLINE
  5
759
100
AcDbEntity
  8
3_ALL_AXES
100
AcDbSpline
 62
7
  6
CONTINUOUS
 70
0
 71
3
 72
9
 73
5
 74
0
 42
0.0000001
 43
0.0000001
 44
0.0000000001
 40
0.0
 40
0.0
 40
0.0
 40
0.0
 40
0.2953286985
 40
1.0
 40
1.0
 40
1.0
 40
1.0
 10
95.1448834069
 20
49.9655325214
 30
0.0
 10
95.1494487942
 20
49.9681690392
 30
0.0
 10
95.1641202997
 20
49.9779888127
 30
0.0
 10
95.1753698012
 20
49.9954644603
 30
0.0
 10
95.1753698012
 20
50.008043757
 30
0.0
  0
SPLINE
  5
75A
100
AcDbEntity
  8
3_AXES_OTHER
100
AcDbSpline
 62
7
  6
CONTINUOUS
 70
0
 71
3
 72
8
 73
4
 74
0
 42
0.0000001
 43
0.0000001
 44
0.0000000001
 40
0.0
 40
0.0
 40
0.0
 40
0.0
 40
1.0
 40
1.0
 40
1.0
 40
1.0
 10
94.9931885592
 20
49.2200433207
 30
0.0
 10
94.9992736634
 20
49.2165247439
 30
0.0
 10
95.0070858771
 20
49.2156705267
 30
0.0
 10
95.0140243987
 20
49.2167956021
 30
0.0
  0
SPLINE
  5
75B
100
AcDbEntity
  8
3_AXES_OTHER
100
AcDbSpline
 62
7
  6
CONTINUOUS
 70
0
 71
3
 72
8
 73
4
 74
0
 42
0.0000001
 43
0.0000001
 44
0.0000000001
 40
0.0
 40
0.0
 40
0.0
 40
0.0
 40
1.0
 40
1.0
 40
1.0
 40
1.0
 10
95.0140243987
 20
49.2167956021
 30
0.0
 10
95.0207849178
 20
49.2178918146
 30
0.0
 10
95.0273294654
 20
49.2205910316
 30
0.0
 10
95.033260327
 20
49.2240161128
 30
0.0
  0
SPLINE
  5
75C
100
AcDbEntity
  8
3_AXES_OTHER
100
AcDbSpline
 62
7
  6
CONTINUOUS
 70
0
 71
3
 72
8
 73
4
 74
0
 42
0.0000001
 43
0.0000001
 44
0.0000000001
 40
0.0
 40
0.0
 40
0.0
 40
0.0
 40
1.0
 40
1.0
 40
1.0
 40
1.0
 10
94.9931885592
 20
50.6918996615
 30
0.0
 10
94.9992736634
 20
50.6883810847
 30
0.0
 10
95.0070858771
 20
50.6875268674
 30
0.0
 10
95.0140243987
 20
50.6886519429
 30
0.0
  0
SPLINE
  5
75D
100
AcDbEntity
  8
3_AXES_OTHER
100
AcDbSpline
 62
7
  6
CONTINUOUS
 70
0
 71
3
 72
8
 73
4
 74
0
 42
0.0000001
 43
0.0000001
 44
0.0000000001
 40
0.0
 40
0.0
 40
0.0
 40
0.0
 40
1.0
 40
1.0
 40
1.0
 40
1.0
 10
95.0140243987
 20
50.6886519429
 30
0.0
 10
95.0207849178
 20
50.6897481554
 30
0.0
 10
95.0273294654
 20
50.6924473723
 30
0.0
 10
95.033260327
 20
50.6958724536
 30
0.0
  0
SPLINE
  5
75E
100
AcDbEntity
  8
3_ALL_AXES
100
AcDbSpline
 62
7
  6
CONTINUOUS
 70
0
 71
3
 72
9
 73
5
 74
0
 42
0.0000001
 43
0.0000001
 44
0.0000000001
 40
0.0
 40
0.0
 40
0.0
 40
0.0
 40
0.7195712167
 40
1.0
 40
1.0
 40
1.0
 40
1.0
 10
95.1375187927
 20
50.802846181
 30
0.0
 10
95.1375187927
 20
50.8085483978
 30
0.0
 10
95.1340456097
 20
50.8165561589
 30
0.0
 10
95.1285048077
 20
50.8221833417
 30
0.0
 10
95.1268450815
 20
50.8236610748
 30
0.0
  0
SPLINE
  5
75F
100
AcDbEntity
  8
3_ALL_AXES
100
AcDbSpline
 62
7
  6
CONTINUOUS
 70
0
 71
3
 72
8
 73
4
 74
0
 42
0.0000001
 43
0.0000001
 44
0.0000000001
 40
0.0
 40
0.0
 40
0.0
 40
0.0
 40
1.0
 40
1.0
 40
1.0
 40
1.0
 10
95.1268450815
 20
50.8236610748
 30
0.0
 10
95.1241739511
 20
50.8260393093
 30
0.0
 10
95.121212369
 20
50.8281102134
 30
0.0
 10
95.1181152822
 20
50.8298987855
 30
0.0
  0
SPLINE
  5
760
100
AcDbEntity
  8
3_ALL_AXES
100
AcDbSpline
 62
7
  6
CONTINUOUS
 70
0
 71
3
 72
9
 73
5
 74
0
 42
0.0000001
 43
0.0000001
 44
0.0000000001
 40
0.0
 40
0.0
 40
0.0
 40
0.0
 40
0.2208776002
 40
1.0
 40
1.0
 40
1.0
 40
1.0
 10
95.1375187927
 20
50.008043757
 30
0.0
 10
95.1375187927
 20
50.0105663126
 30
0.0
 10
95.1354768748
 20
50.0220647241
 30
0.0
 10
95.1258207136
 20
50.0306464636
 30
0.0
 10
95.1181152822
 20
50.0350963615
 30
0.0
  0
SPLINE
  5
761
100
AcDbEntity
  8
3_ALL_AXES
100
AcDbSpline
 62
7
  6
CONTINUOUS
 70
0
 71
3
 72
9
 73
5
 74
0
 42
0.0000001
 43
0.0000001
 44
0.0000000001
 40
0.0
 40
0.0
 40
0.0
 40
0.0
 40
0.7195712167
 40
1.0
 40
1.0
 40
1.0
 40
1.0
 10
95.1375187927
 20
49.3309898403
 30
0.0
 10
95.1375187927
 20
49.3366920571
 30
0.0
 10
95.1340456097
 20
49.3446998181
 30
0.0
 10
95.1285048077
 20
49.3503270009
 30
0.0
 10
95.1268450815
 20
49.3518047341
 30
0.0
  0
SPLINE
  5
762
100
AcDbEntity
  8
3_ALL_AXES
100
AcDbSpline
 62
7
  6
CONTINUOUS
 70
0
 71
3
 72
8
 73
4
 74
0
 42
0.0000001
 43
0.0000001
 44
0.0000000001
 40
0.0
 40
0.0
 40
0.0
 40
0.0
 40
1.0
 40
1.0
 40
1.0
 40
1.0
 10
95.1268450815
 20
49.3518047341
 30
0.0
 10
95.1241739511
 20
49.3541829685
 30
0.0
 10
95.121212369
 20
49.3562538726
 30
0.0
 10
95.1181152822
 20
49.3580424448
 30
0.0
  0
SPLINE
  5
763
100
AcDbEntity
  8
3_ALL_AXES
100
AcDbSpline
 62
7
  6
CONTINUOUS
 70
0
 71
3
 72
9
 73
5
 74
0
 42
0.0000001
 43
0.0000001
 44
0.0000000001
 40
0.0
 40
0.0
 40
0.0
 40
0.0
 40
0.3974504702
 40
1.0
 40
1.0
 40
1.0
 40
1.0
 10
95.1753596216
 20
51.1273755791
 30
0.0
 10
95.1753560647
 20
51.126914095
 30
0.0
 10
95.1747296965
 20
51.1258062595
 30
0.0
 10
95.1737465663
 20
51.1251729219
 30
0.0
 10
95.1731356343
 20
51.1248319394
 30
0.0
  0
SPLINE
  5
764
100
AcDbEntity
  8
7_ALL_ROUNDS
100
AcDbSpline
 62
7
  6
CONTINUOUS
 70
0
 71
3
 72
9
 73
5
 74
0
 42
0.0000001
 43
0.0000001
 44
0.0000000001
 40
0.0
 40
0.0
 40
0.0
 40
0.0
 40
0.22878807
 40
1.0
 40
1.0
 40
1.0
 40
1.0
 10
95.102389009
 20
50.0441783073
 30
0.0
 10
95.0965267673
 20
50.0475637604
 30
0.0
 10
95.0725192663
 20
50.065087989
 30
0.0
 10
95.0546568735
 20
50.0902570397
 30
0.0
 10
95.0450911922
 20
50.1109745964
 30
0.0
  0
SPLINE
  5
765
100
AcDbEntity
  8
7_ALL_ROUNDS
100
AcDbSpline
 62
7
  6
CONTINUOUS
 70
0
 71
3
 72
8
 73
4
 74
0
 42
0.0000001
 43
0.0000001
 44
0.0000000001
 40
0.0
 40
0.0
 40
0.0
 40
0.0
 40
1.0
 40
1.0
 40
1.0
 40
1.0
 10
95.0450911922
 20
50.1109745964
 30
0.0
 10
95.0393820351
 20
50.1233396107
 30
0.0
 10
95.0350684432
 20
50.1365334129
 30
0.0
 10
95.032948942
 20
50.1499868797
 30
0.0
  0
SPLINE
  5
766
100
AcDbEntity
  8
3_ALL_AXES
100
AcDbSpline
 62
7
  6
CONTINUOUS
 70
0
 71
3
 72
9
 73
5
 74
0
 42
0.0000001
 43
0.0000001
 44
0.0000000001
 40
0.0
 40
0.0
 40
0.0
 40
0.0
 40
0.2953286985
 40
1.0
 40
1.0
 40
1.0
 40
1.0
 10
95.1448834069
 20
49.2884786047
 30
0.0
 10
95.1494487942
 20
49.2911151225
 30
0.0
 10
95.1641202997
 20
49.3009348959
 30
0.0
 10
95.1753698012
 20
49.3184105436
 30
0.0
 10
95.1753698012
 20
49.3309898403
 30
0.0
  0
SPLINE
  5
767
100
AcDbEntity
  8
7_ALL_ROUNDS
100
AcDbSpline
 62
7
  6
CONTINUOUS
 70
0
 71
3
 72
8
 73
4
 74
0
 42
0.0000001
 43
0.0000001
 44
0.0000000001
 40
0.0
 40
0.0
 40
0.0
 40
0.0
 40
1.0
 40
1.0
 40
1.0
 40
1.0
 10
95.033260327
 20
49.9010700296
 30
0.0
 10
95.0276040632
 20
49.8978035289
 30
0.0
 10
95.0215450035
 20
49.8950878006
 30
0.0
 10
95.0152463411
 20
49.8933585812
 30
0.0
  0
SPLINE
  5
768
100
AcDbEntity
  8
7_ALL_ROUNDS
100
AcDbSpline
 62
7
  6
CONTINUOUS
 70
0
 71
3
 72
8
 73
4
 74
0
 42
0.0000001
 43
0.0000001
 44
0.0000000001
 40
0.0
 40
0.0
 40
0.0
 40
0.0
 40
1.0
 40
1.0
 40
1.0
 40
1.0
 10
95.0152463411
 20
49.8933585812
 30
0.0
 10
95.0076519818
 20
49.8912736442
 30
0.0
 10
94.9992497358
 20
49.890651567
 30
0.0
 10
94.9916310264
 20
49.8926456891
 30
0.0
  0
SPLINE
  5
769
100
AcDbEntity
  8
7_ALL_ROUNDS
100
AcDbSpline
 62
7
  6
CONTINUOUS
 70
0
 71
3
 72
8
 73
4
 74
0
 42
0.0000001
 43
0.0000001
 44
0.0000000001
 40
0.0
 40
0.0
 40
0.0
 40
0.0
 40
1.0
 40
1.0
 40
1.0
 40
1.0
 10
94.9916310264
 20
49.8926456891
 30
0.0
 10
94.9886837422
 20
49.8934171117
 30
0.0
 10
94.9858108405
 20
49.8945846704
 30
0.0
 10
94.9831726092
 20
49.8961082555
 30
0.0
  0
SPLINE
  5
76A
100
AcDbEntity
  8
3_ALL_AXES
100
AcDbSpline
 62
7
  6
CONTINUOUS
 70
0
 71
3
 72
9
 73
5
 74
0
 42
0.0000001
 43
0.0000001
 44
0.0000000001
 40
0.0
 40
0.0
 40
0.0
 40
0.0
 40
0.2310457641
 40
1.0
 40
1.0
 40
1.0
 40
1.0
 10
95.1181152822
 20
50.8298987855
 30
0.0
 10
95.1153530736
 20
50.831493965
 30
0.0
 10
95.1038468519
 20
50.8391684083
 30
0.0
 10
95.0940899419
 20
50.8492938098
 30
0.0
 10
95.0876599506
 20
50.8577408514
 30
0.0
  0
SPLINE
  5
76B
100
AcDbEntity
  8
3_AXES_OTHER
100
AcDbSpline
 62
7
  6
CONTINUOUS
 70
0
 71
3
 72
9
 73
5
 74
0
 42
0.0000001
 43
0.0000001
 44
0.0000000001
 40
0.0
 40
0.0
 40
0.0
 40
0.0
 40
0.2208594661
 40
1.0
 40
1.0
 40
1.0
 40
1.0
 10
89.7455995286
 20
45.4541267089
 30
0.0
 10
89.742219353
 20
45.4521765427
 30
0.0
 10
89.7252292723
 20
45.4460263785
 30
0.0
 10
89.7062682914
 20
45.452343312
 30
0.0
 10
89.6943467089
 20
45.4592280432
 30
0.0
  0
SPLINE
  5
76C
100
AcDbEntity
  8
3_ALL_AXES
100
AcDbSpline
 62
7
  6
CONTINUOUS
 70
0
 71
3
 72
9
 73
5
 74
0
 42
0.0000001
 43
0.0000001
 44
0.0000000001
 40
0.0
 40
0.0
 40
0.0
 40
0.0
 40
0.2310457641
 40
1.0
 40
1.0
 40
1.0
 40
1.0
 10
95.1181152822
 20
49.3580424448
 30
0.0
 10
95.1153530736
 20
49.3596376243
 30
0.0
 10
95.1038468519
 20
49.3673120675
 30
0.0
 10
95.0940899419
 20
49.3774374691
 30
0.0
 10
95.0876599506
 20
49.3858845107
 30
0.0
  0
SPLINE
  5
76D
100
AcDbEntity
  8
3_AXES_OTHER
100
AcDbSpline
 62
7
  6
CONTINUOUS
 70
0
 71
3
 72
9
 73
5
 74
0
 42
0.0000001
 43
0.0000001
 44
0.0000000001
 40
0.0
 40
0.0
 40
0.0
 40
0.0
 40
0.2208594661
 40
1.0
 40
1.0
 40
1.0
 40
1.0
 10
89.7455995286
 20
47.4166018299
 30
0.0
 10
89.742219353
 20
47.4146516637
 30
0.0
 10
89.7252292723
 20
47.4085014995
 30
0.0
 10
89.7062682914
 20
47.414818433
 30
0.0
 10
89.6943467089
 20
47.4217031642
 30
0.0
  0
SPLINE
  5
76E
100
AcDbEntity
  8
7_ALL_ROUNDS
100
AcDbSpline
 62
7
  6
CONTINUOUS
 70
0
 71
3
 72
9
 73
5
 74
0
 42
0.0000001
 43
0.0000001
 44
0.0000000001
 40
0.0
 40
0.0
 40
0.0
 40
0.0
 40
0.4491830432
 40
1.0
 40
1.0
 40
1.0
 40
1.0
 10
79.0590467112
 20
53.0101494304
 30
0.0
 10
79.0401063806
 20
52.9992114031
 30
0.0
 10
78.9882717575
 20
52.9913693602
 30
0.0
 10
78.9418631855
 20
53.0106566877
 30
0.0
 10
78.9186373635
 20
53.0240696338
 30
0.0
  0
SPLINE
  5
76F
100
AcDbEntity
  8
0
100
AcDbSpline
 62
7
  6
CONTINUOUS
 70
0
 71
3
 72
9
 73
5
 74
0
 42
0.0000001
 43
0.0000001
 44
0.0000000001
 40
0.0
 40
0.0
 40
0.0
 40
0.0
 40
0.6362959114
 40
1.0
 40
1.0
 40
1.0
 40
1.0
 10
85.5279786341
 20
49.3911004743
 30
0.0
 10
85.5284136823
 20
49.3912982374
 30
0.0
 10
85.5283370016
 20
49.3890649457
 30
0.0
 10
85.529025005
 20
49.3902030091
 30
0.0
 10
85.5292644009
 20
49.3903345591
 30
0.0
  0
LINE
  5
770
100
AcDbEntity
  8
0
100
AcDbLine
 62
7
  6
CONTINUOUS
 10
84.0971520196
 20
49.2260385157
 11
83.9409086057
 21
49.1359541023
  0
LINE
  5
771
100
AcDbEntity
  8
0
100
AcDbLine
 62
7
  6
CONTINUOUS
 10
85.5279786341
 20
48.4085752004
 11
85.5292644009
 21
48.2275294185
  0
SPLINE
  5
772
100
AcDbEntity
  8
3_ALL_AXES
100
AcDbSpline
 62
7
  6
CONTINUOUS
 70
0
 71
3
 72
13
 73
9
 74
0
 42
0.0000001
 43
0.0000001
 44
0.0000000001
 40
0.0
 40
0.0
 40
0.0
 40
0.0
 40
0.0895037206
 40
0.191145842
 40
0.3097510039
 40
0.4438120823
 40
0.7329956895
 40
1.0
 40
1.0
 40
1.0
 40
1.0
 10
86.6068671005
 20
47.9526297966
 30
0.0
 10
86.581554978
 20
47.9380147575
 30
0.0
 10
86.5185847929
 20
47.9211488772
 30
0.0
 10
86.4168304686
 20
47.93880639
 30
0.0
 10
86.3126638301
 20
47.992044918
 30
0.0
 10
86.1765912434
 20
48.1070144606
 30
0.0
 10
86.0485288425
 20
48.2974827398
 30
0.0
 10
85.9992352912
 20
48.4785273648
 30
0.0
 10
85.9992352912
 20
48.5657206672
 30
0.0
  0
SPLINE
  5
773
100
AcDbEntity
  8
3_ALL_AXES
100
AcDbSpline
 62
7
  6
CONTINUOUS
 70
0
 71
3
 72
8
 73
4
 74
0
 42
0.0000001
 43
0.0000001
 44
0.0000000001
 40
0.0
 40
0.0
 40
0.0
 40
0.0
 40
1.0
 40
1.0
 40
1.0
 40
1.0
 10
94.7155584929
 20
49.0597115515
 30
0.0
 10
94.7216435971
 20
49.0561929747
 30
0.0
 10
94.7294558108
 20
49.0553387574
 30
0.0
 10
94.7363943323
 20
49.0564638329
 30
0.0
  0
SPLINE
  5
774
100
AcDbEntity
  8
3_ALL_AXES
100
AcDbSpline
 62
7
  6
CONTINUOUS
 70
0
 71
3
 72
8
 73
4
 74
0
 42
0.0000001
 43
0.0000001
 44
0.0000000001
 40
0.0
 40
0.0
 40
0.0
 40
0.0
 40
1.0
 40
1.0
 40
1.0
 40
1.0
 10
94.7363943323
 20
49.0564638329
 30
0.0
 10
94.7431548515
 20
49.0575600454
 30
0.0
 10
94.749699399
 20
49.0602592623
 30
0.0
 10
94.7556302607
 20
49.0636843436
 30
0.0
  0
SPLINE
  5
775
100
AcDbEntity
  8
3_ALL_AXES
100
AcDbSpline
 62
7
  6
CONTINUOUS
 70
0
 71
3
 72
9
 73
5
 74
0
 42
0.0000001
 43
0.0000001
 44
0.0000000001
 40
0.0
 40
0.0
 40
0.0
 40
0.0
 40
0.2395568986
 40
1.0
 40
1.0
 40
1.0
 40
1.0
 10
86.2773562836
 20
48.8018531529
 30
0.0
 10
86.2760330478
 20
48.7955609033
 30
0.0
 10
86.2712874102
 20
48.7691328454
 30
0.0
 10
86.2694989985
 20
48.7422091951
 30
0.0
 10
86.2694989985
 20
48.7217983533
 30
0.0
  0
SPLINE
  5
776
100
AcDbEntity
  8
3_ALL_AXES
100
AcDbSpline
 62
7
  6
CONTINUOUS
 70
0
 71
3
 72
13
 73
9
 74
0
 42
0.0000001
 43
0.0000001
 44
0.0000000001
 40
0.0
 40
0.0
 40
0.0
 40
0.0
 40
0.0851277412
 40
0.1830587922
 40
0.2997320017
 40
0.4337792737
 40
0.7272679626
 40
1.0
 40
1.0
 40
1.0
 40
1.0
 10
82.3986121519
 20
50.3761531703
 30
0.0
 10
82.3871583715
 20
50.3695427535
 30
0.0
 10
82.358138021
 20
50.3623861866
 30
0.0
 10
82.3116736481
 20
50.3729148747
 30
0.0
 10
82.2643819503
 20
50.4004782043
 30
0.0
 10
82.2022500991
 20
50.458607351
 30
0.0
 10
82.1442469481
 20
50.5527155446
 30
0.0
 10
82.1218381464
 20
50.6403950995
 30
0.0
 10
82.1218381464
 20
50.6827636331
 30
0.0
  0
LINE
  5
777
100
AcDbEntity
  8
0
100
AcDbLine
 62
7
  6
CONTINUOUS
 10
84.0346712009
 20
50.2445658307
 11
84.1127389693
 21
50.1995777657
  0
LINE
  5
778
100
AcDbEntity
  8
0
100
AcDbLine
 62
7
  6
CONTINUOUS
 10
84.1127389693
 20
50.1995777657
 11
84.1179699352
 21
50.1965676584
  0
SPLINE
  5
779
100
AcDbEntity
  8
3_ALL_AXES
100
AcDbSpline
 62
7
  6
CONTINUOUS
 70
0
 71
3
 72
9
 73
5
 74
0
 42
0.0000001
 43
0.0000001
 44
0.0000000001
 40
0.0
 40
0.0
 40
0.0
 40
0.0
 40
0.2672740651
 40
1.0
 40
1.0
 40
1.0
 40
1.0
 10
86.5828426602
 20
48.143412764
 30
0.0
 10
86.5924168734
 20
48.1368417559
 30
0.0
 10
86.6290124254
 20
48.1134588517
 30
0.0
 10
86.6690563292
 20
48.0950484594
 30
0.0
 10
86.6996560256
 20
48.0862675972
 30
0.0
  0
LINE
  5
77A
100
AcDbEntity
  8
0
100
AcDbLine
 62
7
  6
CONTINUOUS
 10
84.6005047691
 20
49.917796121
 11
84.6782558697
 21
49.8729902965
  0
LINE
  5
77B
100
AcDbEntity
  8
0
100
AcDbLine
 62
7
  6
CONTINUOUS
 10
85.5273272523
 20
49.3914173351
 11
85.5292644009
 21
49.3903345591
  0
SPLINE
  5
77C
100
AcDbEntity
  8
7_ALL_ROUNDS
100
AcDbSpline
 62
7
  6
CONTINUOUS
 70
0
 71
3
 72
9
 73
5
 74
0
 42
0.0000001
 43
0.0000001
 44
0.0000000001
 40
0.0
 40
0.0
 40
0.0
 40
0.0
 40
0.550784148
 40
1.0
 40
1.0
 40
1.0
 40
1.0
 10
89.0345347427
 20
45.5059334135
 30
0.0
 10
89.0345347427
 20
45.5327364247
 30
0.0
 10
89.0410384034
 20
45.5825401973
 30
0.0
 10
89.073725251
 20
45.6234827826
 30
0.0
 10
89.092655653
 20
45.6344150762
 30
0.0
  0
SPLINE
  5
77D
100
AcDbEntity
  8
7_ALL_ROUNDS
100
AcDbSpline
 62
7
  6
CONTINUOUS
 70
0
 71
3
 72
9
 73
5
 74
0
 42
0.0000001
 43
0.0000001
 44
0.0000000001
 40
0.0
 40
0.0
 40
0.0
 40
0.0
 40
0.5000256547
 40
1.0
 40
1.0
 40
1.0
 40
1.0
 10
89.2330650006
 20
47.0674725918
 30
0.0
 10
89.1741394607
 20
47.1015021773
 30
0.0
 10
89.0810358792
 20
47.208944139
 30
0.0
 10
89.0345347427
 20
47.3432982543
 30
0.0
 10
89.0345347427
 20
47.4113370795
 30
0.0
  0
SPLINE
  5
77E
100
AcDbEntity
  8
3_ALL_AXES
100
AcDbSpline
 62
7
  6
CONTINUOUS
 70
0
 71
3
 72
8
 73
4
 74
0
 42
0.0000001
 43
0.0000001
 44
0.0000000001
 40
0.0
 40
0.0
 40
0.0
 40
0.0
 40
1.0
 40
1.0
 40
1.0
 40
1.0
 10
94.7155584929
 20
50.5315678922
 30
0.0
 10
94.7216435971
 20
50.5280493154
 30
0.0
 10
94.7294558108
 20
50.5271950982
 30
0.0
 10
94.7363943323
 20
50.5283201736
 30
0.0
  0
SPLINE
  5
77F
100
AcDbEntity
  8
3_ALL_AXES
100
AcDbSpline
 62
7
  6
CONTINUOUS
 70
0
 71
3
 72
8
 73
4
 74
0
 42
0.0000001
 43
0.0000001
 44
0.0000000001
 40
0.0
 40
0.0
 40
0.0
 40
0.0
 40
1.0
 40
1.0
 40
1.0
 40
1.0
 10
94.7363943323
 20
50.5283201736
 30
0.0
 10
94.7431548515
 20
50.5294163861
 30
0.0
 10
94.749699399
 20
50.532115603
 30
0.0
 10
94.7556302607
 20
50.5355406843
 30
0.0
  0
SPLINE
  5
780
100
AcDbEntity
  8
7_ALL_ROUNDS
100
AcDbSpline
 62
9
  6
CONTINUOUS
 70
0
 71
3
 72
13
 73
9
 74
0
 42
0.0000001
 43
0.0000001
 44
0.0000000001
 40
0.0
 40
0.0
 40
0.0
 40
0.0
 40
0.2928437997
 40
0.4480220258
 40
0.5881017308
 40
0.7905059593
 40
0.8846092138
 40
1.0
 40
1.0
 40
1.0
 40
1.0
 10
86.3029591543
 20
48.4190668269
 30
0.0
 10
86.3029591543
 20
48.3961335581
 30
0.0
 10
86.3149715868
 20
48.3610170236
 30
0.0
 10
86.3427133511
 20
48.3238048301
 30
0.0
 10
86.3713439768
 20
48.2983011579
 30
0.0
 10
86.412623405
 20
48.2886199083
 30
0.0
 10
86.4346826982
 20
48.3159918202
 30
0.0
 10
86.4367997776
 20
48.3327371544
 30
0.0
 10
86.4367997776
 20
48.3417736712
 30
0.0
  0
SPLINE
  5
781
100
AcDbEntity
  8
7_ALL_ROUNDS
100
AcDbSpline
 62
9
  6
CONTINUOUS
 70
0
 71
3
 72
13
 73
9
 74
0
 42
0.0000001
 43
0.0000001
 44
0.0000000001
 40
0.0
 40
0.0
 40
0.0
 40
0.0
 40
0.2928437997
 40
0.4480220258
 40
0.5881017308
 40
0.7905059593
 40
0.8846092138
 40
1.0
 40
1.0
 40
1.0
 40
1.0
 10
86.4367997776
 20
48.3417736712
 30
0.0
 10
86.4367997776
 20
48.36470694
 30
0.0
 10
86.4247873451
 20
48.3998234745
 30
0.0
 10
86.3970455809
 20
48.4370356681
 30
0.0
 10
86.3684149551
 20
48.4625393403
 30
0.0
 10
86.327135527
 20
48.4722205898
 30
0.0
 10
86.3050762337
 20
48.4448486779
 30
0.0
 10
86.3029591543
 20
48.4281033437
 30
0.0
 10
86.3029591543
 20
48.4190668269
 30
0.0
  0
SPLINE
  5
782
100
AcDbEntity
  8
3_ALL_AXES
100
AcDbSpline
 62
7
  6
CONTINUOUS
 70
0
 71
3
 72
10
 73
6
 74
0
 42
0.0000001
 43
0.0000001
 44
0.0000000001
 40
0.0
 40
0.0
 40
0.0
 40
0.0
 40
0.1828044885
 40
0.5550807712
 40
1.0
 40
1.0
 40
1.0
 40
1.0
 10
95.005250138
 20
49.5842701753
 30
0.0
 10
95.0099093139
 20
49.5815922619
 30
0.0
 10
95.0278483726
 20
49.5807214117
 30
0.0
 10
95.0522750788
 20
49.6002835377
 30
0.0
 10
95.0648339885
 20
49.6212332225
 30
0.0
 10
95.0689940479
 20
49.6336333648
 30
0.0
  0
SPLINE
  5
783
100
AcDbEntity
  8
3_ALL_AXES
100
AcDbSpline
 62
7
  6
CONTINUOUS
 70
0
 71
3
 72
8
 73
4
 74
0
 42
0.0000001
 43
0.0000001
 44
0.0000000001
 40
0.0
 40
0.0
 40
0.0
 40
0.0
 40
1.0
 40
1.0
 40
1.0
 40
1.0
 10
95.0689940479
 20
49.6336333648
 30
0.0
 10
95.0713776143
 20
49.640738206
 30
0.0
 10
95.0729217651
 20
49.6482756268
 30
0.0
 10
95.0729217651
 20
49.6557696348
 30
0.0
  0
SPLINE
  5
784
100
AcDbEntity
  8
7_ALL_ROUNDS
100
AcDbSpline
 62
7
  6
CONTINUOUS
 70
0
 71
3
 72
9
 73
5
 74
0
 42
0.0000001
 43
0.0000001
 44
0.0000000001
 40
0.0
 40
0.0
 40
0.0
 40
0.0
 40
0.4999743453
 40
1.0
 40
1.0
 40
1.0
 40
1.0
 10
89.4212003035
 20
47.6346370063
 30
0.0
 10
89.4212003035
 20
47.566598181
 30
0.0
 10
89.46770144
 20
47.4322440658
 30
0.0
 10
89.5608050215
 20
47.324802104
 30
0.0
 10
89.6197305614
 20
47.2907725186
 30
0.0
  0
SPLINE
  5
785
100
AcDbEntity
  8
3_ALL_AXES
100
AcDbSpline
 62
7
  6
CONTINUOUS
 70
0
 71
3
 72
9
 73
5
 74
0
 42
0.0000001
 43
0.0000001
 44
0.0000000001
 40
0.0
 40
0.0
 40
0.0
 40
0.0
 40
0.5318017053
 40
1.0
 40
1.0
 40
1.0
 40
1.0
 10
94.8122894579
 20
50.5682614536
 30
0.0
 10
94.8334742612
 20
50.5804957085
 30
0.0
 10
94.862785067
 20
50.618497176
 30
0.0
 10
94.8735179954
 20
50.6693198793
 30
0.0
 10
94.8646357305
 20
50.6889408971
 30
0.0
  0
SPLINE
  5
786
100
AcDbEntity
  8
3_ALL_AXES
100
AcDbSpline
 62
7
  6
CONTINUOUS
 70
0
 71
3
 72
8
 73
4
 74
0
 42
0.0000001
 43
0.0000001
 44
0.0000000001
 40
0.0
 40
0.0
 40
0.0
 40
0.0
 40
1.0
 40
1.0
 40
1.0
 40
1.0
 10
94.8646357305
 20
50.6889408971
 30
0.0
 10
94.8620632882
 20
50.6946234495
 30
0.0
 10
94.8577611764
 20
50.6999435184
 30
0.0
 10
94.8523612257
 20
50.7030659204
 30
0.0
  0
SPLINE
  5
787
100
AcDbEntity
  8
3_ALL_AXES
100
AcDbSpline
 62
7
  6
CONTINUOUS
 70
0
 71
3
 72
10
 73
6
 74
0
 42
0.0000001
 43
0.0000001
 44
0.0000000001
 40
0.0
 40
0.0
 40
0.0
 40
0.0
 40
0.1828044885
 40
0.5550807712
 40
1.0
 40
1.0
 40
1.0
 40
1.0
 10
95.005250138
 20
50.3692602237
 30
0.0
 10
95.0099093139
 20
50.3665823103
 30
0.0
 10
95.0278483726
 20
50.3657114601
 30
0.0
 10
95.0522750788
 20
50.3852735861
 30
0.0
 10
95.0648339885
 20
50.4062232709
 30
0.0
 10
95.0689940479
 20
50.4186234132
 30
0.0
  0
SPLINE
  5
788
100
AcDbEntity
  8
3_ALL_AXES
100
AcDbSpline
 62
7
  6
CONTINUOUS
 70
0
 71
3
 72
8
 73
4
 74
0
 42
0.0000001
 43
0.0000001
 44
0.0000000001
 40
0.0
 40
0.0
 40
0.0
 40
0.0
 40
1.0
 40
1.0
 40
1.0
 40
1.0
 10
95.0689940479
 20
50.4186234132
 30
0.0
 10
95.0713776143
 20
50.4257282544
 30
0.0
 10
95.0729217651
 20
50.4332656752
 30
0.0
 10
95.0729217651
 20
50.4407596832
 30
0.0
  0
SPLINE
  5
789
100
AcDbEntity
  8
3_AXES_OTHER
100
AcDbSpline
 62
7
  6
CONTINUOUS
 70
0
 71
3
 72
10
 73
6
 74
0
 42
0.0000001
 43
0.0000001
 44
0.0000000001
 40
0.0
 40
0.0
 40
0.0
 40
0.0
 40
0.2776708414
 40
0.5774718644
 40
1.0
 40
1.0
 40
1.0
 40
1.0
 10
89.6206897525
 20
47.4642401643
 30
0.0
 10
89.604821291
 20
47.473404224
 30
0.0
 10
89.5769945075
 20
47.5020387523
 30
0.0
 10
89.5462567476
 20
47.5567898707
 30
0.0
 10
89.5452842527
 20
47.6228610386
 30
0.0
 10
89.5694369328
 20
47.6367957406
 30
0.0
  0
SPLINE
  5
78A
100
AcDbEntity
  8
3_AXES_OTHER
100
AcDbSpline
 62
7
  6
CONTINUOUS
 70
0
 71
3
 72
9
 73
5
 74
0
 42
0.0000001
 43
0.0000001
 44
0.0000000001
 40
0.0
 40
0.0
 40
0.0
 40
0.0
 40
0.2293684599
 40
1.0
 40
1.0
 40
1.0
 40
1.0
 10
89.6206897525
 20
45.5017650433
 30
0.0
 10
89.6139167163
 20
45.5056764816
 30
0.0
 10
89.5865001065
 20
45.5262533744
 30
0.0
 10
89.5668643672
 20
45.5563102781
 30
0.0
 10
89.557513108
 20
45.5808682405
 30
0.0
  0
SPLINE
  5
78B
100
AcDbEntity
  8
3_ALL_AXES
100
AcDbSpline
 62
7
  6
CONTINUOUS
 70
0
 71
3
 72
9
 73
5
 74
0
 42
0.0000001
 43
0.0000001
 44
0.0000000001
 40
0.0
 40
0.0
 40
0.0
 40
0.0
 40
0.555536989
 40
1.0
 40
1.0
 40
1.0
 40
1.0
 10
82.1218381464
 20
50.6827636331
 30
0.0
 10
82.1218381464
 20
50.7052561363
 30
0.0
 10
82.1268978802
 20
50.7466322349
 30
0.0
 10
82.1536693735
 20
50.7811339659
 30
0.0
 10
82.1692552435
 20
50.790129158
 30
0.0
  0
SPLINE
  5
78C
100
AcDbEntity
  8
3_ALL_AXES
100
AcDbSpline
 62
7
  6
CONTINUOUS
 70
0
 71
3
 72
9
 73
5
 74
0
 42
0.0000001
 43
0.0000001
 44
0.0000000001
 40
0.0
 40
0.0
 40
0.0
 40
0.0
 40
0.5318017053
 40
1.0
 40
1.0
 40
1.0
 40
1.0
 10
94.8122894579
 20
49.0964051128
 30
0.0
 10
94.8334742612
 20
49.1086393677
 30
0.0
 10
94.862785067
 20
49.1466408352
 30
0.0
 10
94.8735179954
 20
49.1974635385
 30
0.0
 10
94.8646357305
 20
49.2170845563
 30
0.0
  0
SPLINE
  5
78D
100
AcDbEntity
  8
3_ALL_AXES
100
AcDbSpline
 62
7
  6
CONTINUOUS
 70
0
 71
3
 72
8
 73
4
 74
0
 42
0.0000001
 43
0.0000001
 44
0.0000000001
 40
0.0
 40
0.0
 40
0.0
 40
0.0
 40
1.0
 40
1.0
 40
1.0
 40
1.0
 10
94.8646357305
 20
49.2170845563
 30
0.0
 10
94.8620632882
 20
49.2227671088
 30
0.0
 10
94.8577611764
 20
49.2280871777
 30
0.0
 10
94.8523612257
 20
49.2312095796
 30
0.0
  0
SPLINE
  5
78E
100
AcDbEntity
  8
3_ALL_AXES
100
AcDbSpline
 62
7
  6
CONTINUOUS
 70
0
 71
3
 72
8
 73
4
 74
0
 42
0.0000001
 43
0.0000001
 44
0.0000000001
 40
0.0
 40
0.0
 40
0.0
 40
0.0
 40
1.0
 40
1.0
 40
1.0
 40
1.0
 10
85.5654503607
 20
56.3657454578
 30
0.0
 10
85.5593652565
 20
56.362226881
 30
0.0
 10
85.5515530428
 20
56.3613726638
 30
0.0
 10
85.5446145213
 20
56.3624977392
 30
0.0
  0
SPLINE
  5
78F
100
AcDbEntity
  8
3_ALL_AXES
100
AcDbSpline
 62
7
  6
CONTINUOUS
 70
0
 71
3
 72
8
 73
4
 74
0
 42
0.0000001
 43
0.0000001
 44
0.0000000001
 40
0.0
 40
0.0
 40
0.0
 40
0.0
 40
1.0
 40
1.0
 40
1.0
 40
1.0
 10
85.5446145213
 20
56.3624977392
 30
0.0
 10
85.5378540021
 20
56.3635939517
 30
0.0
 10
85.5313094546
 20
56.3662931687
 30
0.0
 10
85.5253785929
 20
56.3697182499
 30
0.0
  0
SPLINE
  5
790
100
AcDbEntity
  8
3_AXES_OTHER
100
AcDbSpline
 62
7
  6
CONTINUOUS
 70
0
 71
3
 72
10
 73
6
 74
0
 42
0.0000001
 43
0.0000001
 44
0.0000000001
 40
0.0
 40
0.0
 40
0.0
 40
0.0
 40
0.2776708414
 40
0.5774718644
 40
1.0
 40
1.0
 40
1.0
 40
1.0
 10
79.2306867768
 20
53.4644820748
 30
0.0
 10
79.2148183153
 20
53.4736461346
 30
0.0
 10
79.1869915318
 20
53.5022806628
 30
0.0
 10
79.1562537719
 20
53.5570317813
 30
0.0
 10
79.155281277
 20
53.6231029491
 30
0.0
 10
79.1794339571
 20
53.6370376511
 30
0.0
  0
SPLINE
  5
791
100
AcDbEntity
  8
3_ALL_AXES
100
AcDbSpline
 62
7
  6
CONTINUOUS
 70
0
 71
3
 72
9
 73
5
 74
0
 42
0.0000001
 43
0.0000001
 44
0.0000000001
 40
0.0
 40
0.0
 40
0.0
 40
0.0
 40
0.5254606369
 40
1.0
 40
1.0
 40
1.0
 40
1.0
 10
85.5253785929
 20
56.6509194941
 30
0.0
 10
85.5795390688
 20
56.5596864036
 30
0.0
 10
85.6633022785
 20
56.3740000647
 30
0.0
 10
85.7003099895
 20
56.1720769264
 30
0.0
 10
85.7003099895
 20
56.0762604524
 30
0.0
  0
SPLINE
  5
792
100
AcDbEntity
  8
0
100
AcDbSpline
 62
7
  6
CONTINUOUS
 70
0
 71
3
 72
9
 73
5
 74
0
 42
0.0000001
 43
0.0000001
 44
0.0000000001
 40
0.0
 40
0.0
 40
0.0
 40
0.0
 40
0.4983739846
 40
1.0
 40
1.0
 40
1.0
 40
1.0
 10
26.7144714221
 20
28.9816070521
 30
0.0
 10
26.7375668539
 20
28.9585423912
 30
0.0
 10
26.7857777373
 20
28.9141656413
 30
0.0
 10
26.8312869561
 20
28.8670424318
 30
0.0
 10
26.8545176114
 20
28.8438117765
 30
0.0
  0
LINE
  5
793
100
AcDbEntity
  8
0
100
AcDbLine
 62
7
  6
CONTINUOUS
 10
24.2026603985
 20
28.9816070521
 11
24.0646955492
 21
28.8438117765
  0
LINE
  5
794
100
AcDbEntity
  8
0
100
AcDbLine
 62
7
  6
CONTINUOUS
 10
24.2026603985
 20
30.483575556
 11
24.0646955492
 21
30.6213708316
  0
SPLINE
  5
795
100
AcDbEntity
  8
0
100
AcDbSpline
 62
7
  6
CONTINUOUS
 70
0
 71
3
 72
9
 73
5
 74
0
 42
0.0000001
 43
0.0000001
 44
0.0000000001
 40
0.0
 40
0.0
 40
0.0
 40
0.0
 40
0.4983739872
 40
1.0
 40
1.0
 40
1.0
 40
1.0
 10
26.7144714221
 20
30.483575556
 30
0.0
 10
26.737566854
 20
30.5066402171
 30
0.0
 10
26.785777736
 20
30.5510169685
 30
0.0
 10
26.8312869562
 20
30.5981401764
 30
0.0
 10
26.8545176114
 20
30.6213708316
 30
0.0
  0
SPLINE
  5
796
100
AcDbEntity
  8
3_ALL_AXES
100
AcDbSpline
 62
7
  6
CONTINUOUS
 70
0
 71
3
 72
11
 73
7
 74
0
 42
0.0000001
 43
0.0000001
 44
0.0000000001
 40
0.0
 40
0.0
 40
0.0
 40
0.0
 40
0.1866159735
 40
0.4104764705
 40
0.6872302919
 40
1.0
 40
1.0
 40
1.0
 40
1.0
 10
57.5790973983
 20
31.0922363485
 30
0.0
 10
57.5787388662
 20
31.1035731077
 30
0.0
 10
57.5704108482
 20
31.1284876408
 30
0.0
 10
57.5402379616
 20
31.1584879297
 30
0.0
 10
57.4984772942
 20
31.185100494
 30
0.0
 10
57.4664648041
 20
31.2013197028
 30
0.0
 10
57.4492089846
 20
31.2092956907
 30
0.0
  0
SPLINE
  5
797
100
AcDbEntity
  8
3_ALL_AXES
100
AcDbSpline
 62
7
  6
CONTINUOUS
 70
0
 71
3
 72
11
 73
7
 74
0
 42
0.0000001
 43
0.0000001
 44
0.0000000001
 40
0.0
 40
0.0
 40
0.0
 40
0.0
 40
0.3127888501
 40
0.5895429184
 40
0.8133874878
 40
1.0
 40
1.0
 40
1.0
 40
1.0
 10
57.4492089846
 20
28.0598632954
 30
0.0
 10
57.4664658499
 20
28.0678397666
 30
0.0
 10
57.4984822744
 20
28.0840546961
 30
0.0
 10
57.5402368888
 20
28.1106762236
 30
0.0
 10
57.570412526
 20
28.140671857
 30
0.0
 10
57.5787388731
 20
28.1655860954
 30
0.0
 10
57.5790973983
 20
28.1769226376
 30
0.0
  0
SPLINE
  5
798
100
AcDbEntity
  8
3_ALL_AXES
100
AcDbSpline
 62
7
  6
CONTINUOUS
 70
0
 71
3
 72
8
 73
4
 74
0
 42
0.0000001
 43
0.0000001
 44
0.0000000001
 40
0.0
 40
0.0
 40
0.0
 40
0.0
 40
1.0
 40
1.0
 40
1.0
 40
1.0
 10
93.2878324932
 20
31.2092956907
 30
0.0
 10
93.2878324932
 20
31.2059209285
 30
0.0
 10
93.2872170336
 20
31.2025924121
 30
0.0
 10
93.2861676833
 20
31.1993531512
 30
0.0
  0
SPLINE
  5
799
100
AcDbEntity
  8
3_ALL_AXES
100
AcDbSpline
 62
7
  6
CONTINUOUS
 70
0
 71
3
 72
8
 73
4
 74
0
 42
0.0000001
 43
0.0000001
 44
0.0000000001
 40
0.0
 40
0.0
 40
0.0
 40
0.0
 40
1.0
 40
1.0
 40
1.0
 40
1.0
 10
93.2861676833
 20
31.1993531512
 30
0.0
 10
93.2850720511
 20
31.1959710214
 30
0.0
 10
93.2835034104
 20
31.192686194
 30
0.0
 10
93.2816684302
 20
31.1895476239
 30
0.0
  0
SPLINE
  5
79A
100
AcDbEntity
  8
3_ALL_AXES
100
AcDbSpline
 62
7
  6
CONTINUOUS
 70
0
 71
3
 72
9
 73
5
 74
0
 42
0.0000001
 43
0.0000001
 44
0.0000000001
 40
0.0
 40
0.0
 40
0.0
 40
0.0
 40
0.2051126445
 40
1.0
 40
1.0
 40
1.0
 40
1.0
 10
93.2816684302
 20
31.1895476239
 30
0.0
 10
93.2806880049
 20
31.187870694
 30
0.0
 10
93.2755373805
 20
31.1798985999
 30
0.0
 10
93.2693287826
 20
31.1730964191
 30
0.0
 10
93.2640384129
 20
31.1680862538
 30
0.0
  0
SPLINE
  5
79B
100
AcDbEntity
  8
3_ALL_AXES
100
AcDbSpline
 62
7
  6
CONTINUOUS
 70
0
 71
3
 72
9
 73
5
 74
0
 42
0.0000001
 43
0.0000001
 44
0.0000000001
 40
0.0
 40
0.0
 40
0.0
 40
0.0
 40
0.4758606446
 40
1.0
 40
1.0
 40
1.0
 40
1.0
 10
93.2640384129
 20
31.1680862538
 30
0.0
 10
93.2599291717
 20
31.1641946585
 30
0.0
 10
93.2508433971
 20
31.1565197335
 30
0.0
 10
93.2414594124
 20
31.1491934237
 30
0.0
 10
93.2364809807
 20
31.145427081
 30
0.0
  0
SPLINE
  5
79C
100
AcDbEntity
  8
3_ALL_AXES
100
AcDbSpline
 62
7
  6
CONTINUOUS
 70
0
 71
3
 72
9
 73
5
 74
0
 42
0.0000001
 43
0.0000001
 44
0.0000000001
 40
0.0
 40
0.0
 40
0.0
 40
0.0
 40
0.3523786464
 40
1.0
 40
1.0
 40
1.0
 40
1.0
 10
93.2364809807
 20
31.145427081
 30
0.0
 10
93.2278189242
 20
31.1388739586
 30
0.0
 10
93.2027225086
 20
31.1209099964
 30
0.0
 10
93.1770989306
 20
31.1038042014
 30
0.0
 10
93.1608324904
 20
31.0922363485
 30
0.0
  0
SPLINE
  5
79D
100
AcDbEntity
  8
3_ALL_AXES
100
AcDbSpline
 62
7
  6
CONTINUOUS
 70
0
 71
3
 72
8
 73
4
 74
0
 42
0.0000001
 43
0.0000001
 44
0.0000000001
 40
0.0
 40
0.0
 40
0.0
 40
0.0
 40
1.0
 40
1.0
 40
1.0
 40
1.0
 10
76.0973994224
 20
28.0598632954
 30
0.0
 10
76.0973994224
 20
28.0632380576
 30
0.0
 10
76.098014882
 20
28.066566574
 30
0.0
 10
76.0990642323
 20
28.0698058349
 30
0.0
  0
SPLINE
  5
79E
100
AcDbEntity
  8
3_ALL_AXES
100
AcDbSpline
 62
7
  6
CONTINUOUS
 70
0
 71
3
 72
8
 73
4
 74
0
 42
0.0000001
 43
0.0000001
 44
0.0000000001
 40
0.0
 40
0.0
 40
0.0
 40
0.0
 40
1.0
 40
1.0
 40
1.0
 40
1.0
 10
76.0990642323
 20
28.0698058349
 30
0.0
 10
76.1001598645
 20
28.0731879647
 30
0.0
 10
76.1017285051
 20
28.0764727921
 30
0.0
 10
76.1035634854
 20
28.0796113622
 30
0.0
  0
SPLINE
  5
79F
100
AcDbEntity
  8
3_ALL_AXES
100
AcDbSpline
 62
7
  6
CONTINUOUS
 70
0
 71
3
 72
9
 73
5
 74
0
 42
0.0000001
 43
0.0000001
 44
0.0000000001
 40
0.0
 40
0.0
 40
0.0
 40
0.0
 40
0.2051126445
 40
1.0
 40
1.0
 40
1.0
 40
1.0
 10
76.1035634854
 20
28.0796113622
 30
0.0
 10
76.1045439106
 20
28.0812882921
 30
0.0
 10
76.1096945351
 20
28.0892603862
 30
0.0
 10
76.115903133
 20
28.096062567
 30
0.0
 10
76.1211935027
 20
28.1010727323
 30
0.0
  0
SPLINE
  5
7A0
100
AcDbEntity
  8
3_ALL_AXES
100
AcDbSpline
 62
7
  6
CONTINUOUS
 70
0
 71
3
 72
9
 73
5
 74
0
 42
0.0000001
 43
0.0000001
 44
0.0000000001
 40
0.0
 40
0.0
 40
0.0
 40
0.0
 40
0.4758606446
 40
1.0
 40
1.0
 40
1.0
 40
1.0
 10
76.1211935027
 20
28.1010727323
 30
0.0
 10
76.1253027439
 20
28.1049643276
 30
0.0
 10
76.1343885185
 20
28.1126392526
 30
0.0
 10
76.1437725032
 20
28.1199655624
 30
0.0
 10
76.1487509349
 20
28.1237319051
 30
0.0
  0
SPLINE
  5
7A1
100
AcDbEntity
  8
3_ALL_AXES
100
AcDbSpline
 62
7
  6
CONTINUOUS
 70
0
 71
3
 72
9
 73
5
 74
0
 42
0.0000001
 43
0.0000001
 44
0.0000000001
 40
0.0
 40
0.0
 40
0.0
 40
0.0
 40
0.3523786464
 40
1.0
 40
1.0
 40
1.0
 40
1.0
 10
76.1487509349
 20
28.1237319051
 30
0.0
 10
76.1574129914
 20
28.1302850276
 30
0.0
 10
76.182509407
 20
28.1482489897
 30
0.0
 10
76.208132985
 20
28.1653547847
 30
0.0
 10
76.2243994252
 20
28.1769226376
 30
0.0
  0
SPLINE
  5
7A2
100
AcDbEntity
  8
3_ALL_AXES
100
AcDbSpline
 62
7
  6
CONTINUOUS
 70
0
 71
3
 72
9
 73
5
 74
0
 42
0.0000001
 43
0.0000001
 44
0.0000000001
 40
0.0
 40
0.0
 40
0.0
 40
0.0
 40
0.6133785491
 40
1.0
 40
1.0
 40
1.0
 40
1.0
 10
93.1608324904
 20
28.1769226376
 30
0.0
 10
93.1770989306
 20
28.1653547847
 30
0.0
 10
93.2041529844
 20
28.1472940323
 30
0.0
 10
93.2306193735
 20
28.1282766211
 30
0.0
 10
93.2405837912
 20
28.1206000615
 30
0.0
  0
SPLINE
  5
7A3
100
AcDbEntity
  8
3_ALL_AXES
100
AcDbSpline
 62
7
  6
CONTINUOUS
 70
0
 71
3
 72
9
 73
5
 74
0
 42
0.0000001
 43
0.0000001
 44
0.0000000001
 40
0.0
 40
0.0
 40
0.0
 40
0.0
 40
0.4376127369
 40
1.0
 40
1.0
 40
1.0
 40
1.0
 10
93.2405837912
 20
28.1206000615
 30
0.0
 10
93.2441647752
 20
28.1178412814
 30
0.0
 10
93.252268662
 20
28.1114414951
 30
0.0
 10
93.2601480925
 20
28.1047793139
 30
0.0
 10
93.2643501631
 20
28.1007766381
 30
0.0
  0
SPLINE
  5
7A4
100
AcDbEntity
  8
3_ALL_AXES
100
AcDbSpline
 62
7
  6
CONTINUOUS
 70
0
 71
3
 72
9
 73
5
 74
0
 42
0.0000001
 43
0.0000001
 44
0.0000000001
 40
0.0
 40
0.0
 40
0.0
 40
0.0
 40
0.56743116
 40
1.0
 40
1.0
 40
1.0
 40
1.0
 10
93.2643501631
 20
28.1007766381
 30
0.0
 10
93.2695226599
 20
28.0958495844
 30
0.0
 10
93.2780262086
 20
28.0864830342
 30
0.0
 10
93.2845344708
 20
28.0749100843
 30
0.0
 10
93.286210605
 20
28.069672532
 30
0.0
  0
SPLINE
  5
7A5
100
AcDbEntity
  8
3_ALL_AXES
100
AcDbSpline
 62
7
  6
CONTINUOUS
 70
0
 71
3
 72
8
 73
4
 74
0
 42
0.0000001
 43
0.0000001
 44
0.0000000001
 40
0.0
 40
0.0
 40
0.0
 40
0.0
 40
1.0
 40
1.0
 40
1.0
 40
1.0
 10
93.286210605
 20
28.069672532
 30
0.0
 10
93.2872337965
 20
28.0664752824
 30
0.0
 10
93.2878324932
 20
28.0631917821
 30
0.0
 10
93.2878324932
 20
28.0598632954
 30
0.0
  0
SPLINE
  5
7A6
100
AcDbEntity
  8
3_ALL_AXES
100
AcDbSpline
 62
7
  6
CONTINUOUS
 70
0
 71
3
 72
9
 73
5
 74
0
 42
0.0000001
 43
0.0000001
 44
0.0000000001
 40
0.0
 40
0.0
 40
0.0
 40
0.0
 40
0.6133785491
 40
1.0
 40
1.0
 40
1.0
 40
1.0
 10
76.2243994251
 20
31.0922363485
 30
0.0
 10
76.2081329849
 20
31.1038042014
 30
0.0
 10
76.1810789311
 20
31.1218649538
 30
0.0
 10
76.1546125421
 20
31.140882365
 30
0.0
 10
76.1446481244
 20
31.1485589246
 30
0.0
  0
SPLINE
  5
7A7
100
AcDbEntity
  8
3_ALL_AXES
100
AcDbSpline
 62
7
  6
CONTINUOUS
 70
0
 71
3
 72
9
 73
5
 74
0
 42
0.0000001
 43
0.0000001
 44
0.0000000001
 40
0.0
 40
0.0
 40
0.0
 40
0.0
 40
0.4376127369
 40
1.0
 40
1.0
 40
1.0
 40
1.0
 10
76.1446481244
 20
31.1485589246
 30
0.0
 10
76.1410671404
 20
31.1513177047
 30
0.0
 10
76.1329632536
 20
31.157717491
 30
0.0
 10
76.1250838231
 20
31.1643796722
 30
0.0
 10
76.1208817525
 20
31.168382348
 30
0.0
  0
SPLINE
  5
7A8
100
AcDbEntity
  8
3_ALL_AXES
100
AcDbSpline
 62
7
  6
CONTINUOUS
 70
0
 71
3
 72
9
 73
5
 74
0
 42
0.0000001
 43
0.0000001
 44
0.0000000001
 40
0.0
 40
0.0
 40
0.0
 40
0.0
 40
0.56743116
 40
1.0
 40
1.0
 40
1.0
 40
1.0
 10
76.1208817525
 20
31.168382348
 30
0.0
 10
76.1157092557
 20
31.1733094017
 30
0.0
 10
76.107205707
 20
31.1826759519
 30
0.0
 10
76.1006974448
 20
31.1942489018
 30
0.0
 10
76.0990213106
 20
31.1994864541
 30
0.0
  0
SPLINE
  5
7A9
100
AcDbEntity
  8
3_ALL_AXES
100
AcDbSpline
 62
7
  6
CONTINUOUS
 70
0
 71
3
 72
8
 73
4
 74
0
 42
0.0000001
 43
0.0000001
 44
0.0000000001
 40
0.0
 40
0.0
 40
0.0
 40
0.0
 40
1.0
 40
1.0
 40
1.0
 40
1.0
 10
76.0990213106
 20
31.1994864541
 30
0.0
 10
76.0979981191
 20
31.2026837037
 30
0.0
 10
76.0973994224
 20
31.205967204
 30
0.0
 10
76.0973994224
 20
31.2092956907
 30
0.0
  0
ENDSEC
  0
SECTION
  2
OBJECTS
  0
DICTIONARY
  5
C
100
AcDbDictionary
280
0
281
1
  3
ACAD_GROUP
350
D
  3
ACAD_MLINESTYLE
350
17
  3
ACAD_LAYOUT
350
1A
  3
ACAD_PLOTSETTINGS
350
19
  3
ACAD_PLOTSTYLENAME
350
E
  0
DICTIONARY
  5
D
102
{ACAD_REACTORS
330
C
102
}
100
AcDbDictionary
280
0
281
1
  0
ACDBDICTIONARYWDFLT
  5
E
102
{ACAD_REACTORS
330
C
102
}
100
AcDbDictionary
281
1
  3
Normal
350
F
100
AcDbDictionaryWithDefault
340
F
  0
DICTIONARY
  5
17
102
{ACAD_REACTORS
330
C
102
}
100
AcDbDictionary
280
0
281
1
  3
Standard
350
18
  0
DICTIONARY
  5
19
102
{ACAD_REACTORS
330
C
102
}
100
AcDbDictionary
281
1
  0
DICTIONARY
  5
1A
102
{ACAD_REACTORS
330
C
102
}
100
AcDbDictionary
281
1
  3
Model
350
7AA
  3
Layout1
350
7AB
  0
ACDBPLACEHOLDER
  5
F
102
{ACAD_REACTORS
330
E
102
}
  0
MLINESTYLE
  5
18
102
{ACAD_REACTORS
330
17
102
}
100
AcDbMlineStyle
  2
STANDARD
 70
0
  3

 62
256
 51
90.0
 52
90.0
 71
2
 49
0.5
 62
256
  6
BYLAYER
 49
-0.5
 62
256
  6
BYLAYER
  0
LAYOUT
  5
7AA
102
{ACAD_REACTORS
330
1A
102
}
100
AcDbPlotSettings
  1

  2
none_device
  4
ANSI_B_(17.00_x_11.00_Inches)
  6

 40
0.0
 41
0.0
 42
0.0
 43
0.0
 44
431.8
 45
279.4
 46
0.0
 47
0.0
 48
0.0
 49
0.0
140
0.0
141
0.0
142
1.0
143
1.0
 70
1024
 72
0
 73
0
 74
0
  7

 75
0
147
1.0
148
0.0
149
0.0
100
AcDbLayout
  1
Model
 70
0
 71
0
 10
0.0
 20
0.0
 11
17.0
 21
11.0
 12
0.0
 22
0.0
 32
0.0
 14
0.0
 24
0.0
 34
0.0
 15
0.0
 25
0.0
 35
0.0
146
0.0
 13
0.0
 23
0.0
 33
0.0
 16
1.0
 26
0.0
 36
0.0
 17
0.0
 27
1.0
 37
0.0
 76
0
330
211
345
0
346
0
  0
LAYOUT
  5
7AB
102
{ACAD_REACTORS
330
1A
102
}
100
AcDbPlotSettings
  1

  2
none_device
  4
ANSI_B_(17.00_x_11.00_Inches)
  6

 40
0.0
 41
0.0
 42
0.0
 43
0.0
 44
431.8
 45
279.4
 46
0.0
 47
0.0
 48
0.0
 49
0.0
140
0.0
141
0.0
142
1.0
143
1.0
 70
0
 72
0
 73
0
 74
0
  7

 75
0
147
1.0
148
0.0
149
0.0
100
AcDbLayout
  1
Layout1
 70
0
 71
1
 10
0.0
 20
0.0
 11
17.0
 21
11.0
 12
0.0
 22
0.0
 32
0.0
 14
0.0
 24
0.0
 34
0.0
 15
0.0
 25
0.0
 35
0.0
146
0.0
 13
0.0
 23
0.0
 33
0.0
 16
1.0
 26
0.0
 36
0.0
 17
0.0
 27
1.0
 37
0.0
 76
0
330
212
345
0
346
0
  0
ENDSEC
  0
EOF
